  0
SECTION
  2
HEADER
  9
$ACADVER
  1
AC1021
  9
$ACADMAINTVER
 70
    25
  9
$DWGCODEPAGE
  3
ANSI_932
  9
$LASTSAVEDBY
  1
howeNelson
  9
$INSBASE
 10
0.0
 20
0.0
 30
0.0
  9
$EXTMIN
 10
0.0
 20
0.0
 30
0.0
  9
$EXTMAX
 10
840.0000000000001
 20
1188.0
 30
0.0
  9
$LIMMIN
 10
0.0
 20
0.0
  9
$LIMMAX
 10
840.0000000000001
 20
1188.0
  9
$ORTHOMODE
 70
     0
  9
$REGENMODE
 70
     1
  9
$FILLMODE
 70
     1
  9
$QTEXTMODE
 70
     0
  9
$MIRRTEXT
 70
     1
  9
$LTSCALE
 40
50.8
  9
$ATTMODE
 70
     1
  9
$TEXTSIZE
 40
2.5
  9
$TRACEWID
 40
1.0
  9
$TEXTSTYLE
  7
ＭＳ ゴシック
  9
$CLAYER
  8
DIM
  9
$CELTYPE
  6
ByLayer
  9
$CECOLOR
 62
     2
  9
$CELTSCALE
 40
1.0
  9
$DISPSILH
 70
     0
  9
$DIMSCALE
 40
1.0
  9
$DIMASZ
 40
2.0
  9
$DIMEXO
 40
5.0
  9
$DIMDLI
 40
0.0
  9
$DIMRND
 40
0.0
  9
$DIMDLE
 40
0.0
  9
$DIMEXE
 40
0.0
  9
$DIMTP
 40
0.0
  9
$DIMTM
 40
0.0
  9
$DIMTXT
 40
12.0
  9
$DIMCEN
 40
0.0
  9
$DIMTSZ
 40
0.0
  9
$DIMTOL
 70
     0
  9
$DIMLIM
 70
     0
  9
$DIMTIH
 70
     0
  9
$DIMTOH
 70
     0
  9
$DIMSE1
 70
     0
  9
$DIMSE2
 70
     0
  9
$DIMTAD
 70
     1
  9
$DIMZIN
 70
    11
  9
$DIMBLK
  1
DOT
  9
$DIMASO
 70
     1
  9
$DIMSHO
 70
     1
  9
$DIMPOST
  1
<>
  9
$DIMAPOST
  1
[]
  9
$DIMALT
 70
     0
  9
$DIMALTD
 70
     1
  9
$DIMALTF
 40
1.0
  9
$DIMLFAC
 40
1.0
  9
$DIMTOFL
 70
     0
  9
$DIMTVP
 40
0.0
  9
$DIMTIX
 70
     1
  9
$DIMSOXD
 70
     0
  9
$DIMSAH
 70
     0
  9
$DIMBLK1
  1

  9
$DIMBLK2
  1

  9
$DIMSTYLE
  2
tfrom線あり
  9
$DIMCLRD
 70
     0
  9
$DIMCLRE
 70
     0
  9
$DIMCLRT
 70
     0
  9
$DIMTFAC
 40
1.0
  9
$DIMGAP
 40
10.0
  9
$DIMJUST
 70
     0
  9
$DIMSD1
 70
     0
  9
$DIMSD2
 70
     0
  9
$DIMTOLJ
 70
     1
  9
$DIMTZIN
 70
    11
  9
$DIMALTZ
 70
    11
  9
$DIMALTTZ
 70
    11
  9
$DIMUPT
 70
     0
  9
$DIMDEC
 70
     0
  9
$DIMTDEC
 70
     1
  9
$DIMALTU
 70
     2
  9
$DIMALTTD
 70
     2
  9
$DIMTXSTY
  7
ＭＳ ゴシック
  9
$DIMAUNIT
 70
     0
  9
$DIMADEC
 70
     2
  9
$DIMALTRND
 40
0.0
  9
$DIMAZIN
 70
     0
  9
$DIMDSEP
 70
    46
  9
$DIMATFIT
 70
     0
  9
$DIMFRAC
 70
     2
  9
$DIMLDRBLK
  1
DOT
  9
$DIMLUNIT
 70
     2
  9
$DIMLWD
 70
    -2
  9
$DIMLWE
 70
    -2
  9
$DIMTMOVE
 70
     0
  9
$DIMFXL
 40
1.0
  9
$DIMFXLON
 70
     0
  9
$DIMJOGANG
 40
0.7853981633974483
  9
$DIMTFILL
 70
     0
  9
$DIMTFILLCLR
 70
     0
  9
$DIMARCSYM
 70
     0
  9
$DIMLTYPE
  6

  9
$DIMLTEX1
  6

  9
$DIMLTEX2
  6

  9
$LUNITS
 70
     2
  9
$LUPREC
 70
     0
  9
$SKETCHINC
 40
0.1
  9
$FILLETRAD
 40
0.0
  9
$AUNITS
 70
     0
  9
$AUPREC
 70
     0
  9
$MENU
  1
acad
  9
$ELEVATION
 40
0.0
  9
$PELEVATION
 40
0.0
  9
$THICKNESS
 40
0.0
  9
$LIMCHECK
 70
     0
  9
$CHAMFERA
 40
0.0
  9
$CHAMFERB
 40
0.0
  9
$CHAMFERC
 40
0.0
  9
$CHAMFERD
 40
0.0
  9
$SKPOLY
 70
     0
  9
$TDCREATE
 40
2447893.375
  9
$TDUCREATE
 40
0.0
  9
$TDUPDATE
 40
2457452.684937604
  9
$TDUUPDATE
 40
2457452.309937604
  9
$TDINDWG
 40
0.1318681019
  9
$TDUSRTIMER
 40
2457452.308710208
  9
$USRTIMER
 70
     1
  9
$ANGBASE
 50
0.0
  9
$ANGDIR
 70
     0
  9
$PDMODE
 70
     1
  9
$PDSIZE
 40
-2.0
  9
$PLINEWID
 40
0.0
  9
$SPLFRAME
 70
     0
  9
$SPLINETYPE
 70
     6
  9
$SPLINESEGS
 70
     8
  9
$HANDSEED
  5
1AB3
  9
$SURFTAB1
 70
     6
  9
$SURFTAB2
 70
     6
  9
$SURFTYPE
 70
     6
  9
$SURFU
 70
     6
  9
$SURFV
 70
     6
  9
$UCSBASE
  2

  9
$UCSNAME
  2

  9
$UCSORG
 10
0.0
 20
0.0
 30
0.0
  9
$UCSXDIR
 10
1.0
 20
0.0
 30
0.0
  9
$UCSYDIR
 10
0.0
 20
1.0
 30
0.0
  9
$UCSORTHOREF
  2

  9
$UCSORTHOVIEW
 70
     0
  9
$UCSORGTOP
 10
0.0
 20
0.0
 30
0.0
  9
$UCSORGBOTTOM
 10
0.0
 20
0.0
 30
0.0
  9
$UCSORGLEFT
 10
0.0
 20
0.0
 30
0.0
  9
$UCSORGRIGHT
 10
0.0
 20
0.0
 30
0.0
  9
$UCSORGFRONT
 10
0.0
 20
0.0
 30
0.0
  9
$UCSORGBACK
 10
0.0
 20
0.0
 30
0.0
  9
$PUCSBASE
  2

  9
$PUCSNAME
  2

  9
$PUCSORG
 10
0.0
 20
0.0
 30
0.0
  9
$PUCSXDIR
 10
1.0
 20
0.0
 30
0.0
  9
$PUCSYDIR
 10
0.0
 20
1.0
 30
0.0
  9
$PUCSORTHOREF
  2

  9
$PUCSORTHOVIEW
 70
     0
  9
$PUCSORGTOP
 10
0.0
 20
0.0
 30
0.0
  9
$PUCSORGBOTTOM
 10
0.0
 20
0.0
 30
0.0
  9
$PUCSORGLEFT
 10
0.0
 20
0.0
 30
0.0
  9
$PUCSORGRIGHT
 10
0.0
 20
0.0
 30
0.0
  9
$PUCSORGFRONT
 10
0.0
 20
0.0
 30
0.0
  9
$PUCSORGBACK
 10
0.0
 20
0.0
 30
0.0
  9
$USERI1
 70
     0
  9
$USERI2
 70
     0
  9
$USERI3
 70
     0
  9
$USERI4
 70
     0
  9
$USERI5
 70
     0
  9
$USERR1
 40
0.0
  9
$USERR2
 40
0.0
  9
$USERR3
 40
0.0
  9
$USERR4
 40
0.0
  9
$USERR5
 40
0.0
  9
$WORLDVIEW
 70
     1
  9
$SHADEDGE
 70
     3
  9
$SHADEDIF
 70
    70
  9
$TILEMODE
 70
     1
  9
$MAXACTVP
 70
    64
  9
$PINSBASE
 10
0.0
 20
0.0
 30
0.0
  9
$PLIMCHECK
 70
     0
  9
$PEXTMIN
 10
0.0
 20
0.0
 30
0.0
  9
$PEXTMAX
 10
0.0
 20
0.0
 30
0.0
  9
$PLIMMIN
 10
-95.87226993865028
 20
-25.69999999999999
  9
$PLIMMAX
 10
201.1277300613497
 20
184.3
  9
$UNITMODE
 70
     0
  9
$VISRETAIN
 70
     0
  9
$PLINEGEN
 70
     1
  9
$PSLTSCALE
 70
     0
  9
$TREEDEPTH
 70
  3020
  9
$CMLSTYLE
  2
Standard
  9
$CMLJUST
 70
     0
  9
$CMLSCALE
 40
1.0
  9
$PROXYGRAPHICS
 70
     0
  9
$MEASUREMENT
 70
     1
  9
$CELWEIGHT
370
    -1
  9
$ENDCAPS
280
     0
  9
$JOINSTYLE
280
     0
  9
$LWDISPLAY
290
     1
  9
$INSUNITS
 70
     4
  9
$HYPERLINKBASE
  1

  9
$STYLESHEET
  1

  9
$XEDIT
290
     1
  9
$CEPSNTYPE
380
     0
  9
$PSTYLEMODE
290
     1
  9
$FINGERPRINTGUID
  2

  9
$VERSIONGUID
  2

  9
$EXTNAMES
290
     1
  9
$PSVPSCALE
 40
0.0
  9
$OLESTARTUP
290
     0
  9
$SORTENTS
280
   127
  9
$INDEXCTL
280
     0
  9
$HIDETEXT
280
     1
  9
$XCLIPFRAME
290
     0
  9
$HALOGAP
280
     0
  9
$OBSCOLOR
 70
   257
  9
$OBSLTYPE
280
     0
  9
$INTERSECTIONDISPLAY
280
     0
  9
$INTERSECTIONCOLOR
 70
   257
  9
$DIMASSOC
280
     2
  9
$PROJECTNAME
  1

  9
$CAMERADISPLAY
290
     0
  9
$LENSLENGTH
 40
50.0
  9
$CAMERAHEIGHT
 40
0.0
  9
$STEPSPERSEC
 40
2.0
  9
$STEPSIZE
 40
6.0
  9
$3DDWFPREC
 40
2.0
  9
$PSOLWIDTH
 40
0.25
  9
$PSOLHEIGHT
 40
4.0
  9
$LOFTANG1
 40
1.570796326794897
  9
$LOFTANG2
 40
1.570796326794897
  9
$LOFTMAG1
 40
0.0
  9
$LOFTMAG2
 40
0.0
  9
$LOFTPARAM
 70
     7
  9
$LOFTNORMALS
280
     1
  9
$LATITUDE
 40
37.795
  9
$LONGITUDE
 40
-122.394
  9
$NORTHDIRECTION
 40
0.0
  9
$TIMEZONE
 70
 -8000
  9
$LIGHTGLYPHDISPLAY
280
     1
  9
$TILEMODELIGHTSYNCH
280
     1
  9
$SOLIDHIST
280
     1
  9
$SHOWHIST
280
     1
  9
$DWFFRAME
280
     2
  9
$DGNFRAME
280
     2
  9
$REALWORLDSCALE
290
     1
  9
$INTERFERECOLOR
 62
   256
  9
$CSHADOW
280
     0
  9
$SHADOWPLANELOCATION
 40
0.0
  0
ENDSEC
  0
SECTION
  2
CLASSES
  0
CLASS
  1
LWPOLYLINE
  2
AcDbPolyline
  3
ObjectDBX Classes
 90
        0
 91
        1
280
     0
281
     1
  0
CLASS
  1
IMAGE
  2
AcDbRasterImage
  3
ISM
 90
      127
 91
        8
280
     0
281
     1
  0
CLASS
  1
OLE2FRAME
  2
AcDbOle2Frame
  3
ObjectDBX Classes
 90
        0
 91
        1
280
     0
281
     1
  0
CLASS
  1
HATCH
  2
AcDbHatch
  3
ObjectDBX Classes
 90
        0
 91
        1
280
     0
281
     1
  0
CLASS
  1
DICTIONARYVAR
  2
AcDbDictionaryVar
  3
ObjectDBX Classes
 90
        0
 91
        7
280
     0
281
     0
  0
CLASS
  1
RASTERVARIABLES
  2
AcDbRasterVariables
  3
ISM
 90
        0
 91
        7
280
     0
281
     0
  0
CLASS
  1
IMAGEDEF
  2
AcDbRasterImageDef
  3
ISM
 90
        0
 91
        7
280
     0
281
     0
  0
CLASS
  1
IMAGEDEF_REACTOR
  2
AcDbRasterImageDefReactor
  3
ISM
 90
        1
 91
        7
280
     0
281
     0
  0
CLASS
  1
IDBUFFER
  2
AcDbIdBuffer
  3
ObjectDBX Classes
 90
        0
 91
        7
280
     0
281
     0
  0
CLASS
  1
SPATIAL_FILTER
  2
AcDbSpatialFilter
  3
ObjectDBX Classes
 90
        0
 91
        7
280
     0
281
     0
  0
CLASS
  1
XRECORD
  2
AcDbXrecord
  3
ObjectDBX Classes
 90
        0
 91
        1
280
     0
281
     0
  0
CLASS
  1
SORTENTSTABLE
  2
AcDbSortentsTable
  3
ObjectDBX Classes
 90
        0
 91
        7
280
     0
281
     0
  0
CLASS
  1
LAYER_INDEX
  2
AcDbLayerIndex
  3
ObjectDBX Classes
 90
        0
 91
        7
280
     0
281
     0
  0
CLASS
  1
SPATIAL_INDEX
  2
AcDbSpatialIndex
  3
AutoCAD 2000
 90
        0
 91
        7
280
     0
281
     0
  0
CLASS
  1
OBJECT_PTR
  2
CAseDLPNTableRecord
  3
ASE-LPNTableRecord
 90
        1
 91
        7
280
     0
281
     0
  0
CLASS
  1
LAYOUT
  2
AcDbLayout
  3
ObjectDBX Classes
 90
        0
 91
        1
280
     0
281
     0
  0
CLASS
  1
PLOTSETTINGS
  2
AcDbPlotSettings
  3
ObjectDBX Classes
 90
        0
 91
        7
280
     0
281
     0
  0
CLASS
  1
ACDBDICTIONARYWDFLT
  2
AcDbDictionaryWithDefault
  3
ObjectDBX Classes
 90
        0
 91
        7
280
     0
281
     0
  0
CLASS
  1
ACDBPLACEHOLDER
  2
AcDbPlaceHolder
  3
ObjectDBX Classes
 90
        0
 91
        1
280
     0
281
     0
  0
CLASS
  1
SCALE
  2
AcDbScale
  3
ObjectDBX Classes
 90
     1153
 91
        7
280
     0
281
     0
  0
CLASS
  1
MATERIAL
  2
AcDbMaterial
  3
ObjectDBX Classes
 90
     1153
 91
        7
280
     0
281
     0
  0
CLASS
  1
VISUALSTYLE
  2
AcDbVisualStyle
  3
ObjectDBX Classes
 90
     4095
 91
        7
280
     0
281
     0
  0
CLASS
  1
TABLESTYLE
  2
AcDbTableStyle
  3
ObjectDBX Classes
 90
     4095
 91
        7
280
     0
281
     0
  0
CLASS
  1
DIMASSOC
  2
AcDbDimAssoc
  3
"AcDbDimAssoc|Product Desc:     AcDim ARX App For Dimension|Company:          Autodesk, Inc.|WEB Address:      www.autodesk.com"
 90
        0
 91
        7
280
     0
281
     0
  0
CLASS
  1
CELLSTYLEMAP
  2
AcDbCellStyleMap
  3
ObjectDBX Classes
 90
     1152
 91
        7
280
     0
281
     0
  0
CLASS
  1
SUN
  2
AcDbSun
  3
SCENEOE
 90
     1153
 91
        7
280
     0
281
     0
  0
CLASS
  1
MLEADERSTYLE
  2
AcDbMLeaderStyle
  3
ACDB_MLEADERSTYLE_CLASS
 90
     4095
 91
        7
280
     0
281
     0
  0
ENDSEC
  0
SECTION
  2
TABLES
  0
TABLE
  2
VPORT
  5
7
330
0
100
AcDbSymbolTable
 70
     1
  0
VPORT
  5
15
330
7
100
AcDbSymbolTableRecord
100
AcDbViewportTableRecord
  2
*ACTIVE
 70
     0
 10
0.0
 20
0.0
 11
1.0
 21
1.0
 12
511.020135670901
 22
520.401285469834
 13
0.0
 23
0.0
 14
1.0
 24
1.0
 15
0.0
 25
0.0
 16
0.0
 26
0.0
 36
1.0
 17
-91.02013567090097
 27
73.59871453016603
 37
-46.86809886248109
 40
1211.76
 41
2.429403202328967
 42
50.0
 43
0.0
 44
0.0
 50
0.0
 51
0.0
 71
    16
 72
  2000
 73
     1
 74
     1
 75
     0
 76
     0
 77
     0
 78
     0
281
     0
 65
     1
110
0.0
120
0.0
130
0.0
111
1.0
121
0.0
131
0.0
112
0.0
122
1.0
132
0.0
 79
     0
146
0.0
348
26C
 60
     3
 61
     5
292
     1
282
     1
141
0.0
142
0.0
 63
   256
361
904
  0
ENDTAB
  0
TABLE
  2
LTYPE
  5
4
330
0
100
AcDbSymbolTable
 70
     3
  0
LTYPE
  5
11
330
4
100
AcDbSymbolTableRecord
100
AcDbLinetypeTableRecord
  2
ByBlock
 70
     0
  3

 72
    65
 73
     0
 40
0.0
  0
LTYPE
  5
12
330
4
100
AcDbSymbolTableRecord
100
AcDbLinetypeTableRecord
  2
ByLayer
 70
     0
  3

 72
    65
 73
     0
 40
0.0
  0
LTYPE
  5
13
330
4
100
AcDbSymbolTableRecord
100
AcDbLinetypeTableRecord
  2
Continuous
 70
     0
  3
Solid line
 72
    65
 73
     0
 40
0.0
  0
LTYPE
  5
16E2
330
4
100
AcDbSymbolTableRecord
100
AcDbLinetypeTableRecord
  2
HIDDEN
 70
     0
  3
Hidden _ _ _ _ _ _ _ _ _ _ _ _ _ _ _ _ _ _ _ _ 
 72
    65
 73
     2
 40
9.524999999999999
 49
6.35
 74
     0
 49
-3.175
 74
     0
  0
LTYPE
  5
16E4
330
4
100
AcDbSymbolTableRecord
100
AcDbLinetypeTableRecord
  2
CENTER
 70
     0
  3
 Center _____  _  _____  _  _____  _  _____  _ 
 72
    65
 73
     4
 40
50.8
 49
31.75
 74
     0
 49
-6.35
 74
     0
 49
6.35
 74
     0
 49
-6.35
 74
     0
  0
ENDTAB
  0
TABLE
  2
LAYER
  5
2
102
{ACAD_XDICTIONARY
360
2E1
102
}
330
0
100
AcDbSymbolTable
 70
     8
  0
LAYER
  5
14
330
2
100
AcDbSymbolTableRecord
100
AcDbLayerTableRecord
  2
0
 70
     0
 62
     7
  6
Continuous
370
    -3
390
1D
347
266
  0
LAYER
  5
4B
330
2
100
AcDbSymbolTableRecord
100
AcDbLayerTableRecord
  2
TEMPLATE
 70
     0
 62
     7
  6
Continuous
370
    20
390
1D
347
266
  0
LAYER
  5
4C
330
2
100
AcDbSymbolTableRecord
100
AcDbLayerTableRecord
  2
DIM
 70
     0
 62
     7
  6
Continuous
370
    13
390
1D
347
266
  0
LAYER
  5
4D
330
2
100
AcDbSymbolTableRecord
100
AcDbLayerTableRecord
  2
MODEL
 70
     0
 62
     7
  6
Continuous
370
    20
390
1D
347
266
  0
LAYER
  5
667
330
2
100
AcDbSymbolTableRecord
100
AcDbLayerTableRecord
  2
LOGO
 70
     0
 62
     7
  6
Continuous
370
    -3
390
1D
347
266
  0
LAYER
  5
DDE
330
2
100
AcDbSymbolTableRecord
100
AcDbLayerTableRecord
  2
Defpoints
 70
     0
 62
     7
  6
Continuous
290
     0
370
    -3
390
1D
347
266
  0
LAYER
  5
E72
330
2
100
AcDbSymbolTableRecord
100
AcDbLayerTableRecord
  2
Standard
 70
     0
 62
     7
  6
Continuous
370
    -3
390
1D
347
266
  0
LAYER
  5
19F1
330
2
100
AcDbSymbolTableRecord
100
AcDbLayerTableRecord
  2
PRINT
 70
     0
 62
     4
  6
Continuous
290
     0
370
    20
390
1D
347
266
1001
AcAecLayerStandard
1000

1000

  0
ENDTAB
  0
TABLE
  2
STYLE
  5
3
330
0
100
AcDbSymbolTable
 70
     2
  0
STYLE
  5
17
330
3
100
AcDbSymbolTableRecord
100
AcDbTextStyleTableRecord
  2
Standard
 70
     0
 40
0.0
 41
1.0
 50
0.0
 71
     0
 42
2.5
  3
txt
  4
BIGFONT.SHX
  0
STYLE
  5
39
330
3
100
AcDbSymbolTableRecord
100
AcDbTextStyleTableRecord
  2
ＭＳ ゴシック
 70
     0
 40
0.0
 41
1.0
 50
0.0
 71
     0
 42
2.5
  3
msgothic.ttc
  4
ＭＳ ゴシック
1001
ACAD
1000
ＭＳ ゴシック
1071
        0
  0
ENDTAB
  0
TABLE
  2
VIEW
  5
5
330
0
100
AcDbSymbolTable
 70
     0
  0
ENDTAB
  0
TABLE
  2
UCS
  5
6
330
0
100
AcDbSymbolTable
 70
     0
  0
ENDTAB
  0
TABLE
  2
APPID
  5
8
330
0
100
AcDbSymbolTable
 70
     3
  0
APPID
  5
16
330
8
100
AcDbSymbolTableRecord
100
AcDbRegAppTableRecord
  2
ACAD
 70
     0
  0
APPID
  5
7AC
330
8
100
AcDbSymbolTableRecord
100
AcDbRegAppTableRecord
  2
AcAecLayerStandard
 70
     0
  0
APPID
  5
1AAF
330
8
100
AcDbSymbolTableRecord
100
AcDbRegAppTableRecord
  2
ACAD_MLEADERVER
 70
     0
  0
ENDTAB
  0
TABLE
  2
DIMSTYLE
  5
9
330
0
100
AcDbSymbolTable
 70
     2
100
AcDbDimStyleTable
  0
DIMSTYLE
105
18
330
9
100
AcDbSymbolTableRecord
100
AcDbDimStyleTableRecord
  2
Standard
 70
     0
178
     0
340
17
  0
DIMSTYLE
105
57
102
{ACAD_REACTORS
330
160E
330
1610
330
1752
330
1761
330
1770
330
177F
330
178D
330
179F
330
17B9
330
186A
330
18AB
102
}
330
9
100
AcDbSymbolTableRecord
100
AcDbDimStyleTableRecord
  2
tfrom線あり
 70
     0
  3
<>
  4
[]
 41
2.0
 42
5.0
 43
0.0
 44
0.0
 73
     0
 74
     0
 77
     1
 78
    11
140
12.0
141
0.0
143
1.0
147
10.0
171
     1
174
     1
178
     0
179
     2
271
     0
272
     1
276
     2
284
    11
285
    11
286
    11
289
     0
340
39
341
4E
342
4E
  0
ENDTAB
  0
TABLE
  2
BLOCK_RECORD
  5
1
330
0
100
AcDbSymbolTable
 70
    19
  0
BLOCK_RECORD
  5
A
330
1
100
AcDbSymbolTableRecord
100
AcDbBlockTableRecord
  2
*MODEL_SPACE
340
20
 70
     0
280
     1
281
     0
  0
BLOCK_RECORD
  5
B
330
1
100
AcDbSymbolTableRecord
100
AcDbBlockTableRecord
  2
*PAPER_SPACE
340
21
 70
     0
280
     1
281
     0
  0
BLOCK_RECORD
  5
4E
330
1
100
AcDbSymbolTableRecord
100
AcDbBlockTableRecord
  2
_DOT
340
0
102
{BLKREFS
331
163D
331
163E
331
1656
331
1657
331
175B
331
175C
331
176A
331
176B
331
1779
331
177A
331
1786
331
1787
331
1797
331
1798
331
17A6
331
17A7
331
17C3
331
17C4
331
17D5
331
17D6
331
18B2
331
18B3
102
}
 70
     0
280
     1
281
     0
  0
BLOCK_RECORD
  5
68A
330
1
100
AcDbSymbolTableRecord
100
AcDbBlockTableRecord
  2
名称未設定-1
340
0
102
{BLKREFS
331
6B5
102
}
 70
     1
280
     1
281
     0
  0
BLOCK_RECORD
  5
68D
330
1
100
AcDbSymbolTableRecord
100
AcDbBlockTableRecord
  2
block 2
340
0
102
{BLKREFS
331
68C
102
}
 70
     0
280
     1
281
     0
  0
BLOCK_RECORD
  5
690
330
1
100
AcDbSymbolTableRecord
100
AcDbBlockTableRecord
  2
block 3
340
0
102
{BLKREFS
331
68F
102
}
 70
     0
280
     1
281
     0
  0
BLOCK_RECORD
  5
693
330
1
100
AcDbSymbolTableRecord
100
AcDbBlockTableRecord
  2
block 4
340
0
102
{BLKREFS
331
692
102
}
 70
     0
280
     1
281
     0
  0
BLOCK_RECORD
  5
6A2
330
1
100
AcDbSymbolTableRecord
100
AcDbBlockTableRecord
  2
block 5
340
0
102
{BLKREFS
331
6A1
102
}
 70
     0
280
     1
281
     0
  0
BLOCK_RECORD
  5
10EC
330
1
100
AcDbSymbolTableRecord
100
AcDbBlockTableRecord
  2
SE
340
0
102
{BLKREFS
331
150C
102
}
 70
     0
280
     1
281
     0
  0
BLOCK_RECORD
  5
1637
330
1
100
AcDbSymbolTableRecord
100
AcDbBlockTableRecord
  2
*D7
340
0
 70
     0
280
     1
281
     0
  0
BLOCK_RECORD
  5
1650
330
1
100
AcDbSymbolTableRecord
100
AcDbBlockTableRecord
  2
*D8
340
0
 70
     0
280
     1
281
     0
  0
BLOCK_RECORD
  5
1755
330
1
100
AcDbSymbolTableRecord
100
AcDbBlockTableRecord
  2
*D9
340
0
 70
     0
280
     1
281
     0
  0
BLOCK_RECORD
  5
1764
330
1
100
AcDbSymbolTableRecord
100
AcDbBlockTableRecord
  2
*D10
340
0
 70
     0
280
     1
281
     0
  0
BLOCK_RECORD
  5
1773
330
1
100
AcDbSymbolTableRecord
100
AcDbBlockTableRecord
  2
*D11
340
0
 70
     0
280
     1
281
     0
  0
BLOCK_RECORD
  5
1780
330
1
100
AcDbSymbolTableRecord
100
AcDbBlockTableRecord
  2
*D12
340
0
 70
     0
280
     1
281
     0
  0
BLOCK_RECORD
  5
1790
330
1
100
AcDbSymbolTableRecord
100
AcDbBlockTableRecord
  2
*D13
340
0
 70
     0
280
     1
281
     0
  0
BLOCK_RECORD
  5
17A0
330
1
100
AcDbSymbolTableRecord
100
AcDbBlockTableRecord
  2
*D14
340
0
 70
     0
280
     1
281
     0
  0
BLOCK_RECORD
  5
17BC
330
1
100
AcDbSymbolTableRecord
100
AcDbBlockTableRecord
  2
*D15
340
0
 70
     0
280
     1
281
     0
  0
BLOCK_RECORD
  5
17CE
330
1
100
AcDbSymbolTableRecord
100
AcDbBlockTableRecord
  2
*D16
340
0
 70
     0
280
     1
281
     0
  0
BLOCK_RECORD
  5
18AC
330
1
100
AcDbSymbolTableRecord
100
AcDbBlockTableRecord
  2
*D17
340
0
 70
     0
280
     1
281
     0
  0
ENDTAB
  0
ENDSEC
  0
SECTION
  2
BLOCKS
  0
BLOCK
  5
D
330
A
100
AcDbEntity
  8
0
390
1D
100
AcDbBlockBegin
  2
*MODEL_SPACE
 70
     0
 10
0.0
 20
0.0
 30
0.0
  3
*MODEL_SPACE
  1
*MODEL_SPACE
  0
ENDBLK
  5
E
330
A
100
AcDbEntity
  8
0
390
1D
100
AcDbBlockEnd
  0
BLOCK
  5
F
330
B
100
AcDbEntity
 67
     1
  8
0
390
1D
100
AcDbBlockBegin
  2
*PAPER_SPACE
 70
     0
 10
0.0
 20
0.0
 30
0.0
  3
*PAPER_SPACE
  1
*PAPER_SPACE
  0
ENDBLK
  5
10
330
B
100
AcDbEntity
 67
     1
  8
0
390
1D
100
AcDbBlockEnd
  0
BLOCK
  5
1A05
330
4E
100
AcDbEntity
  8
0
390
1D
100
AcDbBlockBegin
  2
_DOT
 70
     0
 10
0.0
 20
0.0
 30
0.0
  3
_DOT
  1
_DOT
  0
POLYLINE
  5
1A07
330
4E
100
AcDbEntity
  8
0
  6
ByBlock
 62
     0
370
    -2
390
1D
100
AcDb2dPolyline
 66
     1
 10
0.0
 20
0.0
 30
0.0
 70
     1
 40
0.5
 41
0.5
  0
VERTEX
  5
1A08
330
1A07
100
AcDbEntity
  8
0
  6
ByBlock
 62
     0
370
    -2
390
1D
100
AcDbVertex
100
AcDb2dVertex
 10
-0.25
 20
0.0
 30
0.0
 42
1.0
  0
VERTEX
  5
1A09
330
1A07
100
AcDbEntity
  8
0
  6
ByBlock
 62
     0
370
    -2
390
1D
100
AcDbVertex
100
AcDb2dVertex
 10
0.25
 20
0.0
 30
0.0
 42
1.0
  0
SEQEND
  5
1A0A
330
1A07
100
AcDbEntity
  8
0
390
1D
  0
LINE
  5
1A0B
330
4E
100
AcDbEntity
  8
0
  6
ByBlock
 62
     0
370
    -2
390
1D
100
AcDbLine
 10
-0.5
 20
0.0
 30
0.0
 11
-1.0
 21
0.0
 31
0.0
  0
ENDBLK
  5
1A0C
330
4E
100
AcDbEntity
  8
0
390
1D
100
AcDbBlockEnd
  0
BLOCK
  5
68B
330
68A
100
AcDbEntity
  8
0
100
AcDbBlockBegin
  2
名称未設定-1
 70
     0
 10
0.0
 20
0.0
 30
0.0
  3
名称未設定-1
  1
名称未設定-1
  0
INSERT
  5
68F
330
68A
100
AcDbEntity
  8
LOGO
100
AcDbBlockReference
  2
block 3
 10
0.0
 20
0.0
 30
0.0
  0
ENDBLK
  5
6B1
330
68A
100
AcDbEntity
  8
0
100
AcDbBlockEnd
  0
BLOCK
  5
68E
330
68D
100
AcDbEntity
  8
0
100
AcDbBlockBegin
  2
block 2
 70
     0
 10
0.0
 20
0.0
 30
0.0
  3
block 2
  1
block 2
  0
ENDBLK
  5
6B0
330
68D
100
AcDbEntity
  8
0
100
AcDbBlockEnd
  0
BLOCK
  5
691
330
690
100
AcDbEntity
  8
0
100
AcDbBlockBegin
  2
block 3
 70
     0
 10
0.0
 20
0.0
 30
0.0
  3
block 3
  1
block 3
  0
INSERT
  5
692
330
690
100
AcDbEntity
  8
LOGO
100
AcDbBlockReference
  2
block 4
 10
0.0
 20
0.0
 30
0.0
  0
INSERT
  5
6A1
330
690
100
AcDbEntity
  8
LOGO
100
AcDbBlockReference
  2
block 5
 10
0.0
 20
0.0
 30
0.0
  0
ENDBLK
  5
6AF
330
690
100
AcDbEntity
  8
0
100
AcDbBlockEnd
  0
BLOCK
  5
694
330
693
100
AcDbEntity
  8
0
100
AcDbBlockBegin
  2
block 4
 70
     0
 10
0.0
 20
0.0
 30
0.0
  3
block 4
  1
block 4
  0
POLYLINE
  5
695
330
693
100
AcDbEntity
  8
LOGO
370
     0
100
AcDb2dPolyline
 66
     1
 10
0.0
 20
0.0
 30
0.0
  0
VERTEX
  5
696
330
695
100
AcDbEntity
  8
LOGO
370
     0
100
AcDbVertex
100
AcDb2dVertex
 10
83.79545727667795
 20
167.6444858234922
 30
0.0
  0
VERTEX
  5
697
330
695
100
AcDbEntity
  8
LOGO
370
     0
100
AcDbVertex
100
AcDb2dVertex
 10
83.79545727667795
 20
159.7968976406313
 30
0.0
  0
VERTEX
  5
698
330
695
100
AcDbEntity
  8
LOGO
370
     0
100
AcDbVertex
100
AcDb2dVertex
 10
71.3631329975216
 20
159.7968976406313
 30
0.0
  0
VERTEX
  5
699
330
695
100
AcDbEntity
  8
LOGO
370
     0
100
AcDbVertex
100
AcDb2dVertex
 10
71.3631329975216
 20
127.8027915271048
 30
0.0
  0
VERTEX
  5
69A
330
695
100
AcDbEntity
  8
LOGO
370
     0
100
AcDbVertex
100
AcDb2dVertex
 10
60.43011526263018
 20
127.8027915271048
 30
0.0
  0
VERTEX
  5
69B
330
695
100
AcDbEntity
  8
LOGO
370
     0
100
AcDbVertex
100
AcDb2dVertex
 10
60.43011526263018
 20
159.7968976406313
 30
0.0
  0
VERTEX
  5
69C
330
695
100
AcDbEntity
  8
LOGO
370
     0
100
AcDbVertex
100
AcDb2dVertex
 10
48.21793273020759
 20
159.7968976406313
 30
0.0
  0
VERTEX
  5
69D
330
695
100
AcDbEntity
  8
LOGO
370
     0
100
AcDbVertex
100
AcDb2dVertex
 10
48.21793273020759
 20
167.6444858234922
 30
0.0
  0
VERTEX
  5
69E
330
695
100
AcDbEntity
  8
LOGO
370
     0
100
AcDbVertex
100
AcDb2dVertex
 10
83.79545727667795
 20
167.6444858234922
 30
0.0
  0
SEQEND
  5
69F
330
695
100
AcDbEntity
  8
LOGO
370
     0
  0
HATCH
  5
6A0
330
693
100
AcDbEntity
  8
LOGO
 62
   250
420
  2234388
100
AcDbHatch
 10
0.0
 20
0.0
 30
0.0
210
0.0
220
0.0
230
1.0
  2
SOLID
 70
     1
 71
     0
 91
        1
 92
        1
 93
        8
 72
     1
 10
83.79545727667795
 20
167.6444858234922
 11
83.79545727667795
 21
159.7968976406313
 72
     1
 10
83.79545727667795
 20
159.7968976406313
 11
71.3631329975216
 21
159.7968976406313
 72
     1
 10
71.3631329975216
 20
159.7968976406313
 11
71.3631329975216
 21
127.8027915271048
 72
     1
 10
71.3631329975216
 20
127.8027915271048
 11
60.43011526263018
 21
127.8027915271048
 72
     1
 10
60.43011526263018
 20
127.8027915271048
 11
60.43011526263018
 21
159.7968976406313
 72
     1
 10
60.43011526263018
 20
159.7968976406313
 11
48.21793273020759
 21
159.7968976406313
 72
     1
 10
48.21793273020759
 20
159.7968976406313
 11
48.21793273020759
 21
167.6444858234922
 72
     1
 10
48.21793273020759
 20
167.6444858234922
 11
83.79545727667795
 21
167.6444858234922
 97
        0
 75
     2
 76
     1
 98
        0
  0
ENDBLK
  5
6AE
330
693
100
AcDbEntity
  8
0
100
AcDbBlockEnd
  0
BLOCK
  5
6A3
330
6A2
100
AcDbEntity
  8
0
100
AcDbBlockBegin
  2
block 5
 70
     0
 10
0.0
 20
0.0
 30
0.0
  3
block 5
  1
block 5
  0
SPLINE
  5
6A4
330
6A2
100
AcDbEntity
  8
LOGO
370
     0
100
AcDbSpline
210
0.0
220
0.0
230
1.0
 70
    11
 71
     3
 72
    56
 73
    52
 74
     0
 42
0.000000001
 43
0.0000000001
 40
0.0
 40
0.0
 40
0.0
 40
0.0
 40
1.0
 40
1.0
 40
1.0
 40
2.0
 40
2.0
 40
2.0
 40
3.0
 40
3.0
 40
3.0
 40
4.0
 40
4.0
 40
4.0
 40
5.0
 40
5.0
 40
5.0
 40
6.0
 40
6.0
 40
6.0
 40
7.0
 40
7.0
 40
7.0
 40
8.0
 40
8.0
 40
8.0
 40
9.0
 40
9.0
 40
9.0
 40
10.0
 40
10.0
 40
10.0
 40
11.0
 40
11.0
 40
11.0
 40
12.0
 40
12.0
 40
12.0
 40
13.0
 40
13.0
 40
13.0
 40
14.0
 40
14.0
 40
14.0
 40
15.0
 40
15.0
 40
15.0
 40
16.0
 40
16.0
 40
16.0
 40
17.0
 40
17.0
 40
17.0
 40
17.0
 10
100.4504378777679
 20
166.69157178364
 30
0.0
 10
101.9848844191641
 20
167.1313385124438
 30
0.0
 10
103.9637485713373
 20
166.7649523658846
 30
0.0
 10
103.9637485713373
 20
166.7649523658846
 30
0.0
 10
103.9637485713373
 20
166.7649523658846
 30
0.0
 10
103.0132460999156
 20
163.911205638077
 30
0.0
 10
103.0132460999156
 20
163.911205638077
 30
0.0
 10
103.0132460999156
 20
163.911205638077
 30
0.0
 10
101.0674548862189
 20
164.3601018759394
 30
0.0
 10
99.57090442016032
 20
163.1805004036133
 30
0.0
 10
98.40508333886608
 20
162.258247733807
 30
0.0
 10
97.65301849830304
 20
159.804132345923
 30
0.0
 10
97.3598406791005
 20
158.8699940888517
 30
0.0
 10
97.3598406791005
 20
158.8699940888517
 30
0.0
 10
96.07137411762282
 20
154.9119212747295
 30
0.0
 10
96.07137411762282
 20
154.9119212747295
 30
0.0
 10
96.07137411762282
 20
154.9119212747295
 30
0.0
 10
100.3012651448482
 20
154.9119212747295
 30
0.0
 10
100.3012651448482
 20
154.9119212747295
 30
0.0
 10
100.3012651448482
 20
154.9119212747295
 30
0.0
 10
99.64152892419852
 20
152.4199098115079
 30
0.0
 10
99.64152892419852
 20
152.4199098115079
 30
0.0
 10
99.64152892419852
 20
152.4199098115079
 30
0.0
 10
95.38097652692731
 20
152.4199098115079
 30
0.0
 10
95.38097652692731
 20
152.4199098115079
 30
0.0
 10
95.38097652692731
 20
152.4199098115079
 30
0.0
 10
87.75353009080013
 20
127.8027915271048
 30
0.0
 10
87.75353009080013
 20
127.8027915271048
 30
0.0
 10
87.75353009080013
 20
127.8027915271048
 30
0.0
 10
85.36538832498108
 20
127.8027915271048
 30
0.0
 10
85.36538832498108
 20
127.8027915271048
 30
0.0
 10
85.36538832498108
 20
127.8027915271048
 30
0.0
 10
93.00006946639998
 20
152.4199098115079
 30
0.0
 10
93.00006946639998
 20
152.4199098115079
 30
0.0
 10
93.00006946639998
 20
152.4199098115079
 30
0.0
 10
89.85297266450198
 20
152.4199098115079
 30
0.0
 10
89.85297266450198
 20
152.4199098115079
 30
0.0
 10
89.85297266450198
 20
152.4199098115079
 30
0.0
 10
90.51270888515164
 20
154.9119212747295
 30
0.0
 10
90.51270888515164
 20
154.9119212747295
 30
0.0
 10
90.51270888515164
 20
154.9119212747295
 30
0.0
 10
93.6904670570955
 20
154.9119212747295
 30
0.0
 10
93.6904670570955
 20
154.9119212747295
 30
0.0
 10
93.6904670570955
 20
154.9119212747295
 30
0.0
 10
94.81598049462158
 20
158.3616699146644
 30
0.0
 10
94.81598049462158
 20
158.3616699146644
 30
0.0
 10
95.7237637538445
 20
161.2605474231013
 30
0.0
 10
96.4968436907311
 20
162.8139420021662
 30
0.0
 10
97.15657991138076
 20
163.9844139654337
 30
0.0
 10
97.81183750494507
 20
165.1523021053827
 30
0.0
 10
99.1047826935081
 20
166.3084769129547
 30
0.0
 10
100.4504378777679
 20
166.69157178364
 30
0.0
  0
HATCH
  5
6A5
330
6A2
100
AcDbEntity
  8
LOGO
 62
   250
420
  2234388
100
AcDbHatch
 10
0.0
 20
0.0
 30
0.0
210
0.0
220
0.0
230
1.0
  2
SOLID
 70
     1
 71
     0
 91
        1
 92
        1
 93
        1
 72
     4
 94
        3
 73
     0
 74
     1
 95
       56
 96
       52
 40
0.0
 40
0.0
 40
0.0
 40
0.0
 40
1.0
 40
1.0
 40
1.0
 40
2.0
 40
2.0
 40
2.0
 40
3.0
 40
3.0
 40
3.0
 40
4.0
 40
4.0
 40
4.0
 40
5.0
 40
5.0
 40
5.0
 40
6.0
 40
6.0
 40
6.0
 40
7.0
 40
7.0
 40
7.0
 40
8.0
 40
8.0
 40
8.0
 40
9.0
 40
9.0
 40
9.0
 40
10.0
 40
10.0
 40
10.0
 40
11.0
 40
11.0
 40
11.0
 40
12.0
 40
12.0
 40
12.0
 40
13.0
 40
13.0
 40
13.0
 40
14.0
 40
14.0
 40
14.0
 40
15.0
 40
15.0
 40
15.0
 40
16.0
 40
16.0
 40
16.0
 40
17.0
 40
17.0
 40
17.0
 40
17.0
 10
100.4504378777679
 20
166.69157178364
 10
101.9848844191641
 20
167.1313385124438
 10
103.9637485713373
 20
166.7649523658846
 10
103.9637485713373
 20
166.7649523658846
 10
103.9637485713373
 20
166.7649523658846
 10
103.0132460999156
 20
163.911205638077
 10
103.0132460999156
 20
163.911205638077
 10
103.0132460999156
 20
163.911205638077
 10
101.0674548862189
 20
164.3601018759394
 10
99.57090442016032
 20
163.1805004036133
 10
98.40508333886608
 20
162.258247733807
 10
97.65301849830304
 20
159.804132345923
 10
97.3598406791005
 20
158.8699940888517
 10
97.3598406791005
 20
158.8699940888517
 10
96.07137411762282
 20
154.9119212747295
 10
96.07137411762282
 20
154.9119212747295
 10
96.07137411762282
 20
154.9119212747295
 10
100.3012651448482
 20
154.9119212747295
 10
100.3012651448482
 20
154.9119212747295
 10
100.3012651448482
 20
154.9119212747295
 10
99.64152892419852
 20
152.4199098115079
 10
99.64152892419852
 20
152.4199098115079
 10
99.64152892419852
 20
152.4199098115079
 10
95.38097652692731
 20
152.4199098115079
 10
95.38097652692731
 20
152.4199098115079
 10
95.38097652692731
 20
152.4199098115079
 10
87.75353009080013
 20
127.8027915271048
 10
87.75353009080013
 20
127.8027915271048
 10
87.75353009080013
 20
127.8027915271048
 10
85.36538832498108
 20
127.8027915271048
 10
85.36538832498108
 20
127.8027915271048
 10
85.36538832498108
 20
127.8027915271048
 10
93.00006946639998
 20
152.4199098115079
 10
93.00006946639998
 20
152.4199098115079
 10
93.00006946639998
 20
152.4199098115079
 10
89.85297266450198
 20
152.4199098115079
 10
89.85297266450198
 20
152.4199098115079
 10
89.85297266450198
 20
152.4199098115079
 10
90.51270888515164
 20
154.9119212747295
 10
90.51270888515164
 20
154.9119212747295
 10
90.51270888515164
 20
154.9119212747295
 10
93.6904670570955
 20
154.9119212747295
 10
93.6904670570955
 20
154.9119212747295
 10
93.6904670570955
 20
154.9119212747295
 10
94.81598049462158
 20
158.3616699146644
 10
94.81598049462158
 20
158.3616699146644
 10
95.7237637538445
 20
161.2605474231013
 10
96.4968436907311
 20
162.8139420021662
 10
97.15657991138076
 20
163.9844139654337
 10
97.81183750494507
 20
165.1523021053827
 10
99.1047826935081
 20
166.3084769129547
 10
100.4504378777679
 20
166.69157178364
 97
        0
 75
     2
 76
     1
 98
        0
  0
SPLINE
  5
6A6
330
6A2
100
AcDbEntity
  8
LOGO
370
     0
100
AcDbSpline
210
0.0
220
0.0
230
1.0
 70
    11
 71
     3
 72
    38
 73
    34
 74
     0
 42
0.000000001
 43
0.0000000001
 40
0.0
 40
0.0
 40
0.0
 40
0.0
 40
1.0
 40
1.0
 40
1.0
 40
2.0
 40
2.0
 40
2.0
 40
3.0
 40
3.0
 40
3.0
 40
4.0
 40
4.0
 40
4.0
 40
5.0
 40
5.0
 40
5.0
 40
6.0
 40
6.0
 40
6.0
 40
7.0
 40
7.0
 40
7.0
 40
8.0
 40
8.0
 40
8.0
 40
9.0
 40
9.0
 40
9.0
 40
10.0
 40
10.0
 40
10.0
 40
11.0
 40
11.0
 40
11.0
 40
11.0
 10
126.377554584636
 20
154.8151140277308
 30
0.0
 10
126.377554584636
 20
154.8151140277308
 30
0.0
 10
128.8311532078563
 20
154.8151140277308
 30
0.0
 10
128.8311532078563
 20
154.8151140277308
 30
0.0
 10
128.8311532078563
 20
154.8151140277308
 30
0.0
 10
127.7345785914971
 20
151.3062819612468
 30
0.0
 10
127.7345785914971
 20
151.3062819612468
 30
0.0
 10
128.571392836906
 20
152.2922689395754
 30
0.0
 10
129.8860421413442
 20
153.604506675583
 30
0.0
 10
131.0163787157314
 20
154.2664822097754
 30
0.0
 10
132.7044766171327
 20
155.2500576196734
 30
0.0
 10
133.6642808525008
 20
155.3847609420097
 30
0.0
 10
134.7284715499351
 20
155.3565111403944
 30
0.0
 10
134.7284715499351
 20
155.3565111403944
 30
0.0
 10
133.6877075172549
 20
152.0345756272799
 30
0.0
 10
133.6877075172549
 20
152.0345756272799
 30
0.0
 10
133.011434827367
 20
152.3184516825359
 30
0.0
 10
130.930940291334
 20
151.7768823149844
 30
0.0
 10
129.739280976855
 20
150.9162968950455
 30
0.0
 10
128.66613302525
 20
150.1454562717016
 30
0.0
 10
127.9192358313239
 20
149.4857200510519
 30
0.0
 10
127.0393578639405
 20
147.8282835196966
 30
0.0
 10
126.164647543194
 20
146.1699857139017
 30
0.0
 10
125.4742499524985
 20
143.5262176944419
 30
0.0
 10
124.2822461282437
 20
139.6959580071401
 30
0.0
 10
124.2822461282437
 20
139.6959580071401
 30
0.0
 10
120.5753209406769
 20
127.8027915271048
 30
0.0
 10
120.5753209406769
 20
127.8027915271048
 30
0.0
 10
120.5753209406769
 20
127.8027915271048
 30
0.0
 10
118.1964809388044
 20
127.8027915271048
 30
0.0
 10
118.1964809388044
 20
127.8027915271048
 30
0.0
 10
118.1964809388044
 20
127.8027915271048
 30
0.0
 10
126.377554584636
 20
154.8151140277308
 30
0.0
 10
126.377554584636
 20
154.8151140277308
 30
0.0
  0
HATCH
  5
6A7
330
6A2
100
AcDbEntity
  8
LOGO
 62
   250
420
  2234388
100
AcDbHatch
 10
0.0
 20
0.0
 30
0.0
210
0.0
220
0.0
230
1.0
  2
SOLID
 70
     1
 71
     0
 91
        1
 92
        1
 93
        1
 72
     4
 94
        3
 73
     0
 74
     1
 95
       38
 96
       34
 40
0.0
 40
0.0
 40
0.0
 40
0.0
 40
1.0
 40
1.0
 40
1.0
 40
2.0
 40
2.0
 40
2.0
 40
3.0
 40
3.0
 40
3.0
 40
4.0
 40
4.0
 40
4.0
 40
5.0
 40
5.0
 40
5.0
 40
6.0
 40
6.0
 40
6.0
 40
7.0
 40
7.0
 40
7.0
 40
8.0
 40
8.0
 40
8.0
 40
9.0
 40
9.0
 40
9.0
 40
10.0
 40
10.0
 40
10.0
 40
11.0
 40
11.0
 40
11.0
 40
11.0
 10
126.377554584636
 20
154.8151140277308
 10
126.377554584636
 20
154.8151140277308
 10
128.8311532078563
 20
154.8151140277308
 10
128.8311532078563
 20
154.8151140277308
 10
128.8311532078563
 20
154.8151140277308
 10
127.7345785914971
 20
151.3062819612468
 10
127.7345785914971
 20
151.3062819612468
 10
128.571392836906
 20
152.2922689395754
 10
129.8860421413442
 20
153.604506675583
 10
131.0163787157314
 20
154.2664822097754
 10
132.7044766171327
 20
155.2500576196734
 10
133.6642808525008
 20
155.3847609420097
 10
134.7284715499351
 20
155.3565111403944
 10
134.7284715499351
 20
155.3565111403944
 10
133.6877075172549
 20
152.0345756272799
 10
133.6877075172549
 20
152.0345756272799
 10
133.011434827367
 20
152.3184516825359
 10
130.930940291334
 20
151.7768823149844
 10
129.739280976855
 20
150.9162968950455
 10
128.66613302525
 20
150.1454562717016
 10
127.9192358313239
 20
149.4857200510519
 10
127.0393578639405
 20
147.8282835196966
 10
126.164647543194
 20
146.1699857139017
 10
125.4742499524985
 20
143.5262176944419
 10
124.2822461282437
 20
139.6959580071401
 10
124.2822461282437
 20
139.6959580071401
 10
120.5753209406769
 20
127.8027915271048
 10
120.5753209406769
 20
127.8027915271048
 10
120.5753209406769
 20
127.8027915271048
 10
118.1964809388044
 20
127.8027915271048
 10
118.1964809388044
 20
127.8027915271048
 10
118.1964809388044
 20
127.8027915271048
 10
126.377554584636
 20
154.8151140277308
 10
126.377554584636
 20
154.8151140277308
 97
        0
 75
     2
 76
     1
 98
        0
  0
SPLINE
  5
6A8
330
6A2
100
AcDbEntity
  8
LOGO
370
     0
100
AcDbSpline
210
0.0
220
0.0
230
1.0
 70
    11
 71
     3
 72
   104
 73
   100
 74
     0
 42
0.000000001
 43
0.0000000001
 40
0.0
 40
0.0
 40
0.0
 40
0.0
 40
1.0
 40
1.0
 40
1.0
 40
2.0
 40
2.0
 40
2.0
 40
3.0
 40
3.0
 40
3.0
 40
4.0
 40
4.0
 40
4.0
 40
5.0
 40
5.0
 40
5.0
 40
6.0
 40
6.0
 40
6.0
 40
7.0
 40
7.0
 40
7.0
 40
8.0
 40
8.0
 40
8.0
 40
9.0
 40
9.0
 40
9.0
 40
10.0
 40
10.0
 40
10.0
 40
11.0
 40
11.0
 40
11.0
 40
12.0
 40
12.0
 40
12.0
 40
13.0
 40
13.0
 40
13.0
 40
14.0
 40
14.0
 40
14.0
 40
15.0
 40
15.0
 40
15.0
 40
16.0
 40
16.0
 40
16.0
 40
17.0
 40
17.0
 40
17.0
 40
18.0
 40
18.0
 40
18.0
 40
19.0
 40
19.0
 40
19.0
 40
20.0
 40
20.0
 40
20.0
 40
21.0
 40
21.0
 40
21.0
 40
22.0
 40
22.0
 40
22.0
 40
23.0
 40
23.0
 40
23.0
 40
24.0
 40
24.0
 40
24.0
 40
25.0
 40
25.0
 40
25.0
 40
26.0
 40
26.0
 40
26.0
 40
27.0
 40
27.0
 40
27.0
 40
28.0
 40
28.0
 40
28.0
 40
29.0
 40
29.0
 40
29.0
 40
30.0
 40
30.0
 40
30.0
 40
31.0
 40
31.0
 40
31.0
 40
32.0
 40
32.0
 40
32.0
 40
33.0
 40
33.0
 40
33.0
 40
33.0
 10
139.8926730891197
 20
154.8294111834263
 30
0.0
 10
139.8926730891197
 20
154.8294111834263
 30
0.0
 10
142.0344903652445
 20
154.8294111834263
 30
0.0
 10
142.0344903652445
 20
154.8294111834263
 30
0.0
 10
142.0344903652445
 20
154.8294111834263
 30
0.0
 10
140.9516961399171
 20
151.3157559800812
 30
0.0
 10
140.9516961399171
 20
151.3157559800812
 30
0.0
 10
141.8928968473923
 20
152.7887075264977
 30
0.0
 10
142.7341897198865
 20
153.4484437471474
 30
0.0
 10
143.8552245303272
 20
154.2926649527359
 30
0.0
 10
144.9803934580775
 20
155.1296514530327
 30
0.0
 10
146.3139908001845
 20
155.3044901642492
 30
0.0
 10
147.241066606852
 20
155.3044901642492
 30
0.0
 10
148.3855280820469
 20
155.3044901642492
 30
0.0
 10
149.4969166187653
 20
155.0752189084569
 30
0.0
 10
150.0784491203092
 20
153.8172414621372
 30
0.0
 10
150.5228667310863
 20
152.833838307127
 30
0.0
 10
150.5414702589793
 20
152.7201500811143
 30
0.0
 10
150.4140016419347
 20
150.7765981809602
 30
0.0
 10
151.5818897818837
 20
152.7699317437168
 30
0.0
 10
152.4424752018226
 20
153.6256940267945
 30
0.0
 10
153.9038856707499
 20
154.4507949398263
 30
0.0
 10
155.4455669174378
 20
155.3044901642492
 30
0.0
 10
156.339225275853
 20
155.3659851592288
 30
0.0
 10
157.3748216618963
 20
155.2147453676543
 30
0.0
 10
158.911679771723
 20
154.9877134254046
 30
0.0
 10
159.8859534176746
 20
154.4390816074493
 30
0.0
 10
160.3965169054045
 20
152.7816450760939
 30
0.0
 10
160.9070803931344
 20
151.1219692311958
 30
0.0
 10
160.6328506116007
 20
150.2303779314354
 30
0.0
 10
159.9992971339115
 20
147.597634224801
 30
0.0
 10
159.7105979417943
 20
146.4014962832367
 30
0.0
 10
159.2947746424084
 20
144.9400858143094
 30
0.0
 10
158.7463150793409
 20
143.2092687007094
 30
0.0
 10
158.7463150793409
 20
143.2092687007094
 30
0.0
 10
153.9038856707499
 20
127.8027915271048
 30
0.0
 10
153.9038856707499
 20
127.8027915271048
 30
0.0
 10
153.9038856707499
 20
127.8027915271048
 30
0.0
 10
151.3882752878863
 20
127.8027915271048
 30
0.0
 10
151.3882752878863
 20
127.8027915271048
 30
0.0
 10
151.3882752878863
 20
127.8027915271048
 30
0.0
 10
155.6250565106276
 20
141.2751908193897
 30
0.0
 10
155.6250565106276
 20
141.2751908193897
 30
0.0
 10
156.5094131050963
 20
144.0936252951782
 30
0.0
 10
157.109893644309
 20
146.1506931664571
 30
0.0
 10
157.4220195011804
 20
147.4415712963654
 30
0.0
 10
157.8095929989511
 20
149.0530157726519
 30
0.0
 10
157.9656559273867
 20
149.5826995529385
 30
0.0
 10
157.7816877071116
 20
150.7529992613181
 30
0.0
 10
157.6111553680925
 20
151.8430281919372
 30
0.0
 10
157.0582171779396
 20
152.5547853887321
 30
0.0
 10
156.1170164704645
 20
152.5547853887321
 30
0.0
 10
155.1096698860365
 20
152.5547853887321
 30
0.0
 10
154.2962823053817
 20
152.4412694176073
 30
0.0
 10
153.156643967048
 20
151.2945686288697
 30
0.0
 10
152.0170056287143
 20
150.1476955852443
 30
0.0
 10
151.076149431015
 20
148.7930831468137
 30
0.0
 10
150.3337308641742
 20
147.2290087646991
 30
0.0
 10
149.5957909244188
 20
145.6683794803425
 30
0.0
 10
148.8530278478023
 20
143.6822806228776
 30
0.0
 10
148.0964843801539
 20
141.2751908193897
 30
0.0
 10
148.0964843801539
 20
141.2751908193897
 30
0.0
 10
143.8552245303272
 20
127.8027915271048
 30
0.0
 10
143.8552245303272
 20
127.8027915271048
 30
0.0
 10
143.8552245303272
 20
127.8027915271048
 30
0.0
 10
141.486030802177
 20
127.8027915271048
 30
0.0
 10
141.486030802177
 20
127.8027915271048
 30
0.0
 10
141.486030802177
 20
127.8027915271048
 30
0.0
 10
146.3329388378533
 20
143.2092687007094
 30
0.0
 10
146.3329388378533
 20
143.2092687007094
 30
0.0
 10
146.8483254624444
 20
144.8408669988801
 30
0.0
 10
147.2314203331297
 20
146.1837661049335
 30
0.0
 10
147.4867020769946
 20
147.224185627838
 30
0.0
 10
147.9169947869641
 20
149.0197705792876
 30
0.0
 10
148.0306830129768
 20
150.2400242051577
 30
0.0
 10
147.709255392159
 20
151.3157559800812
 30
0.0
 10
147.3874832615654
 20
152.3916600098926
 30
0.0
 10
146.8245542879144
 20
152.6683013598569
 30
0.0
 10
145.8840425999909
 20
152.6683013598569
 30
0.0
 10
145.0989048209514
 20
152.6683013598569
 30
0.0
 10
144.3282364524954
 20
152.3275811915945
 30
0.0
 10
143.4531816219731
 20
151.6538923250251
 30
0.0
 10
142.34627171234
 20
150.8074318058939
 30
0.0
 10
141.901854101563
 20
150.1097995099067
 30
0.0
 10
141.3578731655808
 20
149.289521733736
 30
0.0
 10
140.6299240093235
 20
148.192602607601
 30
0.0
 10
140.2850697237515
 20
147.455696197173
 30
0.0
 10
139.6652966370942
 20
145.8385673095858
 30
0.0
 10
139.0506911970739
 20
144.2214384219986
 30
0.0
 10
138.463991048893
 20
142.3252566160164
 30
0.0
 10
138.0571250036777
 20
141.0154304484394
 30
0.0
 10
138.0571250036777
 20
141.0154304484394
 30
0.0
 10
133.9009590684727
 20
127.8027915271048
 30
0.0
 10
133.9009590684727
 20
127.8027915271048
 30
0.0
 10
133.9009590684727
 20
127.8027915271048
 30
0.0
 10
131.4180771143097
 20
127.8027915271048
 30
0.0
 10
131.4180771143097
 20
127.8027915271048
 30
0.0
 10
131.4180771143097
 20
127.8027915271048
 30
0.0
 10
139.8926730891197
 20
154.8294111834263
 30
0.0
 10
139.8926730891197
 20
154.8294111834263
 30
0.0
  0
HATCH
  5
6A9
330
6A2
100
AcDbEntity
  8
LOGO
 62
   250
420
  2234388
100
AcDbHatch
 10
0.0
 20
0.0
 30
0.0
210
0.0
220
0.0
230
1.0
  2
SOLID
 70
     1
 71
     0
 91
        1
 92
        1
 93
        1
 72
     4
 94
        3
 73
     0
 74
     1
 95
      104
 96
      100
 40
0.0
 40
0.0
 40
0.0
 40
0.0
 40
1.0
 40
1.0
 40
1.0
 40
2.0
 40
2.0
 40
2.0
 40
3.0
 40
3.0
 40
3.0
 40
4.0
 40
4.0
 40
4.0
 40
5.0
 40
5.0
 40
5.0
 40
6.0
 40
6.0
 40
6.0
 40
7.0
 40
7.0
 40
7.0
 40
8.0
 40
8.0
 40
8.0
 40
9.0
 40
9.0
 40
9.0
 40
10.0
 40
10.0
 40
10.0
 40
11.0
 40
11.0
 40
11.0
 40
12.0
 40
12.0
 40
12.0
 40
13.0
 40
13.0
 40
13.0
 40
14.0
 40
14.0
 40
14.0
 40
15.0
 40
15.0
 40
15.0
 40
16.0
 40
16.0
 40
16.0
 40
17.0
 40
17.0
 40
17.0
 40
18.0
 40
18.0
 40
18.0
 40
19.0
 40
19.0
 40
19.0
 40
20.0
 40
20.0
 40
20.0
 40
21.0
 40
21.0
 40
21.0
 40
22.0
 40
22.0
 40
22.0
 40
23.0
 40
23.0
 40
23.0
 40
24.0
 40
24.0
 40
24.0
 40
25.0
 40
25.0
 40
25.0
 40
26.0
 40
26.0
 40
26.0
 40
27.0
 40
27.0
 40
27.0
 40
28.0
 40
28.0
 40
28.0
 40
29.0
 40
29.0
 40
29.0
 40
30.0
 40
30.0
 40
30.0
 40
31.0
 40
31.0
 40
31.0
 40
32.0
 40
32.0
 40
32.0
 40
33.0
 40
33.0
 40
33.0
 40
33.0
 10
139.8926730891197
 20
154.8294111834263
 10
139.8926730891197
 20
154.8294111834263
 10
142.0344903652445
 20
154.8294111834263
 10
142.0344903652445
 20
154.8294111834263
 10
142.0344903652445
 20
154.8294111834263
 10
140.9516961399171
 20
151.3157559800812
 10
140.9516961399171
 20
151.3157559800812
 10
141.8928968473923
 20
152.7887075264977
 10
142.7341897198865
 20
153.4484437471474
 10
143.8552245303272
 20
154.2926649527359
 10
144.9803934580775
 20
155.1296514530327
 10
146.3139908001845
 20
155.3044901642492
 10
147.241066606852
 20
155.3044901642492
 10
148.3855280820469
 20
155.3044901642492
 10
149.4969166187653
 20
155.0752189084569
 10
150.0784491203092
 20
153.8172414621372
 10
150.5228667310863
 20
152.833838307127
 10
150.5414702589793
 20
152.7201500811143
 10
150.4140016419347
 20
150.7765981809602
 10
151.5818897818837
 20
152.7699317437168
 10
152.4424752018226
 20
153.6256940267945
 10
153.9038856707499
 20
154.4507949398263
 10
155.4455669174378
 20
155.3044901642492
 10
156.339225275853
 20
155.3659851592288
 10
157.3748216618963
 20
155.2147453676543
 10
158.911679771723
 20
154.9877134254046
 10
159.8859534176746
 20
154.4390816074493
 10
160.3965169054045
 20
152.7816450760939
 10
160.9070803931344
 20
151.1219692311958
 10
160.6328506116007
 20
150.2303779314354
 10
159.9992971339115
 20
147.597634224801
 10
159.7105979417943
 20
146.4014962832367
 10
159.2947746424084
 20
144.9400858143094
 10
158.7463150793409
 20
143.2092687007094
 10
158.7463150793409
 20
143.2092687007094
 10
153.9038856707499
 20
127.8027915271048
 10
153.9038856707499
 20
127.8027915271048
 10
153.9038856707499
 20
127.8027915271048
 10
151.3882752878863
 20
127.8027915271048
 10
151.3882752878863
 20
127.8027915271048
 10
151.3882752878863
 20
127.8027915271048
 10
155.6250565106276
 20
141.2751908193897
 10
155.6250565106276
 20
141.2751908193897
 10
156.5094131050963
 20
144.0936252951782
 10
157.109893644309
 20
146.1506931664571
 10
157.4220195011804
 20
147.4415712963654
 10
157.8095929989511
 20
149.0530157726519
 10
157.9656559273867
 20
149.5826995529385
 10
157.7816877071116
 20
150.7529992613181
 10
157.6111553680925
 20
151.8430281919372
 10
157.0582171779396
 20
152.5547853887321
 10
156.1170164704645
 20
152.5547853887321
 10
155.1096698860365
 20
152.5547853887321
 10
154.2962823053817
 20
152.4412694176073
 10
153.156643967048
 20
151.2945686288697
 10
152.0170056287143
 20
150.1476955852443
 10
151.076149431015
 20
148.7930831468137
 10
150.3337308641742
 20
147.2290087646991
 10
149.5957909244188
 20
145.6683794803425
 10
148.8530278478023
 20
143.6822806228776
 10
148.0964843801539
 20
141.2751908193897
 10
148.0964843801539
 20
141.2751908193897
 10
143.8552245303272
 20
127.8027915271048
 10
143.8552245303272
 20
127.8027915271048
 10
143.8552245303272
 20
127.8027915271048
 10
141.486030802177
 20
127.8027915271048
 10
141.486030802177
 20
127.8027915271048
 10
141.486030802177
 20
127.8027915271048
 10
146.3329388378533
 20
143.2092687007094
 10
146.3329388378533
 20
143.2092687007094
 10
146.8483254624444
 20
144.8408669988801
 10
147.2314203331297
 20
146.1837661049335
 10
147.4867020769946
 20
147.224185627838
 10
147.9169947869641
 20
149.0197705792876
 10
148.0306830129768
 20
150.2400242051577
 10
147.709255392159
 20
151.3157559800812
 10
147.3874832615654
 20
152.3916600098926
 10
146.8245542879144
 20
152.6683013598569
 10
145.8840425999909
 20
152.6683013598569
 10
145.0989048209514
 20
152.6683013598569
 10
144.3282364524954
 20
152.3275811915945
 10
143.4531816219731
 20
151.6538923250251
 10
142.34627171234
 20
150.8074318058939
 10
141.901854101563
 20
150.1097995099067
 10
141.3578731655808
 20
149.289521733736
 10
140.6299240093235
 20
148.192602607601
 10
140.2850697237515
 20
147.455696197173
 10
139.6652966370942
 20
145.8385673095858
 10
139.0506911970739
 20
144.2214384219986
 10
138.463991048893
 20
142.3252566160164
 10
138.0571250036777
 20
141.0154304484394
 10
138.0571250036777
 20
141.0154304484394
 10
133.9009590684727
 20
127.8027915271048
 10
133.9009590684727
 20
127.8027915271048
 10
133.9009590684727
 20
127.8027915271048
 10
131.4180771143097
 20
127.8027915271048
 10
131.4180771143097
 20
127.8027915271048
 10
131.4180771143097
 20
127.8027915271048
 10
139.8926730891197
 20
154.8294111834263
 10
139.8926730891197
 20
154.8294111834263
 97
        0
 75
     2
 76
     1
 98
        0
  0
SPLINE
  5
6AA
330
6A2
100
AcDbEntity
  8
LOGO
370
     0
100
AcDbSpline
210
0.0
220
0.0
230
1.0
 70
    11
 71
     3
 72
    29
 73
    25
 74
     0
 42
0.000000001
 43
0.0000000001
 40
0.0
 40
0.0
 40
0.0
 40
0.0
 40
1.0
 40
1.0
 40
1.0
 40
2.0
 40
2.0
 40
2.0
 40
3.0
 40
3.0
 40
3.0
 40
4.0
 40
4.0
 40
4.0
 40
5.0
 40
5.0
 40
5.0
 40
6.0
 40
6.0
 40
6.0
 40
7.0
 40
7.0
 40
7.0
 40
8.0
 40
8.0
 40
8.0
 40
8.0
 10
101.6420971922469
 20
132.8388354296931
 30
0.0
 10
101.630039350094
 20
134.7164137077823
 30
0.0
 10
102.2236296937908
 20
138.0598810818841
 30
0.0
 10
103.7487744712405
 20
142.5378191476827
 30
0.0
 10
105.819967243327
 20
148.5896501242061
 30
0.0
 10
107.0602024361932
 20
150.8074318058939
 30
0.0
 10
108.1522984254671
 20
151.8833358357054
 30
0.0
 10
109.741177511439
 20
153.4532668840085
 30
0.0
 10
111.8740375333931
 20
153.5290590346837
 30
0.0
 10
112.5075910110823
 20
153.4532668840085
 30
0.0
 10
113.4012493694975
 20
153.3490526768302
 30
0.0
 10
114.6683563248758
 20
152.7580461564518
 30
0.0
 10
114.7493161221879
 20
150.7838328862519
 30
0.0
 10
114.8106388622796
 20
149.0909118479895
 30
0.0
 10
114.3186789024427
 20
145.9191825971221
 30
0.0
 10
112.6164561002338
 20
140.9489400617108
 30
0.0
 10
110.6444821435766
 20
135.1746117095912
 30
0.0
 10
109.4669477299053
 20
132.8960240524753
 30
0.0
 10
108.5212683953448
 20
131.9072809959403
 30
0.0
 10
106.7346406980658
 20
130.0538184021569
 30
0.0
 10
104.8222669326213
 20
130.2336525051225
 30
0.0
 10
104.5408024457958
 20
130.2336525051225
 30
0.0
 10
104.1721769856939
 20
130.2336525051225
 30
0.0
 10
101.6465758193322
 20
130.6305277668397
 30
0.0
 10
101.6420971922469
 20
132.8388354296931
 30
0.0
  0
SPLINE
  5
6AB
330
6A2
100
AcDbEntity
  8
LOGO
370
     0
100
AcDbSpline
210
0.0
220
0.0
230
1.0
 70
    11
 71
     3
 72
    32
 73
    28
 74
     0
 42
0.000000001
 43
0.0000000001
 40
0.0
 40
0.0
 40
0.0
 40
0.0
 40
1.0
 40
1.0
 40
1.0
 40
2.0
 40
2.0
 40
2.0
 40
3.0
 40
3.0
 40
3.0
 40
4.0
 40
4.0
 40
4.0
 40
5.0
 40
5.0
 40
5.0
 40
6.0
 40
6.0
 40
6.0
 40
7.0
 40
7.0
 40
7.0
 40
8.0
 40
8.0
 40
8.0
 40
9.0
 40
9.0
 40
9.0
 40
9.0
 10
106.2595617172429
 20
153.4105476718098
 30
0.0
 10
104.8222669326213
 20
151.5474388043041
 30
0.0
 10
103.7177685914188
 20
149.8758773721411
 30
0.0
 10
101.9232171692965
 20
144.6141795664062
 30
0.0
 10
100.2754269116635
 20
139.7999999594306
 30
0.0
 10
99.22777268346732
 20
136.3052927937542
 30
0.0
 10
99.06964269637689
 20
132.039572749846
 30
0.0
 10
98.94665270641765
 20
128.8673267343149
 30
0.0
 10
100.8807305877373
 20
127.8027915271048
 30
0.0
 10
103.7129454545577
 20
127.8027915271048
 30
0.0
 10
104.9352661390825
 20
127.8027915271048
 30
0.0
 10
108.0151835347002
 20
127.8827177950895
 30
0.0
 10
110.2045431598849
 20
130.5926316915021
 30
0.0
 10
111.7417457794874
 20
132.4984597712065
 30
0.0
 10
113.155269389579
 20
134.475256864725
 30
0.0
 10
115.0562743324223
 20
140.9489400617108
 30
0.0
 10
116.6361961642235
 20
146.3680788349845
 30
0.0
 10
117.7282921534974
 20
149.8639917848761
 30
0.0
 10
117.6480213757369
 20
151.8595646611754
 30
0.0
 10
117.6480213757369
 20
151.8595646611754
 30
0.0
 10
117.6480213757369
 20
151.8595646611754
 30
0.0
 10
117.6480213757369
 20
151.8595646611754
 30
0.0
 10
117.13229024137
 20
155.18150017429
 30
0.0
 10
114.7162431837115
 20
155.886194920681
 30
0.0
 10
113.3351034925446
 20
155.886194920681
 30
0.0
 10
111.9829026225447
 20
155.886194920681
 30
0.0
 10
108.3414342923792
 20
156.1251124501957
 30
0.0
 10
106.2595617172429
 20
153.4105476718098
 30
0.0
  0
HATCH
  5
6AC
330
6A2
100
AcDbEntity
  8
LOGO
 62
   250
420
  2234388
100
AcDbHatch
 10
0.0
 20
0.0
 30
0.0
210
0.0
220
0.0
230
1.0
  2
SOLID
 70
     1
 71
     0
 91
        2
 92
        1
 93
        1
 72
     4
 94
        3
 73
     0
 74
     1
 95
       29
 96
       25
 40
0.0
 40
0.0
 40
0.0
 40
0.0
 40
1.0
 40
1.0
 40
1.0
 40
2.0
 40
2.0
 40
2.0
 40
3.0
 40
3.0
 40
3.0
 40
4.0
 40
4.0
 40
4.0
 40
5.0
 40
5.0
 40
5.0
 40
6.0
 40
6.0
 40
6.0
 40
7.0
 40
7.0
 40
7.0
 40
8.0
 40
8.0
 40
8.0
 40
8.0
 10
101.6420971922469
 20
132.8388354296931
 10
101.630039350094
 20
134.7164137077823
 10
102.2236296937908
 20
138.0598810818841
 10
103.7487744712405
 20
142.5378191476827
 10
105.819967243327
 20
148.5896501242061
 10
107.0602024361932
 20
150.8074318058939
 10
108.1522984254671
 20
151.8833358357054
 10
109.741177511439
 20
153.4532668840085
 10
111.8740375333931
 20
153.5290590346837
 10
112.5075910110823
 20
153.4532668840085
 10
113.4012493694975
 20
153.3490526768302
 10
114.6683563248758
 20
152.7580461564518
 10
114.7493161221879
 20
150.7838328862519
 10
114.8106388622796
 20
149.0909118479895
 10
114.3186789024427
 20
145.9191825971221
 10
112.6164561002338
 20
140.9489400617108
 10
110.6444821435766
 20
135.1746117095912
 10
109.4669477299053
 20
132.8960240524753
 10
108.5212683953448
 20
131.9072809959403
 10
106.7346406980658
 20
130.0538184021569
 10
104.8222669326213
 20
130.2336525051225
 10
104.5408024457958
 20
130.2336525051225
 10
104.1721769856939
 20
130.2336525051225
 10
101.6465758193322
 20
130.6305277668397
 10
101.6420971922469
 20
132.8388354296931
 97
        0
 92
        1
 93
        1
 72
     4
 94
        3
 73
     0
 74
     1
 95
       32
 96
       28
 40
0.0
 40
0.0
 40
0.0
 40
0.0
 40
1.0
 40
1.0
 40
1.0
 40
2.0
 40
2.0
 40
2.0
 40
3.0
 40
3.0
 40
3.0
 40
4.0
 40
4.0
 40
4.0
 40
5.0
 40
5.0
 40
5.0
 40
6.0
 40
6.0
 40
6.0
 40
7.0
 40
7.0
 40
7.0
 40
8.0
 40
8.0
 40
8.0
 40
9.0
 40
9.0
 40
9.0
 40
9.0
 10
106.2595617172429
 20
153.4105476718098
 10
104.8222669326213
 20
151.5474388043041
 10
103.7177685914188
 20
149.8758773721411
 10
101.9232171692965
 20
144.6141795664062
 10
100.2754269116635
 20
139.7999999594306
 10
99.22777268346732
 20
136.3052927937542
 10
99.06964269637689
 20
132.039572749846
 10
98.94665270641765
 20
128.8673267343149
 10
100.8807305877373
 20
127.8027915271048
 10
103.7129454545577
 20
127.8027915271048
 10
104.9352661390825
 20
127.8027915271048
 10
108.0151835347002
 20
127.8827177950895
 10
110.2045431598849
 20
130.5926316915021
 10
111.7417457794874
 20
132.4984597712065
 10
113.155269389579
 20
134.475256864725
 10
115.0562743324223
 20
140.9489400617108
 10
116.6361961642235
 20
146.3680788349845
 10
117.7282921534974
 20
149.8639917848761
 10
117.6480213757369
 20
151.8595646611754
 10
117.6480213757369
 20
151.8595646611754
 10
117.6480213757369
 20
151.8595646611754
 10
117.6480213757369
 20
151.8595646611754
 10
117.13229024137
 20
155.18150017429
 10
114.7162431837115
 20
155.886194920681
 10
113.3351034925446
 20
155.886194920681
 10
111.9829026225447
 20
155.886194920681
 10
108.3414342923792
 20
156.1251124501957
 10
106.2595617172429
 20
153.4105476718098
 97
        0
 75
     2
 76
     1
 98
        0
  0
ENDBLK
  5
6AD
330
6A2
100
AcDbEntity
  8
0
100
AcDbBlockEnd
  0
BLOCK
  5
10ED
330
10EC
100
AcDbEntity
  8
0
100
AcDbBlockBegin
  2
SE
 70
     0
 10
0.0
 20
0.0
 30
0.0
  3
SE
  1
SE
  0
SPLINE
  5
10EE
330
10EC
100
AcDbEntity
  8
Standard
  6
Continuous
 62
     7
100
AcDbSpline
210
0.0
220
0.0
230
1.0
 70
     8
 71
     3
 72
    15
 73
    11
 74
     0
 42
0.000000001
 43
0.0000000001
 40
0.0004628755482725
 40
0.0004628755482725
 40
0.0004628755482725
 40
0.0004628755482725
 40
0.1200263781023015
 40
0.2466263477517624
 40
0.3732614252874116
 40
0.4999141059612798
 40
0.6265667950771214
 40
0.753201897895606
 40
0.8798019095394193
 40
1.0
 40
1.0
 40
1.0
 40
1.0
 10
176.1216258969968
 20
207.9185251314379
 30
0.0
 10
175.6402371979405
 20
207.9531522206448
 30
0.0
 10
174.8032896334742
 20
208.0122041698513
 30
0.0
 10
173.4075591528683
 20
208.0782930286932
 30
0.0
 10
172.0196913781018
 20
208.1182667317466
 30
0.0
 10
170.6222585720558
 20
208.131689027006
 30
0.0
 10
169.2248271011028
 20
208.1182921561741
 30
0.0
 10
167.8369532947845
 20
208.0783450993162
 30
0.0
 10
166.4388635862035
 20
208.012165149464
 30
0.0
 10
165.599932890308
 20
207.9529469064731
 30
0.0
 10
165.1154044193836
 20
207.918097003543
 30
0.0
  0
ENDBLK
  5
10EF
330
10EC
100
AcDbEntity
  8
0
100
AcDbBlockEnd
  0
BLOCK
  5
1638
330
1637
100
AcDbEntity
  8
0
100
AcDbBlockBegin
  2
*D7
 70
     1
 10
0.0
 20
0.0
 30
0.0
  3
*D7
  1
*D31
  0
LINE
  5
163A
330
1637
100
AcDbEntity
  8
DIM
 62
     0
370
    -2
100
AcDbLine
 10
651.6465931778745
 20
894.6714844054742
 30
0.0
 11
663.8293597182752
 21
880.1526286132143
 31
0.0
  0
LINE
  5
163B
330
1637
100
AcDbEntity
  8
DIM
 62
     0
370
    -2
100
AcDbLine
 10
700.4946287662863
 20
977.2721363221665
 30
0.0
 11
709.1169299192045
 21
977.2721363221665
 31
0.0
  0
ARC
  5
163C
330
1637
100
AcDbEntity
  8
DIM
 62
     0
370
    -2
100
AcDbCircle
 10
582.3364166195786
 20
977.2721363221665
 30
0.0
 40
126.7805132996259
100
AcDbArc
 50
310.9038671976906
 51
359.096132802308
  0
INSERT
  5
163D
330
1637
100
AcDbEntity
  8
DIM
 62
     0
370
    -2
100
AcDbBlockReference
  2
_DOT
 10
663.8293597182752
 20
880.1526286132143
 30
0.0
 41
2.0
 42
2.0
 43
2.0
 50
220.4519335988446
  0
INSERT
  5
163E
330
1637
100
AcDbEntity
  8
DIM
 62
     0
370
    -2
100
AcDbBlockReference
  2
_DOT
 10
709.1169299192045
 20
977.2721363221665
 30
0.0
 41
2.0
 42
2.0
 43
2.0
 50
89.548066401154
  0
MTEXT
  5
163F
330
1637
100
AcDbEntity
  8
DIM
 62
     0
100
AcDbMText
 10
682.5473338396777
 20
930.5430181917202
 30
0.0
 40
12.0
 41
0.0
 46
0.0
 71
     5
 72
     1
  1
\A1;\A1;50%%d
  7
ＭＳ ゴシック
 11
0.4226182617405326
 21
0.9063077870367277
 31
0.0
 73
     1
 44
1.0
  0
POINT
  5
1640
330
1637
100
AcDbEntity
  8
Defpoints
 62
     0
100
AcDbPoint
 10
688.2599902060906
 20
907.6051060195953
 30
0.0
  0
POINT
  5
1641
330
1637
100
AcDbEntity
  8
Defpoints
 62
     0
100
AcDbPoint
 10
582.3364166195786
 20
977.2721363221665
 30
0.0
  0
POINT
  5
1642
330
1637
100
AcDbEntity
  8
Defpoints
 62
     0
100
AcDbPoint
 10
582.3364166195786
 20
977.2721363221665
 30
0.0
  0
POINT
  5
1643
330
1637
100
AcDbEntity
  8
Defpoints
 62
     0
100
AcDbPoint
 10
648.4326551294419
 20
898.5017066210692
 30
0.0
  0
POINT
  5
18AA
330
1637
100
AcDbEntity
  8
Defpoints
 62
     0
100
AcDbPoint
 10
695.4946287662863
 20
977.2721363221665
 30
0.0
  0
ENDBLK
  5
1639
330
1637
100
AcDbEntity
  8
0
100
AcDbBlockEnd
  0
BLOCK
  5
1651
330
1650
100
AcDbEntity
  8
0
100
AcDbBlockBegin
  2
*D8
 70
     1
 10
0.0
 20
0.0
 30
0.0
  3
*D8
  1
*D33
  0
LINE
  5
1653
330
1650
100
AcDbEntity
  8
DIM
 62
     0
370
    -2
100
AcDbLine
 10
676.1987719365666
 20
689.505702022344
 30
0.0
 11
676.1987719365666
 21
666.9219556252314
 31
0.0
  0
LINE
  5
1654
330
1650
100
AcDbEntity
  8
DIM
 62
     0
370
    -2
100
AcDbLine
 10
680.1823436759455
 20
690.1038899409698
 30
0.0
 11
692.7585341437881
 21
672.143228593724
 31
0.0
  0
ARC
  5
1655
330
1650
100
AcDbEntity
  8
DIM
 62
     0
370
    -2
100
AcDbCircle
 10
676.1987719365666
 20
695.7930199797039
 30
0.0
 40
28.87106435447251
100
AcDbArc
 50
273.9698738734476
 51
301.0301261292694
  0
INSERT
  5
1656
330
1650
100
AcDbEntity
  8
DIM
 62
     0
370
    -2
100
AcDbBlockReference
  2
_DOT
 10
676.1987719365666
 20
666.9219556252314
 30
0.0
 41
2.0
 42
2.0
 43
2.0
 50
181.9849369367238
  0
INSERT
  5
1657
330
1650
100
AcDbEntity
  8
DIM
 62
     0
370
    -2
100
AcDbBlockReference
  2
_DOT
 10
692.7585341437881
 20
672.143228593724
 30
0.0
 41
2.0
 42
2.0
 43
2.0
 50
33.01506306599315
  0
MTEXT
  5
1658
330
1650
100
AcDbEntity
  8
DIM
 62
     0
100
AcDbMText
 10
690.7198147717221
 20
653.114668578652
 30
0.0
 40
12.0
 41
0.0
 46
0.0
 71
     5
 72
     1
  1
\A1;\A1;35%%d
  7
ＭＳ ゴシック
 11
0.9467023907304397
 21
0.3221095828833256
 31
0.0
 73
     1
 44
1.0
  0
POINT
  5
1659
330
1650
100
AcDbEntity
  8
Defpoints
 62
     0
100
AcDbPoint
 10
682.037008481417
 20
667.5184138638539
 30
0.0
  0
POINT
  5
165A
330
1650
100
AcDbEntity
  8
Defpoints
 62
     0
100
AcDbPoint
 10
676.1987719365666
 20
695.7930199797039
 30
0.0
  0
POINT
  5
165B
330
1650
100
AcDbEntity
  8
Defpoints
 62
     0
100
AcDbPoint
 10
676.1987719365666
 20
695.7930199797039
 30
0.0
  0
POINT
  5
165C
330
1650
100
AcDbEntity
  8
Defpoints
 62
     0
100
AcDbPoint
 10
676.1987719365666
 20
694.505702022344
 30
0.0
  0
POINT
  5
165D
330
1650
100
AcDbEntity
  8
Defpoints
 62
     0
100
AcDbPoint
 10
677.3144614939961
 20
694.1996501622788
 30
0.0
  0
ENDBLK
  5
1652
330
1650
100
AcDbEntity
  8
0
100
AcDbBlockEnd
  0
BLOCK
  5
1756
330
1755
100
AcDbEntity
  8
0
100
AcDbBlockBegin
  2
*D9
 70
     1
 10
0.0
 20
0.0
 30
0.0
  3
*D9
  1
*D47
  0
LINE
  5
1758
330
1755
100
AcDbEntity
  8
DIM
 62
     0
370
    -2
100
AcDbLine
 10
582.3899167691775
 20
775.2981836049703
 30
0.0
 11
582.3899167691775
 21
815.6652411493675
 31
0.0
  0
LINE
  5
1759
330
1755
100
AcDbEntity
  8
DIM
 62
     0
370
    -2
100
AcDbLine
 10
676.3899167691775
 20
713.7643699364108
 30
0.0
 11
676.3899167691775
 21
815.6652411493675
 31
0.0
  0
LINE
  5
175A
330
1755
100
AcDbEntity
  8
DIM
 62
     0
370
    -2
100
AcDbLine
 10
584.3899167691775
 20
815.6652411493675
 30
0.0
 11
674.3899167691775
 21
815.6652411493675
 31
0.0
  0
INSERT
  5
175B
330
1755
100
AcDbEntity
  8
DIM
 62
     0
370
    -2
100
AcDbBlockReference
  2
_DOT
 10
582.3899167691775
 20
815.6652411493675
 30
0.0
 41
2.0
 42
2.0
 43
2.0
 50
180.0
  0
INSERT
  5
175C
330
1755
100
AcDbEntity
  8
DIM
 62
     0
370
    -2
100
AcDbBlockReference
  2
_DOT
 10
676.3899167691775
 20
815.6652411493675
 30
0.0
 41
2.0
 42
2.0
 43
2.0
  0
MTEXT
  5
175D
330
1755
100
AcDbEntity
  8
DIM
 62
     0
100
AcDbMText
 10
629.3899167691775
 20
831.6652411493675
 30
0.0
 40
12.0
 41
0.0
 46
0.0
 71
     5
 72
     1
  1
\A1;94
  7
ＭＳ ゴシック
 73
     1
 44
1.0
  0
POINT
  5
175E
330
1755
100
AcDbEntity
  8
Defpoints
 62
     0
100
AcDbPoint
 10
582.3899167691775
 20
770.2981836049703
 30
0.0
  0
POINT
  5
175F
330
1755
100
AcDbEntity
  8
Defpoints
 62
     0
100
AcDbPoint
 10
676.3899167691775
 20
708.7643699364108
 30
0.0
  0
POINT
  5
1760
330
1755
100
AcDbEntity
  8
Defpoints
 62
     0
100
AcDbPoint
 10
676.3899167691775
 20
815.6652411493675
 30
0.0
  0
ENDBLK
  5
1757
330
1755
100
AcDbEntity
  8
0
100
AcDbBlockEnd
  0
BLOCK
  5
1765
330
1764
100
AcDbEntity
  8
0
100
AcDbBlockBegin
  2
*D10
 70
     1
 10
0.0
 20
0.0
 30
0.0
  3
*D10
  1
*D48
  0
LINE
  5
1767
330
1764
100
AcDbEntity
  8
DIM
 62
     0
370
    -2
100
AcDbLine
 10
681.1987719365666
 20
695.7930199797039
 30
0.0
 11
727.8398913472465
 21
695.7930199797039
 31
0.0
  0
LINE
  5
1768
330
1764
100
AcDbEntity
  8
DIM
 62
     0
370
    -2
100
AcDbLine
 10
644.9082577066943
 20
584.7930199689371
 30
0.0
 11
727.8398913472465
 21
584.7930199689371
 31
0.0
  0
LINE
  5
1769
330
1764
100
AcDbEntity
  8
DIM
 62
     0
370
    -2
100
AcDbLine
 10
727.8398913472465
 20
693.7930199797039
 30
0.0
 11
727.8398913472465
 21
586.7930199689371
 31
0.0
  0
INSERT
  5
176A
330
1764
100
AcDbEntity
  8
DIM
 62
     0
370
    -2
100
AcDbBlockReference
  2
_DOT
 10
727.8398913472465
 20
695.7930199797039
 30
0.0
 41
2.0
 42
2.0
 43
2.0
 50
90.0
  0
INSERT
  5
176B
330
1764
100
AcDbEntity
  8
DIM
 62
     0
370
    -2
100
AcDbBlockReference
  2
_DOT
 10
727.8398913472465
 20
584.7930199689371
 30
0.0
 41
2.0
 42
2.0
 43
2.0
 50
270.0
  0
MTEXT
  5
176C
330
1764
100
AcDbEntity
  8
DIM
 62
     0
100
AcDbMText
 10
711.8398913472465
 20
640.2930199743205
 30
0.0
 40
12.0
 41
0.0
 46
0.0
 71
     5
 72
     1
  1
\A1;111
  7
ＭＳ ゴシック
 11
0.0
 21
1.0
 31
0.0
 73
     1
 44
1.0
  0
POINT
  5
176D
330
1764
100
AcDbEntity
  8
Defpoints
 62
     0
100
AcDbPoint
 10
676.1987719365666
 20
695.7930199797039
 30
0.0
  0
POINT
  5
176E
330
1764
100
AcDbEntity
  8
Defpoints
 62
     0
100
AcDbPoint
 10
639.9082577066943
 20
584.7930199689371
 30
0.0
  0
POINT
  5
176F
330
1764
100
AcDbEntity
  8
Defpoints
 62
     0
100
AcDbPoint
 10
727.8398913472465
 20
584.7930199689371
 30
0.0
  0
ENDBLK
  5
1766
330
1764
100
AcDbEntity
  8
0
100
AcDbBlockEnd
  0
BLOCK
  5
1774
330
1773
100
AcDbEntity
  8
0
100
AcDbBlockBegin
  2
*D11
 70
     1
 10
0.0
 20
0.0
 30
0.0
  3
*D11
  1
*D49
  0
LINE
  5
1776
330
1773
100
AcDbEntity
  8
DIM
 62
     0
370
    -2
100
AcDbLine
 10
218.7557812088581
 20
758.2747418852358
 30
0.0
 11
282.0045447149042
 21
758.2747418852358
 31
0.0
  0
LINE
  5
1777
330
1773
100
AcDbEntity
  8
DIM
 62
     0
370
    -2
100
AcDbLine
 10
218.7557812088581
 20
584.7930199689371
 30
0.0
 11
282.0045447149042
 21
584.7930199689371
 31
0.0
  0
LINE
  5
1778
330
1773
100
AcDbEntity
  8
DIM
 62
     0
370
    -2
100
AcDbLine
 10
282.0045447149042
 20
756.2747418852358
 30
0.0
 11
282.0045447149042
 21
586.7930199689371
 31
0.0
  0
INSERT
  5
1779
330
1773
100
AcDbEntity
  8
DIM
 62
     0
370
    -2
100
AcDbBlockReference
  2
_DOT
 10
282.0045447149042
 20
758.2747418852358
 30
0.0
 41
2.0
 42
2.0
 43
2.0
 50
90.0
  0
INSERT
  5
177A
330
1773
100
AcDbEntity
  8
DIM
 62
     0
370
    -2
100
AcDbBlockReference
  2
_DOT
 10
282.0045447149042
 20
584.7930199689371
 30
0.0
 41
2.0
 42
2.0
 43
2.0
 50
270.0
  0
MTEXT
  5
177B
330
1773
100
AcDbEntity
  8
DIM
 62
     0
100
AcDbMText
 10
266.0045447149042
 20
671.5338809270864
 30
0.0
 40
12.0
 41
0.0
 46
0.0
 71
     5
 72
     1
  1
\A1;173
  7
ＭＳ ゴシック
 11
0.0
 21
1.0
 31
0.0
 73
     1
 44
1.0
  0
POINT
  5
177C
330
1773
100
AcDbEntity
  8
Defpoints
 62
     0
100
AcDbPoint
 10
213.7557812088581
 20
758.2747418852358
 30
0.0
  0
POINT
  5
177D
330
1773
100
AcDbEntity
  8
Defpoints
 62
     0
100
AcDbPoint
 10
213.7557812088581
 20
584.7930199689371
 30
0.0
  0
POINT
  5
177E
330
1773
100
AcDbEntity
  8
Defpoints
 62
     0
100
AcDbPoint
 10
282.0045447149042
 20
584.7930199689371
 30
0.0
  0
ENDBLK
  5
1775
330
1773
100
AcDbEntity
  8
0
100
AcDbBlockEnd
  0
BLOCK
  5
1781
330
1780
100
AcDbEntity
  8
0
100
AcDbBlockBegin
  2
*D12
 70
     1
 10
0.0
 20
0.0
 30
0.0
  3
*D12
  1
*D50
  0
LINE
  5
1783
330
1780
100
AcDbEntity
  8
DIM
 62
     0
370
    -2
100
AcDbLine
 10
548.7120447317623
 20
584.7930199689371
 30
0.0
 11
452.8371579273958
 21
584.7930199689371
 31
0.0
  0
LINE
  5
1784
330
1780
100
AcDbEntity
  8
DIM
 62
     0
370
    -2
100
AcDbLine
 10
636.4691808208414
 20
792.7930199689371
 30
0.0
 11
452.8371579273958
 21
792.7930199689371
 31
0.0
  0
LINE
  5
1785
330
1780
100
AcDbEntity
  8
DIM
 62
     0
370
    -2
100
AcDbLine
 10
452.8371579273958
 20
586.7930199689371
 30
0.0
 11
452.8371579273958
 21
790.7930199689371
 31
0.0
  0
INSERT
  5
1786
330
1780
100
AcDbEntity
  8
DIM
 62
     0
370
    -2
100
AcDbBlockReference
  2
_DOT
 10
452.8371579273958
 20
584.7930199689371
 30
0.0
 41
2.0
 42
2.0
 43
2.0
 50
270.0
  0
INSERT
  5
1787
330
1780
100
AcDbEntity
  8
DIM
 62
     0
370
    -2
100
AcDbBlockReference
  2
_DOT
 10
452.8371579273958
 20
792.7930199689371
 30
0.0
 41
2.0
 42
2.0
 43
2.0
 50
90.0
  0
MTEXT
  5
1788
330
1780
100
AcDbEntity
  8
DIM
 62
     0
100
AcDbMText
 10
436.8371579273958
 20
688.7930199689371
 30
0.0
 40
12.0
 41
0.0
 46
0.0
 71
     5
 72
     1
  1
\A1;208
  7
ＭＳ ゴシック
 11
0.0
 21
1.0
 31
0.0
 73
     1
 44
1.0
  0
POINT
  5
1789
330
1780
100
AcDbEntity
  8
Defpoints
 62
     0
100
AcDbPoint
 10
553.7120447317623
 20
584.7930199689371
 30
0.0
  0
POINT
  5
178A
330
1780
100
AcDbEntity
  8
Defpoints
 62
     0
100
AcDbPoint
 10
641.4691808208414
 20
792.7930199689371
 30
0.0
  0
POINT
  5
178B
330
1780
100
AcDbEntity
  8
Defpoints
 62
     0
100
AcDbPoint
 10
452.8371579273958
 20
792.7930199689371
 30
0.0
  0
ENDBLK
  5
1782
330
1780
100
AcDbEntity
  8
0
100
AcDbBlockEnd
  0
BLOCK
  5
1791
330
1790
100
AcDbEntity
  8
0
100
AcDbBlockBegin
  2
*D13
 70
     1
 10
0.0
 20
0.0
 30
0.0
  3
*D13
  1
*D51
  0
LINE
  5
1793
330
1790
100
AcDbEntity
  8
DIM
 62
     0
370
    -2
100
AcDbLine
 10
161.2306005108456
 20
577.9853787017547
 30
0.0
 11
161.2306005108456
 21
560.6748018630999
 31
0.0
  0
LINE
  5
1794
330
1790
100
AcDbEntity
  8
DIM
 62
     0
370
    -2
100
AcDbLine
 10
209.0322181320352
 20
577.9853787017547
 30
0.0
 11
209.0322181320352
 21
560.6748018630999
 31
0.0
  0
LINE
  5
1795
330
1790
100
AcDbEntity
  8
DIM
 62
     0
370
    -2
100
AcDbLine
 10
209.0322181320352
 20
560.6748018630999
 30
0.0
 11
250.0307538454037
 21
560.6748018630999
 31
0.0
  0
LINE
  5
1796
330
1790
100
AcDbEntity
  8
DIM
 62
     0
370
    -2
100
AcDbLine
 10
163.2306005108456
 20
560.6748018630999
 30
0.0
 11
207.0322181320352
 21
560.6748018630999
 31
0.0
  0
INSERT
  5
1797
330
1790
100
AcDbEntity
  8
DIM
 62
     0
370
    -2
100
AcDbBlockReference
  2
_DOT
 10
161.2306005108456
 20
560.6748018630999
 30
0.0
 41
2.0
 42
2.0
 43
2.0
 50
180.0
  0
INSERT
  5
1798
330
1790
100
AcDbEntity
  8
DIM
 62
     0
370
    -2
100
AcDbBlockReference
  2
_DOT
 10
209.0322181320352
 20
560.6748018630999
 30
0.0
 41
2.0
 42
2.0
 43
2.0
  0
MTEXT
  5
1799
330
1790
100
AcDbEntity
  8
DIM
 62
     0
100
AcDbMText
 10
233.9427538454037
 20
571.7348018630998
 30
0.0
 40
12.0
 41
0.0
 46
0.0
 71
     5
 72
     1
  1
\A1;%%C48
  7
ＭＳ ゴシック
 73
     1
 44
1.0
  0
POINT
  5
179A
330
1790
100
AcDbEntity
  8
Defpoints
 62
     0
100
AcDbPoint
 10
161.2306005108456
 20
582.9853787017547
 30
0.0
  0
POINT
  5
179B
330
1790
100
AcDbEntity
  8
Defpoints
 62
     0
100
AcDbPoint
 10
209.0322181320352
 20
582.9853787017547
 30
0.0
  0
POINT
  5
179E
330
1790
100
AcDbEntity
  8
Defpoints
 62
     0
100
AcDbPoint
 10
209.0322181320352
 20
560.6748018630999
 30
0.0
  0
ENDBLK
  5
1792
330
1790
100
AcDbEntity
  8
0
100
AcDbBlockEnd
  0
BLOCK
  5
17A1
330
17A0
100
AcDbEntity
  8
0
100
AcDbBlockBegin
  2
*D14
 70
     1
 10
0.0
 20
0.0
 30
0.0
  3
*D14
  1
*D52
  0
LINE
  5
17A3
330
17A0
100
AcDbEntity
  8
DIM
 62
     0
370
    -2
100
AcDbLine
 10
548.7120447317623
 20
584.7930199689371
 30
0.0
 11
452.8371579273958
 21
584.7930199689371
 31
0.0
  0
LINE
  5
17A4
330
17A0
100
AcDbEntity
  8
DIM
 62
     0
370
    -2
100
AcDbLine
 10
555.5784916814075
 20
253.4654709517774
 30
0.0
 11
452.8371579273958
 21
253.4654709517774
 31
0.0
  0
LINE
  5
17A5
330
17A0
100
AcDbEntity
  8
DIM
 62
     0
370
    -2
100
AcDbLine
 10
452.8371579273958
 20
582.7930199689371
 30
0.0
 11
452.8371579273958
 21
255.4654709517774
 31
0.0
  0
INSERT
  5
17A6
330
17A0
100
AcDbEntity
  8
DIM
 62
     0
370
    -2
100
AcDbBlockReference
  2
_DOT
 10
452.8371579273958
 20
584.7930199689371
 30
0.0
 41
2.0
 42
2.0
 43
2.0
 50
90.0
  0
INSERT
  5
17A7
330
17A0
100
AcDbEntity
  8
DIM
 62
     0
370
    -2
100
AcDbBlockReference
  2
_DOT
 10
452.8371579273958
 20
253.4654709517774
 30
0.0
 41
2.0
 42
2.0
 43
2.0
 50
270.0
  0
MTEXT
  5
17A8
330
17A0
100
AcDbEntity
  8
DIM
 62
     0
100
AcDbMText
 10
436.8371579273958
 20
419.1292454603572
 30
0.0
 40
12.0
 41
0.0
 46
0.0
 71
     5
 72
     1
  1
\A1;395
  7
ＭＳ ゴシック
 11
0.0
 21
1.0
 31
0.0
 73
     1
 44
1.0
  0
POINT
  5
17A9
330
17A0
100
AcDbEntity
  8
Defpoints
 62
     0
100
AcDbPoint
 10
553.7120447317623
 20
584.7930199689371
 30
0.0
  0
POINT
  5
17AA
330
17A0
100
AcDbEntity
  8
Defpoints
 62
     0
100
AcDbPoint
 10
560.5784916814075
 20
253.4654709517774
 30
0.0
  0
POINT
  5
17AB
330
17A0
100
AcDbEntity
  8
Defpoints
 62
     0
100
AcDbPoint
 10
452.8371579273958
 20
253.4654709517774
 30
0.0
  0
ENDBLK
  5
17A2
330
17A0
100
AcDbEntity
  8
0
100
AcDbBlockEnd
  0
BLOCK
  5
17BD
330
17BC
100
AcDbEntity
  8
0
100
AcDbBlockBegin
  2
*D15
 70
     1
 10
0.0
 20
0.0
 30
0.0
  3
*D15
  1
*D54
  0
LINE
  5
17BF
330
17BC
100
AcDbEntity
  8
DIM
 62
     0
370
    -2
100
AcDbLine
 10
610.9607885069961
 20
584.7930199689371
 30
0.0
 11
639.9082577066943
 21
584.7930199689371
 31
0.0
  0
LINE
  5
17C0
330
17BC
100
AcDbEntity
  8
DIM
 62
     0
370
    -2
100
AcDbLine
 10
614.7517041695205
 20
554.8854335595191
 30
0.0
 11
639.9082577066943
 21
554.8854335595191
 31
0.0
  0
LINE
  5
17C1
330
17BC
100
AcDbEntity
  8
DIM
 62
     0
370
    -2
100
AcDbLine
 10
639.9082577066943
 20
554.8854335595191
 30
0.0
 11
639.9082577066943
 21
473.1374335595191
 31
0.0
  0
LINE
  5
17C2
330
17BC
100
AcDbEntity
  8
DIM
 62
     0
370
    -2
100
AcDbLine
 10
639.9082577066943
 20
582.7930199689371
 30
0.0
 11
639.9082577066943
 21
556.8854335595191
 31
0.0
  0
INSERT
  5
17C3
330
17BC
100
AcDbEntity
  8
DIM
 62
     0
370
    -2
100
AcDbBlockReference
  2
_DOT
 10
639.9082577066943
 20
584.7930199689371
 30
0.0
 41
2.0
 42
2.0
 43
2.0
 50
90.0
  0
INSERT
  5
17C4
330
17BC
100
AcDbEntity
  8
DIM
 62
     0
370
    -2
100
AcDbBlockReference
  2
_DOT
 10
639.9082577066943
 20
554.8854335595191
 30
0.0
 41
2.0
 42
2.0
 43
2.0
 50
270.0
  0
MTEXT
  5
17C5
330
17BC
100
AcDbEntity
  8
DIM
 62
     0
100
AcDbMText
 10
623.9082577066943
 20
510.0114335595191
 30
0.0
 40
12.0
 41
0.0
 46
0.0
 71
     5
 72
     1
  1
\A1;max. 30
  7
ＭＳ ゴシック
 11
0.0
 21
1.0
 31
0.0
 73
     1
 44
1.0
  0
POINT
  5
17C6
330
17BC
100
AcDbEntity
  8
Defpoints
 62
     0
100
AcDbPoint
 10
605.9607885069961
 20
584.7930199689371
 30
0.0
  0
POINT
  5
17C7
330
17BC
100
AcDbEntity
  8
Defpoints
 62
     0
100
AcDbPoint
 10
609.7517041695205
 20
554.8854335595191
 30
0.0
  0
POINT
  5
17CA
330
17BC
100
AcDbEntity
  8
Defpoints
 62
     0
100
AcDbPoint
 10
639.9082577066943
 20
554.8854335595191
 30
0.0
  0
ENDBLK
  5
17BE
330
17BC
100
AcDbEntity
  8
0
100
AcDbBlockEnd
  0
BLOCK
  5
17CF
330
17CE
100
AcDbEntity
  8
0
100
AcDbBlockBegin
  2
*D16
 70
     1
 10
0.0
 20
0.0
 30
0.0
  3
*D16
  1
*D55
  0
LINE
  5
17D1
330
17CE
100
AcDbEntity
  8
DIM
 62
     0
370
    -2
100
AcDbLine
 10
565.3887843209084
 20
570.3701848835071
 30
0.0
 11
565.3887843209084
 21
558.6374942100055
 31
0.0
  0
LINE
  5
17D2
330
17CE
100
AcDbEntity
  8
DIM
 62
     0
370
    -2
100
AcDbLine
 10
599.2840489182488
 20
570.3701848835071
 30
0.0
 11
599.2840489182488
 21
558.6374942100055
 31
0.0
  0
LINE
  5
17D3
330
17CE
100
AcDbEntity
  8
DIM
 62
     0
370
    -2
100
AcDbLine
 10
565.3887843209084
 20
558.6374942100055
 30
0.0
 11
519.9727843209084
 21
558.6374942100055
 31
0.0
  0
LINE
  5
17D4
330
17CE
100
AcDbEntity
  8
DIM
 62
     0
370
    -2
100
AcDbLine
 10
567.3887843209084
 20
558.6374942100055
 30
0.0
 11
597.2840489182488
 21
558.6374942100055
 31
0.0
  0
INSERT
  5
17D5
330
17CE
100
AcDbEntity
  8
DIM
 62
     0
370
    -2
100
AcDbBlockReference
  2
_DOT
 10
565.3887843209084
 20
558.6374942100055
 30
0.0
 41
2.0
 42
2.0
 43
2.0
 50
180.0
  0
INSERT
  5
17D6
330
17CE
100
AcDbEntity
  8
DIM
 62
     0
370
    -2
100
AcDbBlockReference
  2
_DOT
 10
599.2840489182488
 20
558.6374942100055
 30
0.0
 41
2.0
 42
2.0
 43
2.0
  0
MTEXT
  5
17D7
330
17CE
100
AcDbEntity
  8
DIM
 62
     0
100
AcDbMText
 10
536.1807843209084
 20
569.6974942100054
 30
0.0
 40
12.0
 41
0.0
 46
0.0
 71
     5
 72
     1
  1
\A1;%%c34
  7
ＭＳ ゴシック
 73
     1
 44
1.0
  0
POINT
  5
17D8
330
17CE
100
AcDbEntity
  8
Defpoints
 62
     0
100
AcDbPoint
 10
565.3887843209084
 20
575.3701848835071
 30
0.0
  0
POINT
  5
17D9
330
17CE
100
AcDbEntity
  8
Defpoints
 62
     0
100
AcDbPoint
 10
599.2840489182488
 20
575.3701848835071
 30
0.0
  0
POINT
  5
19D3
330
17CE
100
AcDbEntity
  8
Defpoints
 62
     0
100
AcDbPoint
 10
599.2840489182488
 20
558.6374942100055
 30
0.0
  0
ENDBLK
  5
17D0
330
17CE
100
AcDbEntity
  8
0
100
AcDbBlockEnd
  0
BLOCK
  5
18AD
330
18AC
100
AcDbEntity
  8
0
100
AcDbBlockBegin
  2
*D17
 70
     1
 10
0.0
 20
0.0
 30
0.0
  3
*D17
  1
*D59
  0
LINE
  5
18AF
330
18AC
100
AcDbEntity
  8
DIM
 62
     0
370
    -2
100
AcDbLine
 10
700.4946287662863
 20
977.2721363221665
 30
0.0
 11
709.1169299192045
 21
977.2721363221665
 31
0.0
  0
LINE
  5
18B0
330
18AC
100
AcDbEntity
  8
DIM
 62
     0
370
    -2
100
AcDbLine
 10
651.6465931778745
 20
1059.872788238859
 30
0.0
 11
663.8293597182752
 21
1074.391644031119
 31
0.0
  0
ARC
  5
18B1
330
18AC
100
AcDbEntity
  8
DIM
 62
     0
370
    -2
100
AcDbCircle
 10
582.3364166195786
 20
977.2721363221665
 30
0.0
 40
126.7805132996259
100
AcDbArc
 50
0.903867197692015
 51
49.09613280230943
  0
INSERT
  5
18B2
330
18AC
100
AcDbEntity
  8
DIM
 62
     0
370
    -2
100
AcDbBlockReference
  2
_DOT
 10
709.1169299192045
 20
977.2721363221665
 30
0.0
 41
2.0
 42
2.0
 43
2.0
 50
270.451933598846
  0
INSERT
  5
18B3
330
18AC
100
AcDbEntity
  8
DIM
 62
     0
370
    -2
100
AcDbBlockReference
  2
_DOT
 10
663.8293597182752
 20
1074.391644031119
 30
0.0
 41
2.0
 42
2.0
 43
2.0
 50
139.5480664011554
  0
MTEXT
  5
18B4
330
18AC
100
AcDbEntity
  8
DIM
 62
     0
100
AcDbMText
 10
711.9298322954083
 20
1037.702538498241
 30
0.0
 40
12.0
 41
0.0
 46
0.0
 71
     5
 72
     1
  1
\A1;\A1;50%%d
  7
ＭＳ ゴシック
 11
0.4226182617405326
 21
-0.9063077870367277
 31
0.0
 73
     1
 44
1.0
  0
POINT
  5
18B5
330
18AC
100
AcDbEntity
  8
Defpoints
 62
     0
100
AcDbPoint
 10
703.7908187265942
 20
1013.633197381272
 30
0.0
  0
POINT
  5
18B6
330
18AC
100
AcDbEntity
  8
Defpoints
 62
     0
100
AcDbPoint
 10
582.3364166195786
 20
977.2721363221665
 30
0.0
  0
POINT
  5
18B7
330
18AC
100
AcDbEntity
  8
Defpoints
 62
     0
100
AcDbPoint
 10
582.3364166195786
 20
977.2721363221665
 30
0.0
  0
POINT
  5
18B8
330
18AC
100
AcDbEntity
  8
Defpoints
 62
     0
100
AcDbPoint
 10
648.4326551294419
 20
1056.042566023264
 30
0.0
  0
POINT
  5
18B9
330
18AC
100
AcDbEntity
  8
Defpoints
 62
     0
100
AcDbPoint
 10
695.4946287662863
 20
977.2721363221665
 30
0.0
  0
ENDBLK
  5
18AE
330
18AC
100
AcDbEntity
  8
0
100
AcDbBlockEnd
  0
ENDSEC
  0
SECTION
  2
ENTITIES
  0
MTEXT
  5
177
330
A
100
AcDbEntity
  8
MODEL
390
1D
100
AcDbMText
 10
31.6808578190923
 20
137.4927006525713
 30
0.0
 40
6.515364583333332
 41
0.0
 46
0.0
 71
     1
 72
     1
  1
品名
  7
ＭＳ ゴシック
 73
     1
 44
0.7828267384257843
  0
MTEXT
  5
178
330
A
100
AcDbEntity
  8
MODEL
390
1D
100
AcDbMText
 10
31.6808578190923
 20
103.4927006525712
 30
0.0
 40
6.515364583333332
 41
0.0
 46
0.0
 71
     1
 72
     1
  1
仕様
  7
ＭＳ ゴシック
 73
     1
 44
0.7828267384257843
  0
LINE
  5
179
330
A
100
AcDbEntity
  8
MODEL
390
1D
100
AcDbLine
 10
808.8808578188996
 20
106.8586694025714
 30
0.0
 11
28.8808578188995
 21
106.8586694025714
 31
0.0
  0
LWPOLYLINE
  5
17A
330
A
100
AcDbEntity
  8
MODEL
390
1D
100
AcDbPolyline
 90
        5
 70
   128
 43
0.0
 10
808.8808578188996
 20
1158.858669402571
 10
28.8808578188995
 20
1158.858669402571
 10
28.8808578188995
 20
38.8586694025713
 10
808.8808578188996
 20
38.8586694025713
 10
808.8808578188996
 20
1158.858669402571
  0
LINE
  5
17B
330
A
100
AcDbEntity
  8
MODEL
390
1D
100
AcDbLine
 10
808.8808578188996
 20
140.8586694025713
 30
0.0
 11
28.8808578188995
 21
140.8586694025713
 31
0.0
  0
LINE
  5
17C
330
A
100
AcDbEntity
  8
MODEL
390
1D
100
AcDbLine
 10
808.8808578190924
 20
72.85866940257128
 30
0.0
 11
507.680857819092
 21
72.85866940257128
 31
0.0
  0
MTEXT
  5
17D
330
A
100
AcDbEntity
  8
MODEL
390
1D
100
AcDbMText
 10
28.8808578191738
 20
34.11714057982846
 30
0.0
 40
8.687152777777776
 41
0.0
 46
8.687152777777776
 71
     1
 72
     1
  1
{160212N}
  7
ＭＳ ゴシック
 73
     1
 44
0.7828267384257843
1001
ACAD
1000
ACAD_MTEXT_DEFINED_HEIGHT_BEGIN
1070
    46
1040
8.687152777777776
1000
ACAD_MTEXT_DEFINED_HEIGHT_END
  0
MTEXT
  5
17E
330
A
100
AcDbEntity
  8
MODEL
390
1D
100
AcDbMText
 10
519.6294203199964
 20
60.89451161324804
 30
0.0
 40
9.773046875
 41
0.0
 46
0.0
 71
     1
 72
     1
  1
大洋金物株式会社 ティーフォルム事業部
  7
ＭＳ ゴシック
 73
     1
 44
0.7828267384257843
  0
MTEXT
  5
180
330
A
100
AcDbEntity
  8
MODEL
390
1D
100
AcDbMText
 10
732.480857819196
 20
92.05971627757124
 30
0.0
 40
9.773046875
 41
0.0
 46
9.773046875
 71
     1
 72
     1
  1
{1:4}
  7
ＭＳ ゴシック
 73
     1
 44
0.7828267384257843
1001
ACAD
1000
ACAD_MTEXT_DEFINED_HEIGHT_BEGIN
1070
    46
1040
9.773046875
1000
ACAD_MTEXT_DEFINED_HEIGHT_END
  0
MTEXT
  5
181
330
A
100
AcDbEntity
  8
MODEL
390
1D
100
AcDbMText
 10
711.280857819196
 20
103.4927006525712
 30
0.0
 40
6.515364583333332
 41
0.0
 46
0.0
 71
     1
 72
     1
  1
縮尺
  7
ＭＳ ゴシック
 73
     1
 44
0.7828267384257843
  0
LINE
  5
182
330
A
100
AcDbEntity
  8
MODEL
390
1D
100
AcDbLine
 10
708.480857819196
 20
72.85866940257128
 30
0.0
 11
708.480857819196
 21
106.8586694025714
 31
0.0
  0
MTEXT
  5
183
330
A
100
AcDbEntity
  8
MODEL
390
1D
100
AcDbMText
 10
610.880857819196
 20
103.4927006525712
 30
0.0
 40
6.515364583333332
 41
0.0
 46
0.0
 71
     1
 72
     1
  1
容量
  7
ＭＳ ゴシック
 73
     1
 44
0.7828267384257843
  0
LINE
  5
184
330
A
100
AcDbEntity
  8
MODEL
390
1D
100
AcDbLine
 10
608.080857819196
 20
72.85866940257128
 30
0.0
 11
608.080857819196
 21
106.8586694025714
 31
0.0
  0
MTEXT
  5
185
330
A
100
AcDbEntity
  8
MODEL
390
1D
100
AcDbMText
 10
510.480857819196
 20
137.4927006525713
 30
0.0
 40
6.515364583333332
 41
0.0
 46
0.0
 71
     1
 72
     1
  1
品番
  7
ＭＳ ゴシック
 73
     1
 44
0.7828267384257843
  0
MTEXT
  5
186
330
A
100
AcDbEntity
  8
MODEL
390
1D
100
AcDbMText
 10
510.480857819196
 20
103.4927006525712
 30
0.0
 40
6.515364583333332
 41
0.0
 46
0.0
 71
     1
 72
     1
  1
重量
  7
ＭＳ ゴシック
 73
     1
 44
0.7828267384257843
  0
MTEXT
  5
187
330
A
100
AcDbEntity
  8
MODEL
390
1D
100
AcDbMText
 10
531.680857819196
 20
126.0597162775713
 30
0.0
 40
9.773046875
 41
0.0
 46
9.773046875
 71
     1
 72
     1
  1
{FHT73-1909}
  7
ＭＳ ゴシック
 73
     1
 44
0.7828267384257843
1001
ACAD
1000
ACAD_MTEXT_DEFINED_HEIGHT_BEGIN
1070
    46
1040
9.773046875
1000
ACAD_MTEXT_DEFINED_HEIGHT_END
  0
LINE
  5
188
330
A
100
AcDbEntity
  8
MODEL
390
1D
100
AcDbLine
 10
507.680857819196
 20
38.8586694025713
 30
0.0
 11
507.680857819196
 21
140.8586694025713
 31
0.0
  0
MTEXT
  5
189
330
A
100
AcDbEntity
  8
MODEL
390
1D
100
AcDbMText
 10
52.88085781909228
 20
126.0597162775713
 30
0.0
 40
9.773046875
 41
0.0
 46
9.773046875
 71
     1
 72
     1
  1
{混合栓　-GROHE,Essence-}
  7
ＭＳ ゴシック
 73
     1
 44
0.7828267384257843
1001
ACAD
1000
ACAD_MTEXT_DEFINED_HEIGHT_BEGIN
1070
    46
1040
9.773046875
1000
ACAD_MTEXT_DEFINED_HEIGHT_END
  0
INSERT
  5
6B5
330
A
100
AcDbEntity
  8
MODEL
100
AcDbBlockReference
  2
名称未設定-1
 10
748.30029923538
 20
10.37870630266152
 30
0.0
 41
0.3048
 42
0.3048
 43
0.3048
  0
INSERT
  5
68C
330
A
100
AcDbEntity
  8
TEMPLATE
100
AcDbBlockReference
  2
block 2
 10
3677.09720708103
 20
33.49230605734548
 30
0.0
 41
1.524
 42
1.524
 43
1.524
  0
LINE
  5
12BD
330
A
100
AcDbEntity
  8
MODEL
100
AcDbLine
 10
560.9026463674709
 20
590.7745372508206
 30
0.0
 11
560.9026463674709
 21
632.1513070923437
 31
0.0
  0
LINE
  5
12BE
330
A
100
AcDbEntity
  8
MODEL
100
AcDbLine
 10
590.5610028913402
 20
309.7914253561814
 30
0.0
 11
579.0964281010633
 21
309.7914253561814
 31
0.0
  0
LINE
  5
12BF
330
A
100
AcDbEntity
  8
MODEL
100
AcDbLine
 10
578.597968327573
 20
321.7544599199486
 30
0.0
 11
578.670366534375
 21
321.7544599199486
 31
0.0
  0
SPLINE
  5
12C0
330
A
100
AcDbEntity
  8
MODEL
100
AcDbSpline
210
0.0
220
0.0
230
1.0
 70
     8
 71
     3
 72
    12
 73
     8
 74
     0
 42
0.000000001
 43
0.0000000001
 40
0.0
 40
0.0
 40
0.0
 40
0.0
 40
0.25
 40
0.25
 40
0.5
 40
0.5
 40
1.0
 40
1.0
 40
1.0
 40
1.0
 10
578.84719821422
 20
321.3556921013084
 30
0.0
 10
578.8335616211493
 20
321.4180308124906
 30
0.0
 10
578.8187279516912
 20
321.4735289313816
 30
0.0
 10
578.7877942712198
 20
321.5716943406928
 30
0.0
 10
578.7715404604846
 20
321.6145332929771
 30
0.0
 10
578.7244623578956
 20
321.7173358995578
 30
0.0
 10
578.6944146734884
 20
321.7544599201073
 30
0.0
 10
578.6703665344835
 20
321.7544599201073
 30
0.0
  0
LINE
  5
12C1
330
A
100
AcDbEntity
  8
MODEL
100
AcDbLine
 10
578.847198214318
 20
312.283724223633
 30
0.0
 11
578.847198214318
 21
321.3556921011565
 31
0.0
  0
SPLINE
  5
12C2
330
A
100
AcDbEntity
  8
MODEL
100
AcDbSpline
210
0.0
220
0.0
230
1.0
 70
     8
 71
     3
 72
    12
 73
     8
 74
     0
 42
0.000000001
 43
0.0000000001
 40
0.0
 40
0.0
 40
0.0
 40
0.0
 40
0.25
 40
0.25
 40
0.5
 40
0.5
 40
1.0
 40
1.0
 40
1.0
 40
1.0
 10
578.6703665344835
 20
311.8849564049994
 30
0.0
 10
578.6823911713925
 20
311.8849564049994
 30
0.0
 10
578.6956624744178
 20
311.8940270313023
 30
0.0
 10
578.7243929780225
 20
311.9293464807087
 30
0.0
 10
578.7400073384126
 20
311.9560711852131
 30
0.0
 10
578.7870809398753
 20
312.0587272272326
 30
0.0
 10
578.8199291865781
 20
312.1590658117186
 30
0.0
 10
578.8471982142203
 20
312.2837242237986
 30
0.0
  0
LINE
  5
12C3
330
A
100
AcDbEntity
  8
MODEL
100
AcDbLine
 10
578.670366534375
 20
311.8849564048407
 30
0.0
 11
578.597968327573
 21
311.8849564048407
 31
0.0
  0
LINE
  5
12C4
330
A
100
AcDbEntity
  8
MODEL
100
AcDbLine
 10
579.3655190632508
 20
321.3556921011565
 30
0.0
 11
579.3655190632508
 21
312.283724223633
 31
0.0
  0
SPLINE
  5
12C5
330
A
100
AcDbEntity
  8
MODEL
100
AcDbSpline
210
0.0
220
0.0
230
1.0
 70
     8
 71
     3
 72
    12
 73
     8
 74
     0
 42
0.000000001
 43
0.0000000001
 40
0.0
 40
0.0
 40
0.0
 40
0.0
 40
0.2500000000000003
 40
0.2500000000000003
 40
0.5000000000000007
 40
0.5000000000000007
 40
1.0
 40
1.0
 40
1.0
 40
1.0
 10
579.3655190633565
 20
312.2837242237987
 30
0.0
 10
579.3889366299788
 20
312.2213855126166
 30
0.0
 10
579.4158377812207
 20
312.1658873937249
 30
0.0
 10
579.4770529984553
 20
312.0677219844137
 30
0.0
 10
579.5117787975903
 20
312.0248830321297
 30
0.0
 10
579.6235398525664
 20
311.922080425549
 30
0.0
 10
579.710855162436
 20
311.8849564049992
 30
0.0
 10
579.8044230410637
 20
311.8849564049994
 30
0.0
  0
SPLINE
  5
12C6
330
A
100
AcDbEntity
  8
MODEL
100
AcDbSpline
210
0.0
220
0.0
230
1.0
 70
     8
 71
     3
 72
    12
 73
     8
 74
     0
 42
0.000000001
 43
0.0000000001
 40
0.0
 40
0.0
 40
0.0
 40
0.0
 40
0.2499999999999997
 40
0.2499999999999997
 40
0.4999999999999993
 40
0.4999999999999993
 40
1.0
 40
1.0
 40
1.0
 40
1.0
 10
579.8044230410637
 20
321.7544599201073
 30
0.0
 10
579.757636894052
 20
321.7544599201073
 30
0.0
 10
579.7129991700683
 20
321.7453892938044
 30
0.0
 10
579.6276478333682
 20
321.710069844398
 30
0.0
 10
579.5866607196115
 20
321.6833451398934
 30
0.0
 10
579.474839074885
 20
321.580689097874
 30
0.0
 10
579.4123470553786
 20
321.480350513388
 30
0.0
 10
579.3655190633565
 20
321.3556921013079
 30
0.0
  0
LINE
  5
12C7
330
A
100
AcDbEntity
  8
MODEL
100
AcDbLine
 10
581.143787327738
 20
321.7544599199486
 30
0.0
 11
579.8044230412536
 21
321.7544599199486
 31
0.0
  0
ARC
  5
12C8
330
A
100
AcDbEntity
  8
MODEL
100
AcDbCircle
 10
581.0992989762776
 20
320.8830067857245
 30
0.0
 40
0.8725879777300923
100
AcDbArc
 50
32.79978470230631
 51
87.07754353040251
  0
LINE
  5
12C9
330
A
100
AcDbEntity
  8
MODEL
100
AcDbLine
 10
581.832769065383
 20
312.283724223633
 30
0.0
 11
581.832769065383
 21
321.3556921011565
 31
0.0
  0
ARC
  5
12CA
330
A
100
AcDbEntity
  8
MODEL
100
AcDbCircle
 10
581.1103842411246
 20
312.7372566776614
 30
0.0
 40
0.8529545830707478
100
AcDbArc
 50
272.2443696997135
 51
327.8783020677109
  0
LINE
  5
12CB
330
A
100
AcDbEntity
  8
MODEL
100
AcDbLine
 10
579.8044230412536
 20
311.8849564048407
 30
0.0
 11
581.143787327738
 21
311.8849564048407
 31
0.0
  0
LINE
  5
12CC
330
A
100
AcDbEntity
  8
MODEL
100
AcDbLine
 10
583.0841062889856
 20
321.3556921011565
 30
0.0
 11
583.0841062889856
 21
312.283724223633
 31
0.0
  0
ARC
  5
12CD
330
A
100
AcDbEntity
  8
MODEL
100
AcDbCircle
 10
583.8816419265702
 20
312.8818759518213
 30
0.0
 40
0.9969195469797598
100
AcDbArc
 50
216.8698976452926
 51
270.0
  0
ARC
  5
12CE
330
A
100
AcDbEntity
  8
MODEL
100
AcDbCircle
 10
583.8816419265702
 20
320.7575403729681
 30
0.0
 40
0.9969195469793523
100
AcDbArc
 50
90.0
 51
143.1301023546996
  0
LINE
  5
12CF
330
A
100
AcDbEntity
  8
MODEL
100
AcDbLine
 10
585.7757890658334
 20
321.7544599199486
 30
0.0
 11
583.8816419265702
 21
321.7544599199486
 31
0.0
  0
ARC
  5
12D0
330
A
100
AcDbEntity
  8
MODEL
100
AcDbCircle
 10
585.7757890658334
 20
320.7575403729681
 30
0.0
 40
0.9969195469797246
100
AcDbArc
 50
36.86989764530824
 51
90.0
  0
LINE
  5
12D1
330
A
100
AcDbEntity
  8
MODEL
100
AcDbLine
 10
586.5733247034179
 20
312.283724223633
 30
0.0
 11
586.5733247034179
 21
321.3556921011565
 31
0.0
  0
ARC
  5
12D2
330
A
100
AcDbEntity
  8
MODEL
100
AcDbCircle
 10
585.7757890658334
 20
312.8818759518213
 30
0.0
 40
0.9969195469794089
100
AcDbArc
 50
270.0
 51
323.1301023547009
  0
LINE
  5
12D3
330
A
100
AcDbEntity
  8
MODEL
100
AcDbLine
 10
583.8816419265702
 20
311.8849564048407
 30
0.0
 11
585.7757890658334
 21
311.8849564048407
 31
0.0
  0
LINE
  5
12D4
330
A
100
AcDbEntity
  8
MODEL
100
AcDbLine
 10
587.8246619270205
 20
321.3556921011565
 30
0.0
 11
587.8246619270205
 21
312.283724223633
 31
0.0
  0
ARC
  5
12D5
330
A
100
AcDbEntity
  8
MODEL
100
AcDbCircle
 10
588.5581320157273
 20
312.7564095394636
 30
0.0
 40
0.8725879777303205
100
AcDbArc
 50
212.7997847022
 51
267.0775435303883
  0
ARC
  5
12D6
330
A
100
AcDbEntity
  8
MODEL
100
AcDbCircle
 10
588.5470467512787
 20
320.9021596475267
 30
0.0
 40
0.8529545830705045
100
AcDbArc
 50
92.24436969959187
 51
147.8783020676849
  0
LINE
  5
12D7
330
A
100
AcDbEntity
  8
MODEL
100
AcDbLine
 10
589.85300795115
 20
321.7544599199486
 30
0.0
 11
588.5136436642667
 21
321.7544599199486
 31
0.0
  0
SPLINE
  5
12D8
330
A
100
AcDbEntity
  8
MODEL
100
AcDbSpline
210
0.0
220
0.0
230
1.0
 70
     8
 71
     3
 72
    12
 73
     8
 74
     0
 42
0.000000001
 43
0.0000000001
 40
0.0
 40
0.0
 40
0.0
 40
0.0
 40
0.2500000000000001
 40
0.2500000000000001
 40
0.5000000000000001
 40
0.5000000000000001
 40
1.0
 40
1.0
 40
1.0
 40
1.0
 10
590.2919119288513
 20
321.355692101308
 30
0.0
 10
590.2684943622291
 20
321.4180308124903
 30
0.0
 10
590.2415932109873
 20
321.4735289313814
 30
0.0
 10
590.1803779937527
 20
321.5716943406928
 30
0.0
 10
590.1456521946177
 20
321.6145332929769
 30
0.0
 10
590.0338911396414
 20
321.7173358995579
 30
0.0
 10
589.9465758297717
 20
321.7544599201071
 30
0.0
 10
589.853007951144
 20
321.7544599201073
 30
0.0
  0
LINE
  5
12D9
330
A
100
AcDbEntity
  8
MODEL
100
AcDbLine
 10
590.291911928754
 20
312.283724223633
 30
0.0
 11
590.291911928754
 21
321.3556921011565
 31
0.0
  0
SPLINE
  5
12DA
330
A
100
AcDbEntity
  8
MODEL
100
AcDbSpline
210
0.0
220
0.0
230
1.0
 70
     8
 71
     3
 72
    12
 73
     8
 74
     0
 42
0.000000001
 43
0.0000000001
 40
0.0
 40
0.0
 40
0.0
 40
0.0
 40
0.2499999999999997
 40
0.2499999999999997
 40
0.4999999999999993
 40
0.4999999999999993
 40
1.0
 40
1.0
 40
1.0
 40
1.0
 10
589.853007951144
 20
311.8849564049994
 30
0.0
 10
589.899794098156
 20
311.8849564049994
 30
0.0
 10
589.9444318221394
 20
311.8940270313025
 30
0.0
 10
590.0297831588393
 20
311.9293464807089
 30
0.0
 10
590.0707702725963
 20
311.956071185213
 30
0.0
 10
590.1825919173225
 20
312.0587272272326
 30
0.0
 10
590.2450839368291
 20
312.1590658117188
 30
0.0
 10
590.2919119288513
 20
312.2837242237986
 30
0.0
  0
LINE
  5
12DB
330
A
100
AcDbEntity
  8
MODEL
100
AcDbLine
 10
588.5136436642667
 20
311.8849564048407
 30
0.0
 11
589.85300795115
 21
311.8849564048407
 31
0.0
  0
LINE
  5
12DC
330
A
100
AcDbEntity
  8
MODEL
100
AcDbLine
 10
590.8102327780855
 20
321.3556921011565
 30
0.0
 11
590.8102327780855
 21
312.283724223633
 31
0.0
  0
SPLINE
  5
12DD
330
A
100
AcDbEntity
  8
MODEL
100
AcDbSpline
210
0.0
220
0.0
230
1.0
 70
     8
 71
     3
 72
    12
 73
     8
 74
     0
 42
0.000000001
 43
0.0000000001
 40
0.0
 40
0.0
 40
0.0
 40
0.0
 40
0.2500000000000195
 40
0.2500000000000195
 40
0.500000000000039
 40
0.500000000000039
 40
1.0
 40
1.0
 40
1.0
 40
1.0
 10
590.8102327779875
 20
312.2837242237986
 30
0.0
 10
590.8238693710584
 20
312.2213855126163
 30
0.0
 10
590.8387030405165
 20
312.1658873937246
 30
0.0
 10
590.869636720988
 20
312.0677219844137
 30
0.0
 10
590.8858905317231
 20
312.0248830321295
 30
0.0
 10
590.9329686343119
 20
311.9220804255488
 30
0.0
 10
590.9630163187194
 20
311.8849564049994
 30
0.0
 10
590.9870644577243
 20
311.8849564049994
 30
0.0
  0
SPLINE
  5
12DE
330
A
100
AcDbEntity
  8
MODEL
100
AcDbSpline
210
0.0
220
0.0
230
1.0
 70
     8
 71
     3
 72
    12
 73
     8
 74
     0
 42
0.000000001
 43
0.0000000001
 40
0.0
 40
0.0
 40
0.0
 40
0.0
 40
0.2500000000000002
 40
0.2500000000000002
 40
0.5000000000000003
 40
0.5000000000000003
 40
1.0
 40
1.0
 40
1.0
 40
1.0
 10
590.9870644577243
 20
321.7544599201073
 30
0.0
 10
590.9750398208153
 20
321.7544599201073
 30
0.0
 10
590.9617685177898
 20
321.7453892938044
 30
0.0
 10
590.9330380141853
 20
321.710069844398
 30
0.0
 10
590.9174236537954
 20
321.6833451398936
 30
0.0
 10
590.8703500523325
 20
321.5806890978741
 30
0.0
 10
590.8375018056295
 20
321.480350513388
 30
0.0
 10
590.8102327779875
 20
321.355692101308
 30
0.0
  0
LINE
  5
12DF
330
A
100
AcDbEntity
  8
MODEL
100
AcDbLine
 10
590.9870644576297
 20
321.7544599199486
 30
0.0
 11
591.0594626648306
 21
321.7544599199486
 31
0.0
  0
LINE
  5
12E0
330
A
100
AcDbEntity
  8
MODEL
100
AcDbLine
 10
591.0594626648306
 20
311.8849564048407
 30
0.0
 11
590.9870644576297
 21
311.8849564048407
 31
0.0
  0
ARC
  5
12E1
330
A
100
AcDbEntity
  8
MODEL
100
AcDbCircle
 10
579.0964281010633
 20
310.2898851296717
 30
0.0
 40
0.498459773490301
100
AcDbArc
 50
180.0
 51
270.0
  0
ARC
  5
12E2
330
A
100
AcDbEntity
  8
MODEL
100
AcDbCircle
 10
590.5610028913402
 20
310.2898851296717
 30
0.0
 40
0.4984597734903018
100
AcDbArc
 50
270.0
 51
0.0
  0
LINE
  5
12E3
330
A
100
AcDbEntity
  8
MODEL
100
AcDbLine
 10
578.597968327573
 20
311.8849564048407
 30
0.0
 11
578.597968327573
 21
310.2898851296717
 31
0.0
  0
LINE
  5
12E4
330
A
100
AcDbEntity
  8
MODEL
100
AcDbLine
 10
578.597968327573
 20
327.7359772018323
 30
0.0
 11
578.597968327573
 21
321.7544599199486
 31
0.0
  0
LINE
  5
12E5
330
A
100
AcDbEntity
  8
MODEL
100
AcDbLine
 10
591.0594626648306
 20
321.7544599199486
 30
0.0
 11
591.0594626648306
 21
327.7359772018323
 31
0.0
  0
LINE
  5
12E6
330
A
100
AcDbEntity
  8
MODEL
100
AcDbLine
 10
591.0594626648306
 20
310.2898851296717
 30
0.0
 11
591.0594626648306
 21
311.8849564048407
 31
0.0
  0
LINE
  5
12E7
330
A
100
AcDbEntity
  8
MODEL
100
AcDbLine
 10
579.3456579878084
 20
309.2929655826911
 30
0.0
 11
590.3117730045951
 21
309.2929655826911
 31
0.0
  0
LINE
  5
12E8
330
A
100
AcDbEntity
  8
MODEL
100
AcDbLine
 10
579.3456579878084
 20
309.2929655826911
 30
0.0
 11
579.3456579878084
 21
308.8941977638989
 31
0.0
  0
LINE
  5
12E9
330
A
100
AcDbEntity
  8
MODEL
100
AcDbLine
 10
590.3117730045951
 20
308.8941977638989
 30
0.0
 11
590.3117730045951
 21
309.2929655826911
 31
0.0
  0
LINE
  5
12EA
330
A
100
AcDbEntity
  8
MODEL
100
AcDbLine
 10
590.3117730045951
 20
309.2929655826911
 30
0.0
 11
589.8133132311048
 21
309.7914253561814
 31
0.0
  0
LINE
  5
12EB
330
A
100
AcDbEntity
  8
MODEL
100
AcDbLine
 10
579.8441177612988
 20
309.7914253561814
 30
0.0
 11
579.3456579878084
 21
309.2929655826911
 31
0.0
  0
LINE
  5
12EC
330
A
100
AcDbEntity
  8
MODEL
100
AcDbLine
 10
593.8009914190272
 20
308.8941977638989
 30
0.0
 11
575.8564395733763
 21
308.8941977638989
 31
0.0
  0
LINE
  5
12ED
330
A
100
AcDbEntity
  8
MODEL
100
AcDbLine
 10
593.8009914190272
 20
298.3268505659045
 30
0.0
 11
575.8564395733763
 21
298.3268505659045
 31
0.0
  0
LINE
  5
12EE
330
A
100
AcDbEntity
  8
MODEL
100
AcDbLine
 10
595.0144580516778
 20
308.1459544647918
 30
0.0
 11
595.096986830102
 21
308.1459544647918
 31
0.0
  0
LINE
  5
12EF
330
A
100
AcDbEntity
  8
MODEL
100
AcDbLine
 10
595.0144580516778
 20
299.0750938654105
 30
0.0
 11
595.096986830102
 21
299.0750938654105
 31
0.0
  0
LINE
  5
12F0
330
A
100
AcDbEntity
  8
MODEL
100
AcDbLine
 10
591.0467683514973
 20
299.0750938654105
 30
0.0
 11
588.7964051963822
 21
299.0750938654105
 31
0.0
  0
LINE
  5
12F1
330
A
100
AcDbEntity
  8
MODEL
100
AcDbLine
 10
591.0467683514973
 20
308.1459544647918
 30
0.0
 11
588.7964051963822
 21
308.1459544647918
 31
0.0
  0
LINE
  5
12F2
330
A
100
AcDbEntity
  8
MODEL
100
AcDbLine
 10
591.0467683514973
 20
299.0750938654105
 30
0.0
 11
591.0467683514973
 21
308.1459544647918
 31
0.0
  0
ARC
  5
12F3
330
A
100
AcDbEntity
  8
MODEL
100
AcDbCircle
 10
593.030613201787
 20
304.0726996533996
 30
0.0
 40
4.5306782213668
100
AcDbArc
 50
64.03198779290177
 51
115.9680122071014
  0
ARC
  5
12F4
330
A
100
AcDbEntity
  8
MODEL
100
AcDbCircle
 10
593.030613201787
 20
303.1483486768025
 30
0.0
 40
4.530678221366895
100
AcDbArc
 50
244.0319877928992
 51
295.9680122071009
  0
LINE
  5
12F5
330
A
100
AcDbEntity
  8
MODEL
100
AcDbLine
 10
580.8610257960213
 20
299.0750938654105
 30
0.0
 11
578.6106626405074
 21
299.0750938654105
 31
0.0
  0
LINE
  5
12F6
330
A
100
AcDbEntity
  8
MODEL
100
AcDbLine
 10
580.8610257960213
 20
308.1459544647918
 30
0.0
 11
578.6106626405074
 21
308.1459544647918
 31
0.0
  0
LINE
  5
12F7
330
A
100
AcDbEntity
  8
MODEL
100
AcDbLine
 10
580.8610257960213
 20
299.0750938654105
 30
0.0
 11
580.8610257960213
 21
308.1459544647918
 31
0.0
  0
LINE
  5
12F8
330
A
100
AcDbEntity
  8
MODEL
100
AcDbLine
 10
588.7964051963822
 20
308.1459544647918
 30
0.0
 11
588.7964051963822
 21
299.0750938654105
 31
0.0
  0
SPLINE
  5
12F9
330
A
100
AcDbEntity
  8
MODEL
100
AcDbSpline
210
0.0
220
0.0
230
1.0
 70
     8
 71
     3
 72
    14
 73
    10
 74
     0
 42
0.000000001
 43
0.0000000001
 40
0.0
 40
0.0
 40
0.0
 40
0.0
 40
0.25
 40
0.25
 40
0.375
 40
0.375
 40
0.5
 40
0.5
 40
1.0
 40
1.0
 40
1.0
 40
1.0
 10
580.8610257958971
 20
308.1459544646045
 30
0.0
 10
581.5098221997716
 20
308.2906943320572
 30
0.0
 10
582.1643789839788
 20
308.4064749882361
 30
0.0
 10
583.1571739475585
 20
308.5250477365026
 30
0.0
 10
583.4899309627635
 20
308.5553953339519
 30
0.0
 10
584.1594125063741
 20
308.5961446144553
 30
0.0
 10
584.4971719899102
 20
308.6064955568613
 30
0.0
 10
586.17546237295
 20
308.6060745906684
 30
0.0
 10
587.4943905479518
 20
308.4364206670979
 30
0.0
 10
588.7964051963108
 20
308.1459544646045
 30
0.0
  0
SPLINE
  5
12FA
330
A
100
AcDbEntity
  8
MODEL
100
AcDbSpline
210
0.0
220
0.0
230
1.0
 70
     8
 71
     3
 72
    14
 73
    10
 74
     0
 42
0.000000001
 43
0.0000000001
 40
0.0
 40
0.0
 40
0.0
 40
0.0
 40
0.5
 40
0.5
 40
0.625
 40
0.625
 40
0.75
 40
0.75
 40
1.0
 40
1.0
 40
1.0
 40
1.0
 10
588.7964051963108
 20
299.0750938655153
 30
0.0
 10
587.4943905479518
 20
298.7846276630217
 30
0.0
 10
586.17546237295
 20
298.6149737394516
 30
0.0
 10
584.4971719899102
 20
298.6145527732586
 30
0.0
 10
584.1594125063741
 20
298.6249037156644
 30
0.0
 10
583.4899309627635
 20
298.6656529961678
 30
0.0
 10
583.1571739475585
 20
298.6960005936173
 30
0.0
 10
582.1643789839788
 20
298.8145733418837
 30
0.0
 10
581.5098221997716
 20
298.9303539980626
 30
0.0
 10
580.8610257958971
 20
299.0750938655153
 30
0.0
  0
LINE
  5
12FB
330
A
100
AcDbEntity
  8
MODEL
100
AcDbLine
 10
574.6429729403269
 20
299.0750938654105
 30
0.0
 11
574.5604441623016
 21
299.0750938654105
 31
0.0
  0
LINE
  5
12FC
330
A
100
AcDbEntity
  8
MODEL
100
AcDbLine
 10
574.6429729403269
 20
308.1459544647918
 30
0.0
 11
574.5604441623016
 21
308.1459544647918
 31
0.0
  0
LINE
  5
12FD
330
A
100
AcDbEntity
  8
MODEL
100
AcDbLine
 10
578.6106626405074
 20
308.1459544647918
 30
0.0
 11
578.6106626405074
 21
299.0750938654105
 31
0.0
  0
ARC
  5
12FE
330
A
100
AcDbEntity
  8
MODEL
100
AcDbCircle
 10
576.6268177906165
 20
304.0726996533996
 30
0.0
 40
4.530678221366824
100
AcDbArc
 50
64.03198779289889
 51
115.9680122071011
  0
ARC
  5
12FF
330
A
100
AcDbEntity
  8
MODEL
100
AcDbCircle
 10
576.6268177906165
 20
303.1483486768025
 30
0.0
 40
4.530678221366604
100
AcDbArc
 50
244.0319877928015
 51
295.9680122071985
  0
LINE
  5
1300
330
A
100
AcDbEntity
  8
MODEL
100
AcDbLine
 10
595.096986830102
 20
308.1459544647918
 30
0.0
 11
593.8009914190272
 21
308.8941977638989
 31
0.0
  0
LINE
  5
1301
330
A
100
AcDbEntity
  8
MODEL
100
AcDbLine
 10
575.8564395733763
 20
308.8941977638989
 30
0.0
 11
574.5604441623016
 21
308.1459544647918
 31
0.0
  0
LINE
  5
1302
330
A
100
AcDbEntity
  8
MODEL
100
AcDbLine
 10
574.5604441623016
 20
299.0750938654105
 30
0.0
 11
575.8564395733763
 21
298.3268505659045
 31
0.0
  0
LINE
  5
1303
330
A
100
AcDbEntity
  8
MODEL
100
AcDbLine
 10
593.8009914190272
 20
298.3268505659045
 30
0.0
 11
595.096986830102
 21
299.0750938654105
 31
0.0
  0
LINE
  5
1304
330
A
100
AcDbEntity
  8
MODEL
100
AcDbLine
 10
595.096986830102
 20
299.0750938654105
 30
0.0
 11
595.096986830102
 21
308.1459544647918
 31
0.0
  0
LINE
  5
1305
330
A
100
AcDbEntity
  8
MODEL
100
AcDbLine
 10
574.5604441623016
 20
308.1459544647918
 30
0.0
 11
574.5604441623016
 21
299.0750938654105
 31
0.0
  0
HATCH
  5
1306
330
A
100
AcDbEntity
  8
MODEL
100
AcDbHatch
 10
0.0
 20
0.0
 30
0.0
210
0.0
220
0.0
230
1.0
  2
NET
 70
     0
 71
     0
 91
        1
 92
        1
 93
        4
 72
     1
 10
579.844117761201
 20
347.7868892772307
 11
579.844117761201
 21
327.735977201991
 72
     1
 10
579.844117761201
 20
327.735977201991
 11
589.813313231007
 21
327.735977201991
 72
     1
 10
589.813313231007
 20
327.735977201991
 11
589.813313231007
 21
347.4577356908227
 72
     4
 94
        3
 73
     0
 74
     0
 95
       10
 96
        6
 40
0.0
 40
0.0
 40
0.0
 40
0.0
 40
0.067191488933935
 40
0.8163223401337757
 40
1.0
 40
1.0
 40
1.0
 40
1.0
 10
589.8133056612799
 20
347.4577361383433
 10
589.5814069084731
 20
347.4851557372139
 10
586.774991430919
 20
347.8592008689179
 10
583.5270932484748
 20
349.0318354003218
 10
580.4518605093097
 20
348.024929810447
 10
579.8441177612117
 20
347.7868892772307
 97
        0
 75
     0
 76
     1
 52
45.0
 41
1.255961633906533
 77
     0
 78
     2
 53
45.0
 43
240.9050714261983
 44
-9.213957221647831
 45
-2.81971428786962
 46
2.819714287869621
 79
     0
 53
135.0
 43
240.9050714261983
 44
-9.213957221647831
 45
-2.819714287869621
 46
-2.81971428786962
 79
     0
 98
        0
  0
LINE
  5
1307
330
A
100
AcDbEntity
  8
MODEL
100
AcDbLine
 10
579.8441177612988
 20
347.7868892771384
 30
0.0
 11
579.8441177612988
 21
327.7359772018323
 31
0.0
  0
LINE
  5
1308
330
A
100
AcDbEntity
  8
MODEL
100
AcDbLine
 10
591.0594626648306
 20
327.7359772018323
 30
0.0
 11
578.597968327573
 21
327.7359772018323
 31
0.0
  0
LINE
  5
1309
330
A
100
AcDbEntity
  8
MODEL
100
AcDbLine
 10
589.8133132311048
 20
327.7359772018323
 30
0.0
 11
589.8133132311048
 21
347.4577356907498
 31
0.0
  0
SPLINE
  5
130A
330
A
100
AcDbEntity
  8
MODEL
100
AcDbSpline
210
0.0
220
0.0
230
1.0
 70
     8
 71
     3
 72
    10
 73
     6
 74
     0
 42
0.000000001
 43
0.0000000001
 40
0.0
 40
0.0
 40
0.0
 40
0.0
 40
0.1836776598662243
 40
0.932808511066065
 40
1.0
 40
1.0
 40
1.0
 40
1.0
 10
579.8441177612117
 20
347.7868892772307
 30
0.0
 10
580.4518605093097
 20
348.024929810447
 30
0.0
 10
583.5270932484748
 20
349.0318354003218
 30
0.0
 10
586.774991430919
 20
347.8592008689179
 30
0.0
 10
589.5814069084731
 20
347.4851557372139
 30
0.0
 10
589.8133056612799
 20
347.4577361383433
 30
0.0
  0
LINE
  5
130B
330
A
100
AcDbEntity
  8
MODEL
100
AcDbLine
 10
578.6277532649644
 20
298.3268505659045
 30
0.0
 11
576.4526382308975
 21
298.3268505659045
 31
0.0
  0
ARC
  5
130C
330
A
100
AcDbEntity
  8
MODEL
100
AcDbCircle
 10
668.5537407472991
 20
645.7158424235316
 30
0.0
 40
52.69223022258168
100
AcDbArc
 50
67.2780071133
 51
75.4499250518001
  0
LINE
  5
130D
330
A
100
AcDbEntity
  8
MODEL
100
AcDbLine
 10
674.4613496053084
 20
696.888800842832
 30
0.0
 11
668.6883214774741
 21
692.8465545464113
 31
0.0
  0
LINE
  5
130E
330
A
100
AcDbEntity
  8
MODEL
100
AcDbLine
 10
668.3788117361635
 20
692.6298334926977
 30
0.0
 11
668.6883214774741
 21
692.8465545464113
 31
0.0
  0
LINE
  5
130F
330
A
100
AcDbEntity
  8
MODEL
100
AcDbLine
 10
692.7159077973743
 20
694.9338905471922
 30
0.0
 11
692.7159077973743
 21
720.8779681264604
 31
0.0
  0
LINE
  5
1310
330
A
100
AcDbEntity
  8
MODEL
100
AcDbLine
 10
560.9026463674709
 20
632.1513070923437
 30
0.0
 11
560.9026463674709
 21
730.7012985993543
 31
0.0
  0
LINE
  5
1311
330
A
100
AcDbEntity
  8
MODEL
100
AcDbLine
 10
603.7701868876368
 20
692.4678345815213
 30
0.0
 11
603.7701868876368
 21
590.7745372508206
 31
0.0
  0
LINE
  5
1312
330
A
100
AcDbEntity
  8
MODEL
100
AcDbLine
 10
603.7701868876368
 20
723.3710342614771
 30
0.0
 11
603.7701868876368
 21
730.7012985993543
 31
0.0
  0
SPLINE
  5
1313
330
A
100
AcDbEntity
  8
MODEL
100
AcDbSpline
210
0.0
220
0.0
230
1.0
 70
     8
 71
     3
 72
    30
 73
    26
 74
     0
 42
0.000000001
 43
0.0000000001
 40
0.0
 40
0.0
 40
0.0
 40
0.0
 40
0.0625000000000007
 40
0.0625000000000007
 40
0.1250000000000015
 40
0.1250000000000015
 40
0.2500000000000023
 40
0.2500000000000023
 40
0.3750000000000032
 40
0.3750000000000032
 40
0.4375000000000031
 40
0.4375000000000031
 40
0.5000000000000031
 40
0.5000000000000031
 40
0.5625000000000031
 40
0.5625000000000031
 40
0.625000000000003
 40
0.625000000000003
 40
0.7500000000000021
 40
0.7500000000000021
 40
0.8125000000000017
 40
0.8125000000000017
 40
0.8750000000000011
 40
0.8750000000000011
 40
1.0
 40
1.0
 40
1.0
 40
1.0
 10
604.1924762608612
 20
721.4819627985142
 30
0.0
 10
604.1924709566595
 20
721.4817654454934
 30
0.0
 10
604.1164930828947
 20
721.3871050144138
 30
0.0
 10
603.8337004573482
 20
721.0207088284711
 30
0.0
 10
603.6247764793229
 20
720.7457935793599
 30
0.0
 10
602.862490917083
 20
719.7055533099227
 30
0.0
 10
602.1697533483268
 20
718.7120235105621
 30
0.0
 10
600.7229222001672
 20
716.310979377883
 30
0.0
 10
599.9744330545952
 20
714.9076970667326
 30
0.0
 10
599.0799675570915
 20
712.4985643807244
 30
0.0
 10
598.8249841792297
 20
711.6455340984738
 30
0.0
 10
598.4717030926288
 20
709.8809007861834
 30
0.0
 10
598.3723803255834
 20
708.949534536902
 30
0.0
 10
598.3705064600347
 20
707.118963409455
 30
0.0
 10
598.4672468883844
 20
706.1964705242834
 30
0.0
 10
598.820873287186
 20
704.4201886677814
 30
0.0
 10
599.0731217411342
 20
703.5724801584189
 30
0.0
 10
599.9686531146056
 20
701.148379084845
 30
0.0
 10
600.7193780772425
 20
699.7480027022947
 30
0.0
 10
601.8032804096704
 20
697.9433857929679
 30
0.0
 10
602.1541010678964
 20
697.4015831909913
 30
0.0
 10
602.8066707621119
 20
696.4343466905281
 30
0.0
 10
603.1116249739491
 20
696.0056459877568
 30
0.0
 10
603.8749688183327
 20
694.9610235500394
 30
0.0
 10
604.1927903854164
 20
694.5660906365282
 30
0.0
 10
604.1927930103038
 20
694.566441205919
 30
0.0
  0
ARC
  5
1314
330
A
100
AcDbEntity
  8
MODEL
100
AcDbCircle
 10
605.7640259640523
 20
692.4678345639753
 30
0.0
 40
1.993839076280382
100
AcDbArc
 50
89.9919299264009
 51
179.9999994930998
  0
ARC
  5
1315
330
A
100
AcDbEntity
  8
MODEL
100
AcDbCircle
 10
605.764025959267
 20
723.3710342842068
 30
0.0
 40
1.993839071490355
100
AcDbArc
 50
180.0000006456999
 51
269.9989679690036
  0
LINE
  5
1316
330
A
100
AcDbEntity
  8
MODEL
100
AcDbLine
 10
561.2017222315651
 20
731.0003744634486
 30
0.0
 11
603.4711110235428
 21
731.0003744634486
 31
0.0
  0
SPLINE
  5
1317
330
A
100
AcDbEntity
  8
MODEL
100
AcDbSpline
210
0.0
220
0.0
230
1.0
 70
     8
 71
     3
 72
    10
 73
     6
 74
     0
 42
0.000000001
 43
0.0000000001
 40
0.0
 40
0.0
 40
0.0
 40
0.0
 40
0.5
 40
0.5
 40
1.0
 40
1.0
 40
1.0
 40
1.0
 10
603.4711110234841
 20
731.000374463339
 30
0.0
 10
603.5494089016095
 20
731.000374463339
 30
0.0
 10
603.6272246344993
 20
730.9681421314098
 30
0.0
 10
603.7379545556491
 20
730.8574122102599
 30
0.0
 10
603.7701868875781
 20
730.7795964773699
 30
0.0
 10
603.7701868875781
 20
730.7012985992448
 30
0.0
  0
SPLINE
  5
1318
330
A
100
AcDbEntity
  8
MODEL
100
AcDbSpline
210
0.0
220
0.0
230
1.0
 70
     8
 71
     3
 72
    10
 73
     6
 74
     0
 42
0.000000001
 43
0.0000000001
 40
0.0
 40
0.0
 40
0.0
 40
0.0
 40
0.5
 40
0.5
 40
1.0
 40
1.0
 40
1.0
 40
1.0
 10
560.9026463674129
 20
730.7012985992448
 30
0.0
 10
560.9026463674129
 20
730.7795964773699
 30
0.0
 10
560.9348786993421
 20
730.8574122102599
 30
0.0
 10
561.045608620492
 20
730.9681421314098
 30
0.0
 10
561.1234243533818
 20
731.000374463339
 30
0.0
 10
561.2017222315071
 20
731.000374463339
 30
0.0
  0
ARC
  5
1319
330
A
100
AcDbEntity
  8
MODEL
100
AcDbCircle
 10
670.2585512613441
 20
657.0847541519464
 30
0.0
 40
41.2772669502324
100
AcDbArc
 50
73.77562850270004
 51
80.71519817960004
  0
LINE
  5
131A
330
A
100
AcDbEntity
  8
MODEL
100
AcDbLine
 10
688.8043759928948
 20
694.3404438226765
 30
0.0
 11
688.9064614465492
 21
694.3187232183253
 31
0.0
  0
SPLINE
  5
131B
330
A
100
AcDbEntity
  8
MODEL
100
AcDbSpline
210
0.0
220
0.0
230
1.0
 70
     8
 71
     3
 72
    14
 73
    10
 74
     0
 42
0.000000001
 43
0.0000000001
 40
0.0
 40
0.0
 40
0.0
 40
0.0
 40
0.2440900769661474
 40
0.397279155048526
 40
0.4915462993524365
 40
0.569835559523518
 40
0.6708259603852381
 40
0.8182536723658126
 40
1.0
 40
1.0
 40
1.0
 40
1.0
 10
674.4530172858742
 20
696.8849534187351
 30
0.0
 10
674.6477713508427
 20
697.0159970009262
 30
0.0
 10
674.9146856936975
 20
697.1929103080864
 30
0.0
 10
675.3028792175194
 20
697.4049560545471
 30
0.0
 10
675.5631883688113
 20
697.5281857609924
 30
0.0
 10
675.7896083806424
 20
697.6229849335117
 30
0.0
 10
676.0661825398834
 20
697.7205532878896
 30
0.0
 10
676.4539971700933
 20
697.8274065049758
 30
0.0
 10
676.7375769183423
 20
697.8241731323732
 30
0.0
 10
676.9208782851156
 20
697.8206780385877
 30
0.0
  0
LINE
  5
131C
330
A
100
AcDbEntity
  8
MODEL
100
AcDbLine
 10
668.1485200477248
 20
692.5253848384658
 30
0.0
 11
668.379492975952
 21
692.6303105019525
 31
0.0
  0
SPLINE
  5
131D
330
A
100
AcDbEntity
  8
MODEL
100
AcDbSpline
210
0.0
220
0.0
230
1.0
 70
     8
 71
     3
 72
    16
 73
    12
 74
     0
 42
0.000000001
 43
0.0000000001
 40
0.0
 40
0.0
 40
0.0
 40
0.0
 40
0.126352998421571
 40
0.1940584925639043
 40
0.2291005156067344
 40
0.2478594839350104
 40
0.2966262362277843
 40
0.3429297625824203
 40
0.4385224251132978
 40
0.6469343271436079
 40
1.0
 40
1.0
 40
1.0
 40
1.0
 10
692.2174236015017
 20
721.3771723786807
 30
0.0
 10
688.2120801950232
 20
721.3769750610246
 30
0.0
 10
683.0752553401373
 20
721.3767335771416
 30
0.0
 10
676.3729544725479
 20
721.3765912020284
 30
0.0
 10
672.8809151928081
 20
721.3765753439369
 30
0.0
 10
669.923844284436
 20
721.3765882580122
 30
0.0
 10
666.64456877974
 20
721.3766015308976
 30
0.0
 10
661.1474649160143
 20
721.3765739256152
 30
0.0
 10
651.0796874534933
 20
721.3765830542324
 30
0.0
 10
631.8354039030792
 20
721.3767530623626
 30
0.0
 10
616.9559365604518
 20
721.377010609919
 30
0.0
 10
605.7638850419887
 20
721.3772163538175
 30
0.0
  0
ARC
  5
131E
330
A
100
AcDbEntity
  8
MODEL
100
AcDbCircle
 10
693.2056217587749
 20
620.2040513149756
 30
0.0
 40
74.23186629520917
100
AcDbArc
 50
90.75390798159992
 51
93.32523273680005
  0
SPLINE
  5
131F
330
A
100
AcDbEntity
  8
MODEL
100
AcDbSpline
210
0.0
220
0.0
230
1.0
 70
     8
 71
     3
 72
    34
 73
    30
 74
     0
 42
0.000000001
 43
0.0000000001
 40
0.0
 40
0.0
 40
0.0
 40
0.0
 40
0.0083124901758575
 40
0.0644497846476248
 40
0.1137843319807015
 40
0.1569537440005953
 40
0.1945119112679697
 40
0.2269372749521094
 40
0.257104378130843
 40
0.2820374203797482
 40
0.3021113194995568
 40
0.3195711111873688
 40
0.33940509199925
 40
0.3616574027797907
 40
0.4009515038632168
 40
0.444656048005486
 40
0.4916941594510517
 40
0.5582920130714015
 40
0.6290596674413125
 40
0.7005751068898922
 40
0.7689409179292149
 40
0.8281128106502977
 40
0.8798475538475367
 40
0.9254987437965855
 40
0.9649971638265618
 40
0.9922189164419197
 40
0.9922189164419197
 40
0.9922189164419197
 40
1.0
 40
1.0
 40
1.0
 40
1.0
 10
605.7644122230276
 20
694.4616351309359
 30
0.0
 10
605.9554243614841
 20
694.4616221886976
 30
0.0
 10
607.2267392755266
 20
694.461529664476
 30
0.0
 10
609.6825440534383
 20
694.4607655179392
 30
0.0
 10
612.7618202902802
 20
694.4589456413518
 30
0.0
 10
615.4844633995824
 20
694.4561793623142
 30
0.0
 10
617.8469921781139
 20
694.4526535738258
 30
0.0
 10
619.9393956986867
 20
694.4484564151106
 30
0.0
 10
621.7677310044076
 20
694.4437892694776
 30
0.0
 10
623.3381173156761
 20
694.438898457057
 30
0.0
 10
624.6430323715979
 20
694.4341565255228
 30
0.0
 10
625.8414298419657
 20
694.4292291798268
 30
0.0
 10
627.0853301249888
 20
694.4234729387396
 30
0.0
 10
628.785337441496
 20
694.4145185632286
 30
0.0
 10
630.983979154121
 20
694.4006580868225
 30
0.0
 10
633.700352457462
 20
694.3789819944335
 30
0.0
 10
636.9870133837871
 20
694.3453803658225
 30
0.0
 10
640.838847186473
 20
694.2925679874974
 30
0.0
 10
645.2015349743742
 20
694.207565092804
 30
0.0
 10
649.6003895468555
 20
694.0842236069101
 30
0.0
 10
653.7550701011858
 20
693.9163815952278
 30
0.0
 10
657.4948906738259
 20
693.7003930140344
 30
0.0
 10
660.7527533875111
 20
693.4412585108979
 30
0.0
 10
663.603816239747
 20
693.1288023477786
 30
0.0
 10
665.9074860600822
 20
692.8221487864683
 30
0.0
 10
667.3268613348489
 20
692.5985054083052
 30
0.0
 10
667.8682899381731
 20
692.5488554352106
 30
0.0
 10
667.9577127647137
 20
692.5406552017829
 30
0.0
 10
668.0461078921835
 20
692.5335896361406
 30
0.0
 10
668.1485200529794
 20
692.5253848274282
 30
0.0
  0
ARC
  5
1320
330
A
100
AcDbEntity
  8
MODEL
100
AcDbCircle
 10
692.2174480190988
 20
720.878699310323
 30
0.0
 40
0.498459517430595
100
AcDbArc
 50
359.9985076468958
 51
90.54567397831185
  0
ARC
  5
1321
330
A
100
AcDbEntity
  8
MODEL
100
AcDbCircle
 10
692.2174480438223
 20
694.9344087938249
 30
0.0
 40
0.4984594722211043
100
AcDbArc
 50
271.9331599528873
 51
0.0017283418986046
  0
LINE
  5
1322
330
A
100
AcDbEntity
  8
MODEL
100
AcDbLine
 10
559.9057249558521
 20
746.5071610946128
 30
0.0
 11
559.9057249558521
 21
753.1865220593826
 31
0.0
  0
LINE
  5
1323
330
A
100
AcDbEntity
  8
MODEL
100
AcDbLine
 10
672.5576355308028
 20
755.7124372102754
 30
0.0
 11
672.5576357333769
 21
752.035282925931
 31
0.0
  0
LINE
  5
1324
330
A
100
AcDbEntity
  8
MODEL
100
AcDbLine
 10
672.5576357333769
 20
752.035282925931
 30
0.0
 11
672.5576359363497
 21
748.3500731089533
 31
0.0
  0
LINE
  5
1325
330
A
100
AcDbEntity
  8
MODEL
100
AcDbLine
 10
672.557635530404
 20
755.7204932337921
 30
0.0
 11
672.5576355308028
 21
755.7124372102754
 31
0.0
  0
SPLINE
  5
1326
330
A
100
AcDbEntity
  8
MODEL
100
AcDbSpline
210
0.0
220
0.0
230
1.0
 70
    12
 71
     3
 72
     8
 73
     4
 74
     0
 42
0.000000001
 43
0.0000000001
 40
0.0
 40
0.0
 40
0.0
 40
0.0
 40
1.0
 40
1.0
 40
1.0
 40
1.0
 10
672.358251520156
 20
748.1506891887226
 30
0.0
 41
1.0
 10
672.4683684148406
 20
748.1506889088854
 30
0.0
 41
1.0
 10
672.5576359423069
 20
748.2399562144129
 30
0.0
 41
1.0
 10
672.557635936244
 20
748.3500731090957
 30
0.0
 41
1.0
  0
SPLINE
  5
1327
330
A
100
AcDbEntity
  8
MODEL
100
AcDbSpline
210
0.0
220
0.0
230
1.0
 70
    12
 71
     3
 72
     8
 73
     4
 74
     0
 42
0.000000001
 43
0.0000000001
 40
0.0
 40
0.0
 40
0.0
 40
0.0
 40
1.0
 40
1.0
 40
1.0
 40
1.0
 10
672.3582521277394
 20
755.919877132014
 30
0.0
 41
1.0
 10
672.4683686181011
 20
755.919876852177
 30
0.0
 41
1.0
 10
672.5576355243859
 20
755.8306097239555
 30
0.0
 41
1.0
 10
672.5576355304486
 20
755.7204932335959
 30
0.0
 41
1.0
  0
SPLINE
  5
1328
330
A
100
AcDbEntity
  8
MODEL
100
AcDbSpline
210
0.0
220
0.0
230
1.0
 70
     8
 71
     3
 72
    13
 73
     9
 74
     0
 42
0.000000001
 43
0.0000000001
 40
0.0
 40
0.0
 40
0.0
 40
0.0
 40
0.1384971731222042
 40
0.2986279668681479
 40
0.4763678100501405
 40
0.6623511781600308
 40
0.8427806141399303
 40
1.0
 40
1.0
 40
1.0
 40
1.0
 10
654.1423138561133
 20
748.8700087751353
 30
0.0
 10
654.6017533556683
 20
748.8677113185814
 30
0.0
 10
655.4388281056399
 20
748.8610795159667
 30
0.0
 10
656.8994459083435
 20
748.7237940851788
 30
0.0
 10
658.4570029388574
 20
748.5048950234119
 30
0.0
 10
660.0773233703396
 20
748.2899186807327
 30
0.0
 10
661.6846838519634
 20
748.160089327985
 30
0.0
 10
662.6307630202266
 20
748.1528441870636
 30
0.0
 10
663.1523119817391
 20
748.1506448272229
 30
0.0
  0
SPLINE
  5
1329
330
A
100
AcDbEntity
  8
MODEL
100
AcDbSpline
210
0.0
220
0.0
230
1.0
 70
     8
 71
     3
 72
    13
 73
     9
 74
     0
 42
0.000000001
 43
0.0000000001
 40
0.0
 40
0.0
 40
0.0
 40
0.0
 40
0.1572193858604038
 40
0.3376488218402648
 40
0.5236321899500777
 40
0.7013720331319852
 40
0.8615028268778577
 40
1.0
 40
1.0
 40
1.0
 40
1.0
 10
663.1523115539837
 20
755.919919349204
 30
0.0
 10
662.6307625927122
 20
755.9177199319337
 30
0.0
 10
661.6846834252458
 20
755.9104746868346
 30
0.0
 10
660.0773229579181
 20
755.7806451570926
 30
0.0
 10
658.4570025501082
 20
755.5656686359924
 30
0.0
 10
656.8994455436991
 20
755.3467694027164
 30
0.0
 10
655.4388277561136
 20
755.209483811093
 30
0.0
 10
654.6017530068725
 20
755.2028519163042
 30
0.0
 10
654.1423135075706
 20
755.2005544091595
 30
0.0
  0
LINE
  5
132A
330
A
100
AcDbEntity
  8
MODEL
100
AcDbLine
 10
663.1497915648308
 20
748.1507125900811
 30
0.0
 11
672.3714636446309
 21
748.1506891552939
 31
0.0
  0
LINE
  5
132B
330
A
100
AcDbEntity
  8
MODEL
100
AcDbLine
 10
672.3714632167532
 20
755.9198770985262
 30
0.0
 11
663.1497911373517
 21
755.9199005333134
 31
0.0
  0
LINE
  5
132C
330
A
100
AcDbEntity
  8
MODEL
100
AcDbLine
 10
604.7601885486881
 20
748.8700813411198
 30
0.0
 11
654.144806154989
 21
748.8700840603175
 31
0.0
  0
LINE
  5
132D
330
A
100
AcDbEntity
  8
MODEL
100
AcDbLine
 10
654.1448058064659
 20
755.2005334953814
 30
0.0
 11
604.7600567878253
 21
755.2005307765825
 31
0.0
  0
ARC
  5
132E
330
A
100
AcDbEntity
  8
MODEL
100
AcDbCircle
 10
583.0991842915869
 20
10810.47714663471
 30
0.0
 40
10053.53178841375
100
AcDbArc
 50
270.0091613718
 51
270.1234870939999
  0
SPLINE
  5
132F
330
A
100
AcDbEntity
  8
MODEL
100
AcDbSpline
210
0.0
220
0.0
230
1.0
 70
    12
 71
     3
 72
    17
 73
    13
 74
     0
 42
0.000000001
 43
0.0000000001
 40
0.0
 40
0.0
 40
0.0
 40
0.0
 40
0.0343114960206817
 40
0.0343114960206817
 40
0.0343114960206817
 40
0.2757336220155109
 40
0.2757336220155109
 40
0.2757336220155109
 40
0.5171557480103404
 40
0.5171557480103404
 40
0.5171557480103404
 40
1.0
 40
1.0
 40
1.0
 40
1.0
 10
559.9057255849888
 20
756.9688069588103
 30
0.0
 41
0.990606857517759
 10
559.905735838302
 20
756.9687884680062
 30
0.0
 41
0.9934983886728339
 10
559.9162410498977
 20
756.968691121426
 30
0.0
 41
0.9966294361669142
 10
559.9371350756796
 20
756.9685056682632
 30
0.0
 41
1.0
 10
560.0881408418616
 20
756.9671653570599
 30
0.0
 41
0.9880336477820599
 10
560.7740055955085
 20
756.9604929314702
 30
0.0
 41
0.9880336477820599
 10
561.9701272696084
 20
756.9566105618659
 30
0.0
 41
1.0
 10
563.1662616485613
 20
756.9527281510241
 30
0.0
 41
0.988047801855723
 10
564.8296865637242
 20
756.9519069988071
 30
0.0
 41
0.988047801855723
 10
566.9007611329946
 20
756.950059184733
 30
0.0
 41
1.0
 10
571.1199654119941
 20
756.9462948079376
 30
0.0
 41
0.9525711869575471
 10
576.5213659246155
 20
756.9453623962332
 30
0.0
 41
0.9525711869575471
 10
582.3364166274953
 20
756.945367787281
 30
0.0
 41
1.0
  0
LINE
  5
1330
330
A
100
AcDbEntity
  8
MODEL
100
AcDbLine
 10
582.336416627554
 20
756.9453677870928
 30
0.0
 11
584.7067048209149
 21
756.9454779678373
 31
0.0
  0
LINE
  5
1331
330
A
100
AcDbEntity
  8
MODEL
100
AcDbLine
 10
604.5677225252214
 20
733.0772135314527
 30
0.0
 11
560.1051107298865
 21
733.0772135314527
 31
0.0
  0
ARC
  5
1332
330
A
100
AcDbEntity
  8
MODEL
100
AcDbCircle
 10
538.3440655990371
 20
749.8468415785927
 30
0.0
 40
21.85017646103886
100
AcDbArc
 50
350.6787632476999
 51
9.27930922459978
  0
ARC
  5
1333
330
A
100
AcDbEntity
  8
MODEL
100
AcDbCircle
 10
626.9747360680674
 20
752.035306060446
 30
0.0
 40
22.43915016988376
100
AcDbArc
 50
171.7623505579001
 51
188.2376488433998
  0
ARC
  5
1334
330
A
100
AcDbEntity
  8
MODEL
100
AcDbCircle
 10
560.4042091040253
 20
756.9687477843667
 30
0.0
 40
0.498501117272755
100
AcDbArc
 50
96.78086861130116
 51
180.4944124279786
  0
ARC
  5
1335
330
A
100
AcDbEntity
  8
MODEL
100
AcDbCircle
 10
604.2686237870075
 20
756.9687477648271
 30
0.0
 40
0.4985011934579983
100
AcDbArc
 50
359.505598430408
 51
74.51122622598412
  0
ARC
  5
1336
330
A
100
AcDbEntity
  8
MODEL
100
AcDbCircle
 10
604.5677225252214
 20
733.2765974408488
 30
0.0
 40
0.1993839093962091
100
AcDbArc
 50
270.0
 51
0.0
  0
ARC
  5
1337
330
A
100
AcDbEntity
  8
MODEL
100
AcDbCircle
 10
560.1051107298865
 20
733.2765974408488
 30
0.0
 40
0.1993839093961816
100
AcDbArc
 50
180.0
 51
270.0
  0
LINE
  5
1338
330
A
100
AcDbEntity
  8
MODEL
100
AcDbLine
 10
604.7671064346175
 20
755.2503715982622
 30
0.0
 11
604.7671064346175
 21
756.973114838693
 31
0.0
  0
LINE
  5
1339
330
A
100
AcDbEntity
  8
MODEL
100
AcDbLine
 10
604.7671064346175
 20
733.2765974408488
 30
0.0
 11
604.7671064346175
 21
748.8610092504217
 31
0.0
  0
LINE
  5
133A
330
A
100
AcDbEntity
  8
MODEL
100
AcDbLine
 10
559.9057268204904
 20
746.3540603571331
 30
0.0
 11
559.9057268204904
 21
733.2765974408488
 31
0.0
  0
LINE
  5
133B
330
A
100
AcDbEntity
  8
MODEL
100
AcDbLine
 10
559.9057268204904
 20
756.973114838693
 30
0.0
 11
559.9057268204904
 21
753.3859059687787
 31
0.0
  0
ARC
  5
133C
330
A
100
AcDbEntity
  8
MODEL
100
AcDbCircle
 10
582.3490839431095
 20
460.6559244489009
 30
0.0
 40
297.6113835950467
100
AcDbArc
 50
85.7505532672
 51
94.23372456129997
  0
ARC
  5
133D
330
A
100
AcDbEntity
  8
MODEL
100
AcDbCircle
 10
556.2375433418119
 20
752.7113575713237
 30
0.0
 40
3.725163532554763
100
AcDbArc
 50
8.205454587798844
 51
9.659447245197564
  0
ARC
  5
133E
330
A
100
AcDbEntity
  8
MODEL
100
AcDbCircle
 10
560.2021835201281
 20
753.3844928002294
 30
0.0
 40
0.296208484087736
100
AcDbArc
 50
190.5139479387655
 51
221.9892997372501
  0
ARC
  5
133F
330
A
100
AcDbEntity
  8
MODEL
100
AcDbCircle
 10
605.2655662081077
 20
549.4023760511258
 30
0.0
 40
0.9969195469806037
100
AcDbArc
 50
270.0
 51
345.5224878141013
  0
ARC
  5
1340
330
A
100
AcDbEntity
  8
MODEL
100
AcDbCircle
 10
607.196092609686
 20
548.9039162776354
 30
0.0
 40
0.9969195469806422
100
AcDbArc
 50
135.322469407107
 51
165.5224878140885
  0
ARC
  5
1341
330
A
100
AcDbEntity
  8
MODEL
100
AcDbCircle
 10
599.6876061893697
 20
529.3728531965365
 30
0.0
 40
3.937046025368702
100
AcDbArc
 50
278.2252965958987
 51
300.3058572874029
  0
LINE
  5
1342
330
A
100
AcDbEntity
  8
MODEL
100
AcDbLine
 10
599.5716885934412
 20
525.4763069235913
 30
0.0
 11
600.250863280593
 21
525.4763069235913
 31
0.0
  0
ARC
  5
1343
330
A
100
AcDbEntity
  8
MODEL
100
AcDbCircle
 10
588.4639566975793
 20
529.3728531965365
 30
0.0
 40
3.937046025368353
100
AcDbArc
 50
290.1114914410006
 51
300.3058572873981
  0
LINE
  5
1344
330
A
100
AcDbEntity
  8
MODEL
100
AcDbLine
 10
593.6202765041694
 20
525.4763069235913
 30
0.0
 11
589.8133132299083
 21
525.4763069235913
 31
0.0
  0
LINE
  5
1345
330
A
100
AcDbEntity
  8
MODEL
100
AcDbLine
 10
599.5716885934412
 20
525.4763069235913
 30
0.0
 11
594.9786258784729
 21
525.4763069235913
 31
0.0
  0
SPLINE
  5
1346
330
A
100
AcDbEntity
  8
MODEL
100
AcDbSpline
210
0.0
220
0.0
230
1.0
 70
     8
 71
     3
 72
    10
 73
     6
 74
     0
 42
0.000000001
 43
0.0000000001
 40
0.0
 40
0.0
 40
0.0
 40
0.0
 40
0.5
 40
0.5
 40
1.0
 40
1.0
 40
1.0
 40
1.0
 10
594.9786258784582
 20
525.4763069237496
 30
0.0
 10
595.4571175507722
 20
525.5051040623592
 30
0.0
 10
595.9379358374586
 20
525.5646457190202
 30
0.0
 10
596.8931167521166
 20
525.7358362241374
 30
0.0
 10
597.3623201623304
 20
525.8460110395912
 30
0.0
 10
597.825503626385
 20
525.9738282556676
 30
0.0
  0
LINE
  5
1347
330
A
100
AcDbEntity
  8
MODEL
100
AcDbLine
 10
593.6202765041694
 20
525.4763069235913
 30
0.0
 11
594.9786258784729
 21
525.4763069235913
 31
0.0
  0
LINE
  5
1348
330
A
100
AcDbEntity
  8
MODEL
100
AcDbLine
 10
600.250863280593
 20
525.4763069235913
 30
0.0
 11
600.8149236142199
 21
525.4763069235913
 31
0.0
  0
ARC
  5
1349
330
A
100
AcDbEntity
  8
MODEL
100
AcDbCircle
 10
599.6876061893697
 20
540.5212320436762
 30
0.0
 40
3.937046025377885
100
AcDbArc
 50
59.6941427125984
 51
81.77470340410056
  0
LINE
  5
134A
330
A
100
AcDbEntity
  8
MODEL
100
AcDbLine
 10
599.5716885934412
 20
544.4177783162226
 30
0.0
 11
600.250863280593
 21
544.4177783162226
 31
0.0
  0
LINE
  5
134B
330
A
100
AcDbEntity
  8
MODEL
100
AcDbLine
 10
593.6202765041694
 20
544.4177783162226
 30
0.0
 11
594.9786258784729
 21
544.4177783162226
 31
0.0
  0
SPLINE
  5
134C
330
A
100
AcDbEntity
  8
MODEL
100
AcDbSpline
210
0.0
220
0.0
230
1.0
 70
     8
 71
     3
 72
    10
 73
     6
 74
     0
 42
0.000000001
 43
0.0000000001
 40
0.0
 40
0.0
 40
0.0
 40
0.0
 40
0.5
 40
0.5
 40
1.0
 40
1.0
 40
1.0
 40
1.0
 10
594.9786258784582
 20
544.417778316381
 30
0.0
 10
595.4571175507722
 20
544.3889811777716
 30
0.0
 10
595.9379358374586
 20
544.3294395211102
 30
0.0
 10
596.8931167521166
 20
544.1582490159932
 30
0.0
 10
597.3623201623304
 20
544.0480742005396
 30
0.0
 10
597.825503626385
 20
543.9202569844632
 30
0.0
  0
ARC
  5
134D
330
A
100
AcDbEntity
  8
MODEL
100
AcDbCircle
 10
588.4639566975793
 20
540.5212320436762
 30
0.0
 40
3.937046025368618
100
AcDbArc
 50
59.69414271259994
 51
69.88850855900118
  0
LINE
  5
134E
330
A
100
AcDbEntity
  8
MODEL
100
AcDbLine
 10
593.6202765041694
 20
544.4177783162226
 30
0.0
 11
589.8133132299083
 21
544.4177783162226
 31
0.0
  0
LINE
  5
134F
330
A
100
AcDbEntity
  8
MODEL
100
AcDbLine
 10
599.5716885934412
 20
544.4177783162226
 30
0.0
 11
594.9786258784729
 21
544.4177783162226
 31
0.0
  0
LINE
  5
1350
330
A
100
AcDbEntity
  8
MODEL
100
AcDbLine
 10
601.6743021545954
 20
543.9202569845737
 30
0.0
 11
601.6766558389775
 21
543.9202569845737
 31
0.0
  0
ARC
  5
1351
330
A
100
AcDbEntity
  8
MODEL
100
AcDbCircle
 10
600.1334852342145
 20
540.5254104824193
 30
0.0
 40
3.9327017203682
100
AcDbArc
 50
98.21294734569958
 51
120.3182065375956
  0
SPLINE
  5
1352
330
A
100
AcDbEntity
  8
MODEL
100
AcDbSpline
210
0.0
220
0.0
230
1.0
 70
     8
 71
     3
 72
    10
 73
     6
 74
     0
 42
0.000000001
 43
0.0000000001
 40
0.0
 40
0.0
 40
0.0
 40
0.0
 40
0.5
 40
0.5
 40
1.0
 40
1.0
 40
1.0
 40
1.0
 10
590.7733987561405
 20
543.9202569844632
 30
0.0
 10
591.2385272574688
 20
544.0486109408783
 30
0.0
 10
591.7123440666721
 20
544.159625106974
 30
0.0
 10
592.6654716116957
 20
544.3300439230874
 30
0.0
 10
593.1425673892409
 20
544.38902827455
 30
0.0
 10
593.6202765040673
 20
544.417778316381
 30
0.0
  0
ARC
  5
1353
330
A
100
AcDbEntity
  8
MODEL
100
AcDbCircle
 10
600.1334852342145
 20
529.3686747577934
 30
0.0
 40
3.932701720368325
100
AcDbArc
 50
239.6817934624024
 51
261.7870526543007
  0
SPLINE
  5
1354
330
A
100
AcDbEntity
  8
MODEL
100
AcDbSpline
210
0.0
220
0.0
230
1.0
 70
     8
 71
     3
 72
    10
 73
     6
 74
     0
 42
0.000000001
 43
0.0000000001
 40
0.0
 40
0.0
 40
0.0
 40
0.0
 40
0.5
 40
0.5
 40
1.0
 40
1.0
 40
1.0
 40
1.0
 10
590.7733987561405
 20
525.9738282556676
 30
0.0
 10
591.2385272574688
 20
525.845474299252
 30
0.0
 10
591.7123440666721
 20
525.7344601331569
 30
0.0
 10
592.6654716116957
 20
525.5640413170435
 30
0.0
 10
593.1425673892409
 20
525.5050569655808
 30
0.0
 10
593.6202765040673
 20
525.4763069237496
 30
0.0
  0
LINE
  5
1355
330
A
100
AcDbEntity
  8
MODEL
100
AcDbLine
 10
590.4506526628049
 20
543.9202569845737
 30
0.0
 11
590.7733987561644
 21
543.9202569845737
 31
0.0
  0
LINE
  5
1356
330
A
100
AcDbEntity
  8
MODEL
100
AcDbLine
 10
597.8255036264779
 20
543.9202569845737
 30
0.0
 11
598.1482497194386
 21
543.9202569845737
 31
0.0
  0
LINE
  5
1357
330
A
100
AcDbEntity
  8
MODEL
100
AcDbLine
 10
590.4506526628049
 20
543.9202569845737
 30
0.0
 11
590.4506526628049
 21
525.973828255639
 31
0.0
  0
LINE
  5
1358
330
A
100
AcDbEntity
  8
MODEL
100
AcDbLine
 10
590.4506526628049
 20
525.973828255639
 30
0.0
 11
590.7733987561644
 21
525.973828255639
 31
0.0
  0
LINE
  5
1359
330
A
100
AcDbEntity
  8
MODEL
100
AcDbLine
 10
590.7733987561644
 20
525.973828255639
 30
0.0
 11
590.7733987561644
 21
543.9202569845737
 31
0.0
  0
LINE
  5
135A
330
A
100
AcDbEntity
  8
MODEL
100
AcDbLine
 10
597.8255036264779
 20
543.9202569845737
 30
0.0
 11
597.8255036264779
 21
525.973828255639
 31
0.0
  0
LINE
  5
135B
330
A
100
AcDbEntity
  8
MODEL
100
AcDbLine
 10
597.8255036264779
 20
525.973828255639
 30
0.0
 11
598.1482497194386
 21
525.973828255639
 31
0.0
  0
LINE
  5
135C
330
A
100
AcDbEntity
  8
MODEL
100
AcDbLine
 10
598.1482497194386
 20
525.973828255639
 30
0.0
 11
598.1482497194386
 21
543.9202569845737
 31
0.0
  0
LINE
  5
135D
330
A
100
AcDbEntity
  8
MODEL
100
AcDbLine
 10
601.6743021545954
 20
543.9202569845737
 30
0.0
 11
601.6743021545954
 21
525.973828255639
 31
0.0
  0
LINE
  5
135E
330
A
100
AcDbEntity
  8
MODEL
100
AcDbLine
 10
601.6743021545954
 20
525.973828255639
 30
0.0
 11
601.6766558389775
 21
525.973828255639
 31
0.0
  0
LINE
  5
135F
330
A
100
AcDbEntity
  8
MODEL
100
AcDbLine
 10
600.649308857902
 20
544.4177783162226
 30
0.0
 11
600.250863280593
 21
544.4177783162226
 31
0.0
  0
SPLINE
  5
1360
330
A
100
AcDbEntity
  8
MODEL
100
AcDbSpline
210
0.0
220
0.0
230
1.0
 70
     8
 71
     3
 72
     8
 73
     4
 74
     0
 42
0.000000001
 43
0.0000000001
 40
0.0
 40
0.0
 40
0.0
 40
0.0
 40
1.0
 40
1.0
 40
1.0
 40
1.0
 10
600.8897023774775
 20
544.374604788759
 30
0.0
 10
600.8897306976471
 20
544.3745992605735
 30
0.0
 10
600.809620884901
 20
544.3887843645824
 30
0.0
 10
600.6493088578145
 20
544.417778316381
 30
0.0
  0
LINE
  5
1361
330
A
100
AcDbEntity
  8
MODEL
100
AcDbLine
 10
592.0065362332657
 20
522.5852402373474
 30
0.0
 11
599.5083558242948
 21
522.5852402373474
 31
0.0
  0
LINE
  5
1362
330
A
100
AcDbEntity
  8
MODEL
100
AcDbLine
 10
592.0065362332657
 20
522.5852402373474
 30
0.0
 11
592.6046879614541
 21
521.987088509159
 31
0.0
  0
LINE
  5
1363
330
A
100
AcDbEntity
  8
MODEL
100
AcDbLine
 10
592.0065362332657
 20
525.4763069235913
 30
0.0
 11
592.0065362332657
 21
522.5852402373474
 31
0.0
  0
LINE
  5
1364
330
A
100
AcDbEntity
  8
MODEL
100
AcDbLine
 10
592.6046879614541
 20
521.987088509159
 30
0.0
 11
599.163012762923
 21
521.987088509159
 31
0.0
  0
LINE
  5
1365
330
A
100
AcDbEntity
  8
MODEL
100
AcDbLine
 10
600.8149236142199
 20
525.4763069235913
 30
0.0
 11
601.6766558389775
 21
525.973828255639
 31
0.0
  0
LINE
  5
1366
330
A
100
AcDbEntity
  8
MODEL
100
AcDbLine
 10
601.6766558389775
 20
543.9202569845737
 30
0.0
 11
600.8879633084441
 21
544.3756088291374
 31
0.0
  0
LINE
  5
1367
330
A
100
AcDbEntity
  8
MODEL
100
AcDbLine
 10
601.6766558389775
 20
525.973828255639
 30
0.0
 11
601.6766558389775
 21
543.9202569845737
 31
0.0
  0
LINE
  5
1368
330
A
100
AcDbEntity
  8
MODEL
100
AcDbLine
 10
599.163012762923
 20
521.987088509159
 30
0.0
 11
599.5083558242948
 21
522.5852402373474
 31
0.0
  0
LINE
  5
1369
330
A
100
AcDbEntity
  8
MODEL
100
AcDbLine
 10
599.5083558242948
 20
522.5852402373474
 30
0.0
 11
599.5083558242948
 21
525.4763069235913
 31
0.0
  0
LINE
  5
136A
330
A
100
AcDbEntity
  8
MODEL
100
AcDbLine
 10
566.4976595233009
 20
579.8178232603303
 30
0.0
 11
566.5079095968654
 21
579.8084222340341
 31
0.0
  0
SPLINE
  5
136B
330
A
100
AcDbEntity
  8
MODEL
100
AcDbSpline
210
0.0
220
0.0
230
1.0
 70
     8
 71
     3
 72
    12
 73
     8
 74
     0
 42
0.000000001
 43
0.0000000001
 40
0.0
 40
0.0
 40
0.0
 40
0.0
 40
0.25
 40
0.25
 40
0.5
 40
0.5
 40
1.0
 40
1.0
 40
1.0
 40
1.0
 10
566.2603048809658
 20
580.1074980982866
 30
0.0
 10
566.2495246130036
 20
580.1074980982866
 30
0.0
 10
566.2537490005964
 20
580.0928292307989
 30
0.0
 10
566.2798578270574
 20
580.0506907237135
 30
0.0
 10
566.3009320249876
 20
580.0236824554444
 30
0.0
 10
566.3736824573721
 20
579.9384645049953
 30
0.0
 10
566.4352331406396
 20
579.8750621578143
 30
0.0
 10
566.4976595233438
 20
579.8178232603544
 30
0.0
  0
LINE
  5
136C
330
A
100
AcDbEntity
  8
MODEL
100
AcDbLine
 10
598.1546477736333
 20
579.8084222340341
 30
0.0
 11
593.1612033168492
 21
579.8084222340341
 31
0.0
  0
SPLINE
  5
136D
330
A
100
AcDbEntity
  8
MODEL
100
AcDbSpline
210
0.0
220
0.0
230
1.0
 70
     8
 71
     3
 72
    12
 73
     8
 74
     0
 42
0.000000001
 43
0.0000000001
 40
0.0
 40
0.0
 40
0.0
 40
0.0
 40
0.5000000000000041
 40
0.5000000000000041
 40
0.750000000000002
 40
0.750000000000002
 40
1.0
 40
1.0
 40
1.0
 40
1.0
 10
598.1546477736272
 20
579.8084222341926
 30
0.0
 10
598.2187817423521
 20
579.8663022852958
 30
0.0
 10
598.28281904862
 20
579.9318254165977
 30
0.0
 10
598.3584649360776
 20
580.0198108292831
 30
0.0
 10
598.3805349582794
 20
580.0478547101314
 30
0.0
 10
598.40824867988
 20
580.0920458845648
 30
0.0
 10
598.4128852725828
 20
580.1074980982866
 30
0.0
 10
598.4017022140893
 20
580.1074980982866
 30
0.0
  0
LINE
  5
136E
330
A
100
AcDbEntity
  8
MODEL
100
AcDbLine
 10
598.4017022140458
 20
580.1074980981283
 30
0.0
 11
598.4017022140458
 21
583.7961004219563
 31
0.0
  0
LINE
  5
136F
330
A
100
AcDbEntity
  8
MODEL
100
AcDbLine
 10
589.8363255461065
 20
579.8084222340341
 30
0.0
 11
590.3117730033987
 21
579.8084222340341
 31
0.0
  0
LINE
  5
1370
330
A
100
AcDbEntity
  8
MODEL
100
AcDbLine
 10
589.8363255461065
 20
579.8084222340341
 30
0.0
 11
589.8133132299083
 21
579.8084222340341
 31
0.0
  0
LINE
  5
1371
330
A
100
AcDbEntity
  8
MODEL
100
AcDbLine
 10
593.1569059483952
 20
579.8084222340341
 30
0.0
 11
593.1612033168492
 21
579.8084222340341
 31
0.0
  0
LINE
  5
1372
330
A
100
AcDbEntity
  8
MODEL
100
AcDbLine
 10
598.4017022140458
 20
583.7961004219563
 30
0.0
 11
598.408109720234
 21
583.7961004219563
 31
0.0
  0
SPLINE
  5
1373
330
A
100
AcDbEntity
  8
MODEL
100
AcDbSpline
210
0.0
220
0.0
230
1.0
 70
     8
 71
     3
 72
     8
 73
     4
 74
     0
 42
0.000000001
 43
0.0000000001
 40
0.0
 40
0.0
 40
0.0
 40
0.0
 40
1.0
 40
1.0
 40
1.0
 40
1.0
 10
593.148102910375
 20
583.9283480267833
 30
0.0
 10
593.1425890091962
 20
583.9678456405271
 30
0.0
 10
593.1368470325272
 20
584.0071779326439
 30
0.0
 10
593.130750715414
 20
584.0460148440385
 30
0.0
  0
ELLIPSE
  5
1374
330
A
100
AcDbEntity
  8
MODEL
100
AcDbEllipse
 10
599.3665842312812
 20
583.7961004219563
 30
0.0
 11
6.917518967229661E-15
 21
-0.9969195469806037
 31
0.0
210
0.0
220
0.0
230
1.0
 40
0.9678634752
 41
4.459708725242722
 42
4.712388980384683
  0
LINE
  5
1375
330
A
100
AcDbEntity
  8
MODEL
100
AcDbLine
 10
566.2540274191667
 20
583.7961004219563
 30
0.0
 11
566.2540274191667
 21
580.1009512409304
 31
0.0
  0
LINE
  5
1376
330
A
100
AcDbEntity
  8
MODEL
100
AcDbLine
 10
598.408109720234
 20
580.1002520908845
 30
0.0
 11
598.408109720234
 21
583.7961004219563
 31
0.0
  0
LINE
  5
1377
330
A
100
AcDbEntity
  8
MODEL
100
AcDbLine
 10
593.1569059483952
 20
583.7961004219563
 30
0.0
 11
593.1569059483952
 21
579.8084222340341
 31
0.0
  0
ARC
  5
1378
330
A
100
AcDbEntity
  8
MODEL
100
AcDbCircle
 10
599.4050292672148
 20
583.7961004219563
 30
0.0
 40
0.9969195469806037
100
AcDbArc
 50
165.5224878140885
 51
180.0
  0
ARC
  5
1379
330
A
100
AcDbEntity
  8
MODEL
100
AcDbCircle
 10
592.1599864014147
 20
583.7961004219563
 30
0.0
 40
0.9969195469806037
100
AcDbArc
 50
0.0
 51
7.570515349618314
  0
ARC
  5
137A
330
A
100
AcDbEntity
  8
MODEL
100
AcDbCircle
 10
565.2571078721862
 20
583.7961004219563
 30
0.0
 40
0.9969195469806037
100
AcDbArc
 50
0.0
 51
14.47751218591148
  0
LINE
  5
137B
330
A
100
AcDbEntity
  8
MODEL
100
AcDbLine
 10
584.8287154950056
 20
554.8854335595191
 30
0.0
 11
571.3703016107672
 21
554.8854335595191
 31
0.0
  0
LINE
  5
137C
330
A
100
AcDbEntity
  8
MODEL
100
AcDbLine
 10
574.8595200251993
 20
549.9008358246159
 30
0.0
 11
571.3703016107672
 21
549.9008358246159
 31
0.0
  0
LINE
  5
137D
330
A
100
AcDbEntity
  8
MODEL
100
AcDbLine
 10
571.3703016107672
 20
554.8854335595191
 30
0.0
 11
571.3703016107672
 21
549.9008358246159
 31
0.0
  0
LINE
  5
137E
330
A
100
AcDbEntity
  8
MODEL
100
AcDbLine
 10
595.558338684805
 20
549.9008358246159
 30
0.0
 11
584.8287154950056
 21
549.9008358246159
 31
0.0
  0
LINE
  5
137F
330
A
100
AcDbEntity
  8
MODEL
100
AcDbLine
 10
609.1129295844037
 20
549.9008358246159
 30
0.0
 11
604.3336497247112
 21
549.9008358246159
 31
0.0
  0
LINE
  5
1380
330
A
100
AcDbEntity
  8
MODEL
100
AcDbLine
 10
607.1701924572199
 20
548.9039162776354
 30
0.0
 11
608.6272453026077
 21
548.9039162776354
 31
0.0
  0
LINE
  5
1381
330
A
100
AcDbEntity
  8
MODEL
100
AcDbLine
 10
606.1988238936281
 20
549.9008358246159
 30
0.0
 11
607.1701924572199
 21
548.9039162776354
 31
0.0
  0
LINE
  5
1382
330
A
100
AcDbEntity
  8
MODEL
100
AcDbLine
 10
594.699968829621
 20
548.9039162776354
 30
0.0
 11
595.3437462210088
 21
548.9039162776354
 31
0.0
  0
LINE
  5
1383
330
A
100
AcDbEntity
  8
MODEL
100
AcDbLine
 10
594.2707839020288
 20
549.9008358246159
 30
0.0
 11
594.699968829621
 21
548.9039162776354
 31
0.0
  0
LINE
  5
1384
330
A
100
AcDbEntity
  8
MODEL
100
AcDbLine
 10
574.8595200251993
 20
549.4023760511258
 30
0.0
 11
574.8595200251993
 21
549.9008358246159
 31
0.0
  0
LINE
  5
1385
330
A
100
AcDbEntity
  8
MODEL
100
AcDbLine
 10
584.8287154950056
 20
549.4023760511258
 30
0.0
 11
584.8287154950056
 21
549.9008358246159
 31
0.0
  0
LINE
  5
1386
330
A
100
AcDbEntity
  8
MODEL
100
AcDbLine
 10
584.8287154950056
 20
549.4023760511258
 30
0.0
 11
584.8287154950056
 21
548.9039162776354
 31
0.0
  0
LINE
  5
1387
330
A
100
AcDbEntity
  8
MODEL
100
AcDbLine
 10
574.8595200251993
 20
548.9039162776354
 30
0.0
 11
574.8595200251993
 21
549.4023760511258
 31
0.0
  0
LINE
  5
1388
330
A
100
AcDbEntity
  8
MODEL
100
AcDbLine
 10
609.1129295844037
 20
549.4023760511258
 30
0.0
 11
609.1129295844037
 21
549.9008358246159
 31
0.0
  0
LINE
  5
1389
330
A
100
AcDbEntity
  8
MODEL
100
AcDbLine
 10
608.6272453026077
 20
548.9039162776354
 30
0.0
 11
609.2532443960301
 21
548.9039162776354
 31
0.0
  0
ELLIPSE
  5
138A
330
A
100
AcDbEntity
  8
MODEL
100
AcDbEllipse
 10
608.6272453026077
 20
549.4023760511258
 30
0.0
 11
6.917518967229661E-14
 21
-0.4984597734903018
 31
0.0
210
0.0
220
0.0
230
1.0
 40
0.9743700648
 41
0.0
 42
1.570796326794534
  0
LINE
  5
138B
330
A
100
AcDbEntity
  8
MODEL
100
AcDbLine
 10
595.558338684805
 20
549.4023760511258
 30
0.0
 11
595.558338684805
 21
549.9008358246159
 31
0.0
  0
LINE
  5
138C
330
A
100
AcDbEntity
  8
MODEL
100
AcDbLine
 10
604.3336497247112
 20
549.4023760511258
 30
0.0
 11
604.3336497247112
 21
549.9008358246159
 31
0.0
  0
ELLIPSE
  5
138D
330
A
100
AcDbEntity
  8
MODEL
100
AcDbEllipse
 10
603.9435510401411
 20
549.4023760511258
 30
0.0
 11
0.0
 21
0.4984597734903018
 31
0.0
210
0.0
220
0.0
230
1.0
 40
0.7826081568999999
 41
3.141592653589793
 42
4.71238898038469
  0
LINE
  5
138E
330
A
100
AcDbEntity
  8
MODEL
100
AcDbLine
 10
603.9435510401411
 20
548.9039162776354
 30
0.0
 11
595.3437462210088
 21
548.9039162776354
 31
0.0
  0
ELLIPSE
  5
138F
330
A
100
AcDbEntity
  8
MODEL
100
AcDbEllipse
 10
595.3437462210088
 20
549.4023760511258
 30
0.0
 11
0.0
 21
-0.4984597734903018
 31
0.0
210
0.0
220
0.0
230
1.0
 40
0.4305110968
 41
0.0
 42
1.570796326794897
  0
LINE
  5
1390
330
A
100
AcDbEntity
  8
MODEL
100
AcDbLine
 10
609.7517041695205
 20
549.4023760511258
 30
0.0
 11
609.7517041695205
 21
554.8854335595191
 31
0.0
  0
ARC
  5
1391
330
A
100
AcDbEntity
  8
MODEL
100
AcDbCircle
 10
609.2532443960301
 20
549.4023760511258
 30
0.0
 40
0.4984597734903018
100
AcDbArc
 50
270.0
 51
0.0
  0
LINE
  5
1392
330
A
100
AcDbEntity
  8
MODEL
100
AcDbLine
 10
600.779428246695
 20
544.4177783162226
 30
0.0
 11
600.649308857902
 21
544.4177783162226
 31
0.0
  0
LINE
  5
1393
330
A
100
AcDbEntity
  8
MODEL
100
AcDbLine
 10
600.250863280593
 20
544.4177783162226
 30
0.0
 11
599.5716885934412
 21
544.4177783162226
 31
0.0
  0
LINE
  5
1394
330
A
100
AcDbEntity
  8
MODEL
100
AcDbLine
 10
594.9786258784729
 20
544.4177783162226
 30
0.0
 11
593.6130525858714
 21
544.4177783162226
 31
0.0
  0
LINE
  5
1395
330
A
100
AcDbEntity
  8
MODEL
100
AcDbLine
 10
600.779428246695
 20
544.4177783162226
 30
0.0
 11
600.779428246695
 21
548.405456504145
 31
0.0
  0
LINE
  5
1396
330
A
100
AcDbEntity
  8
MODEL
100
AcDbLine
 10
678.6560371633702
 20
697.5136156149737
 30
0.0
 11
670.9927640706653
 21
692.1477340279192
 31
0.0
  0
LINE
  5
1397
330
A
100
AcDbEntity
  8
MODEL
100
AcDbLine
 10
669.6612988191876
 20
693.5278406158519
 30
0.0
 11
670.5762325966618
 21
692.2211797650822
 31
0.0
  0
ARC
  5
1398
330
A
100
AcDbEntity
  8
MODEL
100
AcDbCircle
 10
670.8212212020455
 20
692.3927226333029
 30
0.0
 40
0.2990758640941836
100
AcDbArc
 50
215.0000000000397
 51
305.0000000000094
  0
LINE
  5
1399
330
A
100
AcDbEntity
  8
MODEL
100
AcDbLine
 10
603.4272244402357
 20
731.0003744622521
 30
0.0
 11
561.2456088148722
 21
731.0003744622521
 31
0.0
  0
ARC
  5
139A
330
A
100
AcDbEntity
  8
MODEL
100
AcDbCircle
 10
582.336416627554
 20
718.9933447833383
 30
0.0
 40
24.56777956599125
100
AcDbArc
 50
145.0217219703002
 51
149.9396665227003
  0
ARC
  5
139B
330
A
100
AcDbEntity
  8
MODEL
100
AcDbCircle
 10
582.336416627554
 20
718.9933447833383
 30
0.0
 40
24.56777956599125
100
AcDbArc
 50
30.06033347729972
 51
34.97827802969981
  0
ARC
  5
139C
330
A
100
AcDbEntity
  8
MODEL
100
AcDbCircle
 10
603.4272244402357
 20
731.1997583716483
 30
0.0
 40
0.1993839093961261
100
AcDbArc
 50
270.0
 51
30.06033347732521
  0
ARC
  5
139D
330
A
100
AcDbEntity
  8
MODEL
100
AcDbCircle
 10
561.2456088148722
 20
731.1997583716483
 30
0.0
 40
0.1993839093961293
100
AcDbArc
 50
149.9396665226748
 51
270.0
  0
LINE
  5
139E
102
{ACAD_REACTORS
330
17BB
102
}
330
A
100
AcDbEntity
  8
MODEL
100
AcDbLine
 10
605.9607885069961
 20
584.7930199689371
 30
0.0
 11
558.7120447317623
 21
584.7930199689371
 31
0.0
  0
LINE
  5
139F
330
A
100
AcDbEntity
  8
MODEL
100
AcDbLine
 10
605.7161570831315
 20
590.7745372508206
 30
0.0
 11
558.9566761560257
 21
590.7745372508206
 31
0.0
  0
ARC
  5
13A0
330
A
100
AcDbEntity
  8
MODEL
100
AcDbCircle
 10
558.7120447317623
 20
585.0920958330311
 30
0.0
 40
0.2990758640941809
100
AcDbArc
 50
179.4999999999848
 51
270.0
  0
ARC
  5
13A1
330
A
100
AcDbEntity
  8
MODEL
100
AcDbCircle
 10
605.9607885069961
 20
585.0920958330311
 30
0.0
 40
0.2990758640941809
100
AcDbArc
 50
270.0
 51
0.5000000000152343
  0
ARC
  5
13A2
330
A
100
AcDbEntity
  8
MODEL
100
AcDbCircle
 10
605.7161570831315
 20
590.2760774773304
 30
0.0
 40
0.4984597734903014
100
AcDbArc
 50
0.4999999999978112
 51
90.0
  0
ARC
  5
13A3
330
A
100
AcDbEntity
  8
MODEL
100
AcDbCircle
 10
558.9566761560257
 20
590.2760774773304
 30
0.0
 40
0.4984597734903018
100
AcDbArc
 50
90.0
 51
179.5000000000022
  0
LINE
  5
13A4
330
A
100
AcDbEntity
  8
MODEL
100
AcDbLine
 10
597.4837470585435
 20
503.0456171165278
 30
0.0
 11
591.1151553240989
 21
503.0456171165278
 31
0.0
  0
LINE
  5
13A5
330
A
100
AcDbEntity
  8
MODEL
100
AcDbLine
 10
590.3568896075762
 20
503.793306776763
 30
0.0
 11
598.2420127746673
 21
503.793306776763
 31
0.0
  0
LINE
  5
13A6
330
A
100
AcDbEntity
  8
MODEL
100
AcDbLine
 10
591.1151553240989
 20
503.0456171165278
 30
0.0
 11
590.3568896075762
 21
503.793306776763
 31
0.0
  0
LINE
  5
13A7
330
A
100
AcDbEntity
  8
MODEL
100
AcDbLine
 10
598.2420127746673
 20
503.793306776763
 30
0.0
 11
597.4837470585435
 21
503.0456171165278
 31
0.0
  0
LINE
  5
13A8
330
A
100
AcDbEntity
  8
MODEL
100
AcDbLine
 10
590.3568896075762
 20
505.5379159839791
 30
0.0
 11
590.3117730033987
 21
505.5379159839791
 31
0.0
  0
LINE
  5
13A9
330
A
100
AcDbEntity
  8
MODEL
100
AcDbLine
 10
598.2420127746673
 20
505.5379159839791
 30
0.0
 11
598.2871293792437
 21
505.5379159839791
 31
0.0
  0
LINE
  5
13AA
330
A
100
AcDbEntity
  8
MODEL
100
AcDbLine
 10
598.2420127746673
 20
503.793306776763
 30
0.0
 11
598.2420127746673
 21
505.5379159839791
 31
0.0
  0
LINE
  5
13AB
330
A
100
AcDbEntity
  8
MODEL
100
AcDbLine
 10
590.3568896075762
 20
505.5379159839791
 30
0.0
 11
590.3568896075762
 21
503.793306776763
 31
0.0
  0
LINE
  5
13AC
330
A
100
AcDbEntity
  8
MODEL
100
AcDbLine
 10
598.2871293792437
 20
505.5379159839791
 30
0.0
 11
598.2871293792437
 21
521.987088509159
 31
0.0
  0
LINE
  5
13AD
330
A
100
AcDbEntity
  8
MODEL
100
AcDbLine
 10
598.2871293792437
 20
554.8854335595191
 30
0.0
 11
598.2871293792437
 21
579.9400617341263
 31
0.0
  0
LINE
  5
13AE
330
A
100
AcDbEntity
  8
MODEL
100
AcDbLine
 10
590.3117730033987
 20
584.0453303087016
 30
0.0
 11
590.3117730033987
 21
554.8854335595191
 31
0.0
  0
LINE
  5
13AF
330
A
100
AcDbEntity
  8
MODEL
100
AcDbLine
 10
590.3117730033987
 20
525.4763069235913
 30
0.0
 11
590.3117730033987
 21
505.5379159839791
 31
0.0
  0
LINE
  5
13B0
330
A
100
AcDbEntity
  8
MODEL
100
AcDbLine
 10
591.0764102959329
 20
503.0838217413246
 30
0.0
 11
591.0764102959329
 21
525.4763069235913
 31
0.0
  0
LINE
  5
13B1
330
A
100
AcDbEntity
  8
MODEL
100
AcDbLine
 10
591.0764102959329
 20
554.8854335595191
 30
0.0
 11
591.0764102959329
 21
584.0453303087016
 31
0.0
  0
LINE
  5
13B2
330
A
100
AcDbEntity
  8
MODEL
100
AcDbLine
 10
597.5224920867095
 20
503.0838217413246
 30
0.0
 11
597.5224920867095
 21
521.987088509159
 31
0.0
  0
LINE
  5
13B3
330
A
100
AcDbEntity
  8
MODEL
100
AcDbLine
 10
597.5224920867095
 20
554.8854335595191
 30
0.0
 11
597.5224920867095
 21
579.8084222340341
 31
0.0
  0
ARC
  5
13B4
330
A
100
AcDbEntity
  8
MODEL
100
AcDbCircle
 10
582.3364173688633
 20
977.2721362930563
 30
0.0
 40
23.92344775169391
100
AcDbArc
 50
34.23633759229989
 51
181.2863140237005
  0
ARC
  5
13B5
330
A
100
AcDbEntity
  8
MODEL
100
AcDbCircle
 10
582.3364173688633
 20
977.2721362930563
 30
0.0
 40
23.92344775169391
100
AcDbArc
 50
181.2863140237005
 51
325.7375499531995
  0
SPLINE
  5
13B6
330
A
100
AcDbEntity
  8
MODEL
100
AcDbSpline
210
0.0
220
0.0
230
1.0
 70
    12
 71
     3
 72
    26
 73
    22
 74
     0
 42
0.000000001
 43
0.0000000001
 40
0.0
 40
0.0
 40
0.0
 40
0.0
 40
0.2588626765277657
 40
0.2588626765277657
 40
0.2588626765277657
 40
0.5177253530555311
 40
0.5177253530555311
 40
0.5177253530555311
 40
0.6471566913194065
 40
0.6471566913194065
 40
0.6471566913194065
 40
0.7118723604513479
 40
0.7118723604513479
 40
0.7118723604513479
 40
0.7442301950173187
 40
0.7442301950173187
 40
0.7442301950173187
 40
0.7765880295832893
 40
0.7765880295832893
 40
0.7765880295832893
 40
1.0
 40
1.0
 40
1.0
 40
1.0
 10
584.7067055703508
 20
954.9670342062368
 30
0.0
 41
1.0
 10
590.70141332474
 20
955.6040716409275
 30
0.0
 41
0.9492556406489729
 10
595.9960143780605
 20
958.4866773818362
 30
0.0
 41
0.9492556406489729
 10
599.7844953398433
 20
963.176022639233
 30
0.0
 41
1.0
 10
603.5729721069579
 20
967.8653627045094
 30
0.0
 41
0.949248853864924
 10
605.2785244416337
 20
973.6475609296554
 30
0.0
 41
0.949248853864924
 10
604.6415395664346
 20
979.6422353334845
 30
0.0
 41
1.0
 10
604.3292839015355
 20
982.5808781721113
 30
0.0
 41
0.987190851999285
 10
603.4497342477868
 20
985.4021293250285
 30
0.0
 41
0.987190851999285
 10
602.0366870958694
 20
987.9975835202622
 30
0.0
 41
1.0
 10
601.3335822903164
 20
989.2890310949477
 30
0.0
 41
0.996789780684942
 10
600.5072796295563
 20
990.5053449141891
 30
0.0
 41
0.996789780684942
 10
599.565736675708
 20
991.6348101992621
 30
0.0
 41
1.0
 10
599.0955317075441
 20
992.1988632636907
 30
0.0
 41
0.9991946478306031
 10
598.5982165859305
 20
992.7391651276365
 30
0.0
 41
0.9991946478306031
 10
598.0749928457142
 20
993.2544104580124
 30
0.0
 41
1.0
 10
597.5517648588395
 20
993.7696599702915
 30
0.0
 41
0.99920115764038
 10
597.003889710432
 20
994.2586116734248
 30
0.0
 41
0.999201157640379
 10
596.4326803475708
 20
994.7200936370577
 30
0.0
 41
1.0
 10
592.4149801913775
 20
997.9660070935158
 30
0.0
 41
0.956203196609345
 10
587.5333607348881
 20
999.7029935002954
 30
0.0
 41
0.9502053153140111
 10
582.3356950216332
 20
999.7028260939073
 30
0.0
 41
0.982006356114
  0
ARC
  5
13B7
330
A
100
AcDbEntity
  8
MODEL
100
AcDbCircle
 10
582.3364174745368
 20
977.2721354265339
 30
0.0
 40
22.43069067888145
100
AcDbArc
 50
90.00184539620017
 51
96.06489329069983
  0
ARC
  5
13B8
330
A
100
AcDbEntity
  8
MODEL
100
AcDbCircle
 10
582.3364166195786
 20
977.2721363221665
 30
0.0
 40
22.43068969787329
100
AcDbArc
 50
96.06489136019982
 51
270.0000019345001
  0
ARC
  5
13B9
330
A
100
AcDbEntity
  8
MODEL
100
AcDbCircle
 10
582.3364116680784
 20
977.2722687796766
 30
0.0
 40
22.43082215533864
100
AcDbArc
 50
270.0000145821007
 51
276.0658437896006
  0
SPLINE
  5
13BA
330
A
100
AcDbEntity
  8
MODEL
100
AcDbSpline
210
0.0
220
0.0
230
1.0
 70
    12
 71
     5
 72
    12
 73
     6
 74
     0
 42
0.000000001
 43
0.0000000001
 40
0.0
 40
0.0
 40
0.0
 40
0.0
 40
0.0
 40
0.0
 40
1.0
 40
1.0
 40
1.0
 40
1.0
 40
1.0
 40
1.0
 10
654.142314431175
 20
974.1068153768902
 30
0.0
 41
1.0
 10
655.5253945254899
 20
974.1068153768886
 30
0.0
 41
1.0
 10
657.2691082661408
 20
974.1068153768863
 30
0.0
 41
1.0
 10
659.3993461293974
 20
973.387432759964
 30
0.0
 41
1.0
 10
661.6491905291734
 20
973.3874418464179
 30
0.0
 41
1.0
 10
663.1523125171946
 20
973.3874509328718
 30
0.0
 41
1.0
  0
SPLINE
  5
13BB
330
A
100
AcDbEntity
  8
MODEL
100
AcDbSpline
210
0.0
220
0.0
230
1.0
 70
    12
 71
     5
 72
    12
 73
     6
 74
     0
 42
0.000000001
 43
0.0000000001
 40
0.0
 40
0.0
 40
0.0
 40
0.0
 40
0.0
 40
0.0
 40
1.0
 40
1.0
 40
1.0
 40
1.0
 40
1.0
 40
1.0
 10
663.1523125171918
 20
981.1567254546992
 30
0.0
 41
1.0
 10
661.6491905291698
 20
981.1567345411529
 30
0.0
 41
1.0
 10
659.3993461293933
 20
981.156743627607
 30
0.0
 41
1.0
 10
657.2691082661377
 20
980.4373610106848
 30
0.0
 41
1.0
 10
655.525394525487
 20
980.437361010682
 30
0.0
 41
1.0
 10
654.1423144311723
 20
980.4373610106807
 30
0.0
 41
1.0
  0
LINE
  5
13BC
330
A
100
AcDbEntity
  8
MODEL
100
AcDbLine
 10
672.5576362800875
 20
977.0287011790281
 30
0.0
 11
672.5576364826616
 21
973.5868786873443
 31
0.0
  0
LINE
  5
13BD
330
A
100
AcDbEntity
  8
MODEL
100
AcDbLine
 10
672.5576364826616
 20
973.5868786873443
 30
0.0
 11
672.5576366856344
 21
977.2720884652429
 31
0.0
  0
LINE
  5
13BE
330
A
100
AcDbEntity
  8
MODEL
100
AcDbLine
 10
672.5576366856344
 20
977.2720884652429
 30
0.0
 11
672.5576364826616
 21
980.9571568763606
 31
0.0
  0
LINE
  5
13BF
330
A
100
AcDbEntity
  8
MODEL
100
AcDbLine
 10
672.5576362796887
 20
977.2720884652429
 30
0.0
 11
672.5576362800875
 21
977.0287011790281
 31
0.0
  0
SPLINE
  5
13C0
330
A
100
AcDbEntity
  8
MODEL
100
AcDbSpline
210
0.0
220
0.0
230
1.0
 70
    12
 71
     3
 72
     8
 73
     4
 74
     0
 42
0.000000001
 43
0.0000000001
 40
0.0
 40
0.0
 40
0.0
 40
0.0
 40
1.0
 40
1.0
 40
1.0
 40
1.0
 10
672.5576364826784
 20
973.5868786873195
 30
0.0
 41
1.0
 10
672.5576364826784
 20
973.4767616333563
 30
0.0
 41
1.0
 10
672.4683687017146
 20
973.3874942667678
 30
0.0
 41
1.0
 10
672.358251647752
 20
973.3874947779254
 30
0.0
 41
1.0
  0
LINE
  5
13C1
330
A
100
AcDbEntity
  8
MODEL
100
AcDbLine
 10
663.1497921003759
 20
973.3875375230671
 30
0.0
 11
672.3714641801762
 21
973.387494716538
 31
0.0
  0
LINE
  5
13C2
330
A
100
AcDbEntity
  8
MODEL
100
AcDbLine
 10
672.3714641801762
 20
981.156682660169
 30
0.0
 11
663.1497921003759
 21
981.1567254666982
 31
0.0
  0
LINE
  5
13C3
330
A
100
AcDbEntity
  8
MODEL
100
AcDbLine
 10
604.5391536215204
 20
974.1069115753251
 30
0.0
 11
654.1448067300123
 21
974.1069115753251
 31
0.0
  0
LINE
  5
13C4
330
A
100
AcDbEntity
  8
MODEL
100
AcDbLine
 10
654.1448067300123
 20
980.4373610107875
 30
0.0
 11
604.531589674302
 21
980.4373610107875
 31
0.0
  0
ARC
  5
13C5
330
A
100
AcDbEntity
  8
MODEL
100
AcDbCircle
 10
672.3606733367751
 20
980.9626328884394
 30
0.0
 40
0.1942484753222844
100
AcDbArc
 50
3.279878980694905
 51
90.71377695827863
  0
LINE
  5
13C6
330
A
100
AcDbEntity
  8
MODEL
100
AcDbLine
 10
692.715908546659
 20
964.3138410321096
 30
0.0
 11
692.715908546659
 21
990.2301149283671
 31
0.0
  0
LINE
  5
13C7
330
A
100
AcDbEntity
  8
MODEL
100
AcDbLine
 10
692.2174489558045
 20
990.7305243072324
 30
0.0
 11
600.2807123023654
 21
990.7305230331694
 31
0.0
  0
LINE
  5
13C8
330
A
100
AcDbEntity
  8
MODEL
100
AcDbLine
 10
600.275114980331
 20
963.81413336019
 30
0.0
 11
692.2174484988166
 21
963.8141348340362
 31
0.0
  0
ARC
  5
13C9
330
A
100
AcDbEntity
  8
MODEL
100
AcDbCircle
 10
692.2174487723712
 20
990.2320419690664
 30
0.0
 40
0.4984588463938088
100
AcDbArc
 50
359.9948215323868
 51
90.03381683459814
  0
ARC
  5
13CA
330
A
100
AcDbEntity
  8
MODEL
100
AcDbCircle
 10
692.2174487731688
 20
964.3125963302032
 30
0.0
 40
0.4984597074472402
100
AcDbArc
 50
269.8841439852868
 51
359.9628514556194
  0
HATCH
  5
13CB
330
A
100
AcDbEntity
  8
MODEL
100
AcDbHatch
 10
0.0
 20
0.0
 30
0.0
210
0.0
220
0.0
230
1.0
  2
SOLID
 70
     1
 71
     0
 91
        1
 92
        1
 93
        1
 72
     3
 10
598.6528688532433
 20
984.8559576107532
 11
0.9969195469805072
 21
0.0
 40
0.999999999999772
 50
0.0
 51
360.0
 73
     1
 97
        0
 75
     0
 76
     1
 98
        0
  0
CIRCLE
  5
13CC
330
A
100
AcDbEntity
  8
MODEL
100
AcDbCircle
 10
598.6528688530814
 20
984.855957610685
 30
0.0
 40
0.9969195469806037
  0
HATCH
  5
13CD
330
A
100
AcDbEntity
  8
MODEL
100
AcDbHatch
 10
0.0
 20
0.0
 30
0.0
210
0.0
220
0.0
230
1.0
  2
SOLID
 70
     1
 71
     0
 91
        1
 92
        1
 93
        1
 72
     3
 10
598.6528688532433
 20
969.6885669933033
 11
-0.9969195469807346
 21
0.0
 40
0.999999999999772
 50
0.0
 51
360.0
 73
     1
 97
        0
 75
     0
 76
     1
 98
        0
  0
CIRCLE
  5
13CE
330
A
100
AcDbEntity
  8
MODEL
100
AcDbCircle
 10
598.6528688530814
 20
969.6885669934993
 30
0.0
 40
0.9969195469806028
  0
LINE
  5
13D6
330
A
100
AcDbEntity
  8
MODEL
100
AcDbLine
 10
565.3887843209084
 20
584.7930199689371
 30
0.0
 11
565.3887843209084
 21
554.8854335595191
 31
0.0
  0
LINE
  5
13DA
330
A
100
AcDbEntity
  8
MODEL
100
AcDbLine
 10
599.2840489182488
 20
584.7930199689371
 30
0.0
 11
599.2840489182488
 21
554.8854335595191
 31
0.0
  0
HATCH
  5
13DC
330
A
100
AcDbEntity
  8
MODEL
100
AcDbHatch
 10
0.0
 20
0.0
 30
0.0
210
0.0
220
0.0
230
1.0
  2
NET
 70
     0
 71
     0
 91
        1
 92
        1
 93
        7
 72
     1
 10
579.8441177600441
 20
548.9039162777939
 11
579.8441177612845
 21
460.9608442441798
 72
     4
 94
        3
 73
     0
 74
     0
 95
       11
 96
        7
 40
0.0
 40
0.0
 40
0.0
 40
0.0
 40
0.1767909962583306
 40
0.3687547064397741
 40
0.6766280913768025
 40
1.0
 40
1.0
 40
1.0
 40
1.0
 10
579.8441177612815
 20
460.9608442441985
 10
580.4729068839383
 20
460.963805737343
 10
581.7682907690466
 20
461.050245984772
 10
584.2027666602705
 20
461.989997047055
 10
587.0067580000616
 20
460.7621851322268
 10
588.7126865791256
 20
458.9075025285844
 10
589.8133132849996
 20
458.6998027044484
 72
     1
 10
589.8133132849996
 20
458.6998027044484
 11
589.8133132298501
 21
548.4054565043035
 72
     1
 10
589.8133132298501
 20
548.4054565043033
 11
584.8287154949471
 21
548.4054565043033
 72
     1
 10
584.8287154949471
 20
548.4054565043033
 11
583.8317959479665
 21
548.4054565043033
 72
     2
 10
583.8317959479664
 20
549.402376051284
 40
0.9969195469806028
 50
90.0
 51
149.9999999999955
 73
     0
 72
     1
 10
582.9684382947519
 20
548.9039162777939
 11
579.8441177600439
 21
548.9039162777939
 97
        0
 75
     0
 76
     1
 52
45.0
 41
1.255961633906533
 77
     0
 78
     2
 53
45.0
 43
240.9050714261983
 44
-71.66962926182623
 45
-2.81971428786962
 46
2.819714287869621
 79
     0
 53
135.0
 43
240.9050714261983
 44
-71.66962926182623
 45
-2.819714287869621
 46
-2.81971428786962
 79
     0
 98
        0
  0
LINE
  5
13DD
330
A
100
AcDbEntity
  8
MODEL
100
AcDbLine
 10
579.8441177601023
 20
548.9039162776354
 30
0.0
 11
579.8441177612988
 21
460.9608442442139
 31
0.0
  0
SPLINE
  5
13DE
330
A
100
AcDbEntity
  8
MODEL
100
AcDbSpline
210
0.0
220
0.0
230
1.0
 70
     8
 71
     3
 72
    11
 73
     7
 74
     0
 42
0.000000001
 43
0.0000000001
 40
0.0
 40
0.0
 40
0.0
 40
0.0
 40
0.1767909962583306
 40
0.3687547064397741
 40
0.6766280913768025
 40
1.0
 40
1.0
 40
1.0
 40
1.0
 10
579.8441177612815
 20
460.9608442441985
 30
0.0
 10
580.4729068839383
 20
460.963805737343
 30
0.0
 10
581.7682907690466
 20
461.050245984772
 30
0.0
 10
584.2027666602705
 20
461.989997047055
 30
0.0
 10
587.0067580000616
 20
460.7621851322268
 30
0.0
 10
588.7126865791256
 20
458.9075025285844
 30
0.0
 10
589.8133132849996
 20
458.6998027044484
 30
0.0
  0
LINE
  5
13DF
330
A
100
AcDbEntity
  8
MODEL
100
AcDbLine
 10
589.8133132311048
 20
458.6998026463829
 30
0.0
 11
589.8133132299083
 21
548.405456504145
 31
0.0
  0
LINE
  5
13E0
330
A
100
AcDbEntity
  8
MODEL
100
AcDbLine
 10
584.8287154950056
 20
548.405456504145
 30
0.0
 11
605.2655662081077
 21
548.405456504145
 31
0.0
  0
LINE
  5
13E1
330
A
100
AcDbEntity
  8
MODEL
100
AcDbLine
 10
584.8287154950056
 20
548.405456504145
 30
0.0
 11
583.8317959480248
 21
548.405456504145
 31
0.0
  0
ARC
  5
13E2
330
A
100
AcDbEntity
  8
MODEL
100
AcDbCircle
 10
583.8317959480248
 20
549.4023760511258
 30
0.0
 40
0.9969195469806028
100
AcDbArc
 50
210.0000000000024
 51
270.0
  0
LINE
  5
13E3
330
A
100
AcDbEntity
  8
MODEL
100
AcDbLine
 10
584.8287154950056
 20
548.9039162776354
 30
0.0
 11
574.8595200251993
 21
548.9039162776354
 31
0.0
  0
HATCH
  5
13E4
330
A
100
AcDbEntity
  8
MODEL
100
AcDbHatch
 10
0.0
 20
0.0
 30
0.0
210
0.0
220
0.0
230
1.0
  2
NET
 70
     0
 71
     0
 91
        1
 92
        1
 93
        8
 72
     1
 10
579.8441177600441
 20
579.8084222341926
 11
579.8441177600441
 21
554.8854335596775
 72
     1
 10
579.8441177600441
 20
554.8854335596774
 11
584.8287154949471
 21
554.8854335596774
 72
     1
 10
584.8287154949471
 20
554.8854335596774
 11
589.8133132298501
 21
554.8854335596774
 72
     1
 10
589.8133132298501
 20
554.8854335596774
 11
589.8133132298501
 21
584.04533030886
 72
     1
 10
589.8133132298501
 20
584.0453303088601
 11
582.214232338129
 21
584.0453303088601
 72
     2
 10
583.17949553887
 20
583.7961004221148
 40
0.9969195469806028
 50
165.522487814076
 51
180.0
 73
     1
 72
     1
 10
582.1825759918895
 20
583.7961004221148
 11
582.1825759918895
 21
579.8084222341924
 72
     1
 10
582.1825759918895
 20
579.8084222341926
 11
579.8441177600441
 21
579.8084222341926
 97
        0
 75
     0
 76
     1
 52
45.0
 41
1.255961633906533
 77
     0
 78
     2
 53
45.0
 43
240.9050714261983
 44
-71.66962926182623
 45
-2.81971428786962
 46
2.819714287869621
 79
     0
 53
135.0
 43
240.9050714261983
 44
-71.66962926182623
 45
-2.819714287869621
 46
-2.81971428786962
 79
     0
 98
        0
  0
LINE
  5
13E5
330
A
100
AcDbEntity
  8
MODEL
100
AcDbLine
 10
579.8441177601023
 20
579.8084222340341
 30
0.0
 11
579.8441177601023
 21
554.8854335595191
 31
0.0
  0
LINE
  5
13E6
330
A
100
AcDbEntity
  8
MODEL
100
AcDbLine
 10
565.2779674881667
 20
554.8854335595191
 30
0.0
 11
608.2563248410743
 21
554.8854335595191
 31
0.0
  0
LINE
  5
13E7
102
{ACAD_REACTORS
330
17BB
102
}
330
A
100
AcDbEntity
  8
MODEL
100
AcDbLine
 10
584.8287154950056
 20
554.8854335595191
 30
0.0
 11
609.7517041695205
 21
554.8854335595191
 31
0.0
  0
LINE
  5
13E8
330
A
100
AcDbEntity
  8
MODEL
100
AcDbLine
 10
589.8133132299083
 20
554.8854335595191
 30
0.0
 11
589.8133132299083
 21
584.0453303087016
 31
0.0
  0
LINE
  5
13E9
330
A
100
AcDbEntity
  8
MODEL
100
AcDbLine
 10
565.3887843209084
 20
584.0453303087016
 30
0.0
 11
599.2840489182488
 21
584.0453303087016
 31
0.0
  0
ARC
  5
13EA
330
A
100
AcDbEntity
  8
MODEL
100
AcDbCircle
 10
583.1794955389189
 20
583.7961004219563
 30
0.0
 40
0.9969195469806028
100
AcDbArc
 50
165.5224878140885
 51
180.0
  0
LINE
  5
13EB
330
A
100
AcDbEntity
  8
MODEL
100
AcDbLine
 10
582.1825759919384
 20
579.8084222340341
 30
0.0
 11
582.1825759919384
 21
583.7961004219563
 31
0.0
  0
LINE
  5
13EC
330
A
100
AcDbEntity
  8
MODEL
100
AcDbLine
 10
582.1825759919384
 20
579.8084222340341
 30
0.0
 11
566.5079095968654
 21
579.8084222340341
 31
0.0
  0
LINE
  5
13ED
330
A
100
AcDbEntity
  8
DIM
  6
CENTER
 48
0.005
100
AcDbLine
 10
672.5576366856344
 20
977.2721363221665
 30
0.0
 11
718.4316208469381
 21
977.2721363221665
 31
0.0
  0
SPLINE
  5
13EE
330
A
100
AcDbEntity
  8
MODEL
  6
HIDDEN
 48
0.01
100
AcDbSpline
210
0.0
220
0.0
230
1.0
 70
    12
 71
     5
 72
    12
 73
     6
 74
     0
 42
0.000000001
 43
0.0000000001
 40
0.0
 40
0.0
 40
0.0
 40
0.0
 40
0.0
 40
0.0
 40
1.0
 40
1.0
 40
1.0
 40
1.0
 40
1.0
 40
1.0
 10
630.9171345561954
 20
1030.244016239733
 30
0.0
 41
1.0
 10
631.8061613040259
 20
1031.303517060371
 30
0.0
 41
1.0
 10
632.9269988913584
 20
1032.639279281785
 30
0.0
 41
1.0
 10
634.8473684517146
 20
1033.808725926672
 30
0.0
 41
1.0
 10
636.2935335949858
 20
1035.532212567663
 30
0.0
 41
1.0
 10
637.2597148241057
 20
1036.683676654577
 30
0.0
 41
1.0
  0
SPLINE
  5
13EF
330
A
100
AcDbEntity
  8
MODEL
  6
HIDDEN
 48
0.01
100
AcDbSpline
210
0.0
220
0.0
230
1.0
 70
    12
 71
     5
 72
    12
 73
     6
 74
     0
 42
0.000000001
 43
0.0000000001
 40
0.0
 40
0.0
 40
0.0
 40
0.0
 40
0.0
 40
0.0
 40
1.0
 40
1.0
 40
1.0
 40
1.0
 40
1.0
 40
1.0
 10
631.3081052495922
 20
1041.677670053459
 30
0.0
 41
1.0
 10
630.3419100992169
 20
1040.526217647865
 30
0.0
 41
1.0
 10
628.8957310346898
 20
1038.802742688193
 30
0.0
 41
1.0
 10
628.077519586674
 20
1036.708475577743
 30
0.0
 41
1.0
 10
626.9566819993454
 20
1035.372713356326
 30
0.0
 41
1.0
 10
626.0676552515167
 20
1034.313212535687
 30
0.0
 41
1.0
  0
LINE
  5
13F0
330
A
100
AcDbEntity
  8
MODEL
  6
HIDDEN
 48
0.5
100
AcDbLine
 10
640.5159808870751
 20
1046.229123201011
 30
0.0
 11
643.1525700109421
 21
1044.016762503783
 31
0.0
  0
LINE
  5
13F1
330
A
100
AcDbEntity
  8
MODEL
  6
HIDDEN
 48
0.5
100
AcDbLine
 10
643.1525700109421
 20
1044.016762503783
 30
0.0
 11
640.3295356694896
 21
1046.38556984334
 31
0.0
  0
LINE
  5
13F2
330
A
100
AcDbEntity
  8
MODEL
  6
HIDDEN
 48
0.01
100
AcDbLine
 10
640.3295356694896
 20
1046.38556984334
 30
0.0
 11
637.5066093602209
 21
1048.754286003439
 31
0.0
  0
LINE
  5
13F3
330
A
100
AcDbEntity
  8
MODEL
  6
HIDDEN
 48
0.01
100
AcDbLine
 10
640.3295354086954
 20
1046.3855695327
 30
0.0
 11
640.5159808870751
 21
1046.229123201011
 31
0.0
  0
SPLINE
  5
13F4
330
A
100
AcDbEntity
  8
MODEL
  6
HIDDEN
 48
0.01
100
AcDbSpline
210
0.0
220
0.0
230
1.0
 70
    12
 71
     3
 72
     8
 73
     4
 74
     0
 42
0.000000001
 43
0.0000000001
 40
0.0
 40
0.0
 40
0.0
 40
0.0
 40
1.0
 40
1.0
 40
1.0
 40
1.0
 10
643.1525700111079
 20
1044.016762503656
 30
0.0
 41
1.0
 10
643.2369245683892
 20
1043.945980625754
 30
0.0
 41
1.0
 10
643.2479271149684
 20
1043.820217581004
 30
0.0
 41
1.0
 10
643.1771448454967
 20
1043.735863352289
 30
0.0
 41
1.0
  0
LINE
  5
13F5
330
A
100
AcDbEntity
  8
MODEL
  6
HIDDEN
 48
0.01
100
AcDbLine
 10
637.2580283995128
 20
1036.681801562277
 30
0.0
 11
643.1856377445863
 21
1043.745984699888
 31
0.0
  0
LINE
  5
13F6
330
A
100
AcDbEntity
  8
MODEL
  6
HIDDEN
 48
0.01
100
AcDbLine
 10
637.2340944930027
 20
1048.739922447219
 30
0.0
 11
631.3064851479287
 21
1041.675739309607
 31
0.0
  0
LINE
  5
13F7
330
A
100
AcDbEntity
  8
MODEL
  6
HIDDEN
 48
0.01
100
AcDbLine
 10
599.0327636940378
 20
992.2458523754408
 30
0.0
 11
630.918662882887
 21
1030.24598728677
 31
0.0
  0
LINE
  5
13F8
330
A
100
AcDbEntity
  8
MODEL
  6
HIDDEN
 48
0.01
100
AcDbLine
 10
626.0692572701753
 20
1034.315121747529
 30
0.0
 11
594.1784960704015
 21
996.3091925164817
 31
0.0
  0
ARC
  5
13F9
330
A
100
AcDbEntity
  8
MODEL
  6
HIDDEN
 48
0.01
100
AcDbCircle
 10
637.3758090215438
 20
1048.60692339291
 30
0.0
 40
0.1942484753222844
100
AcDbArc
 50
53.27987898074363
 51
140.7137769581774
  0
LINE
  5
13FA
330
A
100
AcDbEntity
  8
MODEL
100
AcDbLine
 10
640.3294990087702
 20
1046.385600605486
 30
0.0
 11
648.1230150488757
 21
1055.673551344914
 31
0.0
  0
SPLINE
  5
13FB
330
A
100
AcDbEntity
  8
MODEL
  6
HIDDEN
 48
0.01
100
AcDbSpline
210
0.0
220
0.0
230
1.0
 70
    12
 71
     5
 72
    12
 73
     6
 74
     0
 42
0.000000001
 43
0.0000000001
 40
0.0
 40
0.0
 40
0.0
 40
0.0
 40
0.0
 40
0.0
 40
1.0
 40
1.0
 40
1.0
 40
1.0
 40
1.0
 40
1.0
 10
626.0675815143188
 20
920.2309982361032
 30
0.0
 41
1.0
 10
626.9566082621475
 20
919.1714974154638
 30
0.0
 41
1.0
 10
628.0774458494759
 20
917.8357351940465
 30
0.0
 41
1.0
 10
628.8956572974926
 20
915.7414680835957
 30
0.0
 41
1.0
 10
630.341836362019
 20
914.0179931239247
 30
0.0
 41
1.0
 10
631.3080315123939
 20
912.8665407183314
 30
0.0
 41
1.0
  0
SPLINE
  5
13FC
330
A
100
AcDbEntity
  8
MODEL
  6
HIDDEN
 48
0.01
100
AcDbSpline
210
0.0
220
0.0
230
1.0
 70
    12
 71
     5
 72
    12
 73
     6
 74
     0
 42
0.000000001
 43
0.0000000001
 40
0.0
 40
0.0
 40
0.0
 40
0.0
 40
0.0
 40
0.0
 40
1.0
 40
1.0
 40
1.0
 40
1.0
 40
1.0
 40
1.0
 10
637.2596410869039
 20
917.8605341172174
 30
0.0
 41
1.0
 10
636.2934598577838
 20
919.0119982041313
 30
0.0
 41
1.0
 10
634.8472947145121
 20
920.735484845123
 30
0.0
 41
1.0
 10
632.9269251541562
 20
921.9049314900096
 30
0.0
 41
1.0
 10
631.8060875668241
 20
923.240693711424
 30
0.0
 41
1.0
 10
630.9170608189934
 20
924.3001945320614
 30
0.0
 41
1.0
  0
LINE
  5
13FD
330
A
100
AcDbEntity
  8
MODEL
  6
HIDDEN
 48
0.01
100
AcDbLine
 10
640.1430166092757
 20
908.0021952560517
 30
0.0
 11
637.5064277454055
 21
905.7898342485821
 31
0.0
  0
LINE
  5
13FE
330
A
100
AcDbEntity
  8
MODEL
  6
HIDDEN
 48
0.01
100
AcDbLine
 10
637.5064277454055
 20
905.7898342485821
 30
0.0
 11
640.3294623480508
 21
908.1586412771001
 31
0.0
  0
LINE
  5
13FF
330
A
100
AcDbEntity
  8
MODEL
  6
HIDDEN
 48
0.01
100
AcDbLine
 10
640.3294623480508
 20
908.1586412771001
 30
0.0
 11
643.1523883965253
 21
910.5273577482383
 31
0.0
  0
LINE
  5
1400
330
A
100
AcDbEntity
  8
MODEL
  6
HIDDEN
 48
0.01
100
AcDbLine
 10
640.3294620872566
 20
908.1586415881391
 30
0.0
 11
640.1430166092757
 21
908.0021952560517
 31
0.0
  0
SPLINE
  5
1401
330
A
100
AcDbEntity
  8
MODEL
  6
HIDDEN
 48
0.01
100
AcDbSpline
210
0.0
220
0.0
230
1.0
 70
    12
 71
     3
 72
     8
 73
     4
 74
     0
 42
0.000000001
 43
0.0000000001
 40
0.0
 40
0.0
 40
0.0
 40
0.0
 40
1.0
 40
1.0
 40
1.0
 40
1.0
 10
637.5064277455931
 20
905.7898342484252
 30
0.0
 41
1.0
 10
637.4220731883122
 20
905.7190523705226
 30
0.0
 41
1.0
 10
637.2963101946373
 20
905.7300555008874
 30
0.0
 41
1.0
 10
637.2255287083046
 20
905.8144103867332
 30
0.0
 41
1.0
  0
LINE
  5
1402
330
A
100
AcDbEntity
  8
MODEL
  6
HIDDEN
 48
0.01
100
AcDbLine
 10
631.3064777515833
 20
912.868527128702
 30
0.0
 11
637.2340215133077
 21
905.8042889603341
 31
0.0
  0
LINE
  5
1403
330
A
100
AcDbEntity
  8
MODEL
  6
HIDDEN
 48
0.01
100
AcDbLine
 10
643.1855647648915
 20
910.7982267076648
 30
0.0
 11
637.2580210031672
 21
917.8624648760326
 31
0.0
  0
LINE
  5
1404
330
A
100
AcDbEntity
  8
MODEL
  6
HIDDEN
 48
0.01
100
AcDbLine
 10
594.183358036664
 20
958.2292857706498
 30
0.0
 11
626.0692572255132
 21
920.2291508597189
 31
0.0
  0
LINE
  5
1405
330
A
100
AcDbEntity
  8
MODEL
  6
HIDDEN
 48
0.01
100
AcDbLine
 10
630.9186628378263
 20
924.2982853204771
 30
0.0
 11
599.0279016376537
 21
962.3042145511251
 31
0.0
  0
ARC
  5
1406
330
A
100
AcDbEntity
  8
MODEL
  6
HIDDEN
 48
0.01
100
AcDbCircle
 10
643.029977795398
 20
910.6817601843063
 30
0.0
 40
0.1942484753222844
100
AcDbArc
 50
313.2798789808022
 51
40.71377695821682
  0
LINE
  5
1407
330
A
100
AcDbEntity
  8
MODEL
100
AcDbLine
 10
640.3294990087702
 20
908.1586720392461
 30
0.0
 11
648.4326551294419
 21
898.5017066210692
 31
0.0
  0
LINE
  5
1408
330
A
100
AcDbEntity
  8
MODEL
  6
HIDDEN
 48
0.01
100
AcDbLine
 10
550.1139137253963
 20
733.8851695890361
 30
0.0
 11
547.1858745993391
 21
739.8885394570506
 31
0.0
  0
LINE
  5
1409
330
A
100
AcDbEntity
  8
MODEL
  6
HIDDEN
 48
0.01
100
AcDbLine
 10
647.329452807211
 20
791.5421641831466
 30
0.0
 11
648.9414113296666
 21
788.237159893912
 31
0.0
  0
LINE
  5
140A
330
A
100
AcDbEntity
  8
MODEL
  6
HIDDEN
 48
0.01
100
AcDbLine
 10
648.9414113296666
 20
788.237159893912
 30
0.0
 11
650.5569011656639
 21
784.9249153400887
 31
0.0
  0
LINE
  5
140B
330
A
100
AcDbEntity
  8
MODEL
  6
HIDDEN
 48
0.01
100
AcDbLine
 10
647.3259212787334
 20
791.5494048887725
 30
0.0
 11
647.329452807211
 21
791.5421641831466
 31
0.0
  0
SPLINE
  5
140C
330
A
100
AcDbEntity
  8
MODEL
  6
HIDDEN
 48
0.04
100
AcDbSpline
210
0.0
220
0.0
230
1.0
 70
    12
 71
     3
 72
     8
 73
     4
 74
     0
 42
0.000000001
 43
0.0000000001
 40
0.0
 40
0.0
 40
0.0
 40
0.0
 40
1.0
 40
1.0
 40
1.0
 40
1.0
 10
650.465099797299
 20
784.6583058842517
 30
0.0
 41
1.0
 10
650.5640723293111
 20
784.7065777021395
 30
0.0
 41
1.0
 10
650.6051732404308
 20
784.825942933263
 30
0.0
 41
1.0
 10
650.5569011655787
 20
784.9249153399436
 30
0.0
 41
1.0
  0
SPLINE
  5
140D
330
A
100
AcDbEntity
  8
MODEL
  6
HIDDEN
 48
0.01
100
AcDbSpline
210
0.0
220
0.0
230
1.0
 70
    12
 71
     3
 72
     8
 73
     4
 74
     0
 42
0.000000001
 43
0.0000000001
 40
0.0
 40
0.0
 40
0.0
 40
0.0
 40
1.0
 40
1.0
 40
1.0
 40
1.0
 10
647.0593125150708
 20
791.6412060186086
 30
0.0
 41
1.0
 10
647.1582846836793
 20
791.6894776592538
 30
0.0
 41
1.0
 10
647.277649380949
 20
791.6483769319556
 30
0.0
 41
1.0
 10
647.3259212785576
 20
791.5494048886793
 30
0.0
 41
1.0
  0
SPLINE
  5
140E
330
A
100
AcDbEntity
  8
MODEL
  6
HIDDEN
 48
0.01
100
AcDbSpline
210
0.0
220
0.0
230
1.0
 70
     8
 71
     3
 72
    13
 73
     9
 74
     0
 42
0.000000001
 43
0.0000000001
 40
0.0
 40
0.0
 40
0.0
 40
0.0
 40
0.1384971731222042
 40
0.2986279668681479
 40
0.4763678100501405
 40
0.6623511781600308
 40
0.8427806141399303
 40
1.0
 40
1.0
 40
1.0
 40
1.0
 10
633.7773945250972
 20
777.3194845622817
 30
0.0
 10
634.1913431505961
 20
777.5188246423094
 30
0.0
 10
634.9466081430955
 20
777.8798134356965
 30
0.0
 10
636.319584699816
 20
778.3967148090522
 30
0.0
 10
637.8154667183508
 20
778.8827576972516
 30
0.0
 10
639.3660405011369
 20
779.3998399660708
 30
0.0
 10
640.8676399745277
 20
779.9877705744192
 30
0.0
 10
641.7211463590252
 20
780.3959924948389
 30
0.0
 10
642.1908755963814
 20
780.622647739673
 30
0.0
  0
SPLINE
  5
140F
330
A
100
AcDbEntity
  8
MODEL
  6
HIDDEN
 48
0.01
100
AcDbSpline
210
0.0
220
0.0
230
1.0
 70
     8
 71
     3
 72
    13
 73
     9
 74
     0
 42
0.000000001
 43
0.0000000001
 40
0.0
 40
0.0
 40
0.0
 40
0.0
 40
0.1572193858604038
 40
0.3376488218402648
 40
0.5236321899500777
 40
0.7013720331319852
 40
0.8615028268778577
 40
1.0
 40
1.0
 40
1.0
 40
1.0
 10
638.7850494299973
 20
787.6056252365787
 30
0.0
 10
638.3172484898239
 20
787.3750163971719
 30
0.0
 10
637.4700942731806
 20
786.9537706044172
 30
0.0
 10
636.0823217747295
 20
786.1324601446853
 30
0.0
 10
634.7202269431803
 20
785.2289388120888
 30
0.0
 10
633.416263086971
 20
784.3494054333918
 30
0.0
 10
632.1636505578078
 20
783.5857212664336
 30
0.0
 10
631.4141999882065
 20
783.212811141109
 30
0.0
 10
631.0022656624412
 20
783.0093411351764
 30
0.0
  0
LINE
  5
1410
330
A
100
AcDbEntity
  8
MODEL
  6
HIDDEN
 48
0.01
100
AcDbLine
 10
642.1885805553165
 20
780.6216037663429
 30
0.0
 11
650.4769747906871
 21
784.6640976680704
 31
0.0
  0
LINE
  5
1411
330
A
100
AcDbEntity
  8
MODEL
  6
HIDDEN
 48
0.01
100
AcDbLine
 10
647.0711865781066
 20
791.6469973488491
 30
0.0
 11
638.782792342736
 21
787.6045034471218
 31
0.0
  0
LINE
  5
1412
330
A
100
AcDbEntity
  8
MODEL
  6
HIDDEN
 48
0.01
100
AcDbLine
 10
589.3930024941164
 20
755.671850882074
 30
0.0
 11
633.7796015857418
 21
777.3206447800375
 31
0.0
  0
LINE
  5
1413
330
A
100
AcDbEntity
  8
MODEL
  6
HIDDEN
 48
0.01
100
AcDbLine
 10
631.0045148938173
 20
783.0104148899767
 30
0.0
 11
586.6177976899555
 21
761.3615633852168
 31
0.0
  0
LINE
  5
1414
330
A
100
AcDbEntity
  8
MODEL
  6
HIDDEN
 48
0.01
100
AcDbLine
 10
596.1431527511886
 20
741.3929437693538
 30
0.0
 11
556.1804219863741
 21
721.9018176473882
 31
0.0
  0
ARC
  5
1415
330
A
100
AcDbEntity
  8
MODEL
  6
HIDDEN
 48
0.01
100
AcDbCircle
 10
607.9717623558524
 20
768.2549526865199
 30
0.0
 40
22.43915016988376
100
AcDbArc
 50
197.7623505578997
 51
214.2376488434005
  0
ARC
  5
1416
330
A
100
AcDbEntity
  8
MODEL
  6
HIDDEN
 48
0.01
100
AcDbCircle
 10
545.9758905551892
 20
743.5065024882823
 30
0.0
 40
0.498501117272755
100
AcDbArc
 50
122.7808686113142
 51
206.494412428012
  0
ARC
  5
1417
330
A
100
AcDbEntity
  8
MODEL
  6
HIDDEN
 48
0.04
100
AcDbCircle
 10
585.4009653257197
 20
762.7353962384112
 30
0.0
 40
0.4985011934579983
100
AcDbArc
 50
25.50559843042566
 51
100.5112262259033
  0
ARC
  5
1418
330
A
100
AcDbEntity
  8
MODEL
 48
0.01
100
AcDbCircle
 10
596.0557485979339
 20
741.5721488399871
 30
0.0
 40
0.1993839093962091
100
AcDbArc
 50
296.0000000002012
 51
25.9999999999964
  0
ARC
  5
1419
330
A
100
AcDbEntity
  8
MODEL
  6
HIDDEN
 48
0.04
100
AcDbCircle
 10
556.0930178335182
 20
722.0810227180217
 30
0.0
 40
0.1993839093961816
100
AcDbArc
 50
206.0000000000988
 51
295.9999999999964
  0
LINE
  5
141A
330
A
100
AcDbEntity
  8
MODEL
  6
HIDDEN
 48
0.04
100
AcDbLine
 10
586.6022850922407
 20
761.4094503805644
 30
0.0
 11
585.8470841620158
 21
762.9578417485178
 31
0.0
  0
LINE
  5
141B
330
A
100
AcDbEntity
  8
MODEL
  6
HIDDEN
 48
0.01
100
AcDbLine
 10
596.234953668966
 20
741.6595529932418
 30
0.0
 11
589.4031971915915
 21
755.6667295428664
 31
0.0
  0
LINE
  5
141C
330
A
100
AcDbEntity
  8
MODEL
  6
HIDDEN
 48
0.01
100
AcDbLine
 10
550.1810303469463
 20
733.7475643752294
 30
0.0
 11
555.9138127628846
 21
721.9936185651658
 31
0.0
  0
LINE
  5
141D
330
A
100
AcDbEntity
  8
MODEL
  6
HIDDEN
 48
0.01
100
AcDbLine
 10
545.5259432563332
 20
743.2919073204415
 30
0.0
 11
547.0984721225043
 21
740.0677453451582
 31
0.0
  0
ARC
  5
141E
330
A
100
AcDbEntity
  8
MODEL
  6
HIDDEN
 48
0.01
100
AcDbCircle
 10
695.59480558118
 20
486.8023009817617
 30
0.0
 40
297.6113835950467
100
AcDbArc
 50
111.7505532672
 51
120.2337245613
  0
LINE
  5
141F
330
A
100
AcDbEntity
  8
MODEL
100
AcDbLine
 10
676.1987719365666
 20
695.7930199797039
 30
0.0
 11
677.3144614939961
 21
694.1996501622788
 31
0.0
  0
LINE
  5
1420
330
A
100
AcDbEntity
  8
MODEL
100
AcDbLine
 10
676.1987719365666
 20
695.7930199797039
 30
0.0
 11
676.1987719365666
 21
694.505702022344
 31
0.0
  0
LINE
  5
1424
330
A
100
AcDbEntity
  8
MODEL
100
AcDbLine
 10
596.791750059969
 20
253.4654709517774
 30
0.0
 11
598.0378994936948
 21
254.1849356631014
 31
0.0
  0
LINE
  5
1425
330
A
100
AcDbEntity
  8
MODEL
100
AcDbLine
 10
593.13305532255
 20
290.3514941900597
 30
0.0
 11
593.13305532255
 21
298.3268505659045
 31
0.0
  0
LINE
  5
1426
330
A
100
AcDbEntity
  8
MODEL
100
AcDbLine
 10
576.5243756698533
 20
298.3268505659045
 30
0.0
 11
576.5243756698533
 21
290.3514941900597
 31
0.0
  0
LINE
  5
1427
330
A
100
AcDbEntity
  8
MODEL
100
AcDbLine
 10
594.7979109660077
 20
288.6866385466021
 30
0.0
 11
593.13305532255
 21
290.3514941900597
 31
0.0
  0
LINE
  5
1428
330
A
100
AcDbEntity
  8
MODEL
100
AcDbLine
 10
576.5243756698533
 20
290.3514941900597
 30
0.0
 11
574.8595200263958
 21
288.6866385466021
 31
0.0
  0
ARC
  5
1429
330
A
100
AcDbEntity
  8
MODEL
100
AcDbCircle
 10
584.7387170655902
 20
253.5345056337753
 30
0.0
 40
22.86029205614999
100
AcDbArc
 50
75.58545672950017
 51
89.77443229749998
  0
ARC
  5
142A
330
A
100
AcDbEntity
  8
MODEL
100
AcDbCircle
 10
574.4089220405442
 20
270.353344841829
 30
0.0
 40
6.041568704635861
100
AcDbArc
 50
61.74697593349945
 51
89.43570175060191
  0
LINE
  5
142B
330
A
100
AcDbEntity
  8
MODEL
100
AcDbLine
 10
598.0378994936948
 20
275.675155821406
 30
0.0
 11
596.791750059969
 21
276.3946205323313
 31
0.0
  0
LINE
  5
142C
330
A
100
AcDbEntity
  8
MODEL
100
AcDbLine
 10
574.4684236574419
 20
253.4654709517774
 30
0.0
 11
572.8656809324345
 21
253.4654709517774
 31
0.0
  0
LINE
  5
142D
330
A
100
AcDbEntity
  8
MODEL
100
AcDbLine
 10
571.6680510973304
 20
254.1849356631014
 30
0.0
 11
571.6195314987087
 21
254.1849356631014
 31
0.0
  0
LINE
  5
142E
330
A
100
AcDbEntity
  8
MODEL
100
AcDbLine
 10
595.1890073345628
 20
253.4654709517774
 30
0.0
 11
596.791750059969
 21
253.4654709517774
 31
0.0
  0
LINE
  5
142F
330
A
100
AcDbEntity
  8
MODEL
100
AcDbLine
 10
584.8287154962018
 20
253.4654709517774
 30
0.0
 11
574.4684236574419
 21
253.4654709517774
 31
0.0
  0
LINE
  5
1430
330
A
100
AcDbEntity
  8
MODEL
100
AcDbLine
 10
579.2279703755798
 20
254.1849356631014
 30
0.0
 11
577.2687962179523
 21
254.1849356631014
 31
0.0
  0
LINE
  5
1431
330
A
100
AcDbEntity
  8
MODEL
100
AcDbLine
 10
595.1890073345628
 20
253.4654709517774
 30
0.0
 11
584.8287154962018
 21
253.4654709517774
 31
0.0
  0
LINE
  5
1432
330
A
100
AcDbEntity
  8
MODEL
100
AcDbLine
 10
576.5243756698533
 20
290.3514941900597
 30
0.0
 11
593.13305532255
 21
290.3514941900597
 31
0.0
  0
LINE
  5
1433
330
A
100
AcDbEntity
  8
MODEL
100
AcDbLine
 10
574.8595200263958
 20
288.6866385466021
 30
0.0
 11
594.7979109660077
 21
288.6866385466021
 31
0.0
  0
ARC
  5
1434
330
A
100
AcDbEntity
  8
MODEL
100
AcDbCircle
 10
595.1295057176651
 20
270.353344841829
 30
0.0
 40
6.041568704637831
100
AcDbArc
 50
61.74697593349977
 51
89.43570175059993
  0
ARC
  5
1435
330
A
100
AcDbEntity
  8
MODEL
100
AcDbCircle
 10
574.5279252743396
 20
259.5067466426784
 30
0.0
 40
6.041568704636211
100
AcDbArc
 50
241.7469759334988
 51
269.4357017505998
  0
SPLINE
  5
1436
330
A
100
AcDbEntity
  8
MODEL
100
AcDbSpline
210
0.0
220
0.0
230
1.0
 70
     8
 71
     3
 72
    10
 73
     6
 74
     0
 42
0.000000001
 43
0.0000000001
 40
0.0
 40
0.0
 40
0.0
 40
0.0
 40
0.331050674891237
 40
0.6643343268119648
 40
1.0
 40
1.0
 40
1.0
 40
1.0
 10
592.388634774386
 20
275.6751558214773
 30
0.0
 10
592.7228682478169
 20
275.8335101871848
 30
0.0
 10
593.2723299781685
 20
276.0744632192111
 30
0.0
 10
594.2746932464754
 20
276.3453158877696
 30
0.0
 10
594.8407970349479
 20
276.3863746582135
 30
0.0
 10
595.1890073346776
 20
276.3946205324893
 30
0.0
  0
SPLINE
  5
1437
330
A
100
AcDbEntity
  8
MODEL
100
AcDbSpline
210
0.0
220
0.0
230
1.0
 70
     8
 71
     3
 72
    10
 73
     6
 74
     0
 42
0.000000001
 43
0.0000000001
 40
0.0
 40
0.0
 40
0.0
 40
0.0
 40
0.3310506748912376
 40
0.6643343268119656
 40
1.0
 40
1.0
 40
1.0
 40
1.0
 10
597.989379894969
 20
254.1849356629476
 30
0.0
 10
597.6551464215381
 20
254.0265812972402
 30
0.0
 10
597.1056846911868
 20
253.7856282652138
 30
0.0
 10
596.1033214228798
 20
253.5147755966553
 30
0.0
 10
595.5372176344074
 20
253.4737168262116
 30
0.0
 10
595.1890073346776
 20
253.4654709519355
 30
0.0
  0
ARC
  5
1438
330
A
100
AcDbEntity
  8
MODEL
100
AcDbCircle
 10
595.2485089518593
 20
259.5067466426784
 30
0.0
 40
6.041568704638244
100
AcDbArc
 50
241.7469759334994
 51
269.4357017505999
  0
ARC
  5
1439
330
A
100
AcDbEntity
  8
MODEL
100
AcDbCircle
 10
585.1706239667612
 20
278.2866047952209
 30
0.0
 40
24.82348860794938
100
AcDbArc
 50
256.1490823642004
 51
269.2108066627999
  0
LINE
  5
143A
330
A
100
AcDbEntity
  8
MODEL
100
AcDbLine
 10
592.3886347744512
 20
254.1849356631014
 30
0.0
 11
592.3886347744512
 21
275.675155821406
 31
0.0
  0
ARC
  5
143B
330
A
100
AcDbEntity
  8
MODEL
100
AcDbCircle
 10
585.1706239667612
 20
251.5734866892867
 30
0.0
 40
24.82348860794856
100
AcDbArc
 50
90.78919333720015
 51
103.8509176357995
  0
LINE
  5
143C
330
A
100
AcDbEntity
  8
MODEL
100
AcDbLine
 10
571.6680510973304
 20
254.1849356631014
 30
0.0
 11
571.6680510973304
 21
275.675155821406
 31
0.0
  0
SPLINE
  5
143D
330
A
100
AcDbEntity
  8
MODEL
100
AcDbSpline
210
0.0
220
0.0
230
1.0
 70
     8
 71
     3
 72
    10
 73
     6
 74
     0
 42
0.000000001
 43
0.0000000001
 40
0.0
 40
0.0
 40
0.0
 40
0.0
 40
0.3310506748912369
 40
0.664334326811964
 40
1.0
 40
1.0
 40
1.0
 40
1.0
 10
571.6680510972385
 20
275.6751558214773
 30
0.0
 10
572.0022845706696
 20
275.8335101871848
 30
0.0
 10
572.5517463010212
 20
276.0744632192111
 30
0.0
 10
573.5541095693281
 20
276.3453158877698
 30
0.0
 10
574.1202133578006
 20
276.3863746582135
 30
0.0
 10
574.4684236575304
 20
276.3946205324893
 30
0.0
  0
LINE
  5
143E
330
A
100
AcDbEntity
  8
MODEL
100
AcDbLine
 10
577.2687962179523
 20
275.675155821406
 30
0.0
 11
577.2687962179523
 21
254.1849356631014
 31
0.0
  0
SPLINE
  5
143F
330
A
100
AcDbEntity
  8
MODEL
100
AcDbSpline
210
0.0
220
0.0
230
1.0
 70
     8
 71
     3
 72
    10
 73
     6
 74
     0
 42
0.000000001
 43
0.0000000001
 40
0.0
 40
0.0
 40
0.0
 40
0.0
 40
0.3310506748912349
 40
0.6643343268119639
 40
1.0
 40
1.0
 40
1.0
 40
1.0
 10
577.268796217822
 20
254.1849356629476
 30
0.0
 10
576.9345627443909
 20
254.0265812972402
 30
0.0
 10
576.3851010140395
 20
253.7856282652138
 30
0.0
 10
575.3827377457326
 20
253.5147755966552
 30
0.0
 10
574.8166339572599
 20
253.4737168262116
 30
0.0
 10
574.4684236575304
 20
253.4654709519355
 30
0.0
  0
LINE
  5
1440
330
A
100
AcDbEntity
  8
MODEL
100
AcDbLine
 10
574.4684236574419
 20
276.3946205323313
 30
0.0
 11
572.8656809324345
 21
276.3946205323313
 31
0.0
  0
LINE
  5
1441
330
A
100
AcDbEntity
  8
MODEL
100
AcDbLine
 10
571.6680510973304
 20
275.675155821406
 30
0.0
 11
571.6195314987087
 21
275.675155821406
 31
0.0
  0
LINE
  5
1442
330
A
100
AcDbEntity
  8
MODEL
100
AcDbLine
 10
597.9893798950732
 20
275.675155821406
 30
0.0
 11
598.0378994936948
 21
275.675155821406
 31
0.0
  0
LINE
  5
1443
330
A
100
AcDbEntity
  8
MODEL
100
AcDbLine
 10
594.7979109660077
 20
276.3946205323313
 30
0.0
 11
594.7979109660077
 21
288.6866385466021
 31
0.0
  0
LINE
  5
1444
330
A
100
AcDbEntity
  8
MODEL
100
AcDbLine
 10
592.3886347744512
 20
275.675155821406
 30
0.0
 11
590.4294606168237
 21
275.675155821406
 31
0.0
  0
LINE
  5
1445
330
A
100
AcDbEntity
  8
MODEL
100
AcDbLine
 10
579.2279703755798
 20
275.675155821406
 30
0.0
 11
577.2687962179523
 21
275.675155821406
 31
0.0
  0
LINE
  5
1446
330
A
100
AcDbEntity
  8
MODEL
100
AcDbLine
 10
597.9893798950732
 20
254.1849356631014
 30
0.0
 11
598.0378994936948
 21
254.1849356631014
 31
0.0
  0
LINE
  5
1447
330
A
100
AcDbEntity
  8
MODEL
100
AcDbLine
 10
592.3886347744512
 20
254.1849356631014
 30
0.0
 11
590.4294606168237
 21
254.1849356631014
 31
0.0
  0
LINE
  5
1448
330
A
100
AcDbEntity
  8
MODEL
100
AcDbLine
 10
574.8595200263958
 20
288.6866385466021
 30
0.0
 11
574.8595200263958
 21
276.3946205323313
 31
0.0
  0
LINE
  5
1449
330
A
100
AcDbEntity
  8
MODEL
100
AcDbLine
 10
579.2279703755798
 20
254.1849356631014
 30
0.0
 11
579.2279703755798
 21
275.675155821406
 31
0.0
  0
LINE
  5
144A
330
A
100
AcDbEntity
  8
MODEL
100
AcDbLine
 10
584.8287154962018
 20
276.3946205323313
 30
0.0
 11
574.4684236574419
 21
276.3946205323313
 31
0.0
  0
LINE
  5
144B
330
A
100
AcDbEntity
  8
MODEL
100
AcDbLine
 10
595.1890073345628
 20
276.3946205323313
 30
0.0
 11
596.791750059969
 21
276.3946205323313
 31
0.0
  0
LINE
  5
144C
330
A
100
AcDbEntity
  8
MODEL
100
AcDbLine
 10
595.1890073345628
 20
276.3946205323313
 30
0.0
 11
584.8287154962018
 21
276.3946205323313
 31
0.0
  0
LINE
  5
144D
330
A
100
AcDbEntity
  8
MODEL
100
AcDbLine
 10
597.9893798950732
 20
275.675155821406
 30
0.0
 11
597.9893798950732
 21
254.1849356631014
 31
0.0
  0
ARC
  5
144E
330
A
100
AcDbEntity
  8
MODEL
100
AcDbCircle
 10
584.7387170655902
 20
276.3255858503334
 30
0.0
 40
22.86029205615087
100
AcDbArc
 50
270.2255677025
 51
284.4145432704998
  0
LINE
  5
144F
330
A
100
AcDbEntity
  8
MODEL
100
AcDbLine
 10
590.4294606168237
 20
275.675155821406
 30
0.0
 11
590.4294606168237
 21
254.1849356631014
 31
0.0
  0
LINE
  5
1450
330
A
100
AcDbEntity
  8
MODEL
100
AcDbLine
 10
571.6195314987087
 20
275.675155821406
 30
0.0
 11
571.6195314987087
 21
254.1849356631014
 31
0.0
  0
LINE
  5
1451
330
A
100
AcDbEntity
  8
MODEL
100
AcDbLine
 10
571.6195314987087
 20
254.1849356631014
 30
0.0
 11
572.8656809324345
 21
253.4654709517774
 31
0.0
  0
LINE
  5
1452
330
A
100
AcDbEntity
  8
MODEL
100
AcDbLine
 10
598.0378994936948
 20
254.1849356631014
 30
0.0
 11
598.0378994936948
 21
275.675155821406
 31
0.0
  0
LINE
  5
1453
330
A
100
AcDbEntity
  8
MODEL
100
AcDbLine
 10
572.8656809324345
 20
276.3946205323313
 30
0.0
 11
571.6195314987087
 21
275.675155821406
 31
0.0
  0
LINE
  5
1454
330
A
100
AcDbEntity
  8
MODEL
100
AcDbLine
 10
593.13305532255
 20
295.3360919249628
 30
0.0
 11
576.5243756698533
 21
295.3360919249628
 31
0.0
  0
LINE
  5
1455
330
A
100
AcDbEntity
  8
MODEL
100
AcDbLine
 10
593.13305532255
 20
298.3268505659045
 30
0.0
 11
576.5243756698533
 21
298.3268505659045
 31
0.0
  0
LINE
  5
1456
330
A
100
AcDbEntity
  8
MODEL
100
AcDbLine
 10
574.380998643845
 20
254.6218976262749
 30
0.0
 11
574.380998643845
 21
261.4408273276222
 31
0.0
  0
LINE
  5
1457
330
A
100
AcDbEntity
  8
MODEL
100
AcDbLine
 10
595.2764323485585
 20
254.6218976262749
 30
0.0
 11
595.2764323485585
 21
261.4408273276222
 31
0.0
  0
LINE
  5
1458
330
A
100
AcDbEntity
  8
MODEL
100
AcDbLine
 10
606.2598529834777
 20
585.0947057293259
 30
0.0
 11
606.2145978768688
 21
590.2804273044884
 31
0.0
  0
LINE
  5
1459
330
A
100
AcDbEntity
  8
MODEL
100
AcDbLine
 10
558.4582353622884
 20
590.2804273044884
 30
0.0
 11
558.4129802556795
 21
585.0947057293259
 31
0.0
  0
CIRCLE
  5
145A
330
A
100
AcDbEntity
  8
MODEL
100
AcDbCircle
 10
185.1314093214402
 20
707.8971502740802
 30
0.0
 40
13.45841388423814
  0
LINE
  5
145B
330
A
100
AcDbEntity
  8
MODEL
100
AcDbLine
 10
185.1314093214402
 20
731.0003744327433
 30
0.0
 11
163.9967151140687
 21
731.0003744327433
 31
0.0
  0
LINE
  5
145C
330
A
100
AcDbEntity
  8
MODEL
100
AcDbLine
 10
185.1314093214402
 20
731.0003744327433
 30
0.0
 11
206.2661035284133
 21
731.0003744327433
 31
0.0
  0
LINE
  5
145D
330
A
100
AcDbEntity
  8
MODEL
100
AcDbLine
 10
206.5651795811247
 20
590.7745372500232
 30
0.0
 11
206.5651795811247
 21
730.7012985686491
 31
0.0
  0
LINE
  5
145E
330
A
100
AcDbEntity
  8
MODEL
100
AcDbLine
 10
163.6976390613573
 20
730.7012985686491
 30
0.0
 11
163.6976390613573
 21
590.7745372500232
 31
0.0
  0
ARC
  5
145F
330
A
100
AcDbEntity
  8
MODEL
100
AcDbCircle
 10
163.9967149274454
 20
730.7012985686491
 30
0.0
 40
0.2990758640631631
100
AcDbArc
 50
89.99997558149632
 51
180.1605306255842
  0
ARC
  5
1460
330
A
100
AcDbEntity
  8
MODEL
100
AcDbCircle
 10
206.2661037150366
 20
730.7012985686491
 30
0.0
 40
0.299075864094009
100
AcDbArc
 50
0.1605306253498464
 51
90.00002441850368
  0
ELLIPSE
  5
1461
330
A
100
AcDbEntity
  8
MODEL
100
AcDbEllipse
 10
185.1314093214402
 20
697.0526856677883
 30
0.0
 11
-6.056286247907078
 21
0.0
 31
0.0
210
0.0
220
0.0
230
1.0
 40
0.5735764364
 41
0.4243444345987157
 42
2.717248218991123
  0
SPLINE
  5
1462
330
A
100
AcDbEntity
  8
MODEL
100
AcDbSpline
210
0.0
220
0.0
230
1.0
 70
     8
 71
     3
 72
    41
 73
    37
 74
     0
 42
0.000000001
 43
0.0000000001
 40
0.0
 40
0.0
 40
0.0
 40
0.0
 40
0.0268062354107211
 40
0.0560265547494237
 40
0.0854527804686672
 40
0.1150393792270305
 40
0.1447361358207317
 40
0.1744979490052127
 40
0.2042895801002192
 40
0.2340827804801697
 40
0.2638622549037281
 40
0.2936213607059037
 40
0.3233577296526569
 40
0.3530717732989373
 40
0.3827656317853668
 40
0.4124424767222246
 40
0.4421060707194885
 40
0.4717605023369973
 40
0.5014100357226065
 40
0.5310590315552317
 40
0.5607111325131343
 40
0.590370098988337
 40
0.6200404070332433
 40
0.64972651186783
 40
0.6794327647745645
 40
0.7091632550128105
 40
0.73892152993387
 40
0.7687101273975698
 40
0.798529830889091
 40
0.8283785365921317
 40
0.8582496226339295
 40
0.8881268823275482
 40
0.9179808958207333
 40
0.9477737033814477
 40
0.9774558303828068
 40
1.0
 40
1.0
 40
1.0
 40
1.0
 10
178.8231898726432
 20
696.0303346346249
 30
0.0
 10
178.8713258933177
 20
695.9448642790859
 30
0.0
 10
178.9819309564856
 20
695.7688407055242
 30
0.0
 10
179.1810978936843
 20
695.5100212167198
 30
0.0
 10
179.4182521120425
 20
695.2542428035432
 30
0.0
 10
179.6870342670314
 20
695.0096874795717
 30
0.0
 10
179.9858699107568
 20
694.7778464140987
 30
0.0
 10
180.3129347945002
 20
694.5600898273459
 30
0.0
 10
180.6662208799995
 20
694.3576396352929
 30
0.0
 10
181.0436018948027
 20
694.171561335531
 30
0.0
 10
181.4428760482684
 20
694.0027754642471
 30
0.0
 10
181.861800049524
 20
693.852073519616
 30
0.0
 10
182.2980784163902
 20
693.7201429702606
 30
0.0
 10
182.7493551973831
 20
693.6075792345797
 30
0.0
 10
183.2132171154841
 20
693.5148883677083
 30
0.0
 10
183.6871989258703
 20
693.4424870541972
 30
0.0
 10
184.1687910911493
 20
693.390701211226
 30
0.0
 10
184.6554494540788
 20
693.3597641573191
 30
0.0
 10
185.1446064463422
 20
693.3498149822889
 30
0.0
 10
185.6336790989986
 20
693.3608974217017
 30
0.0
 10
186.1200824977687
 20
693.3929586878029
 30
0.0
 10
186.6012472357858
 20
693.4458497861104
 30
0.0
 10
187.0746369223308
 20
693.5193283015946
 30
0.0
 10
187.5377599955247
 20
693.6130621558292
 30
0.0
 10
187.9881772594318
 20
693.7266331189402
 30
0.0
 10
188.4235116771466
 20
693.8595412308013
 30
0.0
 10
188.8414560116822
 20
694.0112094184766
 30
0.0
 10
189.2397776618255
 20
694.1809875041098
 30
0.0
 10
189.6163200895154
 20
694.3681542469486
 30
0.0
 10
189.9690006641327
 20
694.5719154349209
 30
0.0
 10
190.2957948364339
 20
694.7913877915233
 30
0.0
 10
190.5947228968536
 20
695.0255674846729
 30
0.0
 10
190.8638701426813
 20
695.273298465282
 30
0.0
 10
191.1014273333409
 20
695.5332463764784
 30
0.0
 10
191.2897175681743
 20
695.7826420996197
 30
0.0
 10
191.3921781817554
 20
695.946885380209
 30
0.0
 10
191.4330296378545
 20
696.0186748602026
 30
0.0
  0
LINE
  5
1463
330
A
100
AcDbEntity
  8
MODEL
100
AcDbLine
 10
208.7557812088581
 20
584.7930199689371
 30
0.0
 11
161.5070374336239
 21
584.7930199689371
 31
0.0
  0
LINE
  5
1464
330
A
100
AcDbEntity
  8
MODEL
100
AcDbLine
 10
161.7516688578872
 20
590.7745372508206
 30
0.0
 11
208.5111497849936
 21
590.7745372508206
 31
0.0
  0
LINE
  5
1465
330
A
100
AcDbEntity
  8
MODEL
100
AcDbLine
 10
209.0548456853395
 20
585.0947057293259
 30
0.0
 11
209.0095905787308
 21
590.2804273044884
 31
0.0
  0
LINE
  5
1466
330
A
100
AcDbEntity
  8
MODEL
100
AcDbLine
 10
161.25322806415
 20
590.2804273044884
 30
0.0
 11
161.2079729575413
 21
585.0947057293259
 31
0.0
  0
ARC
  5
1467
330
A
100
AcDbEntity
  8
MODEL
100
AcDbCircle
 10
161.5070374336239
 20
585.0920958330311
 30
0.0
 40
0.2990758640941809
100
AcDbArc
 50
179.4999999999848
 51
270.0
  0
ARC
  5
1468
330
A
100
AcDbEntity
  8
MODEL
100
AcDbCircle
 10
208.7557812088581
 20
585.0920958330311
 30
0.0
 40
0.2990758640941809
100
AcDbArc
 50
270.0
 51
0.5000000000152343
  0
ARC
  5
1469
330
A
100
AcDbEntity
  8
MODEL
100
AcDbCircle
 10
208.5111497849936
 20
590.2760774773304
 30
0.0
 40
0.4984597734903014
100
AcDbArc
 50
0.4999999999978112
 51
90.0
  0
ARC
  5
146A
330
A
100
AcDbEntity
  8
MODEL
100
AcDbCircle
 10
161.7516688578872
 20
590.2760774773304
 30
0.0
 40
0.4984597734903018
100
AcDbArc
 50
90.0
 51
179.5000000000022
  0
LINE
  5
146B
330
A
100
AcDbEntity
  8
MODEL
100
AcDbLine
 10
206.2222171337236
 20
731.0003744327433
 30
0.0
 11
164.0406015087584
 21
731.0003744327433
 31
0.0
  0
ARC
  5
146C
330
A
100
AcDbEntity
  8
MODEL
100
AcDbCircle
 10
185.1314093214402
 20
718.9933447538295
 30
0.0
 40
24.56777956599126
100
AcDbArc
 50
30.06033347729943
 51
34.97827811449952
  0
ARC
  5
146D
330
A
100
AcDbEntity
  8
MODEL
100
AcDbCircle
 10
185.1314093214402
 20
718.9933447538295
 30
0.0
 40
24.56777956599125
100
AcDbArc
 50
145.0217218854998
 51
149.9396665227003
  0
ARC
  5
146E
330
A
100
AcDbEntity
  8
MODEL
100
AcDbCircle
 10
206.2222171337236
 20
731.1997583421397
 30
0.0
 40
0.1993839093961261
100
AcDbArc
 50
270.0
 51
30.06033347717528
  0
ARC
  5
146F
330
A
100
AcDbEntity
  8
MODEL
100
AcDbCircle
 10
164.0406015087584
 20
731.1997583421397
 30
0.0
 40
0.1993839093961158
100
AcDbArc
 50
149.9396665228206
 51
270.0
  0
LINE
  5
1470
330
A
100
AcDbEntity
  8
MODEL
100
AcDbLine
 10
188.9595803818457
 20
544.4177783162226
 30
0.0
 11
187.7832153164087
 21
544.4177783162226
 31
0.0
  0
LINE
  5
1471
330
A
100
AcDbEntity
  8
MODEL
100
AcDbLine
 10
186.591097133257
 20
544.4177783162226
 30
0.0
 11
183.6671833360512
 21
544.4177783162226
 31
0.0
  0
LINE
  5
1472
330
A
100
AcDbEntity
  8
MODEL
100
AcDbLine
 10
182.4733667369561
 20
544.4177783162226
 30
0.0
 11
181.3032382610351
 21
544.4177783162226
 31
0.0
  0
LINE
  5
1473
330
A
100
AcDbEntity
  8
MODEL
100
AcDbLine
 10
191.6113863768143
 20
544.4177783162226
 30
0.0
 11
191.6113863768143
 21
548.405456504145
 31
0.0
  0
LINE
  5
1474
330
A
100
AcDbEntity
  8
MODEL
100
AcDbLine
 10
178.6514322660665
 20
548.405456504145
 30
0.0
 11
178.6514322660665
 21
544.4177783162226
 31
0.0
  0
LINE
  5
1475
330
A
100
AcDbEntity
  8
MODEL
100
AcDbLine
 10
205.5682600345427
 20
548.405456504145
 30
0.0
 11
164.6945586083381
 21
548.405456504145
 31
0.0
  0
ARC
  5
1476
330
A
100
AcDbEntity
  8
MODEL
100
AcDbCircle
 10
205.5682600345427
 20
549.4023760511258
 30
0.0
 40
0.9969195469806037
100
AcDbArc
 50
270.0
 51
329.9999999999879
  0
ARC
  5
1477
330
A
100
AcDbEntity
  8
MODEL
100
AcDbCircle
 10
164.6945586083381
 20
549.4023760511258
 30
0.0
 40
0.9969195469806037
100
AcDbArc
 50
209.9999999999967
 51
270.0
  0
LINE
  5
1478
330
A
100
AcDbEntity
  8
MODEL
100
AcDbLine
 10
210.0543979959554
 20
554.8854335595191
 30
0.0
 11
160.2084206469254
 21
554.8854335595191
 31
0.0
  0
LINE
  5
1479
330
A
100
AcDbEntity
  8
MODEL
100
AcDbLine
 10
210.0543979959554
 20
549.9008358246159
 30
0.0
 11
207.6265321411294
 21
549.9008358246159
 31
0.0
  0
LINE
  5
147A
330
A
100
AcDbEntity
  8
MODEL
100
AcDbLine
 10
210.0543979959554
 20
554.8854335595191
 30
0.0
 11
210.0543979959554
 21
549.9008358246159
 31
0.0
  0
LINE
  5
147B
330
A
100
AcDbEntity
  8
MODEL
100
AcDbLine
 10
160.2084206469254
 20
554.8854335595191
 30
0.0
 11
160.2084206469254
 21
549.9008358246159
 31
0.0
  0
LINE
  5
147C
330
A
100
AcDbEntity
  8
MODEL
100
AcDbLine
 10
162.6362865017514
 20
549.9008358246159
 30
0.0
 11
160.2084206469254
 21
549.9008358246159
 31
0.0
  0
LINE
  5
147D
330
A
100
AcDbEntity
  8
MODEL
100
AcDbLine
 10
179.5249567415054
 20
549.9008358246159
 30
0.0
 11
169.6164840827417
 21
549.9008358246159
 31
0.0
  0
LINE
  5
147E
330
A
100
AcDbEntity
  8
MODEL
100
AcDbLine
 10
162.2022597408865
 20
548.9039162776354
 30
0.0
 11
162.6396732579711
 21
549.3413297947201
 31
0.0
  0
LINE
  5
147F
330
A
100
AcDbEntity
  8
MODEL
100
AcDbLine
 10
170.8576781017579
 20
548.9039162776354
 30
0.0
 11
171.4782751114655
 21
549.9008358246159
 31
0.0
  0
LINE
  5
1480
330
A
100
AcDbEntity
  8
MODEL
100
AcDbLine
 10
200.6463345601388
 20
549.9008358246159
 30
0.0
 11
190.7378619009766
 21
549.9008358246159
 31
0.0
  0
LINE
  5
1481
330
A
100
AcDbEntity
  8
MODEL
100
AcDbLine
 10
208.0605589019943
 20
548.9039162776354
 30
0.0
 11
209.5559382224652
 21
548.9039162776354
 31
0.0
  0
LINE
  5
1482
330
A
100
AcDbEntity
  8
MODEL
100
AcDbLine
 10
207.6231453849097
 20
549.3413297947201
 30
0.0
 11
208.0605589019943
 21
548.9039162776354
 31
0.0
  0
LINE
  5
1483
330
A
100
AcDbEntity
  8
MODEL
100
AcDbLine
 10
199.4051405407241
 20
548.9039162776354
 30
0.0
 11
200.3360360552853
 21
548.9039162776354
 31
0.0
  0
LINE
  5
1484
330
A
100
AcDbEntity
  8
MODEL
100
AcDbLine
 10
198.7845435314154
 20
549.9008358246159
 30
0.0
 11
199.4051405407241
 21
548.9039162776354
 31
0.0
  0
LINE
  5
1485
330
A
100
AcDbEntity
  8
MODEL
100
AcDbLine
 10
160.2084206469254
 20
549.4023760511258
 30
0.0
 11
160.2084206469254
 21
549.9008358246159
 31
0.0
  0
LINE
  5
1486
330
A
100
AcDbEntity
  8
MODEL
100
AcDbLine
 10
160.7068804204156
 20
548.9039162776354
 30
0.0
 11
162.2022597408865
 21
548.9039162776354
 31
0.0
  0
ARC
  5
1487
330
A
100
AcDbEntity
  8
MODEL
100
AcDbCircle
 10
160.7068804204156
 20
549.4023760511258
 30
0.0
 40
0.4984597734903054
100
AcDbArc
 50
180.0
 51
270.0
  0
LINE
  5
1488
330
A
100
AcDbEntity
  8
MODEL
100
AcDbLine
 10
210.0543979959554
 20
549.4023760511258
 30
0.0
 11
210.0543979959554
 21
549.9008358246159
 31
0.0
  0
ARC
  5
1489
330
A
100
AcDbEntity
  8
MODEL
100
AcDbCircle
 10
209.5559382224652
 20
549.4023760511258
 30
0.0
 40
0.4984597734903018
100
AcDbArc
 50
270.0
 51
0.0
  0
LINE
  5
148A
330
A
100
AcDbEntity
  8
MODEL
100
AcDbLine
 10
200.6463345601388
 20
549.4023760511258
 30
0.0
 11
200.6463345601388
 21
549.9008358246159
 31
0.0
  0
LINE
  5
148B
330
A
100
AcDbEntity
  8
MODEL
100
AcDbLine
 10
207.6265321411294
 20
549.4023760511258
 30
0.0
 11
207.6265321411294
 21
549.9008358246159
 31
0.0
  0
ELLIPSE
  5
148C
330
A
100
AcDbEntity
  8
MODEL
100
AcDbEllipse
 10
207.1766296845122
 20
549.4023760511258
 30
0.0
 11
2.075255690168898E-14
 21
0.4984597734903018
 31
0.0
210
0.0
220
0.0
230
1.0
 40
0.9025852842999998
 41
3.141592653589839
 42
4.712388980384727
  0
LINE
  5
148D
330
A
100
AcDbEntity
  8
MODEL
100
AcDbLine
 10
207.1766296845122
 20
548.9039162776354
 30
0.0
 11
200.3360360552853
 21
548.9039162776354
 31
0.0
  0
ELLIPSE
  5
148E
330
A
100
AcDbEntity
  8
MODEL
100
AcDbEllipse
 10
200.3360360552853
 20
549.4023760511258
 30
0.0
 11
-3.804635431976313E-14
 21
-0.4984597734903018
 31
0.0
210
0.0
220
0.0
230
1.0
 40
0.6225146366
 41
0.0000000000001226
 42
1.570796326794944
  0
LINE
  5
148F
330
A
100
AcDbEntity
  8
MODEL
100
AcDbLine
 10
179.5249567415054
 20
549.4023760511258
 30
0.0
 11
179.5249567415054
 21
549.9008358246159
 31
0.0
  0
LINE
  5
1490
330
A
100
AcDbEntity
  8
MODEL
100
AcDbLine
 10
190.7378619009766
 20
549.4023760511258
 30
0.0
 11
190.7378619009766
 21
549.9008358246159
 31
0.0
  0
ELLIPSE
  5
1491
330
A
100
AcDbEntity
  8
MODEL
100
AcDbEllipse
 10
190.625732849354
 20
549.4023760511258
 30
0.0
 11
0.0
 21
0.4984597734903018
 31
0.0
210
0.0
220
0.0
230
1.0
 40
0.2249510543
 41
3.141592653589793
 42
4.71238898038469
  0
LINE
  5
1492
330
A
100
AcDbEntity
  8
MODEL
100
AcDbLine
 10
190.625732849354
 20
548.9039162776354
 30
0.0
 11
179.637085793128
 21
548.9039162776354
 31
0.0
  0
ELLIPSE
  5
1493
330
A
100
AcDbEntity
  8
MODEL
100
AcDbEllipse
 10
179.637085793128
 20
549.4023760511258
 30
0.0
 11
3.458759483614830E-15
 21
-0.4984597734903086
 31
0.0
210
0.0
220
0.0
230
1.0
 40
0.2249510543
 41
4.712388980384688
 42
6.283185307179555
  0
LINE
  5
1494
330
A
100
AcDbEntity
  8
MODEL
100
AcDbLine
 10
162.6362865017514
 20
549.4023760511258
 30
0.0
 11
162.6362865017514
 21
549.9008358246159
 31
0.0
  0
LINE
  5
1495
330
A
100
AcDbEntity
  8
MODEL
100
AcDbLine
 10
169.6164840827417
 20
549.4023760511258
 30
0.0
 11
169.6164840827417
 21
549.9008358246159
 31
0.0
  0
LINE
  5
1496
330
A
100
AcDbEntity
  8
MODEL
100
AcDbLine
 10
169.9267825875955
 20
548.9039162776354
 30
0.0
 11
170.8576781017579
 21
548.9039162776354
 31
0.0
  0
ELLIPSE
  5
1497
330
A
100
AcDbEntity
  8
MODEL
100
AcDbEllipse
 10
169.9267825875955
 20
549.4023760511258
 30
0.0
 11
0.0
 21
0.498459773490295
 31
0.0
210
0.0
220
0.0
230
1.0
 40
0.6225146365999998
 41
1.570796326794897
 42
3.141592653589793
  0
LINE
  5
1498
330
A
100
AcDbEntity
  8
MODEL
100
AcDbLine
 10
169.9267825875955
 20
548.9039162776354
 30
0.0
 11
163.0861889579697
 21
548.9039162776354
 31
0.0
  0
ELLIPSE
  5
1499
330
A
100
AcDbEntity
  8
MODEL
100
AcDbEllipse
 10
163.0861889579697
 20
549.4023760511258
 30
0.0
 11
-3.458759483614831E-14
 21
-0.4984597734903018
 31
0.0
210
0.0
220
0.0
230
1.0
 40
0.9025852842999998
 41
4.712388980384752
 42
6.283185307179411
  0
LINE
  5
149A
330
A
100
AcDbEntity
  8
MODEL
100
AcDbLine
 10
199.6290258219784
 20
579.8084222340341
 30
0.0
 11
200.8502803618177
 21
579.8084222340341
 31
0.0
  0
LINE
  5
149B
330
A
100
AcDbEntity
  8
MODEL
100
AcDbLine
 10
170.6984271941288
 20
580.1074980981283
 30
0.0
 11
170.8256138222688
 21
580.1074980981283
 31
0.0
  0
LINE
  5
149C
330
A
100
AcDbEntity
  8
MODEL
100
AcDbLine
 10
170.6984271941288
 20
580.1074980981283
 30
0.0
 11
170.3560838489196
 21
579.8084222340341
 31
0.0
  0
LINE
  5
149D
330
A
100
AcDbEntity
  8
MODEL
100
AcDbLine
 10
170.6984271941288
 20
580.1074980981283
 30
0.0
 11
170.6984271941288
 21
584.0453303087016
 31
0.0
  0
LINE
  5
149E
330
A
100
AcDbEntity
  8
MODEL
100
AcDbLine
 10
170.8256138222688
 20
579.8084222340341
 30
0.0
 11
170.3560838489196
 21
579.8084222340341
 31
0.0
  0
LINE
  5
149F
330
A
100
AcDbEntity
  8
MODEL
100
AcDbLine
 10
168.9053942357256
 20
579.8084222340341
 30
0.0
 11
170.3560838489196
 21
579.8084222340341
 31
0.0
  0
LINE
  5
14A0
330
A
100
AcDbEntity
  8
MODEL
100
AcDbLine
 10
168.9053942357256
 20
579.8084222340341
 30
0.0
 11
168.8327571291171
 21
579.8084222340341
 31
0.0
  0
ARC
  5
14A1
330
A
100
AcDbEntity
  8
MODEL
100
AcDbCircle
 10
177.3421039413153
 20
588.533623602997
 30
0.0
 40
12.18762167511847
100
AcDbArc
 50
223.7385227925
 51
225.7175649943994
  0
LINE
  5
14A2
330
A
100
AcDbEntity
  8
MODEL
100
AcDbLine
 10
181.1992786931402
 20
579.8084222340341
 30
0.0
 11
172.945266330362
 21
579.8084222340341
 31
0.0
  0
SPLINE
  5
14A3
330
A
100
AcDbEntity
  8
MODEL
100
AcDbSpline
210
0.0
220
0.0
230
1.0
 70
     8
 71
     3
 72
    12
 73
     8
 74
     0
 42
0.000000001
 43
0.0000000001
 40
0.0
 40
0.0
 40
0.0
 40
0.0
 40
0.5000000000000041
 40
0.5000000000000041
 40
0.750000000000002
 40
0.750000000000002
 40
1.0
 40
1.0
 40
1.0
 40
1.0
 10
181.1992786931488
 20
579.8084222341926
 30
0.0
 10
181.2173508949942
 20
579.8663022852958
 30
0.0
 10
181.2034138292498
 20
579.9318254165977
 30
0.0
 10
181.1429212662161
 20
580.0198108292831
 30
0.0
 10
181.1154457492436
 20
580.0478547101314
 30
0.0
 10
181.0446471114643
 20
580.0920458845648
 30
0.0
 10
181.000268765075
 20
580.1074980982866
 30
0.0
 10
180.9572282203341
 20
580.1074980982866
 30
0.0
  0
SPLINE
  5
14A4
330
A
100
AcDbEntity
  8
MODEL
100
AcDbSpline
210
0.0
220
0.0
230
1.0
 70
     8
 71
     3
 72
    12
 73
     8
 74
     0
 42
0.000000001
 43
0.0000000001
 40
0.0
 40
0.0
 40
0.0
 40
0.0
 40
0.1684456328680186
 40
0.1684456328680186
 40
0.4456304219120162
 40
0.4456304219120162
 40
0.9999999999999999
 40
0.9999999999999999
 40
0.9999999999999999
 40
0.9999999999999999
 10
201.1921969025808
 20
580.1008756979312
 30
0.0
 10
201.1921247213819
 20
580.0943187966217
 30
0.0
 10
201.1871646867181
 20
580.0833390000192
 30
0.0
 10
201.1651312863102
 20
580.0479647084532
 30
0.0
 10
201.1431583072714
 20
580.0199223105411
 30
0.0
 10
201.0673232696819
 20
579.9315369982227
 30
0.0
 10
201.0036356568677
 20
579.8663598022766
 30
0.0
 10
200.9393912644624
 20
579.8084222341926
 30
0.0
  0
LINE
  5
14A5
330
A
100
AcDbEntity
  8
MODEL
100
AcDbLine
 10
200.9393912644656
 20
579.8084222340341
 30
0.0
 11
200.8502803618177
 21
579.8084222340341
 31
0.0
  0
LINE
  5
14A6
330
A
100
AcDbEntity
  8
MODEL
100
AcDbLine
 10
199.6191668882035
 20
579.8084222340341
 30
0.0
 11
189.0635399497406
 21
579.8084222340341
 31
0.0
  0
SPLINE
  5
14A7
330
A
100
AcDbEntity
  8
MODEL
100
AcDbSpline
210
0.0
220
0.0
230
1.0
 70
     8
 71
     3
 72
    12
 73
     8
 74
     0
 42
0.000000001
 43
0.0000000001
 40
0.0
 40
0.0
 40
0.0
 40
0.0
 40
0.5
 40
0.5
 40
0.75
 40
0.75
 40
1.0
 40
1.0
 40
1.0
 40
1.0
 10
199.6191668881366
 20
579.8084222341926
 30
0.0
 10
199.6857388319173
 20
579.8663022852958
 30
0.0
 10
199.7448462075855
 20
579.9318254165977
 30
0.0
 10
199.8045302874513
 20
580.0198108292831
 30
0.0
 10
199.8196807065493
 20
580.0478547101314
 30
0.0
 10
199.8303475236663
 20
580.0920458845648
 30
0.0
 10
199.8246408993097
 20
580.107498098287
 30
0.0
 10
199.8038477613214
 20
580.1074980982866
 30
0.0
  0
LINE
  5
14A8
330
A
100
AcDbEntity
  8
MODEL
100
AcDbLine
 10
189.3055904222716
 20
580.1074980981283
 30
0.0
 11
199.8038477611636
 21
580.1074980981283
 31
0.0
  0
SPLINE
  5
14A9
330
A
100
AcDbEntity
  8
MODEL
100
AcDbSpline
210
0.0
220
0.0
230
1.0
 70
     8
 71
     3
 72
    12
 73
     8
 74
     0
 42
0.000000001
 43
0.0000000001
 40
0.0
 40
0.0
 40
0.0
 40
0.0
 40
0.2499999999999992
 40
0.2499999999999992
 40
0.4999999999999983
 40
0.4999999999999983
 40
1.0
 40
1.0
 40
1.0
 40
1.0
 10
189.305590422358
 20
580.1074980982866
 30
0.0
 10
189.2625004314056
 20
580.1074980982866
 30
0.0
 10
189.2180605921172
 20
580.0919707505146
 30
0.0
 10
189.1475396960428
 20
580.0479647084532
 30
0.0
 10
189.1199698560919
 20
580.0199223105411
 30
0.0
 10
189.0592148560114
 20
579.9315369982227
 30
0.0
 10
189.0454497888596
 20
579.8663598022766
 30
0.0
 10
189.0635399495442
 20
579.8084222341926
 30
0.0
  0
LINE
  5
14AA
330
A
100
AcDbEntity
  8
MODEL
100
AcDbLine
 10
172.8387797400943
 20
580.1074980981283
 30
0.0
 11
180.9572282202104
 21
580.1074980981283
 31
0.0
  0
SPLINE
  5
14AB
330
A
100
AcDbEntity
  8
MODEL
100
AcDbSpline
210
0.0
220
0.0
230
1.0
 70
     8
 71
     3
 72
    12
 73
     8
 74
     0
 42
0.000000001
 43
0.0000000001
 40
0.0
 40
0.0
 40
0.0
 40
0.0
 40
0.2500000000000009
 40
0.2500000000000009
 40
0.5000000000000018
 40
0.5000000000000018
 40
1.0
 40
1.0
 40
1.0
 40
1.0
 10
172.8387797401712
 20
580.1074980982866
 30
0.0
 10
172.8088630952581
 20
580.1074980982866
 30
0.0
 10
172.7923990335372
 20
580.0919707505146
 30
0.0
 10
172.7841081994571
 20
580.0479647084532
 30
0.0
 10
172.7908382005468
 20
580.0199223105411
 30
0.0
 10
172.8299510602666
 20
579.9315369982227
 30
0.0
 10
172.8800060682271
 20
579.8663598022766
 30
0.0
 10
172.945266330299
 20
579.8084222341926
 30
0.0
  0
SPLINE
  5
14AC
330
A
100
AcDbEntity
  8
MODEL
100
AcDbSpline
210
0.0
220
0.0
230
1.0
 70
     8
 71
     3
 72
     8
 73
     4
 74
     0
 42
0.000000001
 43
0.0000000001
 40
0.0
 40
0.0
 40
0.0
 40
0.0
 40
1.0
 40
1.0
 40
1.0
 40
1.0
 10
200.8502803618172
 20
583.7961004221148
 30
0.0
 10
200.8760030191326
 20
583.8795396388967
 30
0.0
 10
200.9019664105959
 20
583.9638849419579
 30
0.0
 10
200.9304143398618
 20
584.0460148440385
 30
0.0
  0
SPLINE
  5
14AD
330
A
100
AcDbEntity
  8
MODEL
100
AcDbSpline
210
0.0
220
0.0
230
1.0
 70
     8
 71
     3
 72
     8
 73
     4
 74
     0
 42
0.000000001
 43
0.0000000001
 40
0.0
 40
0.0
 40
0.0
 40
0.0
 40
1.0
 40
1.0
 40
1.0
 40
1.0
 10
168.8452573537421
 20
584.0460148440385
 30
0.0
 10
168.8665011953996
 20
583.9638849419579
 30
0.0
 10
168.8860028764512
 20
583.8795396388967
 30
0.0
 10
168.9053942358474
 20
583.7961004221148
 30
0.0
  0
LINE
  5
14AE
330
A
100
AcDbEntity
  8
MODEL
100
AcDbLine
 10
168.5365033512568
 20
583.7961004219563
 30
0.0
 11
168.5365033512568
 21
580.1073797354655
 31
0.0
  0
LINE
  5
14AF
330
A
100
AcDbEntity
  8
MODEL
100
AcDbLine
 10
181.2067524430655
 20
579.8599583449185
 30
0.0
 11
181.2067524430655
 21
583.7961004219563
 31
0.0
  0
LINE
  5
14B0
330
A
100
AcDbEntity
  8
MODEL
100
AcDbLine
 10
201.1923554056708
 20
580.1008165770382
 30
0.0
 11
201.1923554056708
 21
583.7961004219563
 31
0.0
  0
LINE
  5
14B1
330
A
100
AcDbEntity
  8
MODEL
100
AcDbLine
 10
199.8269861637583
 20
580.0831896325948
 30
0.0
 11
199.8269861637583
 21
583.7961004219563
 31
0.0
  0
LINE
  5
14B2
330
A
100
AcDbEntity
  8
MODEL
100
AcDbLine
 10
189.0560661994165
 20
583.7961004219563
 30
0.0
 11
189.0560661994165
 21
579.8602068155514
 31
0.0
  0
LINE
  5
14B3
330
A
100
AcDbEntity
  8
MODEL
100
AcDbLine
 10
172.7870550451295
 20
583.7961004219563
 30
0.0
 11
172.7870550451295
 21
580.0546521302643
 31
0.0
  0
ARC
  5
14B4
330
A
100
AcDbEntity
  8
MODEL
100
AcDbCircle
 10
202.1892749526511
 20
583.7961004219563
 30
0.0
 40
0.9969195469806037
100
AcDbArc
 50
165.5224878140885
 51
180.0
  0
ARC
  5
14B5
330
A
100
AcDbEntity
  8
MODEL
100
AcDbCircle
 10
200.8239057107386
 20
583.7961004219563
 30
0.0
 40
0.9969195469806037
100
AcDbArc
 50
165.5224878140885
 51
180.0
  0
ARC
  5
14B6
330
A
100
AcDbEntity
  8
MODEL
100
AcDbCircle
 10
188.0591466524357
 20
583.7961004219563
 30
0.0
 40
0.9969195469806024
100
AcDbArc
 50
0.0
 51
14.47751218590475
  0
ARC
  5
14B7
330
A
100
AcDbEntity
  8
MODEL
100
AcDbCircle
 10
182.2036719900462
 20
583.7961004219563
 30
0.0
 40
0.9969195469806033
100
AcDbArc
 50
165.5224878140953
 51
180.0
  0
ARC
  5
14B8
330
A
100
AcDbEntity
  8
MODEL
100
AcDbCircle
 10
171.7901354981487
 20
583.7961004219563
 30
0.0
 40
0.9969195469806037
100
AcDbArc
 50
0.0
 51
14.47751218591148
  0
ARC
  5
14B9
330
A
100
AcDbEntity
  8
MODEL
100
AcDbCircle
 10
167.539583804276
 20
583.7961004219563
 30
0.0
 40
0.9969195469806037
100
AcDbArc
 50
0.0
 51
14.47751218591148
  0
ARC
  5
14BA
330
A
100
AcDbEntity
  8
MODEL
100
AcDbCircle
 10
206.0667198080333
 20
585.5407096291725
 30
0.0
 40
1.495379320470905
100
AcDbArc
 50
270.0
 51
330.0000000000009
  0
ARC
  5
14BB
330
A
100
AcDbEntity
  8
MODEL
100
AcDbCircle
 10
164.1960988348477
 20
585.5407096291725
 30
0.0
 40
1.495379320470904
100
AcDbArc
 50
209.9999999999943
 51
270.0
  0
LINE
  5
14BC
330
A
100
AcDbEntity
  8
MODEL
100
AcDbLine
 10
164.1960988348477
 20
584.0453303087016
 30
0.0
 11
206.0667198080333
 21
584.0453303087016
 31
0.0
  0
ARC
  5
14BD
330
A
100
AcDbEntity
  8
MODEL
100
AcDbCircle
 10
181.6515971854757
 20
535.937072650497
 30
0.0
 40
10.49348434804376
100
AcDbArc
 50
274.5257251517993
 51
288.2919469135992
  0
LINE
  5
14BE
330
A
100
AcDbEntity
  8
MODEL
100
AcDbLine
 10
181.3032382610351
 20
525.4763069235913
 30
0.0
 11
182.4796033264716
 21
525.4763069235913
 31
0.0
  0
ARC
  5
14BF
330
A
100
AcDbEntity
  8
MODEL
100
AcDbCircle
 10
188.1315742408493
 20
535.937072650497
 30
0.0
 40
10.49348434804291
100
AcDbArc
 50
274.5257251518022
 51
288.2919469136008
  0
LINE
  5
14C0
330
A
100
AcDbEntity
  8
MODEL
100
AcDbLine
 10
191.6113863768143
 20
525.4763069235913
 30
0.0
 11
188.9595803818457
 21
525.4763069235913
 31
0.0
  0
LINE
  5
14C1
330
A
100
AcDbEntity
  8
MODEL
100
AcDbLine
 10
181.3032382610351
 20
525.4763069235913
 30
0.0
 11
178.6514322660665
 21
525.4763069235913
 31
0.0
  0
LINE
  5
14C2
330
A
100
AcDbEntity
  8
MODEL
100
AcDbLine
 10
178.6514322660665
 20
525.4763069235913
 30
0.0
 11
178.6514322660665
 21
525.973828255639
 31
0.0
  0
LINE
  5
14C3
330
A
100
AcDbEntity
  8
MODEL
100
AcDbLine
 10
187.7832153164087
 20
525.4763069235913
 30
0.0
 11
188.9595803818457
 21
525.4763069235913
 31
0.0
  0
LINE
  5
14C4
330
A
100
AcDbEntity
  8
MODEL
100
AcDbLine
 10
187.7832153164087
 20
525.4763069235913
 30
0.0
 11
182.4796033264716
 21
525.4763069235913
 31
0.0
  0
ARC
  5
14C5
330
A
100
AcDbEntity
  8
MODEL
100
AcDbCircle
 10
181.6515971854757
 20
533.9570125893168
 30
0.0
 40
10.49348434806684
100
AcDbArc
 50
71.70805308640041
 51
85.47427484820064
  0
LINE
  5
14C6
330
A
100
AcDbEntity
  8
MODEL
100
AcDbLine
 10
181.3032382610351
 20
544.4177783162226
 30
0.0
 11
182.4796033264716
 21
544.4177783162226
 31
0.0
  0
LINE
  5
14C7
330
A
100
AcDbEntity
  8
MODEL
100
AcDbLine
 10
187.7832153164087
 20
544.4177783162226
 30
0.0
 11
188.9595803818457
 21
544.4177783162226
 31
0.0
  0
LINE
  5
14C8
330
A
100
AcDbEntity
  8
MODEL
100
AcDbLine
 10
178.6514322660665
 20
544.4177783162226
 30
0.0
 11
178.6514322660665
 21
543.9202569845737
 31
0.0
  0
ARC
  5
14C9
330
A
100
AcDbEntity
  8
MODEL
100
AcDbCircle
 10
188.1315742408493
 20
533.9570125893168
 30
0.0
 40
10.49348434804361
100
AcDbArc
 50
71.70805308639774
 51
85.47427484819809
  0
LINE
  5
14CA
330
A
100
AcDbEntity
  8
MODEL
100
AcDbLine
 10
191.6113863768143
 20
544.4177783162226
 30
0.0
 11
188.9595803818457
 21
544.4177783162226
 31
0.0
  0
LINE
  5
14CB
330
A
100
AcDbEntity
  8
MODEL
100
AcDbLine
 10
187.7832153164087
 20
544.4177783162226
 30
0.0
 11
186.591097133257
 21
544.4177783162226
 31
0.0
  0
LINE
  5
14CC
330
A
100
AcDbEntity
  8
MODEL
100
AcDbLine
 10
181.3032382610351
 20
544.4177783162226
 30
0.0
 11
178.6514322660665
 21
544.4177783162226
 31
0.0
  0
ARC
  5
14CD
330
A
100
AcDbEntity
  8
MODEL
100
AcDbCircle
 10
188.6096555300761
 20
533.9647725468689
 30
0.0
 40
10.48562506701687
100
AcDbArc
 50
94.5205410690005
 51
108.2971309964007
  0
LINE
  5
14CE
330
A
100
AcDbEntity
  8
MODEL
100
AcDbLine
 10
184.9450717775463
 20
543.9202569845737
 30
0.0
 11
185.3177468653345
 21
543.9202569845737
 31
0.0
  0
ARC
  5
14CF
330
A
100
AcDbEntity
  8
MODEL
100
AcDbCircle
 10
182.129678474702
 20
533.9647725468689
 30
0.0
 40
10.48562506701586
100
AcDbArc
 50
94.52054106900091
 51
108.2971309963999
  0
LINE
  5
14D0
330
A
100
AcDbEntity
  8
MODEL
100
AcDbLine
 10
191.6113863768143
 20
543.9202569845737
 30
0.0
 11
191.6113863768143
 21
544.4177783162226
 31
0.0
  0
ARC
  5
14D1
330
A
100
AcDbEntity
  8
MODEL
100
AcDbCircle
 10
188.6096555300761
 20
535.9293126933438
 30
0.0
 40
10.48562506701725
100
AcDbArc
 50
251.7028690035999
 51
265.4794589309997
  0
ARC
  5
14D2
330
A
100
AcDbEntity
  8
MODEL
100
AcDbCircle
 10
182.129678474702
 20
535.9293126933438
 30
0.0
 40
10.48562506701611
100
AcDbArc
 50
251.7028690036005
 51
265.4794589309992
  0
LINE
  5
14D3
330
A
100
AcDbEntity
  8
MODEL
100
AcDbLine
 10
191.6113863768143
 20
525.973828255639
 30
0.0
 11
191.6113863768143
 21
525.4763069235913
 31
0.0
  0
LINE
  5
14D4
330
A
100
AcDbEntity
  8
MODEL
100
AcDbLine
 10
191.4250488329204
 20
543.9202569845737
 30
0.0
 11
191.6113863768143
 21
543.9202569845737
 31
0.0
  0
LINE
  5
14D5
330
A
100
AcDbEntity
  8
MODEL
100
AcDbLine
 10
178.6514322660665
 20
543.9202569845737
 30
0.0
 11
178.8377698099604
 21
543.9202569845737
 31
0.0
  0
LINE
  5
14D6
330
A
100
AcDbEntity
  8
MODEL
100
AcDbLine
 10
191.4250488329204
 20
543.9202569845737
 30
0.0
 11
191.4250488329204
 21
525.973828255639
 31
0.0
  0
LINE
  5
14D7
330
A
100
AcDbEntity
  8
MODEL
100
AcDbLine
 10
191.4250488329204
 20
525.973828255639
 30
0.0
 11
191.6113863768143
 21
525.973828255639
 31
0.0
  0
LINE
  5
14D8
330
A
100
AcDbEntity
  8
MODEL
100
AcDbLine
 10
191.6113863768143
 20
525.973828255639
 30
0.0
 11
191.6113863768143
 21
543.9202569845737
 31
0.0
  0
LINE
  5
14D9
330
A
100
AcDbEntity
  8
MODEL
100
AcDbLine
 10
178.6514322660665
 20
543.9202569845737
 30
0.0
 11
178.6514322660665
 21
525.973828255639
 31
0.0
  0
LINE
  5
14DA
330
A
100
AcDbEntity
  8
MODEL
100
AcDbLine
 10
178.6514322660665
 20
525.973828255639
 30
0.0
 11
178.8377698099604
 21
525.973828255639
 31
0.0
  0
LINE
  5
14DB
330
A
100
AcDbEntity
  8
MODEL
100
AcDbLine
 10
178.8377698099604
 20
525.973828255639
 30
0.0
 11
178.8377698099604
 21
543.9202569845737
 31
0.0
  0
LINE
  5
14DC
330
A
100
AcDbEntity
  8
MODEL
100
AcDbLine
 10
184.9450717775463
 20
543.9202569845737
 30
0.0
 11
184.9450717775463
 21
525.973828255639
 31
0.0
  0
LINE
  5
14DD
330
A
100
AcDbEntity
  8
MODEL
100
AcDbLine
 10
184.9450717775463
 20
525.973828255639
 30
0.0
 11
185.3177468653345
 21
525.973828255639
 31
0.0
  0
LINE
  5
14DE
330
A
100
AcDbEntity
  8
MODEL
100
AcDbLine
 10
185.3177468653345
 20
525.973828255639
 30
0.0
 11
185.3177468653345
 21
543.9202569845737
 31
0.0
  0
LINE
  5
14DF
330
A
100
AcDbEntity
  8
MODEL
100
AcDbLine
 10
183.671721509225
 20
544.4177783162226
 30
0.0
 11
182.4796033264716
 21
544.4177783162226
 31
0.0
  0
ARC
  5
14E0
330
A
100
AcDbEntity
  8
MODEL
100
AcDbCircle
 10
185.1314093214402
 20
569.0720584624404
 30
0.0
 40
24.69745367480805
100
AcDbArc
 50
266.6116863852005
 51
273.3883136148004
  0
LINE
  5
14E1
330
A
100
AcDbEntity
  8
MODEL
100
AcDbLine
 10
179.9225046884668
 20
522.5852402373474
 30
0.0
 11
190.340313954414
 21
522.5852402373474
 31
0.0
  0
LINE
  5
14E2
330
A
100
AcDbEntity
  8
MODEL
100
AcDbLine
 10
189.9949708930423
 20
521.987088509159
 30
0.0
 11
180.2678477498386
 21
521.987088509159
 31
0.0
  0
LINE
  5
14E3
330
A
100
AcDbEntity
  8
MODEL
100
AcDbLine
 10
179.9225046884668
 20
522.5852402373474
 30
0.0
 11
180.2678477498386
 21
521.987088509159
 31
0.0
  0
LINE
  5
14E4
330
A
100
AcDbEntity
  8
MODEL
100
AcDbLine
 10
189.9949708930423
 20
521.987088509159
 30
0.0
 11
190.340313954414
 21
522.5852402373474
 31
0.0
  0
LINE
  5
14E5
330
A
100
AcDbEntity
  8
MODEL
100
AcDbLine
 10
190.340313954414
 20
522.5852402373474
 30
0.0
 11
190.340313954414
 21
525.4763069235913
 31
0.0
  0
LINE
  5
14E6
330
A
100
AcDbEntity
  8
MODEL
100
AcDbLine
 10
179.9225046884668
 20
525.4763069235913
 30
0.0
 11
179.9225046884668
 21
522.5852402373474
 31
0.0
  0
LINE
  5
14E7
330
A
100
AcDbEntity
  8
MODEL
100
AcDbLine
 10
189.1190875093627
 20
501.7795292918623
 30
0.0
 11
185.7295610496286
 21
501.7795292918623
 31
0.0
  0
LINE
  5
14E8
330
A
100
AcDbEntity
  8
MODEL
100
AcDbLine
 10
185.7295610496286
 20
501.0318396316269
 30
0.0
 11
188.3713978491274
 21
501.0318396316269
 31
0.0
  0
LINE
  5
14E9
330
A
100
AcDbEntity
  8
MODEL
100
AcDbLine
 10
184.5332575932522
 20
501.0318396316269
 30
0.0
 11
181.8914207937534
 21
501.0318396316269
 31
0.0
  0
LINE
  5
14EA
330
A
100
AcDbEntity
  8
MODEL
100
AcDbLine
 10
181.1437311335181
 20
501.7795292918623
 30
0.0
 11
184.5332575932522
 21
501.7795292918623
 31
0.0
  0
LINE
  5
14EB
330
A
100
AcDbEntity
  8
MODEL
100
AcDbLine
 10
184.5332575932522
 20
501.7795292918623
 30
0.0
 11
184.5332575932522
 21
501.0318396316269
 31
0.0
  0
LINE
  5
14EC
330
A
100
AcDbEntity
  8
MODEL
100
AcDbLine
 10
185.7295610496286
 20
501.0318396316269
 30
0.0
 11
185.7295610496286
 21
501.7795292918623
 31
0.0
  0
LINE
  5
14ED
330
A
100
AcDbEntity
  8
MODEL
100
AcDbLine
 10
185.7295610496286
 20
503.5241384990785
 30
0.0
 11
184.5332575932522
 21
503.5241384990785
 31
0.0
  0
LINE
  5
14EE
330
A
100
AcDbEntity
  8
MODEL
100
AcDbLine
 10
185.7295610496286
 20
503.5241384990785
 30
0.0
 11
185.7295610496286
 21
501.7795292918623
 31
0.0
  0
LINE
  5
14EF
330
A
100
AcDbEntity
  8
MODEL
100
AcDbLine
 10
184.5332575932522
 20
501.7795292918623
 30
0.0
 11
184.5332575932522
 21
503.5241384990785
 31
0.0
  0
LINE
  5
14F0
330
A
100
AcDbEntity
  8
MODEL
100
AcDbLine
 10
189.1190875093627
 20
501.7795292918623
 30
0.0
 11
189.1190875093627
 21
521.987088509159
 31
0.0
  0
LINE
  5
14F1
330
A
100
AcDbEntity
  8
MODEL
100
AcDbLine
 10
189.1190875093627
 20
554.8854335595191
 30
0.0
 11
189.1190875093627
 21
579.8084222340341
 31
0.0
  0
LINE
  5
14F2
330
A
100
AcDbEntity
  8
MODEL
100
AcDbLine
 10
181.1437311335181
 20
579.8084222340341
 30
0.0
 11
181.1437311335181
 21
554.8854335595191
 31
0.0
  0
LINE
  5
14F3
330
A
100
AcDbEntity
  8
MODEL
100
AcDbLine
 10
181.1437311335181
 20
521.987088509159
 30
0.0
 11
181.1437311335181
 21
501.7795292918623
 31
0.0
  0
LINE
  5
14F4
330
A
100
AcDbEntity
  8
MODEL
100
AcDbLine
 10
181.1437311335181
 20
501.7795292918623
 30
0.0
 11
181.8914207937534
 21
501.0318396316269
 31
0.0
  0
LINE
  5
14F5
330
A
100
AcDbEntity
  8
MODEL
100
AcDbLine
 10
188.3713978491274
 20
501.0318396316269
 30
0.0
 11
189.1190875093627
 21
501.7795292918623
 31
0.0
  0
LINE
  5
14F6
330
A
100
AcDbEntity
  8
MODEL
100
AcDbLine
 10
181.9083684260519
 20
501.0318396316269
 30
0.0
 11
181.9083684260519
 21
521.987088509159
 31
0.0
  0
LINE
  5
14F7
330
A
100
AcDbEntity
  8
MODEL
100
AcDbLine
 10
181.9083684260519
 20
554.8854335595191
 30
0.0
 11
181.9083684260519
 21
579.8084222340341
 31
0.0
  0
LINE
  5
14F8
330
A
100
AcDbEntity
  8
MODEL
100
AcDbLine
 10
188.3544502168285
 20
501.0318396316269
 30
0.0
 11
188.3544502168285
 21
521.987088509159
 31
0.0
  0
LINE
  5
14F9
330
A
100
AcDbEntity
  8
MODEL
100
AcDbLine
 10
188.3544502168285
 20
554.8854335595191
 30
0.0
 11
188.3544502168285
 21
579.8084222340341
 31
0.0
  0
LINE
  5
14FA
330
A
100
AcDbEntity
  8
MODEL
100
AcDbLine
 10
199.437204820612
 20
554.8854335595191
 30
0.0
 11
199.437204820612
 21
579.8084222340341
 31
0.0
  0
LINE
  5
14FB
330
A
100
AcDbEntity
  8
MODEL
100
AcDbLine
 10
170.8256138222688
 20
584.0453303087016
 30
0.0
 11
170.8256138222688
 21
554.8854335595191
 31
0.0
  0
ARC
  5
14FC
330
A
100
AcDbEntity
  8
MODEL
100
AcDbCircle
 10
185.1312768507711
 20
752.0353664582188
 30
0.0
 40
3.884721632740861
100
AcDbArc
 50
298.7029955508006
 51
359.9991164926969
  0
ARC
  5
14FD
330
A
100
AcDbEntity
  8
MODEL
100
AcDbCircle
 10
185.1315165201992
 20
752.0351267891891
 30
0.0
 40
3.884792561365541
100
AcDbArc
 50
90.00163916539591
 51
118.7019431986019
  0
ARC
  5
14FE
330
A
100
AcDbEntity
  8
MODEL
100
AcDbCircle
 10
185.1313690486819
 20
752.0352899147359
 30
0.0
 40
3.884629434219523
100
AcDbArc
 50
0.0002454335975945
 51
89.99946412439918
  0
ARC
  5
14FF
330
A
100
AcDbEntity
  8
MODEL
100
AcDbCircle
 10
185.129921653093
 20
752.0338430355513
 30
0.0
 40
3.883154113859328
100
AcDbArc
 50
179.9787510166991
 51
270.0212489832036
  0
ARC
  5
1500
330
A
100
AcDbEntity
  8
MODEL
100
AcDbCircle
 10
185.1299215386467
 20
752.036723399708
 30
0.0
 40
3.883153999286992
100
AcDbArc
 50
118.6935153514952
 51
180.0212506748962
  0
ARC
  5
1501
330
A
100
AcDbEntity
  8
MODEL
100
AcDbCircle
 10
185.1314880214596
 20
752.0352831604065
 30
0.0
 40
3.884593973697088
100
AcDbArc
 50
269.9981379736011
 51
299.5451729132025
  0
LINE
  5
1502
330
A
100
AcDbEntity
  8
MODEL
100
AcDbLine
 10
183.2659967735077
 20
755.4426991500026
 30
0.0
 11
183.265954028389
 21
755.4426757487121
 31
0.0
  0
LINE
  5
1503
330
A
100
AcDbEntity
  8
MODEL
100
AcDbLine
 10
186.9967695275074
 20
748.6278905721011
 30
0.0
 11
186.9968122730253
 21
748.627913972993
 31
0.0
  0
SPLINE
  5
1504
330
A
100
AcDbEntity
  8
MODEL
100
AcDbSpline
210
0.0
220
0.0
230
1.0
 70
    12
 71
     3
 72
    26
 73
    22
 74
     0
 42
0.000000001
 43
0.0000000001
 40
0.0
 40
0.0
 40
0.0
 40
0.0
 40
0.2588626765277657
 40
0.2588626765277657
 40
0.2588626765277657
 40
0.5177253530555311
 40
0.5177253530555311
 40
0.5177253530555311
 40
0.6471566913194065
 40
0.6471566913194065
 40
0.6471566913194065
 40
0.7118723604513479
 40
0.7118723604513479
 40
0.7118723604513479
 40
0.7442301950173187
 40
0.7442301950173187
 40
0.7442301950173187
 40
0.7765880295832893
 40
0.7765880295832893
 40
0.7765880295832893
 40
1.0
 40
1.0
 40
1.0
 40
1.0
 10
162.8263072345964
 20
756.9454779676674
 30
0.0
 41
1.0
 10
163.4633446692865
 20
756.9458977375153
 30
0.0
 41
0.9492556406489729
 10
166.3459504101952
 20
756.9478838897159
 30
0.0
 41
0.9492556406489729
 10
171.0352956675921
 20
756.9520602167421
 30
0.0
 41
1.0
 10
175.7246357328688
 20
756.9562365391446
 30
0.0
 41
0.949248853864924
 10
181.5068339580144
 20
756.9730899157391
 30
0.0
 41
0.949248853864924
 10
187.5015083618438
 20
756.9676889708634
 30
0.0
 41
1.0
 10
190.4401512004708
 20
756.9650413795329
 30
0.0
 41
0.987190851999285
 10
193.261402353388
 20
756.957573293269
 30
0.0
 41
0.987190851999285
 10
195.8568565486217
 20
756.9549493773537
 30
0.0
 41
1.0
 10
197.1483041233071
 20
756.9536437677809
 30
0.0
 41
0.996789780684942
 10
198.3646179425484
 20
756.9528380342955
 30
0.0
 41
0.996789780684942
 10
199.4940832276212
 20
756.9518217889371
 30
0.0
 41
1.0
 10
200.0581362920503
 20
756.9513142777134
 30
0.0
 41
0.9991946478306031
 10
200.5984381559953
 20
756.9507840934773
 30
0.0
 41
0.9991946478306031
 10
201.1136834863715
 20
756.9503128073887
 30
0.0
 41
1.0
 10
201.6289329986504
 20
756.9498415174759
 30
0.0
 41
0.99920115764038
 10
202.1178847017847
 20
756.9494707181912
 30
0.0
 41
0.999201157640379
 10
202.5793666654164
 20
756.9490995936738
 30
0.0
 41
1.0
 10
205.8252801218761
 20
756.946489224993
 30
0.0
 41
0.956203196609345
 10
207.5622665286548
 20
756.9453697114509
 30
0.0
 41
0.9502053153140111
 10
207.5620991222672
 20
756.945387211633
 30
0.0
 41
0.982006356114
  0
LINE
  5
1505
330
A
100
AcDbEntity
  8
MODEL
100
AcDbLine
 10
207.3627152191081
 20
733.0772135314527
 30
0.0
 11
162.9001034237727
 21
733.0772135314527
 31
0.0
  0
ARC
  5
1506
330
A
100
AcDbEntity
  8
MODEL
100
AcDbCircle
 10
163.1992007938144
 20
756.9453284785549
 30
0.0
 40
0.4985005871583398
100
AcDbArc
 50
94.34660502509279
 51
180.5061909338752
  0
ARC
  5
1507
330
A
100
AcDbEntity
  8
MODEL
100
AcDbCircle
 10
207.0636182306872
 20
756.9453284980945
 30
0.0
 40
0.4985006196354386
100
AcDbArc
 50
359.4938132685222
 51
85.65339610093119
  0
ARC
  5
1508
330
A
100
AcDbEntity
  8
MODEL
100
AcDbCircle
 10
207.3627152191081
 20
733.2765974408488
 30
0.0
 40
0.1993839093962091
100
AcDbArc
 50
270.0
 51
0.0
  0
ARC
  5
1509
330
A
100
AcDbEntity
  8
MODEL
100
AcDbCircle
 10
162.9001034237727
 20
733.2765974408488
 30
0.0
 40
0.1993839093961816
100
AcDbArc
 50
180.0
 51
270.0
  0
LINE
  5
150A
330
A
100
AcDbEntity
  8
MODEL
100
AcDbLine
 10
207.5620991285037
 20
733.2765974408488
 30
0.0
 11
207.5620991285037
 21
756.94538722503
 31
0.0
  0
LINE
  5
150B
330
A
100
AcDbEntity
  8
MODEL
100
AcDbLine
 10
162.7007195143768
 20
756.9453677870928
 30
0.0
 11
162.7007195143768
 21
733.2765974408488
 31
0.0
  0
INSERT
  5
150C
330
A
100
AcDbEntity
  8
MODEL
100
AcDbBlockReference
  2
SE
 10
-495.2525818453448
 20
-71.66962926182623
 30
0.0
 41
3.987678187922411
 42
3.987678187922411
 43
3.987678187922411
  0
CIRCLE
  5
150D
330
A
100
AcDbEntity
  8
MODEL
100
AcDbCircle
 10
185.1201153856083
 20
932.7452364156147
 30
0.0
 40
17.44609207216055
  0
LINE
  5
150E
330
A
100
AcDbEntity
  8
MODEL
100
AcDbLine
 10
243.9496625932958
 20
308.993889718597
 30
0.0
 11
226.0051107476453
 21
308.993889718597
 31
0.0
  0
LINE
  5
150F
330
A
100
AcDbEntity
  8
MODEL
100
AcDbLine
 10
243.9496625932958
 20
298.3268505659045
 30
0.0
 11
226.0051107476453
 21
298.3268505659045
 31
0.0
  0
LINE
  5
1510
330
A
100
AcDbEntity
  8
MODEL
100
AcDbLine
 10
225.5066509741547
 20
308.2744250076717
 30
0.0
 11
225.5066509741547
 21
299.0463152772285
 31
0.0
  0
LINE
  5
1511
330
A
100
AcDbEntity
  8
MODEL
100
AcDbLine
 10
225.5066509741547
 20
308.7061029965752
 30
0.0
 11
225.5066509741547
 21
308.2744250076717
 31
0.0
  0
LINE
  5
1512
330
A
100
AcDbEntity
  8
MODEL
100
AcDbLine
 10
225.5066509741547
 20
298.6146372883251
 30
0.0
 11
225.5066509741547
 21
299.0463152772285
 31
0.0
  0
LINE
  5
1513
330
A
100
AcDbEntity
  8
MODEL
100
AcDbLine
 10
236.3899489867268
 20
299.0463152772285
 30
0.0
 11
233.5648243542142
 21
299.0463152772285
 31
0.0
  0
LINE
  5
1514
330
A
100
AcDbEntity
  8
MODEL
100
AcDbLine
 10
236.3899489867268
 20
308.2744250076717
 30
0.0
 11
233.5648243542142
 21
308.2744250076717
 31
0.0
  0
LINE
  5
1515
330
A
100
AcDbEntity
  8
MODEL
100
AcDbLine
 10
236.3899489867268
 20
299.0463152772285
 30
0.0
 11
236.3899489867268
 21
308.2744250076717
 31
0.0
  0
ARC
  5
1516
330
A
100
AcDbEntity
  8
MODEL
100
AcDbCircle
 10
239.7127545186282
 20
295.6498235643285
 30
0.0
 40
13.05456235220493
100
AcDbArc
 50
75.2541367020996
 51
104.7458632979004
  0
ARC
  5
1517
330
A
100
AcDbEntity
  8
MODEL
100
AcDbCircle
 10
239.7127545186282
 20
311.6709167205717
 30
0.0
 40
13.05456235220606
100
AcDbArc
 50
255.2541367021009
 51
284.7458632979011
  0
LINE
  5
1518
330
A
100
AcDbEntity
  8
MODEL
100
AcDbLine
 10
226.919213290411
 20
299.0463152772285
 30
0.0
 11
225.5066509741547
 21
299.0463152772285
 31
0.0
  0
LINE
  5
1519
330
A
100
AcDbEntity
  8
MODEL
100
AcDbLine
 10
226.919213290411
 20
308.2744250076717
 30
0.0
 11
225.5066509741547
 21
308.2744250076717
 31
0.0
  0
LINE
  5
151A
330
A
100
AcDbEntity
  8
MODEL
100
AcDbLine
 10
226.919213290411
 20
299.0463152772285
 30
0.0
 11
226.919213290411
 21
308.2744250076717
 31
0.0
  0
LINE
  5
151B
330
A
100
AcDbEntity
  8
MODEL
100
AcDbLine
 10
233.5648243542142
 20
308.2744250076717
 30
0.0
 11
233.5648243542142
 21
299.0463152772285
 31
0.0
  0
ARC
  5
151C
330
A
100
AcDbEntity
  8
MODEL
100
AcDbCircle
 10
230.2420188223128
 20
295.6498235643285
 30
0.0
 40
13.05456235220491
100
AcDbArc
 50
75.2541367020996
 51
104.7458632979004
  0
ARC
  5
151D
330
A
100
AcDbEntity
  8
MODEL
100
AcDbCircle
 10
230.2420188223128
 20
311.6709167205717
 30
0.0
 40
13.05456235220605
100
AcDbArc
 50
255.2541367020989
 51
284.7458632978991
  0
LINE
  5
151E
330
A
100
AcDbEntity
  8
MODEL
100
AcDbLine
 10
226.0051107476453
 20
308.993889718597
 30
0.0
 11
225.5066509741547
 21
308.7061038343864
 31
0.0
  0
LINE
  5
151F
330
A
100
AcDbEntity
  8
MODEL
100
AcDbLine
 10
225.5066509741547
 20
298.6146364505138
 30
0.0
 11
226.0051107476453
 21
298.3268505659045
 31
0.0
  0
LINE
  5
1520
330
A
100
AcDbEntity
  8
MODEL
100
AcDbLine
 10
229.6438670941244
 20
311.9846483595388
 30
0.0
 11
229.6438670941244
 21
308.993889718597
 31
0.0
  0
LINE
  5
1521
330
A
100
AcDbEntity
  8
MODEL
100
AcDbLine
 10
240.3109062468167
 20
308.993889718597
 30
0.0
 11
240.3109062468167
 21
311.9846483595388
 31
0.0
  0
LINE
  5
1522
330
A
100
AcDbEntity
  8
MODEL
100
AcDbLine
 10
229.2450992753321
 20
311.9846483595388
 30
0.0
 11
240.709674065609
 21
311.9846483595388
 31
0.0
  0
LINE
  5
1523
330
A
100
AcDbEntity
  8
MODEL
100
AcDbLine
 10
228.8190377086436
 20
323.947682923306
 30
0.0
 11
228.7466395018415
 21
323.947682923306
 31
0.0
  0
SPLINE
  5
1524
330
A
100
AcDbEntity
  8
MODEL
100
AcDbSpline
210
0.0
220
0.0
230
1.0
 70
     8
 71
     3
 72
    12
 73
     8
 74
     0
 42
0.000000001
 43
0.0000000001
 40
0.0
 40
0.0
 40
0.0
 40
0.0
 40
0.25
 40
0.25
 40
0.5
 40
0.5
 40
1.0
 40
1.0
 40
1.0
 40
1.0
 10
228.9958693885034
 20
323.5489151046716
 30
0.0
 10
228.9822327954327
 20
323.6112538158526
 30
0.0
 10
228.9673991259748
 20
323.666751934743
 30
0.0
 10
228.9364654455031
 20
323.7649173440527
 30
0.0
 10
228.920211634768
 20
323.8077562963362
 30
0.0
 10
228.8731335321796
 20
323.9105589029153
 30
0.0
 10
228.8430858477719
 20
323.947682923464
 30
0.0
 10
228.8190377087673
 20
323.947682923464
 30
0.0
  0
LINE
  5
1525
330
A
100
AcDbEntity
  8
MODEL
100
AcDbLine
 10
228.8190377086436
 20
314.0781794081981
 30
0.0
 11
228.7466395018415
 21
314.0781794081981
 31
0.0
  0
LINE
  5
1526
330
A
100
AcDbEntity
  8
MODEL
100
AcDbLine
 10
228.995869388587
 20
314.4769472269904
 30
0.0
 11
228.995869388587
 21
323.5489151045137
 31
0.0
  0
SPLINE
  5
1527
330
A
100
AcDbEntity
  8
MODEL
100
AcDbSpline
210
0.0
220
0.0
230
1.0
 70
     8
 71
     3
 72
    12
 73
     8
 74
     0
 42
0.000000001
 43
0.0000000001
 40
0.0
 40
0.0
 40
0.0
 40
0.0
 40
0.2499999999999999
 40
0.2499999999999999
 40
0.4999999999999998
 40
0.4999999999999998
 40
1.0
 40
1.0
 40
1.0
 40
1.0
 10
228.8190377087673
 20
314.0781794083561
 30
0.0
 10
228.8310623456765
 20
314.0781794083561
 30
0.0
 10
228.8443336487013
 20
314.087250034659
 30
0.0
 10
228.8730641523058
 20
314.1225694840647
 30
0.0
 10
228.8886785126962
 20
314.1492941885687
 30
0.0
 10
228.9357521141588
 20
314.2519502305863
 30
0.0
 10
228.9686003608614
 20
314.3522888150706
 30
0.0
 10
228.9958693885034
 20
314.4769472271486
 30
0.0
  0
LINE
  5
1528
330
A
100
AcDbEntity
  8
MODEL
100
AcDbLine
 10
240.958903952354
 20
323.5489151045137
 30
0.0
 11
240.958903952354
 21
314.4769472269904
 31
0.0
  0
SPLINE
  5
1529
330
A
100
AcDbEntity
  8
MODEL
100
AcDbSpline
210
0.0
220
0.0
230
1.0
 70
     8
 71
     3
 72
    12
 73
     8
 74
     0
 42
0.000000001
 43
0.0000000001
 40
0.0
 40
0.0
 40
0.0
 40
0.0
 40
0.2500000000000194
 40
0.2500000000000194
 40
0.5000000000000389
 40
0.5000000000000389
 40
1.0
 40
1.0
 40
1.0
 40
1.0
 10
240.9589039522708
 20
314.4769472271485
 30
0.0
 10
240.9725405453415
 20
314.4146085159675
 30
0.0
 10
240.9873742147998
 20
314.3591103970771
 30
0.0
 10
241.0183078952711
 20
314.2609449877675
 30
0.0
 10
241.0345617060062
 20
314.2181060354839
 30
0.0
 10
241.081639808595
 20
314.1153034289051
 30
0.0
 10
241.1116874930018
 20
314.0781794083561
 30
0.0
 10
241.1357356320065
 20
314.0781794083561
 30
0.0
  0
SPLINE
  5
152A
330
A
100
AcDbEntity
  8
MODEL
100
AcDbSpline
210
0.0
220
0.0
230
1.0
 70
     8
 71
     3
 72
    12
 73
     8
 74
     0
 42
0.000000001
 43
0.0000000001
 40
0.0
 40
0.0
 40
0.0
 40
0.0
 40
0.2500000000000002
 40
0.2500000000000002
 40
0.5000000000000003
 40
0.5000000000000003
 40
1.0
 40
1.0
 40
1.0
 40
1.0
 10
241.1357356320065
 20
323.947682923464
 30
0.0
 10
241.1237109950977
 20
323.9476829234642
 30
0.0
 10
241.1104396920724
 20
323.9386122971611
 30
0.0
 10
241.0817091884679
 20
323.9032928477554
 30
0.0
 10
241.066094828078
 20
323.8765681432516
 30
0.0
 10
241.0190212266158
 20
323.7739121012339
 30
0.0
 10
240.9861729799128
 20
323.6735735167494
 30
0.0
 10
240.9589039522708
 20
323.5489151046717
 30
0.0
  0
LINE
  5
152B
330
A
100
AcDbEntity
  8
MODEL
100
AcDbLine
 10
241.1357356318982
 20
323.947682923306
 30
0.0
 11
241.2081338390996
 21
323.947682923306
 31
0.0
  0
LINE
  5
152C
330
A
100
AcDbEntity
  8
MODEL
100
AcDbLine
 10
241.2081338390996
 20
314.0781794081981
 30
0.0
 11
241.1357356318982
 21
314.0781794081981
 31
0.0
  0
LINE
  5
152D
330
A
100
AcDbEntity
  8
MODEL
100
AcDbLine
 10
237.9733331012891
 20
323.5489151045137
 30
0.0
 11
237.9733331012891
 21
314.4769472269904
 31
0.0
  0
ARC
  5
152E
330
A
100
AcDbEntity
  8
MODEL
100
AcDbCircle
 10
238.7068031899959
 20
314.949632542821
 30
0.0
 40
0.8725879777293846
100
AcDbArc
 50
212.7997847027125
 51
267.0775435305197
  0
ARC
  5
152F
330
A
100
AcDbEntity
  8
MODEL
100
AcDbCircle
 10
238.6957179255475
 20
323.0953826508841
 30
0.0
 40
0.8529545830696289
100
AcDbArc
 50
92.24436969960938
 51
147.8783020671886
  0
LINE
  5
1530
330
A
100
AcDbEntity
  8
MODEL
100
AcDbLine
 10
240.0016791254189
 20
323.947682923306
 30
0.0
 11
238.6623148385353
 21
323.947682923306
 31
0.0
  0
SPLINE
  5
1531
330
A
100
AcDbEntity
  8
MODEL
100
AcDbSpline
210
0.0
220
0.0
230
1.0
 70
     8
 71
     3
 72
    12
 73
     8
 74
     0
 42
0.000000001
 43
0.0000000001
 40
0.0
 40
0.0
 40
0.0
 40
0.0
 40
0.2500000000000191
 40
0.2500000000000191
 40
0.5000000000000382
 40
0.5000000000000382
 40
1.0
 40
1.0
 40
1.0
 40
1.0
 10
240.4405831031341
 20
323.5489151046717
 30
0.0
 10
240.4171655365122
 20
323.6112538158528
 30
0.0
 10
240.3902643852704
 20
323.6667519347433
 30
0.0
 10
240.329049168036
 20
323.7649173440524
 30
0.0
 10
240.2943233689012
 20
323.8077562963362
 30
0.0
 10
240.1825623139258
 20
323.9105589029152
 30
0.0
 10
240.0952470040571
 20
323.9476829234642
 30
0.0
 10
240.0016791254308
 20
323.947682923464
 30
0.0
  0
LINE
  5
1532
330
A
100
AcDbEntity
  8
MODEL
100
AcDbLine
 10
238.6623148385353
 20
314.0781794081981
 30
0.0
 11
240.0016791254189
 21
314.0781794081981
 31
0.0
  0
LINE
  5
1533
330
A
100
AcDbEntity
  8
MODEL
100
AcDbLine
 10
240.4405831030227
 20
314.4769472269904
 30
0.0
 11
240.4405831030227
 21
323.5489151045137
 31
0.0
  0
SPLINE
  5
1534
330
A
100
AcDbEntity
  8
MODEL
100
AcDbSpline
210
0.0
220
0.0
230
1.0
 70
     8
 71
     3
 72
    12
 73
     8
 74
     0
 42
0.000000001
 43
0.0000000001
 40
0.0
 40
0.0
 40
0.0
 40
0.0
 40
0.2500000000000006
 40
0.2500000000000006
 40
0.5000000000000012
 40
0.5000000000000012
 40
1.0
 40
1.0
 40
1.0
 40
1.0
 10
240.0016791254308
 20
314.0781794083561
 30
0.0
 10
240.0484652724418
 20
314.0781794083561
 30
0.0
 10
240.0931029964246
 20
314.087250034659
 30
0.0
 10
240.1784543331243
 20
314.1225694840647
 30
0.0
 10
240.219441446881
 20
314.1492941885686
 30
0.0
 10
240.3312630916063
 20
314.2519502305863
 30
0.0
 10
240.3937551111122
 20
314.3522888150708
 30
0.0
 10
240.4405831031341
 20
314.4769472271485
 30
0.0
  0
ELLIPSE
  5
1535
330
A
100
AcDbEntity
  8
MODEL
100
AcDbEllipse
 10
239.8766402455977
 20
315.0750989551786
 30
0.0
 11
4.323449354518536E-16
 21
-0.9969195469806037
 31
0.0
210
0.0
220
0.0
230
1.0
 40
0.7071067812
 41
0.0
 42
0.9272952180018684
  0
ELLIPSE
  5
1536
330
A
100
AcDbEntity
  8
MODEL
100
AcDbEllipse
 10
239.8766402455977
 20
322.9507633763255
 30
0.0
 11
5.706953147964470E-14
 21
-0.9969195469805482
 31
0.0
210
0.0
220
0.0
230
1.0
 40
0.7071067812
 41
2.214297435587997
 42
3.141592653589793
  0
LINE
  5
1537
330
A
100
AcDbEntity
  8
MODEL
100
AcDbLine
 10
233.2327774632546
 20
323.5489151045137
 30
0.0
 11
233.2327774632546
 21
314.4769472269904
 31
0.0
  0
ARC
  5
1538
330
A
100
AcDbEntity
  8
MODEL
100
AcDbCircle
 10
234.0303131008392
 20
315.0750989551786
 30
0.0
 40
0.9969195469797977
100
AcDbArc
 50
216.869897645778
 51
270.0
  0
ARC
  5
1539
330
A
100
AcDbEntity
  8
MODEL
100
AcDbCircle
 10
234.0303131008392
 20
322.9507633763255
 30
0.0
 40
0.9969195469791305
100
AcDbArc
 50
90.0
 51
143.1301023542099
  0
LINE
  5
153A
330
A
100
AcDbEntity
  8
MODEL
100
AcDbLine
 10
235.9244602401019
 20
323.947682923306
 30
0.0
 11
234.0303131008392
 21
323.947682923306
 31
0.0
  0
ARC
  5
153B
330
A
100
AcDbEntity
  8
MODEL
100
AcDbCircle
 10
235.9244602401019
 20
322.9507633763255
 30
0.0
 40
0.996919546980592
100
AcDbArc
 50
36.86989764579175
 51
90.0
  0
LINE
  5
153C
330
A
100
AcDbEntity
  8
MODEL
100
AcDbLine
 10
234.0303131008392
 20
314.0781794081981
 30
0.0
 11
235.9244602401019
 21
314.0781794081981
 31
0.0
  0
LINE
  5
153D
330
A
100
AcDbEntity
  8
MODEL
100
AcDbLine
 10
236.7219958776865
 20
314.4769472269904
 30
0.0
 11
236.7219958776865
 21
323.5489151045137
 31
0.0
  0
ARC
  5
153E
330
A
100
AcDbEntity
  8
MODEL
100
AcDbCircle
 10
235.9244602401019
 20
315.0750989551786
 30
0.0
 40
0.9969195469795269
100
AcDbArc
 50
270.0
 51
323.130102354203
  0
LINE
  5
153F
330
A
100
AcDbEntity
  8
MODEL
100
AcDbLine
 10
229.5141902375195
 20
323.5489151045137
 30
0.0
 11
229.5141902375195
 21
314.4769472269904
 31
0.0
  0
SPLINE
  5
1540
330
A
100
AcDbEntity
  8
MODEL
100
AcDbSpline
210
0.0
220
0.0
230
1.0
 70
     8
 71
     3
 72
    12
 73
     8
 74
     0
 42
0.000000001
 43
0.0000000001
 40
0.0
 40
0.0
 40
0.0
 40
0.0
 40
0.2500000000000003
 40
0.2500000000000003
 40
0.5000000000000007
 40
0.5000000000000007
 40
1.0
 40
1.0
 40
1.0
 40
1.0
 10
229.5141902376396
 20
314.4769472271487
 30
0.0
 10
229.5376078042615
 20
314.4146085159677
 30
0.0
 10
229.5645089555034
 20
314.359110397077
 30
0.0
 10
229.6257241727382
 20
314.2609449877676
 30
0.0
 10
229.6604499718725
 20
314.2181060354839
 30
0.0
 10
229.7722110268479
 20
314.1153034289051
 30
0.0
 10
229.8595263367171
 20
314.0781794083561
 30
0.0
 10
229.9530942153439
 20
314.0781794083561
 30
0.0
  0
SPLINE
  5
1541
330
A
100
AcDbEntity
  8
MODEL
100
AcDbSpline
210
0.0
220
0.0
230
1.0
 70
     8
 71
     3
 72
    12
 73
     8
 74
     0
 42
0.000000001
 43
0.0000000001
 40
0.0
 40
0.0
 40
0.0
 40
0.0
 40
0.2499999999999999
 40
0.2499999999999999
 40
0.4999999999999998
 40
0.4999999999999998
 40
1.0
 40
1.0
 40
1.0
 40
1.0
 10
229.9530942153439
 20
323.947682923464
 30
0.0
 10
229.9063080683319
 20
323.947682923464
 30
0.0
 10
229.8616703443491
 20
323.9386122971612
 30
0.0
 10
229.7763190076499
 20
323.9032928477556
 30
0.0
 10
229.7353318938937
 20
323.8765681432516
 30
0.0
 10
229.6235102491679
 20
323.7739121012339
 30
0.0
 10
229.561018229662
 20
323.6735735167494
 30
0.0
 10
229.5141902376396
 20
323.5489151046715
 30
0.0
  0
LINE
  5
1542
330
A
100
AcDbEntity
  8
MODEL
100
AcDbLine
 10
231.292458502007
 20
323.947682923306
 30
0.0
 11
229.9530942155221
 21
323.947682923306
 31
0.0
  0
ARC
  5
1543
330
A
100
AcDbEntity
  8
MODEL
100
AcDbCircle
 10
231.2479701505464
 20
323.0762297890819
 30
0.0
 40
0.8725879777294236
100
AcDbArc
 50
32.79978470279951
 51
87.0775435305199
  0
LINE
  5
1544
330
A
100
AcDbEntity
  8
MODEL
100
AcDbLine
 10
229.9530942155221
 20
314.0781794081981
 30
0.0
 11
231.292458502007
 21
314.0781794081981
 31
0.0
  0
LINE
  5
1545
330
A
100
AcDbEntity
  8
MODEL
100
AcDbLine
 10
231.981440239652
 20
314.4769472269904
 30
0.0
 11
231.981440239652
 21
323.5489151045137
 31
0.0
  0
ARC
  5
1546
330
A
100
AcDbEntity
  8
MODEL
100
AcDbCircle
 10
231.2590554153936
 20
314.9304796810188
 30
0.0
 40
0.8529545830688178
100
AcDbArc
 50
272.2443696995809
 51
327.8783020671954
  0
ELLIPSE
  5
1547
330
A
100
AcDbEntity
  8
MODEL
100
AcDbEllipse
 10
230.0781330953433
 20
322.9507633763255
 30
0.0
 11
-1.729379741807415E-15
 21
0.9969195469806037
 31
0.0
210
0.0
220
0.0
230
1.0
 40
0.7071067812
 41
0.0
 42
0.9272952180020806
  0
ELLIPSE
  5
1548
330
A
100
AcDbEntity
  8
MODEL
100
AcDbEllipse
 10
230.0781330953433
 20
315.0750989551786
 30
0.0
 11
-1.037627845084449E-14
 21
0.9969195469806037
 31
0.0
210
0.0
220
0.0
230
1.0
 40
0.7071067812
 41
2.214297435587633
 42
3.141592653589793
  0
LINE
  5
1549
330
A
100
AcDbEntity
  8
MODEL
100
AcDbLine
 10
228.7466395018415
 20
329.9292002051897
 30
0.0
 11
241.2081338390996
 21
329.9292002051897
 31
0.0
  0
ARC
  5
154A
330
A
100
AcDbEntity
  8
MODEL
100
AcDbCircle
 10
229.2450992753321
 20
312.4831081330291
 30
0.0
 40
0.4984597734903018
100
AcDbArc
 50
180.0
 51
270.0
  0
ARC
  5
154B
330
A
100
AcDbEntity
  8
MODEL
100
AcDbCircle
 10
240.709674065609
 20
312.4831081330291
 30
0.0
 40
0.4984597734902464
100
AcDbArc
 50
270.0
 51
0.0
  0
LINE
  5
154C
330
A
100
AcDbEntity
  8
MODEL
100
AcDbLine
 10
228.7466395018415
 20
314.0781794081981
 30
0.0
 11
228.7466395018415
 21
312.4831081330291
 31
0.0
  0
LINE
  5
154D
330
A
100
AcDbEntity
  8
MODEL
100
AcDbLine
 10
228.7466395018415
 20
329.9292002051897
 30
0.0
 11
228.7466395018415
 21
323.947682923306
 31
0.0
  0
LINE
  5
154E
330
A
100
AcDbEntity
  8
MODEL
100
AcDbLine
 10
241.2081338390996
 20
323.947682923306
 30
0.0
 11
241.2081338390996
 21
329.9292002051897
 31
0.0
  0
LINE
  5
154F
330
A
100
AcDbEntity
  8
MODEL
100
AcDbLine
 10
241.2081338390996
 20
312.4831081330291
 30
0.0
 11
241.2081338390996
 21
314.0781794081981
 31
0.0
  0
LINE
  5
1550
330
A
100
AcDbEntity
  8
MODEL
100
AcDbLine
 10
244.4481223667864
 20
308.2744250076717
 30
0.0
 11
244.4481223667864
 21
299.0463152772285
 31
0.0
  0
LINE
  5
1551
330
A
100
AcDbEntity
  8
MODEL
100
AcDbLine
 10
244.4481223667864
 20
308.7061029965752
 30
0.0
 11
244.4481223667864
 21
308.2744250076717
 31
0.0
  0
LINE
  5
1552
330
A
100
AcDbEntity
  8
MODEL
100
AcDbLine
 10
244.4481223667864
 20
298.6146372883251
 30
0.0
 11
244.4481223667864
 21
299.0463152772285
 31
0.0
  0
LINE
  5
1553
330
A
100
AcDbEntity
  8
MODEL
100
AcDbLine
 10
243.0355600505301
 20
299.0463152772285
 30
0.0
 11
244.4481223667864
 21
299.0463152772285
 31
0.0
  0
LINE
  5
1554
330
A
100
AcDbEntity
  8
MODEL
100
AcDbLine
 10
243.0355600505301
 20
308.2744250076717
 30
0.0
 11
244.4481223667864
 21
308.2744250076717
 31
0.0
  0
LINE
  5
1555
330
A
100
AcDbEntity
  8
MODEL
100
AcDbLine
 10
243.0355600505301
 20
299.0463152772285
 30
0.0
 11
243.0355600505301
 21
308.2744250076717
 31
0.0
  0
LINE
  5
1556
330
A
100
AcDbEntity
  8
MODEL
100
AcDbLine
 10
243.9496625932958
 20
308.993889718597
 30
0.0
 11
244.4481223667864
 21
308.7061038343864
 31
0.0
  0
LINE
  5
1557
330
A
100
AcDbEntity
  8
MODEL
100
AcDbLine
 10
244.4481223667864
 20
298.6146364505138
 30
0.0
 11
243.9496625932958
 21
298.3268505659045
 31
0.0
  0
SPLINE
  5
1558
330
A
100
AcDbEntity
  8
MODEL
100
AcDbSpline
210
0.0
220
0.0
230
1.0
 70
     8
 71
     3
 72
    13
 73
     9
 74
     0
 42
0.000000001
 43
0.0000000001
 40
0.0
 40
0.0
 40
0.0
 40
0.0
 40
0.1220008877905547
 40
0.3146173371653271
 40
0.4137034899868766
 40
0.4137034899868766
 40
0.4137034899868766
 40
1.0
 40
1.0
 40
1.0
 40
1.0
 10
240.0388764949495
 20
347.7778267825626
 30
0.0
 10
239.3623826163445
 20
347.9009532040677
 30
0.0
 10
237.6912134257933
 20
348.0450766286837
 30
0.0
 10
236.4116755072465
 20
346.5219979004381
 30
0.0
 10
234.6869977096563
 20
346.4709957973305
 30
0.0
 10
234.1399920116797
 20
346.4874883258271
 30
0.0
 10
232.4460081559688
 20
346.5385628888825
 30
0.0
 10
231.1244800600253
 20
346.9139548871614
 30
0.0
 10
229.9158884295963
 20
347.4184594892285
 30
0.0
  0
LINE
  5
1559
330
A
100
AcDbEntity
  8
MODEL
100
AcDbLine
 10
240.0388766840216
 20
329.9292010266514
 30
0.0
 11
240.0388766840216
 21
347.7778267823891
 31
0.0
  0
LINE
  5
155A
330
A
100
AcDbEntity
  8
MODEL
100
AcDbLine
 10
235.1844395150753
 20
329.929200239085
 30
0.0
 11
240.0388764950054
 21
334.7836372190154
 31
0.0
  0
LINE
  5
155B
330
A
100
AcDbEntity
  8
MODEL
100
AcDbLine
 10
229.9158884295417
 20
330.3000777293982
 30
0.0
 11
240.0388764950054
 21
340.4230657944631
 31
0.0
  0
LINE
  5
155C
330
A
100
AcDbEntity
  8
MODEL
100
AcDbLine
 10
229.9158884295417
 20
335.9395063048459
 30
0.0
 11
240.0388766840216
 21
346.0624945593256
 31
0.0
  0
LINE
  5
155D
330
A
100
AcDbEntity
  8
MODEL
100
AcDbLine
 10
231.9955286416904
 20
346.7487937236457
 30
0.0
 11
240.0388766840216
 21
338.7054456813148
 31
0.0
  0
LINE
  5
155E
330
A
100
AcDbEntity
  8
MODEL
100
AcDbLine
 10
229.9158884295417
 20
343.1890053599478
 30
0.0
 11
240.0388766840216
 21
333.0660171054681
 31
0.0
  0
LINE
  5
155F
330
A
100
AcDbEntity
  8
MODEL
100
AcDbLine
 10
229.9158884295417
 20
337.5495767841012
 30
0.0
 11
237.5362645933361
 21
329.9292006207058
 31
0.0
  0
LINE
  5
1560
330
A
100
AcDbEntity
  8
MODEL
100
AcDbLine
 10
229.9158884295417
 20
331.9101482086534
 30
0.0
 11
231.8968369326618
 21
329.9291997055336
 31
0.0
  0
LINE
  5
1561
330
A
100
AcDbEntity
  8
MODEL
100
AcDbLine
 10
229.9158884295417
 20
347.4184594890948
 30
0.0
 11
229.9158884295417
 21
329.929199383728
 31
0.0
  0
LINE
  5
1562
330
A
100
AcDbEntity
  8
MODEL
100
AcDbLine
 10
229.9158884295417
 20
341.5789348806924
 30
0.0
 11
234.8271986814808
 21
346.4902451326314
 31
0.0
  0
LINE
  5
1563
330
A
100
AcDbEntity
  8
MODEL
100
AcDbLine
 10
229.9158884295417
 20
347.218363456539
 30
0.0
 11
230.0576349903046
 21
347.3601100173016
 31
0.0
  0
LINE
  5
1564
330
A
100
AcDbEntity
  8
MODEL
100
AcDbLine
 10
237.091930765415
 20
347.2918201757677
 30
0.0
 11
240.0388766840216
 21
344.3448742571613
 31
0.0
  0
LINE
  5
1565
330
A
100
AcDbEntity
  8
MODEL
100
AcDbLine
 10
144.2577078952355
 20
308.993889718597
 30
0.0
 11
126.3131560495848
 21
308.993889718597
 31
0.0
  0
LINE
  5
1566
330
A
100
AcDbEntity
  8
MODEL
100
AcDbLine
 10
144.2577078952355
 20
298.3268505659045
 30
0.0
 11
126.3131560495848
 21
298.3268505659045
 31
0.0
  0
LINE
  5
1567
330
A
100
AcDbEntity
  8
MODEL
100
AcDbLine
 10
125.8146962760944
 20
308.2744250076717
 30
0.0
 11
125.8146962760944
 21
299.0463152772285
 31
0.0
  0
LINE
  5
1568
330
A
100
AcDbEntity
  8
MODEL
100
AcDbLine
 10
125.8146962760944
 20
308.7061029965752
 30
0.0
 11
125.8146962760944
 21
308.2744250076717
 31
0.0
  0
LINE
  5
1569
330
A
100
AcDbEntity
  8
MODEL
100
AcDbLine
 10
125.8146962760944
 20
298.6146372883251
 30
0.0
 11
125.8146962760944
 21
299.0463152772285
 31
0.0
  0
LINE
  5
156A
330
A
100
AcDbEntity
  8
MODEL
100
AcDbLine
 10
136.6979942886666
 20
299.0463152772285
 30
0.0
 11
133.872869656154
 21
299.0463152772285
 31
0.0
  0
LINE
  5
156B
330
A
100
AcDbEntity
  8
MODEL
100
AcDbLine
 10
136.6979942886666
 20
308.2744250076717
 30
0.0
 11
133.872869656154
 21
308.2744250076717
 31
0.0
  0
LINE
  5
156C
330
A
100
AcDbEntity
  8
MODEL
100
AcDbLine
 10
136.6979942886666
 20
299.0463152772285
 30
0.0
 11
136.6979942886666
 21
308.2744250076717
 31
0.0
  0
ARC
  5
156D
330
A
100
AcDbEntity
  8
MODEL
100
AcDbCircle
 10
140.020799820568
 20
295.6498235643285
 30
0.0
 40
13.05456235220493
100
AcDbArc
 50
75.2541367020996
 51
104.7458632978994
  0
ARC
  5
156E
330
A
100
AcDbEntity
  8
MODEL
100
AcDbCircle
 10
140.020799820568
 20
311.6709167205717
 30
0.0
 40
13.05456235220606
100
AcDbArc
 50
255.2541367021009
 51
284.7458632979011
  0
LINE
  5
156F
330
A
100
AcDbEntity
  8
MODEL
100
AcDbLine
 10
127.2272585923507
 20
299.0463152772285
 30
0.0
 11
125.8146962760944
 21
299.0463152772285
 31
0.0
  0
LINE
  5
1570
330
A
100
AcDbEntity
  8
MODEL
100
AcDbLine
 10
127.2272585923507
 20
308.2744250076717
 30
0.0
 11
125.8146962760944
 21
308.2744250076717
 31
0.0
  0
LINE
  5
1571
330
A
100
AcDbEntity
  8
MODEL
100
AcDbLine
 10
127.2272585923507
 20
299.0463152772285
 30
0.0
 11
127.2272585923507
 21
308.2744250076717
 31
0.0
  0
LINE
  5
1572
330
A
100
AcDbEntity
  8
MODEL
100
AcDbLine
 10
133.872869656154
 20
308.2744250076717
 30
0.0
 11
133.872869656154
 21
299.0463152772285
 31
0.0
  0
ARC
  5
1573
330
A
100
AcDbEntity
  8
MODEL
100
AcDbCircle
 10
130.5500641242523
 20
295.6498235643285
 30
0.0
 40
13.05456235220491
100
AcDbArc
 50
75.2541367020996
 51
104.7458632978994
  0
ARC
  5
1574
330
A
100
AcDbEntity
  8
MODEL
100
AcDbCircle
 10
130.5500641242523
 20
311.6709167205717
 30
0.0
 40
13.05456235220605
100
AcDbArc
 50
255.2541367020999
 51
284.7458632979001
  0
LINE
  5
1575
330
A
100
AcDbEntity
  8
MODEL
100
AcDbLine
 10
126.3131560495848
 20
308.993889718597
 30
0.0
 11
125.8146962760944
 21
308.7061038343864
 31
0.0
  0
LINE
  5
1576
330
A
100
AcDbEntity
  8
MODEL
100
AcDbLine
 10
125.8146962760944
 20
298.6146364505138
 30
0.0
 11
126.3131560495848
 21
298.3268505659045
 31
0.0
  0
LINE
  5
1577
330
A
100
AcDbEntity
  8
MODEL
100
AcDbLine
 10
129.9519123960641
 20
311.9846483595388
 30
0.0
 11
129.9519123960641
 21
308.993889718597
 31
0.0
  0
LINE
  5
1578
330
A
100
AcDbEntity
  8
MODEL
100
AcDbLine
 10
140.6189515487564
 20
308.993889718597
 30
0.0
 11
140.6189515487564
 21
311.9846483595388
 31
0.0
  0
LINE
  5
1579
330
A
100
AcDbEntity
  8
MODEL
100
AcDbLine
 10
129.5531445772718
 20
311.9846483595388
 30
0.0
 11
141.0177193675487
 21
311.9846483595388
 31
0.0
  0
LINE
  5
157A
330
A
100
AcDbEntity
  8
MODEL
100
AcDbLine
 10
129.1270830105835
 20
323.947682923306
 30
0.0
 11
129.0546848037815
 21
323.947682923306
 31
0.0
  0
SPLINE
  5
157B
330
A
100
AcDbEntity
  8
MODEL
100
AcDbSpline
210
0.0
220
0.0
230
1.0
 70
     8
 71
     3
 72
    12
 73
     8
 74
     0
 42
0.000000001
 43
0.0000000001
 40
0.0
 40
0.0
 40
0.0
 40
0.0
 40
0.25
 40
0.25
 40
0.5
 40
0.5
 40
1.0
 40
1.0
 40
1.0
 40
1.0
 10
129.3039146904431
 20
323.5489151046716
 30
0.0
 10
129.2902780973724
 20
323.6112538158526
 30
0.0
 10
129.2754444279145
 20
323.666751934743
 30
0.0
 10
129.2445107474429
 20
323.7649173440527
 30
0.0
 10
129.2282569367077
 20
323.8077562963362
 30
0.0
 10
129.1811788341194
 20
323.9105589029153
 30
0.0
 10
129.1511311497117
 20
323.947682923464
 30
0.0
 10
129.1270830107072
 20
323.947682923464
 30
0.0
  0
LINE
  5
157C
330
A
100
AcDbEntity
  8
MODEL
100
AcDbLine
 10
129.1270830105835
 20
314.0781794081981
 30
0.0
 11
129.0546848037815
 21
314.0781794081981
 31
0.0
  0
LINE
  5
157D
330
A
100
AcDbEntity
  8
MODEL
100
AcDbLine
 10
129.3039146905268
 20
314.4769472269904
 30
0.0
 11
129.3039146905268
 21
323.5489151045137
 31
0.0
  0
SPLINE
  5
157E
330
A
100
AcDbEntity
  8
MODEL
100
AcDbSpline
210
0.0
220
0.0
230
1.0
 70
     8
 71
     3
 72
    12
 73
     8
 74
     0
 42
0.000000001
 43
0.0000000001
 40
0.0
 40
0.0
 40
0.0
 40
0.0
 40
0.2499999999999999
 40
0.2499999999999999
 40
0.4999999999999998
 40
0.4999999999999998
 40
1.0
 40
1.0
 40
1.0
 40
1.0
 10
129.1270830107072
 20
314.0781794083561
 30
0.0
 10
129.1391076476162
 20
314.0781794083561
 30
0.0
 10
129.1523789506413
 20
314.087250034659
 30
0.0
 10
129.1811094542458
 20
314.1225694840647
 30
0.0
 10
129.1967238146359
 20
314.1492941885687
 30
0.0
 10
129.2437974160983
 20
314.2519502305863
 30
0.0
 10
129.2766456628011
 20
314.3522888150706
 30
0.0
 10
129.3039146904431
 20
314.4769472271486
 30
0.0
  0
LINE
  5
157F
330
A
100
AcDbEntity
  8
MODEL
100
AcDbLine
 10
141.2669492542938
 20
323.5489151045137
 30
0.0
 11
141.2669492542938
 21
314.4769472269904
 31
0.0
  0
SPLINE
  5
1580
330
A
100
AcDbEntity
  8
MODEL
100
AcDbSpline
210
0.0
220
0.0
230
1.0
 70
     8
 71
     3
 72
    12
 73
     8
 74
     0
 42
0.000000001
 43
0.0000000001
 40
0.0
 40
0.0
 40
0.0
 40
0.0
 40
0.2500000000000194
 40
0.2500000000000194
 40
0.5000000000000389
 40
0.5000000000000389
 40
1.0
 40
1.0
 40
1.0
 40
1.0
 10
141.2669492542105
 20
314.4769472271485
 30
0.0
 10
141.2805858472813
 20
314.4146085159675
 30
0.0
 10
141.2954195167396
 20
314.3591103970771
 30
0.0
 10
141.3263531972106
 20
314.2609449877675
 30
0.0
 10
141.3426070079457
 20
314.2181060354839
 30
0.0
 10
141.3896851105347
 20
314.1153034289051
 30
0.0
 10
141.419732794942
 20
314.0781794083561
 30
0.0
 10
141.4437809339462
 20
314.0781794083561
 30
0.0
  0
SPLINE
  5
1581
330
A
100
AcDbEntity
  8
MODEL
100
AcDbSpline
210
0.0
220
0.0
230
1.0
 70
     8
 71
     3
 72
    12
 73
     8
 74
     0
 42
0.000000001
 43
0.0000000001
 40
0.0
 40
0.0
 40
0.0
 40
0.0
 40
0.2500000000000002
 40
0.2500000000000002
 40
0.5000000000000003
 40
0.5000000000000003
 40
1.0
 40
1.0
 40
1.0
 40
1.0
 10
141.4437809339462
 20
323.947682923464
 30
0.0
 10
141.4317562970374
 20
323.9476829234642
 30
0.0
 10
141.4184849940121
 20
323.9386122971611
 30
0.0
 10
141.3897544904077
 20
323.9032928477554
 30
0.0
 10
141.3741401300177
 20
323.8765681432516
 30
0.0
 10
141.3270665285555
 20
323.7739121012339
 30
0.0
 10
141.2942182818525
 20
323.6735735167494
 30
0.0
 10
141.2669492542105
 20
323.5489151046717
 30
0.0
  0
LINE
  5
1582
330
A
100
AcDbEntity
  8
MODEL
100
AcDbLine
 10
141.4437809338382
 20
323.947682923306
 30
0.0
 11
141.5161791410391
 21
323.947682923306
 31
0.0
  0
LINE
  5
1583
330
A
100
AcDbEntity
  8
MODEL
100
AcDbLine
 10
141.5161791410391
 20
314.0781794081981
 30
0.0
 11
141.4437809338382
 21
314.0781794081981
 31
0.0
  0
LINE
  5
1584
330
A
100
AcDbEntity
  8
MODEL
100
AcDbLine
 10
138.281378403229
 20
323.5489151045137
 30
0.0
 11
138.281378403229
 21
314.4769472269904
 31
0.0
  0
ARC
  5
1585
330
A
100
AcDbEntity
  8
MODEL
100
AcDbCircle
 10
139.0148484919356
 20
314.949632542821
 30
0.0
 40
0.8725879777293846
100
AcDbArc
 50
212.7997847027115
 51
267.0775435305048
  0
ARC
  5
1586
330
A
100
AcDbEntity
  8
MODEL
100
AcDbCircle
 10
139.0037632274872
 20
323.0953826508841
 30
0.0
 40
0.8529545830696289
100
AcDbArc
 50
92.24436969959412
 51
147.8783020671939
  0
LINE
  5
1587
330
A
100
AcDbEntity
  8
MODEL
100
AcDbLine
 10
140.3097244273584
 20
323.947682923306
 30
0.0
 11
138.970360140475
 21
323.947682923306
 31
0.0
  0
SPLINE
  5
1588
330
A
100
AcDbEntity
  8
MODEL
100
AcDbSpline
210
0.0
220
0.0
230
1.0
 70
     8
 71
     3
 72
    12
 73
     8
 74
     0
 42
0.000000001
 43
0.0000000001
 40
0.0
 40
0.0
 40
0.0
 40
0.0
 40
0.2500000000000191
 40
0.2500000000000191
 40
0.5000000000000382
 40
0.5000000000000382
 40
1.0
 40
1.0
 40
1.0
 40
1.0
 10
140.7486284050741
 20
323.5489151046717
 30
0.0
 10
140.725210838452
 20
323.6112538158528
 30
0.0
 10
140.6983096872101
 20
323.6667519347433
 30
0.0
 10
140.637094469976
 20
323.7649173440524
 30
0.0
 10
140.602368670841
 20
323.8077562963362
 30
0.0
 10
140.4906076158655
 20
323.9105589029152
 30
0.0
 10
140.4032923059968
 20
323.9476829234642
 30
0.0
 10
140.3097244273703
 20
323.947682923464
 30
0.0
  0
LINE
  5
1589
330
A
100
AcDbEntity
  8
MODEL
100
AcDbLine
 10
138.970360140475
 20
314.0781794081981
 30
0.0
 11
140.3097244273584
 21
314.0781794081981
 31
0.0
  0
LINE
  5
158A
330
A
100
AcDbEntity
  8
MODEL
100
AcDbLine
 10
140.7486284049625
 20
314.4769472269904
 30
0.0
 11
140.7486284049625
 21
323.5489151045137
 31
0.0
  0
SPLINE
  5
158B
330
A
100
AcDbEntity
  8
MODEL
100
AcDbSpline
210
0.0
220
0.0
230
1.0
 70
     8
 71
     3
 72
    12
 73
     8
 74
     0
 42
0.000000001
 43
0.0000000001
 40
0.0
 40
0.0
 40
0.0
 40
0.0
 40
0.2500000000000006
 40
0.2500000000000006
 40
0.5000000000000012
 40
0.5000000000000012
 40
1.0
 40
1.0
 40
1.0
 40
1.0
 10
140.3097244273703
 20
314.0781794083561
 30
0.0
 10
140.3565105743816
 20
314.0781794083561
 30
0.0
 10
140.4011482983643
 20
314.087250034659
 30
0.0
 10
140.486499635064
 20
314.1225694840647
 30
0.0
 10
140.5274867488205
 20
314.1492941885686
 30
0.0
 10
140.639308393546
 20
314.2519502305863
 30
0.0
 10
140.701800413052
 20
314.3522888150708
 30
0.0
 10
140.7486284050741
 20
314.4769472271485
 30
0.0
  0
ELLIPSE
  5
158C
330
A
100
AcDbEntity
  8
MODEL
100
AcDbEllipse
 10
140.1846855475375
 20
315.0750989551786
 30
0.0
 11
4.323449354518536E-16
 21
-0.9969195469806037
 31
0.0
210
0.0
220
0.0
230
1.0
 40
0.7071067812
 41
0.0
 42
0.9272952180018684
  0
ELLIPSE
  5
158D
330
A
100
AcDbEntity
  8
MODEL
100
AcDbEllipse
 10
140.1846855475375
 20
322.9507633763255
 30
0.0
 11
5.706953147964470E-14
 21
-0.9969195469805482
 31
0.0
210
0.0
220
0.0
230
1.0
 40
0.7071067812
 41
2.214297435587997
 42
3.141592653589793
  0
LINE
  5
158E
330
A
100
AcDbEntity
  8
MODEL
100
AcDbLine
 10
133.5408227651943
 20
323.5489151045137
 30
0.0
 11
133.5408227651943
 21
314.4769472269904
 31
0.0
  0
ARC
  5
158F
330
A
100
AcDbEntity
  8
MODEL
100
AcDbCircle
 10
134.3383584027787
 20
315.0750989551786
 30
0.0
 40
0.9969195469797977
100
AcDbArc
 50
216.8698976457943
 51
270.0
  0
ARC
  5
1590
330
A
100
AcDbEntity
  8
MODEL
100
AcDbCircle
 10
134.3383584027787
 20
322.9507633763255
 30
0.0
 40
0.9969195469791305
100
AcDbArc
 50
90.0
 51
143.1301023542099
  0
LINE
  5
1591
330
A
100
AcDbEntity
  8
MODEL
100
AcDbLine
 10
136.2325055420416
 20
323.947682923306
 30
0.0
 11
134.3383584027787
 21
323.947682923306
 31
0.0
  0
ARC
  5
1592
330
A
100
AcDbEntity
  8
MODEL
100
AcDbCircle
 10
136.2325055420416
 20
322.9507633763255
 30
0.0
 40
0.996919546980592
100
AcDbArc
 50
36.86989764579273
 51
90.0
  0
LINE
  5
1593
330
A
100
AcDbEntity
  8
MODEL
100
AcDbLine
 10
134.3383584027787
 20
314.0781794081981
 30
0.0
 11
136.2325055420416
 21
314.0781794081981
 31
0.0
  0
LINE
  5
1594
330
A
100
AcDbEntity
  8
MODEL
100
AcDbLine
 10
137.0300411796262
 20
314.4769472269904
 30
0.0
 11
137.0300411796262
 21
323.5489151045137
 31
0.0
  0
ARC
  5
1595
330
A
100
AcDbEntity
  8
MODEL
100
AcDbCircle
 10
136.2325055420416
 20
315.0750989551786
 30
0.0
 40
0.9969195469795269
100
AcDbArc
 50
270.0
 51
323.1301023542021
  0
LINE
  5
1596
330
A
100
AcDbEntity
  8
MODEL
100
AcDbLine
 10
129.8222355394593
 20
323.5489151045137
 30
0.0
 11
129.8222355394593
 21
314.4769472269904
 31
0.0
  0
SPLINE
  5
1597
330
A
100
AcDbEntity
  8
MODEL
100
AcDbSpline
210
0.0
220
0.0
230
1.0
 70
     8
 71
     3
 72
    12
 73
     8
 74
     0
 42
0.000000001
 43
0.0000000001
 40
0.0
 40
0.0
 40
0.0
 40
0.0
 40
0.2500000000000003
 40
0.2500000000000003
 40
0.5000000000000007
 40
0.5000000000000007
 40
1.0
 40
1.0
 40
1.0
 40
1.0
 10
129.8222355395793
 20
314.4769472271487
 30
0.0
 10
129.8456531062014
 20
314.4146085159677
 30
0.0
 10
129.8725542574431
 20
314.359110397077
 30
0.0
 10
129.9337694746779
 20
314.2609449877676
 30
0.0
 10
129.9684952738122
 20
314.2181060354839
 30
0.0
 10
130.0802563287876
 20
314.1153034289051
 30
0.0
 10
130.1675716386568
 20
314.0781794083561
 30
0.0
 10
130.2611395172836
 20
314.0781794083561
 30
0.0
  0
SPLINE
  5
1598
330
A
100
AcDbEntity
  8
MODEL
100
AcDbSpline
210
0.0
220
0.0
230
1.0
 70
     8
 71
     3
 72
    12
 73
     8
 74
     0
 42
0.000000001
 43
0.0000000001
 40
0.0
 40
0.0
 40
0.0
 40
0.0
 40
0.2499999999999999
 40
0.2499999999999999
 40
0.4999999999999998
 40
0.4999999999999998
 40
1.0
 40
1.0
 40
1.0
 40
1.0
 10
130.2611395172836
 20
323.947682923464
 30
0.0
 10
130.2143533702716
 20
323.947682923464
 30
0.0
 10
130.1697156462889
 20
323.9386122971612
 30
0.0
 10
130.0843643095897
 20
323.9032928477556
 30
0.0
 10
130.0433771958334
 20
323.8765681432516
 30
0.0
 10
129.9315555511076
 20
323.7739121012339
 30
0.0
 10
129.8690635316015
 20
323.6735735167494
 30
0.0
 10
129.8222355395793
 20
323.5489151046715
 30
0.0
  0
LINE
  5
1599
330
A
100
AcDbEntity
  8
MODEL
100
AcDbLine
 10
131.6005038039467
 20
323.947682923306
 30
0.0
 11
130.2611395174621
 21
323.947682923306
 31
0.0
  0
ARC
  5
159A
330
A
100
AcDbEntity
  8
MODEL
100
AcDbCircle
 10
131.5560154524861
 20
323.0762297890819
 30
0.0
 40
0.8725879777294236
100
AcDbArc
 50
32.79978470280782
 51
87.0775435305199
  0
LINE
  5
159B
330
A
100
AcDbEntity
  8
MODEL
100
AcDbLine
 10
130.2611395174621
 20
314.0781794081981
 30
0.0
 11
131.6005038039467
 21
314.0781794081981
 31
0.0
  0
LINE
  5
159C
330
A
100
AcDbEntity
  8
MODEL
100
AcDbLine
 10
132.2894855415915
 20
314.4769472269904
 30
0.0
 11
132.2894855415915
 21
323.5489151045137
 31
0.0
  0
ARC
  5
159D
330
A
100
AcDbEntity
  8
MODEL
100
AcDbCircle
 10
131.5671007173333
 20
314.9304796810188
 30
0.0
 40
0.8529545830688178
100
AcDbArc
 50
272.2443696995809
 51
327.8783020671954
  0
ELLIPSE
  5
159E
330
A
100
AcDbEntity
  8
MODEL
100
AcDbEllipse
 10
130.3861783972831
 20
322.9507633763255
 30
0.0
 11
-1.729379741807415E-15
 21
0.9969195469806037
 31
0.0
210
0.0
220
0.0
230
1.0
 40
0.7071067812
 41
0.0
 42
0.9272952180020806
  0
ELLIPSE
  5
159F
330
A
100
AcDbEntity
  8
MODEL
100
AcDbEllipse
 10
130.3861783972831
 20
315.0750989551786
 30
0.0
 11
-1.037627845084449E-14
 21
0.9969195469806037
 31
0.0
210
0.0
220
0.0
230
1.0
 40
0.7071067812
 41
2.214297435587633
 42
3.141592653589793
  0
LINE
  5
15A0
330
A
100
AcDbEntity
  8
MODEL
100
AcDbLine
 10
129.0546848037815
 20
329.9292002051897
 30
0.0
 11
141.5161791410391
 21
329.9292002051897
 31
0.0
  0
ARC
  5
15A1
330
A
100
AcDbEntity
  8
MODEL
100
AcDbCircle
 10
129.5531445772718
 20
312.4831081330291
 30
0.0
 40
0.4984597734903018
100
AcDbArc
 50
180.0
 51
270.0
  0
ARC
  5
15A2
330
A
100
AcDbEntity
  8
MODEL
100
AcDbCircle
 10
141.0177193675487
 20
312.4831081330291
 30
0.0
 40
0.4984597734902464
100
AcDbArc
 50
270.0
 51
0.0
  0
LINE
  5
15A3
330
A
100
AcDbEntity
  8
MODEL
100
AcDbLine
 10
129.0546848037815
 20
314.0781794081981
 30
0.0
 11
129.0546848037815
 21
312.4831081330291
 31
0.0
  0
LINE
  5
15A4
330
A
100
AcDbEntity
  8
MODEL
100
AcDbLine
 10
129.0546848037815
 20
329.9292002051897
 30
0.0
 11
129.0546848037815
 21
323.947682923306
 31
0.0
  0
LINE
  5
15A5
330
A
100
AcDbEntity
  8
MODEL
100
AcDbLine
 10
141.5161791410391
 20
323.947682923306
 30
0.0
 11
141.5161791410391
 21
329.9292002051897
 31
0.0
  0
LINE
  5
15A6
330
A
100
AcDbEntity
  8
MODEL
100
AcDbLine
 10
141.5161791410391
 20
312.4831081330291
 30
0.0
 11
141.5161791410391
 21
314.0781794081981
 31
0.0
  0
LINE
  5
15A7
330
A
100
AcDbEntity
  8
MODEL
100
AcDbLine
 10
144.7561676687261
 20
308.2744250076717
 30
0.0
 11
144.7561676687261
 21
299.0463152772285
 31
0.0
  0
LINE
  5
15A8
330
A
100
AcDbEntity
  8
MODEL
100
AcDbLine
 10
144.7561676687261
 20
308.7061029965752
 30
0.0
 11
144.7561676687261
 21
308.2744250076717
 31
0.0
  0
LINE
  5
15A9
330
A
100
AcDbEntity
  8
MODEL
100
AcDbLine
 10
144.7561676687261
 20
298.6146372883251
 30
0.0
 11
144.7561676687261
 21
299.0463152772285
 31
0.0
  0
LINE
  5
15AA
330
A
100
AcDbEntity
  8
MODEL
100
AcDbLine
 10
143.3436053524698
 20
299.0463152772285
 30
0.0
 11
144.7561676687261
 21
299.0463152772285
 31
0.0
  0
LINE
  5
15AB
330
A
100
AcDbEntity
  8
MODEL
100
AcDbLine
 10
143.3436053524698
 20
308.2744250076717
 30
0.0
 11
144.7561676687261
 21
308.2744250076717
 31
0.0
  0
LINE
  5
15AC
330
A
100
AcDbEntity
  8
MODEL
100
AcDbLine
 10
143.3436053524698
 20
299.0463152772285
 30
0.0
 11
143.3436053524698
 21
308.2744250076717
 31
0.0
  0
LINE
  5
15AD
330
A
100
AcDbEntity
  8
MODEL
100
AcDbLine
 10
144.2577078952355
 20
308.993889718597
 30
0.0
 11
144.7561676687261
 21
308.7061038343864
 31
0.0
  0
LINE
  5
15AE
330
A
100
AcDbEntity
  8
MODEL
100
AcDbLine
 10
144.7561676687261
 20
298.6146364505138
 30
0.0
 11
144.2577078952355
 21
298.3268505659045
 31
0.0
  0
SPLINE
  5
15AF
330
A
100
AcDbEntity
  8
MODEL
100
AcDbSpline
210
0.0
220
0.0
230
1.0
 70
     8
 71
     3
 72
    13
 73
     9
 74
     0
 42
0.000000001
 43
0.0000000001
 40
0.0
 40
0.0
 40
0.0
 40
0.0
 40
0.1220008877905547
 40
0.3146173371653271
 40
0.4137034899868766
 40
0.4137034899868766
 40
0.4137034899868766
 40
1.0
 40
1.0
 40
1.0
 40
1.0
 10
140.346921796889
 20
347.7778267825626
 30
0.0
 10
139.6704279182844
 20
347.9009532040677
 30
0.0
 10
137.999258727733
 20
348.0450766286837
 30
0.0
 10
136.7197208091862
 20
346.5219979004381
 30
0.0
 10
134.9950430115961
 20
346.4709957973305
 30
0.0
 10
134.4480373136197
 20
346.4874883258271
 30
0.0
 10
132.7540534579088
 20
346.5385628888825
 30
0.0
 10
131.4325253619651
 20
346.9139548871614
 30
0.0
 10
130.2239337315358
 20
347.4184594892285
 30
0.0
  0
LINE
  5
15B0
330
A
100
AcDbEntity
  8
MODEL
100
AcDbLine
 10
140.3469219859613
 20
329.9292010266514
 30
0.0
 11
140.3469219859613
 21
347.7778267823891
 31
0.0
  0
LINE
  5
15B1
330
A
100
AcDbEntity
  8
MODEL
100
AcDbLine
 10
135.492484817015
 20
329.929200239085
 30
0.0
 11
140.3469217969451
 21
334.7836372190154
 31
0.0
  0
LINE
  5
15B2
330
A
100
AcDbEntity
  8
MODEL
100
AcDbLine
 10
130.2239337314815
 20
330.3000777293982
 30
0.0
 11
140.3469217969451
 21
340.4230657944631
 31
0.0
  0
LINE
  5
15B3
330
A
100
AcDbEntity
  8
MODEL
100
AcDbLine
 10
130.2239337314815
 20
335.9395063048459
 30
0.0
 11
140.3469219859613
 21
346.0624945593256
 31
0.0
  0
LINE
  5
15B4
330
A
100
AcDbEntity
  8
MODEL
100
AcDbLine
 10
132.3035739436301
 20
346.7487937236457
 30
0.0
 11
140.3469219859613
 21
338.7054456813148
 31
0.0
  0
LINE
  5
15B5
330
A
100
AcDbEntity
  8
MODEL
100
AcDbLine
 10
130.2239337314815
 20
343.1890053599478
 30
0.0
 11
140.3469219859613
 21
333.0660171054681
 31
0.0
  0
LINE
  5
15B6
330
A
100
AcDbEntity
  8
MODEL
100
AcDbLine
 10
130.2239337314815
 20
337.5495767841012
 30
0.0
 11
137.8443098952758
 21
329.9292006207058
 31
0.0
  0
LINE
  5
15B7
330
A
100
AcDbEntity
  8
MODEL
100
AcDbLine
 10
130.2239337314815
 20
331.9101482086534
 30
0.0
 11
132.2048822346015
 21
329.9291997055336
 31
0.0
  0
LINE
  5
15B8
330
A
100
AcDbEntity
  8
MODEL
100
AcDbLine
 10
130.2239337314815
 20
347.4184594890948
 30
0.0
 11
130.2239337314815
 21
329.929199383728
 31
0.0
  0
LINE
  5
15B9
330
A
100
AcDbEntity
  8
MODEL
100
AcDbLine
 10
130.2239337314815
 20
341.5789348806924
 30
0.0
 11
135.1352439834205
 21
346.4902451326314
 31
0.0
  0
LINE
  5
15BA
330
A
100
AcDbEntity
  8
MODEL
100
AcDbLine
 10
130.2239337314815
 20
347.218363456539
 30
0.0
 11
130.3656802922441
 21
347.3601100173016
 31
0.0
  0
LINE
  5
15BB
330
A
100
AcDbEntity
  8
MODEL
100
AcDbLine
 10
137.3999760673547
 20
347.2918201757677
 30
0.0
 11
140.3469219859613
 21
344.3448742571613
 31
0.0
  0
LINE
  5
15BC
330
A
100
AcDbEntity
  8
MODEL
100
AcDbLine
 10
143.5897717987588
 20
290.3514941900597
 30
0.0
 11
143.5897717987588
 21
298.3268505659045
 31
0.0
  0
LINE
  5
15BD
330
A
100
AcDbEntity
  8
MODEL
100
AcDbLine
 10
145.2546274422162
 20
276.3946205323313
 30
0.0
 11
145.2546274422162
 21
288.6866385466021
 31
0.0
  0
LINE
  5
15BE
330
A
100
AcDbEntity
  8
MODEL
100
AcDbLine
 10
145.2546274422162
 20
288.6866385466021
 30
0.0
 11
143.5897717987588
 21
290.3514941900597
 31
0.0
  0
LINE
  5
15BF
330
A
100
AcDbEntity
  8
MODEL
100
AcDbLine
 10
123.322397408643
 20
254.1849356631014
 30
0.0
 11
123.322397408643
 21
253.4654709517774
 31
0.0
  0
LINE
  5
15C0
330
A
100
AcDbEntity
  8
MODEL
100
AcDbLine
 10
147.2484665361775
 20
253.4654709517774
 30
0.0
 11
141.2669492542938
 21
253.4654709517774
 31
0.0
  0
LINE
  5
15C1
330
A
100
AcDbEntity
  8
MODEL
100
AcDbLine
 10
129.3039146905268
 20
253.4654709517774
 30
0.0
 11
123.322397408643
 21
253.4654709517774
 31
0.0
  0
LINE
  5
15C2
330
A
100
AcDbEntity
  8
MODEL
100
AcDbLine
 10
141.2669492542938
 20
253.4654709517774
 30
0.0
 11
129.3039146905268
 21
253.4654709517774
 31
0.0
  0
LINE
  5
15C3
330
A
100
AcDbEntity
  8
MODEL
100
AcDbLine
 10
136.4165616997544
 20
254.1849356631014
 30
0.0
 11
134.1543022450661
 21
254.1849356631014
 31
0.0
  0
LINE
  5
15C4
330
A
100
AcDbEntity
  8
MODEL
100
AcDbLine
 10
145.2546274422162
 20
288.6866385466021
 30
0.0
 11
125.3162365026043
 21
288.6866385466021
 31
0.0
  0
LINE
  5
15C5
330
A
100
AcDbEntity
  8
MODEL
100
AcDbLine
 10
143.5897717987588
 20
290.3514941900597
 30
0.0
 11
126.9810921460618
 21
290.3514941900597
 31
0.0
  0
LINE
  5
15C6
330
A
100
AcDbEntity
  8
MODEL
100
AcDbLine
 10
146.1173368088336
 20
275.675155821406
 30
0.0
 11
146.1173368088336
 21
254.1849356631014
 31
0.0
  0
ARC
  5
15C7
330
A
100
AcDbEntity
  8
MODEL
100
AcDbCircle
 10
141.1270150645565
 20
258.7416636792546
 30
0.0
 40
17.65351147059155
100
AcDbArc
 50
73.57968742610016
 51
89.54582846340006
  0
LINE
  5
15C8
330
A
100
AcDbEntity
  8
MODEL
100
AcDbLine
 10
124.453527135987
 20
254.1849356631014
 30
0.0
 11
124.453527135987
 21
275.675155821406
 31
0.0
  0
ARC
  5
15C9
330
A
100
AcDbEntity
  8
MODEL
100
AcDbCircle
 10
129.4435401282987
 20
258.7437451790794
 30
0.0
 40
17.65142759104825
100
AcDbArc
 50
90.45322292949935
 51
106.4212611809991
  0
ARC
  5
15CA
330
A
100
AcDbEntity
  8
MODEL
100
AcDbCircle
 10
141.1273238165214
 20
271.1163463054281
 30
0.0
 40
17.65142759104614
100
AcDbArc
 50
270.4532229295009
 51
286.4212611810008
  0
ARC
  5
15CB
330
A
100
AcDbEntity
  8
MODEL
100
AcDbCircle
 10
141.4068834436326
 20
271.1184278052528
 30
0.0
 40
17.65351147059223
100
AcDbArc
 50
253.5796874261001
 51
269.5458284634001
  0
ARC
  5
15CC
330
A
100
AcDbEntity
  8
MODEL
100
AcDbCircle
 10
129.1642892527544
 20
271.1163463054281
 30
0.0
 40
17.65142759104936
100
AcDbArc
 50
270.4532229295
 51
286.4212611809995
  0
ARC
  5
15CD
330
A
100
AcDbEntity
  8
MODEL
100
AcDbCircle
 10
129.1639805007891
 20
258.7416636792546
 30
0.0
 40
17.65351147059453
100
AcDbArc
 50
73.57968742609918
 51
89.54582846339937
  0
LINE
  5
15CE
330
A
100
AcDbEntity
  8
MODEL
100
AcDbLine
 10
136.4165616997544
 20
254.1849356631014
 30
0.0
 11
136.4165616997544
 21
275.675155821406
 31
0.0
  0
LINE
  5
15CF
330
A
100
AcDbEntity
  8
MODEL
100
AcDbLine
 10
134.1543022450661
 20
275.675155821406
 30
0.0
 11
134.1543022450661
 21
254.1849356631014
 31
0.0
  0
LINE
  5
15D0
330
A
100
AcDbEntity
  8
MODEL
100
AcDbLine
 10
123.322397408643
 20
275.675155821406
 30
0.0
 11
123.322397408643
 21
254.1849356631014
 31
0.0
  0
LINE
  5
15D1
330
A
100
AcDbEntity
  8
MODEL
100
AcDbLine
 10
123.322397408643
 20
276.3946205323313
 30
0.0
 11
123.322397408643
 21
275.675155821406
 31
0.0
  0
ARC
  5
15D2
330
A
100
AcDbEntity
  8
MODEL
100
AcDbCircle
 10
129.4438488798652
 20
271.1184278052528
 30
0.0
 40
17.65351147059546
100
AcDbArc
 50
253.5796874261001
 51
269.5458284634002
  0
LINE
  5
15D3
330
A
100
AcDbEntity
  8
MODEL
100
AcDbLine
 10
129.3039146905268
 20
276.3946205323313
 30
0.0
 11
123.322397408643
 21
276.3946205323313
 31
0.0
  0
LINE
  5
15D4
330
A
100
AcDbEntity
  8
MODEL
100
AcDbLine
 10
124.453527135987
 20
275.675155821406
 30
0.0
 11
123.322397408643
 21
275.675155821406
 31
0.0
  0
LINE
  5
15D5
330
A
100
AcDbEntity
  8
MODEL
100
AcDbLine
 10
136.4165616997544
 20
275.675155821406
 30
0.0
 11
134.1543022450661
 21
275.675155821406
 31
0.0
  0
LINE
  5
15D6
330
A
100
AcDbEntity
  8
MODEL
100
AcDbLine
 10
124.453527135987
 20
254.1849356631014
 30
0.0
 11
123.322397408643
 21
254.1849356631014
 31
0.0
  0
LINE
  5
15D7
330
A
100
AcDbEntity
  8
MODEL
100
AcDbLine
 10
147.2484665361775
 20
254.1849356631014
 30
0.0
 11
146.1173368088336
 21
254.1849356631014
 31
0.0
  0
LINE
  5
15D8
330
A
100
AcDbEntity
  8
MODEL
100
AcDbLine
 10
147.2484665361775
 20
276.3946205323313
 30
0.0
 11
141.2669492542938
 21
276.3946205323313
 31
0.0
  0
LINE
  5
15D9
330
A
100
AcDbEntity
  8
MODEL
100
AcDbLine
 10
141.2669492542938
 20
276.3946205323313
 30
0.0
 11
129.3039146905268
 21
276.3946205323313
 31
0.0
  0
LINE
  5
15DA
330
A
100
AcDbEntity
  8
MODEL
100
AcDbLine
 10
147.2484665361775
 20
254.1849356631014
 30
0.0
 11
147.2484665361775
 21
275.675155821406
 31
0.0
  0
LINE
  5
15DB
330
A
100
AcDbEntity
  8
MODEL
100
AcDbLine
 10
147.2484665361775
 20
253.4654709517774
 30
0.0
 11
147.2484665361775
 21
254.1849356631014
 31
0.0
  0
ARC
  5
15DC
330
A
100
AcDbEntity
  8
MODEL
100
AcDbCircle
 10
141.4065746920661
 20
258.7437451790794
 30
0.0
 40
17.65142759104491
100
AcDbArc
 50
90.45322292950017
 51
106.421261181
  0
LINE
  5
15DD
330
A
100
AcDbEntity
  8
MODEL
100
AcDbLine
 10
147.2484665361775
 20
275.675155821406
 30
0.0
 11
146.1173368088336
 21
275.675155821406
 31
0.0
  0
LINE
  5
15DE
330
A
100
AcDbEntity
  8
MODEL
100
AcDbLine
 10
147.2484665361775
 20
275.675155821406
 30
0.0
 11
147.2484665361775
 21
276.3946205323313
 31
0.0
  0
LINE
  5
15DF
330
A
100
AcDbEntity
  8
MODEL
100
AcDbLine
 10
126.9810921460618
 20
298.3268505659045
 30
0.0
 11
126.9810921460618
 21
290.3514941900597
 31
0.0
  0
LINE
  5
15E0
330
A
100
AcDbEntity
  8
MODEL
100
AcDbLine
 10
125.3162365026043
 20
288.6866385466021
 30
0.0
 11
125.3162365026043
 21
276.3946205323313
 31
0.0
  0
LINE
  5
15E1
330
A
100
AcDbEntity
  8
MODEL
100
AcDbLine
 10
126.9810921460618
 20
290.3514941900597
 30
0.0
 11
125.3162365026043
 21
288.6866385466021
 31
0.0
  0
LINE
  5
15E2
330
A
100
AcDbEntity
  8
MODEL
100
AcDbLine
 10
143.5897717987588
 20
295.3360919249628
 30
0.0
 11
126.9810921460618
 21
295.3360919249628
 31
0.0
  0
LINE
  5
15E3
330
A
100
AcDbEntity
  8
MODEL
100
AcDbLine
 10
143.5897717987588
 20
298.3268505659045
 30
0.0
 11
126.9810921460618
 21
298.3268505659045
 31
0.0
  0
LINE
  5
15E4
330
A
100
AcDbEntity
  8
MODEL
100
AcDbLine
 10
243.281726496819
 20
290.3514941900597
 30
0.0
 11
243.281726496819
 21
298.3268505659045
 31
0.0
  0
LINE
  5
15E5
330
A
100
AcDbEntity
  8
MODEL
100
AcDbLine
 10
244.9465821402765
 20
276.3946205323313
 30
0.0
 11
244.9465821402765
 21
288.6866385466021
 31
0.0
  0
LINE
  5
15E6
330
A
100
AcDbEntity
  8
MODEL
100
AcDbLine
 10
244.9465821402765
 20
288.6866385466021
 30
0.0
 11
243.281726496819
 21
290.3514941900597
 31
0.0
  0
LINE
  5
15E7
330
A
100
AcDbEntity
  8
MODEL
100
AcDbLine
 10
223.0143521067035
 20
254.1849356631014
 30
0.0
 11
223.0143521067035
 21
253.4654709517774
 31
0.0
  0
LINE
  5
15E8
330
A
100
AcDbEntity
  8
MODEL
100
AcDbLine
 10
246.9404212342375
 20
253.4654709517774
 30
0.0
 11
240.958903952354
 21
253.4654709517774
 31
0.0
  0
LINE
  5
15E9
330
A
100
AcDbEntity
  8
MODEL
100
AcDbLine
 10
228.995869388587
 20
253.4654709517774
 30
0.0
 11
223.0143521067035
 21
253.4654709517774
 31
0.0
  0
LINE
  5
15EA
330
A
100
AcDbEntity
  8
MODEL
100
AcDbLine
 10
240.958903952354
 20
253.4654709517774
 30
0.0
 11
228.995869388587
 21
253.4654709517774
 31
0.0
  0
LINE
  5
15EB
330
A
100
AcDbEntity
  8
MODEL
100
AcDbLine
 10
236.1085163978147
 20
254.1849356631014
 30
0.0
 11
233.8462569431264
 21
254.1849356631014
 31
0.0
  0
LINE
  5
15EC
330
A
100
AcDbEntity
  8
MODEL
100
AcDbLine
 10
244.9465821402765
 20
288.6866385466021
 30
0.0
 11
225.0081912006646
 21
288.6866385466021
 31
0.0
  0
LINE
  5
15ED
330
A
100
AcDbEntity
  8
MODEL
100
AcDbLine
 10
243.281726496819
 20
290.3514941900597
 30
0.0
 11
226.673046844122
 21
290.3514941900597
 31
0.0
  0
LINE
  5
15EE
330
A
100
AcDbEntity
  8
MODEL
100
AcDbLine
 10
245.8092915068938
 20
275.675155821406
 30
0.0
 11
245.8092915068938
 21
254.1849356631014
 31
0.0
  0
ARC
  5
15EF
330
A
100
AcDbEntity
  8
MODEL
100
AcDbCircle
 10
240.8189697626168
 20
258.7416636792546
 30
0.0
 40
17.65351147059155
100
AcDbArc
 50
73.57968742610097
 51
89.54582846340006
  0
LINE
  5
15F0
330
A
100
AcDbEntity
  8
MODEL
100
AcDbLine
 10
224.1454818340472
 20
254.1849356631014
 30
0.0
 11
224.1454818340472
 21
275.675155821406
 31
0.0
  0
ARC
  5
15F1
330
A
100
AcDbEntity
  8
MODEL
100
AcDbCircle
 10
229.1354948263594
 20
258.7437451790794
 30
0.0
 40
17.65142759104825
100
AcDbArc
 50
90.45322292950082
 51
106.4212611810006
  0
ARC
  5
15F2
330
A
100
AcDbEntity
  8
MODEL
100
AcDbCircle
 10
240.8192785145817
 20
271.1163463054281
 30
0.0
 40
17.65142759104614
100
AcDbArc
 50
270.4532229295009
 51
286.4212611810011
  0
ARC
  5
15F3
330
A
100
AcDbEntity
  8
MODEL
100
AcDbCircle
 10
241.0988381416929
 20
271.1184278052528
 30
0.0
 40
17.65351147059223
100
AcDbArc
 50
253.5796874261001
 51
269.5458284634001
  0
ARC
  5
15F4
330
A
100
AcDbEntity
  8
MODEL
100
AcDbCircle
 10
228.8562439508147
 20
271.1163463054281
 30
0.0
 40
17.65142759104936
100
AcDbArc
 50
270.4532229295007
 51
286.4212611809995
  0
ARC
  5
15F5
330
A
100
AcDbEntity
  8
MODEL
100
AcDbCircle
 10
228.8559351988494
 20
258.7416636792546
 30
0.0
 40
17.65351147059453
100
AcDbArc
 50
73.57968742609918
 51
89.54582846340011
  0
LINE
  5
15F6
330
A
100
AcDbEntity
  8
MODEL
100
AcDbLine
 10
236.1085163978147
 20
254.1849356631014
 30
0.0
 11
236.1085163978147
 21
275.675155821406
 31
0.0
  0
LINE
  5
15F7
330
A
100
AcDbEntity
  8
MODEL
100
AcDbLine
 10
233.8462569431264
 20
275.675155821406
 30
0.0
 11
233.8462569431264
 21
254.1849356631014
 31
0.0
  0
LINE
  5
15F8
330
A
100
AcDbEntity
  8
MODEL
100
AcDbLine
 10
223.0143521067035
 20
275.675155821406
 30
0.0
 11
223.0143521067035
 21
254.1849356631014
 31
0.0
  0
LINE
  5
15F9
330
A
100
AcDbEntity
  8
MODEL
100
AcDbLine
 10
223.0143521067035
 20
276.3946205323313
 30
0.0
 11
223.0143521067035
 21
275.675155821406
 31
0.0
  0
ARC
  5
15FA
330
A
100
AcDbEntity
  8
MODEL
100
AcDbCircle
 10
229.1358035779255
 20
271.1184278052528
 30
0.0
 40
17.65351147059546
100
AcDbArc
 50
253.5796874261001
 51
269.5458284634002
  0
LINE
  5
15FB
330
A
100
AcDbEntity
  8
MODEL
100
AcDbLine
 10
228.995869388587
 20
276.3946205323313
 30
0.0
 11
223.0143521067035
 21
276.3946205323313
 31
0.0
  0
LINE
  5
15FC
330
A
100
AcDbEntity
  8
MODEL
100
AcDbLine
 10
224.1454818340472
 20
275.675155821406
 30
0.0
 11
223.0143521067035
 21
275.675155821406
 31
0.0
  0
LINE
  5
15FD
330
A
100
AcDbEntity
  8
MODEL
100
AcDbLine
 10
236.1085163978147
 20
275.675155821406
 30
0.0
 11
233.8462569431264
 21
275.675155821406
 31
0.0
  0
LINE
  5
15FE
330
A
100
AcDbEntity
  8
MODEL
100
AcDbLine
 10
224.1454818340472
 20
254.1849356631014
 30
0.0
 11
223.0143521067035
 21
254.1849356631014
 31
0.0
  0
LINE
  5
15FF
330
A
100
AcDbEntity
  8
MODEL
100
AcDbLine
 10
246.9404212342375
 20
254.1849356631014
 30
0.0
 11
245.8092915068938
 21
254.1849356631014
 31
0.0
  0
LINE
  5
1600
330
A
100
AcDbEntity
  8
MODEL
100
AcDbLine
 10
246.9404212342375
 20
276.3946205323313
 30
0.0
 11
240.958903952354
 21
276.3946205323313
 31
0.0
  0
LINE
  5
1601
330
A
100
AcDbEntity
  8
MODEL
100
AcDbLine
 10
240.958903952354
 20
276.3946205323313
 30
0.0
 11
228.995869388587
 21
276.3946205323313
 31
0.0
  0
LINE
  5
1602
330
A
100
AcDbEntity
  8
MODEL
100
AcDbLine
 10
246.9404212342375
 20
254.1849356631014
 30
0.0
 11
246.9404212342375
 21
275.675155821406
 31
0.0
  0
LINE
  5
1603
330
A
100
AcDbEntity
  8
MODEL
100
AcDbLine
 10
246.9404212342375
 20
253.4654709517774
 30
0.0
 11
246.9404212342375
 21
254.1849356631014
 31
0.0
  0
ARC
  5
1604
330
A
100
AcDbEntity
  8
MODEL
100
AcDbCircle
 10
241.0985293901264
 20
258.7437451790794
 30
0.0
 40
17.65142759104491
100
AcDbArc
 50
90.45322292950092
 51
106.4212611810007
  0
LINE
  5
1605
330
A
100
AcDbEntity
  8
MODEL
100
AcDbLine
 10
246.9404212342375
 20
275.675155821406
 30
0.0
 11
245.8092915068938
 21
275.675155821406
 31
0.0
  0
LINE
  5
1606
330
A
100
AcDbEntity
  8
MODEL
100
AcDbLine
 10
246.9404212342375
 20
275.675155821406
 30
0.0
 11
246.9404212342375
 21
276.3946205323313
 31
0.0
  0
LINE
  5
1607
330
A
100
AcDbEntity
  8
MODEL
100
AcDbLine
 10
226.673046844122
 20
298.3268505659045
 30
0.0
 11
226.673046844122
 21
290.3514941900597
 31
0.0
  0
LINE
  5
1608
330
A
100
AcDbEntity
  8
MODEL
100
AcDbLine
 10
225.0081912006646
 20
288.6866385466021
 30
0.0
 11
225.0081912006646
 21
276.3946205323313
 31
0.0
  0
LINE
  5
1609
330
A
100
AcDbEntity
  8
MODEL
100
AcDbLine
 10
226.673046844122
 20
290.3514941900597
 30
0.0
 11
225.0081912006646
 21
288.6866385466021
 31
0.0
  0
LINE
  5
160A
330
A
100
AcDbEntity
  8
MODEL
100
AcDbLine
 10
243.281726496819
 20
295.3360919249628
 30
0.0
 11
226.673046844122
 21
295.3360919249628
 31
0.0
  0
LINE
  5
160B
330
A
100
AcDbEntity
  8
MODEL
100
AcDbLine
 10
243.281726496819
 20
298.3268505659045
 30
0.0
 11
226.673046844122
 21
298.3268505659045
 31
0.0
  0
DIMENSION
  5
160E
330
A
100
AcDbEntity
  8
DIM
100
AcDbDimension
  2
*D7
 10
695.4946287662863
 20
977.2721363221665
 30
0.0
 11
697.238583067543
 21
923.6923761689061
 31
0.0
 70
   162
  1
\A1;<>
 71
     5
 42
0.8726646259971899
 73
     0
 74
     0
 75
     0
  3
tfrom線あり
100
AcDb2LineAngularDimension
 13
582.3364166195786
 23
977.2721363221665
 33
0.0
 14
648.4326551294419
 24
898.5017066210692
 34
0.0
 15
582.3364166195786
 25
977.2721363221665
 35
0.0
 16
688.2599902060906
 26
907.6051060195953
 36
0.0
1001
ACAD
1000
DSTYLE
1002
{
1070
    77
1070
     1
1070
   179
1070
     0
1002
}
  0
DIMENSION
  5
1610
330
A
100
AcDbEntity
  8
DIM
100
AcDbDimension
  2
*D8
 10
677.3144614939961
 20
694.1996501622788
 30
0.0
 11
685.4984184331834
 21
668.4607143323924
 31
0.0
 70
   162
  1
\A1;<>
 71
     5
 42
0.6108652382454348
 73
     0
 74
     0
 75
     0
  3
tfrom線あり
100
AcDb2LineAngularDimension
 13
676.1987719365666
 23
695.7930199797039
 33
0.0
 14
676.1987719365666
 24
694.505702022344
 34
0.0
 15
676.1987719365666
 25
695.7930199797039
 35
0.0
 16
682.037008481417
 26
667.5184138638539
 36
0.0
1001
ACAD
1000
DSTYLE
1002
{
1070
    77
1070
     2
1070
   179
1070
     0
1002
}
  0
MTEXT
  5
1714
330
A
100
AcDbEntity
  8
DIM
390
1D
100
AcDbMText
 10
104.7018208254565
 20
861.4033574010878
 30
0.0
 40
9.773046875
 41
0.0
 46
9.773046875
 71
     1
 72
     1
  1
{※φ35の水栓取付穴にも適合します。}
  7
ＭＳ ゴシック
 73
     1
 44
0.7828267384257843
1001
ACAD
1000
ACAD_MTEXT_DEFINED_HEIGHT_BEGIN
1070
    46
1040
9.773046875
1000
ACAD_MTEXT_DEFINED_HEIGHT_END
  0
MTEXT
  5
1744
330
A
100
AcDbEntity
  8
DIM
390
1D
100
AcDbMText
 10
151.3294215707814
 20
995.4810418072702
 30
0.0
 40
9.773046875
 41
0.0
 46
9.773046875
 71
     1
 72
     1
  1
{水栓取付穴}
  7
ＭＳ ゴシック
 73
     1
 44
0.7828267384257843
1001
ACAD
1000
ACAD_MTEXT_DEFINED_HEIGHT_BEGIN
1070
    46
1040
9.773046875
1000
ACAD_MTEXT_DEFINED_HEIGHT_END
  0
DIMENSION
  5
1752
330
A
100
AcDbEntity
  8
DIM
100
AcDbDimension
  2
*D9
 10
676.3899167691775
 20
815.6652411493675
 30
0.0
 11
629.3899167691775
 21
831.6652411493675
 31
0.0
 70
    32
 71
     5
 42
94.0
 73
     0
 74
     0
 75
     0
  3
tfrom線あり
100
AcDbAlignedDimension
 13
582.3899167691775
 23
770.2981836049703
 33
0.0
 14
676.3899167691775
 24
708.7643699364108
 34
0.0
100
AcDbRotatedDimension
  0
DIMENSION
  5
1761
330
A
100
AcDbEntity
  8
DIM
100
AcDbDimension
  2
*D10
 10
727.8398913472465
 20
584.7930199689371
 30
0.0
 11
727.8398913472465
 21
640.2930199743205
 31
0.0
 70
   160
 71
     5
 42
111.0000000107668
 73
     0
 74
     0
 75
     0
  3
tfrom線あり
100
AcDbAlignedDimension
 13
676.1987719365666
 23
695.7930199797039
 33
0.0
 14
639.9082577066943
 24
584.7930199689371
 34
0.0
 50
90.0
100
AcDbRotatedDimension
  0
DIMENSION
  5
1770
330
A
100
AcDbEntity
  8
DIM
100
AcDbDimension
  2
*D11
 10
282.0045447149042
 20
584.7930199689371
 30
0.0
 11
266.0045447149042
 21
671.5338809270864
 31
0.0
 70
    32
 71
     5
 42
173.4817219162987
 73
     0
 74
     0
 75
     0
  3
tfrom線あり
100
AcDbAlignedDimension
 13
213.7557812088581
 23
758.2747418852358
 33
0.0
 14
213.7557812088581
 24
584.7930199689371
 34
0.0
 50
90.0
100
AcDbRotatedDimension
  0
DIMENSION
  5
177F
330
A
100
AcDbEntity
  8
DIM
100
AcDbDimension
  2
*D12
 10
452.8371579273958
 20
792.7930199689371
 30
0.0
 11
436.8371579273958
 21
688.7930199689371
 31
0.0
 70
    32
 71
     5
 42
208.0
 73
     0
 74
     0
 75
     0
  3
tfrom線あり
100
AcDbAlignedDimension
 13
553.7120447317623
 23
584.7930199689371
 33
0.0
 14
641.4691808208414
 24
792.7930199689371
 34
0.0
 50
90.0
100
AcDbRotatedDimension
  0
DIMENSION
  5
178D
330
A
100
AcDbEntity
  8
DIM
100
AcDbDimension
  2
*D13
 10
209.0322181320352
 20
560.6748018630999
 30
0.0
 11
233.9427538454037
 21
560.6748018630999
 31
0.0
 70
   160
 71
     5
 42
47.80161762118951
 73
     0
 74
     1
 75
     1
  3
tfrom線あり
100
AcDbAlignedDimension
 13
161.2306005108456
 23
582.9853787017547
 33
0.0
 14
209.0322181320352
 24
582.9853787017547
 34
0.0
100
AcDbRotatedDimension
1001
ACAD
1000
DSTYLE
1002
{
1070
     3
1000
%%C<>
1070
   147
1040
5.0
1070
   172
1070
     1
1002
}
  0
DIMENSION
  5
179F
330
A
100
AcDbEntity
  8
DIM
100
AcDbDimension
  2
*D14
 10
452.8371579273958
 20
253.4654709517774
 30
0.0
 11
452.8371579273958
 21
419.1292454603572
 31
0.0
 70
   160
  1
395
 71
     5
 42
331.3275490171597
 73
     0
 74
     0
 75
     0
  3
tfrom線あり
100
AcDbAlignedDimension
 13
553.7120447317623
 23
584.7930199689371
 33
0.0
 14
560.5784916814075
 24
253.4654709517774
 34
0.0
 50
90.0
100
AcDbRotatedDimension
  0
DIMENSION
  5
17B9
102
{ACAD_REACTORS
330
17BB
102
}
102
{ACAD_XDICTIONARY
360
17BA
102
}
330
A
100
AcDbEntity
  8
DIM
100
AcDbDimension
  2
*D15
 10
639.9082577066943
 20
554.8854335595191
 30
0.0
 11
639.9082577066943
 21
510.0114335595191
 31
0.0
 70
   160
 71
     5
 42
29.90758640941795
 73
     0
 74
     1
 75
     1
  3
tfrom線あり
100
AcDbAlignedDimension
 13
605.9607885069961
 23
584.7930199689371
 33
0.0
 14
609.7517041695205
 24
554.8854335595191
 34
0.0
 50
90.0
100
AcDbRotatedDimension
1001
ACAD
1000
DSTYLE
1002
{
1070
     3
1000
max. <>
1070
   172
1070
     1
1002
}
  0
MTEXT
  5
180A
330
A
100
AcDbEntity
  8
DIM
390
1D
100
AcDbMText
 10
579.3638739131409
 20
247.8172084531622
 30
0.0
 40
12.0
 41
0.0
 46
12.0
 71
     1
 72
     1
  1
{▲}
  7
ＭＳ ゴシック
 73
     1
 44
0.7828267384257843
1001
ACAD
1000
ACAD_MTEXT_DEFINED_HEIGHT_BEGIN
1070
    46
1040
12.0
1000
ACAD_MTEXT_DEFINED_HEIGHT_END
  0
MTEXT
  5
183A
330
A
100
AcDbEntity
  8
DIM
390
1D
100
AcDbMText
 10
570.3229070252037
 20
229.4393800375664
 30
0.0
 40
12.0
 41
0.0
 46
12.0
 71
     1
 72
     1
  1
{G1/2}
  7
ＭＳ ゴシック
 73
     1
 44
0.7828267384257843
1001
ACAD
1000
ACAD_MTEXT_DEFINED_HEIGHT_BEGIN
1070
    46
1040
12.0
1000
ACAD_MTEXT_DEFINED_HEIGHT_END
  0
MTEXT
  5
183B
330
A
100
AcDbEntity
  8
DIM
390
1D
100
AcDbMText
 10
228.1868865767597
 20
247.8172084531622
 30
0.0
 40
12.0
 41
0.0
 46
12.0
 71
     1
 72
     1
  1
{▲}
  7
ＭＳ ゴシック
 73
     1
 44
0.7828267384257843
1001
ACAD
1000
ACAD_MTEXT_DEFINED_HEIGHT_BEGIN
1070
    46
1040
12.0
1000
ACAD_MTEXT_DEFINED_HEIGHT_END
  0
MTEXT
  5
183C
330
A
100
AcDbEntity
  8
DIM
390
1D
100
AcDbMText
 10
228.1888038206455
 20
229.4393800375664
 30
0.0
 40
12.0
 41
0.0
 46
12.0
 71
     1
 72
     1
  1
{水}
  7
ＭＳ ゴシック
 73
     1
 44
0.7828267384257843
1001
ACAD
1000
ACAD_MTEXT_DEFINED_HEIGHT_BEGIN
1070
    46
1040
12.0
1000
ACAD_MTEXT_DEFINED_HEIGHT_END
  0
MTEXT
  5
183D
330
A
100
AcDbEntity
  8
DIM
390
1D
100
AcDbMText
 10
128.6935485592661
 20
247.8172084531622
 30
0.0
 40
12.0
 41
0.0
 46
12.0
 71
     1
 72
     1
  1
{▲}
  7
ＭＳ ゴシック
 73
     1
 44
0.7828267384257843
1001
ACAD
1000
ACAD_MTEXT_DEFINED_HEIGHT_BEGIN
1070
    46
1040
12.0
1000
ACAD_MTEXT_DEFINED_HEIGHT_END
  0
MTEXT
  5
183E
330
A
100
AcDbEntity
  8
DIM
390
1D
100
AcDbMText
 10
127.7435832629601
 20
229.4393800375664
 30
0.0
 40
12.0
 41
0.0
 46
12.0
 71
     1
 72
     1
  1
{湯}
  7
ＭＳ ゴシック
 73
     1
 44
0.7828267384257843
1001
ACAD
1000
ACAD_MTEXT_DEFINED_HEIGHT_BEGIN
1070
    46
1040
12.0
1000
ACAD_MTEXT_DEFINED_HEIGHT_END
  0
MTEXT
  5
1842
330
A
100
AcDbEntity
  8
DIM
390
1D
100
AcDbMText
 10
119.652581671329
 20
211.5915824089684
 30
0.0
 40
12.0
 41
0.0
 46
12.0
 71
     1
 72
     1
  1
{G1/2}
  7
ＭＳ ゴシック
 73
     1
 44
0.7828267384257843
1001
ACAD
1000
ACAD_MTEXT_DEFINED_HEIGHT_BEGIN
1070
    46
1040
12.0
1000
ACAD_MTEXT_DEFINED_HEIGHT_END
  0
MTEXT
  5
1843
330
A
100
AcDbEntity
  8
DIM
390
1D
100
AcDbMText
 10
219.1459196888226
 20
211.5915824089684
 30
0.0
 40
12.0
 41
0.0
 46
12.0
 71
     1
 72
     1
  1
{G1/2}
  7
ＭＳ ゴシック
 73
     1
 44
0.7828267384257843
1001
ACAD
1000
ACAD_MTEXT_DEFINED_HEIGHT_BEGIN
1070
    46
1040
12.0
1000
ACAD_MTEXT_DEFINED_HEIGHT_END
  0
LINE
  5
1850
330
A
100
AcDbEntity
  8
MODEL
  6
CENTER
 48
0.009
100
AcDbLine
 10
175.5643600454269
 20
559.9961062087336
 30
0.0
 11
175.5643600454269
 21
467.314571516343
 31
0.0
  0
LINE
  5
1851
330
A
100
AcDbEntity
  8
MODEL
  6
CENTER
 48
0.009
100
AcDbLine
 10
135.2854319724103
 20
333.0057453783361
 30
0.0
 11
135.2854319724103
 21
424.2763868691518
 31
0.0
  0
LINE
  5
1852
330
A
100
AcDbEntity
  8
MODEL
  6
CENTER
 48
0.009
100
AcDbLine
 10
135.2854319724103
 20
424.2763868691518
 30
0.0
 11
175.5643600454269
 21
467.314571516343
 31
0.0
  0
LINE
  5
1858
330
A
100
AcDbEntity
  8
MODEL
  6
CENTER
 48
0.009
100
AcDbLine
 10
234.9773866704705
 20
424.2763868691518
 30
0.0
 11
194.6984585974539
 21
467.314571516343
 31
0.0
  0
LINE
  5
1859
330
A
100
AcDbEntity
  8
MODEL
  6
CENTER
 48
0.009
100
AcDbLine
 10
194.6984585974539
 20
559.9961062087336
 30
0.0
 11
194.6984585974539
 21
467.314571516343
 31
0.0
  0
LINE
  5
185A
330
A
100
AcDbEntity
  8
MODEL
  6
CENTER
 48
0.009
100
AcDbLine
 10
234.9773866704705
 20
333.0057453783361
 30
0.0
 11
234.9773866704705
 21
424.2763868691518
 31
0.0
  0
LINE
  5
185B
330
A
100
AcDbEntity
  8
MODEL
  6
CENTER
 48
0.009
100
AcDbLine
 10
584.621662651597
 20
330.8125223410834
 30
0.0
 11
584.621662651597
 21
507.5703620811762
 31
0.0
  0
LEADER
  5
186A
102
{ACAD_XDICTIONARY
360
186C
102
}
330
A
100
AcDbEntity
  8
DIM
100
AcDbLeader
  3
tfrom線あり
 76
     3
 10
197.9908675758634
 20
920.8062840307925
 30
0.0
 10
238.3156810210672
 20
900.9531053624182
 30
0.0
 10
334.9912515093062
 20
900.9531053624182
 30
0.0
  0
MTEXT
  5
189C
330
A
100
AcDbEntity
  8
DIM
390
1D
100
AcDbMText
 10
268.8056686365888
 20
935.9589469608156
 30
0.0
 40
12.0
 41
0.0
 46
9.773046875
 71
     1
 72
     1
  1
{φ35}
  7
ＭＳ ゴシック
 73
     1
 44
0.7828267384257843
1001
ACAD
1000
ACAD_MTEXT_DEFINED_HEIGHT_BEGIN
1070
    46
1040
9.773046875
1000
ACAD_MTEXT_DEFINED_HEIGHT_END
  0
MTEXT
  5
189D
330
A
100
AcDbEntity
  8
DIM
390
1D
100
AcDbMText
 10
245.0086051317915
 20
917.7393202149551
 30
0.0
 40
12.0
 41
0.0
 46
12.0
 71
     1
 72
     1
  1
{(φ34-φ37)}
  7
ＭＳ ゴシック
 73
     1
 44
0.7828267384257843
1001
ACAD
1000
ACAD_MTEXT_DEFINED_HEIGHT_BEGIN
1070
    46
1040
12.0
1000
ACAD_MTEXT_DEFINED_HEIGHT_END
  0
DIMENSION
  5
18AB
330
A
100
AcDbEntity
  8
DIM
100
AcDbDimension
  2
*D17
 10
695.4946287662863
 20
977.2721363221665
 30
0.0
 11
697.238583067543
 21
1030.851896475427
 31
0.0
 70
   162
  1
\A1;<>
 71
     5
 42
0.8726646259971899
 73
     0
 74
     0
 75
     0
  3
tfrom線あり
100
AcDb2LineAngularDimension
 13
582.3364166195786
 23
977.2721363221665
 33
0.0
 14
648.4326551294419
 24
1056.042566023264
 34
0.0
 15
582.3364166195786
 25
977.2721363221665
 35
0.0
 16
703.7908187265942
 26
1013.633197381272
 36
0.0
1001
ACAD
1000
DSTYLE
1002
{
1070
    77
1070
     1
1070
   179
1070
     0
1002
}
  0
LWPOLYLINE
  5
19EF
330
A
100
AcDbEntity
  8
PRINT
100
AcDbPolyline
 90
        4
 70
     1
 43
0.0
 10
0.0
 20
0.0
 10
0.0
 20
1188.0
 10
840.0000000000001
 20
1188.0
 10
840.0000000000001
 20
0.0
  0
MTEXT
  5
1A9D
330
A
100
AcDbEntity
  8
MODEL
390
1D
100
AcDbMText
 10
52.49908775216075
 20
93.03439131132409
 30
0.0
 40
9.773046875
 41
0.0
 46
9.919642578125
 71
     1
 72
     1
  1
{クローム}
  7
ＭＳ ゴシック
 73
     1
 44
0.7828267384257843
1001
ACAD
1000
ACAD_MTEXT_DEFINED_HEIGHT_BEGIN
1070
    46
1040
9.919642578125
1000
ACAD_MTEXT_DEFINED_HEIGHT_END
  0
VIEWPORT
  5
349
330
B
100
AcDbEntity
 67
     1
  8
0
100
AcDbViewport
 10
202.5
 20
128.5
 30
0.0
 40
486.0
 41
308.4
 68
     1
 69
     1
 12
202.5
 22
128.5
 13
0.0
 23
0.0
 14
0.5
 24
0.5
 15
0.0
 25
0.0
 16
0.0
 26
0.0
 36
1.0
 17
0.0
 27
0.0
 37
0.0
 42
50.0
 43
0.0
 44
0.0
 45
308.4
 50
0.0
 51
0.0
 72
   100
 90
   557152
  1

281
     0
 71
     1
 74
     0
110
0.0
120
0.0
130
0.0
111
1.0
121
0.0
131
0.0
112
0.0
122
1.0
132
0.0
 79
     0
146
0.0
170
     0
 61
     5
348
26C
292
     1
282
     1
141
0.0
142
0.0
 63
   256
  0
VIEWPORT
  5
34A
330
B
100
AcDbEntity
 67
     1
  8
0
100
AcDbViewport
 10
202.5
 20
128.5
 30
0.0
 40
324.0
 41
205.6
 68
     2
 69
     2
 12
986.6781359294573
 22
1427.077061889956
 13
0.0
 23
0.0
 14
0.5
 24
0.5
 15
0.0
 25
0.0
 16
0.0
 26
0.0
 36
1.0
 17
0.0
 27
0.0
 37
0.0
 42
50.0
 43
0.0
 44
0.0
 45
2890.021615685494
 50
0.0
 51
0.0
 72
   100
 90
   557152
  1

281
     0
 71
     1
 74
     0
110
0.0
120
0.0
130
0.0
111
1.0
121
0.0
131
0.0
112
0.0
122
1.0
132
0.0
 79
     0
146
0.0
170
     0
 61
     5
348
26C
292
     1
282
     1
141
0.0
142
0.0
 63
   256
  0
ENDSEC
  0
SECTION
  2
OBJECTS
  0
DICTIONARY
  5
19
330
0
100
AcDbDictionary
281
     1
  3
ACAD_COLOR
350
674
  3
ACAD_DETAILVIEWSTYLE
350
BBF
  3
ACAD_GROUP
350
1A
  3
ACAD_IMAGE_VARS
350
27B
  3
ACAD_LAYOUT
350
1E
  3
ACAD_MATERIAL
350
263
  3
ACAD_MLEADERSTYLE
350
336
  3
ACAD_MLINESTYLE
350
1B
  3
ACAD_PLOTSETTINGS
350
22
  3
ACAD_PLOTSTYLENAME
350
1F
  3
ACAD_SCALELIST
350
241
  3
ACAD_SECTIONVIEWSTYLE
350
BC0
  3
ACAD_TABLESTYLE
350
278
  3
ACAD_VISUALSTYLE
350
267
  3
AcadDim
350
186B
  3
ACDB_RECOMPOSE_DATA
350
1AB2
  3
AcDbVariableDictionary
350
330
  3
APPDATA
350
27A
  0
SUN
  5
904
330
15
100
AcDbSun
 90
        1
290
     0
 63
     7
421
 16777215
 40
1.0
291
     1
 91
  2455826
 92
 54000000
292
     0
 70
     2
 71
   256
280
     1
  0
DICTIONARY
  5
2E1
330
2
100
AcDbDictionary
280
     1
281
     1
  3
ACAD_LAYERSTATES
360
2E2
  3
ACLYDICTIONARY
360
19F2
  0
DICTIONARY
  5
17BA
330
17B9
100
AcDbDictionary
280
     1
281
     1
  3
ACAD_DIMASSOC
360
17BB
  0
DICTIONARY
  5
186C
330
186A
100
AcDbDictionary
280
     1
281
     1
  0
DICTIONARY
  5
674
102
{ACAD_REACTORS
330
19
102
}
330
19
100
AcDbDictionary
281
     1
  0
DICTIONARY
  5
BBF
102
{ACAD_REACTORS
330
19
102
}
330
19
100
AcDbDictionary
281
     1
  0
DICTIONARY
  5
1A
102
{ACAD_REACTORS
330
19
102
}
330
19
100
AcDbDictionary
281
     1
  0
RASTERVARIABLES
  5
27B
102
{ACAD_REACTORS
330
19
102
}
330
19
100
AcDbRasterVariables
 90
        0
 70
     1
 71
     1
 72
     1
  0
DICTIONARY
  5
1E
102
{ACAD_REACTORS
330
19
102
}
330
19
100
AcDbDictionary
281
     1
  3
Layout1
350
21
  3
Model
350
20
  0
DICTIONARY
  5
263
102
{ACAD_REACTORS
330
19
102
}
330
19
100
AcDbDictionary
281
     1
  3
ByBlock
350
1A20
  3
ByLayer
350
264
  3
Global
350
266
  0
DICTIONARY
  5
336
102
{ACAD_REACTORS
330
19
102
}
330
19
100
AcDbDictionary
281
     1
  3
Standard
350
1A6C
  0
DICTIONARY
  5
1B
102
{ACAD_REACTORS
330
19
102
}
330
19
100
AcDbDictionary
281
     1
  3
Standard
350
1C
  0
DICTIONARY
  5
22
102
{ACAD_REACTORS
330
19
102
}
330
19
100
AcDbDictionary
281
     1
  0
ACDBDICTIONARYWDFLT
  5
1F
102
{ACAD_REACTORS
330
19
102
}
330
19
100
AcDbDictionary
281
     1
  3
Normal
350
1D
100
AcDbDictionaryWithDefault
340
1D
  0
DICTIONARY
  5
241
102
{ACAD_REACTORS
330
19
102
}
330
19
100
AcDbDictionary
281
     1
  3
A0
350
242
  3
A1
350
243
  3
A2
350
244
  3
A3
350
245
  3
A4
350
246
  3
A5
350
247
  3
A6
350
248
  3
A7
350
249
  3
A8
350
24A
  3
A9
350
24B
  3
B0
350
24C
  3
B1
350
24D
  3
B2
350
24E
  3
B3
350
24F
  3
B4
350
250
  3
B5
350
251
  3
B6
350
252
  3
B7
350
253
  3
B8
350
254
  3
B9
350
255
  3
C0
350
256
  3
C1
350
257
  3
C2
350
258
  3
C3
350
259
  3
C4
350
25A
  3
C5
350
25B
  3
C6
350
25C
  3
C7
350
25D
  3
C8
350
25E
  3
C9
350
25F
  3
D0
350
260
  3
D1
350
261
  3
D2
350
262
  0
DICTIONARY
  5
BC0
102
{ACAD_REACTORS
330
19
102
}
330
19
100
AcDbDictionary
281
     1
  0
DICTIONARY
  5
278
102
{ACAD_REACTORS
330
19
102
}
330
19
100
AcDbDictionary
281
     1
  3
Standard
350
279
  0
DICTIONARY
  5
267
102
{ACAD_REACTORS
330
19
102
}
330
19
100
AcDbDictionary
281
     1
  3
2dWireframe
350
26C
  3
3D Hidden
350
26E
  3
3dWireframe
350
26D
  3
Basic
350
26F
  3
Brighten
350
273
  3
ColorChange
350
277
  3
Conceptual
350
271
  3
Dim
350
272
  3
EdgeColorOff
350
8FE
  3
Facepattern
350
276
  3
Flat
350
268
  3
FlatWithEdges
350
269
  3
Gouraud
350
26A
  3
GouraudWithEdges
350
26B
  3
Hidden
350
8FB
  3
JitterOff
350
8FC
  3
Linepattern
350
275
  3
OverhangOff
350
8FD
  3
Realistic
350
270
  3
Shaded
350
903
  3
Shaded with edges
350
902
  3
Shades of Gray
350
8FF
  3
Sketchy
350
900
  3
Thicken
350
274
  3
Wireframe
350
8FA
  3
X-Ray
350
901
  0
XRECORD
  5
186B
102
{ACAD_REACTORS
330
19
102
}
330
19
100
AcDbXrecord
280
     1
340
0
 72
     0
 71
     0
 70
     0
 69
     0
 68
     1
 67
     3
 66
     0
 65
     0
 64
     0
 63
     3
 62
     1
 61
     0
 60
     0
 40
0.0
  0
XRECORD
  5
1AB2
102
{ACAD_REACTORS
330
19
102
}
330
19
100
AcDbXrecord
280
     1
 90
        1
330
279
  0
DICTIONARY
  5
330
102
{ACAD_REACTORS
330
19
102
}
330
19
100
AcDbDictionary
281
     1
  3
CANNOSCALE
350
331
  3
CMLEADERSTYLE
350
1AA2
  3
CTABLESTYLE
350
335
  3
HPTRANSPARENCY
350
D6B
  3
XCLIPFRAME
350
896
  0
DICTIONARY
  5
27A
102
{ACAD_REACTORS
330
19
102
}
330
19
100
AcDbDictionary
281
     1
  0
DICTIONARY
  5
2E2
102
{ACAD_REACTORS
330
2E1
102
}
330
2E1
100
AcDbDictionary
281
     1
  3
ARGON_LAYERP_9
350
7AA
  0
DICTIONARY
  5
19F2
102
{ACAD_REACTORS
330
2E1
102
}
330
2E1
100
AcDbDictionary
281
     1
1001
ACAD
1000
<All
  0
DIMASSOC
  5
17BB
102
{ACAD_REACTORS
330
17BA
102
}
330
17BA
100
AcDbDimAssoc
330
17B9
 90
        3
 70
     0
 71
     1
  1
AcDbOsnapPointRef
 72
    13
331
139E
 73
     0
 91
        0
 40
0.0
 10
0.0
 20
0.0
 30
0.0
 75
     0
  1
AcDbOsnapPointRef
 72
     1
331
13E7
 73
     0
 91
        0
 40
0.0
 10
0.0
 20
0.0
 30
0.0
 75
     0
  0
LAYOUT
  5
21
102
{ACAD_REACTORS
330
1E
102
}
330
1E
100
AcDbPlotSettings
  1

  2
none_device
  4
ISO_A3_(420.00_x_297.00_MM)
  6

 40
7.5
 41
20.0
 42
7.5
 43
20.0
 44
420.0
 45
297.0
 46
0.0
 47
0.0
 48
0.0
 49
0.0
140
0.0
141
0.0
142
1.0
143
1.0
 70
     0
 72
     1
 73
     0
 74
     0
  7

 75
     0
 76
     0
 77
     2
 78
   300
147
1.0
148
0.0
149
0.0
100
AcDbLayout
  1
Layout1
 70
     0
 71
     0
 10
-7.5
 20
-20.0
 11
412.5
 21
277.0
 12
0.0
 22
0.0
 32
0.0
 14
0.0
 24
0.0
 34
0.0
 15
0.0
 25
0.0
 35
0.0
146
0.0
 13
0.0
 23
0.0
 33
0.0
 16
0.0
 26
0.0
 36
0.0
 17
0.0
 27
0.0
 37
0.0
 76
     0
330
B
331
349
  0
LAYOUT
  5
20
102
{ACAD_REACTORS
330
1E
102
}
330
1E
100
AcDbPlotSettings
  1

  2
none_device
  4
ISO_A3_(420.00_x_297.00_MM)
  6

 40
7.5
 41
20.0
 42
7.5
 43
20.0
 44
420.0
 45
297.0
 46
0.0
 47
0.0
 48
0.0
 49
0.0
140
0.0
141
0.0
142
1.0
143
1.0
 70
  1024
 72
     1
 73
     0
 74
     0
  7

 75
     0
 76
     0
 77
     2
 78
   300
147
1.0
148
0.0
149
0.0
100
AcDbLayout
  1
Model
 70
     0
 71
     1
 10
0.0
 20
0.0
 11
840.0000000000001
 21
1188.0
 12
0.0
 22
0.0
 32
0.0
 14
0.0
 24
0.0
 34
0.0
 15
840.0000000000001
 25
1188.0
 35
0.0
146
0.0
 13
0.0
 23
0.0
 33
0.0
 16
0.0
 26
0.0
 36
0.0
 17
0.0
 27
0.0
 37
0.0
 76
     0
330
A
331
15
  0
MATERIAL
  5
1A20
102
{ACAD_REACTORS
330
263
102
}
330
263
100
AcDbMaterial
  1
ByBlock
 72
     1
 94
      127
  0
MATERIAL
  5
264
102
{ACAD_REACTORS
330
263
102
}
330
263
100
AcDbMaterial
  1
ByLayer
 72
     1
 94
      127
  0
MATERIAL
  5
266
102
{ACAD_REACTORS
330
263
102
}
330
263
100
AcDbMaterial
  1
Global
 72
     1
 94
      127
  0
MLEADERSTYLE
  5
1A6C
102
{ACAD_REACTORS
330
336
102
}
330
336
100
AcDbMLeaderStyle
170
     2
171
     1
172
     0
 90
        2
 40
0.0
 41
0.0
173
     1
 91
-1056964608
340
11
 92
       -2
290
     1
 42
2.0
291
     1
 43
8.0
  3
Standard
341
0
 44
4.0
300

342
17
174
     1
178
     6
175
     1
176
     0
 93
-1056964608
 45
4.0
292
     0
297
     0
 46
4.0
343
0
 94
-1056964608
 47
1.0
 49
1.0
140
1.0
293
     1
141
0.0
294
     1
177
     0
142
1.0
295
     0
296
     0
143
3.75
1001
ACAD_MLEADERVER
1070
     2
  0
MLINESTYLE
  5
1C
102
{ACAD_REACTORS
330
1B
102
}
330
1B
100
AcDbMlineStyle
  2
Standard
 70
     0
  3

 62
     0
 51
90.0
 52
90.0
 71
     2
 49
0.5
 62
   256
  6
BYLAYER
 49
-0.5
 62
   256
  6
BYLAYER
  0
ACDBPLACEHOLDER
  5
1D
102
{ACAD_REACTORS
330
1F
102
}
330
1F
  0
SCALE
  5
242
102
{ACAD_REACTORS
330
241
102
}
330
241
100
AcDbScale
 70
     0
300
1:1
140
1.0
141
1.0
290
     1
  0
SCALE
  5
243
102
{ACAD_REACTORS
330
241
102
}
330
241
100
AcDbScale
 70
     0
300
1:2
140
1.0
141
2.0
290
     0
  0
SCALE
  5
244
102
{ACAD_REACTORS
330
241
102
}
330
241
100
AcDbScale
 70
     0
300
1:4
140
1.0
141
4.0
290
     0
  0
SCALE
  5
245
102
{ACAD_REACTORS
330
241
102
}
330
241
100
AcDbScale
 70
     0
300
1:5
140
1.0
141
5.0
290
     0
  0
SCALE
  5
246
102
{ACAD_REACTORS
330
241
102
}
330
241
100
AcDbScale
 70
     0
300
1:8
140
1.0
141
8.0
290
     0
  0
SCALE
  5
247
102
{ACAD_REACTORS
330
241
102
}
330
241
100
AcDbScale
 70
     0
300
1:10
140
1.0
141
10.0
290
     0
  0
SCALE
  5
248
102
{ACAD_REACTORS
330
241
102
}
330
241
100
AcDbScale
 70
     0
300
1:16
140
1.0
141
16.0
290
     0
  0
SCALE
  5
249
102
{ACAD_REACTORS
330
241
102
}
330
241
100
AcDbScale
 70
     0
300
1:20
140
1.0
141
20.0
290
     0
  0
SCALE
  5
24A
102
{ACAD_REACTORS
330
241
102
}
330
241
100
AcDbScale
 70
     0
300
1:30
140
1.0
141
30.0
290
     0
  0
SCALE
  5
24B
102
{ACAD_REACTORS
330
241
102
}
330
241
100
AcDbScale
 70
     0
300
1:40
140
1.0
141
40.0
290
     0
  0
SCALE
  5
24C
102
{ACAD_REACTORS
330
241
102
}
330
241
100
AcDbScale
 70
     0
300
1:50
140
1.0
141
50.0
290
     0
  0
SCALE
  5
24D
102
{ACAD_REACTORS
330
241
102
}
330
241
100
AcDbScale
 70
     0
300
1:100
140
1.0
141
100.0
290
     0
  0
SCALE
  5
24E
102
{ACAD_REACTORS
330
241
102
}
330
241
100
AcDbScale
 70
     0
300
2:1
140
2.0
141
1.0
290
     0
  0
SCALE
  5
24F
102
{ACAD_REACTORS
330
241
102
}
330
241
100
AcDbScale
 70
     0
300
4:1
140
4.0
141
1.0
290
     0
  0
SCALE
  5
250
102
{ACAD_REACTORS
330
241
102
}
330
241
100
AcDbScale
 70
     0
300
8:1
140
8.0
141
1.0
290
     0
  0
SCALE
  5
251
102
{ACAD_REACTORS
330
241
102
}
330
241
100
AcDbScale
 70
     0
300
10:1
140
10.0
141
1.0
290
     0
  0
SCALE
  5
252
102
{ACAD_REACTORS
330
241
102
}
330
241
100
AcDbScale
 70
     0
300
100:1
140
100.0
141
1.0
290
     0
  0
SCALE
  5
253
102
{ACAD_REACTORS
330
241
102
}
330
241
100
AcDbScale
 70
     0
300
1/128" = 1'-0"
140
0.0078125
141
12.0
290
     0
  0
SCALE
  5
254
102
{ACAD_REACTORS
330
241
102
}
330
241
100
AcDbScale
 70
     0
300
1/64" = 1'-0"
140
0.015625
141
12.0
290
     0
  0
SCALE
  5
255
102
{ACAD_REACTORS
330
241
102
}
330
241
100
AcDbScale
 70
     0
300
1/32" = 1'-0"
140
0.03125
141
12.0
290
     0
  0
SCALE
  5
256
102
{ACAD_REACTORS
330
241
102
}
330
241
100
AcDbScale
 70
     0
300
1/16" = 1'-0"
140
0.0625
141
12.0
290
     0
  0
SCALE
  5
257
102
{ACAD_REACTORS
330
241
102
}
330
241
100
AcDbScale
 70
     0
300
3/32" = 1'-0"
140
0.09375
141
12.0
290
     0
  0
SCALE
  5
258
102
{ACAD_REACTORS
330
241
102
}
330
241
100
AcDbScale
 70
     0
300
1/8" = 1'-0"
140
0.125
141
12.0
290
     0
  0
SCALE
  5
259
102
{ACAD_REACTORS
330
241
102
}
330
241
100
AcDbScale
 70
     0
300
3/16" = 1'-0"
140
0.1875
141
12.0
290
     0
  0
SCALE
  5
25A
102
{ACAD_REACTORS
330
241
102
}
330
241
100
AcDbScale
 70
     0
300
1/4" = 1'-0"
140
0.25
141
12.0
290
     0
  0
SCALE
  5
25B
102
{ACAD_REACTORS
330
241
102
}
330
241
100
AcDbScale
 70
     0
300
3/8" = 1'-0"
140
0.375
141
12.0
290
     0
  0
SCALE
  5
25C
102
{ACAD_REACTORS
330
241
102
}
330
241
100
AcDbScale
 70
     0
300
1/2" = 1'-0"
140
0.5
141
12.0
290
     0
  0
SCALE
  5
25D
102
{ACAD_REACTORS
330
241
102
}
330
241
100
AcDbScale
 70
     0
300
3/4" = 1'-0"
140
0.75
141
12.0
290
     0
  0
SCALE
  5
25E
102
{ACAD_REACTORS
330
241
102
}
330
241
100
AcDbScale
 70
     0
300
1" = 1'-0"
140
1.0
141
12.0
290
     0
  0
SCALE
  5
25F
102
{ACAD_REACTORS
330
241
102
}
330
241
100
AcDbScale
 70
     0
300
1-1/2" = 1'-0"
140
1.5
141
12.0
290
     0
  0
SCALE
  5
260
102
{ACAD_REACTORS
330
241
102
}
330
241
100
AcDbScale
 70
     0
300
3" = 1'-0"
140
3.0
141
12.0
290
     0
  0
SCALE
  5
261
102
{ACAD_REACTORS
330
241
102
}
330
241
100
AcDbScale
 70
     0
300
6" = 1'-0"
140
6.0
141
12.0
290
     0
  0
SCALE
  5
262
102
{ACAD_REACTORS
330
241
102
}
330
241
100
AcDbScale
 70
     0
300
1'-0" = 1'-0"
140
12.0
141
12.0
290
     0
  0
TABLESTYLE
  5
279
102
{ACAD_REACTORS
330
278
102
}
102
{ACAD_XDICTIONARY
360
1AB0
102
}
330
278
100
AcDbTableStyle
  3
Standard
 70
     0
 71
     0
 40
0.06
 41
0.06
280
     0
281
     0
  7
Standard
140
4.5
170
     2
 62
     0
 63
   257
283
     0
 90
        4
 91
        0
  1

274
    -2
284
     1
 64
     0
275
    -2
285
     1
 65
     0
276
    -2
286
     1
 66
     0
277
    -2
287
     1
 67
     0
278
    -2
288
     1
 68
     0
279
    -2
289
     1
 69
     0
  7
Standard
140
6.0
170
     5
 62
     0
 63
   257
283
     0
 90
        4
 91
        0
  1

274
    -2
284
     1
 64
     0
275
    -2
285
     1
 65
     0
276
    -2
286
     1
 66
     0
277
    -2
287
     1
 67
     0
278
    -2
288
     1
 68
     0
279
    -2
289
     1
 69
     0
  7
Standard
140
4.5
170
     5
 62
     0
 63
   257
283
     0
 90
        4
 91
        0
  1

274
    -2
284
     1
 64
     0
275
    -2
285
     1
 65
     0
276
    -2
286
     1
 66
     0
277
    -2
287
     1
 67
     0
278
    -2
288
     1
 68
     0
279
    -2
289
     1
 69
     0
  0
VISUALSTYLE
  5
26C
102
{ACAD_REACTORS
330
267
102
}
330
267
100
AcDbVisualStyle
  2
2dWireframe
 70
     4
 71
     0
 72
     2
 73
     0
 90
        0
 40
-0.6
 41
-30.0
 62
     5
 63
     7
421
 16777215
 74
     1
 91
        4
 64
     7
 65
   257
 75
     1
175
     1
 42
1.0
 92
        0
 66
   257
 43
1.0
 76
     1
 77
     6
 78
     2
 67
     7
 79
     5
170
     0
171
     0
290
     0
174
     0
 93
        1
 44
0.0
173
     0
291
     0
 45
0.0
  0
VISUALSTYLE
  5
26E
102
{ACAD_REACTORS
330
267
102
}
330
267
100
AcDbVisualStyle
  2
3D Hidden
 70
     6
 71
     1
 72
     2
 73
     2
 90
        0
 40
-0.6
 41
-30.0
 62
     5
 63
     7
421
 16777215
 74
     2
 91
        2
 64
     7
 65
   257
 75
     2
175
     1
 42
40.0
 92
        0
 66
   257
 43
1.0
 76
     1
 77
     6
 78
     2
 67
     7
 79
     3
170
     0
171
     0
290
     0
174
     0
 93
        1
 44
0.0
173
     0
291
     0
 45
0.0
  0
VISUALSTYLE
  5
26D
102
{ACAD_REACTORS
330
267
102
}
330
267
100
AcDbVisualStyle
  2
3dWireframe
 70
     5
 71
     0
 72
     2
 73
     0
 90
        0
 40
-0.6
 41
-30.0
 62
     5
 63
     7
421
 16777215
 74
     1
 91
        4
 64
     7
 65
   257
 75
     1
175
     1
 42
1.0
 92
        0
 66
   257
 43
1.0
 76
     1
 77
     6
 78
     2
 67
     7
 79
     5
170
     0
171
     0
290
     0
174
     0
 93
        1
 44
0.0
173
     0
291
     0
 45
0.0
  0
VISUALSTYLE
  5
26F
102
{ACAD_REACTORS
330
267
102
}
330
267
100
AcDbVisualStyle
  2
Basic
 70
     7
 71
     1
 72
     0
 73
     1
 90
        0
 40
-0.6
 41
-30.0
 62
     5
 63
     7
421
 16777215
 74
     0
 91
        4
 64
     7
 65
   257
 75
     1
175
     1
 42
1.0
 92
        8
 66
     7
 43
1.0
 76
     1
 77
     6
 78
     2
 67
     7
 79
     5
170
     0
171
     0
290
     0
174
     0
 93
        1
 44
0.0
173
     0
291
     1
 45
0.0
  0
VISUALSTYLE
  5
273
102
{ACAD_REACTORS
330
267
102
}
330
267
100
AcDbVisualStyle
  2
Brighten
 70
    12
 71
     2
 72
     2
 73
     0
 90
        0
 40
-0.6
 41
-30.0
 62
     5
 63
     7
421
 16777215
 74
     1
 91
        4
 64
     7
 65
   257
 75
     1
175
     1
 42
1.0
 92
        8
 66
     7
 43
1.0
 76
     1
 77
     6
 78
     2
 67
     7
 79
     5
170
     0
171
     0
290
     0
174
     0
 93
        1
 44
50.0
173
     0
291
     1
 45
0.0
  0
VISUALSTYLE
  5
277
102
{ACAD_REACTORS
330
267
102
}
330
267
100
AcDbVisualStyle
  2
ColorChange
 70
    16
 71
     2
 72
     2
 73
     3
 90
        0
 40
-0.6
 41
-30.0
 62
     5
 63
     8
421
  8421504
 74
     1
 91
        4
 64
     7
 65
   257
 75
     1
175
     1
 42
1.0
 92
        8
 66
     8
424
  8421504
 43
1.0
 76
     1
 77
     6
 78
     2
 67
     7
 79
     5
170
     0
171
     0
290
     0
174
     0
 93
        1
 44
0.0
173
     0
291
     1
 45
0.0
  0
VISUALSTYLE
  5
271
102
{ACAD_REACTORS
330
267
102
}
330
267
100
AcDbVisualStyle
  2
Conceptual
 70
     9
 71
     3
 72
     2
 73
     0
 90
        0
 40
-0.6
 41
-30.0
 62
     5
 63
     7
421
 16777215
 74
     2
 91
        2
 64
     7
 65
   257
 75
     1
175
     1
 42
40.0
 92
        8
 66
     7
 43
1.0
 76
     1
 77
     6
 78
     2
 67
     7
 79
     3
170
     0
171
     0
290
     0
174
     0
 93
        1
 44
0.0
173
     0
291
     0
 45
0.0
  0
VISUALSTYLE
  5
272
102
{ACAD_REACTORS
330
267
102
}
330
267
100
AcDbVisualStyle
  2
Dim
 70
    11
 71
     2
 72
     2
 73
     0
 90
        0
 40
-0.6
 41
-30.0
 62
     5
 63
     7
421
 16777215
 74
     1
 91
        4
 64
     7
 65
   257
 75
     1
175
     1
 42
1.0
 92
        8
 66
     7
 43
1.0
 76
     1
 77
     6
 78
     2
 67
     7
 79
     5
170
     0
171
     0
290
     0
174
     0
 93
        1
 44
-50.0
173
     0
291
     1
 45
0.0
  0
VISUALSTYLE
  5
8FE
102
{ACAD_REACTORS
330
267
102
}
330
267
100
AcDbVisualStyle
  2
EdgeColorOff
 70
    22
 71
     2
 72
     2
 73
     0
 90
        0
 40
0.6
 41
30.0
 62
     5
 63
     7
421
 16777215
 74
     1
 91
        4
 64
     7
 65
   257
 75
     1
175
     1
 42
1.0
 92
        8
 66
     7
 43
1.0
 76
     1
 77
     6
 78
     2
 67
     7
 79
     5
170
     0
171
     0
290
     0
174
     0
 93
        1
 44
0.0
173
     0
291
     1
 45
0.0
  0
VISUALSTYLE
  5
276
102
{ACAD_REACTORS
330
267
102
}
330
267
100
AcDbVisualStyle
  2
Facepattern
 70
    15
 71
     2
 72
     2
 73
     0
 90
        0
 40
-0.6
 41
-30.0
 62
     5
 63
     7
421
 16777215
 74
     1
 91
        4
 64
     7
 65
   257
 75
     1
175
     1
 42
1.0
 92
        8
 66
     7
 43
1.0
 76
     1
 77
     6
 78
     2
 67
     7
 79
     5
170
     0
171
     0
290
     0
174
     0
 93
        1
 44
0.0
173
     0
291
     1
 45
0.0
  0
VISUALSTYLE
  5
268
102
{ACAD_REACTORS
330
267
102
}
330
267
100
AcDbVisualStyle
  2
Flat
 70
     0
 71
     2
 72
     1
 73
     1
 90
        2
 40
-0.6
 41
30.0
 62
     5
 63
     7
421
 16777215
 74
     0
 91
        4
 64
     7
 65
   257
 75
     1
175
     1
 42
1.0
 92
        8
 66
     7
 43
1.0
 76
     1
 77
     6
 78
     2
 67
     7
 79
     5
170
     0
171
     0
290
     0
174
     0
 93
       13
 44
0.0
173
     0
291
     1
 45
0.0
  0
VISUALSTYLE
  5
269
102
{ACAD_REACTORS
330
267
102
}
330
267
100
AcDbVisualStyle
  2
FlatWithEdges
 70
     1
 71
     2
 72
     1
 73
     1
 90
        2
 40
-0.6
 41
30.0
 62
     5
 63
     7
421
 16777215
 74
     1
 91
        4
 64
     7
 65
   257
 75
     1
175
     1
 42
1.0
 92
        0
 66
   257
 43
1.0
 76
     1
 77
     6
 78
     2
 67
     7
 79
     5
170
     0
171
     0
290
     0
174
     0
 93
       13
 44
0.0
173
     0
291
     1
 45
0.0
  0
VISUALSTYLE
  5
26A
102
{ACAD_REACTORS
330
267
102
}
330
267
100
AcDbVisualStyle
  2
Gouraud
 70
     2
 71
     2
 72
     2
 73
     1
 90
        2
 40
-0.6
 41
30.0
 62
     5
 63
     7
421
 16777215
 74
     0
 91
        4
 64
     7
 65
   257
 75
     1
175
     1
 42
1.0
 92
        0
 66
     7
 43
1.0
 76
     1
 77
     6
 78
     2
 67
     7
 79
     5
170
     0
171
     0
290
     0
174
     0
 93
       13
 44
0.0
173
     0
291
     1
 45
0.0
  0
VISUALSTYLE
  5
26B
102
{ACAD_REACTORS
330
267
102
}
330
267
100
AcDbVisualStyle
  2
GouraudWithEdges
 70
     3
 71
     2
 72
     2
 73
     1
 90
        2
 40
-0.6
 41
30.0
 62
     5
 63
     7
421
 16777215
 74
     1
 91
        4
 64
     7
 65
   257
 75
     1
175
     1
 42
1.0
 92
        0
 66
   257
 43
1.0
 76
     1
 77
     6
 78
     2
 67
     7
 79
     5
170
     0
171
     0
290
     0
174
     0
 93
       13
 44
0.0
173
     0
291
     1
 45
0.0
  0
VISUALSTYLE
  5
8FB
102
{ACAD_REACTORS
330
267
102
}
330
267
100
AcDbVisualStyle
  2
Hidden
 70
     6
 71
     1
 72
     2
 73
     2
 90
        0
 40
0.6
 41
30.0
 62
     5
 63
     7
421
 16777215
 74
     2
 91
        2
 64
     7
 65
   257
 75
     2
175
     1
 42
40.0
 92
        0
 66
   257
 43
1.0
 76
     1
 77
     6
 78
     2
 67
     7
 79
     3
170
     0
171
     0
290
     0
174
     0
 93
        1
 44
0.0
173
     0
291
     0
 45
0.0
  0
VISUALSTYLE
  5
8FC
102
{ACAD_REACTORS
330
267
102
}
330
267
100
AcDbVisualStyle
  2
JitterOff
 70
    20
 71
     2
 72
     2
 73
     0
 90
        0
 40
0.6
 41
30.0
 62
     5
 63
     7
421
 16777215
 74
     1
 91
        4
 64
     7
 65
   257
 75
     1
175
     1
 42
1.0
 92
       10
 66
     7
 43
1.0
 76
     1
 77
     6
 78
     2
 67
     7
 79
     5
170
     0
171
     0
290
     0
174
     0
 93
        1
 44
0.0
173
     0
291
     1
 45
0.0
  0
VISUALSTYLE
  5
275
102
{ACAD_REACTORS
330
267
102
}
330
267
100
AcDbVisualStyle
  2
Linepattern
 70
    14
 71
     2
 72
     2
 73
     0
 90
        0
 40
-0.6
 41
-30.0
 62
     5
 63
     7
421
 16777215
 74
     1
 91
        4
 64
     7
 65
   257
 75
     7
175
     7
 42
1.0
 92
        8
 66
     7
 43
1.0
 76
     1
 77
     6
 78
     2
 67
     7
 79
     5
170
     0
171
     0
290
     0
174
     0
 93
        1
 44
0.0
173
     0
291
     1
 45
0.0
  0
VISUALSTYLE
  5
8FD
102
{ACAD_REACTORS
330
267
102
}
330
267
100
AcDbVisualStyle
  2
OverhangOff
 70
    21
 71
     2
 72
     2
 73
     0
 90
        0
 40
0.6
 41
30.0
 62
     5
 63
     7
421
 16777215
 74
     1
 91
        4
 64
     7
 65
   257
 75
     1
175
     1
 42
1.0
 92
        9
 66
     7
 43
1.0
 76
     1
 77
     6
 78
     2
 67
     7
 79
     5
170
     0
171
     0
290
     0
174
     0
 93
        1
 44
0.0
173
     0
291
     1
 45
0.0
  0
VISUALSTYLE
  5
270
102
{ACAD_REACTORS
330
267
102
}
330
267
100
AcDbVisualStyle
  2
Realistic
 70
     8
 71
     2
 72
     2
 73
     0
 90
        0
 40
-0.6
 41
-30.0
 62
     5
 63
     7
421
 16777215
 74
     1
 91
        0
 64
     7
 65
   257
 75
     1
175
     1
 42
1.0
 92
        8
 66
     8
424
  7895160
 43
1.0
 76
     1
 77
     6
 78
     2
 67
     7
 79
     5
170
     0
171
     0
290
     0
174
     0
 93
       13
 44
0.0
173
     0
291
     0
 45
0.0
  0
VISUALSTYLE
  5
903
102
{ACAD_REACTORS
330
267
102
}
330
267
100
AcDbVisualStyle
  2
Shaded
 70
    27
 71
     2
 72
     2
 73
     1
 90
        2
 40
0.6
 41
30.0
 62
     5
 63
     7
421
 16777215
 74
     0
 91
        4
 64
     7
 65
   257
 75
     1
175
     1
 42
1.0
 92
        8
 66
   257
 43
1.0
 76
     1
 77
     6
 78
     2
 67
     8
425
  7895160
 79
     3
170
     0
171
     0
290
     0
174
     0
 93
        5
 44
0.0
173
     0
291
     0
 45
0.0
  0
VISUALSTYLE
  5
902
102
{ACAD_REACTORS
330
267
102
}
330
267
100
AcDbVisualStyle
  2
Shaded with edges
 70
    26
 71
     2
 72
     2
 73
     1
 90
        2
 40
0.6
 41
30.0
 62
     5
 63
     7
421
 16777215
 74
     1
 91
       10
 64
     7
 65
   257
 75
     2
175
     1
 42
1.0
 92
        8
 66
   257
 43
1.0
 76
     1
 77
     6
 78
     2
 67
     7
 79
     3
170
     0
171
     0
290
     0
174
     0
 93
        5
 44
0.0
173
     0
291
     0
 45
0.0
  0
VISUALSTYLE
  5
8FF
102
{ACAD_REACTORS
330
267
102
}
330
267
100
AcDbVisualStyle
  2
Shades of Gray
 70
    23
 71
     2
 72
     2
 73
     3
 90
        0
 40
0.6
 41
30.0
 62
     5
 63
     7
421
 16777215
 74
     2
 91
        2
 64
     7
 65
     7
 75
     1
175
     1
 42
40.0
 92
        8
 66
     7
 43
1.0
 76
     1
 77
     6
 78
     2
 67
     7
 79
     3
170
     0
171
     0
290
     0
174
     0
 93
        1
 44
0.0
173
     0
291
     0
 45
0.0
  0
VISUALSTYLE
  5
900
102
{ACAD_REACTORS
330
267
102
}
330
267
100
AcDbVisualStyle
  2
Sketchy
 70
    24
 71
     1
 72
     2
 73
     2
 90
        0
 40
0.6
 41
30.0
 62
     5
 63
     7
421
 16777215
 74
     2
 91
        2
 64
     7
 65
     7
 75
     1
175
     1
 42
40.0
 92
       11
 66
     7
 43
1.0
 76
     1
 77
     6
 78
     2
 67
     7
 79
     6
170
     0
171
     0
290
     0
174
     0
 93
        1
 44
0.0
173
     0
291
     0
 45
0.0
  0
VISUALSTYLE
  5
274
102
{ACAD_REACTORS
330
267
102
}
330
267
100
AcDbVisualStyle
  2
Thicken
 70
    13
 71
     2
 72
     2
 73
     0
 90
        0
 40
-0.6
 41
-30.0
 62
     5
 63
     7
421
 16777215
 74
     1
 91
        4
 64
     7
 65
   257
 75
     1
175
     1
 42
1.0
 92
       12
 66
     7
 43
1.0
 76
     1
 77
     6
 78
     2
 67
     7
 79
     5
170
     0
171
     0
290
     0
174
     0
 93
        1
 44
0.0
173
     0
291
     1
 45
0.0
  0
VISUALSTYLE
  5
8FA
102
{ACAD_REACTORS
330
267
102
}
330
267
100
AcDbVisualStyle
  2
Wireframe
 70
     5
 71
     0
 72
     2
 73
     0
 90
        0
 40
0.6
 41
30.0
 62
     5
 63
     7
421
 16777215
 74
     1
 91
        4
 64
     7
 65
   257
 75
     1
175
     1
 42
1.0
 92
        0
 66
   257
 43
1.0
 76
     1
 77
     6
 78
     2
 67
     7
 79
     3
170
     0
171
     0
290
     0
174
     0
 93
        1
 44
0.0
173
     0
291
     0
 45
0.0
  0
VISUALSTYLE
  5
901
102
{ACAD_REACTORS
330
267
102
}
330
267
100
AcDbVisualStyle
  2
X-Ray
 70
    25
 71
     2
 72
     2
 73
     1
 90
        1
 40
0.5
 41
30.0
 62
     5
 63
     7
421
 16777215
 74
     1
 91
        0
 64
     7
 65
   257
 75
     1
175
     1
 42
1.0
 92
        8
 66
     7
 43
1.0
 76
     1
 77
     6
 78
     2
 67
     7
 79
     3
170
     0
171
     0
290
     0
174
     0
 93
       13
 44
0.0
173
     0
291
     0
 45
0.0
  0
DICTIONARYVAR
  5
331
102
{ACAD_REACTORS
330
330
102
}
330
330
100
DictionaryVariables
280
     0
  1
1:1
  0
DICTIONARYVAR
  5
1AA2
102
{ACAD_REACTORS
330
330
102
}
330
330
100
DictionaryVariables
280
     0
  1
Standard
  0
DICTIONARYVAR
  5
335
102
{ACAD_REACTORS
330
330
102
}
330
330
100
DictionaryVariables
280
     0
  1
Standard
  0
DICTIONARYVAR
  5
D6B
102
{ACAD_REACTORS
330
330
102
}
330
330
100
DictionaryVariables
280
     0
  1
ByLayer
  0
DICTIONARYVAR
  5
896
102
{ACAD_REACTORS
330
330
102
}
330
330
100
DictionaryVariables
280
     0
  1
0
  0
XRECORD
  5
7AA
102
{ACAD_REACTORS
330
2E2
102
}
330
2E2
100
AcDbXrecord
280
     1
 91
     1023
301

290
     0
302
DIM
330
14
 90
        8
 62
     7
370
    -3
331
13
  1
Color_7
330
4B
 90
        8
 62
     7
370
    20
331
13
  1
Color_7
330
4C
 90
        8
 62
     7
370
    13
331
13
  1
Color_7
330
4D
 90
        8
 62
     7
370
    20
331
13
  1
Color_7
330
667
 90
        8
 62
     7
370
    -3
331
13
  1
Color_7
330
0
 90
        8
 62
     7
370
    20
331
0
  1
Color_7
330
DDE
 90
        0
 62
     7
370
    -3
331
13
  1
Color_7
330
E72
 90
        8
 62
     7
370
    -3
331
13
  1
Color_7
  0
DICTIONARY
  5
1AB0
330
279
100
AcDbDictionary
280
     1
281
     1
  3
ACAD_ROUNDTRIP_2008_TABLESTYLE_CELLSTYLEMAP
360
1AB1
  0
CELLSTYLEMAP
  5
1AB1
102
{ACAD_REACTORS
330
1AB0
102
}
330
1AB0
100
AcDbCellStyleMap
 90
        3
300
CELLSTYLE
  1
TABLEFORMAT_BEGIN
 90
        5
170
     1
 91
        0
 92
    32768
 62
   257
 93
        1
300
CONTENTFORMAT
  1
CONTENTFORMAT_BEGIN
 90
        0
 91
        0
 92
        4
 93
        0
300

 40
0.0
140
1.0
 94
        5
 62
     0
340
17
144
6.0
309
CONTENTFORMAT_END
171
     1
301
MARGIN
  1
CELLMARGIN_BEGIN
 40
0.06
 40
0.06
 40
0.06
 40
0.06
 40
0.18
 40
0.18
309
CELLMARGIN_END
 94
        6
 95
        1
302
GRIDFORMAT
  1
GRIDFORMAT_BEGIN
 90
        0
 91
        1
 62
     0
 92
       -2
340
0
 93
        0
 40
0.045
309
GRIDFORMAT_END
 95
        2
302
GRIDFORMAT
  1
GRIDFORMAT_BEGIN
 90
        0
 91
        1
 62
     0
 92
       -2
340
0
 93
        0
 40
0.045
309
GRIDFORMAT_END
 95
        4
302
GRIDFORMAT
  1
GRIDFORMAT_BEGIN
 90
        0
 91
        1
 62
     0
 92
       -2
340
0
 93
        0
 40
0.045
309
GRIDFORMAT_END
 95
        8
302
GRIDFORMAT
  1
GRIDFORMAT_BEGIN
 90
        0
 91
        1
 62
     0
 92
       -2
340
0
 93
        0
 40
0.045
309
GRIDFORMAT_END
 95
       16
302
GRIDFORMAT
  1
GRIDFORMAT_BEGIN
 90
        0
 91
        1
 62
     0
 92
       -2
340
0
 93
        0
 40
0.045
309
GRIDFORMAT_END
 95
       32
302
GRIDFORMAT
  1
GRIDFORMAT_BEGIN
 90
        0
 91
        1
 62
     0
 92
       -2
340
0
 93
        0
 40
0.045
309
GRIDFORMAT_END
309
TABLEFORMAT_END
  1
CELLSTYLE_BEGIN
 90
        1
 91
        1
300
_TITLE
309
CELLSTYLE_END
300
CELLSTYLE
  1
TABLEFORMAT_BEGIN
 90
        5
170
     1
 91
        0
 92
        0
 62
   257
 93
        1
300
CONTENTFORMAT
  1
CONTENTFORMAT_BEGIN
 90
        0
 91
        0
 92
        4
 93
        0
300

 40
0.0
140
1.0
 94
        5
 62
     0
340
17
144
4.5
309
CONTENTFORMAT_END
171
     1
301
MARGIN
  1
CELLMARGIN_BEGIN
 40
0.06
 40
0.06
 40
0.06
 40
0.06
 40
0.18
 40
0.18
309
CELLMARGIN_END
 94
        6
 95
        1
302
GRIDFORMAT
  1
GRIDFORMAT_BEGIN
 90
        0
 91
        1
 62
     0
 92
       -2
340
0
 93
        0
 40
0.045
309
GRIDFORMAT_END
 95
        2
302
GRIDFORMAT
  1
GRIDFORMAT_BEGIN
 90
        0
 91
        1
 62
     0
 92
       -2
340
0
 93
        0
 40
0.045
309
GRIDFORMAT_END
 95
        4
302
GRIDFORMAT
  1
GRIDFORMAT_BEGIN
 90
        0
 91
        1
 62
     0
 92
       -2
340
0
 93
        0
 40
0.045
309
GRIDFORMAT_END
 95
        8
302
GRIDFORMAT
  1
GRIDFORMAT_BEGIN
 90
        0
 91
        1
 62
     0
 92
       -2
340
0
 93
        0
 40
0.045
309
GRIDFORMAT_END
 95
       16
302
GRIDFORMAT
  1
GRIDFORMAT_BEGIN
 90
        0
 91
        1
 62
     0
 92
       -2
340
0
 93
        0
 40
0.045
309
GRIDFORMAT_END
 95
       32
302
GRIDFORMAT
  1
GRIDFORMAT_BEGIN
 90
        0
 91
        1
 62
     0
 92
       -2
340
0
 93
        0
 40
0.045
309
GRIDFORMAT_END
309
TABLEFORMAT_END
  1
CELLSTYLE_BEGIN
 90
        2
 91
        1
300
_HEADER
309
CELLSTYLE_END
300
CELLSTYLE
  1
TABLEFORMAT_BEGIN
 90
        5
170
     1
 91
        0
 92
        0
 62
   257
 93
        1
300
CONTENTFORMAT
  1
CONTENTFORMAT_BEGIN
 90
        0
 91
        0
 92
        4
 93
        0
300

 40
0.0
140
1.0
 94
        2
 62
     0
340
17
144
4.5
309
CONTENTFORMAT_END
171
     1
301
MARGIN
  1
CELLMARGIN_BEGIN
 40
0.06
 40
0.06
 40
0.06
 40
0.06
 40
0.18
 40
0.18
309
CELLMARGIN_END
 94
        6
 95
        1
302
GRIDFORMAT
  1
GRIDFORMAT_BEGIN
 90
        0
 91
        1
 62
     0
 92
       -2
340
0
 93
        0
 40
0.045
309
GRIDFORMAT_END
 95
        2
302
GRIDFORMAT
  1
GRIDFORMAT_BEGIN
 90
        0
 91
        1
 62
     0
 92
       -2
340
0
 93
        0
 40
0.045
309
GRIDFORMAT_END
 95
        4
302
GRIDFORMAT
  1
GRIDFORMAT_BEGIN
 90
        0
 91
        1
 62
     0
 92
       -2
340
0
 93
        0
 40
0.045
309
GRIDFORMAT_END
 95
        8
302
GRIDFORMAT
  1
GRIDFORMAT_BEGIN
 90
        0
 91
        1
 62
     0
 92
       -2
340
0
 93
        0
 40
0.045
309
GRIDFORMAT_END
 95
       16
302
GRIDFORMAT
  1
GRIDFORMAT_BEGIN
 90
        0
 91
        1
 62
     0
 92
       -2
340
0
 93
        0
 40
0.045
309
GRIDFORMAT_END
 95
       32
302
GRIDFORMAT
  1
GRIDFORMAT_BEGIN
 90
        0
 91
        1
 62
     0
 92
       -2
340
0
 93
        0
 40
0.045
309
GRIDFORMAT_END
309
TABLEFORMAT_END
  1
CELLSTYLE_BEGIN
 90
        3
 91
        2
300
_DATA
309
CELLSTYLE_END
  0
ENDSEC
  0
EOF
