  0
SECTION
  2
HEADER
  9
$ACADVER
  1
AC1021
  9
$ACADMAINTVER
 70
    25
  9
$DWGCODEPAGE
  3
ANSI_932
  9
$LASTSAVEDBY
  1
Shimosaki
  9
$INSBASE
 10
0.0
 20
0.0
 30
0.0
  9
$EXTMIN
 10
36.10107227362437
 20
31.89607416228557
 30
0.0
  9
$EXTMAX
 10
1011.101072273866
 20
1448.573336753213
 30
0.0
  9
$LIMMIN
 10
0.0
 20
0.0
  9
$LIMMAX
 10
1050.0
 20
1485.0
  9
$ORTHOMODE
 70
     1
  9
$REGENMODE
 70
     1
  9
$FILLMODE
 70
     1
  9
$QTEXTMODE
 70
     0
  9
$MIRRTEXT
 70
     1
  9
$LTSCALE
 40
50.8
  9
$ATTMODE
 70
     1
  9
$TEXTSIZE
 40
2.5
  9
$TRACEWID
 40
1.0
  9
$TEXTSTYLE
  7
ＭＳ ゴシック
  9
$CLAYER
  8
MDS_Layer_11
  9
$CELTYPE
  6
Continuous
  9
$CECOLOR
 62
   256
  9
$CELTSCALE
 40
1.0
  9
$DISPSILH
 70
     0
  9
$DIMSCALE
 40
1.0
  9
$DIMASZ
 40
5.0
  9
$DIMEXO
 40
5.0
  9
$DIMDLI
 40
0.9999999999999999
  9
$DIMRND
 40
0.0
  9
$DIMDLE
 40
0.0
  9
$DIMEXE
 40
0.0
  9
$DIMTP
 40
0.0
  9
$DIMTM
 40
0.0
  9
$DIMTXT
 40
12.0
  9
$DIMCEN
 40
0.0
  9
$DIMTSZ
 40
0.0
  9
$DIMTOL
 70
     0
  9
$DIMLIM
 70
     0
  9
$DIMTIH
 70
     0
  9
$DIMTOH
 70
     0
  9
$DIMSE1
 70
     0
  9
$DIMSE2
 70
     0
  9
$DIMTAD
 70
     1
  9
$DIMZIN
 70
    11
  9
$DIMBLK
  1
DOT
  9
$DIMASO
 70
     1
  9
$DIMSHO
 70
     1
  9
$DIMPOST
  1
<>
  9
$DIMAPOST
  1
[]
  9
$DIMALT
 70
     0
  9
$DIMALTD
 70
     1
  9
$DIMALTF
 40
1.0
  9
$DIMLFAC
 40
1.0
  9
$DIMTOFL
 70
     0
  9
$DIMTVP
 40
0.0
  9
$DIMTIX
 70
     1
  9
$DIMSOXD
 70
     0
  9
$DIMSAH
 70
     0
  9
$DIMBLK1
  1

  9
$DIMBLK2
  1

  9
$DIMSTYLE
  2
tfrom線あり
  9
$DIMCLRD
 70
     0
  9
$DIMCLRE
 70
     0
  9
$DIMCLRT
 70
     0
  9
$DIMTFAC
 40
1.0
  9
$DIMGAP
 40
5.0
  9
$DIMJUST
 70
     0
  9
$DIMSD1
 70
     0
  9
$DIMSD2
 70
     0
  9
$DIMTOLJ
 70
     1
  9
$DIMTZIN
 70
    11
  9
$DIMALTZ
 70
    11
  9
$DIMALTTZ
 70
    11
  9
$DIMUPT
 70
     0
  9
$DIMDEC
 70
     0
  9
$DIMTDEC
 70
     1
  9
$DIMALTU
 70
     2
  9
$DIMALTTD
 70
     2
  9
$DIMTXSTY
  7
ＭＳ ゴシック
  9
$DIMAUNIT
 70
     0
  9
$DIMADEC
 70
     2
  9
$DIMALTRND
 40
0.0
  9
$DIMAZIN
 70
     0
  9
$DIMDSEP
 70
    46
  9
$DIMATFIT
 70
     0
  9
$DIMFRAC
 70
     2
  9
$DIMLDRBLK
  1
DOT
  9
$DIMLUNIT
 70
     2
  9
$DIMLWD
 70
    -2
  9
$DIMLWE
 70
    -2
  9
$DIMTMOVE
 70
     0
  9
$DIMFXL
 40
1.0
  9
$DIMFXLON
 70
     0
  9
$DIMJOGANG
 40
0.7853981633974483
  9
$DIMTFILL
 70
     0
  9
$DIMTFILLCLR
 70
     0
  9
$DIMARCSYM
 70
     0
  9
$DIMLTYPE
  6

  9
$DIMLTEX1
  6

  9
$DIMLTEX2
  6

  9
$LUNITS
 70
     2
  9
$LUPREC
 70
     0
  9
$SKETCHINC
 40
0.1
  9
$FILLETRAD
 40
0.0
  9
$AUNITS
 70
     0
  9
$AUPREC
 70
     0
  9
$MENU
  1
acad
  9
$ELEVATION
 40
0.0
  9
$PELEVATION
 40
0.0
  9
$THICKNESS
 40
0.0
  9
$LIMCHECK
 70
     0
  9
$CHAMFERA
 40
0.0
  9
$CHAMFERB
 40
0.0
  9
$CHAMFERC
 40
0.0
  9
$CHAMFERD
 40
0.0
  9
$SKPOLY
 70
     0
  9
$TDCREATE
 40
2447893.375
  9
$TDUCREATE
 40
0.0
  9
$TDUPDATE
 40
2457219.682811377
  9
$TDUUPDATE
 40
2457219.307811377
  9
$TDINDWG
 40
0.1270845718
  9
$TDUSRTIMER
 40
2457219.307450903
  9
$USRTIMER
 70
     1
  9
$ANGBASE
 50
0.0
  9
$ANGDIR
 70
     0
  9
$PDMODE
 70
     1
  9
$PDSIZE
 40
-2.0
  9
$PLINEWID
 40
0.0
  9
$SPLFRAME
 70
     0
  9
$SPLINETYPE
 70
     6
  9
$SPLINESEGS
 70
     8
  9
$HANDSEED
  5
1224
  9
$SURFTAB1
 70
     6
  9
$SURFTAB2
 70
     6
  9
$SURFTYPE
 70
     6
  9
$SURFU
 70
     6
  9
$SURFV
 70
     6
  9
$UCSBASE
  2

  9
$UCSNAME
  2

  9
$UCSORG
 10
0.0
 20
0.0
 30
0.0
  9
$UCSXDIR
 10
1.0
 20
0.0
 30
0.0
  9
$UCSYDIR
 10
0.0
 20
1.0
 30
0.0
  9
$UCSORTHOREF
  2

  9
$UCSORTHOVIEW
 70
     0
  9
$UCSORGTOP
 10
0.0
 20
0.0
 30
0.0
  9
$UCSORGBOTTOM
 10
0.0
 20
0.0
 30
0.0
  9
$UCSORGLEFT
 10
0.0
 20
0.0
 30
0.0
  9
$UCSORGRIGHT
 10
0.0
 20
0.0
 30
0.0
  9
$UCSORGFRONT
 10
0.0
 20
0.0
 30
0.0
  9
$UCSORGBACK
 10
0.0
 20
0.0
 30
0.0
  9
$PUCSBASE
  2

  9
$PUCSNAME
  2

  9
$PUCSORG
 10
0.0
 20
0.0
 30
0.0
  9
$PUCSXDIR
 10
1.0
 20
0.0
 30
0.0
  9
$PUCSYDIR
 10
0.0
 20
1.0
 30
0.0
  9
$PUCSORTHOREF
  2

  9
$PUCSORTHOVIEW
 70
     0
  9
$PUCSORGTOP
 10
0.0
 20
0.0
 30
0.0
  9
$PUCSORGBOTTOM
 10
0.0
 20
0.0
 30
0.0
  9
$PUCSORGLEFT
 10
0.0
 20
0.0
 30
0.0
  9
$PUCSORGRIGHT
 10
0.0
 20
0.0
 30
0.0
  9
$PUCSORGFRONT
 10
0.0
 20
0.0
 30
0.0
  9
$PUCSORGBACK
 10
0.0
 20
0.0
 30
0.0
  9
$USERI1
 70
     0
  9
$USERI2
 70
     0
  9
$USERI3
 70
     0
  9
$USERI4
 70
     0
  9
$USERI5
 70
     0
  9
$USERR1
 40
0.0
  9
$USERR2
 40
0.0
  9
$USERR3
 40
0.0
  9
$USERR4
 40
0.0
  9
$USERR5
 40
0.0
  9
$WORLDVIEW
 70
     1
  9
$SHADEDGE
 70
     3
  9
$SHADEDIF
 70
    70
  9
$TILEMODE
 70
     1
  9
$MAXACTVP
 70
    64
  9
$PINSBASE
 10
0.0
 20
0.0
 30
0.0
  9
$PLIMCHECK
 70
     0
  9
$PEXTMIN
 10
0.0
 20
0.0
 30
0.0
  9
$PEXTMAX
 10
0.0
 20
0.0
 30
0.0
  9
$PLIMMIN
 10
-7.5
 20
-20.0
  9
$PLIMMAX
 10
412.5
 20
277.0
  9
$UNITMODE
 70
     0
  9
$VISRETAIN
 70
     0
  9
$PLINEGEN
 70
     1
  9
$PSLTSCALE
 70
     0
  9
$TREEDEPTH
 70
  3020
  9
$CMLSTYLE
  2
Standard
  9
$CMLJUST
 70
     0
  9
$CMLSCALE
 40
1.0
  9
$PROXYGRAPHICS
 70
     0
  9
$MEASUREMENT
 70
     1
  9
$CELWEIGHT
370
    -1
  9
$ENDCAPS
280
     0
  9
$JOINSTYLE
280
     0
  9
$LWDISPLAY
290
     1
  9
$INSUNITS
 70
     4
  9
$HYPERLINKBASE
  1

  9
$STYLESHEET
  1

  9
$XEDIT
290
     1
  9
$CEPSNTYPE
380
     0
  9
$PSTYLEMODE
290
     1
  9
$FINGERPRINTGUID
  2

  9
$VERSIONGUID
  2

  9
$EXTNAMES
290
     1
  9
$PSVPSCALE
 40
0.0
  9
$OLESTARTUP
290
     0
  9
$SORTENTS
280
   127
  9
$INDEXCTL
280
     0
  9
$HIDETEXT
280
     1
  9
$XCLIPFRAME
290
     0
  9
$HALOGAP
280
     0
  9
$OBSCOLOR
 70
   257
  9
$OBSLTYPE
280
     0
  9
$INTERSECTIONDISPLAY
280
     0
  9
$INTERSECTIONCOLOR
 70
   257
  9
$DIMASSOC
280
     2
  9
$PROJECTNAME
  1

  9
$CAMERADISPLAY
290
     0
  9
$LENSLENGTH
 40
50.0
  9
$CAMERAHEIGHT
 40
0.0
  9
$STEPSPERSEC
 40
2.0
  9
$STEPSIZE
 40
6.0
  9
$3DDWFPREC
 40
2.0
  9
$PSOLWIDTH
 40
0.25
  9
$PSOLHEIGHT
 40
4.0
  9
$LOFTANG1
 40
1.570796326794897
  9
$LOFTANG2
 40
1.570796326794897
  9
$LOFTMAG1
 40
0.0
  9
$LOFTMAG2
 40
0.0
  9
$LOFTPARAM
 70
     7
  9
$LOFTNORMALS
280
     1
  9
$LATITUDE
 40
37.795
  9
$LONGITUDE
 40
-122.394
  9
$NORTHDIRECTION
 40
0.0
  9
$TIMEZONE
 70
 -8000
  9
$LIGHTGLYPHDISPLAY
280
     1
  9
$TILEMODELIGHTSYNCH
280
     1
  9
$SOLIDHIST
280
     1
  9
$SHOWHIST
280
     1
  9
$DWFFRAME
280
     2
  9
$DGNFRAME
280
     2
  9
$REALWORLDSCALE
290
     1
  9
$INTERFERECOLOR
 62
   256
  9
$CSHADOW
280
     0
  9
$SHADOWPLANELOCATION
 40
0.0
  0
ENDSEC
  0
SECTION
  2
CLASSES
  0
CLASS
  1
LWPOLYLINE
  2
AcDbPolyline
  3
ObjectDBX Classes
 90
        0
 91
        1
280
     0
281
     1
  0
CLASS
  1
IMAGE
  2
AcDbRasterImage
  3
ISM
 90
      127
 91
        5
280
     0
281
     1
  0
CLASS
  1
OLE2FRAME
  2
AcDbOle2Frame
  3
ObjectDBX Classes
 90
        0
 91
        1
280
     0
281
     1
  0
CLASS
  1
HATCH
  2
AcDbHatch
  3
ObjectDBX Classes
 90
        0
 91
        1
280
     0
281
     1
  0
CLASS
  1
DICTIONARYVAR
  2
AcDbDictionaryVar
  3
ObjectDBX Classes
 90
        0
 91
        4
280
     0
281
     0
  0
CLASS
  1
RASTERVARIABLES
  2
AcDbRasterVariables
  3
ISM
 90
        0
 91
        5
280
     0
281
     0
  0
CLASS
  1
IMAGEDEF
  2
AcDbRasterImageDef
  3
ISM
 90
        0
 91
        4
280
     0
281
     0
  0
CLASS
  1
IMAGEDEF_REACTOR
  2
AcDbRasterImageDefReactor
  3
ISM
 90
        1
 91
        4
280
     0
281
     0
  0
CLASS
  1
IDBUFFER
  2
AcDbIdBuffer
  3
ObjectDBX Classes
 90
        0
 91
        4
280
     0
281
     0
  0
CLASS
  1
SPATIAL_FILTER
  2
AcDbSpatialFilter
  3
ObjectDBX Classes
 90
        0
 91
        4
280
     0
281
     0
  0
CLASS
  1
XRECORD
  2
AcDbXrecord
  3
ObjectDBX Classes
 90
        0
 91
        1
280
     0
281
     0
  0
CLASS
  1
SORTENTSTABLE
  2
AcDbSortentsTable
  3
ObjectDBX Classes
 90
        0
 91
        4
280
     0
281
     0
  0
CLASS
  1
LAYER_INDEX
  2
AcDbLayerIndex
  3
ObjectDBX Classes
 90
        0
 91
        4
280
     0
281
     0
  0
CLASS
  1
SPATIAL_INDEX
  2
AcDbSpatialIndex
  3
AutoCAD 2000
 90
        0
 91
        4
280
     0
281
     0
  0
CLASS
  1
OBJECT_PTR
  2
CAseDLPNTableRecord
  3
ASE-LPNTableRecord
 90
        1
 91
        4
280
     0
281
     0
  0
CLASS
  1
LAYOUT
  2
AcDbLayout
  3
ObjectDBX Classes
 90
        0
 91
        1
280
     0
281
     0
  0
CLASS
  1
PLOTSETTINGS
  2
AcDbPlotSettings
  3
ObjectDBX Classes
 90
        0
 91
        4
280
     0
281
     0
  0
CLASS
  1
ACDBDICTIONARYWDFLT
  2
AcDbDictionaryWithDefault
  3
ObjectDBX Classes
 90
        0
 91
        5
280
     0
281
     0
  0
CLASS
  1
ACDBPLACEHOLDER
  2
AcDbPlaceHolder
  3
ObjectDBX Classes
 90
        0
 91
        1
280
     0
281
     0
  0
CLASS
  1
SCALE
  2
AcDbScale
  3
ObjectDBX Classes
 90
     1153
 91
        5
280
     0
281
     0
  0
CLASS
  1
MATERIAL
  2
AcDbMaterial
  3
ObjectDBX Classes
 90
     1153
 91
        5
280
     0
281
     0
  0
CLASS
  1
VISUALSTYLE
  2
AcDbVisualStyle
  3
ObjectDBX Classes
 90
     4095
 91
        5
280
     0
281
     0
  0
CLASS
  1
TABLESTYLE
  2
AcDbTableStyle
  3
ObjectDBX Classes
 90
     4095
 91
        5
280
     0
281
     0
  0
CLASS
  1
DIMASSOC
  2
AcDbDimAssoc
  3
"AcDbDimAssoc|Product Desc:     AcDim ARX App For Dimension|Company:          Autodesk, Inc.|WEB Address:      www.autodesk.com"
 90
        0
 91
        4
280
     0
281
     0
  0
CLASS
  1
CELLSTYLEMAP
  2
AcDbCellStyleMap
  3
ObjectDBX Classes
 90
     1152
 91
        4
280
     0
281
     0
  0
CLASS
  1
SUN
  2
AcDbSun
  3
SCENEOE
 90
     1153
 91
        5
280
     0
281
     0
  0
ENDSEC
  0
SECTION
  2
TABLES
  0
TABLE
  2
VPORT
  5
7
330
0
100
AcDbSymbolTable
 70
     1
  0
VPORT
  5
15
330
7
100
AcDbSymbolTableRecord
100
AcDbViewportTableRecord
  2
*ACTIVE
 70
     0
 10
0.0
 20
0.0
 11
1.0
 21
1.0
 12
632.919922327616
 22
676.555491828855
 13
0.0
 23
0.0
 14
1.0
 24
1.0
 15
0.0
 25
0.0
 16
0.0
 26
0.0
 36
1.0
 17
-91.02013567089978
 27
73.59871453016603
 37
-46.86809886248109
 40
739.8455336154847
 41
2.184105960264901
 42
50.0
 43
0.0
 44
0.0
 50
0.0
 51
0.0
 71
    16
 72
  2000
 73
     1
 74
     1
 75
     0
 76
     0
 77
     0
 78
     0
281
     0
 65
     1
110
0.0
120
0.0
130
0.0
111
1.0
121
0.0
131
0.0
112
0.0
122
1.0
132
0.0
 79
     0
146
0.0
348
26C
 60
     3
 61
     5
292
     1
282
     1
141
0.0
142
0.0
 63
   256
361
904
  0
ENDTAB
  0
TABLE
  2
LTYPE
  5
4
330
0
100
AcDbSymbolTable
 70
     4
  0
LTYPE
  5
11
330
4
100
AcDbSymbolTableRecord
100
AcDbLinetypeTableRecord
  2
ByBlock
 70
     0
  3

 72
    65
 73
     0
 40
0.0
  0
LTYPE
  5
12
330
4
100
AcDbSymbolTableRecord
100
AcDbLinetypeTableRecord
  2
ByLayer
 70
     0
  3

 72
    65
 73
     0
 40
0.0
  0
LTYPE
  5
13
330
4
100
AcDbSymbolTableRecord
100
AcDbLinetypeTableRecord
  2
Continuous
 70
     0
  3
Solid line
 72
    65
 73
     0
 40
0.0
  0
LTYPE
  5
45
330
4
100
AcDbSymbolTableRecord
100
AcDbLinetypeTableRecord
  2
STYLE_12
 70
     0
  3

 72
    65
 73
     2
 40
0.3937007874015748
 49
0.1968503937007874
 74
     0
 49
-0.1968503937007874
 74
     0
  0
LTYPE
  5
D64
330
4
100
AcDbSymbolTableRecord
100
AcDbLinetypeTableRecord
  2
CENTER2
 70
     0
  3
Center (.5x) ___ _ ___ _ ___ _ ___ _ ___ _ ___
 72
    65
 73
     4
 40
28.575
 49
19.05
 74
     4
 75
     0
340
0
 46
0.0
 50
0.0
 44
0.0
 45
0.0
 49
-3.175
 74
     4
 75
     0
340
0
 46
0.0
 50
0.0
 44
0.0
 45
0.0
 49
3.175
 74
     4
 75
     0
340
0
 46
0.0
 50
0.0
 44
0.0
 45
0.0
 49
-3.175
 74
     4
 75
     0
340
0
 46
0.0
 50
0.0
 44
0.0
 45
0.0
  0
LTYPE
  5
D65
330
4
100
AcDbSymbolTableRecord
100
AcDbLinetypeTableRecord
  2
HIDDEN2
 70
     0
  3
Hidden (.5x) _ _ _ _ _ _ _ _ _ _ _ _ _ _ _ _ _ 
 72
    65
 73
     2
 40
4.7625
 49
3.175
 74
     4
 75
     0
340
0
 46
0.0
 50
0.0
 44
0.0
 45
0.0
 49
-1.5875
 74
     4
 75
     0
340
0
 46
0.0
 50
0.0
 44
0.0
 45
0.0
  0
ENDTAB
  0
TABLE
  2
LAYER
  5
2
102
{ACAD_XDICTIONARY
360
2E1
102
}
330
0
100
AcDbSymbolTable
 70
    10
  0
LAYER
  5
14
330
2
100
AcDbSymbolTableRecord
100
AcDbLayerTableRecord
  2
0
 70
     0
 62
     7
  6
Continuous
370
    -3
390
1D
347
266
  0
LAYER
  5
4B
330
2
100
AcDbSymbolTableRecord
100
AcDbLayerTableRecord
  2
TEMPLATE
 70
     0
 62
     7
  6
Continuous
370
    20
390
1D
347
266
  0
LAYER
  5
4C
330
2
100
AcDbSymbolTableRecord
100
AcDbLayerTableRecord
  2
DIM
 70
     0
 62
     7
  6
Continuous
370
    13
390
1D
347
266
  0
LAYER
  5
4D
330
2
100
AcDbSymbolTableRecord
100
AcDbLayerTableRecord
  2
MODEL
 70
     0
 62
     7
  6
Continuous
370
    20
390
1D
347
266
  0
LAYER
  5
667
330
2
100
AcDbSymbolTableRecord
100
AcDbLayerTableRecord
  2
LOGO
 70
     0
 62
     7
  6
Continuous
370
    -3
390
1D
347
266
  0
LAYER
  5
88C
330
2
100
AcDbSymbolTableRecord
100
AcDbLayerTableRecord
  2
HIDDEN
 70
     0
 62
     7
  6
STYLE_12
370
    20
390
1D
347
266
1001
AcAecLayerStandard
1000

1000

  0
LAYER
  5
D5F
330
2
100
AcDbSymbolTableRecord
100
AcDbLayerTableRecord
  2
MDS_Layer_11
 70
     0
 62
     7
  6
Continuous
370
    -3
390
1D
347
266
  0
LAYER
  5
D62
330
2
100
AcDbSymbolTableRecord
100
AcDbLayerTableRecord
  2
DV1_ﾃﾞﾌｫﾙﾄ
 70
     0
 62
     7
  6
Continuous
370
    -3
390
1D
347
266
  0
LAYER
  5
D63
330
2
100
AcDbSymbolTableRecord
100
AcDbLayerTableRecord
  2
DV2_0
 70
     0
 62
     7
  6
Continuous
370
    -3
390
1D
347
266
  0
LAYER
  5
FA9
330
2
100
AcDbSymbolTableRecord
100
AcDbLayerTableRecord
  2
Defpoints
 70
     0
 62
     7
  6
Continuous
290
     0
370
    -3
390
1D
347
266
  0
ENDTAB
  0
TABLE
  2
STYLE
  5
3
330
0
100
AcDbSymbolTable
 70
     3
  0
STYLE
  5
17
330
3
100
AcDbSymbolTableRecord
100
AcDbTextStyleTableRecord
  2
Standard
 70
     0
 40
0.0
 41
1.0
 50
0.0
 71
     0
 42
2.5
  3
txt
  4
BIGFONT.SHX
  0
STYLE
  5
39
330
3
100
AcDbSymbolTableRecord
100
AcDbTextStyleTableRecord
  2
ＭＳ ゴシック
 70
     0
 40
0.0
 41
1.0
 50
0.0
 71
     0
 42
2.5
  3
msgothic.ttc
  4
ＭＳ ゴシック
1001
ACAD
1000
ＭＳ ゴシック
1071
        0
  0
STYLE
  5
D69
330
3
100
AcDbSymbolTableRecord
100
AcDbTextStyleTableRecord
  2
SEACAD_arial_ttf
 70
     0
 40
0.0
 41
1.0
 50
0.0
 71
     0
 42
2.5
  3
arial.ttf
  4

  0
ENDTAB
  0
TABLE
  2
VIEW
  5
5
330
0
100
AcDbSymbolTable
 70
     0
  0
ENDTAB
  0
TABLE
  2
UCS
  5
6
330
0
100
AcDbSymbolTable
 70
     0
  0
ENDTAB
  0
TABLE
  2
APPID
  5
8
330
0
100
AcDbSymbolTable
 70
     3
  0
APPID
  5
16
330
8
100
AcDbSymbolTableRecord
100
AcDbRegAppTableRecord
  2
ACAD
 70
     0
  0
APPID
  5
7AC
330
8
100
AcDbSymbolTableRecord
100
AcDbRegAppTableRecord
  2
AcAecLayerStandard
 70
     0
  0
APPID
  5
11DC
330
8
100
AcDbSymbolTableRecord
100
AcDbRegAppTableRecord
  2
ACAD_DSTYLE_DIMRADIAL_EXTENSION
 70
     0
  0
ENDTAB
  0
TABLE
  2
DIMSTYLE
  5
9
330
0
100
AcDbSymbolTable
 70
     4
100
AcDbDimStyleTable
  0
DIMSTYLE
105
18
330
9
100
AcDbSymbolTableRecord
100
AcDbDimStyleTableRecord
  2
Standard
 70
     0
178
     0
340
17
  0
DIMSTYLE
105
57
102
{ACAD_REACTORS
330
11BA
330
11CB
330
1118
330
11DD
330
110F
330
1116
330
110E
330
110D
330
1111
330
110B
330
1110
330
1113
102
}
330
9
100
AcDbSymbolTableRecord
100
AcDbDimStyleTableRecord
  2
tfrom線あり
 70
     0
  3
<>
  4
[]
 41
5.0
 42
5.0
 43
0.9999999999999999
 44
0.0
 73
     0
 74
     0
 77
     1
 78
    11
140
12.0
141
0.0
143
1.0
147
5.0
171
     1
174
     1
178
     0
179
     2
271
     0
272
     1
276
     2
284
    11
285
    11
286
    11
289
     0
340
39
341
4E
342
4E
  0
DIMSTYLE
105
5C
102
{ACAD_REACTORS
102
}
330
9
100
AcDbSymbolTableRecord
100
AcDbDimStyleTableRecord
  2
JIS
 70
     0
  3
<>
  4
[]
 41
9.0
 42
0.0
 43
6.99999999999994
 44
19.9999999999962
 73
     0
 74
     0
 77
     1
 78
    11
140
24.4326171875
141
0.0
143
1.0
147
10.0
171
     1
174
     1
178
     0
179
     2
271
     1
272
     1
276
     2
284
    11
285
    11
286
    11
289
     0
340
39
341
4E
342
4E
  0
DIMSTYLE
105
D68
102
{ACAD_REACTORS
102
}
330
9
100
AcDbSymbolTableRecord
100
AcDbDimStyleTableRecord
  2
$DDT_AUDIT_GENERATED_(186)
 70
     0
 41
6.0
 42
0.0
 44
3.0
 78
     8
140
6.0
141
3.0
147
3.0
173
     1
176
   136
177
   136
271
     0
178
   136
271
     0
272
     0
278
    44
284
     8
340
D69
343
D6A
344
D6A
  0
ENDTAB
  0
TABLE
  2
BLOCK_RECORD
  5
1
330
0
100
AcDbSymbolTable
 70
    34
  0
BLOCK_RECORD
  5
A
330
1
100
AcDbSymbolTableRecord
100
AcDbBlockTableRecord
  2
*MODEL_SPACE
340
20
 70
     0
280
     1
281
     0
  0
BLOCK_RECORD
  5
B
330
1
100
AcDbSymbolTableRecord
100
AcDbBlockTableRecord
  2
*PAPER_SPACE
340
21
 70
     0
280
     1
281
     0
  0
BLOCK_RECORD
  5
4E
330
1
100
AcDbSymbolTableRecord
100
AcDbBlockTableRecord
  2
_DOT
340
0
102
{BLKREFS
331
F40
331
F41
331
1122
331
1123
331
113C
331
113D
331
1149
331
114A
331
1158
331
1159
331
1165
331
1166
331
1173
331
1174
331
117E
331
117F
331
1197
331
1198
331
11A4
331
11A5
331
11C5
331
11C6
331
11D6
331
11D7
331
11E5
102
}
 70
     0
280
     1
281
     0
  0
BLOCK_RECORD
  5
68A
330
1
100
AcDbSymbolTableRecord
100
AcDbBlockTableRecord
  2
名称未設定-1
340
0
102
{BLKREFS
331
6B5
102
}
 70
     1
280
     1
281
     0
  0
BLOCK_RECORD
  5
68D
330
1
100
AcDbSymbolTableRecord
100
AcDbBlockTableRecord
  2
block 2
340
0
102
{BLKREFS
331
68C
102
}
 70
     0
280
     1
281
     0
  0
BLOCK_RECORD
  5
690
330
1
100
AcDbSymbolTableRecord
100
AcDbBlockTableRecord
  2
block 3
340
0
102
{BLKREFS
331
68F
102
}
 70
     0
280
     1
281
     0
  0
BLOCK_RECORD
  5
693
330
1
100
AcDbSymbolTableRecord
100
AcDbBlockTableRecord
  2
block 4
340
0
102
{BLKREFS
331
692
102
}
 70
     0
280
     1
281
     0
  0
BLOCK_RECORD
  5
6A2
330
1
100
AcDbSymbolTableRecord
100
AcDbBlockTableRecord
  2
block 5
340
0
102
{BLKREFS
331
6A1
102
}
 70
     0
280
     1
281
     0
  0
BLOCK_RECORD
  5
D6A
330
1
100
AcDbSymbolTableRecord
100
AcDbBlockTableRecord
  2
_SE_FILLED
340
0
102
{BLKREFS
331
ECD
331
ECE
331
ED9
331
EDA
331
EE3
331
EE4
331
EEE
331
EEF
331
EFA
331
EFB
331
F05
331
F06
331
F0F
331
F10
331
F49
331
F68
331
F69
331
F96
331
F97
331
FA1
331
FA2
102
}
 70
     0
280
     1
281
     0
1001
ACAD
1000
DesignCenter Data
1002
{
1070
     1
1070
     0
1002
}
  0
BLOCK_RECORD
  5
EC7
330
1
100
AcDbSymbolTableRecord
100
AcDbBlockTableRecord
  2
DMBLK1
340
0
 70
     0
280
     1
281
     0
1001
ACAD
1000
DesignCenter Data
1002
{
1070
     1
1070
     0
1002
}
  0
BLOCK_RECORD
  5
ED2
330
1
100
AcDbSymbolTableRecord
100
AcDbBlockTableRecord
  2
DMBLK2
340
0
 70
     0
280
     1
281
     0
1001
ACAD
1000
DesignCenter Data
1002
{
1070
     1
1070
     0
1002
}
  0
BLOCK_RECORD
  5
EDD
330
1
100
AcDbSymbolTableRecord
100
AcDbBlockTableRecord
  2
DMBLK3
340
0
 70
     0
280
     1
281
     0
1001
ACAD
1000
DesignCenter Data
1002
{
1070
     1
1070
     0
1002
}
  0
BLOCK_RECORD
  5
EE8
330
1
100
AcDbSymbolTableRecord
100
AcDbBlockTableRecord
  2
DMBLK4
340
0
 70
     0
280
     1
281
     0
1001
ACAD
1000
DesignCenter Data
1002
{
1070
     1
1070
     0
1002
}
  0
BLOCK_RECORD
  5
EF4
330
1
100
AcDbSymbolTableRecord
100
AcDbBlockTableRecord
  2
DMBLK5
340
0
 70
     0
280
     1
281
     0
1001
ACAD
1000
DesignCenter Data
1002
{
1070
     1
1070
     0
1002
}
  0
BLOCK_RECORD
  5
EFF
330
1
100
AcDbSymbolTableRecord
100
AcDbBlockTableRecord
  2
DMBLK6
340
0
 70
     0
280
     1
281
     0
1001
ACAD
1000
DesignCenter Data
1002
{
1070
     1
1070
     0
1002
}
  0
BLOCK_RECORD
  5
F0A
330
1
100
AcDbSymbolTableRecord
100
AcDbBlockTableRecord
  2
DMBLK7
340
0
 70
     0
280
     1
281
     0
1001
ACAD
1000
DesignCenter Data
1002
{
1070
     1
1070
     0
1002
}
  0
BLOCK_RECORD
  5
F13
330
1
100
AcDbSymbolTableRecord
100
AcDbBlockTableRecord
  2
SE
340
0
102
{BLKREFS
331
1112
102
}
 70
     0
280
     1
281
     0
1001
ACAD
1000
DesignCenter Data
1002
{
1070
     1
1070
     0
1002
}
  0
BLOCK_RECORD
  5
F39
330
1
100
AcDbSymbolTableRecord
100
AcDbBlockTableRecord
  2
DMBLK8
340
0
 70
     0
280
     1
281
     0
1001
ACAD
1000
DesignCenter Data
1002
{
1070
     1
1070
     0
1002
}
  0
BLOCK_RECORD
  5
F44
330
1
100
AcDbSymbolTableRecord
100
AcDbBlockTableRecord
  2
DMBLK9
340
0
 70
     0
280
     1
281
     0
1001
ACAD
1000
DesignCenter Data
1002
{
1070
     1
1070
     0
1002
}
  0
BLOCK_RECORD
  5
F4E
330
1
100
AcDbSymbolTableRecord
100
AcDbBlockTableRecord
  2
SE1
340
0
 70
     0
280
     1
281
     0
1001
ACAD
1000
DesignCenter Data
1002
{
1070
     1
1070
     0
1002
}
  0
BLOCK_RECORD
  5
F62
330
1
100
AcDbSymbolTableRecord
100
AcDbBlockTableRecord
  2
DMBLK10
340
0
 70
     0
280
     1
281
     0
1001
ACAD
1000
DesignCenter Data
1002
{
1070
     1
1070
     0
1002
}
  0
BLOCK_RECORD
  5
F6D
330
1
100
AcDbSymbolTableRecord
100
AcDbBlockTableRecord
  2
SE2
340
0
102
{BLKREFS
331
1117
102
}
 70
     0
280
     1
281
     0
1001
ACAD
1000
DesignCenter Data
1002
{
1070
     1
1070
     0
1002
}
  0
BLOCK_RECORD
  5
F90
330
1
100
AcDbSymbolTableRecord
100
AcDbBlockTableRecord
  2
DMBLK11
340
0
 70
     0
280
     1
281
     0
1001
ACAD
1000
DesignCenter Data
1002
{
1070
     1
1070
     0
1002
}
  0
BLOCK_RECORD
  5
F9B
330
1
100
AcDbSymbolTableRecord
100
AcDbBlockTableRecord
  2
DMBLK12
340
0
 70
     0
280
     1
281
     0
1001
ACAD
1000
DesignCenter Data
1002
{
1070
     1
1070
     0
1002
}
  0
BLOCK_RECORD
  5
111B
330
1
100
AcDbSymbolTableRecord
100
AcDbBlockTableRecord
  2
*D22
340
0
 70
     0
280
     1
281
     0
  0
BLOCK_RECORD
  5
1136
330
1
100
AcDbSymbolTableRecord
100
AcDbBlockTableRecord
  2
*D23
340
0
 70
     0
280
     1
281
     0
  0
BLOCK_RECORD
  5
1143
330
1
100
AcDbSymbolTableRecord
100
AcDbBlockTableRecord
  2
*D24
340
0
 70
     0
280
     1
281
     0
  0
BLOCK_RECORD
  5
1152
330
1
100
AcDbSymbolTableRecord
100
AcDbBlockTableRecord
  2
*D25
340
0
 70
     0
280
     1
281
     0
  0
BLOCK_RECORD
  5
115F
330
1
100
AcDbSymbolTableRecord
100
AcDbBlockTableRecord
  2
*D26
340
0
 70
     0
280
     1
281
     0
  0
BLOCK_RECORD
  5
116C
330
1
100
AcDbSymbolTableRecord
100
AcDbBlockTableRecord
  2
*D27
340
0
 70
     0
280
     1
281
     0
  0
BLOCK_RECORD
  5
1178
330
1
100
AcDbSymbolTableRecord
100
AcDbBlockTableRecord
  2
*D28
340
0
 70
     0
280
     1
281
     0
  0
BLOCK_RECORD
  5
1191
330
1
100
AcDbSymbolTableRecord
100
AcDbBlockTableRecord
  2
*D29
340
0
 70
     0
280
     1
281
     0
  0
BLOCK_RECORD
  5
119E
330
1
100
AcDbSymbolTableRecord
100
AcDbBlockTableRecord
  2
*D30
340
0
 70
     0
280
     1
281
     0
  0
BLOCK_RECORD
  5
11BD
330
1
100
AcDbSymbolTableRecord
100
AcDbBlockTableRecord
  2
*D31
340
0
 70
     0
280
     1
281
     0
  0
BLOCK_RECORD
  5
11CE
330
1
100
AcDbSymbolTableRecord
100
AcDbBlockTableRecord
  2
*D32
340
0
 70
     0
280
     1
281
     0
  0
BLOCK_RECORD
  5
11E0
330
1
100
AcDbSymbolTableRecord
100
AcDbBlockTableRecord
  2
*D33
340
0
 70
     0
280
     1
281
     0
  0
ENDTAB
  0
ENDSEC
  0
SECTION
  2
BLOCKS
  0
BLOCK
  5
D
330
A
100
AcDbEntity
  8
0
390
1D
100
AcDbBlockBegin
  2
*MODEL_SPACE
 70
     0
 10
0.0
 20
0.0
 30
0.0
  3
*MODEL_SPACE
  1
*MODEL_SPACE
  0
ENDBLK
  5
E
330
A
100
AcDbEntity
  8
0
390
1D
100
AcDbBlockEnd
  0
BLOCK
  5
F
330
B
100
AcDbEntity
 67
     1
  8
0
390
1D
100
AcDbBlockBegin
  2
*PAPER_SPACE
 70
     0
 10
0.0
 20
0.0
 30
0.0
  3
*PAPER_SPACE
  1
*PAPER_SPACE
  0
ENDBLK
  5
10
330
B
100
AcDbEntity
 67
     1
  8
0
390
1D
100
AcDbBlockEnd
  0
BLOCK
  5
120F
330
4E
100
AcDbEntity
  8
0
390
1D
100
AcDbBlockBegin
  2
_DOT
 70
     0
 10
0.0
 20
0.0
 30
0.0
  3
_DOT
  1
_DOT
  0
POLYLINE
  5
1211
330
4E
100
AcDbEntity
  8
0
  6
ByBlock
 62
     0
370
    -2
390
1D
100
AcDb2dPolyline
 66
     1
 10
0.0
 20
0.0
 30
0.0
 70
     1
 40
0.5
 41
0.5
  0
VERTEX
  5
1212
330
1211
100
AcDbEntity
  8
0
  6
ByBlock
 62
     0
370
    -2
390
1D
100
AcDbVertex
100
AcDb2dVertex
 10
-0.25
 20
0.0
 30
0.0
 42
1.0
  0
VERTEX
  5
1213
330
1211
100
AcDbEntity
  8
0
  6
ByBlock
 62
     0
370
    -2
390
1D
100
AcDbVertex
100
AcDb2dVertex
 10
0.25
 20
0.0
 30
0.0
 42
1.0
  0
SEQEND
  5
1214
330
1211
100
AcDbEntity
  8
0
390
1D
  0
LINE
  5
1215
330
4E
100
AcDbEntity
  8
0
  6
ByBlock
 62
     0
370
    -2
390
1D
100
AcDbLine
 10
-0.5
 20
0.0
 30
0.0
 11
-1.0
 21
0.0
 31
0.0
  0
ENDBLK
  5
1216
330
4E
100
AcDbEntity
  8
0
390
1D
100
AcDbBlockEnd
  0
BLOCK
  5
68B
330
68A
100
AcDbEntity
  8
0
100
AcDbBlockBegin
  2
名称未設定-1
 70
     0
 10
0.0
 20
0.0
 30
0.0
  3
名称未設定-1
  1
名称未設定-1
  0
INSERT
  5
68F
330
68A
100
AcDbEntity
  8
LOGO
100
AcDbBlockReference
  2
block 3
 10
0.0
 20
0.0
 30
0.0
  0
ENDBLK
  5
6B1
330
68A
100
AcDbEntity
  8
0
100
AcDbBlockEnd
  0
BLOCK
  5
68E
330
68D
100
AcDbEntity
  8
0
100
AcDbBlockBegin
  2
block 2
 70
     0
 10
0.0
 20
0.0
 30
0.0
  3
block 2
  1
block 2
  0
ENDBLK
  5
6B0
330
68D
100
AcDbEntity
  8
0
100
AcDbBlockEnd
  0
BLOCK
  5
691
330
690
100
AcDbEntity
  8
0
100
AcDbBlockBegin
  2
block 3
 70
     0
 10
0.0
 20
0.0
 30
0.0
  3
block 3
  1
block 3
  0
INSERT
  5
692
330
690
100
AcDbEntity
  8
LOGO
100
AcDbBlockReference
  2
block 4
 10
0.0
 20
0.0
 30
0.0
  0
INSERT
  5
6A1
330
690
100
AcDbEntity
  8
LOGO
100
AcDbBlockReference
  2
block 5
 10
0.0
 20
0.0
 30
0.0
  0
ENDBLK
  5
6AF
330
690
100
AcDbEntity
  8
0
100
AcDbBlockEnd
  0
BLOCK
  5
694
330
693
100
AcDbEntity
  8
0
100
AcDbBlockBegin
  2
block 4
 70
     0
 10
0.0
 20
0.0
 30
0.0
  3
block 4
  1
block 4
  0
POLYLINE
  5
695
330
693
100
AcDbEntity
  8
LOGO
370
     0
100
AcDb2dPolyline
 66
     1
 10
0.0
 20
0.0
 30
0.0
  0
VERTEX
  5
696
330
695
100
AcDbEntity
  8
LOGO
370
     0
100
AcDbVertex
100
AcDb2dVertex
 10
83.79545727667795
 20
167.6444858234922
 30
0.0
  0
VERTEX
  5
697
330
695
100
AcDbEntity
  8
LOGO
370
     0
100
AcDbVertex
100
AcDb2dVertex
 10
83.79545727667795
 20
159.7968976406313
 30
0.0
  0
VERTEX
  5
698
330
695
100
AcDbEntity
  8
LOGO
370
     0
100
AcDbVertex
100
AcDb2dVertex
 10
71.3631329975216
 20
159.7968976406313
 30
0.0
  0
VERTEX
  5
699
330
695
100
AcDbEntity
  8
LOGO
370
     0
100
AcDbVertex
100
AcDb2dVertex
 10
71.3631329975216
 20
127.8027915271048
 30
0.0
  0
VERTEX
  5
69A
330
695
100
AcDbEntity
  8
LOGO
370
     0
100
AcDbVertex
100
AcDb2dVertex
 10
60.43011526263018
 20
127.8027915271048
 30
0.0
  0
VERTEX
  5
69B
330
695
100
AcDbEntity
  8
LOGO
370
     0
100
AcDbVertex
100
AcDb2dVertex
 10
60.43011526263018
 20
159.7968976406313
 30
0.0
  0
VERTEX
  5
69C
330
695
100
AcDbEntity
  8
LOGO
370
     0
100
AcDbVertex
100
AcDb2dVertex
 10
48.21793273020759
 20
159.7968976406313
 30
0.0
  0
VERTEX
  5
69D
330
695
100
AcDbEntity
  8
LOGO
370
     0
100
AcDbVertex
100
AcDb2dVertex
 10
48.21793273020759
 20
167.6444858234922
 30
0.0
  0
VERTEX
  5
69E
330
695
100
AcDbEntity
  8
LOGO
370
     0
100
AcDbVertex
100
AcDb2dVertex
 10
83.79545727667795
 20
167.6444858234922
 30
0.0
  0
SEQEND
  5
69F
330
695
100
AcDbEntity
  8
LOGO
370
     0
  0
HATCH
  5
6A0
330
693
100
AcDbEntity
  8
LOGO
 62
   250
420
  2234388
100
AcDbHatch
 10
0.0
 20
0.0
 30
0.0
210
0.0
220
0.0
230
1.0
  2
SOLID
 70
     1
 71
     0
 91
        1
 92
        1
 93
        8
 72
     1
 10
83.79545727667795
 20
167.6444858234922
 11
83.79545727667795
 21
159.7968976406313
 72
     1
 10
83.79545727667795
 20
159.7968976406313
 11
71.3631329975216
 21
159.7968976406313
 72
     1
 10
71.3631329975216
 20
159.7968976406313
 11
71.3631329975216
 21
127.8027915271048
 72
     1
 10
71.3631329975216
 20
127.8027915271048
 11
60.43011526263018
 21
127.8027915271048
 72
     1
 10
60.43011526263018
 20
127.8027915271048
 11
60.43011526263018
 21
159.7968976406313
 72
     1
 10
60.43011526263018
 20
159.7968976406313
 11
48.21793273020759
 21
159.7968976406313
 72
     1
 10
48.21793273020759
 20
159.7968976406313
 11
48.21793273020759
 21
167.6444858234922
 72
     1
 10
48.21793273020759
 20
167.6444858234922
 11
83.79545727667795
 21
167.6444858234922
 97
        0
 75
     2
 76
     1
 98
        0
  0
ENDBLK
  5
6AE
330
693
100
AcDbEntity
  8
0
100
AcDbBlockEnd
  0
BLOCK
  5
6A3
330
6A2
100
AcDbEntity
  8
0
100
AcDbBlockBegin
  2
block 5
 70
     0
 10
0.0
 20
0.0
 30
0.0
  3
block 5
  1
block 5
  0
SPLINE
  5
6A4
330
6A2
100
AcDbEntity
  8
LOGO
370
     0
100
AcDbSpline
210
0.0
220
0.0
230
1.0
 70
    11
 71
     3
 72
    56
 73
    52
 74
     0
 42
0.000000001
 43
0.0000000001
 40
0.0
 40
0.0
 40
0.0
 40
0.0
 40
1.0
 40
1.0
 40
1.0
 40
2.0
 40
2.0
 40
2.0
 40
3.0
 40
3.0
 40
3.0
 40
4.0
 40
4.0
 40
4.0
 40
5.0
 40
5.0
 40
5.0
 40
6.0
 40
6.0
 40
6.0
 40
7.0
 40
7.0
 40
7.0
 40
8.0
 40
8.0
 40
8.0
 40
9.0
 40
9.0
 40
9.0
 40
10.0
 40
10.0
 40
10.0
 40
11.0
 40
11.0
 40
11.0
 40
12.0
 40
12.0
 40
12.0
 40
13.0
 40
13.0
 40
13.0
 40
14.0
 40
14.0
 40
14.0
 40
15.0
 40
15.0
 40
15.0
 40
16.0
 40
16.0
 40
16.0
 40
17.0
 40
17.0
 40
17.0
 40
17.0
 10
100.4504378777679
 20
166.69157178364
 30
0.0
 10
101.9848844191641
 20
167.1313385124438
 30
0.0
 10
103.9637485713373
 20
166.7649523658846
 30
0.0
 10
103.9637485713373
 20
166.7649523658846
 30
0.0
 10
103.9637485713373
 20
166.7649523658846
 30
0.0
 10
103.0132460999156
 20
163.911205638077
 30
0.0
 10
103.0132460999156
 20
163.911205638077
 30
0.0
 10
103.0132460999156
 20
163.911205638077
 30
0.0
 10
101.0674548862189
 20
164.3601018759394
 30
0.0
 10
99.57090442016032
 20
163.1805004036133
 30
0.0
 10
98.40508333886608
 20
162.258247733807
 30
0.0
 10
97.65301849830304
 20
159.804132345923
 30
0.0
 10
97.3598406791005
 20
158.8699940888517
 30
0.0
 10
97.3598406791005
 20
158.8699940888517
 30
0.0
 10
96.07137411762282
 20
154.9119212747295
 30
0.0
 10
96.07137411762282
 20
154.9119212747295
 30
0.0
 10
96.07137411762282
 20
154.9119212747295
 30
0.0
 10
100.3012651448482
 20
154.9119212747295
 30
0.0
 10
100.3012651448482
 20
154.9119212747295
 30
0.0
 10
100.3012651448482
 20
154.9119212747295
 30
0.0
 10
99.64152892419852
 20
152.4199098115079
 30
0.0
 10
99.64152892419852
 20
152.4199098115079
 30
0.0
 10
99.64152892419852
 20
152.4199098115079
 30
0.0
 10
95.38097652692731
 20
152.4199098115079
 30
0.0
 10
95.38097652692731
 20
152.4199098115079
 30
0.0
 10
95.38097652692731
 20
152.4199098115079
 30
0.0
 10
87.75353009080013
 20
127.8027915271048
 30
0.0
 10
87.75353009080013
 20
127.8027915271048
 30
0.0
 10
87.75353009080013
 20
127.8027915271048
 30
0.0
 10
85.36538832498108
 20
127.8027915271048
 30
0.0
 10
85.36538832498108
 20
127.8027915271048
 30
0.0
 10
85.36538832498108
 20
127.8027915271048
 30
0.0
 10
93.00006946639998
 20
152.4199098115079
 30
0.0
 10
93.00006946639998
 20
152.4199098115079
 30
0.0
 10
93.00006946639998
 20
152.4199098115079
 30
0.0
 10
89.85297266450198
 20
152.4199098115079
 30
0.0
 10
89.85297266450198
 20
152.4199098115079
 30
0.0
 10
89.85297266450198
 20
152.4199098115079
 30
0.0
 10
90.51270888515164
 20
154.9119212747295
 30
0.0
 10
90.51270888515164
 20
154.9119212747295
 30
0.0
 10
90.51270888515164
 20
154.9119212747295
 30
0.0
 10
93.6904670570955
 20
154.9119212747295
 30
0.0
 10
93.6904670570955
 20
154.9119212747295
 30
0.0
 10
93.6904670570955
 20
154.9119212747295
 30
0.0
 10
94.81598049462158
 20
158.3616699146644
 30
0.0
 10
94.81598049462158
 20
158.3616699146644
 30
0.0
 10
95.7237637538445
 20
161.2605474231013
 30
0.0
 10
96.4968436907311
 20
162.8139420021662
 30
0.0
 10
97.15657991138076
 20
163.9844139654337
 30
0.0
 10
97.81183750494507
 20
165.1523021053827
 30
0.0
 10
99.1047826935081
 20
166.3084769129547
 30
0.0
 10
100.4504378777679
 20
166.69157178364
 30
0.0
  0
HATCH
  5
6A5
330
6A2
100
AcDbEntity
  8
LOGO
 62
   250
420
  2234388
100
AcDbHatch
 10
0.0
 20
0.0
 30
0.0
210
0.0
220
0.0
230
1.0
  2
SOLID
 70
     1
 71
     0
 91
        1
 92
        1
 93
        1
 72
     4
 94
        3
 73
     0
 74
     1
 95
       56
 96
       52
 40
0.0
 40
0.0
 40
0.0
 40
0.0
 40
1.0
 40
1.0
 40
1.0
 40
2.0
 40
2.0
 40
2.0
 40
3.0
 40
3.0
 40
3.0
 40
4.0
 40
4.0
 40
4.0
 40
5.0
 40
5.0
 40
5.0
 40
6.0
 40
6.0
 40
6.0
 40
7.0
 40
7.0
 40
7.0
 40
8.0
 40
8.0
 40
8.0
 40
9.0
 40
9.0
 40
9.0
 40
10.0
 40
10.0
 40
10.0
 40
11.0
 40
11.0
 40
11.0
 40
12.0
 40
12.0
 40
12.0
 40
13.0
 40
13.0
 40
13.0
 40
14.0
 40
14.0
 40
14.0
 40
15.0
 40
15.0
 40
15.0
 40
16.0
 40
16.0
 40
16.0
 40
17.0
 40
17.0
 40
17.0
 40
17.0
 10
100.4504378777679
 20
166.69157178364
 10
101.9848844191641
 20
167.1313385124438
 10
103.9637485713373
 20
166.7649523658846
 10
103.9637485713373
 20
166.7649523658846
 10
103.9637485713373
 20
166.7649523658846
 10
103.0132460999156
 20
163.911205638077
 10
103.0132460999156
 20
163.911205638077
 10
103.0132460999156
 20
163.911205638077
 10
101.0674548862189
 20
164.3601018759394
 10
99.57090442016032
 20
163.1805004036133
 10
98.40508333886608
 20
162.258247733807
 10
97.65301849830304
 20
159.804132345923
 10
97.3598406791005
 20
158.8699940888517
 10
97.3598406791005
 20
158.8699940888517
 10
96.07137411762282
 20
154.9119212747295
 10
96.07137411762282
 20
154.9119212747295
 10
96.07137411762282
 20
154.9119212747295
 10
100.3012651448482
 20
154.9119212747295
 10
100.3012651448482
 20
154.9119212747295
 10
100.3012651448482
 20
154.9119212747295
 10
99.64152892419852
 20
152.4199098115079
 10
99.64152892419852
 20
152.4199098115079
 10
99.64152892419852
 20
152.4199098115079
 10
95.38097652692731
 20
152.4199098115079
 10
95.38097652692731
 20
152.4199098115079
 10
95.38097652692731
 20
152.4199098115079
 10
87.75353009080013
 20
127.8027915271048
 10
87.75353009080013
 20
127.8027915271048
 10
87.75353009080013
 20
127.8027915271048
 10
85.36538832498108
 20
127.8027915271048
 10
85.36538832498108
 20
127.8027915271048
 10
85.36538832498108
 20
127.8027915271048
 10
93.00006946639998
 20
152.4199098115079
 10
93.00006946639998
 20
152.4199098115079
 10
93.00006946639998
 20
152.4199098115079
 10
89.85297266450198
 20
152.4199098115079
 10
89.85297266450198
 20
152.4199098115079
 10
89.85297266450198
 20
152.4199098115079
 10
90.51270888515164
 20
154.9119212747295
 10
90.51270888515164
 20
154.9119212747295
 10
90.51270888515164
 20
154.9119212747295
 10
93.6904670570955
 20
154.9119212747295
 10
93.6904670570955
 20
154.9119212747295
 10
93.6904670570955
 20
154.9119212747295
 10
94.81598049462158
 20
158.3616699146644
 10
94.81598049462158
 20
158.3616699146644
 10
95.7237637538445
 20
161.2605474231013
 10
96.4968436907311
 20
162.8139420021662
 10
97.15657991138076
 20
163.9844139654337
 10
97.81183750494507
 20
165.1523021053827
 10
99.1047826935081
 20
166.3084769129547
 10
100.4504378777679
 20
166.69157178364
 97
        0
 75
     2
 76
     1
 98
        0
  0
SPLINE
  5
6A6
330
6A2
100
AcDbEntity
  8
LOGO
370
     0
100
AcDbSpline
210
0.0
220
0.0
230
1.0
 70
    11
 71
     3
 72
    38
 73
    34
 74
     0
 42
0.000000001
 43
0.0000000001
 40
0.0
 40
0.0
 40
0.0
 40
0.0
 40
1.0
 40
1.0
 40
1.0
 40
2.0
 40
2.0
 40
2.0
 40
3.0
 40
3.0
 40
3.0
 40
4.0
 40
4.0
 40
4.0
 40
5.0
 40
5.0
 40
5.0
 40
6.0
 40
6.0
 40
6.0
 40
7.0
 40
7.0
 40
7.0
 40
8.0
 40
8.0
 40
8.0
 40
9.0
 40
9.0
 40
9.0
 40
10.0
 40
10.0
 40
10.0
 40
11.0
 40
11.0
 40
11.0
 40
11.0
 10
126.377554584636
 20
154.8151140277308
 30
0.0
 10
126.377554584636
 20
154.8151140277308
 30
0.0
 10
128.8311532078563
 20
154.8151140277308
 30
0.0
 10
128.8311532078563
 20
154.8151140277308
 30
0.0
 10
128.8311532078563
 20
154.8151140277308
 30
0.0
 10
127.7345785914971
 20
151.3062819612468
 30
0.0
 10
127.7345785914971
 20
151.3062819612468
 30
0.0
 10
128.571392836906
 20
152.2922689395754
 30
0.0
 10
129.8860421413442
 20
153.604506675583
 30
0.0
 10
131.0163787157314
 20
154.2664822097754
 30
0.0
 10
132.7044766171327
 20
155.2500576196734
 30
0.0
 10
133.6642808525008
 20
155.3847609420097
 30
0.0
 10
134.7284715499351
 20
155.3565111403944
 30
0.0
 10
134.7284715499351
 20
155.3565111403944
 30
0.0
 10
133.6877075172549
 20
152.0345756272799
 30
0.0
 10
133.6877075172549
 20
152.0345756272799
 30
0.0
 10
133.011434827367
 20
152.3184516825359
 30
0.0
 10
130.930940291334
 20
151.7768823149844
 30
0.0
 10
129.739280976855
 20
150.9162968950455
 30
0.0
 10
128.66613302525
 20
150.1454562717016
 30
0.0
 10
127.9192358313239
 20
149.4857200510519
 30
0.0
 10
127.0393578639405
 20
147.8282835196966
 30
0.0
 10
126.164647543194
 20
146.1699857139017
 30
0.0
 10
125.4742499524985
 20
143.5262176944419
 30
0.0
 10
124.2822461282437
 20
139.6959580071401
 30
0.0
 10
124.2822461282437
 20
139.6959580071401
 30
0.0
 10
120.5753209406769
 20
127.8027915271048
 30
0.0
 10
120.5753209406769
 20
127.8027915271048
 30
0.0
 10
120.5753209406769
 20
127.8027915271048
 30
0.0
 10
118.1964809388044
 20
127.8027915271048
 30
0.0
 10
118.1964809388044
 20
127.8027915271048
 30
0.0
 10
118.1964809388044
 20
127.8027915271048
 30
0.0
 10
126.377554584636
 20
154.8151140277308
 30
0.0
 10
126.377554584636
 20
154.8151140277308
 30
0.0
  0
HATCH
  5
6A7
330
6A2
100
AcDbEntity
  8
LOGO
 62
   250
420
  2234388
100
AcDbHatch
 10
0.0
 20
0.0
 30
0.0
210
0.0
220
0.0
230
1.0
  2
SOLID
 70
     1
 71
     0
 91
        1
 92
        1
 93
        1
 72
     4
 94
        3
 73
     0
 74
     1
 95
       38
 96
       34
 40
0.0
 40
0.0
 40
0.0
 40
0.0
 40
1.0
 40
1.0
 40
1.0
 40
2.0
 40
2.0
 40
2.0
 40
3.0
 40
3.0
 40
3.0
 40
4.0
 40
4.0
 40
4.0
 40
5.0
 40
5.0
 40
5.0
 40
6.0
 40
6.0
 40
6.0
 40
7.0
 40
7.0
 40
7.0
 40
8.0
 40
8.0
 40
8.0
 40
9.0
 40
9.0
 40
9.0
 40
10.0
 40
10.0
 40
10.0
 40
11.0
 40
11.0
 40
11.0
 40
11.0
 10
126.377554584636
 20
154.8151140277308
 10
126.377554584636
 20
154.8151140277308
 10
128.8311532078563
 20
154.8151140277308
 10
128.8311532078563
 20
154.8151140277308
 10
128.8311532078563
 20
154.8151140277308
 10
127.7345785914971
 20
151.3062819612468
 10
127.7345785914971
 20
151.3062819612468
 10
128.571392836906
 20
152.2922689395754
 10
129.8860421413442
 20
153.604506675583
 10
131.0163787157314
 20
154.2664822097754
 10
132.7044766171327
 20
155.2500576196734
 10
133.6642808525008
 20
155.3847609420097
 10
134.7284715499351
 20
155.3565111403944
 10
134.7284715499351
 20
155.3565111403944
 10
133.6877075172549
 20
152.0345756272799
 10
133.6877075172549
 20
152.0345756272799
 10
133.011434827367
 20
152.3184516825359
 10
130.930940291334
 20
151.7768823149844
 10
129.739280976855
 20
150.9162968950455
 10
128.66613302525
 20
150.1454562717016
 10
127.9192358313239
 20
149.4857200510519
 10
127.0393578639405
 20
147.8282835196966
 10
126.164647543194
 20
146.1699857139017
 10
125.4742499524985
 20
143.5262176944419
 10
124.2822461282437
 20
139.6959580071401
 10
124.2822461282437
 20
139.6959580071401
 10
120.5753209406769
 20
127.8027915271048
 10
120.5753209406769
 20
127.8027915271048
 10
120.5753209406769
 20
127.8027915271048
 10
118.1964809388044
 20
127.8027915271048
 10
118.1964809388044
 20
127.8027915271048
 10
118.1964809388044
 20
127.8027915271048
 10
126.377554584636
 20
154.8151140277308
 10
126.377554584636
 20
154.8151140277308
 97
        0
 75
     2
 76
     1
 98
        0
  0
SPLINE
  5
6A8
330
6A2
100
AcDbEntity
  8
LOGO
370
     0
100
AcDbSpline
210
0.0
220
0.0
230
1.0
 70
    11
 71
     3
 72
   104
 73
   100
 74
     0
 42
0.000000001
 43
0.0000000001
 40
0.0
 40
0.0
 40
0.0
 40
0.0
 40
1.0
 40
1.0
 40
1.0
 40
2.0
 40
2.0
 40
2.0
 40
3.0
 40
3.0
 40
3.0
 40
4.0
 40
4.0
 40
4.0
 40
5.0
 40
5.0
 40
5.0
 40
6.0
 40
6.0
 40
6.0
 40
7.0
 40
7.0
 40
7.0
 40
8.0
 40
8.0
 40
8.0
 40
9.0
 40
9.0
 40
9.0
 40
10.0
 40
10.0
 40
10.0
 40
11.0
 40
11.0
 40
11.0
 40
12.0
 40
12.0
 40
12.0
 40
13.0
 40
13.0
 40
13.0
 40
14.0
 40
14.0
 40
14.0
 40
15.0
 40
15.0
 40
15.0
 40
16.0
 40
16.0
 40
16.0
 40
17.0
 40
17.0
 40
17.0
 40
18.0
 40
18.0
 40
18.0
 40
19.0
 40
19.0
 40
19.0
 40
20.0
 40
20.0
 40
20.0
 40
21.0
 40
21.0
 40
21.0
 40
22.0
 40
22.0
 40
22.0
 40
23.0
 40
23.0
 40
23.0
 40
24.0
 40
24.0
 40
24.0
 40
25.0
 40
25.0
 40
25.0
 40
26.0
 40
26.0
 40
26.0
 40
27.0
 40
27.0
 40
27.0
 40
28.0
 40
28.0
 40
28.0
 40
29.0
 40
29.0
 40
29.0
 40
30.0
 40
30.0
 40
30.0
 40
31.0
 40
31.0
 40
31.0
 40
32.0
 40
32.0
 40
32.0
 40
33.0
 40
33.0
 40
33.0
 40
33.0
 10
139.8926730891197
 20
154.8294111834263
 30
0.0
 10
139.8926730891197
 20
154.8294111834263
 30
0.0
 10
142.0344903652445
 20
154.8294111834263
 30
0.0
 10
142.0344903652445
 20
154.8294111834263
 30
0.0
 10
142.0344903652445
 20
154.8294111834263
 30
0.0
 10
140.9516961399171
 20
151.3157559800812
 30
0.0
 10
140.9516961399171
 20
151.3157559800812
 30
0.0
 10
141.8928968473923
 20
152.7887075264977
 30
0.0
 10
142.7341897198865
 20
153.4484437471474
 30
0.0
 10
143.8552245303272
 20
154.2926649527359
 30
0.0
 10
144.9803934580775
 20
155.1296514530327
 30
0.0
 10
146.3139908001845
 20
155.3044901642492
 30
0.0
 10
147.241066606852
 20
155.3044901642492
 30
0.0
 10
148.3855280820469
 20
155.3044901642492
 30
0.0
 10
149.4969166187653
 20
155.0752189084569
 30
0.0
 10
150.0784491203092
 20
153.8172414621372
 30
0.0
 10
150.5228667310863
 20
152.833838307127
 30
0.0
 10
150.5414702589793
 20
152.7201500811143
 30
0.0
 10
150.4140016419347
 20
150.7765981809602
 30
0.0
 10
151.5818897818837
 20
152.7699317437168
 30
0.0
 10
152.4424752018226
 20
153.6256940267945
 30
0.0
 10
153.9038856707499
 20
154.4507949398263
 30
0.0
 10
155.4455669174378
 20
155.3044901642492
 30
0.0
 10
156.339225275853
 20
155.3659851592288
 30
0.0
 10
157.3748216618963
 20
155.2147453676543
 30
0.0
 10
158.911679771723
 20
154.9877134254046
 30
0.0
 10
159.8859534176746
 20
154.4390816074493
 30
0.0
 10
160.3965169054045
 20
152.7816450760939
 30
0.0
 10
160.9070803931344
 20
151.1219692311958
 30
0.0
 10
160.6328506116007
 20
150.2303779314354
 30
0.0
 10
159.9992971339115
 20
147.597634224801
 30
0.0
 10
159.7105979417943
 20
146.4014962832367
 30
0.0
 10
159.2947746424084
 20
144.9400858143094
 30
0.0
 10
158.7463150793409
 20
143.2092687007094
 30
0.0
 10
158.7463150793409
 20
143.2092687007094
 30
0.0
 10
153.9038856707499
 20
127.8027915271048
 30
0.0
 10
153.9038856707499
 20
127.8027915271048
 30
0.0
 10
153.9038856707499
 20
127.8027915271048
 30
0.0
 10
151.3882752878863
 20
127.8027915271048
 30
0.0
 10
151.3882752878863
 20
127.8027915271048
 30
0.0
 10
151.3882752878863
 20
127.8027915271048
 30
0.0
 10
155.6250565106276
 20
141.2751908193897
 30
0.0
 10
155.6250565106276
 20
141.2751908193897
 30
0.0
 10
156.5094131050963
 20
144.0936252951782
 30
0.0
 10
157.109893644309
 20
146.1506931664571
 30
0.0
 10
157.4220195011804
 20
147.4415712963654
 30
0.0
 10
157.8095929989511
 20
149.0530157726519
 30
0.0
 10
157.9656559273867
 20
149.5826995529385
 30
0.0
 10
157.7816877071116
 20
150.7529992613181
 30
0.0
 10
157.6111553680925
 20
151.8430281919372
 30
0.0
 10
157.0582171779396
 20
152.5547853887321
 30
0.0
 10
156.1170164704645
 20
152.5547853887321
 30
0.0
 10
155.1096698860365
 20
152.5547853887321
 30
0.0
 10
154.2962823053817
 20
152.4412694176073
 30
0.0
 10
153.156643967048
 20
151.2945686288697
 30
0.0
 10
152.0170056287143
 20
150.1476955852443
 30
0.0
 10
151.076149431015
 20
148.7930831468137
 30
0.0
 10
150.3337308641742
 20
147.2290087646991
 30
0.0
 10
149.5957909244188
 20
145.6683794803425
 30
0.0
 10
148.8530278478023
 20
143.6822806228776
 30
0.0
 10
148.0964843801539
 20
141.2751908193897
 30
0.0
 10
148.0964843801539
 20
141.2751908193897
 30
0.0
 10
143.8552245303272
 20
127.8027915271048
 30
0.0
 10
143.8552245303272
 20
127.8027915271048
 30
0.0
 10
143.8552245303272
 20
127.8027915271048
 30
0.0
 10
141.486030802177
 20
127.8027915271048
 30
0.0
 10
141.486030802177
 20
127.8027915271048
 30
0.0
 10
141.486030802177
 20
127.8027915271048
 30
0.0
 10
146.3329388378533
 20
143.2092687007094
 30
0.0
 10
146.3329388378533
 20
143.2092687007094
 30
0.0
 10
146.8483254624444
 20
144.8408669988801
 30
0.0
 10
147.2314203331297
 20
146.1837661049335
 30
0.0
 10
147.4867020769946
 20
147.224185627838
 30
0.0
 10
147.9169947869641
 20
149.0197705792876
 30
0.0
 10
148.0306830129768
 20
150.2400242051577
 30
0.0
 10
147.709255392159
 20
151.3157559800812
 30
0.0
 10
147.3874832615654
 20
152.3916600098926
 30
0.0
 10
146.8245542879144
 20
152.6683013598569
 30
0.0
 10
145.8840425999909
 20
152.6683013598569
 30
0.0
 10
145.0989048209514
 20
152.6683013598569
 30
0.0
 10
144.3282364524954
 20
152.3275811915945
 30
0.0
 10
143.4531816219731
 20
151.6538923250251
 30
0.0
 10
142.34627171234
 20
150.8074318058939
 30
0.0
 10
141.901854101563
 20
150.1097995099067
 30
0.0
 10
141.3578731655808
 20
149.289521733736
 30
0.0
 10
140.6299240093235
 20
148.192602607601
 30
0.0
 10
140.2850697237515
 20
147.455696197173
 30
0.0
 10
139.6652966370942
 20
145.8385673095858
 30
0.0
 10
139.0506911970739
 20
144.2214384219986
 30
0.0
 10
138.463991048893
 20
142.3252566160164
 30
0.0
 10
138.0571250036777
 20
141.0154304484394
 30
0.0
 10
138.0571250036777
 20
141.0154304484394
 30
0.0
 10
133.9009590684727
 20
127.8027915271048
 30
0.0
 10
133.9009590684727
 20
127.8027915271048
 30
0.0
 10
133.9009590684727
 20
127.8027915271048
 30
0.0
 10
131.4180771143097
 20
127.8027915271048
 30
0.0
 10
131.4180771143097
 20
127.8027915271048
 30
0.0
 10
131.4180771143097
 20
127.8027915271048
 30
0.0
 10
139.8926730891197
 20
154.8294111834263
 30
0.0
 10
139.8926730891197
 20
154.8294111834263
 30
0.0
  0
HATCH
  5
6A9
330
6A2
100
AcDbEntity
  8
LOGO
 62
   250
420
  2234388
100
AcDbHatch
 10
0.0
 20
0.0
 30
0.0
210
0.0
220
0.0
230
1.0
  2
SOLID
 70
     1
 71
     0
 91
        1
 92
        1
 93
        1
 72
     4
 94
        3
 73
     0
 74
     1
 95
      104
 96
      100
 40
0.0
 40
0.0
 40
0.0
 40
0.0
 40
1.0
 40
1.0
 40
1.0
 40
2.0
 40
2.0
 40
2.0
 40
3.0
 40
3.0
 40
3.0
 40
4.0
 40
4.0
 40
4.0
 40
5.0
 40
5.0
 40
5.0
 40
6.0
 40
6.0
 40
6.0
 40
7.0
 40
7.0
 40
7.0
 40
8.0
 40
8.0
 40
8.0
 40
9.0
 40
9.0
 40
9.0
 40
10.0
 40
10.0
 40
10.0
 40
11.0
 40
11.0
 40
11.0
 40
12.0
 40
12.0
 40
12.0
 40
13.0
 40
13.0
 40
13.0
 40
14.0
 40
14.0
 40
14.0
 40
15.0
 40
15.0
 40
15.0
 40
16.0
 40
16.0
 40
16.0
 40
17.0
 40
17.0
 40
17.0
 40
18.0
 40
18.0
 40
18.0
 40
19.0
 40
19.0
 40
19.0
 40
20.0
 40
20.0
 40
20.0
 40
21.0
 40
21.0
 40
21.0
 40
22.0
 40
22.0
 40
22.0
 40
23.0
 40
23.0
 40
23.0
 40
24.0
 40
24.0
 40
24.0
 40
25.0
 40
25.0
 40
25.0
 40
26.0
 40
26.0
 40
26.0
 40
27.0
 40
27.0
 40
27.0
 40
28.0
 40
28.0
 40
28.0
 40
29.0
 40
29.0
 40
29.0
 40
30.0
 40
30.0
 40
30.0
 40
31.0
 40
31.0
 40
31.0
 40
32.0
 40
32.0
 40
32.0
 40
33.0
 40
33.0
 40
33.0
 40
33.0
 10
139.8926730891197
 20
154.8294111834263
 10
139.8926730891197
 20
154.8294111834263
 10
142.0344903652445
 20
154.8294111834263
 10
142.0344903652445
 20
154.8294111834263
 10
142.0344903652445
 20
154.8294111834263
 10
140.9516961399171
 20
151.3157559800812
 10
140.9516961399171
 20
151.3157559800812
 10
141.8928968473923
 20
152.7887075264977
 10
142.7341897198865
 20
153.4484437471474
 10
143.8552245303272
 20
154.2926649527359
 10
144.9803934580775
 20
155.1296514530327
 10
146.3139908001845
 20
155.3044901642492
 10
147.241066606852
 20
155.3044901642492
 10
148.3855280820469
 20
155.3044901642492
 10
149.4969166187653
 20
155.0752189084569
 10
150.0784491203092
 20
153.8172414621372
 10
150.5228667310863
 20
152.833838307127
 10
150.5414702589793
 20
152.7201500811143
 10
150.4140016419347
 20
150.7765981809602
 10
151.5818897818837
 20
152.7699317437168
 10
152.4424752018226
 20
153.6256940267945
 10
153.9038856707499
 20
154.4507949398263
 10
155.4455669174378
 20
155.3044901642492
 10
156.339225275853
 20
155.3659851592288
 10
157.3748216618963
 20
155.2147453676543
 10
158.911679771723
 20
154.9877134254046
 10
159.8859534176746
 20
154.4390816074493
 10
160.3965169054045
 20
152.7816450760939
 10
160.9070803931344
 20
151.1219692311958
 10
160.6328506116007
 20
150.2303779314354
 10
159.9992971339115
 20
147.597634224801
 10
159.7105979417943
 20
146.4014962832367
 10
159.2947746424084
 20
144.9400858143094
 10
158.7463150793409
 20
143.2092687007094
 10
158.7463150793409
 20
143.2092687007094
 10
153.9038856707499
 20
127.8027915271048
 10
153.9038856707499
 20
127.8027915271048
 10
153.9038856707499
 20
127.8027915271048
 10
151.3882752878863
 20
127.8027915271048
 10
151.3882752878863
 20
127.8027915271048
 10
151.3882752878863
 20
127.8027915271048
 10
155.6250565106276
 20
141.2751908193897
 10
155.6250565106276
 20
141.2751908193897
 10
156.5094131050963
 20
144.0936252951782
 10
157.109893644309
 20
146.1506931664571
 10
157.4220195011804
 20
147.4415712963654
 10
157.8095929989511
 20
149.0530157726519
 10
157.9656559273867
 20
149.5826995529385
 10
157.7816877071116
 20
150.7529992613181
 10
157.6111553680925
 20
151.8430281919372
 10
157.0582171779396
 20
152.5547853887321
 10
156.1170164704645
 20
152.5547853887321
 10
155.1096698860365
 20
152.5547853887321
 10
154.2962823053817
 20
152.4412694176073
 10
153.156643967048
 20
151.2945686288697
 10
152.0170056287143
 20
150.1476955852443
 10
151.076149431015
 20
148.7930831468137
 10
150.3337308641742
 20
147.2290087646991
 10
149.5957909244188
 20
145.6683794803425
 10
148.8530278478023
 20
143.6822806228776
 10
148.0964843801539
 20
141.2751908193897
 10
148.0964843801539
 20
141.2751908193897
 10
143.8552245303272
 20
127.8027915271048
 10
143.8552245303272
 20
127.8027915271048
 10
143.8552245303272
 20
127.8027915271048
 10
141.486030802177
 20
127.8027915271048
 10
141.486030802177
 20
127.8027915271048
 10
141.486030802177
 20
127.8027915271048
 10
146.3329388378533
 20
143.2092687007094
 10
146.3329388378533
 20
143.2092687007094
 10
146.8483254624444
 20
144.8408669988801
 10
147.2314203331297
 20
146.1837661049335
 10
147.4867020769946
 20
147.224185627838
 10
147.9169947869641
 20
149.0197705792876
 10
148.0306830129768
 20
150.2400242051577
 10
147.709255392159
 20
151.3157559800812
 10
147.3874832615654
 20
152.3916600098926
 10
146.8245542879144
 20
152.6683013598569
 10
145.8840425999909
 20
152.6683013598569
 10
145.0989048209514
 20
152.6683013598569
 10
144.3282364524954
 20
152.3275811915945
 10
143.4531816219731
 20
151.6538923250251
 10
142.34627171234
 20
150.8074318058939
 10
141.901854101563
 20
150.1097995099067
 10
141.3578731655808
 20
149.289521733736
 10
140.6299240093235
 20
148.192602607601
 10
140.2850697237515
 20
147.455696197173
 10
139.6652966370942
 20
145.8385673095858
 10
139.0506911970739
 20
144.2214384219986
 10
138.463991048893
 20
142.3252566160164
 10
138.0571250036777
 20
141.0154304484394
 10
138.0571250036777
 20
141.0154304484394
 10
133.9009590684727
 20
127.8027915271048
 10
133.9009590684727
 20
127.8027915271048
 10
133.9009590684727
 20
127.8027915271048
 10
131.4180771143097
 20
127.8027915271048
 10
131.4180771143097
 20
127.8027915271048
 10
131.4180771143097
 20
127.8027915271048
 10
139.8926730891197
 20
154.8294111834263
 10
139.8926730891197
 20
154.8294111834263
 97
        0
 75
     2
 76
     1
 98
        0
  0
SPLINE
  5
6AA
330
6A2
100
AcDbEntity
  8
LOGO
370
     0
100
AcDbSpline
210
0.0
220
0.0
230
1.0
 70
    11
 71
     3
 72
    29
 73
    25
 74
     0
 42
0.000000001
 43
0.0000000001
 40
0.0
 40
0.0
 40
0.0
 40
0.0
 40
1.0
 40
1.0
 40
1.0
 40
2.0
 40
2.0
 40
2.0
 40
3.0
 40
3.0
 40
3.0
 40
4.0
 40
4.0
 40
4.0
 40
5.0
 40
5.0
 40
5.0
 40
6.0
 40
6.0
 40
6.0
 40
7.0
 40
7.0
 40
7.0
 40
8.0
 40
8.0
 40
8.0
 40
8.0
 10
101.6420971922469
 20
132.8388354296931
 30
0.0
 10
101.630039350094
 20
134.7164137077823
 30
0.0
 10
102.2236296937908
 20
138.0598810818841
 30
0.0
 10
103.7487744712405
 20
142.5378191476827
 30
0.0
 10
105.819967243327
 20
148.5896501242061
 30
0.0
 10
107.0602024361932
 20
150.8074318058939
 30
0.0
 10
108.1522984254671
 20
151.8833358357054
 30
0.0
 10
109.741177511439
 20
153.4532668840085
 30
0.0
 10
111.8740375333931
 20
153.5290590346837
 30
0.0
 10
112.5075910110823
 20
153.4532668840085
 30
0.0
 10
113.4012493694975
 20
153.3490526768302
 30
0.0
 10
114.6683563248758
 20
152.7580461564518
 30
0.0
 10
114.7493161221879
 20
150.7838328862519
 30
0.0
 10
114.8106388622796
 20
149.0909118479895
 30
0.0
 10
114.3186789024427
 20
145.9191825971221
 30
0.0
 10
112.6164561002338
 20
140.9489400617108
 30
0.0
 10
110.6444821435766
 20
135.1746117095912
 30
0.0
 10
109.4669477299053
 20
132.8960240524753
 30
0.0
 10
108.5212683953448
 20
131.9072809959403
 30
0.0
 10
106.7346406980658
 20
130.0538184021569
 30
0.0
 10
104.8222669326213
 20
130.2336525051225
 30
0.0
 10
104.5408024457958
 20
130.2336525051225
 30
0.0
 10
104.1721769856939
 20
130.2336525051225
 30
0.0
 10
101.6465758193322
 20
130.6305277668397
 30
0.0
 10
101.6420971922469
 20
132.8388354296931
 30
0.0
  0
SPLINE
  5
6AB
330
6A2
100
AcDbEntity
  8
LOGO
370
     0
100
AcDbSpline
210
0.0
220
0.0
230
1.0
 70
    11
 71
     3
 72
    32
 73
    28
 74
     0
 42
0.000000001
 43
0.0000000001
 40
0.0
 40
0.0
 40
0.0
 40
0.0
 40
1.0
 40
1.0
 40
1.0
 40
2.0
 40
2.0
 40
2.0
 40
3.0
 40
3.0
 40
3.0
 40
4.0
 40
4.0
 40
4.0
 40
5.0
 40
5.0
 40
5.0
 40
6.0
 40
6.0
 40
6.0
 40
7.0
 40
7.0
 40
7.0
 40
8.0
 40
8.0
 40
8.0
 40
9.0
 40
9.0
 40
9.0
 40
9.0
 10
106.2595617172429
 20
153.4105476718098
 30
0.0
 10
104.8222669326213
 20
151.5474388043041
 30
0.0
 10
103.7177685914188
 20
149.8758773721411
 30
0.0
 10
101.9232171692965
 20
144.6141795664062
 30
0.0
 10
100.2754269116635
 20
139.7999999594306
 30
0.0
 10
99.22777268346732
 20
136.3052927937542
 30
0.0
 10
99.06964269637689
 20
132.039572749846
 30
0.0
 10
98.94665270641765
 20
128.8673267343149
 30
0.0
 10
100.8807305877373
 20
127.8027915271048
 30
0.0
 10
103.7129454545577
 20
127.8027915271048
 30
0.0
 10
104.9352661390825
 20
127.8027915271048
 30
0.0
 10
108.0151835347002
 20
127.8827177950895
 30
0.0
 10
110.2045431598849
 20
130.5926316915021
 30
0.0
 10
111.7417457794874
 20
132.4984597712065
 30
0.0
 10
113.155269389579
 20
134.475256864725
 30
0.0
 10
115.0562743324223
 20
140.9489400617108
 30
0.0
 10
116.6361961642235
 20
146.3680788349845
 30
0.0
 10
117.7282921534974
 20
149.8639917848761
 30
0.0
 10
117.6480213757369
 20
151.8595646611754
 30
0.0
 10
117.6480213757369
 20
151.8595646611754
 30
0.0
 10
117.6480213757369
 20
151.8595646611754
 30
0.0
 10
117.6480213757369
 20
151.8595646611754
 30
0.0
 10
117.13229024137
 20
155.18150017429
 30
0.0
 10
114.7162431837115
 20
155.886194920681
 30
0.0
 10
113.3351034925446
 20
155.886194920681
 30
0.0
 10
111.9829026225447
 20
155.886194920681
 30
0.0
 10
108.3414342923792
 20
156.1251124501957
 30
0.0
 10
106.2595617172429
 20
153.4105476718098
 30
0.0
  0
HATCH
  5
6AC
330
6A2
100
AcDbEntity
  8
LOGO
 62
   250
420
  2234388
100
AcDbHatch
 10
0.0
 20
0.0
 30
0.0
210
0.0
220
0.0
230
1.0
  2
SOLID
 70
     1
 71
     0
 91
        2
 92
        1
 93
        1
 72
     4
 94
        3
 73
     0
 74
     1
 95
       29
 96
       25
 40
0.0
 40
0.0
 40
0.0
 40
0.0
 40
1.0
 40
1.0
 40
1.0
 40
2.0
 40
2.0
 40
2.0
 40
3.0
 40
3.0
 40
3.0
 40
4.0
 40
4.0
 40
4.0
 40
5.0
 40
5.0
 40
5.0
 40
6.0
 40
6.0
 40
6.0
 40
7.0
 40
7.0
 40
7.0
 40
8.0
 40
8.0
 40
8.0
 40
8.0
 10
101.6420971922469
 20
132.8388354296931
 10
101.630039350094
 20
134.7164137077823
 10
102.2236296937908
 20
138.0598810818841
 10
103.7487744712405
 20
142.5378191476827
 10
105.819967243327
 20
148.5896501242061
 10
107.0602024361932
 20
150.8074318058939
 10
108.1522984254671
 20
151.8833358357054
 10
109.741177511439
 20
153.4532668840085
 10
111.8740375333931
 20
153.5290590346837
 10
112.5075910110823
 20
153.4532668840085
 10
113.4012493694975
 20
153.3490526768302
 10
114.6683563248758
 20
152.7580461564518
 10
114.7493161221879
 20
150.7838328862519
 10
114.8106388622796
 20
149.0909118479895
 10
114.3186789024427
 20
145.9191825971221
 10
112.6164561002338
 20
140.9489400617108
 10
110.6444821435766
 20
135.1746117095912
 10
109.4669477299053
 20
132.8960240524753
 10
108.5212683953448
 20
131.9072809959403
 10
106.7346406980658
 20
130.0538184021569
 10
104.8222669326213
 20
130.2336525051225
 10
104.5408024457958
 20
130.2336525051225
 10
104.1721769856939
 20
130.2336525051225
 10
101.6465758193322
 20
130.6305277668397
 10
101.6420971922469
 20
132.8388354296931
 97
        0
 92
        1
 93
        1
 72
     4
 94
        3
 73
     0
 74
     1
 95
       32
 96
       28
 40
0.0
 40
0.0
 40
0.0
 40
0.0
 40
1.0
 40
1.0
 40
1.0
 40
2.0
 40
2.0
 40
2.0
 40
3.0
 40
3.0
 40
3.0
 40
4.0
 40
4.0
 40
4.0
 40
5.0
 40
5.0
 40
5.0
 40
6.0
 40
6.0
 40
6.0
 40
7.0
 40
7.0
 40
7.0
 40
8.0
 40
8.0
 40
8.0
 40
9.0
 40
9.0
 40
9.0
 40
9.0
 10
106.2595617172429
 20
153.4105476718098
 10
104.8222669326213
 20
151.5474388043041
 10
103.7177685914188
 20
149.8758773721411
 10
101.9232171692965
 20
144.6141795664062
 10
100.2754269116635
 20
139.7999999594306
 10
99.22777268346732
 20
136.3052927937542
 10
99.06964269637689
 20
132.039572749846
 10
98.94665270641765
 20
128.8673267343149
 10
100.8807305877373
 20
127.8027915271048
 10
103.7129454545577
 20
127.8027915271048
 10
104.9352661390825
 20
127.8027915271048
 10
108.0151835347002
 20
127.8827177950895
 10
110.2045431598849
 20
130.5926316915021
 10
111.7417457794874
 20
132.4984597712065
 10
113.155269389579
 20
134.475256864725
 10
115.0562743324223
 20
140.9489400617108
 10
116.6361961642235
 20
146.3680788349845
 10
117.7282921534974
 20
149.8639917848761
 10
117.6480213757369
 20
151.8595646611754
 10
117.6480213757369
 20
151.8595646611754
 10
117.6480213757369
 20
151.8595646611754
 10
117.6480213757369
 20
151.8595646611754
 10
117.13229024137
 20
155.18150017429
 10
114.7162431837115
 20
155.886194920681
 10
113.3351034925446
 20
155.886194920681
 10
111.9829026225447
 20
155.886194920681
 10
108.3414342923792
 20
156.1251124501957
 10
106.2595617172429
 20
153.4105476718098
 97
        0
 75
     2
 76
     1
 98
        0
  0
ENDBLK
  5
6AD
330
6A2
100
AcDbEntity
  8
0
100
AcDbBlockEnd
  0
BLOCK
  5
D6B
330
D6A
100
AcDbEntity
  8
0
100
AcDbBlockBegin
  2
_SE_FILLED
 70
     0
 10
0.0
 20
0.0
 30
0.0
  3
_SE_FILLED
  1
_SE_FILLED
  0
SOLID
  5
D6C
330
D6A
100
AcDbEntity
  8
0
 62
     0
100
AcDbTrace
 10
0.0
 20
0.0
 30
0.0
 11
-1.0
 21
-0.1665
 31
0.0
 12
-1.0
 22
0.1665
 32
0.0
 13
0.0
 23
0.0
 33
0.0
  0
LINE
  5
D6D
330
D6A
100
AcDbEntity
  8
0
 62
     0
100
AcDbLine
 10
0.0
 20
0.0
 30
0.0
 11
-1.0
 21
0.0
 31
0.0
  0
ENDBLK
  5
D6E
330
D6A
100
AcDbEntity
  8
0
100
AcDbBlockEnd
  0
BLOCK
  5
EC8
330
EC7
100
AcDbEntity
  8
0
100
AcDbBlockBegin
  2
DMBLK1
 70
     0
 10
0.0
 20
0.0
 30
0.0
  3
DMBLK1
  1
DMBLK1
  0
LINE
  5
EC9
330
EC7
100
AcDbEntity
  8
0
  6
Continuous
 62
   136
370
    -2
100
AcDbLine
 10
58.89283327169999
 20
65.6801632977
 30
0.0
 11
19.8825418443
 21
65.6801632977
 31
0.0
  0
LINE
  5
ECA
330
EC7
100
AcDbEntity
  8
0
  6
Continuous
 62
   136
370
    -2
100
AcDbLine
 10
46.8755731804
 20
55.9301630683
 30
0.0
 11
19.8825418443
 21
55.9301630683
 31
0.0
  0
LINE
  5
ECB
330
EC7
100
AcDbEntity
  8
0
  6
Continuous
 62
   136
370
    -2
100
AcDbLine
 10
22.8825418443
 20
71.6801632977
 30
0.0
 11
22.8825418443
 21
77.6801632977
 31
0.0
  0
LINE
  5
ECC
330
EC7
100
AcDbEntity
  8
0
  6
Continuous
 62
   136
370
    -2
100
AcDbLine
 10
22.8825418443
 20
49.9301630683
 30
0.0
 11
22.8825418443
 21
43.9301630683
 31
0.0
  0
INSERT
  5
ECD
330
EC7
100
AcDbEntity
  8
0
 62
   136
370
    -2
100
AcDbBlockReference
  2
_SE_FILLED
 10
22.8825418443
 20
65.6801632977
 30
0.0
 41
6.0
 42
6.0
 43
6.0
 50
270.0
  0
INSERT
  5
ECE
330
EC7
100
AcDbEntity
  8
0
 62
   136
370
    -2
100
AcDbBlockReference
  2
_SE_FILLED
 10
22.8825418443
 20
55.9301630683
 30
0.0
 41
6.0
 42
6.0
 43
6.0
 50
90.0
  0
MTEXT
  5
ECF
330
EC7
100
AcDbEntity
  8
0
  6
Continuous
 62
   136
370
    20
100
AcDbMText
 10
22.8825418443
 20
60.8051631971
 30
0.0
 40
6.0
 41
0.0
 46
0.0
 71
     5
 72
     1
  1
\A1;\A1;max.20 {}
  7
SEACAD_arial_ttf
 73
     1
 44
1.0
  0
POINT
  5
FAA
330
EC7
100
AcDbEntity
  8
Defpoints
 62
     0
100
AcDbPoint
 10
58.89283327169999
 20
65.6801632977
 30
0.0
  0
POINT
  5
FAB
330
EC7
100
AcDbEntity
  8
Defpoints
 62
     0
100
AcDbPoint
 10
46.8755731804
 20
55.9301630683
 30
0.0
  0
POINT
  5
FAC
330
EC7
100
AcDbEntity
  8
Defpoints
 62
     0
100
AcDbPoint
 10
22.8825418443
 20
55.9301630683
 30
0.0
  0
ENDBLK
  5
ED0
330
EC7
100
AcDbEntity
  8
0
100
AcDbBlockEnd
  0
BLOCK
  5
ED3
330
ED2
100
AcDbEntity
  8
0
100
AcDbBlockBegin
  2
DMBLK2
 70
     0
 10
0.0
 20
0.0
 30
0.0
  3
DMBLK2
  1
DMBLK2
  0
LINE
  5
ED4
330
ED2
100
AcDbEntity
  8
0
  6
Continuous
 62
   136
370
    -2
100
AcDbLine
 10
85.37009194655077
 20
60.97823927252431
 30
0.0
 11
79.37009194655077
 21
60.97823927252431
 31
0.0
  0
LINE
  5
ED5
330
ED2
100
AcDbEntity
  8
0
  6
Continuous
 62
   136
370
    -2
100
AcDbLine
 10
79.37009194655077
 20
60.97823927252431
 30
0.0
 11
67.37009569027522
 21
60.96876038161754
 31
0.0
  0
LINE
  5
ED6
330
ED2
100
AcDbEntity
  8
0
  6
Continuous
 62
   136
370
    -2
100
AcDbLine
 10
50.4052204085
 20
60.805163183
 30
0.0
 11
50.40273204444865
 21
63.95535866428643
 31
0.0
  0
LINE
  5
ED7
330
ED2
100
AcDbEntity
  8
0
  6
Continuous
 62
   136
370
    -2
100
AcDbLine
 10
67.37021433160001
 20
60.8185639644
 30
0.0
 11
67.36772596754867
 21
63.96875944568642
 31
0.0
  0
LINE
  5
ED8
330
ED2
100
AcDbEntity
  8
0
  6
Continuous
 62
   136
370
    -2
100
AcDbLine
 10
44.40510363903743
 20
60.95062015476415
 30
0.0
 11
38.40510551089966
 21
60.94588070931076
 31
0.0
  0
INSERT
  5
ED9
330
ED2
100
AcDbEntity
  8
0
 62
   136
370
    -2
100
AcDbBlockReference
  2
_SE_FILLED
 10
50.40510176717521
 20
60.95535960021754
 30
0.0
 41
6.0
 42
6.0
 43
6.0
 50
0.0452583749917677
  0
INSERT
  5
EDA
330
ED2
100
AcDbEntity
  8
0
 62
   136
370
    -2
100
AcDbBlockReference
  2
_SE_FILLED
 10
67.37009569027522
 20
60.96876038161754
 30
0.0
 41
6.0
 42
6.0
 43
6.0
 50
180.0452583749918
  0
MTEXT
  5
FAD
330
ED2
100
AcDbEntity
  8
0
  6
Continuous
 62
   136
370
    20
100
AcDbMText
 10
97.04609194655077
 20
60.97823927252431
 30
0.0
 40
6.0
 41
0.0
 46
0.0
 71
     5
 72
     1
  1
\A1;\A1;O 34
  7
SEACAD_arial_ttf
 73
     1
 44
1.0
  0
POINT
  5
FAE
330
ED2
100
AcDbEntity
  8
Defpoints
 62
     0
100
AcDbPoint
 10
50.4052204085
 20
60.805163183
 30
0.0
  0
POINT
  5
FAF
330
ED2
100
AcDbEntity
  8
Defpoints
 62
     0
100
AcDbPoint
 10
67.37021433160001
 20
60.8185639644
 30
0.0
  0
POINT
  5
FB0
330
ED2
100
AcDbEntity
  8
Defpoints
 62
     0
100
AcDbPoint
 10
67.37009569027522
 20
60.96876038161754
 30
0.0
  0
ENDBLK
  5
EDB
330
ED2
100
AcDbEntity
  8
0
100
AcDbBlockEnd
  0
BLOCK
  5
EDE
330
EDD
100
AcDbEntity
  8
0
100
AcDbBlockBegin
  2
DMBLK3
 70
     0
 10
0.0
 20
0.0
 30
0.0
  3
DMBLK3
  1
DMBLK3
  0
LINE
  5
EDF
330
EDD
100
AcDbEntity
  8
0
  6
Continuous
 62
   136
370
    -2
100
AcDbLine
 10
65.8337774629
 20
130.1048790549
 30
0.0
 11
9.345314299500004
 21
130.1048790549
 31
0.0
  0
LINE
  5
EE0
330
EDD
100
AcDbEntity
  8
0
  6
Continuous
 62
   136
370
    -2
100
AcDbLine
 10
47.4482714394
 20
65.6801632977
 30
0.0
 11
9.3453142995
 21
65.6801632977
 31
0.0
  0
LINE
  5
EE1
330
EDD
100
AcDbEntity
  8
0
  6
Continuous
 62
   136
370
    -2
100
AcDbLine
 10
12.3453142995
 20
124.1048790549
 30
0.0
 11
12.3453142995
 21
103.9555210868
 31
0.0
  0
LINE
  5
EE2
330
EDD
100
AcDbEntity
  8
0
  6
Continuous
 62
   136
370
    -2
100
AcDbLine
 10
12.3453142995
 20
71.6801632977
 30
0.0
 11
12.3453142995
 21
91.8295210868
 31
0.0
  0
INSERT
  5
EE3
330
EDD
100
AcDbEntity
  8
0
 62
   136
370
    -2
100
AcDbBlockReference
  2
_SE_FILLED
 10
12.3453142995
 20
130.1048790549
 30
0.0
 41
6.0
 42
6.0
 43
6.0
 50
90.0
  0
INSERT
  5
EE4
330
EDD
100
AcDbEntity
  8
0
 62
   136
370
    -2
100
AcDbBlockReference
  2
_SE_FILLED
 10
12.3453142995
 20
65.6801632977
 30
0.0
 41
6.0
 42
6.0
 43
6.0
 50
270.0
  0
MTEXT
  5
EE5
330
EDD
100
AcDbEntity
  8
0
  6
Continuous
 62
   136
370
    20
100
AcDbMText
 10
12.3453142995
 20
97.8925210868
 30
0.0
 40
6.0
 41
0.0
 46
0.0
 71
     5
 72
     1
  1
\A1;\A1;129
  7
SEACAD_arial_ttf
 73
     1
 44
1.0
  0
POINT
  5
FB1
330
EDD
100
AcDbEntity
  8
Defpoints
 62
     0
100
AcDbPoint
 10
65.8337774629
 20
130.1048790549
 30
0.0
  0
POINT
  5
FB2
330
EDD
100
AcDbEntity
  8
Defpoints
 62
     0
100
AcDbPoint
 10
47.4482714394
 20
65.6801632977
 30
0.0
  0
POINT
  5
FB3
330
EDD
100
AcDbEntity
  8
Defpoints
 62
     0
100
AcDbPoint
 10
12.3453142995
 20
65.6801632977
 30
0.0
  0
ENDBLK
  5
EE6
330
EDD
100
AcDbEntity
  8
0
100
AcDbBlockEnd
  0
BLOCK
  5
EE9
330
EE8
100
AcDbEntity
  8
0
100
AcDbBlockBegin
  2
DMBLK4
 70
     0
 10
0.0
 20
0.0
 30
0.0
  3
DMBLK4
  1
DMBLK4
  0
LINE
  5
EEA
330
EE8
100
AcDbEntity
  8
0
  6
Continuous
 62
   136
370
    -2
100
AcDbLine
 10
105.4187932625
 20
88.8318475504
 30
0.0
 11
105.4187932625
 21
80.06289860794858
 31
0.0
  0
LINE
  5
EEB
330
EE8
100
AcDbEntity
  8
0
  6
Continuous
 62
   136
370
    -2
100
AcDbLine
 10
108.3425103097
 20
89.26879999070002
 30
0.0
 11
110.906302860575
 21
80.88301241228079
 31
0.0
  0
ARC
  5
EEC
330
EE8
100
AcDbEntity
  8
0
  6
Continuous
 62
   136
370
    -2
100
AcDbCircle
 10
105.4187932625
 20
98.8318475504
 30
0.0
 40
15.76894894245141
100
AcDbArc
 50
226.1311326432181
 51
248.0655663216091
  0
ARC
  5
EED
330
EE8
100
AcDbEntity
  8
0
  6
Continuous
 62
   136
370
    -2
100
AcDbCircle
 10
105.4187932625
 20
98.8318475504
 30
0.0
 40
15.76894894245141
100
AcDbArc
 50
308.9344336781244
 51
330.8688673565153
  0
INSERT
  5
EEE
330
EE8
100
AcDbEntity
  8
0
 62
   136
370
    -2
100
AcDbBlockReference
  2
_SE_FILLED
 10
105.4187932625
 20
83.06289860794858
 30
0.0
 41
6.0
 42
6.0
 43
6.0
 50
349.0327831608045
  0
INSERT
  5
EEF
330
EE8
100
AcDbEntity
  8
0
 62
   136
370
    -2
100
AcDbBlockReference
  2
_SE_FILLED
 10
110.0291877464201
 20
83.75192668017398
 30
0.0
 41
6.0
 42
6.0
 43
6.0
 50
207.9672168389289
  0
MTEXT
  5
EF0
330
EE8
100
AcDbEntity
  8
0
  6
Continuous
 62
   136
370
    20
100
AcDbMText
 10
114.42761391
 20
85.88963362500002
 30
0.0
 40
6.0
 41
0.0
 46
0.0
 71
     5
 72
     1
  1
\A1;\A1;17%%d
  7
SEACAD_arial_ttf
 73
     1
 44
1.0
  0
POINT
  5
EF1
330
EE8
100
AcDbEntity
  8
Defpoints
 62
     0
100
AcDbPoint
 10
106.9758324182228
 20
83.13995856859842
 30
0.0
  0
POINT
  5
FB4
330
EE8
100
AcDbEntity
  8
Defpoints
 62
     0
100
AcDbPoint
 10
105.4187932625
 20
98.8318475504
 30
0.0
  0
POINT
  5
FB5
330
EE8
100
AcDbEntity
  8
Defpoints
 62
     0
100
AcDbPoint
 10
105.4187932625
 20
98.8318475504
 30
0.0
  0
POINT
  5
FB6
330
EE8
100
AcDbEntity
  8
Defpoints
 62
     0
100
AcDbPoint
 10
108.3425103097
 20
89.26879999070002
 30
0.0
  0
POINT
  5
FB7
330
EE8
100
AcDbEntity
  8
Defpoints
 62
     0
100
AcDbPoint
 10
105.4187932625
 20
88.8318475504
 30
0.0
  0
ENDBLK
  5
EF2
330
EE8
100
AcDbEntity
  8
0
100
AcDbBlockEnd
  0
BLOCK
  5
EF5
330
EF4
100
AcDbEntity
  8
0
100
AcDbBlockBegin
  2
DMBLK5
 70
     0
 10
0.0
 20
0.0
 30
0.0
  3
DMBLK5
  1
DMBLK5
  0
LINE
  5
EF6
330
EF4
100
AcDbEntity
  8
0
  6
Continuous
 62
   136
370
    -2
100
AcDbLine
 10
81.1791358881
 20
65.6801632977
 30
0.0
 11
144.3380517058
 21
65.6801632977
 31
0.0
  0
LINE
  5
EF7
330
EF4
100
AcDbEntity
  8
0
  6
Continuous
 62
   136
370
    -2
100
AcDbLine
 10
108.7326562345
 20
98.8318475504
 30
0.0
 11
144.3380517058
 21
98.8318475504
 31
0.0
  0
LINE
  5
EF8
330
EF4
100
AcDbEntity
  8
0
  6
Continuous
 62
   136
370
    -2
100
AcDbLine
 10
141.3380517058
 20
71.6801632977
 30
0.0
 11
141.3380517058
 21
76.19300453090001
 31
0.0
  0
LINE
  5
EF9
330
EF4
100
AcDbEntity
  8
0
  6
Continuous
 62
   136
370
    -2
100
AcDbLine
 10
141.3380517058
 20
92.8318475504
 30
0.0
 11
141.3380517058
 21
88.31900453090002
 31
0.0
  0
INSERT
  5
EFA
330
EF4
100
AcDbEntity
  8
0
 62
   136
370
    -2
100
AcDbBlockReference
  2
_SE_FILLED
 10
141.3380517058
 20
65.6801632977
 30
0.0
 41
6.0
 42
6.0
 43
6.0
 50
270.0
  0
INSERT
  5
EFB
330
EF4
100
AcDbEntity
  8
0
 62
   136
370
    -2
100
AcDbBlockReference
  2
_SE_FILLED
 10
141.3380517058
 20
98.8318475504
 30
0.0
 41
6.0
 42
6.0
 43
6.0
 50
90.0
  0
MTEXT
  5
EFC
330
EF4
100
AcDbEntity
  8
0
  6
Continuous
 62
   136
370
    20
100
AcDbMText
 10
141.3380517058
 20
82.25600453090001
 30
0.0
 40
6.0
 41
0.0
 46
0.0
 71
     5
 72
     1
  1
\A1;\A1;66
  7
SEACAD_arial_ttf
 73
     1
 44
1.0
  0
POINT
  5
FB8
330
EF4
100
AcDbEntity
  8
Defpoints
 62
     0
100
AcDbPoint
 10
81.1791358881
 20
65.6801632977
 30
0.0
  0
POINT
  5
FB9
330
EF4
100
AcDbEntity
  8
Defpoints
 62
     0
100
AcDbPoint
 10
108.7326562345
 20
98.8318475504
 30
0.0
  0
POINT
  5
FBA
330
EF4
100
AcDbEntity
  8
Defpoints
 62
     0
100
AcDbPoint
 10
141.3380517058
 20
98.8318475504
 30
0.0
  0
ENDBLK
  5
EFD
330
EF4
100
AcDbEntity
  8
0
100
AcDbBlockEnd
  0
BLOCK
  5
F00
330
EFF
100
AcDbEntity
  8
0
100
AcDbBlockBegin
  2
DMBLK6
 70
     0
 10
0.0
 20
0.0
 30
0.0
  3
DMBLK6
  1
DMBLK6
  0
LINE
  5
F01
330
EFF
100
AcDbEntity
  8
0
  6
Continuous
 62
   136
370
    -2
100
AcDbLine
 10
105.4187932625
 20
93.8318475504
 30
0.0
 11
105.4187932625
 21
0.1020000000000039
 31
0.0
  0
LINE
  5
F02
330
EFF
100
AcDbEntity
  8
0
  6
Continuous
 62
   136
370
    -2
100
AcDbLine
 10
58.89283327169999
 20
26.68016329770001
 30
0.0
 11
58.89283327169999
 21
0.1020000000000039
 31
0.0
  0
LINE
  5
F03
330
EFF
100
AcDbEntity
  8
0
  6
Continuous
 62
   136
370
    -2
100
AcDbLine
 10
99.4187932625
 20
3.102000000000004
 30
0.0
 11
89.4488137997
 21
3.102000000000004
 31
0.0
  0
LINE
  5
F04
330
EFF
100
AcDbEntity
  8
0
  6
Continuous
 62
   136
370
    -2
100
AcDbLine
 10
64.8928332717
 20
3.102000000000004
 30
0.0
 11
74.8628137997
 21
3.102000000000004
 31
0.0
  0
INSERT
  5
F05
330
EFF
100
AcDbEntity
  8
0
 62
   136
370
    -2
100
AcDbBlockReference
  2
_SE_FILLED
 10
105.4187932625
 20
3.102000000000004
 30
0.0
 41
6.0
 42
6.0
 43
6.0
  0
INSERT
  5
F06
330
EFF
100
AcDbEntity
  8
0
 62
   136
370
    -2
100
AcDbBlockReference
  2
_SE_FILLED
 10
58.89283327169999
 20
3.102000000000004
 30
0.0
 41
6.0
 42
6.0
 43
6.0
 50
180.0
  0
MTEXT
  5
F07
330
EFF
100
AcDbEntity
  8
0
  6
Continuous
 62
   136
370
    20
100
AcDbMText
 10
82.1558137997
 20
3.102000000000004
 30
0.0
 40
6.0
 41
0.0
 46
0.0
 71
     5
 72
     1
  1
\A1;\A1;93
  7
SEACAD_arial_ttf
 73
     1
 44
1.0
  0
POINT
  5
FBB
330
EFF
100
AcDbEntity
  8
Defpoints
 62
     0
100
AcDbPoint
 10
105.4187932625
 20
93.8318475504
 30
0.0
  0
POINT
  5
FBC
330
EFF
100
AcDbEntity
  8
Defpoints
 62
     0
100
AcDbPoint
 10
58.89283327169999
 20
26.68016329770001
 30
0.0
  0
POINT
  5
FBD
330
EFF
100
AcDbEntity
  8
Defpoints
 62
     0
100
AcDbPoint
 10
58.89283327169999
 20
3.102000000000004
 30
0.0
  0
ENDBLK
  5
F08
330
EFF
100
AcDbEntity
  8
0
100
AcDbBlockEnd
  0
BLOCK
  5
F0B
330
F0A
100
AcDbEntity
  8
0
100
AcDbBlockBegin
  2
DMBLK7
 70
     0
 10
0.0
 20
0.0
 30
0.0
  3
DMBLK7
  1
DMBLK7
  0
LINE
  5
F0C
330
F0A
100
AcDbEntity
  8
0
  6
Continuous
 62
   136
370
    -2
100
AcDbLine
 10
64.1516537399
 20
45.22813623280001
 30
0.0
 11
76.1516537399
 21
45.22813623280001
 31
0.0
  0
LINE
  5
F0D
330
F0A
100
AcDbEntity
  8
0
  6
Continuous
 62
   136
370
    -2
100
AcDbLine
 10
47.6716537399
 20
45.22813623280001
 30
0.0
 11
41.6716537399
 21
45.22813623280001
 31
0.0
  0
LINE
  5
F0E
330
F0A
100
AcDbEntity
  8
0
  6
Continuous
 62
   136
370
    -2
100
AcDbLine
 10
70.1516537399
 20
45.22813623280001
 30
0.0
 11
76.1516537399
 21
45.22813623280001
 31
0.0
  0
INSERT
  5
F0F
330
F0A
100
AcDbEntity
  8
0
 62
   136
370
    -2
100
AcDbBlockReference
  2
_SE_FILLED
 10
53.6716537399
 20
45.22813623280001
 30
0.0
 41
6.0
 42
6.0
 43
6.0
  0
INSERT
  5
F10
330
F0A
100
AcDbEntity
  8
0
 62
   136
370
    -2
100
AcDbBlockReference
  2
_SE_FILLED
 10
64.1516537399
 20
45.22813623280001
 30
0.0
 41
6.0
 42
6.0
 43
6.0
 50
180.0
  0
MTEXT
  5
FBE
330
F0A
100
AcDbEntity
  8
0
  6
Continuous
 62
   136
370
    20
100
AcDbMText
 10
87.7856537399
 20
45.22813623280001
 30
0.0
 40
6.0
 41
0.0
 46
0.0
 71
     5
 72
     1
  1
\A1;\A1;G1/2 {}
  7
SEACAD_arial_ttf
 73
     1
 44
1.0
  0
POINT
  5
FBF
330
F0A
100
AcDbEntity
  8
Defpoints
 62
     0
100
AcDbPoint
 10
53.6716537399
 20
47.055163183
 30
0.0
  0
POINT
  5
FC0
330
F0A
100
AcDbEntity
  8
Defpoints
 62
     0
100
AcDbPoint
 10
64.1516537399
 20
47.055163183
 30
0.0
  0
POINT
  5
FC1
330
F0A
100
AcDbEntity
  8
Defpoints
 62
     0
100
AcDbPoint
 10
64.1516537399
 20
45.22813623280001
 30
0.0
  0
ENDBLK
  5
F11
330
F0A
100
AcDbEntity
  8
0
100
AcDbBlockEnd
  0
BLOCK
  5
F14
330
F13
100
AcDbEntity
  8
0
100
AcDbBlockBegin
  2
SE
 70
     0
 10
0.0
 20
0.0
 30
0.0
  3
SE
  1
SE
  0
LINE
  5
F15
330
F13
100
AcDbEntity
  8
DV1_ﾃﾞﾌｫﾙﾄ
  6
Continuous
 62
     7
100
AcDbLine
 10
70.6889856944
 20
113.8884315711
 30
0.0
 11
71.4928332717
 21
113.8884315711
 31
0.0
  0
LINE
  5
F16
330
F13
100
AcDbEntity
  8
DV1_ﾃﾞﾌｫﾙﾄ
  6
Continuous
 62
     7
100
AcDbLine
 10
70.7328332717
 20
96.2184315711
 30
0.0
 11
70.7328332717
 21
103.8884315711
 31
0.0
  0
LINE
  5
F17
330
F13
100
AcDbEntity
  8
DV1_ﾃﾞﾌｫﾙﾄ
  6
Continuous
 62
     7
100
AcDbLine
 10
60.8328332717
 20
95.6384315711
 30
0.0
 11
70.1528332717
 21
95.6384315711
 31
0.0
  0
LINE
  5
F18
330
F13
100
AcDbEntity
  8
DV1_ﾃﾞﾌｫﾙﾄ
  6
Continuous
 62
     7
100
AcDbLine
 10
60.2528332717
 20
103.8884315711
 30
0.0
 11
60.2528332717
 21
96.2184315711
 31
0.0
  0
LINE
  5
F19
330
F13
100
AcDbEntity
  8
DV1_ﾃﾞﾌｫﾙﾄ
  6
Continuous
 62
     7
100
AcDbLine
 10
70.1528332717
 20
95.6384315711
 30
0.0
 11
70.7328332717
 21
96.2184315711
 31
0.0
  0
LINE
  5
F1A
330
F13
100
AcDbEntity
  8
DV1_ﾃﾞﾌｫﾙﾄ
  6
Continuous
 62
     7
100
AcDbLine
 10
65.4928332717
 20
113.8884315711
 30
0.0
 11
70.6889856944
 21
113.8884315711
 31
0.0
  0
LINE
  5
F1B
330
F13
100
AcDbEntity
  8
DV1_ﾃﾞﾌｫﾙﾄ
  6
Continuous
 62
     7
100
AcDbLine
 10
60.296680849
 20
113.8884315711
 30
0.0
 11
59.4928332717
 21
113.8884315711
 31
0.0
  0
LINE
  5
F1C
330
F13
100
AcDbEntity
  8
DV1_ﾃﾞﾌｫﾙﾄ
  6
Continuous
 62
     7
100
AcDbLine
 10
60.296680849
 20
113.8884315711
 30
0.0
 11
65.4928332717
 21
113.8884315711
 31
0.0
  0
SPLINE
  5
F1D
330
F13
100
AcDbEntity
  8
DV1_ﾃﾞﾌｫﾙﾄ
  6
Continuous
 62
     7
100
AcDbSpline
210
0.0
220
0.0
230
1.0
 70
     8
 71
     3
 72
    10
 73
     6
 74
     0
 42
0.000000001
 43
0.0000000001
 40
0.0
 40
0.0
 40
0.0
 40
0.0
 40
0.3302740818382004
 40
0.663540306128993
 40
1.0
 40
1.0
 40
1.0
 40
1.0
 10
62.02873165658022
 20
113.3525331862624
 30
0.0
 10
61.8237323975525
 20
113.4675067094117
 30
0.0
 10
61.48594262673728
 20
113.6442134714967
 30
0.0
 10
60.86573759809556
 20
113.8500656002358
 30
0.0
 10
60.51350586904687
 20
113.8819616146132
 30
0.0
 10
60.29668084901134
 20
113.8884315711247
 30
0.0
  0
ARC
  5
F1E
330
F13
100
AcDbEntity
  8
DV1_ﾃﾞﾌｫﾙﾄ
  6
Continuous
 62
     7
100
AcDbCircle
 10
65.7454877849
 20
100.7911455091
 30
0.0
 40
13.0997227639744
100
AcDbArc
 50
91.10513292380001
 51
106.4828208502
  0
ARC
  5
F1F
330
F13
100
AcDbEntity
  8
DV1_ﾃﾞﾌｫﾙﾄ
  6
Continuous
 62
     7
100
AcDbCircle
 10
60.3086486852
 20
110.7827636183
 30
0.0
 40
3.105691012084771
100
AcDbArc
 50
90.22079086439999
 51
124.1634566037
  0
SPLINE
  5
F20
330
F13
100
AcDbEntity
  8
DV1_ﾃﾞﾌｫﾙﾄ
  6
Continuous
 62
     7
100
AcDbSpline
210
0.0
220
0.0
230
1.0
 70
     8
 71
     3
 72
     9
 73
     5
 74
     0
 42
0.000000001
 43
0.0000000001
 40
0.0
 40
0.0
 40
0.0
 40
0.0
 40
0.5166684897088156
 40
1.0
 40
1.0
 40
1.0
 40
1.0
 10
58.56463004144246
 20
105.5766348014002
 30
0.0
 10
59.17448058902036
 20
104.980995677696
 30
0.0
 10
60.31818768743233
 20
104.3124477890941
 30
0.0
 10
61.45760735344013
 20
105.017203781039
 30
0.0
 10
62.02873165658022
 20
105.5766348014002
 30
0.0
  0
LINE
  5
F21
330
F13
100
AcDbEntity
  8
DV1_ﾃﾞﾌｫﾙﾄ
  6
Continuous
 62
     7
100
AcDbLine
 10
62.0287316566
 20
105.5766348014
 30
0.0
 11
62.0287316566
 21
113.3525331863
 31
0.0
  0
LINE
  5
F22
330
F13
100
AcDbEntity
  8
DV1_ﾃﾞﾌｫﾙﾄ
  6
Continuous
 62
     7
100
AcDbLine
 10
59.4928332717
 20
113.8884315711
 30
0.0
 11
58.5646300414
 21
113.3525331863
 31
0.0
  0
ARC
  5
F23
330
F13
100
AcDbEntity
  8
DV1_ﾃﾞﾌｫﾙﾄ
  6
Continuous
 62
     7
100
AcDbCircle
 10
70.7009535307
 20
110.7827636183
 30
0.0
 40
3.105691012085025
100
AcDbArc
 50
90.22079086439999
 51
124.1634566037
  0
LINE
  5
F24
330
F13
100
AcDbEntity
  8
DV1_ﾃﾞﾌｫﾙﾄ
  6
Continuous
 62
     7
100
AcDbLine
 10
58.5646300414
 20
105.5766348014
 30
0.0
 11
58.5646300414
 21
113.3525331863
 31
0.0
  0
LINE
  5
F25
330
F13
100
AcDbEntity
  8
DV1_ﾃﾞﾌｫﾙﾄ
  6
Continuous
 62
     7
100
AcDbLine
 10
72.421036502
 20
105.5766348014
 30
0.0
 11
72.421036502
 21
113.3525331863
 31
0.0
  0
LINE
  5
F26
330
F13
100
AcDbEntity
  8
DV1_ﾃﾞﾌｫﾙﾄ
  6
Continuous
 62
     7
100
AcDbLine
 10
68.9569348869
 20
105.5766348014
 30
0.0
 11
68.9569348869
 21
113.3525331863
 31
0.0
  0
SPLINE
  5
F27
330
F13
100
AcDbEntity
  8
DV1_ﾃﾞﾌｫﾙﾄ
  6
Continuous
 62
     7
100
AcDbSpline
210
0.0
220
0.0
230
1.0
 70
     8
 71
     3
 72
     9
 73
     5
 74
     0
 42
0.000000001
 43
0.0000000001
 40
0.0
 40
0.0
 40
0.0
 40
0.0
 40
0.5166684897088152
 40
1.0
 40
1.0
 40
1.0
 40
1.0
 10
68.9569348868557
 20
105.5766348014002
 30
0.0
 10
69.56678543443363
 20
104.980995677696
 30
0.0
 10
70.71049253284558
 20
104.3124477890941
 30
0.0
 10
71.84991219885337
 20
105.017203781039
 30
0.0
 10
72.42103650199347
 20
105.5766348014002
 30
0.0
  0
LINE
  5
F28
330
F13
100
AcDbEntity
  8
DV1_ﾃﾞﾌｫﾙﾄ
  6
Continuous
 62
     7
100
AcDbLine
 10
58.5646300414
 20
105.5766348014
 30
0.0
 11
60.2528332717
 21
103.8884315711
 31
0.0
  0
SPLINE
  5
F29
330
F13
100
AcDbEntity
  8
DV1_ﾃﾞﾌｫﾙﾄ
  6
Continuous
 62
     7
100
AcDbSpline
210
0.0
220
0.0
230
1.0
 70
     8
 71
     3
 72
     9
 73
     5
 74
     0
 42
0.000000001
 43
0.0000000001
 40
0.0
 40
0.0
 40
0.0
 40
0.0
 40
0.4936321859422536
 40
1.0
 40
1.0
 40
1.0
 40
1.0
 10
62.02873165658022
 20
105.5766348014002
 30
0.0
 10
63.19605770502847
 20
105.0076038377133
 30
0.0
 10
65.4694866517571
 20
104.3158548158449
 30
0.0
 10
67.76149826581907
 20
104.9907172551271
 30
0.0
 10
68.9569348868557
 20
105.5766348014002
 30
0.0
  0
LINE
  5
F2A
330
F13
100
AcDbEntity
  8
DV1_ﾃﾞﾌｫﾙﾄ
  6
Continuous
 62
     7
100
AcDbLine
 10
60.2528332717
 20
103.8884315711
 30
0.0
 11
70.7328332717
 21
103.8884315711
 31
0.0
  0
LINE
  5
F2B
330
F13
100
AcDbEntity
  8
DV1_ﾃﾞﾌｫﾙﾄ
  6
Continuous
 62
     7
100
AcDbLine
 10
60.2528332717
 20
96.2184315711
 30
0.0
 11
70.7328332717
 21
96.2184315711
 31
0.0
  0
SPLINE
  5
F2C
330
F13
100
AcDbEntity
  8
DV1_ﾃﾞﾌｫﾙﾄ
  6
Continuous
 62
     7
100
AcDbSpline
210
0.0
220
0.0
230
1.0
 70
     8
 71
     3
 72
    10
 73
     6
 74
     0
 42
0.000000001
 43
0.0000000001
 40
0.0
 40
0.0
 40
0.0
 40
0.0
 40
0.3302740818382024
 40
0.6635403061289941
 40
1.0
 40
1.0
 40
1.0
 40
1.0
 10
72.42103650199347
 20
113.3525331862624
 30
0.0
 10
72.21603724296575
 20
113.4675067094116
 30
0.0
 10
71.87824747215053
 20
113.6442134714967
 30
0.0
 10
71.25804244350883
 20
113.8500656002358
 30
0.0
 10
70.90581071446012
 20
113.8819616146132
 30
0.0
 10
70.68898569442459
 20
113.8884315711247
 30
0.0
  0
LINE
  5
F2D
330
F13
100
AcDbEntity
  8
DV1_ﾃﾞﾌｫﾙﾄ
  6
Continuous
 62
     7
100
AcDbLine
 10
70.7328332717
 20
103.8884315711
 30
0.0
 11
72.421036502
 21
105.5766348014
 31
0.0
  0
ARC
  5
F2E
330
F13
100
AcDbEntity
  8
DV1_ﾃﾞﾌｫﾙﾄ
  6
Continuous
 62
     7
100
AcDbCircle
 10
65.4381924671
 20
102.0711262426
 30
0.0
 40
11.81743165182213
100
AcDbArc
 50
72.6769683124
 51
89.7350779136
  0
LINE
  5
F2F
330
F13
100
AcDbEntity
  8
DV1_ﾃﾞﾌｫﾙﾄ
  6
Continuous
 62
     7
100
AcDbLine
 10
72.421036502
 20
113.3525331863
 30
0.0
 11
71.4928332717
 21
113.8884315711
 31
0.0
  0
LINE
  5
F30
330
F13
100
AcDbEntity
  8
DV1_ﾃﾞﾌｫﾙﾄ
  6
Continuous
 62
     7
100
AcDbLine
 10
60.2528332717
 20
96.2184315711
 30
0.0
 11
60.8328332717
 21
95.6384315711
 31
0.0
  0
LINE
  5
F31
330
F13
100
AcDbEntity
  8
DV1_ﾃﾞﾌｫﾙﾄ
  6
HIDDEN2
 62
     7
100
AcDbLine
 10
70.7328332715
 20
113.8884315711
 30
0.0
 11
70.7328332715
 21
110.1384315711
 31
0.0
  0
LINE
  5
F32
330
F13
100
AcDbEntity
  8
DV1_ﾃﾞﾌｫﾙﾄ
  6
HIDDEN2
 62
     7
100
AcDbLine
 10
60.2528332717
 20
113.8884315711
 30
0.0
 11
60.2528332717
 21
110.1384315711
 31
0.0
  0
LINE
  5
F33
330
F13
100
AcDbEntity
  8
DV1_ﾃﾞﾌｫﾙﾄ
  6
HIDDEN2
 62
     7
100
AcDbLine
 10
70.7328332717
 20
110.1384315711
 30
0.0
 11
60.2528332717
 21
110.1384315711
 31
0.0
  0
LINE
  5
F34
330
F13
100
AcDbEntity
  8
DV1_ﾃﾞﾌｫﾙﾄ
  6
Continuous
 62
     7
100
AcDbLine
 10
70.1528332717
 20
95.6384315711
 30
0.0
 11
70.1528332717
 21
101.6384315711
 31
0.0
  0
LINE
  5
F35
330
F13
100
AcDbEntity
  8
DV1_ﾃﾞﾌｫﾙﾄ
  6
Continuous
 62
     7
100
AcDbLine
 10
60.8328332717
 20
95.6384315711
 30
0.0
 11
60.8328332717
 21
101.6384315711
 31
0.0
  0
LINE
  5
F36
330
F13
100
AcDbEntity
  8
DV1_ﾃﾞﾌｫﾙﾄ
  6
Continuous
 62
     7
100
AcDbLine
 10
60.2528332717
 20
101.6384315711
 30
0.0
 11
70.7328332717
 21
101.6384315711
 31
0.0
  0
ENDBLK
  5
F37
330
F13
100
AcDbEntity
  8
0
100
AcDbBlockEnd
  0
BLOCK
  5
F3A
330
F39
100
AcDbEntity
  8
0
100
AcDbBlockBegin
  2
DMBLK8
 70
     0
 10
0.0
 20
0.0
 30
0.0
  3
DMBLK8
  1
DMBLK8
  0
LINE
  5
F3B
330
F39
100
AcDbEntity
  8
0
  6
Continuous
 62
     0
370
    -2
100
AcDbLine
 10
64.13283327170001
 20
29.2601632977
 30
0.0
 11
64.13283327170001
 21
-8.313128138096197
 31
0.0
  0
LINE
  5
F3C
330
F39
100
AcDbEntity
  8
0
  6
Continuous
 62
     0
370
    -2
100
AcDbLine
 10
53.6528332717
 20
29.2601632977
 30
0.0
 11
53.6528332717
 21
-8.313128138096197
 31
0.0
  0
LINE
  5
F3D
330
F39
100
AcDbEntity
  8
0
  6
Continuous
 62
     0
370
    -2
100
AcDbLine
 10
53.6528332717
 20
11.6868718619
 30
0.0
 11
-60.2593083298625
 21
11.6868718619
 31
0.0
  0
LINE
  5
F3E
330
F39
100
AcDbEntity
  8
0
  6
Continuous
 62
     0
370
    -2
100
AcDbLine
 10
73.13283327170001
 20
11.6868718619
 30
0.0
 11
82.13283327170001
 21
11.6868718619
 31
0.0
  0
LINE
  5
F3F
330
F39
100
AcDbEntity
  8
0
  6
Continuous
 62
     0
370
    -2
100
AcDbLine
 10
44.6528332717
 20
11.6868718619
 30
0.0
 11
35.6528332717
 21
11.6868718619
 31
0.0
  0
INSERT
  5
F40
330
F39
100
AcDbEntity
  8
0
 62
     0
370
    -2
100
AcDbBlockReference
  2
_DOT
 10
64.13283327170001
 20
11.6868718619
 30
0.0
 41
9.0
 42
9.0
 43
9.0
 50
180.0
  0
INSERT
  5
F41
330
F39
100
AcDbEntity
  8
0
 62
     0
370
    -2
100
AcDbBlockReference
  2
_DOT
 10
53.6528332717
 20
11.6868718619
 30
0.0
 41
9.0
 42
9.0
 43
9.0
  0
MTEXT
  5
FC2
330
F39
100
AcDbEntity
  8
0
  6
Continuous
 62
     0
370
    30
100
AcDbMText
 10
-12.30323752908125
 20
36.50525418611875
 30
0.0
 40
24.4326171875
 41
0.0
 46
0.0
 71
     5
 72
     1
  1
\A1;\A1;PJ1/2 {}
  7
ＭＳ ゴシック
 73
     1
 44
1.0
  0
POINT
  5
FC3
330
F39
100
AcDbEntity
  8
Defpoints
 62
     0
100
AcDbPoint
 10
64.13283327170001
 20
29.2601632977
 30
0.0
  0
POINT
  5
FC4
330
F39
100
AcDbEntity
  8
Defpoints
 62
     0
100
AcDbPoint
 10
53.6528332717
 20
29.2601632977
 30
0.0
  0
POINT
  5
FC5
330
F39
100
AcDbEntity
  8
Defpoints
 62
     0
100
AcDbPoint
 10
53.6528332717
 20
11.6868718619
 30
0.0
  0
ENDBLK
  5
F42
330
F39
100
AcDbEntity
  8
0
100
AcDbBlockEnd
  0
BLOCK
  5
F45
330
F44
100
AcDbEntity
  8
0
100
AcDbBlockBegin
  2
DMBLK9
 70
     0
 10
0.0
 20
0.0
 30
0.0
  3
DMBLK9
  1
DMBLK9
  0
LINE
  5
F46
330
F44
100
AcDbEntity
  8
0
  6
Continuous
 62
   136
370
    -2
100
AcDbLine
 10
141.837703299
 20
187.2224449222
 30
0.0
 11
160.1230813233449
 21
187.2224449222
 31
0.0
  0
LINE
  5
F47
330
F44
100
AcDbEntity
  8
0
  6
Continuous
 62
   136
370
    -2
100
AcDbLine
 10
160.1230813233449
 20
187.2224449222
 30
0.0
 11
164.4563766774759
 21
182.0166436573141
 31
0.0
  0
MTEXT
  5
F48
330
F44
100
AcDbEntity
  8
0
  6
Continuous
 62
   136
370
    20
100
AcDbMText
 10
128.028703299
 20
187.2224449222
 30
0.0
 40
6.0
 41
0.0
 46
0.0
 71
     5
 72
     1
  1
\A1;\A1;%%c35%%p1
  7
SEACAD_arial_ttf
 73
     1
 44
1.0
  0
INSERT
  5
F49
330
F44
100
AcDbEntity
  8
0
 62
   136
370
    -2
100
AcDbBlockReference
  2
_SE_FILLED
 10
168.2949352921
 20
177.4051940195
 30
0.0
 41
6.0
 42
6.0
 43
6.0
 50
309.7739084189147
  0
LINE
  5
F4A
330
F44
100
AcDbEntity
  8
0
  6
Continuous
 62
   136
370
    20
100
AcDbLine
 10
170.89283327175
 20
170.6801632977
 30
0.0
 11
176.89283327175
 21
170.6801632977
 31
0.0
  0
LINE
  5
F4B
330
F44
100
AcDbEntity
  8
0
  6
Continuous
 62
   136
370
    20
100
AcDbLine
 10
173.89283327175
 20
167.6801632977
 30
0.0
 11
173.89283327175
 21
173.6801632977
 31
0.0
  0
POINT
  5
FC6
330
F44
100
AcDbEntity
  8
Defpoints
 62
     0
100
AcDbPoint
 10
168.2949352921
 20
177.4051940195
 30
0.0
  0
POINT
  5
FC7
330
F44
100
AcDbEntity
  8
Defpoints
 62
     0
100
AcDbPoint
 10
179.4907312514
 20
163.9551325759
 30
0.0
  0
ENDBLK
  5
F4C
330
F44
100
AcDbEntity
  8
0
100
AcDbBlockEnd
  0
BLOCK
  5
F4F
330
F4E
100
AcDbEntity
  8
0
100
AcDbBlockBegin
  2
SE1
 70
     0
 10
0.0
 20
0.0
 30
0.0
  3
SE1
  1
SE1
  0
SPLINE
  5
F50
330
F4E
100
AcDbEntity
  8
MDS_Layer_11
  6
Continuous
 62
     7
100
AcDbSpline
210
0.0
220
0.0
230
1.0
 70
    11
 71
     3
 72
    25
 73
    21
 74
     0
 42
0.000000001
 43
0.0000000001
 40
0.0
 40
0.0
 40
0.0
 40
0.0
 40
0.1228393956552524
 40
0.1666666666666722
 40
0.1666666666666722
 40
0.1666666666666722
 40
0.3333333333333423
 40
0.3333333333333423
 40
0.3333333333333423
 40
0.385836564550762
 40
0.500000000000011
 40
0.6141634354492455
 40
0.6666666666666585
 40
0.6666666666666585
 40
0.6666666666666585
 40
0.8333333333333288
 40
0.8333333333333288
 40
0.8333333333333288
 40
0.8771606043447462
 40
1.0
 40
1.0
 40
1.0
 40
1.0
 10
67.04366681772326
 20
237.6921254005066
 30
0.0
 10
67.03979983033925
 20
238.1265990682805
 30
0.0
 10
66.64174377464445
 20
238.716085909055
 30
0.0
 10
66.78338442157192
 20
239.3054542683025
 30
0.0
 10
66.83154204950016
 20
239.4604430355066
 30
0.0
 10
66.80726196210884
 20
239.5094428721733
 30
0.0
 10
66.7829818747176
 20
239.5584427088399
 30
0.0
 10
66.75870178732636
 20
239.6074425455066
 30
0.0
 10
66.69083133646157
 20
239.4063304219104
 30
0.0
 10
66.49169998797703
 20
238.7679754182371
 30
0.0
 10
67.2229061130445
 20
237.6921254005066
 30
0.0
 10
66.491699987977
 20
236.6162753827761
 30
0.0
 10
66.69083133646157
 20
235.9779203791028
 30
0.0
 10
66.75870178850964
 20
235.7768082520003
 30
0.0
 10
66.7829818747176
 20
235.8258080921733
 30
0.0
 10
66.80726196210884
 20
235.87480792884
 30
0.0
 10
66.83154204950016
 20
235.9238077655066
 30
0.0
 10
66.78338442157192
 20
236.0787965327108
 30
0.0
 10
66.64174377464441
 20
236.6681648919582
 30
0.0
 10
67.03979983033925
 20
237.2576517327328
 30
0.0
 10
67.04366681772326
 20
237.6921254005066
 30
0.0
  0
SPLINE
  5
F52
330
F4E
100
AcDbEntity
  8
MDS_Layer_11
  6
Continuous
 62
     7
100
AcDbSpline
210
0.0
220
0.0
230
1.0
 70
    15
 71
     3
 72
    33
 73
    29
 74
     0
 42
0.000000001
 43
0.0000000001
 40
0.0
 40
0.0
 40
0.0
 40
0.0
 40
0.0506653747815351
 40
0.0674742208581046
 40
0.0674742208581046
 40
0.0887444607711766
 40
0.0887444607711766
 40
0.0887444607711766
 40
0.1562186816292813
 40
0.1562186816292813
 40
0.1562186816292813
 40
0.223692902487386
 40
0.223692902487386
 40
0.2676173471574546
 40
0.4036130435950504
 40
0.539608740032629
 40
0.5835331847026912
 40
0.5835331847026912
 40
0.6510074055607866
 40
0.6510074055607866
 40
0.6510074055607866
 40
0.7184816264188914
 40
0.7184816264188914
 40
0.7184816264188914
 40
0.7859558472769961
 40
0.7859558472769961
 40
0.8392774739805772
 40
1.0
 40
1.0
 40
1.0
 40
1.0
 10
66.62833340868073
 20
237.6921254005066
 30
0.0
 41
1.0
 10
66.62446642129666
 20
238.1265990682805
 30
0.0
 41
1.0
 10
66.23375169928988
 20
238.7052140242012
 30
0.0
 41
1.0
 10
66.36301003971683
 20
239.2837148285955
 30
0.0
 41
1.0
 10
66.46095797420462
 20
239.6102022359321
 30
0.0
 41
1.0
 10
66.51566979334099
 20
239.7925717782194
 30
0.0
 41
1.0
 10
66.5703816124774
 20
239.9749413205066
 30
0.0
 41
1.0
 10
66.54299517503644
 20
240.0122030521274
 30
0.0
 41
0.997360588447966
 10
66.51240473198776
 20
240.0468827060065
 30
0.0
 41
0.997360588447966
 10
66.4788525056376
 20
240.0787056805066
 30
0.0
 41
1.0
 10
66.41444891625716
 20
239.8617480182194
 30
0.0
 41
1.0
 10
66.35004532687675
 20
239.6447903559322
 30
0.0
 41
1.0
 10
66.24371621598131
 20
239.286597349069
 30
0.0
 41
1.0
 10
66.11706357404604
 20
238.7080964574198
 30
0.0
 41
1.0
 10
66.80757270400186
 20
237.6921254005066
 30
0.0
 41
1.0
 10
66.11706357404609
 20
236.6761543435935
 30
0.0
 41
1.0
 10
66.24371621598131
 20
236.0976534519442
 30
0.0
 41
1.0
 10
66.35004532687675
 20
235.7394604450812
 30
0.0
 41
1.0
 10
66.41444891625716
 20
235.5225027827939
 30
0.0
 41
1.0
 10
66.4788525056376
 20
235.3055451205066
 30
0.0
 41
1.0
 10
66.51240473198776
 20
235.3373680950068
 30
0.0
 41
0.997360588447966
 10
66.54299517503644
 20
235.3720477488858
 30
0.0
 41
0.997360588447966
 10
66.5703816124774
 20
235.4093094805066
 30
0.0
 41
1.0
 10
66.51566979334099
 20
235.5916790227938
 30
0.0
 41
1.0
 10
66.46095797420462
 20
235.774048565081
 30
0.0
 41
1.0
 10
66.36301003971683
 20
236.1005359724178
 30
0.0
 41
1.0
 10
66.23375169928995
 20
236.6790367768121
 30
0.0
 41
1.0
 10
66.62446642129666
 20
237.2576517327328
 30
0.0
 41
1.0
 10
66.62833340868073
 20
237.6921254005066
 30
0.0
 41
1.0
  0
SPLINE
  5
F54
330
F4E
100
AcDbEntity
  8
MDS_Layer_11
  6
Continuous
 62
     7
100
AcDbSpline
210
0.0
220
0.0
230
1.0
 70
    15
 71
     3
 72
    29
 73
    25
 74
     0
 42
0.000000001
 43
0.0000000001
 40
0.0
 40
0.0
 40
0.0
 40
0.0
 40
0.006937900788544
 40
0.0870663221932876
 40
0.1666666666666736
 40
0.1666666666666736
 40
0.1666666666666736
 40
0.2462670111400558
 40
0.3263954325447939
 40
0.3333333333333381
 40
0.3333333333333381
 40
0.3333333333333381
 40
0.5000000000000032
 40
0.5000000000000032
 40
0.5000000000000032
 40
0.5116154467721388
 40
0.5891410567193993
 40
0.6666666666666591
 40
0.7441922766139287
 40
0.8217178865611979
 40
0.8333333333333347
 40
0.8333333333333347
 40
0.8333333333333347
 40
1.0
 40
1.0
 40
1.0
 40
1.0
 10
66.20697798354875
 20
240.4211280685126
 30
0.0
 41
1.0
 10
66.21096305213314
 20
240.3832452984231
 30
0.0
 41
1.0
 10
66.23791221128249
 20
239.9078546407448
 30
0.0
 41
1.0
 10
65.62042310323244
 20
238.998427895997
 30
0.0
 41
0.9999999999999996
 10
66.20913301225409
 20
238.1265990682805
 30
0.0
 41
1.0
 10
66.21299999963819
 20
237.6921254005066
 30
0.0
 41
1.0
 10
66.20913301225409
 20
237.2576517327328
 30
0.0
 41
1.0
 10
65.62042310323247
 20
236.3858229050164
 30
0.0
 41
1.0
 10
66.23791221128245
 20
235.4763961602685
 30
0.0
 41
1.0
 10
66.21096305213314
 20
235.0010055025902
 30
0.0
 41
1.0
 10
66.2069779835481
 20
234.9631227324946
 30
0.0
 41
1.0
 10
66.16698878009025
 20
234.9282035785887
 30
0.0
 41
0.9965248981312175
 10
66.12364727702784
 20
234.8975441947734
 30
0.0
 41
0.9965248981312175
 10
66.07740532277703
 20
234.8714642145066
 30
0.0
 41
1.0
 10
66.08859254168104
 20
234.9370191387711
 30
0.0
 41
1.0
 10
66.13863170542375
 20
235.4400979119109
 30
0.0
 41
1.0
 10
65.50048656656298
 20
236.3800573587243
 30
0.0
 41
1.0
 10
66.39223929495928
 20
237.6921254005067
 30
0.0
 41
1.0
 10
65.500486566563
 20
239.0041934422889
 30
0.0
 41
1.0
 10
66.13863170542365
 20
239.9441528891024
 30
0.0
 41
1.0
 10
66.08859254168104
 20
240.4472316622421
 30
0.0
 41
1.0
 10
66.07740532277703
 20
240.5127865865066
 30
0.0
 41
1.0
 10
66.12364727702784
 20
240.4867066062399
 30
0.0
 41
0.9965248981312176
 10
66.16698878009024
 20
240.4560472224245
 30
0.0
 41
0.9965248981312176
 10
66.20697798354875
 20
240.4211280685126
 30
0.0
 41
1.0
  0
SPLINE
  5
F56
330
F4E
100
AcDbEntity
  8
MDS_Layer_11
  6
Continuous
 62
     7
100
AcDbSpline
210
0.0
220
0.0
230
1.0
 70
    11
 71
     1
 72
    15
 73
    13
 74
     0
 42
0.000000001
 43
0.0000000001
 40
0.0
 40
0.0
 40
0.0833333333333333
 40
0.1666666666666667
 40
0.25
 40
0.3333333333333333
 40
0.4166666666666667
 40
0.5
 40
0.5833333333333334
 40
0.6666666666666666
 40
0.75
 40
0.8333333333333334
 40
0.9166666666666666
 40
1.0
 40
1.0
 10
65.57435575931571
 20
240.6751207763045
 30
0.0
 10
65.57435575931571
 20
239.8798699853471
 30
0.0
 10
64.51337048324207
 20
239.8798699853471
 30
0.0
 10
64.51337048324207
 20
240.6042887220491
 30
0.0
 10
64.71620772951867
 20
240.6042887220491
 30
0.0
 10
64.71620772951867
 20
240.1541372188045
 30
0.0
 10
64.91432979920931
 20
240.1541372188045
 30
0.0
 10
64.91432979920931
 20
240.531846848379
 30
0.0
 10
65.11072776782633
 20
240.531846848379
 30
0.0
 10
65.11072776782633
 20
240.1541372188045
 30
0.0
 10
65.37151851303905
 20
240.1541372188045
 30
0.0
 10
65.37151851303905
 20
240.6751207763045
 30
0.0
 10
65.57435575931571
 20
240.6751207763045
 30
0.0
  0
SPLINE
  5
F58
330
F4E
100
AcDbEntity
  8
MDS_Layer_11
  6
Continuous
 62
     7
100
AcDbSpline
210
0.0
220
0.0
230
1.0
 70
    11
 71
     1
 72
    15
 73
    13
 74
     0
 42
0.000000001
 43
0.0000000001
 40
0.0
 40
0.0
 40
0.0833333333333333
 40
0.1666666666666667
 40
0.25
 40
0.3333333333333333
 40
0.4166666666666667
 40
0.5
 40
0.5833333333333334
 40
0.6666666666666666
 40
0.75
 40
0.8333333333333334
 40
0.9166666666666666
 40
1.0
 40
1.0
 10
64.51337048324207
 20
239.5800848144215
 30
0.0
 10
64.51337048324207
 20
239.3040881749641
 30
0.0
 10
64.9046708827199
 20
239.3040881749641
 30
0.0
 10
64.9046708827199
 20
238.8149422460066
 30
0.0
 10
64.51337048324207
 20
238.8149422460066
 30
0.0
 10
64.51337048324207
 20
238.5406750125492
 30
0.0
 10
65.57435575931571
 20
238.5406750125492
 30
0.0
 10
65.57435575931571
 20
238.8149422460066
 30
0.0
 10
65.12360632314545
 20
238.8149422460066
 30
0.0
 10
65.12360632314545
 20
239.3040881749641
 30
0.0
 10
65.57435575931571
 20
239.3040881749641
 30
0.0
 10
65.57435575931571
 20
239.5800848144215
 30
0.0
 10
64.51337048324207
 20
239.5800848144215
 30
0.0
  0
SPLINE
  5
F5A
330
F4E
100
AcDbEntity
  8
MDS_Layer_11
  6
Continuous
 62
     7
100
AcDbSpline
210
0.0
220
0.0
230
1.0
 70
    15
 71
     3
 72
    46
 73
    42
 74
     0
 42
0.000000001
 43
0.0000000001
 40
0.0
 40
0.0
 40
0.0
 40
0.0
 40
0.0456752016340695
 40
0.0456752016340695
 40
0.0456752016340695
 40
0.1737276384392318
 40
0.1737276384392318
 40
0.1737276384392318
 40
0.2180303383312912
 40
0.2593297662858758
 40
0.3017800752443796
 40
0.3017800752443796
 40
0.3017800752443796
 40
0.3442303842028859
 40
0.385529812157452
 40
0.4298325120494566
 40
0.4298325120494566
 40
0.4298325120494566
 40
0.474135211941516
 40
0.5154346398960953
 40
0.5578849488545721
 40
0.5578849488545721
 40
0.5578849488545721
 40
0.6003352578130785
 40
0.6416346857676957
 40
0.6859373856597942
 40
0.6859373856597942
 40
0.6859373856597942
 40
0.8139898224649564
 40
0.8139898224649564
 40
0.8139898224649564
 40
0.8780160408675374
 40
0.8780160408675374
 40
0.8780160408675374
 40
0.9420422592700993
 40
0.9420422592700993
 40
0.9420422592700993
 40
0.9870888666050625
 40
0.9870888666050625
 40
0.9870888666050625
 40
1.0
 40
1.0
 40
1.0
 40
1.0
 10
64.46432418938173
 20
237.6903959945067
 30
0.0
 41
1.0
 10
64.46432418938107
 20
237.8911968613834
 30
0.0
 41
0.9600568399204453
 10
64.54133806590704
 20
238.069377279413
 30
0.0
 41
0.9868828039524479
 10
64.67535211775694
 20
238.1935896333041
 30
0.0
 41
1.080477892096008
 10
64.67535211775694
 20
238.0258584203716
 30
0.0
 41
1.080477892096008
 10
64.67535211775694
 20
237.8581272074391
 30
0.0
 41
1.080477892096008
 10
64.67535211775694
 20
237.6903959945066
 30
0.0
 41
1.080477892096008
 10
64.67273626256463
 20
237.7859674029474
 30
0.0
 41
1.080477892096008
 10
64.72387067734846
 20
237.9219623012696
 30
0.0
 41
1.080477892096008
 10
64.81646542844362
 20
237.9961413367179
 30
0.0
 41
1.080477892096008
 10
64.93670040374614
 20
238.0524624562251
 30
0.0
 41
1.080477892096008
 10
65.04386312127889
 20
238.0526053628576
 30
0.0
 41
1.080477892096008
 10
65.15102583881178
 20
238.0524624562251
 30
0.0
 41
1.080477892096008
 10
65.2712608141143
 20
237.996141336718
 30
0.0
 41
1.080477892096008
 10
65.36385556520939
 20
237.9219623012696
 30
0.0
 41
1.080477892096007
 10
65.41498997999328
 20
237.7859674029474
 30
0.0
 41
1.080477892096008
 10
65.41237412480096
 20
237.6903959945065
 30
0.0
 41
1.080477892096008
 10
65.41498997999328
 20
237.5948245860657
 30
0.0
 41
1.080477892096008
 10
65.36385556520942
 20
237.4588296877436
 30
0.0
 41
1.080477892096007
 10
65.27126081411437
 20
237.3846506522952
 30
0.0
 41
1.080477892096007
 10
65.15102583881178
 20
237.328329532788
 30
0.0
 41
1.080477892096008
 10
65.04386312127899
 20
237.3281866261555
 30
0.0
 41
1.080477892096008
 10
64.93670040374614
 20
237.328329532788
 30
0.0
 41
1.080477892096008
 10
64.81646542844358
 20
237.3846506522952
 30
0.0
 41
1.080477892096008
 10
64.72387067734843
 20
237.4588296877436
 30
0.0
 41
1.080477892096007
 10
64.67273626256463
 20
237.5948245860657
 30
0.0
 41
1.080477892096008
 10
64.67535211776551
 20
237.6903959944974
 30
0.0
 41
1.080477892096008
 10
64.67535211776551
 20
237.8581272074299
 30
0.0
 41
1.080477892096008
 10
64.67535211776551
 20
238.0258584203623
 30
0.0
 41
1.080477892096008
 10
64.67535211776551
 20
238.1935896332948
 30
0.0
 41
1.080477892096008
 10
65.01551531083
 20
238.508873518309
 30
0.0
 41
0.7746432529499301
 10
65.44045986316385
 20
238.3773139997595
 30
0.0
 41
0.7746432529499301
 10
65.58933777008998
 20
237.9106268050375
 30
0.0
 41
1.080477892096008
 10
65.73821567701617
 20
237.4439396103155
 30
0.0
 41
0.7746432529499301
 10
65.48460504334926
 20
237.0384191314748
 30
0.0
 41
0.7746432529499301
 10
65.04386312127889
 20
237.0384191314747
 30
0.0
 41
1.080477892096008
 10
64.79081885354552
 20
237.0384191314748
 30
0.0
 41
0.949278918900485
 10
64.58386411944694
 20
237.2022248916292
 30
0.0
 41
0.949278918900485
 10
64.49838847246772
 20
237.4701651839757
 30
0.0
 41
1.080477892096008
 10
64.47608837966624
 20
237.5400692279433
 30
0.0
 41
1.042874007044045
 10
64.4643241893819
 20
237.6141656390961
 30
0.0
 41
1.016048043012042
 10
64.46432418938173
 20
237.6903959945067
 30
0.0
 41
1.0
  0
SPLINE
  5
F5C
330
F4E
100
AcDbEntity
  8
MDS_Layer_11
  6
Continuous
 62
     7
100
AcDbSpline
210
0.0
220
0.0
230
1.0
 70
    11
 71
     3
 72
    52
 73
    48
 74
     0
 42
0.000000001
 43
0.0000000001
 40
0.0
 40
0.0
 40
0.0
 40
0.0
 40
0.0255005563571848
 40
0.0503097607166889
 40
0.0769230769231093
 40
0.0769230769231093
 40
0.0769230769231093
 40
0.1538461538462172
 40
0.1538461538462172
 40
0.1538461538462172
 40
0.2307692307693251
 40
0.2307692307693251
 40
0.2307692307693251
 40
0.3076923076924329
 40
0.3076923076924329
 40
0.3076923076924329
 40
0.3846153846155408
 40
0.3846153846155408
 40
0.3846153846155408
 40
0.4615384615386487
 40
0.4615384615386487
 40
0.4615384615386487
 40
0.4881517777450676
 40
0.5129609821045419
 40
0.538461538461698
 40
0.538461538461698
 40
0.538461538461698
 40
0.5650551493322635
 40
0.590927774129303
 40
0.6153846153848479
 40
0.6153846153848479
 40
0.6153846153848479
 40
0.6923076923079557
 40
0.6923076923079557
 40
0.6923076923079557
 40
0.7692307692310637
 40
0.7692307692310637
 40
0.7692307692310637
 40
0.8461538461541716
 40
0.8461538461541716
 40
0.8461538461541716
 40
0.9230769230772795
 40
0.9230769230772795
 40
0.9230769230772795
 40
0.9319002514120281
 40
0.9654822155375229
 40
1.0
 40
1.0
 40
1.0
 40
1.0
 10
64.84568905165057
 20
236.8646556997618
 30
0.0
 10
64.74905106652417
 20
236.8645030321017
 30
0.0
 10
64.64062468445331
 20
236.8043349812743
 30
0.0
 10
64.55712390745622
 20
236.7250892557942
 30
0.0
 10
64.51101153806985
 20
236.5798054257475
 30
0.0
 10
64.51337048324207
 20
236.4777061526678
 30
0.0
 10
64.51337048324207
 20
236.3061972180821
 30
0.0
 10
64.51337048324207
 20
236.1346882834964
 30
0.0
 10
64.51337048324207
 20
235.9631793489109
 30
0.0
 10
64.86703224193325
 20
235.9631793489109
 30
0.0
 10
65.22069400062446
 20
235.9631793489109
 30
0.0
 10
65.57435575931571
 20
235.9631793489109
 30
0.0
 10
65.57435575931571
 20
236.0570854814464
 30
0.0
 10
65.57435575931571
 20
236.1509916139818
 30
0.0
 10
65.57435575931571
 20
236.2448977465172
 30
0.0
 10
65.28829979995973
 20
236.2448977465172
 30
0.0
 10
65.0022438406038
 20
236.2448977465172
 30
0.0
 10
64.7161878812478
 20
236.2448977465172
 30
0.0
 10
64.7161878812478
 20
236.3057315979097
 30
0.0
 10
64.7161878812478
 20
236.3665654493023
 30
0.0
 10
64.7161878812478
 20
236.4273993006948
 30
0.0
 10
64.71499012226504
 20
236.4701648803839
 30
0.0
 10
64.73840376718603
 20
236.5310188612594
 30
0.0
 10
64.7808014485295
 20
236.5642119417371
 30
0.0
 10
64.83585515415461
 20
236.589414095433
 30
0.0
 10
64.88492327838547
 20
236.589478042225
 30
0.0
 10
64.93399140261629
 20
236.589414095433
 30
0.0
 10
64.98904510824144
 20
236.5642119417371
 30
0.0
 10
65.02970015383772
 20
236.5323831681452
 30
0.0
 10
65.05195863461076
 20
236.4775019035628
 30
0.0
 10
65.05354188603268
 20
236.4421654540747
 30
0.0
 10
65.05354188603904
 20
236.3882148939315
 30
0.0
 10
65.05354188603904
 20
236.3342643337883
 30
0.0
 10
65.05354188603904
 20
236.2803137736449
 30
0.0
 10
65.22714651046464
 20
236.4101725397796
 30
0.0
 10
65.40075113489013
 20
236.5400313059144
 30
0.0
 10
65.57435575931571
 20
236.6698900720492
 30
0.0
 10
65.57435575931571
 20
236.786335403075
 30
0.0
 10
65.57435575931571
 20
236.9027807341008
 30
0.0
 10
65.57435575931571
 20
237.0192260651266
 30
0.0
 10
65.43245967533956
 20
236.9007834522568
 30
0.0
 10
65.29056359136344
 20
236.7823408393872
 30
0.0
 10
65.14866750738729
 20
236.6638982265173
 30
0.0
 10
65.14284449127811
 20
236.6792573123193
 30
0.0
 10
65.11244093161346
 20
236.7457909547637
 30
0.0
 10
65.05075341884783
 20
236.8043349812743
 30
0.0
 10
64.94232703677696
 20
236.8645030321017
 30
0.0
 10
64.84568905165057
 20
236.8646556997618
 30
0.0
  0
SPLINE
  5
F5E
330
F4E
100
AcDbEntity
  8
MDS_Layer_11
  6
Continuous
 62
     7
100
AcDbSpline
210
0.0
220
0.0
230
1.0
 70
    15
 71
     3
 72
    49
 73
    45
 74
     0
 42
0.000000001
 43
0.0000000001
 40
0.0
 40
0.0
 40
0.0
 40
0.0
 40
0.0833333333392575
 40
0.0833333333392575
 40
0.0833333333392575
 40
0.166666666678515
 40
0.166666666678515
 40
0.166666666678515
 40
0.2500000000177725
 40
0.2500000000177725
 40
0.2500000000177725
 40
0.3333333333570299
 40
0.3333333333570299
 40
0.3333333333570299
 40
0.3621644259160217
 40
0.3890410639740575
 40
0.4166666666963081
 40
0.4166666666963081
 40
0.4166666666963081
 40
0.4442922694185444
 40
0.4711689074765684
 40
0.5000000000355591
 40
0.5000000000355591
 40
0.5000000000355591
 40
0.5833333333748167
 40
0.5833333333748167
 40
0.5833333333748167
 40
0.6666666667140742
 40
0.6666666667140742
 40
0.6666666667140742
 40
0.7500000000533316
 40
0.7500000000533316
 40
0.7500000000533316
 40
0.7788310926123233
 40
0.8057077306703575
 40
0.8333333333926092
 40
0.8333333333926092
 40
0.8333333333926092
 40
0.8609632121900298
 40
0.8878377871872323
 40
0.9166666666607426
 40
0.9166666666607426
 40
0.9166666666607426
 40
1.0
 40
1.0
 40
1.0
 40
1.0
 10
65.47851436330016
 20
235.7329751725811
 30
0.0
 41
1.0
 10
65.3336306159597
 20
235.7329751725811
 30
0.0
 41
1.0
 10
65.18874686861932
 20
235.7329751725811
 30
0.0
 41
1.0
 10
65.04386312127889
 20
235.7329751725811
 30
0.0
 41
1.0
 10
65.04386312127889
 20
235.638532433574
 30
0.0
 41
1.0
 10
65.04386312127889
 20
235.5440896945669
 30
0.0
 41
1.0
 10
65.04386312127889
 20
235.4496469555599
 30
0.0
 41
1.0
 10
65.14771552048263
 20
235.4496469555599
 30
0.0
 41
1.0
 10
65.2515679196864
 20
235.4496469555599
 30
0.0
 41
1.0
 10
65.35542031889017
 20
235.4496469555599
 30
0.0
 41
1.0
 10
65.3916288390989
 20
235.3756572900078
 30
0.0
 41
0.982778304235208
 10
65.4101931478934
 20
235.2954021095944
 30
0.0
 41
0.982778304235208
 10
65.41015411863918
 20
235.2130278052216
 30
0.0
 41
1.0
 10
65.41275427602511
 20
235.1344404566876
 30
0.0
 41
1.0
 10
65.36192789988455
 20
235.0226133041556
 30
0.0
 41
1.0
 10
65.26989094849476
 20
234.9616166755018
 30
0.0
 41
1.0
 10
65.15038028027236
 20
234.9153044204129
 30
0.0
 41
1.0
 10
65.04386312127889
 20
234.9151869098151
 30
0.0
 41
1.0
 10
64.93734596228538
 20
234.9153380856112
 30
0.0
 41
1.0
 10
64.81783529406295
 20
234.9749181759418
 30
0.0
 41
1.0
 10
64.72579834267326
 20
235.0533895144262
 30
0.0
 41
1.0
 10
64.67497196653267
 20
235.1972536349807
 30
0.0
 41
1.0
 10
64.67757206356116
 20
235.2983551968419
 30
0.0
 41
1.0
 10
64.67757820724894
 20
235.4411530039576
 30
0.0
 41
0.972058195946033
 10
64.71849229686535
 20
235.5779640087257
 30
0.0
 41
0.972058195946033
 10
64.79688469265771
 20
235.6973199722832
 30
0.0
 41
1.0
 10
64.72732869142992
 20
235.6973199722832
 30
0.0
 41
1.0
 10
64.6577726902021
 20
235.6973199722832
 30
0.0
 41
1.0
 10
64.58821668897427
 20
235.6973199722832
 30
0.0
 41
1.0
 10
64.51815758615079
 20
235.5521879155387
 30
0.0
 41
0.983215874790017
 10
64.48222334760032
 20
235.3950881947142
 30
0.0
 41
0.983215874790017
 10
64.48222334760032
 20
235.2339311539641
 30
0.0
 41
1.0
 10
64.47823698109883
 20
235.0725213198119
 30
0.0
 41
1.0
 10
64.55616198198037
 20
234.8428405571045
 30
0.0
 41
1.0
 10
64.69726941600905
 20
234.7175601410823
 30
0.0
 41
1.0
 10
64.88049847213587
 20
234.6224398252136
 30
0.0
 41
1.0
 10
65.04380639095164
 20
234.6221984712749
 30
0.0
 41
1.0
 10
65.20718475670385
 20
234.6224174958263
 30
0.0
 41
1.0
 10
65.39044599437803
 20
234.7175505238793
 30
0.0
 41
0.9999999999999998
 10
65.53156426057741
 20
234.8428405571045
 30
0.0
 41
1.0
 10
65.60948926145895
 20
235.0725213198119
 30
0.0
 41
1.0
 10
65.60550289495745
 20
235.2339311539641
 30
0.0
 41
1.0
 10
65.60550289495748
 20
235.4091887718586
 30
0.0
 41
0.9794107581954942
 10
65.56228353045873
 20
235.5790337575439
 30
0.0
 41
0.9794107581954942
 10
65.47851436330016
 20
235.7329751725811
 30
0.0
 41
1.0
  0
ENDBLK
  5
F60
330
F4E
100
AcDbEntity
  8
0
100
AcDbBlockEnd
  0
BLOCK
  5
F63
330
F62
100
AcDbEntity
  8
0
100
AcDbBlockBegin
  2
DMBLK10
 70
     0
 10
0.0
 20
0.0
 30
0.0
  3
DMBLK10
  1
DMBLK10
  0
LINE
  5
F64
330
F62
100
AcDbEntity
  8
0
  6
Continuous
 62
   136
370
    -2
100
AcDbLine
 10
81.1791358881
 20
65.6801632977
 30
0.0
 11
144.3380517058
 21
65.68016329769999
 31
0.0
  0
LINE
  5
F65
330
F62
100
AcDbEntity
  8
0
  6
Continuous
 62
   136
370
    -2
100
AcDbLine
 10
63.5528332717
 20
28.68016329770001
 30
0.0
 11
144.3380517058
 21
28.68016329769999
 31
0.0
  0
LINE
  5
F66
330
F62
100
AcDbEntity
  8
0
  6
Continuous
 62
   136
370
    -2
100
AcDbLine
 10
141.3380517058
 20
59.68016329769999
 30
0.0
 11
141.3380517058
 21
53.1801630593
 31
0.0
  0
LINE
  5
F67
330
F62
100
AcDbEntity
  8
0
  6
Continuous
 62
   136
370
    -2
100
AcDbLine
 10
141.3380517058
 20
34.68016329769999
 30
0.0
 11
141.3380517058
 21
41.1801630593
 31
0.0
  0
INSERT
  5
F68
330
F62
100
AcDbEntity
  8
0
 62
   136
370
    -2
100
AcDbBlockReference
  2
_SE_FILLED
 10
141.3380517058
 20
65.68016329769999
 30
0.0
 41
6.0
 42
6.0
 43
6.0
 50
90.0
  0
INSERT
  5
F69
330
F62
100
AcDbEntity
  8
0
 62
   136
370
    -2
100
AcDbBlockReference
  2
_SE_FILLED
 10
141.3380517058
 20
28.68016329769999
 30
0.0
 41
6.0
 42
6.0
 43
6.0
 50
270.0
  0
MTEXT
  5
F6A
330
F62
100
AcDbEntity
  8
0
  6
Continuous
 62
   136
370
    20
100
AcDbMText
 10
141.3380517058
 20
47.1801630593
 30
0.0
 40
6.0
 41
0.0
 46
0.0
 71
     5
 72
     1
  1
\A1;\A1;74
  7
SEACAD_arial_ttf
 73
     1
 44
1.0
  0
POINT
  5
FC8
330
F62
100
AcDbEntity
  8
Defpoints
 62
     0
100
AcDbPoint
 10
81.1791358881
 20
65.6801632977
 30
0.0
  0
POINT
  5
FC9
330
F62
100
AcDbEntity
  8
Defpoints
 62
     0
100
AcDbPoint
 10
63.5528332717
 20
28.68016329770001
 30
0.0
  0
POINT
  5
FCA
330
F62
100
AcDbEntity
  8
Defpoints
 62
     0
100
AcDbPoint
 10
141.3380517058
 20
28.6801632977
 30
0.0
  0
ENDBLK
  5
F6B
330
F62
100
AcDbEntity
  8
0
100
AcDbBlockEnd
  0
BLOCK
  5
F6E
330
F6D
100
AcDbEntity
  8
0
100
AcDbBlockBegin
  2
SE2
 70
     0
 10
0.0
 20
0.0
 30
0.0
  3
SE2
  1
SE2
  0
LINE
  5
F6F
330
F6D
100
AcDbEntity
  8
DV2_0
  6
HIDDEN2
 62
     7
100
AcDbLine
 10
175.7428332717
 20
110.0122103322
 30
0.0
 11
185.2428332717
 21
110.0122103322
 31
0.0
  0
LINE
  5
F70
330
F6D
100
AcDbEntity
  8
DV2_0
  6
Continuous
 62
     7
100
AcDbLine
 10
177.4928332717
 20
113.7622103322
 30
0.0
 11
183.4928332717
 21
113.7622103322
 31
0.0
  0
LINE
  5
F71
330
F6D
100
AcDbEntity
  8
DV2_0
  6
Continuous
 62
     7
100
AcDbLine
 10
174.4928332717
 20
113.7622103322
 30
0.0
 11
177.4928332717
 21
113.7622103322
 31
0.0
  0
LINE
  5
F72
330
F6D
100
AcDbEntity
  8
DV2_0
  6
Continuous
 62
     7
100
AcDbLine
 10
174.4928332717
 20
105.4504135625
 30
0.0
 11
174.4928332717
 21
113.2263119474
 31
0.0
  0
LINE
  5
F73
330
F6D
100
AcDbEntity
  8
DV2_0
  6
Continuous
 62
     7
100
AcDbLine
 10
180.4928332717
 20
105.4504135625
 30
0.0
 11
180.4928332717
 21
113.2263119474
 31
0.0
  0
LINE
  5
F74
330
F6D
100
AcDbEntity
  8
DV2_0
  6
Continuous
 62
     7
100
AcDbLine
 10
186.4928332717
 20
105.4504135625
 30
0.0
 11
186.4928332717
 21
113.2263119474
 31
0.0
  0
LINE
  5
F75
330
F6D
100
AcDbEntity
  8
DV2_0
  6
Continuous
 62
     7
100
AcDbLine
 10
186.4928332717
 20
113.7622103322
 30
0.0
 11
186.4928332717
 21
113.2263119474
 31
0.0
  0
ARC
  5
F76
330
F6D
100
AcDbEntity
  8
DV2_0
  6
Continuous
 62
     7
100
AcDbCircle
 10
183.3630485244
 20
104.370601916
 30
0.0
 40
9.392505135733801
100
AcDbArc
 50
70.5355748565
 51
89.2082671431
  0
ARC
  5
F77
330
F6D
100
AcDbEntity
  8
DV2_0
  6
Continuous
 62
     7
100
AcDbCircle
 10
183.6365334888
 20
104.2927020558
 30
0.0
 40
9.470598542371107
100
AcDbArc
 50
90.86939931839999
 51
109.386758682
  0
ARC
  5
F78
330
F6D
100
AcDbEntity
  8
DV2_0
  6
Continuous
 62
     7
100
AcDbCircle
 10
177.3630485244
 20
104.370601916
 30
0.0
 40
9.39250513573374
100
AcDbArc
 50
70.5355748565
 51
89.2082671431
  0
ARC
  5
F79
330
F6D
100
AcDbEntity
  8
DV2_0
  6
Continuous
 62
     7
100
AcDbCircle
 10
177.6365334888
 20
104.2927020558
 30
0.0
 40
9.470598542371022
100
AcDbArc
 50
90.86939931839999
 51
109.386758682
  0
LINE
  5
F7A
330
F6D
100
AcDbEntity
  8
DV2_0
  6
Continuous
 62
     7
100
AcDbLine
 10
174.4928332717
 20
113.2263119474
 30
0.0
 11
174.4928332717
 21
113.7622103322
 31
0.0
  0
LINE
  5
F7B
330
F6D
100
AcDbEntity
  8
DV2_0
  6
Continuous
 62
     7
100
AcDbLine
 10
186.4928332717
 20
105.4504135625
 30
0.0
 11
186.4928332717
 21
104.5222103454
 31
0.0
  0
LINE
  5
F7C
330
F6D
100
AcDbEntity
  8
DV2_0
  6
Continuous
 62
     7
100
AcDbLine
 10
174.4928332717
 20
104.5222103454
 30
0.0
 11
174.4928332717
 21
105.4504135625
 31
0.0
  0
ARC
  5
F7D
330
F6D
100
AcDbEntity
  8
DV2_0
  6
Continuous
 62
     7
100
AcDbCircle
 10
177.4928332717
 20
109.8954306846
 30
0.0
 40
5.362665122469441
100
AcDbArc
 50
235.9840732018
 51
304.0159267982
  0
ARC
  5
F7E
330
F6D
100
AcDbEntity
  8
DV2_0
  6
Continuous
 62
     7
100
AcDbCircle
 10
183.4928332717
 20
109.8954306846
 30
0.0
 40
5.36266512246944
100
AcDbArc
 50
235.9840732018
 51
304.0159267982
  0
LINE
  5
F7F
330
F6D
100
AcDbEntity
  8
DV2_0
  6
Continuous
 62
     7
100
AcDbLine
 10
175.2528332717
 20
103.7622103322
 30
0.0
 11
185.7328332717
 21
103.7622103322
 31
0.0
  0
LINE
  5
F80
330
F6D
100
AcDbEntity
  8
DV2_0
  6
Continuous
 62
     7
100
AcDbLine
 10
186.4928332717
 20
113.7622103322
 30
0.0
 11
183.4928332717
 21
113.7622103322
 31
0.0
  0
LINE
  5
F81
330
F6D
100
AcDbEntity
  8
DV2_0
  6
Continuous
 62
     7
100
AcDbLine
 10
175.8328332717
 20
95.5122103322
 30
0.0
 11
185.1528332717
 21
95.5122103322
 31
0.0
  0
LINE
  5
F82
330
F6D
100
AcDbEntity
  8
DV2_0
  6
Continuous
 62
     7
100
AcDbLine
 10
185.7328332717
 20
96.0922103322
 30
0.0
 11
175.2528332717
 21
96.0922103322
 31
0.0
  0
LINE
  5
F83
330
F6D
100
AcDbEntity
  8
DV2_0
  6
Continuous
 62
     7
100
AcDbLine
 10
185.7328332717
 20
96.0922103322
 30
0.0
 11
185.7328332717
 21
103.7622103322
 31
0.0
  0
LINE
  5
F84
330
F6D
100
AcDbEntity
  8
DV2_0
  6
Continuous
 62
     7
100
AcDbLine
 10
175.2528332717
 20
103.7622103322
 30
0.0
 11
175.2528332717
 21
96.0922103322
 31
0.0
  0
LINE
  5
F85
330
F6D
100
AcDbEntity
  8
DV2_0
  6
Continuous
 62
     7
100
AcDbLine
 10
174.4928332717
 20
104.5222103322
 30
0.0
 11
175.2528332717
 21
103.7622103322
 31
0.0
  0
LINE
  5
F86
330
F6D
100
AcDbEntity
  8
DV2_0
  6
Continuous
 62
     7
100
AcDbLine
 10
185.7328332717
 20
103.7622103322
 30
0.0
 11
186.4928332717
 21
104.5222103322
 31
0.0
  0
LINE
  5
F87
330
F6D
100
AcDbEntity
  8
DV2_0
  6
Continuous
 62
     7
100
AcDbLine
 10
175.2528332717
 20
96.0922103322
 30
0.0
 11
175.8328332717
 21
95.5122103322
 31
0.0
  0
LINE
  5
F88
330
F6D
100
AcDbEntity
  8
DV2_0
  6
Continuous
 62
     7
100
AcDbLine
 10
185.1528332717
 20
95.5122103322
 30
0.0
 11
185.7328332717
 21
96.0922103322
 31
0.0
  0
LINE
  5
F89
330
F6D
100
AcDbEntity
  8
DV2_0
  6
HIDDEN2
 62
     7
100
AcDbLine
 10
175.8328332717
 20
95.5122103322
 30
0.0
 11
175.8328332717
 21
101.5122103322
 31
0.0
  0
LINE
  5
F8A
330
F6D
100
AcDbEntity
  8
DV2_0
  6
HIDDEN2
 62
     7
100
AcDbLine
 10
185.1528332717
 20
95.5122103322
 30
0.0
 11
185.1528332717
 21
101.5122103322
 31
0.0
  0
LINE
  5
F8B
330
F6D
100
AcDbEntity
  8
DV2_0
  6
Continuous
 62
     7
100
AcDbLine
 10
185.7328332717
 20
101.5122103322
 30
0.0
 11
175.2528332717
 21
101.5122103322
 31
0.0
  0
LINE
  5
F8C
330
F6D
100
AcDbEntity
  8
DV2_0
  6
HIDDEN2
 62
     7
100
AcDbLine
 10
185.7328332717
 20
113.7622103322
 30
0.0
 11
185.7328332717
 21
109.7622103322
 31
0.0
  0
LINE
  5
F8D
330
F6D
100
AcDbEntity
  8
DV2_0
  6
HIDDEN2
 62
     7
100
AcDbLine
 10
175.2528332717
 20
113.7622103322
 30
0.0
 11
175.2528332717
 21
109.7622103322
 31
0.0
  0
ENDBLK
  5
F8E
330
F6D
100
AcDbEntity
  8
0
100
AcDbBlockEnd
  0
BLOCK
  5
F91
330
F90
100
AcDbEntity
  8
0
100
AcDbBlockBegin
  2
DMBLK11
 70
     0
 10
0.0
 20
0.0
 30
0.0
  3
DMBLK11
  1
DMBLK11
  0
LINE
  5
F92
330
F90
100
AcDbEntity
  8
0
  6
Continuous
 62
   136
370
    -2
100
AcDbLine
 10
92.18125909300001
 20
170.670112748
 30
0.0
 11
102.5785351035262
 21
170.670112748
 31
0.0
  0
LINE
  5
F93
330
F90
100
AcDbEntity
  8
0
  6
Continuous
 62
   136
370
    -2
100
AcDbLine
 10
58.90288382150001
 20
203.968589119
 30
0.0
 11
58.90288382150001
 21
214.3457640300262
 31
0.0
  0
ARC
  5
F94
330
F90
100
AcDbEntity
  8
0
  6
Continuous
 62
   136
370
    -2
100
AcDbCircle
 10
58.90288382150001
 20
170.670112748
 30
0.0
 40
40.67565128202619
100
AcDbArc
 50
8.459289585661004
 51
33.85484114066399
  0
ARC
  5
F95
330
F90
100
AcDbEntity
  8
0
  6
Continuous
 62
   136
370
    -2
100
AcDbCircle
 10
58.90288382150001
 20
170.670112748
 30
0.0
 40
40.67565128202619
100
AcDbArc
 50
58.99505184516678
 51
81.54071041433902
  0
INSERT
  5
F96
330
F90
100
AcDbEntity
  8
0
 62
   136
370
    -2
100
AcDbBlockReference
  2
_SE_FILLED
 10
99.57853510352619
 20
170.670112748
 30
0.0
 41
6.0
 42
6.0
 43
6.0
 50
274.2296447928305
  0
INSERT
  5
F97
330
F90
100
AcDbEntity
  8
0
 62
   136
370
    -2
100
AcDbBlockReference
  2
_SE_FILLED
 10
58.90288382150001
 20
211.3457640300262
 30
0.0
 41
6.0
 42
6.0
 43
6.0
 50
175.7703552071695
  0
MTEXT
  5
F98
330
F90
100
AcDbEntity
  8
0
  6
Continuous
 62
   136
370
    20
100
AcDbMText
 10
87.6649126722
 20
199.4321415987
 30
0.0
 40
6.0
 41
0.0
 46
0.0
 71
     5
 72
     1
  1
\A1;\A1;90%%d
  7
SEACAD_arial_ttf
 73
     1
 44
1.0
  0
POINT
  5
FCB
330
F90
100
AcDbEntity
  8
Defpoints
 62
     0
100
AcDbPoint
 10
94.12903114721176
 20
191.0079383890131
 30
0.0
  0
POINT
  5
FCC
330
F90
100
AcDbEntity
  8
Defpoints
 62
     0
100
AcDbPoint
 10
58.90288382150001
 20
170.670112748
 30
0.0
  0
POINT
  5
FCD
330
F90
100
AcDbEntity
  8
Defpoints
 62
     0
100
AcDbPoint
 10
58.90288382150001
 20
170.670112748
 30
0.0
  0
POINT
  5
FCE
330
F90
100
AcDbEntity
  8
Defpoints
 62
     0
100
AcDbPoint
 10
92.18125909300001
 20
170.670112748
 30
0.0
  0
POINT
  5
FCF
330
F90
100
AcDbEntity
  8
Defpoints
 62
     0
100
AcDbPoint
 10
58.90288382150001
 20
203.968589119
 30
0.0
  0
ENDBLK
  5
F99
330
F90
100
AcDbEntity
  8
0
100
AcDbBlockEnd
  0
BLOCK
  5
F9C
330
F9B
100
AcDbEntity
  8
0
100
AcDbBlockBegin
  2
DMBLK12
 70
     0
 10
0.0
 20
0.0
 30
0.0
  3
DMBLK12
  1
DMBLK12
  0
LINE
  5
F9D
330
F9B
100
AcDbEntity
  8
0
  6
Continuous
 62
   136
370
    -2
100
AcDbLine
 10
46.5178332717
 20
67.83016329770001
 30
0.0
 11
46.5178332717
 21
82.15279014180001
 31
0.0
  0
LINE
  5
F9E
330
F9B
100
AcDbEntity
  8
0
  6
Continuous
 62
   136
370
    -2
100
AcDbLine
 10
71.2678332717
 20
67.83016329770001
 30
0.0
 11
71.2678332717
 21
82.15279014180001
 31
0.0
  0
LINE
  5
F9F
330
F9B
100
AcDbEntity
  8
0
  6
Continuous
 62
   136
370
    -2
100
AcDbLine
 10
46.5178332717
 20
79.15279014180001
 30
0.0
 11
58.7206388288
 21
79.15279014180001
 31
0.0
  0
LINE
  5
FA0
330
F9B
100
AcDbEntity
  8
0
  6
Continuous
 62
   136
370
    -2
100
AcDbLine
 10
52.5178332717
 20
79.15279014180001
 30
0.0
 11
65.2678332717
 21
79.15279014180001
 31
0.0
  0
INSERT
  5
FA1
330
F9B
100
AcDbEntity
  8
0
 62
   136
370
    -2
100
AcDbBlockReference
  2
_SE_FILLED
 10
46.5178332717
 20
79.15279014180001
 30
0.0
 41
6.0
 42
6.0
 43
6.0
 50
180.0
  0
INSERT
  5
FA2
330
F9B
100
AcDbEntity
  8
0
 62
   136
370
    -2
100
AcDbBlockReference
  2
_SE_FILLED
 10
71.2678332717
 20
79.15279014180001
 30
0.0
 41
6.0
 42
6.0
 43
6.0
  0
MTEXT
  5
FA3
330
F9B
100
AcDbEntity
  8
0
  6
Continuous
 62
   136
370
    20
100
AcDbMText
 10
44.2816388288
 20
79.15279014180001
 30
0.0
 40
6.0
 41
0.0
 46
0.0
 71
     5
 72
     1
  1
\A1;\A1;%%C 49,5
  7
SEACAD_arial_ttf
 73
     1
 44
1.0
  0
POINT
  5
FA4
330
F9B
100
AcDbEntity
  8
Defpoints
 62
     0
100
AcDbPoint
 10
46.5178332717
 20
67.83016329770001
 30
0.0
  0
POINT
  5
FD0
330
F9B
100
AcDbEntity
  8
Defpoints
 62
     0
100
AcDbPoint
 10
71.2678332717
 20
67.83016329770001
 30
0.0
  0
POINT
  5
FD1
330
F9B
100
AcDbEntity
  8
Defpoints
 62
     0
100
AcDbPoint
 10
71.2678332717
 20
79.15279014180001
 30
0.0
  0
ENDBLK
  5
FA5
330
F9B
100
AcDbEntity
  8
0
100
AcDbBlockEnd
  0
BLOCK
  5
111C
330
111B
100
AcDbEntity
  8
0
100
AcDbBlockBegin
  2
*D22
 70
     1
 10
0.0
 20
0.0
 30
0.0
  3
*D22
  1
*D23
  0
LINE
  5
111E
330
111B
100
AcDbEntity
  8
DIM
370
    -2
100
AcDbLine
 10
415.5606660237836
 20
697.9269468401267
 30
0.0
 11
311.4656280793834
 21
697.9269468401267
 31
0.0
  0
LINE
  5
111F
330
111B
100
AcDbEntity
  8
DIM
370
    -2
100
AcDbLine
 10
391.5261458411833
 20
678.4269463813266
 30
0.0
 11
311.4656280793834
 21
678.4269463813266
 31
0.0
  0
LINE
  5
1120
330
111B
100
AcDbEntity
  8
DIM
370
    -2
100
AcDbLine
 10
311.4656280793834
 20
678.4269463813266
 30
0.0
 11
311.4656280793834
 21
607.4789463813268
 31
0.0
  0
LINE
  5
1121
330
111B
100
AcDbEntity
  8
DIM
370
    -2
100
AcDbLine
 10
311.4656280793834
 20
692.9269468401267
 30
0.0
 11
311.4656280793834
 21
683.4269463813266
 31
0.0
  0
INSERT
  5
1122
330
111B
100
AcDbEntity
  8
DIM
370
    -2
100
AcDbBlockReference
  2
_DOT
 10
311.4656280793834
 20
697.9269468401267
 30
0.0
 41
5.0
 42
5.0
 43
5.0
 50
90.0
  0
INSERT
  5
1123
330
111B
100
AcDbEntity
  8
DIM
370
    -2
100
AcDbBlockReference
  2
_DOT
 10
311.4656280793834
 20
678.4269463813266
 30
0.0
 41
5.0
 42
5.0
 43
5.0
 50
270.0
  0
MTEXT
  5
1124
330
111B
100
AcDbEntity
  8
DIM
  6
Continuous
100
AcDbMText
 10
300.4656280793834
 20
635.4529463813267
 30
0.0
 40
12.0
 41
0.0
 46
0.0
 71
     5
 72
     1
  1
\A1;\A1;max.20 {}
  7
ＭＳ ゴシック
 11
0.0
 21
1.0
 31
0.0
 73
     1
 44
1.0
  0
POINT
  5
1125
330
111B
100
AcDbEntity
  8
Defpoints
 62
     0
100
AcDbPoint
 10
420.5606660237836
 20
697.9269468401267
 30
0.0
  0
POINT
  5
1126
330
111B
100
AcDbEntity
  8
Defpoints
 62
     0
100
AcDbPoint
 10
396.5261458411833
 20
678.4269463813266
 30
0.0
  0
POINT
  5
11FF
330
111B
100
AcDbEntity
  8
Defpoints
 62
     0
100
AcDbPoint
 10
311.4656280793834
 20
678.4269463813266
 30
0.0
  0
ENDBLK
  5
111D
330
111B
100
AcDbEntity
  8
0
100
AcDbBlockEnd
  0
BLOCK
  5
1137
330
1136
100
AcDbEntity
  8
0
100
AcDbBlockBegin
  2
*D23
 70
     1
 10
0.0
 20
0.0
 30
0.0
  3
*D23
  1
*D25
  0
LINE
  5
1139
330
1136
100
AcDbEntity
  8
DIM
370
    -2
100
AcDbLine
 10
429.4425544061837
 20
826.7763783545267
 30
0.0
 11
311.4656280793834
 21
826.7763783545267
 31
0.0
  0
LINE
  5
113A
330
1136
100
AcDbEntity
  8
DIM
370
    -2
100
AcDbLine
 10
392.6715423591836
 20
697.9269468401267
 30
0.0
 11
311.4656280793834
 21
697.9269468401267
 31
0.0
  0
LINE
  5
113B
330
1136
100
AcDbEntity
  8
DIM
370
    -2
100
AcDbLine
 10
311.4656280793834
 20
821.7763783545267
 30
0.0
 11
311.4656280793834
 21
702.9269468401267
 31
0.0
  0
INSERT
  5
113C
330
1136
100
AcDbEntity
  8
DIM
370
    -2
100
AcDbBlockReference
  2
_DOT
 10
311.4656280793834
 20
826.7763783545267
 30
0.0
 41
5.0
 42
5.0
 43
5.0
 50
90.0
  0
INSERT
  5
113D
330
1136
100
AcDbEntity
  8
DIM
370
    -2
100
AcDbBlockReference
  2
_DOT
 10
311.4656280793834
 20
697.9269468401267
 30
0.0
 41
5.0
 42
5.0
 43
5.0
 50
270.0
  0
MTEXT
  5
113E
330
1136
100
AcDbEntity
  8
DIM
  6
Continuous
100
AcDbMText
 10
300.4656280793834
 20
762.3516624183267
 30
0.0
 40
12.0
 41
0.0
 46
0.0
 71
     5
 72
     1
  1
\A1;\A1;129
  7
ＭＳ ゴシック
 11
0.0
 21
1.0
 31
0.0
 73
     1
 44
1.0
  0
POINT
  5
113F
330
1136
100
AcDbEntity
  8
Defpoints
 62
     0
100
AcDbPoint
 10
434.4425544061837
 20
826.7763783545267
 30
0.0
  0
POINT
  5
1140
330
1136
100
AcDbEntity
  8
Defpoints
 62
     0
100
AcDbPoint
 10
397.6715423591836
 20
697.9269468401267
 30
0.0
  0
POINT
  5
1141
330
1136
100
AcDbEntity
  8
Defpoints
 62
     0
100
AcDbPoint
 10
311.4656280793834
 20
697.9269468401267
 30
0.0
  0
ENDBLK
  5
1138
330
1136
100
AcDbEntity
  8
0
100
AcDbBlockEnd
  0
BLOCK
  5
1144
330
1143
100
AcDbEntity
  8
0
100
AcDbBlockBegin
  2
*D24
 70
     1
 10
0.0
 20
0.0
 30
0.0
  3
*D24
  1
*D26
  0
LINE
  5
1146
330
1143
100
AcDbEntity
  8
DIM
370
    -2
100
AcDbLine
 10
513.6125860053835
 20
739.2303153455266
 30
0.0
 11
513.6125860053835
 21
720.5861607836806
 31
0.0
  0
LINE
  5
1147
330
1143
100
AcDbEntity
  8
DIM
370
    -2
100
AcDbLine
 10
520.9218786233748
 20
740.3226964463047
 30
0.0
 11
526.3729018756186
 21
722.493202767988
 31
0.0
  0
ARC
  5
1148
330
1143
100
AcDbEntity
  8
DIM
370
    -2
100
AcDbCircle
 10
513.6125860053835
 20
764.2303153455266
 30
0.0
 40
43.64415456184602
100
AcDbArc
 50
276.5675643444588
 51
280.4324356552743
  0
INSERT
  5
1149
330
1143
100
AcDbEntity
  8
DIM
370
    -2
100
AcDbBlockReference
  2
_DOT
 10
513.6125860053835
 20
720.5861607836806
 30
0.0
 41
5.0
 42
5.0
 43
5.0
 50
183.2837821722293
  0
INSERT
  5
114A
330
1143
100
AcDbEntity
  8
DIM
370
    -2
100
AcDbBlockReference
  2
_DOT
 10
526.3729018756186
 20
722.493202767988
 30
0.0
 41
5.0
 42
5.0
 43
5.0
 50
13.71621782750374
  0
MTEXT
  5
114B
330
1143
100
AcDbEntity
  8
DIM
  6
Continuous
100
AcDbMText
 10
527.0023965875503
 20
734.6890331337571
 30
0.0
 40
12.0
 41
0.0
 46
0.0
 71
     5
 72
     1
  1
\A1;\A1;17%%d
  7
ＭＳ ゴシック
 11
0.9108078385530197
 21
0.4128305720636207
 31
0.0
 73
     1
 44
1.0
  0
POINT
  5
114C
330
1143
100
AcDbEntity
  8
Defpoints
 62
     0
100
AcDbPoint
 10
517.9220461868588
 20
720.7994417604538
 30
0.0
  0
POINT
  5
114D
330
1143
100
AcDbEntity
  8
Defpoints
 62
     0
100
AcDbPoint
 10
513.6125860053835
 20
764.2303153455266
 30
0.0
  0
POINT
  5
114E
330
1143
100
AcDbEntity
  8
Defpoints
 62
     0
100
AcDbPoint
 10
513.6125860053835
 20
764.2303153455266
 30
0.0
  0
POINT
  5
114F
330
1143
100
AcDbEntity
  8
Defpoints
 62
     0
100
AcDbPoint
 10
519.4600200997834
 20
745.1042202261267
 30
0.0
  0
POINT
  5
1150
330
1143
100
AcDbEntity
  8
Defpoints
 62
     0
100
AcDbPoint
 10
513.6125860053835
 20
744.2303153455266
 30
0.0
  0
ENDBLK
  5
1145
330
1143
100
AcDbEntity
  8
0
100
AcDbBlockEnd
  0
BLOCK
  5
1153
330
1152
100
AcDbEntity
  8
0
100
AcDbBlockBegin
  2
*D25
 70
     1
 10
0.0
 20
0.0
 30
0.0
  3
*D25
  1
*D27
  0
LINE
  5
1155
330
1152
100
AcDbEntity
  8
DIM
370
    -2
100
AcDbLine
 10
470.1332712565836
 20
697.9269468401267
 30
0.0
 11
585.4511028919837
 21
697.9269468401267
 31
0.0
  0
LINE
  5
1156
330
1152
100
AcDbEntity
  8
DIM
370
    -2
100
AcDbLine
 10
525.2403119493833
 20
764.2303153455266
 30
0.0
 11
585.4511028919837
 21
764.2303153455266
 31
0.0
  0
LINE
  5
1157
330
1152
100
AcDbEntity
  8
DIM
370
    -2
100
AcDbLine
 10
585.4511028919837
 20
702.9269468401267
 30
0.0
 11
585.4511028919837
 21
759.2303153455266
 31
0.0
  0
INSERT
  5
1158
330
1152
100
AcDbEntity
  8
DIM
370
    -2
100
AcDbBlockReference
  2
_DOT
 10
585.4511028919837
 20
697.9269468401267
 30
0.0
 41
5.0
 42
5.0
 43
5.0
 50
270.0
  0
INSERT
  5
1159
330
1152
100
AcDbEntity
  8
DIM
370
    -2
100
AcDbBlockReference
  2
_DOT
 10
585.4511028919837
 20
764.2303153455266
 30
0.0
 41
5.0
 42
5.0
 43
5.0
 50
90.0
  0
MTEXT
  5
115A
330
1152
100
AcDbEntity
  8
DIM
  6
Continuous
100
AcDbMText
 10
574.4511028919837
 20
731.0786293065266
 30
0.0
 40
12.0
 41
0.0
 46
0.0
 71
     5
 72
     1
  1
\A1;\A1;66
  7
ＭＳ ゴシック
 11
0.0
 21
1.0
 31
0.0
 73
     1
 44
1.0
  0
POINT
  5
115B
330
1152
100
AcDbEntity
  8
Defpoints
 62
     0
100
AcDbPoint
 10
465.1332712565836
 20
697.9269468401267
 30
0.0
  0
POINT
  5
115C
330
1152
100
AcDbEntity
  8
Defpoints
 62
     0
100
AcDbPoint
 10
520.2403119493833
 20
764.2303153455266
 30
0.0
  0
POINT
  5
115D
330
1152
100
AcDbEntity
  8
Defpoints
 62
     0
100
AcDbPoint
 10
585.4511028919837
 20
764.2303153455266
 30
0.0
  0
ENDBLK
  5
1154
330
1152
100
AcDbEntity
  8
0
100
AcDbBlockEnd
  0
BLOCK
  5
1160
330
115F
100
AcDbEntity
  8
0
100
AcDbBlockBegin
  2
*D26
 70
     1
 10
0.0
 20
0.0
 30
0.0
  3
*D26
  1
*D28
  0
LINE
  5
1162
330
115F
100
AcDbEntity
  8
DIM
370
    -2
100
AcDbLine
 10
513.6125860053835
 20
749.2303153455266
 30
0.0
 11
513.6125860053835
 21
541.4578294149397
 31
0.0
  0
LINE
  5
1163
330
115F
100
AcDbEntity
  8
DIM
370
    -2
100
AcDbLine
 10
420.5606660237836
 20
614.9269468401267
 30
0.0
 11
420.5606660237836
 21
541.4578294149397
 31
0.0
  0
LINE
  5
1164
330
115F
100
AcDbEntity
  8
DIM
370
    -2
100
AcDbLine
 10
508.6125860053835
 20
541.4578294149397
 30
0.0
 11
425.5606660237836
 21
541.4578294149397
 31
0.0
  0
INSERT
  5
1165
330
115F
100
AcDbEntity
  8
DIM
370
    -2
100
AcDbBlockReference
  2
_DOT
 10
513.6125860053835
 20
541.4578294149397
 30
0.0
 41
5.0
 42
5.0
 43
5.0
  0
INSERT
  5
1166
330
115F
100
AcDbEntity
  8
DIM
370
    -2
100
AcDbBlockReference
  2
_DOT
 10
420.5606660237836
 20
541.4578294149397
 30
0.0
 41
5.0
 42
5.0
 43
5.0
 50
180.0
  0
MTEXT
  5
1167
330
115F
100
AcDbEntity
  8
DIM
  6
Continuous
100
AcDbMText
 10
467.0866270797833
 20
552.4578294149397
 30
0.0
 40
12.0
 41
0.0
 46
0.0
 71
     5
 72
     1
  1
\A1;\A1;93
  7
ＭＳ ゴシック
 73
     1
 44
1.0
  0
POINT
  5
1168
330
115F
100
AcDbEntity
  8
Defpoints
 62
     0
100
AcDbPoint
 10
513.6125860053835
 20
754.2303153455266
 30
0.0
  0
POINT
  5
1169
330
115F
100
AcDbEntity
  8
Defpoints
 62
     0
100
AcDbPoint
 10
420.5606660237836
 20
619.9269468401267
 30
0.0
  0
POINT
  5
116A
330
115F
100
AcDbEntity
  8
Defpoints
 62
     0
100
AcDbPoint
 10
420.5606660237836
 20
541.4578294149397
 30
0.0
  0
ENDBLK
  5
1161
330
115F
100
AcDbEntity
  8
0
100
AcDbBlockEnd
  0
BLOCK
  5
116D
330
116C
100
AcDbEntity
  8
0
100
AcDbBlockBegin
  2
*D27
 70
     1
 10
0.0
 20
0.0
 30
0.0
  3
*D27
  1
*D29
  0
LINE
  5
116F
330
116C
100
AcDbEntity
  8
DIM
370
    -2
100
AcDbLine
 10
431.0783069601835
 20
657.0228927103267
 30
0.0
 11
480.8023069601835
 21
657.0228927103267
 31
0.0
  0
LINE
  5
1170
330
116C
100
AcDbEntity
  8
DIM
370
    -2
100
AcDbLine
 10
410.1183069601834
 20
657.0228927103267
 30
0.0
 11
431.0783069601835
 21
657.0228927103267
 31
0.0
  0
LINE
  5
1171
330
116C
100
AcDbEntity
  8
DIM
370
    -2
100
AcDbLine
 10
405.1183069601834
 20
657.0228927103267
 30
0.0
 11
400.1183069601834
 21
657.0228927103267
 31
0.0
  0
LINE
  5
1172
330
116C
100
AcDbEntity
  8
DIM
370
    -2
100
AcDbLine
 10
436.0783069601835
 20
657.0228927103267
 30
0.0
 11
441.0783069601835
 21
657.0228927103267
 31
0.0
  0
INSERT
  5
1173
330
116C
100
AcDbEntity
  8
DIM
370
    -2
100
AcDbBlockReference
  2
_DOT
 10
410.1183069601834
 20
657.0228927103267
 30
0.0
 41
5.0
 42
5.0
 43
5.0
  0
INSERT
  5
1174
330
116C
100
AcDbEntity
  8
DIM
370
    -2
100
AcDbBlockReference
  2
_DOT
 10
431.0783069601835
 20
657.0228927103267
 30
0.0
 41
5.0
 42
5.0
 43
5.0
 50
180.0
  0
MTEXT
  5
1175
330
116C
100
AcDbEntity
  8
DIM
  6
Continuous
100
AcDbMText
 10
460.9403069601835
 20
669.3008927103267
 30
0.0
 40
12.0
 41
0.0
 46
0.0
 71
     5
 72
     1
  1
\A1;\A1;G1/2 {}
  7
ＭＳ ゴシック
 73
     1
 44
1.0
  0
POINT
  5
1176
330
116C
100
AcDbEntity
  8
Defpoints
 62
     0
100
AcDbPoint
 10
410.1183069601834
 20
660.6769466107266
 30
0.0
  0
POINT
  5
11FB
330
116C
100
AcDbEntity
  8
Defpoints
 62
     0
100
AcDbPoint
 10
431.0783069601835
 20
660.6769466107266
 30
0.0
  0
POINT
  5
11FE
330
116C
100
AcDbEntity
  8
Defpoints
 62
     0
100
AcDbPoint
 10
431.0783069601835
 20
657.0228927103267
 30
0.0
  0
ENDBLK
  5
116E
330
116C
100
AcDbEntity
  8
0
100
AcDbBlockEnd
  0
BLOCK
  5
1179
330
1178
100
AcDbEntity
  8
0
100
AcDbBlockBegin
  2
*D28
 70
     1
 10
0.0
 20
0.0
 30
0.0
  3
*D28
  1
*D30
  0
LINE
  5
117B
330
1178
100
AcDbEntity
  8
DIM
 62
     0
370
    -2
100
AcDbLine
 10
431.0406660237836
 20
620.0869468401268
 30
0.0
 11
431.0406660237836
 21
589.9403639685268
 31
0.0
  0
LINE
  5
117C
330
1178
100
AcDbEntity
  8
DIM
 62
     0
370
    -2
100
AcDbLine
 10
410.0806660237836
 20
620.0869468401268
 30
0.0
 11
410.0806660237836
 21
589.9403639685268
 31
0.0
  0
LINE
  5
117D
330
1178
100
AcDbEntity
  8
DIM
 62
     0
370
    -2
100
AcDbLine
 10
410.0806660237836
 20
589.9403639685268
 30
0.0
 11
249.5265244222208
 21
589.9403639685268
 31
0.0
  0
INSERT
  5
117E
330
1178
100
AcDbEntity
  8
DIM
 62
     0
370
    -2
100
AcDbBlockReference
  2
_DOT
 10
431.0406660237836
 20
589.9403639685268
 30
0.0
 41
5.0
 42
5.0
 43
5.0
  0
INSERT
  5
117F
330
1178
100
AcDbEntity
  8
DIM
 62
     0
370
    -2
100
AcDbBlockReference
  2
_DOT
 10
410.0806660237836
 20
589.9403639685268
 30
0.0
 41
5.0
 42
5.0
 43
5.0
 50
180.0
  0
MTEXT
  5
1180
330
1178
100
AcDbEntity
  8
DIM
  6
Continuous
 62
     0
100
AcDbMText
 10
278.1685244222208
 20
607.2183639685268
 30
0.0
 40
12.0
 41
0.0
 46
0.0
 71
     5
 72
     1
  1
\A1;\A1;PJ1/2 {}
  7
ＭＳ ゴシック
 73
     1
 44
1.0
  0
POINT
  5
1181
330
1178
100
AcDbEntity
  8
Defpoints
 62
     0
100
AcDbPoint
 10
431.0406660237836
 20
625.0869468401268
 30
0.0
  0
POINT
  5
1182
330
1178
100
AcDbEntity
  8
Defpoints
 62
     0
100
AcDbPoint
 10
410.0806660237836
 20
625.0869468401268
 30
0.0
  0
POINT
  5
1183
330
1178
100
AcDbEntity
  8
Defpoints
 62
     0
100
AcDbPoint
 10
410.0806660237836
 20
589.9403639685268
 30
0.0
  0
ENDBLK
  5
117A
330
1178
100
AcDbEntity
  8
0
100
AcDbBlockEnd
  0
BLOCK
  5
1192
330
1191
100
AcDbEntity
  8
0
100
AcDbBlockBegin
  2
*D29
 70
     1
 10
0.0
 20
0.0
 30
0.0
  3
*D29
  1
*D32
  0
LINE
  5
1194
330
1191
100
AcDbEntity
  8
DIM
370
    -2
100
AcDbLine
 10
470.1332712565836
 20
697.9269468401267
 30
0.0
 11
585.4511028919837
 21
697.9269468401267
 31
0.0
  0
LINE
  5
1195
330
1191
100
AcDbEntity
  8
DIM
370
    -2
100
AcDbLine
 10
434.8806660237833
 20
623.9269468401267
 30
0.0
 11
585.4511028919837
 21
623.9269468401267
 31
0.0
  0
LINE
  5
1196
330
1191
100
AcDbEntity
  8
DIM
370
    -2
100
AcDbLine
 10
585.4511028919837
 20
692.9269468401267
 30
0.0
 11
585.4511028919837
 21
628.9269468401267
 31
0.0
  0
INSERT
  5
1197
330
1191
100
AcDbEntity
  8
DIM
370
    -2
100
AcDbBlockReference
  2
_DOT
 10
585.4511028919837
 20
697.9269468401267
 30
0.0
 41
5.0
 42
5.0
 43
5.0
 50
90.0
  0
INSERT
  5
1198
330
1191
100
AcDbEntity
  8
DIM
370
    -2
100
AcDbBlockReference
  2
_DOT
 10
585.4511028919837
 20
623.9269468401267
 30
0.0
 41
5.0
 42
5.0
 43
5.0
 50
270.0
  0
MTEXT
  5
1199
330
1191
100
AcDbEntity
  8
DIM
  6
Continuous
100
AcDbMText
 10
574.4511028919837
 20
660.9269463633266
 30
0.0
 40
12.0
 41
0.0
 46
0.0
 71
     5
 72
     1
  1
\A1;\A1;74
  7
ＭＳ ゴシック
 11
0.0
 21
1.0
 31
0.0
 73
     1
 44
1.0
  0
POINT
  5
119A
330
1191
100
AcDbEntity
  8
Defpoints
 62
     0
100
AcDbPoint
 10
465.1332712565836
 20
697.9269468401267
 30
0.0
  0
POINT
  5
119B
330
1191
100
AcDbEntity
  8
Defpoints
 62
     0
100
AcDbPoint
 10
429.8806660237833
 20
623.9269468401267
 30
0.0
  0
POINT
  5
119C
330
1191
100
AcDbEntity
  8
Defpoints
 62
     0
100
AcDbPoint
 10
585.4511028919837
 20
623.9269468401267
 30
0.0
  0
ENDBLK
  5
1193
330
1191
100
AcDbEntity
  8
0
100
AcDbBlockEnd
  0
BLOCK
  5
119F
330
119E
100
AcDbEntity
  8
0
100
AcDbBlockBegin
  2
*D30
 70
     1
 10
0.0
 20
0.0
 30
0.0
  3
*D30
  1
*D33
  0
LINE
  5
11A1
330
119E
100
AcDbEntity
  8
DIM
370
    -2
100
AcDbLine
 10
492.1375176663837
 20
995.0971335135372
 30
0.0
 11
501.932069687436
 21
995.0971335135372
 31
0.0
  0
LINE
  5
11A2
330
119E
100
AcDbEntity
  8
DIM
370
    -2
100
AcDbLine
 10
420.5807671233833
 20
1066.694086255538
 30
0.0
 11
420.5807671233833
 21
1076.44843607759
 31
0.0
  0
ARC
  5
11A3
330
119E
100
AcDbEntity
  8
DIM
370
    -2
100
AcDbCircle
 10
420.5807671233833
 20
995.0971335135372
 30
0.0
 40
81.35130256405263
100
AcDbArc
 50
3.522058024508469
 51
86.47794197549155
  0
INSERT
  5
11A4
330
119E
100
AcDbEntity
  8
DIM
370
    -2
100
AcDbBlockReference
  2
_DOT
 10
501.932069687436
 20
995.0971335135372
 30
0.0
 41
5.0
 42
5.0
 43
5.0
 50
271.7610290122542
  0
INSERT
  5
11A5
330
119E
100
AcDbEntity
  8
DIM
370
    -2
100
AcDbBlockReference
  2
_DOT
 10
420.5807671233833
 20
1076.44843607759
 30
0.0
 41
5.0
 42
5.0
 43
5.0
 50
178.2389709877458
  0
MTEXT
  5
11A6
330
119E
100
AcDbEntity
  8
DIM
  6
Continuous
100
AcDbMText
 10
486.0314918418847
 20
1060.547858232039
 30
0.0
 40
12.0
 41
0.0
 46
0.0
 71
     5
 72
     1
  1
\A1;\A1;90%%d
  7
ＭＳ ゴシック
 11
0.7071067811865481
 21
-0.7071067811865468
 31
0.0
 73
     1
 44
1.0
  0
POINT
  5
11A7
330
119E
100
AcDbEntity
  8
Defpoints
 62
     0
100
AcDbPoint
 10
491.033061774807
 20
1035.772784795563
 30
0.0
  0
POINT
  5
11A8
330
119E
100
AcDbEntity
  8
Defpoints
 62
     0
100
AcDbPoint
 10
420.5807671233833
 20
995.0971335135372
 30
0.0
  0
POINT
  5
11A9
330
119E
100
AcDbEntity
  8
Defpoints
 62
     0
100
AcDbPoint
 10
420.5807671233833
 20
995.0971335135372
 30
0.0
  0
POINT
  5
11AA
330
119E
100
AcDbEntity
  8
Defpoints
 62
     0
100
AcDbPoint
 10
487.1375176663837
 20
995.0971335135372
 30
0.0
  0
POINT
  5
11AB
330
119E
100
AcDbEntity
  8
Defpoints
 62
     0
100
AcDbPoint
 10
420.5807671233833
 20
1061.694086255538
 30
0.0
  0
ENDBLK
  5
11A0
330
119E
100
AcDbEntity
  8
0
100
AcDbBlockEnd
  0
BLOCK
  5
11BE
330
11BD
100
AcDbEntity
  8
0
100
AcDbBlockBegin
  2
*D31
 70
     1
 10
0.0
 20
0.0
 30
0.0
  3
*D31
  1
*D35
  0
LINE
  5
11C0
330
11BD
100
AcDbEntity
  8
DIM
 62
     0
370
    -2
100
AcDbLine
 10
395.8106660237834
 20
707.2269468401266
 30
0.0
 11
395.8106660237834
 21
729.8158144167231
 31
0.0
  0
LINE
  5
11C1
330
11BD
100
AcDbEntity
  8
DIM
 62
     0
370
    -2
100
AcDbLine
 10
445.3106660237836
 20
707.2269468401266
 30
0.0
 11
445.3106660237836
 21
729.8158144167231
 31
0.0
  0
LINE
  5
11C2
330
11BD
100
AcDbEntity
  8
DIM
 62
     0
370
    -2
100
AcDbLine
 10
395.8106660237834
 20
729.8158144167231
 30
0.0
 11
327.3706660237833
 21
729.8158144167231
 31
0.0
  0
LINE
  5
11C3
330
11BD
100
AcDbEntity
  8
DIM
 62
     0
370
    -2
100
AcDbLine
 10
390.8106660237834
 20
729.8158144167231
 30
0.0
 11
385.8106660237834
 21
729.8158144167231
 31
0.0
  0
LINE
  5
11C4
330
11BD
100
AcDbEntity
  8
DIM
 62
     0
370
    -2
100
AcDbLine
 10
450.3106660237836
 20
729.8158144167231
 30
0.0
 11
455.3106660237836
 21
729.8158144167231
 31
0.0
  0
INSERT
  5
11C5
330
11BD
100
AcDbEntity
  8
DIM
 62
     0
370
    -2
100
AcDbBlockReference
  2
_DOT
 10
395.8106660237834
 20
729.8158144167231
 30
0.0
 41
5.0
 42
5.0
 43
5.0
  0
INSERT
  5
11C6
330
11BD
100
AcDbEntity
  8
DIM
 62
     0
370
    -2
100
AcDbBlockReference
  2
_DOT
 10
445.3106660237836
 20
729.8158144167231
 30
0.0
 41
5.0
 42
5.0
 43
5.0
 50
180.0
  0
MTEXT
  5
11C7
330
11BD
100
AcDbEntity
  8
DIM
  6
Continuous
 62
     0
100
AcDbMText
 10
354.0906660237833
 20
740.8158144167231
 30
0.0
 40
12.0
 41
0.0
 46
0.0
 71
     5
 72
     1
  1
\A1;Φ49.5
  7
ＭＳ ゴシック
 73
     1
 44
1.0
  0
POINT
  5
11C8
330
11BD
100
AcDbEntity
  8
Defpoints
 62
     0
100
AcDbPoint
 10
395.8106660237834
 20
702.2269468401266
 30
0.0
  0
POINT
  5
11C9
330
11BD
100
AcDbEntity
  8
Defpoints
 62
     0
100
AcDbPoint
 10
445.3106660237836
 20
702.2269468401266
 30
0.0
  0
POINT
  5
11CA
330
11BD
100
AcDbEntity
  8
Defpoints
 62
     0
100
AcDbPoint
 10
445.3106660237836
 20
729.8158144167231
 30
0.0
  0
ENDBLK
  5
11BF
330
11BD
100
AcDbEntity
  8
0
100
AcDbBlockEnd
  0
BLOCK
  5
11CF
330
11CE
100
AcDbEntity
  8
0
100
AcDbBlockBegin
  2
*D32
 70
     1
 10
0.0
 20
0.0
 30
0.0
  3
*D32
  1
*D36
  0
LINE
  5
11D1
330
11CE
100
AcDbEntity
  8
DIM
 62
     0
370
    -2
100
AcDbLine
 10
403.5828428609655
 20
686.465224490431
 30
0.0
 11
403.5828428609655
 21
684.7299749224645
 31
0.0
  0
LINE
  5
11D2
330
11CE
100
AcDbEntity
  8
DIM
 62
     0
370
    -2
100
AcDbLine
 10
437.5162187665833
 20
685.7842037055267
 30
0.0
 11
437.5162187665833
 21
684.7299749224645
 31
0.0
  0
LINE
  5
11D3
330
11CE
100
AcDbEntity
  8
DIM
 62
     0
370
    -2
100
AcDbLine
 10
437.5162187665833
 20
684.7299749224645
 30
0.0
 11
514.35129083279
 21
684.7299749224645
 31
0.0
  0
LINE
  5
11D4
330
11CE
100
AcDbEntity
  8
DIM
 62
     0
370
    -2
100
AcDbLine
 10
398.5828428609655
 20
684.7299749224645
 30
0.0
 11
393.5828428609655
 21
684.7299749224645
 31
0.0
  0
LINE
  5
11D5
330
11CE
100
AcDbEntity
  8
DIM
 62
     0
370
    -2
100
AcDbLine
 10
442.5162187665833
 20
684.7299749224645
 30
0.0
 11
447.5162187665833
 21
684.7299749224645
 31
0.0
  0
INSERT
  5
11D6
330
11CE
100
AcDbEntity
  8
DIM
 62
     0
370
    -2
100
AcDbBlockReference
  2
_DOT
 10
403.5828428609655
 20
684.7299749224645
 30
0.0
 41
5.0
 42
5.0
 43
5.0
  0
INSERT
  5
11D7
330
11CE
100
AcDbEntity
  8
DIM
 62
     0
370
    -2
100
AcDbBlockReference
  2
_DOT
 10
437.5162187665833
 20
684.7299749224645
 30
0.0
 41
5.0
 42
5.0
 43
5.0
 50
180.0
  0
MTEXT
  5
11D8
330
11CE
100
AcDbEntity
  8
DIM
  6
Continuous
 62
     0
100
AcDbMText
 10
495.24529083279
 20
695.7299749224645
 30
0.0
 40
12.0
 41
0.0
 46
0.0
 71
     5
 72
     1
  1
\A1;Φ34
  7
ＭＳ ゴシック
 73
     1
 44
1.0
  0
POINT
  5
11D9
330
11CE
100
AcDbEntity
  8
Defpoints
 62
     0
100
AcDbPoint
 10
403.5828428609655
 20
691.465224490431
 30
0.0
  0
POINT
  5
11DA
330
11CE
100
AcDbEntity
  8
Defpoints
 62
     0
100
AcDbPoint
 10
437.5162187665833
 20
690.7842037055267
 30
0.0
  0
POINT
  5
11DB
330
11CE
100
AcDbEntity
  8
Defpoints
 62
     0
100
AcDbPoint
 10
437.5162187665833
 20
684.7299749224645
 30
0.0
  0
ENDBLK
  5
11D0
330
11CE
100
AcDbEntity
  8
0
100
AcDbBlockEnd
  0
BLOCK
  5
11E1
330
11E0
100
AcDbEntity
  8
0
100
AcDbBlockBegin
  2
*D33
 70
     1
 10
0.0
 20
0.0
 30
0.0
  3
*D33
  1
*D37
  0
LINE
  5
11E3
330
11E0
100
AcDbEntity
  8
DIM
370
    -2
100
AcDbLine
 10
719.1506343271678
 20
1013.292239861603
 30
0.0
 11
768.2955042250163
 21
1080.6358095616
 31
0.0
  0
MTEXT
  5
11E4
330
11E0
100
AcDbEntity
  8
DIM
  6
Continuous
100
AcDbMText
 10
743.6457613916103
 20
1065.620171771385
 30
0.0
 40
12.0
 41
0.0
 46
0.0
 71
     5
 72
     1
  1
\A1;\A1;%%c35%%p1
  7
ＭＳ ゴシック
 11
0.5894867978684618
 21
0.8077780110517908
 31
0.0
 73
     1
 44
1.0
  0
INSERT
  5
11E5
330
11E0
100
AcDbEntity
  8
DIM
370
    -2
100
AcDbBlockReference
  2
_DOT
 10
716.2032003378255
 20
1009.253349806344
 30
0.0
 41
5.0
 42
5.0
 43
5.0
 50
233.8794017252246
  0
POINT
  5
11E6
330
11E0
100
AcDbEntity
  8
Defpoints
 62
     0
100
AcDbPoint
 10
716.2032003378255
 20
1009.253349806344
 30
0.0
  0
POINT
  5
11E7
330
11E0
100
AcDbEntity
  8
Defpoints
 62
     0
100
AcDbPoint
 10
695.5711624124293
 20
980.981119419531
 30
0.0
  0
ENDBLK
  5
11E2
330
11E0
100
AcDbEntity
  8
0
100
AcDbBlockEnd
  0
ENDSEC
  0
SECTION
  2
ENTITIES
  0
MTEXT
  5
177
330
A
100
AcDbEntity
  8
TEMPLATE
390
1D
100
AcDbMText
 10
39.60107227386538
 20
171.8658758157141
 30
0.0
 40
8.144205729166663
 41
0.0
 46
0.0
 71
     1
 72
     1
  1
品名
  7
ＭＳ ゴシック
 73
     1
 44
0.7828267384257843
  0
MTEXT
  5
178
330
A
100
AcDbEntity
  8
TEMPLATE
390
1D
100
AcDbMText
 10
39.60107227386538
 20
129.365875815714
 30
0.0
 40
8.144205729166663
 41
0.0
 46
0.0
 71
     1
 72
     1
  1
仕様
  7
ＭＳ ゴシック
 73
     1
 44
0.7828267384257843
  0
LINE
  5
179
330
A
100
AcDbEntity
  8
TEMPLATE
390
1D
100
AcDbLine
 10
1011.101072273624
 20
133.5733367532142
 30
0.0
 11
36.10107227362437
 21
133.5733367532142
 31
0.0
  0
LWPOLYLINE
  5
17A
330
A
100
AcDbEntity
  8
TEMPLATE
390
1D
100
AcDbPolyline
 90
        5
 70
   128
 43
0.0
 10
1011.101072273624
 20
1448.573336753213
 10
36.10107227362437
 20
1448.573336753213
 10
36.10107227362437
 20
48.57333675321413
 10
1011.101072273624
 20
48.57333675321413
 10
1011.101072273624
 20
1448.573336753213
  0
LINE
  5
17B
330
A
100
AcDbEntity
  8
TEMPLATE
390
1D
100
AcDbLine
 10
1011.101072273624
 20
176.0733367532141
 30
0.0
 11
36.10107227362437
 21
176.0733367532141
 31
0.0
  0
LINE
  5
17C
330
A
100
AcDbEntity
  8
TEMPLATE
390
1D
100
AcDbLine
 10
1011.101072273866
 20
91.07333675321412
 30
0.0
 11
634.601072273865
 21
91.07333675321412
 31
0.0
  0
MTEXT
  5
17D
330
A
100
AcDbEntity
  8
TEMPLATE
390
1D
100
AcDbMText
 10
36.10107227396725
 20
42.64642572478557
 30
0.0
 40
10.85894097222222
 41
0.0
 46
10.85894097222222
 71
     1
 72
     1
  1
{150526SO}
  7
ＭＳ ゴシック
 73
     1
 44
0.7828267384257843
1001
ACAD
1000
ACAD_MTEXT_DEFINED_HEIGHT_BEGIN
1070
    46
1040
10.85894097222222
1000
ACAD_MTEXT_DEFINED_HEIGHT_END
  0
MTEXT
  5
17E
330
A
100
AcDbEntity
  8
TEMPLATE
390
1D
100
AcDbMText
 10
649.5367753999956
 20
76.11813951656006
 30
0.0
 40
12.21630859375
 41
0.0
 46
0.0
 71
     1
 72
     1
  1
大洋金物株式会社 ティーフォルム事業部
  7
ＭＳ ゴシック
 73
     1
 44
0.7828267384257843
  0
MTEXT
  5
180
330
A
100
AcDbEntity
  8
TEMPLATE
390
1D
100
AcDbMText
 10
915.601072273995
 20
115.0746453469641
 30
0.0
 40
12.21630859375
 41
0.0
 46
12.21630859375
 71
     1
 72
     1
  1
{1:5}
  7
ＭＳ ゴシック
 73
     1
 44
0.7828267384257843
1001
ACAD
1000
ACAD_MTEXT_DEFINED_HEIGHT_BEGIN
1070
    46
1040
12.21630859375
1000
ACAD_MTEXT_DEFINED_HEIGHT_END
  0
MTEXT
  5
181
330
A
100
AcDbEntity
  8
TEMPLATE
390
1D
100
AcDbMText
 10
889.101072273995
 20
129.365875815714
 30
0.0
 40
8.144205729166663
 41
0.0
 46
0.0
 71
     1
 72
     1
  1
縮尺
  7
ＭＳ ゴシック
 73
     1
 44
0.7828267384257843
  0
LINE
  5
182
330
A
100
AcDbEntity
  8
TEMPLATE
390
1D
100
AcDbLine
 10
885.601072273995
 20
91.07333675321412
 30
0.0
 11
885.601072273995
 21
133.5733367532142
 31
0.0
  0
MTEXT
  5
183
330
A
100
AcDbEntity
  8
TEMPLATE
390
1D
100
AcDbMText
 10
763.601072273995
 20
129.365875815714
 30
0.0
 40
8.144205729166663
 41
0.0
 46
0.0
 71
     1
 72
     1
  1
容量
  7
ＭＳ ゴシック
 73
     1
 44
0.7828267384257843
  0
LINE
  5
184
330
A
100
AcDbEntity
  8
TEMPLATE
390
1D
100
AcDbLine
 10
760.101072273995
 20
91.07333675321412
 30
0.0
 11
760.101072273995
 21
133.5733367532142
 31
0.0
  0
MTEXT
  5
185
330
A
100
AcDbEntity
  8
TEMPLATE
390
1D
100
AcDbMText
 10
638.101072273995
 20
171.8658758157141
 30
0.0
 40
8.144205729166663
 41
0.0
 46
0.0
 71
     1
 72
     1
  1
品番
  7
ＭＳ ゴシック
 73
     1
 44
0.7828267384257843
  0
MTEXT
  5
186
330
A
100
AcDbEntity
  8
TEMPLATE
390
1D
100
AcDbMText
 10
638.101072273995
 20
129.365875815714
 30
0.0
 40
8.144205729166663
 41
0.0
 46
0.0
 71
     1
 72
     1
  1
重量
  7
ＭＳ ゴシック
 73
     1
 44
0.7828267384257843
  0
MTEXT
  5
187
330
A
100
AcDbEntity
  8
TEMPLATE
390
1D
100
AcDbMText
 10
664.601072273995
 20
157.5746453469641
 30
0.0
 40
12.21630859375
 41
0.0
 46
12.21630859375
 71
     1
 72
     1
  1
{FHT73-2202}
  7
ＭＳ ゴシック
 73
     1
 44
0.7828267384257843
1001
ACAD
1000
ACAD_MTEXT_DEFINED_HEIGHT_BEGIN
1070
    46
1040
12.21630859375
1000
ACAD_MTEXT_DEFINED_HEIGHT_END
  0
LINE
  5
188
330
A
100
AcDbEntity
  8
TEMPLATE
390
1D
100
AcDbLine
 10
634.601072273995
 20
48.57333675321413
 30
0.0
 11
634.601072273995
 21
176.0733367532141
 31
0.0
  0
MTEXT
  5
189
330
A
100
AcDbEntity
  8
TEMPLATE
390
1D
100
AcDbMText
 10
66.10107227386537
 20
157.5746453469641
 30
0.0
 40
12.21630859375
 41
0.0
 46
12.21630859375
 71
     1
 72
     1
  1
{単水栓　-GROHE,Eurostyle Cosmopolitan-}
  7
ＭＳ ゴシック
 73
     1
 44
0.7828267384257843
1001
ACAD
1000
ACAD_MTEXT_DEFINED_HEIGHT_BEGIN
1070
    46
1040
12.21630859375
1000
ACAD_MTEXT_DEFINED_HEIGHT_END
  0
INSERT
  5
6B5
330
A
100
AcDbEntity
  8
TEMPLATE
100
AcDbBlockReference
  2
名称未設定-1
 10
935.3753740442249
 20
12.97338287832691
 30
0.0
 41
0.3809999999999999
 42
0.3809999999999999
 43
0.3809999999999999
  0
INSERT
  5
68C
330
A
100
AcDbEntity
  8
TEMPLATE
100
AcDbBlockReference
  2
block 2
 10
919.2743017702577
 20
8.373076514336368
 30
0.0
 41
0.3809999999999999
 42
0.3809999999999999
 43
0.3809999999999999
  0
LINE
  5
FD3
330
A
100
AcDbEntity
  8
MODEL
  6
Continuous
100
AcDbLine
 10
440.5606639637836
 20
702.9269463813266
 30
0.0
 11
440.5606639637836
 21
756.5300483375268
 31
0.0
  0
ARC
  5
FD4
330
A
100
AcDbEntity
  8
MODEL
  6
Continuous
100
AcDbCircle
 10
494.0764659807833
 20
809.6978773557266
 30
0.0
 40
66.42854750136728
100
AcDbArc
 50
204.9024424573001
 51
219.7488866792
  0
LINE
  5
FD5
330
A
100
AcDbEntity
  8
MODEL
  6
Continuous
100
AcDbLine
 10
400.5606639637836
 20
791.3303340771267
 30
0.0
 11
400.5606639637836
 21
702.9269463813266
 31
0.0
  0
ARC
  5
FD6
330
A
100
AcDbEntity
  8
MODEL
  6
Continuous
100
AcDbCircle
 10
423.4234295569836
 20
-902.1163420330734
 30
0.0
 40
1693.931488718414
100
AcDbArc
 50
89.6180016961
 51
89.80453830220002
  0
ARC
  5
FD7
330
A
100
AcDbEntity
  8
MODEL
  6
Continuous
100
AcDbCircle
 10
436.8730054117837
 20
297.0055328079266
 30
0.0
 40
494.776663319376
100
AcDbArc
 50
79.11935037030001
 51
90.24966852940003
  0
ARC
  5
FD8
330
A
100
AcDbEntity
  8
MODEL
  6
Continuous
100
AcDbCircle
 10
407.7630945681835
 20
-7487.727256231473
 30
0.0
 40
8279.560303168715
100
AcDbArc
 50
89.8516381896
 51
90.04638181200002
  0
SPLINE
  5
FD9
330
A
100
AcDbEntity
  8
MODEL
  6
Continuous
100
AcDbSpline
210
0.0
220
0.0
230
1.0
 70
     8
 71
     3
 72
    10
 73
     6
 74
     0
 42
0.000000001
 43
0.0000000001
 40
0.0
 40
0.0
 40
0.0
 40
0.0
 40
0.5
 40
0.5
 40
1.0
 40
1.0
 40
1.0
 40
1.0
 10
400.5606639638731
 20
791.3303340771229
 30
0.0
 10
400.5606639638731
 20
791.4612338263914
 30
0.0
 10
400.6145505596223
 20
791.5913275155579
 30
0.0
 10
400.7996708218488
 20
791.7764476547852
 30
0.0
 10
400.9297645468191
 20
791.8303341640963
 30
0.0
 10
401.0606642960879
 20
791.8303340771226
 30
0.0
  0
SPLINE
  5
FDA
330
A
100
AcDbEntity
  8
MODEL
  6
Continuous
100
AcDbSpline
210
0.0
220
0.0
230
1.0
 70
     8
 71
     3
 72
    36
 73
    32
 74
     0
 42
0.000000001
 43
0.0000000001
 40
0.0
 40
0.0
 40
0.0
 40
0.0
 40
0.0129831067287055
 40
0.0250321083610483
 40
0.0363487844317383
 40
0.0470329742221897
 40
0.0570964523644762
 40
0.0664825614030038
 40
0.0832849395887099
 40
0.0996618225239446
 40
0.1328329759646573
 40
0.1656544639035104
 40
0.1985912307847935
 40
0.2096050818803885
 40
0.2180352260439027
 40
0.2256198837637179
 40
0.2369934774322729
 40
0.2505433382164061
 40
0.2635448852524892
 40
0.2899699825322747
 40
0.3252810829567242
 40
0.3540718979436349
 40
0.3867279650928989
 40
0.4494476037508509
 40
0.5093438635769557
 40
0.548199134485884
 40
0.6320057452936002
 40
0.691463491975243
 40
0.7547197593062066
 40
0.8790802368277268
 40
1.0
 40
1.0
 40
1.0
 40
1.0
 10
530.5310310909731
 20
776.8574642551444
 30
0.0
 10
530.5173513863056
 20
776.8547107268987
 30
0.0
 10
530.4977418112258
 20
776.852323660522
 30
0.0
 10
530.33831484338
 20
776.8505061341205
 30
0.0
 10
530.1033294821709
 20
776.8670367844486
 30
0.0
 10
529.8019660611085
 20
776.9055352552857
 30
0.0
 10
529.4531304341672
 20
776.9643544620001
 30
0.0
 10
528.9613743384098
 20
777.0567623456254
 30
0.0
 10
528.2632923180681
 20
777.1742536994395
 30
0.0
 10
526.9731554455661
 20
777.3924307126565
 30
0.0
 10
524.9871525118751
 20
777.6886738726871
 30
0.0
 10
522.1339561097816
 20
778.1563201223989
 30
0.0
 10
519.6448771291707
 20
778.4093457840627
 30
0.0
 10
517.8838352364714
 20
778.6675126369269
 30
0.0
 10
516.9580919530467
 20
778.8177300487737
 30
0.0
 10
516.0005544057776
 20
778.9301266596949
 30
0.0
 10
514.8601955756544
 20
779.0750219431768
 30
0.0
 10
513.5312917159822
 20
779.2624527436524
 30
0.0
 10
511.6721235904411
 20
779.5044829306057
 30
0.0
 10
509.044942735241
 20
779.8172186994109
 30
0.0
 10
505.8723668904063
 20
780.2696053726304
 30
0.0
 10
502.4860482385598
 20
780.782038957572
 30
0.0
 10
498.1340789054266
 20
781.3985187588137
 30
0.0
 10
492.6756238712001
 20
782.0519586415448
 30
0.0
 10
486.9863508147405
 20
782.6113297066854
 30
0.0
 10
480.5481456856569
 20
783.1800876999864
 30
0.0
 10
474.1136681400048
 20
783.6082497429104
 30
0.0
 10
466.8120700106847
 20
784.0010280952124
 30
0.0
 10
458.0706000562209
 20
784.3453903099601
 30
0.0
 10
447.1470671507332
 20
784.5875142889133
 30
0.0
 10
438.4621879084575
 20
784.5196723737517
 30
0.0
 10
434.1806636267706
 20
784.4861575701159
 30
0.0
  0
SPLINE
  5
FDB
330
A
100
AcDbEntity
  8
MODEL
  6
Continuous
100
AcDbSpline
210
0.0
220
0.0
230
1.0
 70
     8
 71
     3
 72
    10
 73
     6
 74
     0
 42
0.000000001
 43
0.0000000001
 40
0.0
 40
0.0
 40
0.0
 40
0.0
 40
0.5
 40
0.5
 40
1.0
 40
1.0
 40
1.0
 40
1.0
 10
530.2689273345195
 20
782.8873582897927
 30
0.0
 10
530.3819127498364
 20
782.8643652703638
 30
0.0
 10
530.4837257273834
 20
782.802781614364
 30
0.0
 10
530.629315376555
 20
782.6244676150106
 30
0.0
 10
530.6692189786154
 20
782.5127018281753
 30
0.0
 10
530.6692188957468
 20
782.3974005575096
 30
0.0
  0
LINE
  5
FDC
330
A
100
AcDbEntity
  8
MODEL
  6
Continuous
100
AcDbLine
 10
530.6692188957836
 20
782.3974005575267
 30
0.0
 11
530.6692152565834
 21
777.3339175297267
 31
0.0
  0
ARC
  5
FDD
330
A
100
AcDbEntity
  8
MODEL
  6
Continuous
100
AcDbCircle
 10
529.7897066793835
 20
777.3309446195267
 30
0.0
 40
0.8796280682971094
100
AcDbArc
 50
327.4338231867017
 51
0.1971468418918461
  0
ARC
  5
FDE
330
A
100
AcDbEntity
  8
MODEL
  6
Continuous
100
AcDbCircle
 10
517.7301267911835
 20
784.4474924977267
 30
0.0
 40
14.88192459378855
100
AcDbArc
 50
296.2862276318994
 51
329.3350660562999
  0
SPLINE
  5
FDF
330
A
100
AcDbEntity
  8
MODEL
  6
Continuous
100
AcDbSpline
210
0.0
220
0.0
230
1.0
 70
     8
 71
     3
 72
    12
 73
     8
 74
     0
 42
0.000000001
 43
0.0000000001
 40
0.0
 40
0.0
 40
0.0
 40
0.0
 40
0.2500000000000001
 40
0.2500000000000001
 40
0.5000000000000002
 40
0.5000000000000002
 40
1.0
 40
1.0
 40
1.0
 40
1.0
 10
440.5606639638731
 20
756.5300483375238
 30
0.0
 10
440.5606639638759
 20
758.0718051606318
 30
0.0
 10
440.8547988999653
 20
759.5826914253439
 30
0.0
 10
441.9968503946511
 20
762.425110009448
 30
0.0
 10
442.8398589114618
 20
763.7293997240849
 30
0.0
 10
446.003783309241
 20
767.0327219224996
 30
0.0
 10
448.9705058278173
 20
768.388329624923
 30
0.0
 10
452.0512397151861
 20
768.5192309146094
 30
0.0
  0
SPLINE
  5
FE0
330
A
100
AcDbEntity
  8
MODEL
  6
Continuous
100
AcDbSpline
210
0.0
220
0.0
230
1.0
 70
     8
 71
     3
 72
    14
 73
    10
 74
     0
 42
0.000000001
 43
0.0000000001
 40
0.0
 40
0.0
 40
0.0
 40
0.0
 40
0.1250000000000001
 40
0.1250000000000001
 40
0.2500000000000002
 40
0.2500000000000002
 40
0.5000000000000003
 40
0.5000000000000003
 40
1.0
 40
1.0
 40
1.0
 40
1.0
 10
500.3245502799496
 20
765.79480244922
 30
0.0
 10
498.7180146500341
 20
767.0288447958158
 30
0.0
 10
496.7284386909064
 20
767.7030881948779
 30
0.0
 10
492.7464036915203
 20
768.4477935127993
 30
0.0
 10
490.6990979274597
 20
768.5544439908879
 30
0.0
 10
484.5984589362256
 20
768.7613023476365
 30
0.0
 10
480.5305800993874
 20
768.8520484149112
 30
0.0
 10
468.3246583669033
 20
768.9872054388104
 30
0.0
 10
460.1808949917659
 20
768.864662360269
 30
0.0
 10
452.0512397151861
 20
768.5192309146094
 30
0.0
  0
ARC
  5
FE1
330
A
100
AcDbEntity
  8
MODEL
  6
Continuous
100
AcDbCircle
 10
518.6244421169836
 20
739.9695712113266
 30
0.0
 40
31.65167625487734
100
AcDbArc
 50
79.63221315450018
 51
125.3215827121997
  0
LINE
  5
FE2
330
A
100
AcDbEntity
  8
MODEL
  6
Continuous
100
AcDbLine
 10
410.0806660237836
 20
695.9269468401267
 30
0.0
 11
410.0806660237836
 21
692.9269463813266
 31
0.0
  0
LINE
  5
FE3
330
A
100
AcDbEntity
  8
MODEL
  6
Continuous
100
AcDbLine
 10
410.0806660237836
 20
687.9269463813266
 30
0.0
 11
410.0806660237836
 21
678.4269463813266
 31
0.0
  0
LINE
  5
FE4
330
A
100
AcDbEntity
  8
MODEL
  6
Continuous
100
AcDbLine
 10
431.0406660237836
 20
678.4269463813266
 30
0.0
 11
431.0406660237836
 21
687.9269463813266
 31
0.0
  0
LINE
  5
FE5
330
A
100
AcDbEntity
  8
MODEL
  6
Continuous
100
AcDbLine
 10
431.0406660237836
 20
692.9269463813266
 30
0.0
 11
431.0406660237836
 21
695.9269468401267
 31
0.0
  0
LINE
  5
FE6
330
A
100
AcDbEntity
  8
MODEL
  6
Continuous
100
AcDbLine
 10
411.2456660237835
 20
678.4269463813266
 30
0.0
 11
411.2456660237835
 21
687.9269463813266
 31
0.0
  0
LINE
  5
FE7
330
A
100
AcDbEntity
  8
MODEL
  6
Continuous
100
AcDbLine
 10
411.2456660237835
 20
692.9269463813266
 30
0.0
 11
411.2456660237835
 21
695.9269468401267
 31
0.0
  0
LINE
  5
FE8
330
A
100
AcDbEntity
  8
MODEL
  6
Continuous
100
AcDbLine
 10
429.8756660237837
 20
678.4269463813266
 30
0.0
 11
429.8756660237837
 21
687.9269463813266
 31
0.0
  0
LINE
  5
FE9
330
A
100
AcDbEntity
  8
MODEL
  6
Continuous
100
AcDbLine
 10
429.8756660237837
 20
692.9269463813266
 30
0.0
 11
429.8756660237837
 21
695.9269468401267
 31
0.0
  0
LINE
  5
FEA
330
A
100
AcDbEntity
  8
MODEL
  6
Continuous
100
AcDbLine
 10
399.2761458411833
 20
674.4269463813266
 30
0.0
 11
441.7761458411837
 21
674.4269463813266
 31
0.0
  0
LINE
  5
FEB
330
A
100
AcDbEntity
  8
MODEL
  6
Continuous
100
AcDbLine
 10
435.5372528401836
 20
660.9269463813266
 30
0.0
 11
428.0316993407837
 21
660.9269463813266
 31
0.0
  0
LINE
  5
FEC
330
A
100
AcDbEntity
  8
MODEL
  6
Continuous
100
AcDbLine
 10
413.0205923417834
 20
660.9269463813266
 30
0.0
 11
405.5150388423835
 21
660.9269463813266
 31
0.0
  0
LINE
  5
FED
330
A
100
AcDbEntity
  8
MODEL
  6
Continuous
100
AcDbLine
 10
441.2761458411837
 20
669.9269463813266
 30
0.0
 11
399.7761458411833
 21
669.9269463813266
 31
0.0
  0
LINE
  5
FEE
330
A
100
AcDbEntity
  8
MODEL
  6
Continuous
100
AcDbLine
 10
413.0205923417834
 20
669.4269463813266
 30
0.0
 11
413.0205923417834
 21
661.4269463813266
 31
0.0
  0
LINE
  5
FEF
330
A
100
AcDbEntity
  8
MODEL
  6
Continuous
100
AcDbLine
 10
428.0316993407837
 20
661.4269463813266
 30
0.0
 11
428.0316993407837
 21
669.4269463813266
 31
0.0
  0
LINE
  5
FF0
330
A
100
AcDbEntity
  8
MODEL
  6
Continuous
100
AcDbLine
 10
399.2761458411833
 20
674.4269463813266
 30
0.0
 11
399.2761458411833
 21
670.4269463813266
 31
0.0
  0
LINE
  5
FF1
330
A
100
AcDbEntity
  8
MODEL
  6
Continuous
100
AcDbLine
 10
441.7761458411837
 20
670.4269463813266
 30
0.0
 11
441.7761458411837
 21
674.4269463813266
 31
0.0
  0
ARC
  5
FF2
330
A
100
AcDbEntity
  8
MODEL
  6
Continuous
100
AcDbCircle
 10
399.7761458411833
 20
670.4269463813266
 30
0.0
 40
0.5000000000000004
100
AcDbArc
 50
180.0
 51
270.0
  0
ARC
  5
FF3
330
A
100
AcDbEntity
  8
MODEL
  6
Continuous
100
AcDbCircle
 10
441.2761458411837
 20
670.4269463813266
 30
0.0
 40
0.5000000000000004
100
AcDbArc
 50
270.0
 51
0.0
  0
ARC
  5
FF4
330
A
100
AcDbEntity
  8
MODEL
  6
Continuous
100
AcDbCircle
 10
405.5150388423835
 20
661.4269463813266
 30
0.0
 40
0.5000000000000022
100
AcDbArc
 50
180.0
 51
270.0
  0
LINE
  5
FF5
330
A
100
AcDbEntity
  8
MODEL
  6
Continuous
100
AcDbLine
 10
405.0150388423835
 20
669.4269463813266
 30
0.0
 11
405.0150388423835
 21
661.4269463813266
 31
0.0
  0
SPLINE
  5
FF6
330
A
100
AcDbEntity
  8
MODEL
  6
Continuous
100
AcDbSpline
210
0.0
220
0.0
230
1.0
 70
     8
 71
     3
 72
    12
 73
     8
 74
     0
 42
0.000000001
 43
0.0000000001
 40
0.0
 40
0.0
 40
0.0
 40
0.0
 40
0.1312427464714814
 40
0.4338012222960914
 40
0.6935366167126035
 40
0.8700767549748878
 40
1.0
 40
1.0
 40
1.0
 40
1.0
 10
404.3603383039144
 20
669.9269463812489
 30
0.0
 10
404.4038459117223
 20
669.9254548278057
 30
0.0
 10
404.5263229226352
 20
669.9193500996475
 30
0.0
 10
404.7362321164915
 20
669.8520327193755
 30
0.0
 10
404.9123344221671
 20
669.7120024123844
 30
0.0
 10
405.0021342074951
 20
669.5567027873706
 30
0.0
 10
405.0113100670674
 20
669.4698802540911
 30
0.0
 10
405.015038842294
 20
669.4269463812489
 30
0.0
  0
ARC
  5
FF7
330
A
100
AcDbEntity
  8
MODEL
  6
Continuous
100
AcDbCircle
 10
435.5372528401836
 20
661.4269463813266
 30
0.0
 40
0.5000000000000004
100
AcDbArc
 50
270.0
 51
0.0
  0
LINE
  5
FF8
330
A
100
AcDbEntity
  8
MODEL
  6
Continuous
100
AcDbLine
 10
436.0372528401836
 20
661.4269463813266
 30
0.0
 11
436.0372528401836
 21
669.4269463813266
 31
0.0
  0
SPLINE
  5
FF9
330
A
100
AcDbEntity
  8
MODEL
  6
Continuous
100
AcDbSpline
210
0.0
220
0.0
230
1.0
 70
     8
 71
     3
 72
    12
 73
     8
 74
     0
 42
0.000000001
 43
0.0000000001
 40
0.0
 40
0.0
 40
0.0
 40
0.0
 40
0.0717659656450295
 40
0.2344841850446053
 40
0.4368340542564973
 40
0.6956741413161222
 40
1.0
 40
1.0
 40
1.0
 40
1.0
 10
436.037252840179
 20
669.4269463812489
 30
0.0
 10
436.0383625020131
 20
669.4507290535082
 30
0.0
 10
436.0423156245001
 20
669.5170963479179
 30
0.0
 10
436.0935055475566
 20
669.6461361849053
 30
0.0
 10
436.2209401905143
 20
669.786213956917
 30
0.0
 10
436.432343318947
 20
669.9020174620914
 30
0.0
 10
436.5912913092948
 20
669.9191842859482
 30
0.0
 10
436.6919533785581
 20
669.9269463812489
 30
0.0
  0
LINE
  5
FFA
330
A
100
AcDbEntity
  8
MODEL
  6
Continuous
100
AcDbLine
 10
441.5261458411837
 20
674.4269463813266
 30
0.0
 11
441.5261458411837
 21
675.4269463813266
 31
0.0
  0
LINE
  5
FFB
330
A
100
AcDbEntity
  8
MODEL
  6
Continuous
100
AcDbLine
 10
399.5261458411833
 20
675.4269463813266
 30
0.0
 11
399.5261458411833
 21
674.4269463813266
 31
0.0
  0
LINE
  5
FFC
330
A
100
AcDbEntity
  8
MODEL
  6
Continuous
100
AcDbLine
 10
444.5261458411837
 20
675.4269463813266
 30
0.0
 11
396.5261458411833
 21
675.4269463813266
 31
0.0
  0
LINE
  5
FFD
330
A
100
AcDbEntity
  8
MODEL
  6
Continuous
100
AcDbLine
 10
444.5261458411837
 20
675.4269463813266
 30
0.0
 11
444.5261458411837
 21
678.4269463813266
 31
0.0
  0
LINE
  5
FFE
330
A
100
AcDbEntity
  8
MODEL
  6
Continuous
100
AcDbLine
 10
396.5261458411833
 20
678.4269463813266
 30
0.0
 11
396.5261458411833
 21
675.4269463813266
 31
0.0
  0
LINE
  5
FFF
330
A
100
AcDbEntity
  8
MODEL
  6
Continuous
100
AcDbLine
 10
437.3106660237836
 20
695.9269468401267
 30
0.0
 11
403.8106660237836
 21
695.9269468401267
 31
0.0
  0
LINE
  5
1000
330
A
100
AcDbEntity
  8
MODEL
  6
Continuous
100
AcDbLine
 10
396.5106660237834
 20
702.9269468401267
 30
0.0
 11
444.6106660237833
 21
702.9269468401267
 31
0.0
  0
LINE
  5
1001
330
A
100
AcDbEntity
  8
MODEL
  6
Continuous
100
AcDbLine
 10
437.3106660237836
 20
695.9269468401267
 30
0.0
 11
437.3106660237836
 21
697.9269468401267
 31
0.0
  0
LINE
  5
1002
330
A
100
AcDbEntity
  8
MODEL
  6
Continuous
100
AcDbLine
 10
403.8106660237836
 20
697.9269468401267
 30
0.0
 11
403.8106660237836
 21
695.9269468401267
 31
0.0
  0
ARC
  5
1003
330
A
100
AcDbEntity
  8
MODEL
  6
Continuous
100
AcDbCircle
 10
444.6106660237833
 20
702.2269468401266
 30
0.0
 40
0.6999999999999992
100
AcDbArc
 50
0.0
 51
90.0
  0
ARC
  5
1004
102
{ACAD_REACTORS
330
11BC
102
}
330
A
100
AcDbEntity
  8
MODEL
  6
Continuous
100
AcDbCircle
 10
396.5106660237834
 20
702.2269468401266
 30
0.0
 40
0.7
100
AcDbArc
 50
90.0
 51
180.0
  0
LINE
  5
1005
330
A
100
AcDbEntity
  8
MODEL
  6
Continuous
100
AcDbLine
 10
503.3323098787837
 20
761.0873195197266
 30
0.0
 11
513.6125860053835
 21
764.2303153455266
 31
0.0
  0
SPLINE
  5
1006
330
A
100
AcDbEntity
  8
MODEL
  6
Continuous
100
AcDbSpline
210
0.0
220
0.0
230
1.0
 70
     8
 71
     3
 72
    10
 73
     6
 74
     0
 42
0.000000001
 43
0.0000000001
 40
0.0
 40
0.0
 40
0.0
 40
0.0
 40
0.5
 40
0.5
 40
1.0
 40
1.0
 40
1.0
 40
1.0
 10
515.9932310525974
 20
765.290203307474
 30
0.0
 10
515.2021827942076
 20
764.9292326374687
 30
0.0
 10
514.3950917143297
 20
764.620494530109
 30
0.0
 10
512.7461072978517
 20
764.1163282500488
 30
0.0
 10
511.9042134924503
 20
763.92090160368
 30
0.0
 10
511.0462599873099
 20
763.7777624725277
 30
0.0
  0
LINE
  5
1007
330
A
100
AcDbEntity
  8
MODEL
  6
Continuous
100
AcDbLine
 10
524.5509403165834
 20
768.8121532181267
 30
0.0
 11
517.3507604811834
 21
766.6108373303266
 31
0.0
  0
LINE
  5
1008
330
A
100
AcDbEntity
  8
MODEL
  6
Continuous
100
AcDbLine
 10
516.8196871759833
 20
768.3478998413266
 30
0.0
 11
508.6512546061836
 21
765.8505593853267
 31
0.0
  0
LINE
  5
1009
330
A
100
AcDbEntity
  8
MODEL
  6
Continuous
100
AcDbLine
 10
516.8196871759833
 20
768.3478998413266
 30
0.0
 11
517.3507604811834
 21
766.6108373303266
 31
0.0
  0
SPLINE
  5
100A
330
A
100
AcDbEntity
  8
MODEL
  6
Continuous
100
AcDbSpline
210
0.0
220
0.0
230
1.0
 70
     8
 71
     3
 72
    14
 73
    10
 74
     0
 42
0.000000001
 43
0.0000000001
 40
0.0
 40
0.0
 40
0.0
 40
0.0
 40
0.1250000000000004
 40
0.1250000000000004
 40
0.2500000000000009
 40
0.2500000000000009
 40
0.5000000000000008
 40
0.5000000000000008
 40
1.0
 40
1.0
 40
1.0
 40
1.0
 10
517.3507604811989
 20
766.6108373304264
 30
0.0
 10
517.375390253374
 20
766.5302769756156
 30
0.0
 10
517.3692621079167
 20
766.4404217802946
 30
0.0
 10
517.3183479358454
 20
766.2792976579119
 30
0.0
 10
517.2752338492564
 20
766.2044044384754
 30
0.0
 10
517.1259473588575
 20
766.0007370895164
 30
0.0
 10
516.9976504726746
 20
765.8868454670303
 30
0.0
 10
516.5975589847781
 20
765.5853228151652
 30
0.0
 10
516.2977066072567
 20
765.4291414111865
 30
0.0
 10
515.9932310525974
 20
765.290203307474
 30
0.0
  0
SPLINE
  5
100B
330
A
100
AcDbEntity
  8
MODEL
  6
Continuous
100
AcDbSpline
210
0.0
220
0.0
230
1.0
 70
     8
 71
     3
 72
    18
 73
    14
 74
     0
 42
0.000000001
 43
0.0000000001
 40
0.0
 40
0.0
 40
0.0
 40
0.0
 40
0.2499999999999998
 40
0.2499999999999998
 40
0.4999999999999997
 40
0.4999999999999997
 40
0.6249999999999992
 40
0.6249999999999992
 40
0.7499999999999989
 40
0.7499999999999989
 40
0.8749999999999994
 40
0.8749999999999994
 40
1.0
 40
1.0
 40
1.0
 40
1.0
 10
511.0462599873099
 20
763.7777624725277
 30
0.0
 10
510.88070877465
 20
763.7501422616424
 30
0.0
 10
510.7144743309291
 20
763.7276306198696
 30
0.0
 10
510.379779544774
 20
763.6992505454145
 30
0.0
 10
510.2114174451785
 20
763.6932153475391
 30
0.0
 10
509.9611110926139
 20
763.7065449467204
 30
0.0
 10
509.8779088648457
 20
763.7147459598048
 30
0.0
 10
509.7122123477179
 20
763.7425546629795
 30
0.0
 10
509.6292447002952
 20
763.7622958444251
 30
0.0
 10
509.4717579290409
 20
763.8190289867969
 30
0.0
 10
509.3951157078081
 20
763.8563613846368
 30
0.0
 10
509.2618695184569
 20
763.9621865760396
 30
0.0
 10
509.2073990725803
 20
764.0314928013363
 30
0.0
 10
509.1823279114333
 20
764.1134968744232
 30
0.0
  0
LINE
  5
100C
330
A
100
AcDbEntity
  8
MODEL
  6
Continuous
100
AcDbLine
 10
509.1823279113837
 20
764.1134968743268
 30
0.0
 11
508.6512546061836
 21
765.8505593853267
 31
0.0
  0
LINE
  5
100D
330
A
100
AcDbEntity
  8
MODEL
  6
Continuous
100
AcDbLine
 10
509.1823279113837
 20
764.1134968743268
 30
0.0
 11
501.9821480759833
 21
761.9121809867268
 31
0.0
  0
LINE
  5
100E
330
A
100
AcDbEntity
  8
MODEL
  6
Continuous
100
AcDbLine
 10
502.7135017775836
 20
761.2301826267267
 30
0.0
 11
503.3323098787837
 21
761.0873195197266
 31
0.0
  0
LINE
  5
100F
330
A
100
AcDbEntity
  8
MODEL
  6
Continuous
100
AcDbLine
 10
523.8928621319833
 20
767.3733111711267
 30
0.0
 11
524.3259892623837
 21
767.8377831533267
 31
0.0
  0
ARC
  5
1010
330
A
100
AcDbEntity
  8
MODEL
  6
Continuous
100
AcDbCircle
 10
502.9384528319833
 20
762.2045526913266
 30
0.0
 40
0.9999999999999984
100
AcDbArc
 50
196.9999999999951
 51
257.0000000000029
  0
ARC
  5
1011
330
A
100
AcDbEntity
  8
MODEL
  6
Continuous
100
AcDbCircle
 10
523.5946355607834
 20
768.5197815135266
 30
0.0
 40
0.9999999999999982
100
AcDbArc
 50
317.0000000000122
 51
17.00000000000945
  0
LINE
  5
1012
330
A
100
AcDbEntity
  8
MODEL
  6
Continuous
100
AcDbLine
 10
500.7112090293836
 20
766.0692352953267
 30
0.0
 11
501.9821480759833
 21
761.9121809867268
 31
0.0
  0
LINE
  5
1013
330
A
100
AcDbEntity
  8
MODEL
  6
Continuous
100
AcDbLine
 10
524.5509403165834
 20
768.8121532181267
 30
0.0
 11
523.8368962811833
 21
771.1476860213265
 31
0.0
  0
LINE
  5
1014
330
A
100
AcDbEntity
  8
MODEL
  6
Continuous
100
AcDbLine
 10
404.3106660237836
 20
792.6303071695268
 30
0.0
 11
404.3106660237836
 21
791.8303031055266
 31
0.0
  0
LINE
  5
1015
330
A
100
AcDbEntity
  8
MODEL
  6
Continuous
100
AcDbLine
 10
436.8106660237836
 20
791.7462237861266
 30
0.0
 11
436.8106660237836
 21
792.6303071695268
 31
0.0
  0
LINE
  5
1016
330
A
100
AcDbEntity
  8
MODEL
  6
Continuous
100
AcDbLine
 10
436.5606660237836
 20
692.9269463813266
 30
0.0
 11
404.5606660237836
 21
692.9269463813266
 31
0.0
  0
LINE
  5
1017
330
A
100
AcDbEntity
  8
MODEL
  6
Continuous
100
AcDbLine
 10
436.5606660237836
 20
687.9269463813266
 30
0.0
 11
404.5606660237836
 21
687.9269463813266
 31
0.0
  0
LINE
  5
1018
330
A
100
AcDbEntity
  8
MODEL
  6
Continuous
100
AcDbLine
 10
436.5606660237836
 20
687.9269463813266
 30
0.0
 11
436.5606660237836
 21
692.9269463813266
 31
0.0
  0
LINE
  5
1019
330
A
100
AcDbEntity
  8
MODEL
  6
Continuous
100
AcDbLine
 10
404.5606660237836
 20
692.9269463813266
 30
0.0
 11
404.5606660237836
 21
687.9269463813266
 31
0.0
  0
ARC
  5
101A
330
A
100
AcDbEntity
  8
MODEL
  6
Continuous
100
AcDbCircle
 10
430.0583788127833
 20
767.4253417397267
 30
0.0
 40
56.2334680074726
100
AcDbArc
 50
79.28892702939991
 51
83.08503006920002
  0
ARC
  5
101B
330
A
100
AcDbEntity
  8
MODEL
  6
Continuous
100
AcDbCircle
 10
452.6534885921833
 20
2104.482416246527
 30
0.0
 40
1281.336967648869
100
AcDbArc
 50
269.3926967891
 51
271.2022758403
  0
SPLINE
  5
101C
330
A
100
AcDbEntity
  8
MODEL
  6
Continuous
100
AcDbSpline
210
0.0
220
0.0
230
1.0
 70
     8
 71
     3
 72
    16
 73
    12
 74
     0
 42
0.000000001
 43
0.0000000001
 40
0.0
 40
0.0
 40
0.0
 40
0.0
 40
0.1025133079130672
 40
0.2505105408538335
 40
0.3954700983346073
 40
0.5006898730837882
 40
0.6187128910924107
 40
0.7282953303001053
 40
0.8288078740005893
 40
0.9195813257482357
 40
1.0
 40
1.0
 40
1.0
 40
1.0
 10
434.7993875035922
 20
824.5066744321134
 30
0.0
 10
434.8708101832235
 20
824.4486985882786
 30
0.0
 10
435.0453449286915
 20
824.3070237141462
 30
0.0
 10
435.3155737658594
 20
824.087593996223
 30
0.0
 10
435.5849819841978
 20
823.8783574772356
 30
0.0
 10
435.8341402843303
 20
823.7006826619743
 30
0.0
 10
436.0573321563083
 20
823.5539883378708
 30
0.0
 10
436.2767396643553
 20
823.4297208880444
 30
0.0
 10
436.4784508812959
 20
823.3390642371228
 30
0.0
 10
436.6614942893216
 20
823.2777406813386
 30
0.0
 10
436.7752213250496
 20
823.2586766691738
 30
0.0
 10
436.8286756290745
 20
823.2497629652962
 30
0.0
  0
LINE
  5
101D
330
A
100
AcDbEntity
  8
MODEL
  6
Continuous
100
AcDbLine
 10
401.1245772741836
 20
826.7763782751267
 30
0.0
 11
434.4425544061837
 21
826.7763783545267
 31
0.0
  0
LINE
  5
101E
330
A
100
AcDbEntity
  8
MODEL
  6
Continuous
100
AcDbLine
 10
434.4425544061837
 20
826.7763783545267
 30
0.0
 11
439.0734260947834
 21
826.7763783655266
 31
0.0
  0
LINE
  5
101F
330
A
100
AcDbEntity
  8
MODEL
  6
Continuous
100
AcDbLine
 10
480.0110560713833
 20
826.7763784631265
 30
0.0
 11
439.0734259983833
 21
826.7763783655266
 31
0.0
  0
LINE
  5
1020
330
A
100
AcDbEntity
  8
MODEL
  6
Continuous
100
AcDbLine
 10
400.9245765773835
 20
792.6303071695268
 30
0.0
 11
440.2007424967837
 21
792.6303071695268
 31
0.0
  0
LINE
  5
1021
330
A
100
AcDbEntity
  8
MODEL
  6
Continuous
100
AcDbLine
 10
440.5008258195835
 20
792.9302173253268
 30
0.0
 11
440.5097350041833
 21
822.6790482029267
 31
0.0
  0
LINE
  5
1022
330
A
100
AcDbEntity
  8
MODEL
  6
Continuous
100
AcDbLine
 10
400.6245772747834
 20
826.2763782751267
 30
0.0
 11
400.6245772747834
 21
792.9303071695267
 31
0.0
  0
LINE
  5
1023
330
A
100
AcDbEntity
  8
MODEL
  6
Continuous
100
AcDbLine
 10
480.5113834667836
 20
824.5705512531267
 30
0.0
 11
480.5113834087833
 21
826.2763784807266
 31
0.0
  0
SPLINE
  5
1024
330
A
100
AcDbEntity
  8
MODEL
  6
Continuous
100
AcDbSpline
210
0.0
220
0.0
230
1.0
 70
     8
 71
     3
 72
    28
 73
    24
 74
     0
 42
0.000000001
 43
0.0000000001
 40
0.0
 40
0.0
 40
0.0
 40
0.0
 40
0.0419082746605451
 40
0.1209429203722313
 40
0.1994125397477415
 40
0.2737188282726968
 40
0.3414683187975138
 40
0.4024893739267441
 40
0.4619222146210812
 40
0.5133861512222361
 40
0.5569745064193187
 40
0.5932612727478802
 40
0.6238285729013787
 40
0.6648870299013758
 40
0.7026468101931037
 40
0.7423554429133427
 40
0.7869085150105269
 40
0.8130889502499653
 40
0.8417970942224633
 40
0.8742054348102445
 40
0.9119511300581331
 40
0.956717408718607
 40
1.0
 40
1.0
 40
1.0
 40
1.0
 10
440.5097736393782
 20
822.679048209359
 30
0.0
 10
441.1097904935477
 20
822.6790482128445
 30
0.0
 10
442.5804677398201
 20
822.6790481863443
 30
0.0
 10
445.2411987749156
 20
822.6790484800217
 30
0.0
 10
448.2380230933227
 20
822.6790474095587
 30
0.0
 10
451.1134161174537
 20
822.6790511469649
 30
0.0
 10
453.7554283463724
 20
822.6790370563813
 30
0.0
 10
456.2053255835672
 20
822.6788783555344
 30
0.0
 10
458.442905914429
 20
822.6784370256305
 30
0.0
 10
460.4536692514134
 20
822.6775389797158
 30
0.0
 10
462.1631488190078
 20
822.6760175143868
 30
0.0
 10
463.6006447571717
 20
822.6737949068613
 30
0.0
 10
465.0052105457507
 20
822.6715697765369
 30
0.0
 10
466.4289540682498
 20
822.6709505529348
 30
0.0
 10
467.9716680761253
 20
822.6779042542391
 30
0.0
 10
469.5597902543955
 20
822.6968357325281
 30
0.0
 10
470.996961322714
 20
822.7264684818108
 30
0.0
 10
472.2908914956975
 20
822.7615879306375
 30
0.0
 10
473.4262978267129
 20
822.7950682310347
 30
0.0
 10
474.7133365790633
 20
822.8564891773931
 30
0.0
 10
476.1971432832866
 20
822.9758067952009
 30
0.0
 10
477.8573438037683
 20
823.1672178000163
 30
0.0
 10
478.9070913234164
 20
823.3320331665896
 30
0.0
 10
479.5190208192676
 20
823.4298202401037
 30
0.0
  0
ARC
  5
1025
330
A
100
AcDbEntity
  8
MODEL
  6
Continuous
100
AcDbCircle
 10
479.3540356631834
 20
824.5699509637266
 30
0.0
 40
1.157133532024266
100
AcDbArc
 50
279.1952613419151
 51
359.9995966025041
  0
ARC
  5
1026
330
A
100
AcDbEntity
  8
MODEL
  6
Continuous
100
AcDbCircle
 10
401.1245772747834
 20
826.2763782751267
 30
0.0
 40
0.4999999999999734
100
AcDbArc
 50
90.00000013996802
 51
179.9810666643124
  0
SPLINE
  5
1027
330
A
100
AcDbEntity
  8
MODEL
  6
Continuous
100
AcDbSpline
210
0.0
220
0.0
230
1.0
 70
    12
 71
     2
 72
     6
 73
     3
 74
     0
 42
0.000000001
 43
0.0000000001
 40
0.0
 40
0.0
 40
0.0
 40
1.0
 40
1.0
 40
1.0
 10
480.511027014958
 20
826.2791142490992
 30
0.0
 41
1.0
 10
480.5083026068101
 20
826.7770425155692
 30
0.0
 41
0.7085679509148222
 10
480.0103824934135
 20
826.7763780179012
 30
0.0
 41
1.0
  0
ARC
  5
1028
330
A
100
AcDbEntity
  8
MODEL
  6
Continuous
100
AcDbCircle
 10
440.2007470211834
 20
792.9303071685267
 30
0.0
 40
0.299998336022234
100
AcDbArc
 50
269.9696654070111
 51
359.9832392692865
  0
ARC
  5
1029
330
A
100
AcDbEntity
  8
MODEL
  6
Continuous
100
AcDbCircle
 10
400.9246155367837
 20
792.9303071687268
 30
0.0
 40
0.2999992381619284
100
AcDbArc
 50
180.0340113249267
 51
270.0146994810428
  0
LINE
  5
102A
330
A
100
AcDbEntity
  8
MODEL
  6
Continuous
100
AcDbLine
 10
403.5854402973837
 20
691.9360427423267
 30
0.0
 11
403.5854402973837
 21
689.5342573973267
 31
0.0
  0
LINE
  5
102B
330
A
100
AcDbEntity
  8
MODEL
  6
Continuous
100
AcDbLine
 10
420.5606660237836
 20
697.9269468401267
 30
0.0
 11
395.8106660237836
 21
697.9269468401267
 31
0.0
  0
LINE
  5
102C
330
A
100
AcDbEntity
  8
MODEL
  6
Continuous
100
AcDbLine
 10
400.7764554867836
 20
678.4269463813266
 30
0.0
 11
380.4485341549835
 21
678.4269463813266
 31
0.0
  0
LINE
  5
102D
102
{ACAD_REACTORS
330
11CD
102
}
330
A
100
AcDbEntity
  8
MODEL
  6
Continuous
100
AcDbLine
 10
437.5162187665833
 20
689.6323646687267
 30
0.0
 11
437.5162187665833
 21
691.9360427423267
 31
0.0
  0
LINE
  5
102E
330
A
100
AcDbEntity
  8
MODEL
  6
Continuous
100
AcDbLine
 10
440.8042301927835
 20
678.4269463813266
 30
0.0
 11
465.1332712565836
 21
678.4269463813266
 31
0.0
  0
LINE
  5
102F
330
A
100
AcDbEntity
  8
MODEL
  6
Continuous
100
AcDbLine
 10
513.6125860053835
 20
764.2303153455266
 30
0.0
 11
523.8928621319833
 21
767.3733111711267
 31
0.0
  0
LINE
  5
1030
330
A
100
AcDbEntity
  8
DIM
100
AcDbLine
 10
513.6125860053835
 20
764.2303153455266
 30
0.0
 11
513.6125860053835
 21
744.2303153455266
 31
0.0
  0
LINE
  5
1031
330
A
100
AcDbEntity
  8
DIM
100
AcDbLine
 10
513.6125860053835
 20
764.2303153455266
 30
0.0
 11
520.2403119493833
 21
764.2303153455266
 31
0.0
  0
LINE
  5
1032
330
A
100
AcDbEntity
  8
DIM
100
AcDbLine
 10
513.6125860053835
 20
764.2303153455266
 30
0.0
 11
519.4600200997834
 21
745.1042202261267
 31
0.0
  0
LINE
  5
1033
330
A
100
AcDbEntity
  8
MODEL
  6
CENTER2
100
AcDbLine
 10
420.5606660237836
 20
623.9269468401267
 30
0.0
 11
420.5606660237836
 21
619.9269468401267
 31
0.0
  0
LINE
  5
1034
330
A
100
AcDbEntity
  8
MODEL
  6
CENTER2
100
AcDbLine
 10
403.5854402973837
 20
697.9269468401267
 30
0.0
 11
403.5854402973837
 21
689.6404094239267
 31
0.0
  0
LINE
  5
1035
330
A
100
AcDbEntity
  8
MODEL
  6
CENTER2
100
AcDbLine
 10
403.5854402973837
 20
687.5286349591267
 30
0.0
 11
403.5854402973837
 21
678.4269463813266
 31
0.0
  0
HATCH
  5
1036
330
A
100
AcDbEntity
  8
MODEL
  6
Continuous
100
AcDbHatch
 10
0.0
 20
0.0
 30
0.0
210
0.0
220
0.0
230
1.0
  2
LINE
 70
     0
 71
     0
 91
        1
 92
        1
 93
        7
 72
     1
 10
381.1188983642569
 20
689.7216315186915
 11
390.3782171709906
 21
689.7216315186915
 72
     1
 10
390.3782171709904
 20
689.7216315186915
 11
390.3782171709904
 21
692.1582943625688
 72
     1
 10
390.3782171709904
 20
692.158294362569
 11
403.5854402973503
 21
689.6404094238958
 72
     1
 10
403.5854402973505
 20
689.6404094238956
 11
403.5854402973505
 21
697.9269468401758
 72
     1
 10
403.5854402973505
 20
697.9269468401758
 11
397.6715423590951
 21
697.9269468401758
 72
     1
 10
397.6715423590949
 20
697.9269468401758
 11
381.1188983642567
 21
697.9269468401758
 72
     1
 10
381.1188983642569
 20
697.9269468401758
 11
381.1188983642569
 21
689.7216315186915
 97
        0
 75
     0
 76
     2
 52
45.0
 41
2.0
 77
     0
 78
     1
 53
45.0
 43
289.5749994803837
 44
432.6500836979267
 45
-4.490128060534576
 46
4.490128060534576
 79
     0
 98
        0
  0
LINE
  5
1037
330
A
100
AcDbEntity
  8
MODEL
  6
CENTER2
100
AcDbLine
 10
381.1188983641837
 20
697.9269468401267
 30
0.0
 11
403.5854402973837
 21
697.9269468401267
 31
0.0
  0
LINE
  5
1038
330
A
100
AcDbEntity
  8
MODEL
  6
Continuous
100
AcDbLine
 10
397.6715423591836
 20
697.9269468401267
 30
0.0
 11
380.4485341549835
 21
697.9269468401267
 31
0.0
  0
HATCH
  5
1039
330
A
100
AcDbEntity
  8
MODEL
  6
Continuous
100
AcDbHatch
 10
0.0
 20
0.0
 30
0.0
210
0.0
220
0.0
230
1.0
  2
LINE
 70
     0
 71
     0
 91
        1
 92
        1
 93
        7
 72
     1
 10
390.3782171709904
 20
685.0919721153248
 11
390.3782171709904
 21
686.9600802956306
 72
     1
 10
390.3782171709904
 20
686.9600802956306
 11
381.3625646486444
 21
686.9600802956306
 72
     1
 10
381.3625646486448
 20
686.9600802956306
 11
381.3625646486448
 21
678.4269463812489
 72
     1
 10
381.3625646486448
 20
678.4269463812489
 11
396.5261458412427
 21
678.4269463812489
 72
     1
 10
396.5261458412424
 20
678.4269463812489
 11
403.5854402973504
 21
678.4269463812489
 72
     1
 10
403.5854402973505
 20
678.4269463812489
 11
403.5854402973505
 21
687.528634959202
 72
     1
 10
403.5854402973505
 20
687.528634959202
 11
390.3782171709906
 21
685.0919721153248
 97
        0
 75
     0
 76
     2
 52
45.0
 41
2.0
 77
     0
 78
     1
 53
45.0
 43
289.5749994803837
 44
432.6500836979267
 45
-4.490128060534576
 46
4.490128060534576
 79
     0
 98
        0
  0
LINE
  5
103A
330
A
100
AcDbEntity
  8
MODEL
  6
CENTER2
100
AcDbLine
 10
403.5854402973837
 20
678.4269463813266
 30
0.0
 11
381.3625646485834
 21
678.4269463813266
 31
0.0
  0
LINE
  5
103B
330
A
100
AcDbEntity
  8
MODEL
  6
Continuous
100
AcDbLine
 10
444.5261458411837
 20
678.4269463813266
 30
0.0
 11
396.5261458411833
 21
678.4269463813266
 31
0.0
  0
LINE
  5
103C
330
A
100
AcDbEntity
  8
MODEL
  6
Continuous
100
AcDbLine
 10
403.5854402973837
 20
697.9269468401267
 30
0.0
 11
403.5854402973837
 21
678.4269463813266
 31
0.0
  0
LINE
  5
103D
330
A
100
AcDbEntity
  8
MODEL
  6
CENTER2
100
AcDbLine
 10
463.8029908665835
 20
697.9269468401267
 30
0.0
 11
437.5162187665833
 21
697.9805499657266
 31
0.0
  0
LINE
  5
103E
330
A
100
AcDbEntity
  8
MODEL
  6
CENTER2
100
AcDbLine
 10
437.5162187665833
 20
697.9805499657266
 30
0.0
 11
437.5155311857834
 21
689.4779629297268
 31
0.0
  0
LINE
  5
103F
330
A
100
AcDbEntity
  8
MODEL
  6
CENTER2
100
AcDbLine
 10
437.5146375207837
 20
678.4269463813266
 30
0.0
 11
437.5153407079833
 21
687.1225221959266
 31
0.0
  0
HATCH
  5
1040
330
A
100
AcDbEntity
  8
MODEL
  6
Continuous
100
AcDbHatch
 10
0.0
 20
0.0
 30
0.0
210
0.0
220
0.0
230
1.0
  2
LINE
 70
     0
 71
     0
 91
        1
 92
        1
 93
        8
 72
     1
 10
437.5155311858653
 20
689.4779629296661
 11
450.4825673199634
 21
691.7521838885893
 72
     1
 10
450.4825673199634
 20
691.7521838885896
 11
450.4825673199634
 21
689.3967431395082
 72
     1
 10
450.4825673199634
 20
689.3967431395081
 11
463.8029908664927
 21
689.3967431395081
 72
     1
 10
463.8029908664926
 20
689.3967431395081
 11
463.8029908664926
 21
697.9269468401759
 72
     1
 10
463.8029908664926
 20
697.9269468401758
 11
445.3106660238193
 21
697.9269468401758
 72
     1
 10
445.3106660238195
 20
697.9269468401758
 11
442.4084670305436
 21
697.9269468401758
 72
     1
 10
442.4084670305438
 20
697.9269468401758
 11
437.5162144317648
 21
697.9269468401758
 72
     1
 10
437.5162144317646
 20
697.9269468401758
 11
437.5155311858655
 21
689.477962929666
 97
        0
 75
     0
 76
     2
 52
45.0
 41
2.0
 77
     0
 78
     1
 53
45.0
 43
289.5749994803837
 44
432.6500836979267
 45
-4.490128060534576
 46
4.490128060534576
 79
     0
 98
        0
  0
LINE
  5
1041
330
A
100
AcDbEntity
  8
MODEL
  6
Continuous
100
AcDbLine
 10
442.4084670305833
 20
697.9269468401267
 30
0.0
 11
465.1332712565836
 21
697.9269468401267
 31
0.0
  0
LINE
  5
1042
330
A
100
AcDbEntity
  8
MODEL
  6
Continuous
100
AcDbLine
 10
445.3106660237836
 20
697.9269468401267
 30
0.0
 11
420.5606660237836
 21
697.9269468401267
 31
0.0
  0
HATCH
  5
1043
330
A
100
AcDbEntity
  8
MODEL
  6
Continuous
100
AcDbHatch
 10
0.0
 20
0.0
 30
0.0
210
0.0
220
0.0
230
1.0
  2
LINE
 70
     0
 71
     0
 91
        1
 92
        1
 93
        6
 72
     1
 10
437.5146375208024
 20
678.4269463812489
 11
463.8029908664928
 21
678.4859356371809
 72
     1
 10
463.8029908664926
 20
678.4859356371808
 11
463.8029908664926
 21
687.2037465800183
 72
     1
 10
463.8029908664926
 20
687.2037465800186
 11
450.7262336043511
 21
687.2037465800186
 72
     1
 10
450.7262336043514
 20
687.2037465800186
 11
450.7262336043514
 21
684.7670837361411
 72
     1
 10
450.7262336043514
 20
684.7670837361411
 11
437.5153407079051
 21
687.1225221959883
 72
     1
 10
437.5153407079051
 20
687.1225221959883
 11
437.5146375208025
 21
678.4269463812489
 97
        0
 75
     0
 76
     2
 52
45.0
 41
2.0
 77
     0
 78
     1
 53
45.0
 43
289.5749994803837
 44
432.6500836979267
 45
-4.490128060534576
 46
4.490128060534576
 79
     0
 98
        0
  0
LINE
  5
1044
330
A
100
AcDbEntity
  8
MODEL
  6
Continuous
100
AcDbLine
 10
437.5162187665833
 20
697.9805499657266
 30
0.0
 11
437.5146375207837
 21
678.4269463813266
 31
0.0
  0
LINE
  5
1045
330
A
100
AcDbEntity
  8
MODEL
  6
CENTER2
100
AcDbLine
 10
463.8029908665835
 20
678.4859356371267
 30
0.0
 11
437.5146375207837
 21
678.4269463813266
 31
0.0
  0
LINE
  5
1046
330
A
100
AcDbEntity
  8
DIM
100
AcDbLine
 10
513.6125860053835
 20
744.2303153455266
 30
0.0
 11
513.6125860053835
 21
705.3306032257267
 31
0.0
  0
LINE
  5
1047
330
A
100
AcDbEntity
  8
MODEL
  6
Continuous
100
AcDbLine
 10
410.1183069601834
 20
660.9269463813266
 30
0.0
 11
410.1183069601834
 21
660.4269468401267
 31
0.0
  0
LINE
  5
1048
330
A
100
AcDbEntity
  8
MODEL
  6
Continuous
100
AcDbLine
 10
431.0783069601835
 20
660.4269468401267
 30
0.0
 11
431.0783069601835
 21
660.9269463813266
 31
0.0
  0
LINE
  5
1049
330
A
100
AcDbEntity
  8
MODEL
  6
Continuous
100
AcDbLine
 10
411.2833069601834
 20
660.4269468401267
 30
0.0
 11
411.2833069601834
 21
660.9269463813266
 31
0.0
  0
LINE
  5
104A
330
A
100
AcDbEntity
  8
MODEL
  6
Continuous
100
AcDbLine
 10
429.9133069601835
 20
660.4269468401267
 30
0.0
 11
429.9133069601835
 21
660.9269463813266
 31
0.0
  0
LINE
  5
104B
330
A
100
AcDbEntity
  8
MODEL
  6
Continuous
100
AcDbLine
 10
433.5983069601834
 20
660.9269463813266
 30
0.0
 11
420.5983069601834
 21
660.9269463813266
 31
0.0
  0
LINE
  5
104C
330
A
100
AcDbEntity
  8
MODEL
  6
Continuous
100
AcDbLine
 10
420.5983069601834
 20
660.9269463813266
 30
0.0
 11
407.5983069601834
 21
660.9269463813266
 31
0.0
  0
CIRCLE
  5
104D
102
{ACAD_REACTORS
330
11DF
102
}
330
A
100
AcDbEntity
  8
MODEL
  6
Continuous
100
AcDbCircle
 10
705.8871813751274
 20
995.1172346129373
 30
0.0
 40
17.5
  0
SPLINE
  5
104E
330
A
100
AcDbEntity
  8
MODEL
  6
Continuous
100
AcDbSpline
210
0.0
220
0.0
230
1.0
 70
     8
 71
     3
 72
    39
 73
    35
 74
     0
 42
0.000000001
 43
0.0000000001
 40
0.0
 40
0.0
 40
0.0
 40
0.0
 40
0.022752006512403
 40
0.0664770582170713
 40
0.0983709226625418
 40
0.1419605779624436
 40
0.1740653747866241
 40
0.1977402908454706
 40
0.2121810447226885
 40
0.222095293285073
 40
0.2326406216211132
 40
0.2412202173866534
 40
0.2535357660450639
 40
0.2726585546910235
 40
0.2937672738574717
 40
0.3222460687442033
 40
0.3340945785154687
 40
0.3511428175347522
 40
0.3802445854481975
 40
0.4263953390303565
 40
0.4953967222815197
 40
0.5315571693828348
 40
0.5760578402313109
 40
0.6163244912549455
 40
0.6382094076615642
 40
0.6571801500542157
 40
0.697522933121097
 40
0.7377258165822713
 40
0.7578215453086614
 40
0.7774450872327714
 40
0.8152817533710194
 40
0.8694330196620865
 40
0.9651034662575814
 40
1.0
 40
1.0
 40
1.0
 40
1.0
 10
496.679414403171
 20
978.6603111535611
 30
0.0
 10
497.349920985353
 20
978.6644489849815
 30
0.0
 10
499.3086426824207
 20
978.6768500937336
 30
0.0
 10
502.2054915436088
 20
978.6967089080716
 30
0.0
 10
505.7102734194673
 20
978.7240329997143
 30
0.0
 10
508.8693508540428
 20
978.7528378193809
 30
0.0
 10
511.7830234647395
 20
978.7882039741829
 30
0.0
 10
513.8369576615737
 20
978.8236514543704
 30
0.0
 10
515.2345367852913
 20
978.863220701826
 30
0.0
 10
516.2602964952534
 20
978.907321157836
 30
0.0
 10
517.1131395459297
 20
978.9878497368392
 30
0.0
 10
518.0149671538661
 20
979.162251445914
 30
0.0
 10
519.1411943852199
 20
979.4735341246866
 30
0.0
 10
520.5874120191634
 20
980.0081711013373
 30
0.0
 10
522.4026617172508
 20
980.8870253172441
 30
0.0
 10
523.9188654630643
 20
981.8764884530736
 30
0.0
 10
525.2224875441234
 20
982.945940437662
 30
0.0
 10
526.4584576778038
 20
984.132831067033
 30
0.0
 10
528.1788776037665
 20
986.2592890501804
 30
0.0
 10
530.1579363782616
 20
990.0814565655795
 30
0.0
 10
530.8967852585051
 20
994.6365045920121
 30
0.0
 10
530.3160850965828
 20
999.0597977261126
 30
0.0
 10
529.0797740304329
 20
1002.457675472799
 30
0.0
 10
527.3816311467917
 20
1005.140265225248
 30
0.0
 10
525.7816941118845
 20
1006.920871225472
 30
0.0
 10
523.9705420901469
 20
1008.475720393289
 30
0.0
 10
521.4120925380162
 20
1009.930451125881
 30
0.0
 10
518.6098015145817
 20
1010.904709871376
 30
0.0
 10
516.2894082103203
 20
1011.271390089173
 30
0.0
 10
514.0232749417719
 20
1011.405096234094
 30
0.0
 10
510.7559834687818
 20
1011.460975868602
 30
0.0
 10
505.2534856633142
 20
1011.522486605359
 30
0.0
 10
499.8135009193752
 20
1011.562580470798
 30
0.0
 10
495.9653561340506
 20
1011.588499341034
 30
0.0
 10
494.9366070253986
 20
1011.595243253319
 30
0.0
  0
SPLINE
  5
104F
330
A
100
AcDbEntity
  8
MODEL
  6
Continuous
100
AcDbSpline
210
0.0
220
0.0
230
1.0
 70
     8
 71
     3
 72
    58
 73
    54
 74
     0
 42
0.000000001
 43
0.0000000001
 40
0.0
 40
0.0
 40
0.0
 40
0.0
 40
0.0625000000000001
 40
0.0625000000000001
 40
0.1250000000000002
 40
0.1250000000000002
 40
0.2500000000000003
 40
0.2500000000000003
 40
0.3125000000000002
 40
0.3125000000000002
 40
0.3437500000000001
 40
0.3437500000000001
 40
0.375
 40
0.375
 40
0.390625
 40
0.390625
 40
0.4062499999999999
 40
0.4062499999999999
 40
0.4218749999999999
 40
0.4218749999999999
 40
0.4374999999999999
 40
0.4374999999999999
 40
0.4531249999999999
 40
0.4531249999999999
 40
0.4687499999999998
 40
0.4687499999999998
 40
0.4999999999999998
 40
0.4999999999999998
 40
0.5156249999999998
 40
0.5156249999999998
 40
0.5312499999999998
 40
0.5312499999999998
 40
0.5624999999999998
 40
0.5624999999999998
 40
0.5781249999999997
 40
0.5781249999999997
 40
0.5937499999999996
 40
0.5937499999999996
 40
0.6093749999999996
 40
0.6093749999999996
 40
0.6249999999999994
 40
0.6249999999999994
 40
0.6562499999999994
 40
0.6562499999999994
 40
0.6874999999999996
 40
0.6874999999999996
 40
0.7499999999999996
 40
0.7499999999999996
 40
0.8749999999999999
 40
0.8749999999999999
 40
0.9375
 40
0.9375
 40
1.0
 40
1.0
 40
1.0
 40
1.0
 10
434.7170110673214
 20
1011.807249793088
 30
0.0
 10
439.1032260969828
 20
1011.803977182835
 30
0.0
 10
443.4889699129985
 20
1011.798753205146
 30
0.0
 10
452.2580701109505
 20
1011.782588834132
 30
0.0
 10
456.6421263124621
 20
1011.771678144227
 30
0.0
 10
469.7819803701395
 20
1011.730262785595
 30
0.0
 10
478.5279187728688
 20
1011.691528401498
 30
0.0
 10
491.6221412505797
 20
1011.617336502268
 30
0.0
 10
495.9832621207747
 20
1011.590179490334
 30
0.0
 10
502.5108932536064
 20
1011.541605664485
 30
0.0
 10
504.684700090299
 20
1011.524266441333
 30
0.0
 10
509.0279295317409
 20
1011.481644735757
 30
0.0
 10
511.1984684977283
 20
1011.465564367431
 30
0.0
 10
514.446551710691
 20
1011.377250886222
 30
0.0
 10
515.5281994764546
 20
1011.341026716472
 30
0.0
 10
517.6761654591605
 20
1011.071828458509
 30
0.0
 10
518.7474199680328
 20
1010.818332812006
 30
0.0
 10
520.7841701791531
 20
1010.119799364463
 30
0.0
 10
521.7641805424487
 20
1009.683201924997
 30
0.0
 10
523.6464622212438
 20
1008.631148149143
 30
0.0
 10
524.5532720123629
 20
1007.995977253426
 30
0.0
 10
526.1521457205822
 20
1006.547589549517
 30
0.0
 10
526.8606878390792
 20
1005.735814973236
 30
0.0
 10
528.1270620423388
 20
1003.966668244797
 30
0.0
 10
528.6805164695288
 20
1003.011635330643
 30
0.0
 10
530.0461570310949
 20
1000.046441063716
 30
0.0
 10
530.5785591330946
 20
997.8733811368103
 30
0.0
 10
530.6965005792727
 20
994.6093528587702
 30
0.0
 10
530.6239072394242
 20
993.4980829294738
 30
0.0
 10
530.2613264469624
 20
991.3452458448013
 30
0.0
 10
529.9741063368001
 20
990.2962690518556
 30
0.0
 10
528.7931353317099
 20
987.2319459853803
 30
0.0
 10
527.6015725341399
 20
985.3687307712381
 30
0.0
 10
525.329511290463
 20
983.0157889849987
 30
0.0
 10
524.5054738344684
 20
982.3187203959939
 30
0.0
 10
522.7293691104783
 20
981.0915536381166
 30
0.0
 10
521.7681397572919
 20
980.55898141301
 30
0.0
 10
519.7942266481882
 20
979.6878228678614
 30
0.0
 10
518.780495736637
 20
979.3303763211323
 30
0.0
 10
516.6585838356104
 20
978.887110007755
 30
0.0
 10
515.543274973365
 20
978.8707513639146
 30
0.0
 10
512.2482637565322
 20
978.7832150019266
 30
0.0
 10
510.0480111998572
 20
978.7655996894731
 30
0.0
 10
505.6435374176349
 20
978.7227497388536
 30
0.0
 10
503.4390779871883
 20
978.7058046353505
 30
0.0
 10
496.8194055744889
 20
978.659138720844
 30
0.0
 10
492.3965539811043
 20
978.6341631595466
 30
0.0
 10
479.1154156147395
 20
978.566409997744
 30
0.0
 10
470.2487101600545
 20
978.531739272078
 30
0.0
 10
456.9326949585179
 20
978.4937874089616
 30
0.0
 10
452.4914733051555
 20
978.4836599215172
 30
0.0
 10
443.6035256635073
 20
978.4690184109767
 30
0.0
 10
439.1563410820436
 20
978.464578551212
 30
0.0
 10
434.7078839706501
 20
978.4627169892395
 30
0.0
  0
ARC
  5
1050
330
A
100
AcDbEntity
  8
MODEL
  6
Continuous
100
AcDbCircle
 10
434.7129056361837
 20
966.4627173491373
 30
0.0
 40
12.00000069072907
100
AcDbArc
 50
90.02397668560015
 51
116.1994038346
  0
ARC
  5
1051
330
A
100
AcDbEntity
  8
MODEL
  6
Continuous
100
AcDbCircle
 10
434.7259644033834
 20
1023.807246941537
 30
0.0
 40
12.00000048852423
100
AcDbArc
 50
243.7744113545997
 51
269.9572509667014
  0
ARC
  5
1052
330
A
100
AcDbEntity
  8
MODEL
  6
Continuous
100
AcDbCircle
 10
420.5483341993836
 20
995.1449108963374
 30
0.0
 40
19.98913176357495
100
AcDbArc
 50
180.0036869018998
 51
296.3319919749002
  0
ARC
  5
1053
330
A
100
AcDbEntity
  8
MODEL
  6
Continuous
100
AcDbCircle
 10
420.5507447711834
 20
995.1276149175372
 30
0.0
 40
19.99154870452866
100
AcDbArc
 50
63.65311794099937
 51
179.9541161752001
  0
ARC
  5
1054
330
A
100
AcDbEntity
  8
MODEL
  6
Continuous
100
AcDbCircle
 10
420.5592038037835
 20
995.1382087859373
 30
0.0
 40
24.75
100
AcDbArc
 50
42.3621000609994
 51
317.6317391934001
  0
SPLINE
  5
1055
330
A
100
AcDbEntity
  8
MODEL
  6
Continuous
100
AcDbSpline
210
0.0
220
0.0
230
1.0
 70
     8
 71
     3
 72
     8
 73
     4
 74
     0
 42
0.000000001
 43
0.0000000001
 40
0.0
 40
0.0
 40
0.0
 40
0.0
 40
1.0
 40
1.0
 40
1.0
 40
1.0
 10
439.069321306627
 20
982.9500511546338
 30
0.0
 10
444.0428905355593
 20
982.9564455894073
 30
0.0
 10
449.0164598402098
 20
982.9628400242833
 30
0.0
 10
453.989621149758
 20
982.9509565186744
 30
0.0
  0
SPLINE
  5
1056
330
A
100
AcDbEntity
  8
MODEL
  6
Continuous
100
AcDbSpline
210
0.0
220
0.0
230
1.0
 70
     8
 71
     3
 72
    25
 73
    21
 74
     0
 42
0.000000001
 43
0.0000000001
 40
0.0
 40
0.0
 40
0.0
 40
0.0
 40
0.0058411868456089
 40
0.0658885162505238
 40
0.1350942044966845
 40
0.1671132251776523
 40
0.2092655168205242
 40
0.256898982459646
 40
0.3551249475504005
 40
0.4279759229283169
 40
0.5008544824754777
 40
0.5743087440738304
 40
0.6473051706761758
 40
0.7199891183360556
 40
0.7926627646687167
 40
0.8666466024962833
 40
0.9025009682859672
 40
0.9385062623051622
 40
0.9950300803764932
 40
1.0
 40
1.0
 40
1.0
 40
1.0
 10
464.95305096729
 20
982.9042666804306
 30
0.0
 10
465.0387634927788
 20
982.9040649423604
 30
0.0
 10
466.0055483000847
 20
982.9020932538186
 30
0.0
 10
467.9864793635506
 20
982.905769541274
 30
0.0
 10
470.3617708932388
 20
983.0363560890988
 30
0.0
 10
472.410095173776
 20
983.545823711347
 30
0.0
 10
474.0625862246438
 20
984.2545366773674
 30
0.0
 10
476.3741647613201
 20
985.7852976612645
 30
0.0
 10
478.5507896868289
 20
988.238923306828
 30
0.0
 10
480.0885816969503
 20
991.5101074255211
 30
0.0
 10
480.6582186618452
 20
994.7198198382274
 30
0.0
 10
480.3017511904277
 20
997.9632279776105
 30
0.0
 10
479.0924037639998
 20
1000.982663259621
 30
0.0
 10
477.1900266918528
 20
1003.600863063925
 30
0.0
 10
474.6969223471133
 20
1005.692978088794
 30
0.0
 10
472.1992632403421
 20
1006.786781280828
 30
0.0
 10
470.0860839049506
 20
1007.160332699198
 30
0.0
 10
468.2051923120052
 20
1007.288887460815
 30
0.0
 10
466.7740153502032
 20
1007.301159003068
 30
0.0
 10
465.8713672035201
 20
1007.303236413049
 30
0.0
 10
465.7984153056814
 20
1007.303369709274
 30
0.0
  0
LINE
  5
1057
330
A
100
AcDbEntity
  8
MODEL
  6
Continuous
100
AcDbLine
 10
439.0694733067835
 20
982.9500513597374
 30
0.0
 11
439.0693213065833
 21
982.9500511545374
 31
0.0
  0
SPLINE
  5
1058
330
A
100
AcDbEntity
  8
MODEL
  6
Continuous
100
AcDbSpline
210
0.0
220
0.0
230
1.0
 70
     8
 71
     3
 72
    42
 73
    38
 74
     0
 42
0.000000001
 43
0.0000000001
 40
0.0
 40
0.0
 40
0.0
 40
0.0
 40
0.2500000000000001
 40
0.2500000000000001
 40
0.2812500000000001
 40
0.2812500000000001
 40
0.3125000000000001
 40
0.3125000000000001
 40
0.3437500000000002
 40
0.3437500000000002
 40
0.3750000000000002
 40
0.3750000000000002
 40
0.4062500000000002
 40
0.4062500000000002
 40
0.4375000000000002
 40
0.4375000000000002
 40
0.4687500000000002
 40
0.4687500000000002
 40
0.5000000000000002
 40
0.5000000000000002
 40
0.5312500000000002
 40
0.5312500000000002
 40
0.5625000000000002
 40
0.5625000000000002
 40
0.5937500000000002
 40
0.5937500000000002
 40
0.6250000000000002
 40
0.6250000000000002
 40
0.6562500000000003
 40
0.6562500000000003
 40
0.6875000000000003
 40
0.6875000000000003
 40
0.7187500000000003
 40
0.7187500000000003
 40
0.7500000000000003
 40
0.7500000000000003
 40
1.0
 40
1.0
 40
1.0
 40
1.0
 10
439.0760593322939
 20
1007.27173622556
 30
0.0
 10
447.1521224851122
 20
1007.256478756964
 30
0.0
 10
455.2282015244141
 20
1007.26104176955
 30
0.0
 10
464.3137473569454
 20
1007.302480376424
 30
0.0
 10
465.3232524918744
 20
1007.307214099582
 30
0.0
 10
467.3422558516713
 20
1007.295599964555
 30
0.0
 10
468.3539570530693
 20
1007.284090643217
 30
0.0
 10
470.366050248685
 20
1007.124576209411
 30
0.0
 10
471.3534794553916
 20
1006.962608735585
 30
0.0
 10
473.25922926973
 20
1006.333505590394
 30
0.0
 10
474.1736508030353
 20
1005.871725415686
 30
0.0
 10
475.8273462376337
 20
1004.749073725485
 30
0.0
 10
476.5928106603296
 20
1004.073384573344
 30
0.0
 10
477.9354156163267
 20
1002.577486689592
 30
0.0
 10
478.5178310422402
 20
1001.756083683112
 30
0.0
 10
479.4885715404234
 20
999.980315106632
 30
0.0
 10
479.8616966088657
 20
999.0532293946561
 30
0.0
 10
480.3746956679997
 20
997.1175954590589
 30
0.0
 10
480.5099766562662
 20
996.1009349445511
 30
0.0
 10
480.5098500630625
 20
994.1032508513755
 30
0.0
 10
480.3766118134549
 20
993.0955569896513
 30
0.0
 10
479.8606278959128
 20
991.14747235228
 30
0.0
 10
479.4851564198793
 20
990.2183645751287
 30
0.0
 10
478.5142344265341
 20
988.4442884316544
 30
0.0
 10
477.9303957308489
 20
987.6223289152491
 30
0.0
 10
476.5906841626506
 20
986.1309705799102
 30
0.0
 10
475.8223697041253
 20
985.4531561522755
 30
0.0
 10
474.1703901863311
 20
984.3326189704788
 30
0.0
 10
473.2726154484849
 20
983.8772530177156
 30
0.0
 10
471.3481884147059
 20
983.2410355904814
 30
0.0
 10
470.3578440098859
 20
983.0801112430373
 30
0.0
 10
468.3478692513918
 20
982.9219009416375
 30
0.0
 10
467.3351382113219
 20
982.9108676021905
 30
0.0
 10
465.3161683158496
 20
982.9003639947624
 30
0.0
 10
464.3066785145852
 20
982.9056426183707
 30
0.0
 10
455.2212708363677
 20
982.9519934561034
 30
0.0
 10
447.1453678004982
 20
982.9609346146452
 30
0.0
 10
439.0694733068417
 20
982.9500513597094
 30
0.0
  0
ARC
  5
1059
330
A
100
AcDbEntity
  8
MODEL
  6
Continuous
100
AcDbCircle
 10
439.0775590309836
 20
976.9500567763374
 30
0.0
 40
6.000000031626834
100
AcDbArc
 50
90.0772130016026
 51
135.5507173507013
  0
ARC
  5
105A
330
A
100
AcDbEntity
  8
MODEL
  6
Continuous
100
AcDbCircle
 10
439.0873946365837
 20
1013.271725549737
 30
0.0
 40
6.000000031615448
100
AcDbArc
 50
224.4182522105972
 51
269.8917557530961
  0
ARC
  5
105B
330
A
100
AcDbEntity
  8
MODEL
  6
Continuous
100
AcDbCircle
 10
420.5638249413837
 20
995.1159058597372
 30
0.0
 40
19.93754854509594
100
AcDbArc
 50
44.42776953180045
 51
315.5412000282
  0
ARC
  5
105C
330
A
100
AcDbEntity
  8
MODEL
  6
Continuous
100
AcDbCircle
 10
420.5606660237836
 20
995.1172346129373
 30
0.0
 40
19.92691131530096
100
AcDbArc
 50
44.3985418660004
 51
160.5461240266001
  0
ARC
  5
105D
330
A
100
AcDbEntity
  8
MODEL
  6
Continuous
100
AcDbCircle
 10
420.5606660237836
 20
995.1172346129373
 30
0.0
 40
19.92691131530096
100
AcDbArc
 50
179.9883008287
 51
315.5545933710995
  0
SPLINE
  5
105E
330
A
100
AcDbEntity
  8
MODEL
  6
Continuous
100
AcDbSpline
210
0.0
220
0.0
230
1.0
 70
     8
 71
     3
 72
    27
 73
    23
 74
     0
 42
0.000000001
 43
0.0000000001
 40
0.0
 40
0.0
 40
0.0
 40
0.0
 40
0.0141885167393293
 40
0.0560311628960037
 40
0.0939152489128443
 40
0.1268843827956995
 40
0.1613879883188614
 40
0.2296361548959252
 40
0.2982195658842225
 40
0.3662126806932215
 40
0.4314743252256551
 40
0.5020778752612505
 40
0.5801892787118106
 40
0.6576835234776521
 40
0.715951807647903
 40
0.774232981773309
 40
0.8142643381062208
 40
0.8599327897591386
 40
0.9101294443154181
 40
0.948671468277208
 40
0.9793729397274804
 40
1.0
 40
1.0
 40
1.0
 40
1.0
 10
722.0808136384911
 20
779.1815904910075
 30
0.0
 10
722.0704191173353
 20
779.1434910625067
 30
0.0
 10
722.0220394507245
 20
778.9927883327041
 30
0.0
 10
721.8773715064466
 20
778.7392172637883
 30
0.0
 10
721.4567975136337
 20
778.4555726955018
 30
0.0
 10
720.8891964994394
 20
778.174687863491
 30
0.0
 10
719.971185325367
 20
777.8150839917485
 30
0.0
 10
718.4444240366423
 20
777.3838149390936
 30
0.0
 10
715.9256671132538
 20
776.9118961500553
 30
0.0
 10
713.0154118087738
 20
776.6387597849721
 30
0.0
 10
709.802928833168
 20
776.4550650895105
 30
0.0
 10
706.2317163866472
 20
776.3115511249855
 30
0.0
 10
702.429058081494
 20
776.4106272346371
 30
0.0
 10
699.0279341439453
 20
776.6466718298477
 30
0.0
 10
696.2458077915729
 20
776.9481213991608
 30
0.0
 10
694.2801907686238
 20
777.2019704329957
 30
0.0
 10
692.7500198897809
 20
777.5000187947123
 30
0.0
 10
691.5455735967997
 20
777.8636766592715
 30
0.0
 10
690.6242300661169
 20
778.192794225338
 30
0.0
 10
690.0195718969629
 20
778.5470222420361
 30
0.0
 10
689.7824656164315
 20
778.7882472208826
 30
0.0
 10
689.7343029574171
 20
778.9041152623604
 30
0.0
 10
689.7199576473153
 20
778.9555211027064
 30
0.0
  0
SPLINE
  5
105F
330
A
100
AcDbEntity
  8
MODEL
  6
Continuous
100
AcDbSpline
210
0.0
220
0.0
230
1.0
 70
     8
 71
     3
 72
     8
 73
     4
 74
     0
 42
0.000000001
 43
0.0000000001
 40
0.0
 40
0.0
 40
0.0
 40
0.0
 40
1.0
 40
1.0
 40
1.0
 40
1.0
 10
689.7089989459631
 20
778.9995226051562
 30
0.0
 10
689.7035932295552
 20
779.0236419908731
 30
0.0
 10
689.698691930122
 20
779.0491089086379
 30
0.0
 10
689.6941409341074
 20
779.0752707671338
 30
0.0
  0
ARC
  5
1060
330
A
100
AcDbEntity
  8
MODEL
  6
Continuous
100
AcDbCircle
 10
715.7743163067274
 20
1213.950189273927
 30
0.0
 40
422.2356304109712
100
AcDbArc
 50
270.8841042259
 51
271.3043108021999
  0
ARC
  5
1061
330
A
100
AcDbEntity
  8
MODEL
  6
Continuous
100
AcDbCircle
 10
695.9998927677274
 20
1214.383311280526
 30
0.0
 40
422.6686373737906
100
AcDbArc
 50
268.6971816842
 51
269.1188661928
  0
ARC
  5
1062
330
A
100
AcDbEntity
  8
MODEL
  6
Continuous
100
AcDbCircle
 10
723.0589230501272
 20
775.3199690771266
 30
0.0
 40
16.48781324245235
100
AcDbArc
 50
89.0047960798995
 51
93.3354990739004
  0
ARC
  5
1063
330
A
100
AcDbEntity
  8
MODEL
  6
Continuous
100
AcDbCircle
 10
688.7126642781271
 20
775.1361466313267
 30
0.0
 40
16.67154268651822
100
AcDbArc
 50
86.71047123959923
 51
90.97212118669962
  0
SPLINE
  5
1064
330
A
100
AcDbEntity
  8
MODEL
  6
Continuous
100
AcDbSpline
210
0.0
220
0.0
230
1.0
 70
     8
 71
     3
 72
    30
 73
    26
 74
     0
 42
0.000000001
 43
0.0000000001
 40
0.0
 40
0.0
 40
0.0
 40
0.0
 40
0.0573885254328751
 40
0.0573885254328751
 40
0.1147770508657503
 40
0.1147770508657503
 40
0.2295541017315006
 40
0.2295541017315006
 40
0.3443311525972511
 40
0.3443311525972511
 40
0.4591082034630014
 40
0.4591082034630014
 40
0.5164967288958766
 40
0.5164967288958766
 40
0.5738852543287519
 40
0.5738852543287519
 40
0.688662305194502
 40
0.688662305194502
 40
0.803439356060252
 40
0.803439356060252
 40
0.8608278814931266
 40
0.8608278814931266
 40
0.918216406926001
 40
0.918216406926001
 40
1.0
 40
1.0
 40
1.0
 40
1.0
 10
693.6371813751633
 20
769.6373001583775
 30
0.0
 10
693.6371813751633
 20
769.793465715321
 30
0.0
 10
693.7161932279677
 20
769.9189352771173
 30
0.0
 10
694.025041007981
 20
770.17332266475
 30
0.0
 10
694.2589131008216
 20
770.3014142535662
 30
0.0
 10
695.172627556003
 20
770.623019145004
 30
0.0
 10
696.0683547614843
 20
770.7390085130678
 30
0.0
 10
698.301726269411
 20
770.9389701353334
 30
0.0
 10
699.6579048110056
 20
771.0178588542676
 30
0.0
 10
702.5964948905847
 20
771.0912165373734
 30
0.0
 10
704.2120552873502
 20
771.0897494386011
 30
0.0
 10
706.6166808594988
 20
771.0897301665673
 30
0.0
 10
707.4317584395566
 20
771.0901615052917
 30
0.0
 10
709.0099739184824
 20
771.0827184095656
 30
0.0
 10
709.7761806823163
 20
771.0746887048153
 30
0.0
 10
712.0072915889258
 20
771.0225647945229
 30
0.0
 10
713.3584750079211
 20
770.9471090104214
 30
0.0
 10
715.6392014082379
 20
770.7648279640098
 30
0.0
 10
716.5372843012514
 20
770.6768687071833
 30
0.0
 10
717.4724746316709
 20
770.3646281099791
 30
0.0
 10
717.7110657396
 20
770.2325590892026
 30
0.0
 10
718.0394011113079
 20
769.9583550312414
 30
0.0
 10
718.1277182441576
 20
769.8222132914511
 30
0.0
 10
718.1488867876591
 20
769.4468404406775
 30
0.0
 10
717.9981874403264
 20
769.1538404618977
 30
0.0
 10
717.6940274204343
 20
768.8222206890819
 30
0.0
  0
SPLINE
  5
1065
330
A
100
AcDbEntity
  8
MODEL
  6
Continuous
100
AcDbSpline
210
0.0
220
0.0
230
1.0
 70
     8
 71
     3
 72
     8
 73
     4
 74
     0
 42
0.000000001
 43
0.0000000001
 40
0.0
 40
0.0
 40
0.0
 40
0.0
 40
1.0
 40
1.0
 40
1.0
 40
1.0
 10
694.0825864922434
 20
768.820261664149
 30
0.0
 10
693.7896834593029
 20
769.1395403393108
 30
0.0
 10
693.6371813751633
 20
769.4240810126041
 30
0.0
 10
693.6371813751633
 20
769.6373001583775
 30
0.0
  0
ARC
  5
1066
330
A
100
AcDbEntity
  8
MODEL
  6
Continuous
100
AcDbCircle
 10
705.8869996929274
 20
1451.936139167527
 30
0.0
 40
660.315856300887
100
AcDbArc
 50
268.5768371372999
 51
271.4231942009999
  0
LINE
  5
1067
330
A
100
AcDbEntity
  8
MODEL
  6
Continuous
100
AcDbLine
 10
725.8871813751274
 20
702.9269463813266
 30
0.0
 11
725.8871813751274
 21
791.3239543193267
 31
0.0
  0
LINE
  5
1068
330
A
100
AcDbEntity
  8
MODEL
  6
Continuous
100
AcDbLine
 10
685.8871813751274
 20
791.3239147875267
 30
0.0
 11
685.8871813751274
 21
702.9269463813266
 31
0.0
  0
LINE
  5
1069
330
A
100
AcDbEntity
  8
MODEL
  6
Continuous
100
AcDbLine
 10
689.7240371381271
 20
778.9485167427267
 30
0.0
 11
689.7290639369274
 21
778.9259156277267
 31
0.0
  0
ARC
  5
106A
330
A
100
AcDbEntity
  8
MODEL
  6
Continuous
100
AcDbCircle
 10
740.2795056723274
 20
785.7405135777267
 30
0.0
 40
51.00967182526126
100
AcDbArc
 50
181.3066938852
 51
187.6073139727999
  0
ARC
  5
106B
330
A
100
AcDbEntity
  8
MODEL
  6
Continuous
100
AcDbCircle
 10
680.0282523093273
 20
785.0415752047265
 30
0.0
 40
42.45168711850896
100
AcDbArc
 50
352.0152236573999
 51
359.3945092239002
  0
ARC
  5
106C
330
A
100
AcDbEntity
  8
MODEL
  6
Continuous
100
AcDbCircle
 10
725.3891834181271
 20
791.3299398331267
 30
0.0
 40
0.4941700182757766
100
AcDbArc
 50
359.3001687837973
 51
87.78393100458347
  0
ARC
  5
106D
330
A
100
AcDbEntity
  8
MODEL
  6
Continuous
100
AcDbCircle
 10
686.3844397673273
 20
791.3312953645268
 30
0.0
 40
0.4926926574555506
100
AcDbArc
 50
92.86256521348515
 51
180.9305895137082
  0
ARC
  5
106E
330
A
100
AcDbEntity
  8
MODEL
  6
Continuous
100
AcDbCircle
 10
692.4999868385274
 20
785.5110360011267
 30
0.0
 40
30.24938558548438
100
AcDbArc
 50
327.1729884445994
 51
347.9202240743001
  0
ARC
  5
106F
330
A
100
AcDbEntity
  8
MODEL
  6
Continuous
100
AcDbCircle
 10
720.0484371317274
 20
785.9049140913266
 30
0.0
 40
31.1134157298094
100
AcDbArc
 50
192.9411021336998
 51
212.5999729776997
  0
LINE
  5
1070
330
A
100
AcDbEntity
  8
MODEL
  6
Continuous
100
AcDbLine
 10
695.4071813751274
 20
695.9269468401267
 30
0.0
 11
695.4071813751274
 21
692.9269463813266
 31
0.0
  0
LINE
  5
1071
330
A
100
AcDbEntity
  8
MODEL
  6
Continuous
100
AcDbLine
 10
695.4071813751274
 20
687.9269463813266
 30
0.0
 11
695.4071813751274
 21
678.4269463813266
 31
0.0
  0
LINE
  5
1072
330
A
100
AcDbEntity
  8
MODEL
  6
Continuous
100
AcDbLine
 10
716.3671813751274
 20
678.4269463813266
 30
0.0
 11
716.3671813751274
 21
687.9269463813266
 31
0.0
  0
LINE
  5
1073
330
A
100
AcDbEntity
  8
MODEL
  6
Continuous
100
AcDbLine
 10
716.3671813751274
 20
692.9269463813266
 30
0.0
 11
716.3671813751274
 21
695.9269468401267
 31
0.0
  0
LINE
  5
1074
330
A
100
AcDbEntity
  8
MODEL
  6
Continuous
100
AcDbLine
 10
696.5721813751273
 20
678.4269463813266
 30
0.0
 11
696.5721813751273
 21
687.9269463813266
 31
0.0
  0
LINE
  5
1075
330
A
100
AcDbEntity
  8
MODEL
  6
Continuous
100
AcDbLine
 10
696.5721813751273
 20
692.9269463813266
 30
0.0
 11
696.5721813751273
 21
695.9269468401267
 31
0.0
  0
LINE
  5
1076
330
A
100
AcDbEntity
  8
MODEL
  6
Continuous
100
AcDbLine
 10
715.2021813751275
 20
678.4269463813266
 30
0.0
 11
715.2021813751275
 21
687.9269463813266
 31
0.0
  0
LINE
  5
1077
330
A
100
AcDbEntity
  8
MODEL
  6
Continuous
100
AcDbLine
 10
715.2021813751275
 20
692.9269463813266
 30
0.0
 11
715.2021813751275
 21
695.9269468401267
 31
0.0
  0
LINE
  5
1078
330
A
100
AcDbEntity
  8
MODEL
  6
Continuous
100
AcDbLine
 10
684.6371813751274
 20
674.4269463813266
 30
0.0
 11
727.1371813751274
 21
674.4269463813266
 31
0.0
  0
LINE
  5
1079
330
A
100
AcDbEntity
  8
MODEL
  6
Continuous
100
AcDbLine
 10
718.8871813751274
 20
660.9269463813266
 30
0.0
 11
705.8871813751274
 21
660.9269463813266
 31
0.0
  0
LINE
  5
107A
330
A
100
AcDbEntity
  8
MODEL
  6
Continuous
100
AcDbLine
 10
705.8871813751274
 20
660.9269463813266
 30
0.0
 11
692.8871813751274
 21
660.9269463813266
 31
0.0
  0
LINE
  5
107B
330
A
100
AcDbEntity
  8
MODEL
  6
Continuous
100
AcDbLine
 10
726.6371813751274
 20
669.9269463813266
 30
0.0
 11
685.1371813751274
 21
669.9269463813266
 31
0.0
  0
ARC
  5
107C
330
A
100
AcDbEntity
  8
MODEL
  6
Continuous
100
AcDbCircle
 10
719.8871813751274
 20
669.4269463813266
 30
0.0
 40
0.5000000000000004
100
AcDbArc
 50
90.0
 51
180.0
  0
ARC
  5
107D
330
A
100
AcDbEntity
  8
MODEL
  6
Continuous
100
AcDbCircle
 10
718.8871813751274
 20
661.4269463813266
 30
0.0
 40
0.5000000000000004
100
AcDbArc
 50
270.0
 51
0.0
  0
LINE
  5
107E
330
A
100
AcDbEntity
  8
MODEL
  6
Continuous
100
AcDbLine
 10
719.3871813751274
 20
669.4269463813266
 30
0.0
 11
719.3871813751274
 21
661.4269463813266
 31
0.0
  0
ARC
  5
107F
330
A
100
AcDbEntity
  8
MODEL
  6
Continuous
100
AcDbCircle
 10
691.8871813751274
 20
669.4269463813266
 30
0.0
 40
0.5000000000000056
100
AcDbArc
 50
0.0
 51
90.0
  0
LINE
  5
1080
330
A
100
AcDbEntity
  8
MODEL
  6
Continuous
100
AcDbLine
 10
692.3871813751274
 20
661.4269463813266
 30
0.0
 11
692.3871813751274
 21
669.4269463813266
 31
0.0
  0
ARC
  5
1081
330
A
100
AcDbEntity
  8
MODEL
  6
Continuous
100
AcDbCircle
 10
692.8871813751274
 20
661.4269463813266
 30
0.0
 40
0.5000000000000004
100
AcDbArc
 50
180.0
 51
270.0
  0
LINE
  5
1082
330
A
100
AcDbEntity
  8
MODEL
  6
Continuous
100
AcDbLine
 10
684.6371813751274
 20
674.4269463813266
 30
0.0
 11
684.6371813751274
 21
670.4269463813266
 31
0.0
  0
LINE
  5
1083
330
A
100
AcDbEntity
  8
MODEL
  6
Continuous
100
AcDbLine
 10
727.1371813751274
 20
670.4269463813266
 30
0.0
 11
727.1371813751274
 21
674.4269463813266
 31
0.0
  0
ARC
  5
1084
330
A
100
AcDbEntity
  8
MODEL
  6
Continuous
100
AcDbCircle
 10
685.1371813751274
 20
670.4269463813266
 30
0.0
 40
0.5000000000000004
100
AcDbArc
 50
180.0
 51
270.0
  0
ARC
  5
1085
330
A
100
AcDbEntity
  8
MODEL
  6
Continuous
100
AcDbCircle
 10
726.6371813751274
 20
670.4269463813266
 30
0.0
 40
0.5000000000000004
100
AcDbArc
 50
270.0
 51
0.0
  0
ARC
  5
1086
330
A
100
AcDbEntity
  8
MODEL
  6
Continuous
100
AcDbCircle
 10
684.8871813751274
 20
697.9269468401267
 30
0.0
 40
1.5
100
AcDbArc
 50
180.0
 51
270.0
  0
ARC
  5
1087
330
A
100
AcDbEntity
  8
MODEL
  6
Continuous
100
AcDbCircle
 10
726.8871813751274
 20
697.9269468401267
 30
0.0
 40
1.5
100
AcDbArc
 50
270.0
 51
0.0
  0
LINE
  5
1088
330
A
100
AcDbEntity
  8
MODEL
  6
Continuous
100
AcDbLine
 10
684.8871813751274
 20
696.4269468401267
 30
0.0
 11
726.8871813751274
 21
696.4269468401267
 31
0.0
  0
LINE
  5
1089
330
A
100
AcDbEntity
  8
MODEL
  6
Continuous
100
AcDbLine
 10
726.8871813751274
 20
674.4269463813266
 30
0.0
 11
726.8871813751274
 21
675.4269463813266
 31
0.0
  0
LINE
  5
108A
330
A
100
AcDbEntity
  8
MODEL
  6
Continuous
100
AcDbLine
 10
684.8871813751274
 20
675.4269463813266
 30
0.0
 11
684.8871813751274
 21
674.4269463813266
 31
0.0
  0
LINE
  5
108B
330
A
100
AcDbEntity
  8
MODEL
  6
Continuous
100
AcDbLine
 10
729.8871813751274
 20
678.4269463813266
 30
0.0
 11
681.8871813751274
 21
678.4269463813266
 31
0.0
  0
LINE
  5
108C
330
A
100
AcDbEntity
  8
MODEL
  6
Continuous
100
AcDbLine
 10
729.8871813751274
 20
675.4269463813266
 30
0.0
 11
681.8871813751274
 21
675.4269463813266
 31
0.0
  0
LINE
  5
108D
330
A
100
AcDbEntity
  8
MODEL
  6
Continuous
100
AcDbLine
 10
729.8871813751274
 20
675.4269463813266
 30
0.0
 11
729.8871813751274
 21
678.4269463813266
 31
0.0
  0
LINE
  5
108E
330
A
100
AcDbEntity
  8
MODEL
  6
Continuous
100
AcDbLine
 10
681.8871813751274
 20
678.4269463813266
 30
0.0
 11
681.8871813751274
 21
675.4269463813266
 31
0.0
  0
LINE
  5
108F
330
A
100
AcDbEntity
  8
MODEL
  6
Continuous
100
AcDbLine
 10
721.8871813751274
 20
692.9269463813266
 30
0.0
 11
689.8871813751274
 21
692.9269463813266
 31
0.0
  0
LINE
  5
1090
330
A
100
AcDbEntity
  8
MODEL
  6
Continuous
100
AcDbLine
 10
721.8871813751274
 20
687.9269463813266
 30
0.0
 11
689.8871813751274
 21
687.9269463813266
 31
0.0
  0
LINE
  5
1091
330
A
100
AcDbEntity
  8
MODEL
  6
Continuous
100
AcDbLine
 10
721.8871813751274
 20
687.9269463813266
 30
0.0
 11
721.8871813751274
 21
692.9269463813266
 31
0.0
  0
LINE
  5
1092
330
A
100
AcDbEntity
  8
MODEL
  6
Continuous
100
AcDbLine
 10
689.8871813751274
 20
692.9269463813266
 30
0.0
 11
689.8871813751274
 21
687.9269463813266
 31
0.0
  0
LINE
  5
1093
330
A
100
AcDbEntity
  8
MODEL
  6
Continuous
100
AcDbLine
 10
722.6371813751274
 20
695.9269468401267
 30
0.0
 11
689.1371813751274
 21
695.9269468401267
 31
0.0
  0
LINE
  5
1094
330
A
100
AcDbEntity
  8
MODEL
  6
Continuous
100
AcDbLine
 10
730.6371813751274
 20
697.9269468401267
 30
0.0
 11
681.1371813751274
 21
697.9269468401267
 31
0.0
  0
LINE
  5
1095
330
A
100
AcDbEntity
  8
MODEL
  6
Continuous
100
AcDbLine
 10
681.8371813751272
 20
702.9269468401267
 30
0.0
 11
729.9371813751271
 21
702.9269468401267
 31
0.0
  0
LINE
  5
1096
330
A
100
AcDbEntity
  8
MODEL
  6
Continuous
100
AcDbLine
 10
722.6371813751274
 20
695.9269468401267
 30
0.0
 11
722.6371813751274
 21
696.4269468401267
 31
0.0
  0
LINE
  5
1097
330
A
100
AcDbEntity
  8
MODEL
  6
Continuous
100
AcDbLine
 10
689.1371813751274
 20
696.4269468401267
 30
0.0
 11
689.1371813751274
 21
695.9269468401267
 31
0.0
  0
LINE
  5
1098
330
A
100
AcDbEntity
  8
MODEL
  6
Continuous
100
AcDbLine
 10
730.6371813751274
 20
697.9269468401267
 30
0.0
 11
730.6371813751274
 21
702.2269468401266
 31
0.0
  0
LINE
  5
1099
330
A
100
AcDbEntity
  8
MODEL
  6
Continuous
100
AcDbLine
 10
681.1371813751274
 20
702.2269468401266
 30
0.0
 11
681.1371813751274
 21
697.9269468401267
 31
0.0
  0
ARC
  5
109A
330
A
100
AcDbEntity
  8
MODEL
  6
Continuous
100
AcDbCircle
 10
729.9371813751271
 20
702.2269468401266
 30
0.0
 40
0.6999999999999992
100
AcDbArc
 50
0.0
 51
90.0
  0
ARC
  5
109B
330
A
100
AcDbEntity
  8
MODEL
  6
Continuous
100
AcDbCircle
 10
681.8371813751272
 20
702.2269468401266
 30
0.0
 40
0.7
100
AcDbArc
 50
90.0
 51
180.0
  0
LINE
  5
109C
330
A
100
AcDbEntity
  8
MODEL
  6
Continuous
100
AcDbLine
 10
725.3007029129275
 20
826.7763783213268
 30
0.0
 11
719.4751668149273
 21
826.7763783213268
 31
0.0
  0
LINE
  5
109D
330
A
100
AcDbEntity
  8
MODEL
  6
Continuous
100
AcDbLine
 10
692.2545925937274
 20
826.7763783213268
 30
0.0
 11
686.4289207841274
 21
826.7763783213268
 31
0.0
  0
LINE
  5
109E
330
A
100
AcDbEntity
  8
MODEL
  6
Continuous
100
AcDbLine
 10
717.5257232389271
 20
826.7763783655266
 30
0.0
 11
719.4751668149273
 21
826.7763783545267
 31
0.0
  0
LINE
  5
109F
330
A
100
AcDbEntity
  8
MODEL
  6
Continuous
100
AcDbLine
 10
692.2545925937274
 20
826.7763783545267
 30
0.0
 11
694.1845289123274
 21
826.7763783653268
 31
0.0
  0
LINE
  5
10A0
330
A
100
AcDbEntity
  8
MODEL
  6
Continuous
100
AcDbLine
 10
694.1559961179272
 20
826.7763784289266
 30
0.0
 11
717.5651540017274
 21
826.7763784283266
 31
0.0
  0
LINE
  5
10A1
330
A
100
AcDbEntity
  8
MODEL
  6
Continuous
100
AcDbLine
 10
725.8002730795273
 20
826.2763783415267
 30
0.0
 11
725.8002730795273
 21
826.2763783415267
 31
0.0
  0
ARC
  5
10A2
330
A
100
AcDbEntity
  8
MODEL
  6
Continuous
100
AcDbCircle
 10
694.2040361717271
 20
826.2763783655266
 30
0.0
 40
0.4999999999980576
100
AcDbArc
 50
89.99999999979156
 51
179.9999999933038
  0
LINE
  5
10A3
330
A
100
AcDbEntity
  8
MODEL
  6
Continuous
100
AcDbLine
 10
725.5026149107274
 20
792.6303071695268
 30
0.0
 11
686.2271607175275
 21
792.6303071695268
 31
0.0
  0
ARC
  5
10A4
330
A
100
AcDbEntity
  8
MODEL
  6
Continuous
100
AcDbCircle
 10
705.8942251035272
 20
642.8945243671267
 30
0.0
 40
180.7040151565614
100
AcDbArc
 50
86.4555911101999
 51
93.56346030979998
  0
SPLINE
  5
10A5
330
A
100
AcDbEntity
  8
MODEL
  6
Continuous
100
AcDbSpline
210
0.0
220
0.0
230
1.0
 70
     8
 71
     3
 72
     8
 73
     4
 74
     0
 42
0.000000001
 43
0.0000000001
 40
0.0
 40
0.0
 40
0.0
 40
0.0
 40
1.0
 40
1.0
 40
1.0
 40
1.0
 10
716.9788540027033
 20
823.2135690633281
 30
0.0
 10
716.9895890824627
 20
823.2151739985422
 30
0.0
 10
717.0003591051126
 20
823.2164430951411
 30
0.0
 10
717.0111589569218
 20
823.2173738908125
 30
0.0
  0
SPLINE
  5
10A6
330
A
100
AcDbEntity
  8
MODEL
  6
Continuous
100
AcDbSpline
210
0.0
220
0.0
230
1.0
 70
     8
 71
     3
 72
     8
 73
     4
 74
     0
 42
0.000000001
 43
0.0000000001
 40
0.0
 40
0.0
 40
0.0
 40
0.0
 40
1.0
 40
1.0
 40
1.0
 40
1.0
 10
694.7511932248098
 20
823.2135343909972
 30
0.0
 10
694.7403602381886
 20
823.215160675903
 30
0.0
 10
694.7294918516831
 20
823.2164448165056
 30
0.0
 10
694.7185933485038
 20
823.2173842824111
 30
0.0
  0
LINE
  5
10A7
330
A
100
AcDbEntity
  8
MODEL
  6
Continuous
100
AcDbLine
 10
725.8026151815274
 20
792.9303071703266
 30
0.0
 11
725.8026151815274
 21
826.2763783217267
 31
0.0
  0
LINE
  5
10A8
330
A
100
AcDbEntity
  8
MODEL
  6
Continuous
100
AcDbLine
 10
685.9271442209273
 20
826.2763783213268
 30
0.0
 11
685.9271442209273
 21
792.9303071695267
 31
0.0
  0
LINE
  5
10A9
330
A
100
AcDbEntity
  8
MODEL
  6
Continuous
100
AcDbLine
 10
718.0650580331275
 20
824.3622264937267
 30
0.0
 11
718.0650580331275
 21
826.2763784283266
 31
0.0
  0
LINE
  5
10AA
330
A
100
AcDbEntity
  8
MODEL
  6
Continuous
100
AcDbLine
 10
693.6647037731271
 20
826.2763784283266
 30
0.0
 11
693.6647037731271
 21
824.3640740733267
 31
0.0
  0
ARC
  5
10AB
330
A
100
AcDbEntity
  8
MODEL
  6
Continuous
100
AcDbCircle
 10
705.8698063929272
 20
935.7957202143266
 30
0.0
 40
113.1241758190587
100
AcDbArc
 50
264.3296532886001
 51
275.6651779971999
  0
ARC
  5
10AC
330
A
100
AcDbEntity
  8
MODEL
  6
Continuous
100
AcDbCircle
 10
694.8279112853273
 20
824.3670364197267
 30
0.0
 40
1.15967734499907
100
AcDbArc
 50
181.2031389753972
 51
264.7453983590918
  0
ARC
  5
10AD
330
A
100
AcDbEntity
  8
MODEL
  6
Continuous
100
AcDbCircle
 10
716.9002042619271
 20
824.3654956017267
 30
0.0
 40
1.159728768725292
100
AcDbArc
 50
275.2308414982052
 51
358.9076880588937
  0
ARC
  5
10AE
330
A
100
AcDbEntity
  8
MODEL
  6
Continuous
100
AcDbCircle
 10
725.3025951427275
 20
826.2763783233268
 30
0.0
 40
0.499999998303044
100
AcDbArc
 50
0.0982525219901613
 51
90.00460077650872
  0
ARC
  5
10AF
330
A
100
AcDbEntity
  8
MODEL
  6
Continuous
100
AcDbCircle
 10
686.4271661777274
 20
826.2763783173268
 30
0.0
 40
0.4999993773277122
100
AcDbArc
 50
89.99495859847826
 51
180.187765820109
  0
ARC
  5
10B0
330
A
100
AcDbEntity
  8
MODEL
  6
Continuous
100
AcDbCircle
 10
694.1647947013274
 20
826.2763784305266
 30
0.0
 40
0.4999998018965854
100
AcDbArc
 50
90.36024169081692
 51
179.6264129202038
  0
ARC
  5
10B1
330
A
100
AcDbEntity
  8
MODEL
  6
Continuous
100
AcDbCircle
 10
717.5703983331272
 20
826.2818672541266
 30
0.0
 40
0.493588526603253
100
AcDbArc
 50
359.3705865522144
 51
81.63120588828762
  0
ARC
  5
10B2
330
A
100
AcDbEntity
  8
MODEL
  6
Continuous
100
AcDbCircle
 10
725.5026097137273
 20
792.9303071711267
 30
0.0
 40
0.2999999112690478
100
AcDbArc
 50
269.8875398185576
 51
0.5308446121853696
  0
ARC
  5
10B3
330
A
100
AcDbEntity
  8
MODEL
  6
Continuous
100
AcDbCircle
 10
686.2271619867273
 20
792.9303071693266
 30
0.0
 40
0.2999997109674762
100
AcDbArc
 50
180.0045479540906
 51
270.006788265942
  0
SPLINE
  5
10B4
330
A
100
AcDbEntity
  8
MODEL
  6
Continuous
100
AcDbSpline
210
0.0
220
0.0
230
1.0
 70
    12
 71
     2
 72
     8
 73
     5
 74
     0
 42
0.000000001
 43
0.0000000001
 40
0.0
 40
0.0
 40
0.0
 40
0.5
 40
0.5
 40
1.0
 40
1.0
 40
1.0
 10
698.0141100827799
 20
762.5101466230226
 30
0.0
 41
1.0
 10
698.184574621465
 20
760.2586739107282
 30
0.0
 41
0.7148883687829829
 10
705.8871813751633
 20
760.258673910728
 30
0.0
 41
1.0
 10
713.589788128861
 20
760.2586739107282
 30
0.0
 41
0.7148883687829829
 10
713.7602526675468
 20
762.5101466230226
 30
0.0
 41
1.0
  0
ELLIPSE
  5
10B5
330
A
100
AcDbEntity
  8
MODEL
  6
Continuous
100
AcDbEllipse
 10
705.8871813751274
 20
762.4591921607266
 30
0.0
 11
7.875000000000008
 21
0.0
 31
0.0
210
0.0
220
0.0
230
1.0
 40
0.2923717047
 41
0.0
 42
6.283185307179586
  0
SPLINE
  5
10B6
330
A
100
AcDbEntity
  8
MODEL
  6
Continuous
100
AcDbSpline
210
0.0
220
0.0
230
1.0
 70
    12
 71
     2
 72
     6
 73
     3
 74
     0
 42
0.000000001
 43
0.0000000001
 40
0.0
 40
0.0
 40
0.0
 40
1.0
 40
1.0
 40
1.0
 10
714.2683699308008
 20
762.2821941711386
 30
0.0
 41
1.0
 10
714.3095566980172
 20
762.4035104562853
 30
0.0
 41
0.99877671165133
 10
714.3095566980177
 20
762.5254229129132
 30
0.0
 41
1.0
  0
SPLINE
  5
10B7
330
A
100
AcDbEntity
  8
MODEL
  6
Continuous
100
AcDbSpline
210
0.0
220
0.0
230
1.0
 70
    12
 71
     2
 72
     6
 73
     3
 74
     0
 42
0.000000001
 43
0.0000000001
 40
0.0
 40
0.0
 40
0.0
 40
1.0
 40
1.0
 40
1.0
 10
697.464806052309
 20
762.5254229129132
 30
0.0
 41
1.0
 10
697.4648060523089
 20
762.403510456285
 30
0.0
 41
0.9987767116559785
 10
697.5059928195259
 20
762.2821941711381
 30
0.0
 41
1.0
  0
SPLINE
  5
10B8
330
A
100
AcDbEntity
  8
MODEL
  6
Continuous
100
AcDbSpline
210
0.0
220
0.0
230
1.0
 70
    12
 71
     2
 72
     6
 73
     3
 74
     0
 42
0.000000001
 43
0.0000000001
 40
0.0
 40
0.0
 40
0.0
 40
1.0
 40
1.0
 40
1.0
 10
714.3095566980177
 20
762.5254229129132
 30
0.0
 41
1.0
 10
714.3095566980172
 20
762.546268990136
 30
0.0
 41
0.9999641691976643
 10
714.3083496006947
 20
762.5671120796931
 30
0.0
 41
1.0
  0
SPLINE
  5
10B9
330
A
100
AcDbEntity
  8
MODEL
  6
Continuous
100
AcDbSpline
210
0.0
220
0.0
230
1.0
 70
    12
 71
     2
 72
     6
 73
     3
 74
     0
 42
0.000000001
 43
0.0000000001
 40
0.0
 40
0.0
 40
0.0
 40
1.0
 40
1.0
 40
1.0
 10
714.8121813751635
 20
764.0131873890668
 30
0.0
 41
1.0
 10
714.8121813751632
 20
764.1394157883434
 30
0.0
 41
0.9988320193901797
 10
714.7705088178349
 20
764.2650548027227
 30
0.0
 41
1.0
  0
SPLINE
  5
10BA
330
A
100
AcDbEntity
  8
MODEL
  6
Continuous
100
AcDbSpline
210
0.0
220
0.0
230
1.0
 70
    12
 71
     2
 72
     6
 73
     3
 74
     0
 42
0.000000001
 43
0.0000000001
 40
0.0
 40
0.0
 40
0.0
 40
1.0
 40
1.0
 40
1.0
 10
697.0114207101477
 20
764.286910022689
 30
0.0
 41
1.0
 10
696.9155814208217
 20
764.021260440217
 30
0.0
 41
0.9948011251797095
 10
697.0058260577283
 20
763.755443411017
 30
0.0
 41
1.0
  0
SPLINE
  5
10BB
330
A
100
AcDbEntity
  8
MODEL
  6
Continuous
100
AcDbSpline
210
0.0
220
0.0
230
1.0
 70
    12
 71
     2
 72
     6
 73
     3
 74
     0
 42
0.000000001
 43
0.0000000001
 40
0.0
 40
0.0
 40
0.0
 40
1.0
 40
1.0
 40
1.0
 10
714.7685366925983
 20
763.7554434110173
 30
0.0
 41
1.0
 10
714.8121813751628
 20
763.8839995253473
 30
0.0
 41
0.9987767116521789
 10
714.8121813751635
 20
764.0131873890668
 30
0.0
 41
1.0
  0
SPLINE
  5
10BC
330
A
100
AcDbEntity
  8
MODEL
  6
Continuous
100
AcDbSpline
210
0.0
220
0.0
230
1.0
 70
    12
 71
     2
 72
     6
 73
     3
 74
     0
 42
0.000000001
 43
0.0000000001
 40
0.0
 40
0.0
 40
0.0
 40
1.0
 40
1.0
 40
1.0
 10
712.7943218745976
 20
765.603309184452
 30
0.0
 41
1.0
 10
706.1644588269625
 20
767.8929312644258
 30
0.0
 41
0.6614738601498453
 10
699.2226850803885
 20
765.6837424011519
 30
0.0
 41
1.0
  0
ARC
  5
10BD
330
A
100
AcDbEntity
  8
MODEL
  6
Continuous
100
AcDbCircle
 10
715.0549878675273
 20
763.6264446089267
 30
0.0
 40
0.0982958106603534
100
AcDbArc
 50
268.4521754010063
 51
335.4201853965805
  0
LINE
  5
10BE
330
A
100
AcDbEntity
  8
MODEL
  6
Continuous
100
AcDbLine
 10
714.9261594701273
 20
763.5281846637267
 30
0.0
 11
715.0523327651275
 21
763.5281846637267
 31
0.0
  0
LINE
  5
10BF
330
A
100
AcDbEntity
  8
MODEL
  6
Continuous
100
AcDbLine
 10
696.7220299853274
 20
763.5281846637267
 30
0.0
 11
696.8482032803271
 21
763.5281846637267
 31
0.0
  0
ARC
  5
10C0
330
A
100
AcDbEntity
  8
MODEL
  6
Continuous
100
AcDbCircle
 10
696.7195436253272
 20
763.6266226775267
 30
0.0
 40
0.0984694091858154
100
AcDbArc
 50
204.6225661831299
 51
271.4468764565278
  0
LINE
  5
10C1
330
A
100
AcDbEntity
  8
MODEL
  6
Continuous
100
AcDbLine
 10
697.0058260577274
 20
763.7554434109265
 30
0.0
 11
697.5059928195273
 21
762.2821941711268
 31
0.0
  0
LINE
  5
10C2
330
A
100
AcDbEntity
  8
MODEL
  6
Continuous
100
AcDbLine
 10
714.2683699307275
 20
762.2821941711268
 30
0.0
 11
714.7685366925274
 21
763.7554434109265
 31
0.0
  0
SPLINE
  5
10C3
330
A
100
AcDbEntity
  8
MODEL
  6
Continuous
100
AcDbSpline
210
0.0
220
0.0
230
1.0
 70
     8
 71
     3
 72
    19
 73
    15
 74
     0
 42
0.000000001
 43
0.0000000001
 40
0.0
 40
0.0
 40
0.0
 40
0.0
 40
0.0140702039129804
 40
0.1174956844358177
 40
0.2175023072814867
 40
0.3155428870059396
 40
0.4127858338109242
 40
0.509851805961686
 40
0.6069627574704294
 40
0.7042505629891685
 40
0.801752264225717
 40
0.8994592744166036
 40
0.9973465977989862
 40
1.0
 40
1.0
 40
1.0
 40
1.0
 10
697.0049385690444
 20
764.2431932779532
 30
0.0
 10
697.0068169001773
 20
764.250645063207
 30
0.0
 10
697.0204362049625
 20
764.3041101603094
 30
0.0
 10
697.0820977194193
 20
764.4156556671501
 30
0.0
 10
697.1897583845492
 20
764.5660436628295
 30
0.0
 10
697.3345072767719
 20
764.7164771992002
 30
0.0
 10
697.5114144315934
 20
764.864560693763
 30
0.0
 10
697.721626224751
 20
765.0105396101897
 30
0.0
 10
697.9644746840771
 20
765.1536425987542
 30
0.0
 10
698.2391821969208
 20
765.2929309232743
 30
0.0
 10
698.5453661212695
 20
765.4283786890167
 30
0.0
 10
698.8797391101065
 20
765.5564158997854
 30
0.0
 10
699.1289929345825
 20
765.6445238337965
 30
0.0
 10
699.2559110561814
 20
765.682550225418
 30
0.0
 10
699.2597945634037
 20
765.6837134975553
 30
0.0
  0
SPLINE
  5
10C4
330
A
100
AcDbEntity
  8
MODEL
  6
Continuous
100
AcDbSpline
210
0.0
220
0.0
230
1.0
 70
     8
 71
     3
 72
    18
 73
    14
 74
     0
 42
0.000000001
 43
0.0000000001
 40
0.0
 40
0.0
 40
0.0
 40
0.0
 40
0.0725054970942316
 40
0.1760071999567299
 40
0.2793257112889617
 40
0.3824290928123578
 40
0.485292306202027
 40
0.5879160403348707
 40
0.6903675065576916
 40
0.7928082350425061
 40
0.8955859899274117
 40
0.9994972064293552
 40
1.0
 40
1.0
 40
1.0
 40
1.0
 10
712.7509130171283
 20
765.6039295585335
 30
0.0
 10
712.8436527281991
 20
765.5719225192952
 30
0.0
 10
713.0335258832705
 20
765.5059482995034
 30
0.0
 10
713.3327267036183
 20
765.3841415869915
 30
0.0
 10
713.6280700457745
 20
765.2481371374474
 30
0.0
 10
713.8936581938646
 20
765.1067600202402
 30
0.0
 10
714.1260703865809
 20
764.962436875597
 30
0.0
 10
714.3251968223125
 20
764.8157473104911
 30
0.0
 10
714.4899329199919
 20
764.6681160835049
 30
0.0
 10
714.6216180956784
 20
764.5199953895726
 30
0.0
 10
714.7151592572967
 20
764.3749875174867
 30
0.0
 10
714.7661273287607
 20
764.2746654629609
 30
0.0
 10
714.7761115565089
 20
764.2295968023066
 30
0.0
 10
714.7761672159075
 20
764.2293454610879
 30
0.0
  0
LINE
  5
10C5
330
A
100
AcDbEntity
  8
MODEL
  6
Continuous
100
AcDbLine
 10
715.2371813751273
 20
763.9892797701268
 30
0.0
 11
715.2371813751273
 21
765.3057764353266
 31
0.0
  0
LINE
  5
10C6
330
A
100
AcDbEntity
  8
MODEL
  6
Continuous
100
AcDbLine
 10
696.5371813751275
 20
765.3057764353266
 30
0.0
 11
696.5371813751275
 21
763.9892797701268
 31
0.0
  0
LINE
  5
10C7
330
A
100
AcDbEntity
  8
MODEL
  6
Continuous
100
AcDbLine
 10
696.6246304241271
 20
763.5963944149266
 30
0.0
 11
696.6296686019272
 21
763.5854254281267
 31
0.0
  0
SPLINE
  5
10C8
330
A
100
AcDbEntity
  8
MODEL
  6
Continuous
100
AcDbSpline
210
0.0
220
0.0
230
1.0
 70
     8
 71
     3
 72
    12
 73
     8
 74
     0
 42
0.000000001
 43
0.0000000001
 40
0.0
 40
0.0
 40
0.0
 40
0.0
 40
0.0522479669178207
 40
0.3594831857944877
 40
0.6704210604427366
 40
0.9851146906900716
 40
0.9999999999999999
 40
0.9999999999999999
 40
0.9999999999999999
 40
0.9999999999999999
 10
696.7849383053948
 20
763.5280825095838
 30
0.0
 10
696.7899766866634
 20
763.5184479321915
 30
0.0
 10
696.8251653168562
 20
763.4532167655389
 30
0.0
 10
696.9130626197201
 20
763.3250230158369
 30
0.0
 10
697.0642075800323
 20
763.1575169370458
 30
0.0
 10
697.191639399667
 20
763.045057242188
 30
0.0
 10
697.2631302191043
 20
762.9882478478016
 30
0.0
 10
697.2663711591953
 20
762.9856842147647
 30
0.0
  0
SPLINE
  5
10C9
330
A
100
AcDbEntity
  8
MODEL
  6
Continuous
100
AcDbSpline
210
0.0
220
0.0
230
1.0
 70
     8
 71
     3
 72
    11
 73
     7
 74
     0
 42
0.000000001
 43
0.0000000001
 40
0.0
 40
0.0
 40
0.0
 40
0.0
 40
0.2442575791800229
 40
0.5625225900574905
 40
0.8794794390714352
 40
1.0
 40
1.0
 40
1.0
 40
1.0
 10
714.5112147278099
 20
762.9882471208891
 30
0.0
 10
714.5640998594257
 20
763.0302026470988
 30
0.0
 10
714.6783675057767
 20
763.1280511931543
 30
0.0
 10
714.8281965000973
 20
763.2843153304286
 30
0.0
 10
714.9333136116237
 20
763.426893035499
 30
0.0
 10
714.9767679425221
 20
763.5053085730128
 30
0.0
 10
714.9886756990903
 20
763.5279746869321
 30
0.0
  0
LINE
  5
10CA
330
A
100
AcDbEntity
  8
MODEL
  6
Continuous
100
AcDbLine
 10
715.1443383825275
 20
763.5854891133267
 30
0.0
 11
715.1510852625273
 21
763.6017389949266
 31
0.0
  0
ELLIPSE
  5
10CB
330
A
100
AcDbEntity
  8
MODEL
  6
Continuous
100
AcDbEllipse
 10
705.8871813751274
 20
762.4591921607266
 30
0.0
 11
7.875000000000008
 21
0.0
 31
0.0
210
0.0
220
0.0
230
1.0
 40
0.2923717047
 41
0.0
 42
6.283185307179586
  0
SPLINE
  5
10CC
330
A
100
AcDbEntity
  8
MODEL
  6
Continuous
100
AcDbSpline
210
0.0
220
0.0
230
1.0
 70
    12
 71
     2
 72
     6
 73
     3
 74
     0
 42
0.000000001
 43
0.0000000001
 40
0.0
 40
0.0
 40
0.0
 40
1.0
 40
1.0
 40
1.0
 10
714.2683699308008
 20
762.2821941711386
 30
0.0
 41
1.0
 10
714.3095566980172
 20
762.4035104562853
 30
0.0
 41
0.99877671165133
 10
714.3095566980177
 20
762.5254229129132
 30
0.0
 41
1.0
  0
SPLINE
  5
10CD
330
A
100
AcDbEntity
  8
MODEL
  6
Continuous
100
AcDbSpline
210
0.0
220
0.0
230
1.0
 70
    12
 71
     2
 72
     6
 73
     3
 74
     0
 42
0.000000001
 43
0.0000000001
 40
0.0
 40
0.0
 40
0.0
 40
1.0
 40
1.0
 40
1.0
 10
697.464806052309
 20
762.5254229129132
 30
0.0
 41
1.0
 10
697.4648060523089
 20
762.403510456285
 30
0.0
 41
0.9987767116559785
 10
697.5059928195259
 20
762.2821941711381
 30
0.0
 41
1.0
  0
SPLINE
  5
10CE
330
A
100
AcDbEntity
  8
MODEL
  6
Continuous
100
AcDbSpline
210
0.0
220
0.0
230
1.0
 70
    12
 71
     2
 72
     6
 73
     3
 74
     0
 42
0.000000001
 43
0.0000000001
 40
0.0
 40
0.0
 40
0.0
 40
1.0
 40
1.0
 40
1.0
 10
714.3095566980177
 20
762.5254229129132
 30
0.0
 41
1.0
 10
714.3095566980172
 20
762.546268990136
 30
0.0
 41
0.9999641691976643
 10
714.3083496006947
 20
762.5671120796931
 30
0.0
 41
1.0
  0
SPLINE
  5
10CF
330
A
100
AcDbEntity
  8
MODEL
  6
Continuous
100
AcDbSpline
210
0.0
220
0.0
230
1.0
 70
    12
 71
     2
 72
     6
 73
     3
 74
     0
 42
0.000000001
 43
0.0000000001
 40
0.0
 40
0.0
 40
0.0
 40
1.0
 40
1.0
 40
1.0
 10
714.8121813751635
 20
764.0131873890668
 30
0.0
 41
1.0
 10
714.8121813751632
 20
764.1394157883434
 30
0.0
 41
0.9988320193901797
 10
714.7705088178349
 20
764.2650548027227
 30
0.0
 41
1.0
  0
SPLINE
  5
10D0
330
A
100
AcDbEntity
  8
MODEL
  6
Continuous
100
AcDbSpline
210
0.0
220
0.0
230
1.0
 70
    12
 71
     2
 72
     6
 73
     3
 74
     0
 42
0.000000001
 43
0.0000000001
 40
0.0
 40
0.0
 40
0.0
 40
1.0
 40
1.0
 40
1.0
 10
697.0114207101477
 20
764.286910022689
 30
0.0
 41
1.0
 10
696.9155814208217
 20
764.021260440217
 30
0.0
 41
0.9948011251797095
 10
697.0058260577283
 20
763.755443411017
 30
0.0
 41
1.0
  0
SPLINE
  5
10D1
330
A
100
AcDbEntity
  8
MODEL
  6
Continuous
100
AcDbSpline
210
0.0
220
0.0
230
1.0
 70
    12
 71
     2
 72
     6
 73
     3
 74
     0
 42
0.000000001
 43
0.0000000001
 40
0.0
 40
0.0
 40
0.0
 40
1.0
 40
1.0
 40
1.0
 10
714.7685366925983
 20
763.7554434110173
 30
0.0
 41
1.0
 10
714.8121813751628
 20
763.8839995253473
 30
0.0
 41
0.9987767116521789
 10
714.8121813751635
 20
764.0131873890668
 30
0.0
 41
1.0
  0
ARC
  5
10D2
330
A
100
AcDbEntity
  8
MODEL
  6
Continuous
100
AcDbCircle
 10
715.0549878675273
 20
763.6264446089267
 30
0.0
 40
0.0982958106603534
100
AcDbArc
 50
268.4521754010063
 51
335.4201853965805
  0
LINE
  5
10D3
330
A
100
AcDbEntity
  8
MODEL
  6
Continuous
100
AcDbLine
 10
714.9261594701273
 20
763.5281846637267
 30
0.0
 11
715.0523327651275
 21
763.5281846637267
 31
0.0
  0
LINE
  5
10D4
330
A
100
AcDbEntity
  8
MODEL
  6
Continuous
100
AcDbLine
 10
696.7220299853274
 20
763.5281846637267
 30
0.0
 11
696.8482032803271
 21
763.5281846637267
 31
0.0
  0
ARC
  5
10D5
330
A
100
AcDbEntity
  8
MODEL
  6
Continuous
100
AcDbCircle
 10
696.7195436253272
 20
763.6266226775267
 30
0.0
 40
0.0984694091858154
100
AcDbArc
 50
204.6225661831299
 51
271.4468764565278
  0
LINE
  5
10D6
330
A
100
AcDbEntity
  8
MODEL
  6
Continuous
100
AcDbLine
 10
697.0058260577274
 20
763.7554434109265
 30
0.0
 11
697.5059928195273
 21
762.2821941711268
 31
0.0
  0
LINE
  5
10D7
330
A
100
AcDbEntity
  8
MODEL
  6
Continuous
100
AcDbLine
 10
714.2683699307275
 20
762.2821941711268
 30
0.0
 11
714.7685366925274
 21
763.7554434109265
 31
0.0
  0
LINE
  5
10D8
330
A
100
AcDbEntity
  8
MODEL
  6
Continuous
100
AcDbLine
 10
715.2371813751273
 20
763.9892797701268
 30
0.0
 11
715.2371813751273
 21
765.3057764353266
 31
0.0
  0
LINE
  5
10D9
330
A
100
AcDbEntity
  8
MODEL
  6
Continuous
100
AcDbLine
 10
696.5371813751275
 20
765.3057764353266
 30
0.0
 11
696.5371813751275
 21
763.9892797701268
 31
0.0
  0
LINE
  5
10DA
330
A
100
AcDbEntity
  8
MODEL
  6
Continuous
100
AcDbLine
 10
696.6246304241271
 20
763.5963944149266
 30
0.0
 11
696.6296686019272
 21
763.5854254281267
 31
0.0
  0
SPLINE
  5
10DB
330
A
100
AcDbEntity
  8
MODEL
  6
Continuous
100
AcDbSpline
210
0.0
220
0.0
230
1.0
 70
     8
 71
     3
 72
    12
 73
     8
 74
     0
 42
0.000000001
 43
0.0000000001
 40
0.0
 40
0.0
 40
0.0
 40
0.0
 40
0.0522479669178207
 40
0.3594831857944877
 40
0.6704210604427366
 40
0.9851146906900716
 40
0.9999999999999999
 40
0.9999999999999999
 40
0.9999999999999999
 40
0.9999999999999999
 10
696.7849383053948
 20
763.5280825095838
 30
0.0
 10
696.7899766866634
 20
763.5184479321915
 30
0.0
 10
696.8251653168562
 20
763.4532167655389
 30
0.0
 10
696.9130626197201
 20
763.3250230158369
 30
0.0
 10
697.0642075800323
 20
763.1575169370458
 30
0.0
 10
697.191639399667
 20
763.045057242188
 30
0.0
 10
697.2631302191043
 20
762.9882478478016
 30
0.0
 10
697.2663711591953
 20
762.9856842147647
 30
0.0
  0
SPLINE
  5
10DC
330
A
100
AcDbEntity
  8
MODEL
  6
Continuous
100
AcDbSpline
210
0.0
220
0.0
230
1.0
 70
     8
 71
     3
 72
    11
 73
     7
 74
     0
 42
0.000000001
 43
0.0000000001
 40
0.0
 40
0.0
 40
0.0
 40
0.0
 40
0.2442575791800229
 40
0.5625225900574905
 40
0.8794794390714352
 40
1.0
 40
1.0
 40
1.0
 40
1.0
 10
714.5112147278099
 20
762.9882471208891
 30
0.0
 10
714.5640998594257
 20
763.0302026470988
 30
0.0
 10
714.6783675057767
 20
763.1280511931543
 30
0.0
 10
714.8281965000973
 20
763.2843153304286
 30
0.0
 10
714.9333136116237
 20
763.426893035499
 30
0.0
 10
714.9767679425221
 20
763.5053085730128
 30
0.0
 10
714.9886756990903
 20
763.5279746869321
 30
0.0
  0
LINE
  5
10DD
330
A
100
AcDbEntity
  8
MODEL
  6
Continuous
100
AcDbLine
 10
715.1443383825275
 20
763.5854891133267
 30
0.0
 11
715.1510852625273
 21
763.6017389949266
 31
0.0
  0
SPLINE
  5
10DE
330
A
100
AcDbEntity
  8
MODEL
  6
Continuous
100
AcDbSpline
210
0.0
220
0.0
230
1.0
 70
    12
 71
     2
 72
     6
 73
     3
 74
     0
 42
0.000000001
 43
0.0000000001
 40
0.0
 40
0.0
 40
0.0
 40
1.0
 40
1.0
 40
1.0
 10
714.3986544007706
 20
762.6659491724931
 30
0.0
 41
1.0
 10
715.937181375163
 20
763.3824000275184
 30
0.0
 41
0.960966372686005
 10
715.9371813751635
 20
764.2283559591588
 30
0.0
 41
1.0
  0
SPLINE
  5
10DF
330
A
100
AcDbEntity
  8
MODEL
  6
Continuous
100
AcDbSpline
210
0.0
220
0.0
230
1.0
 70
    12
 71
     2
 72
     8
 73
     5
 74
     0
 42
0.000000001
 43
0.0000000001
 40
0.0
 40
0.0
 40
0.0
 40
0.5
 40
0.5
 40
1.0
 40
1.0
 40
1.0
 10
715.9371813751635
 20
764.2283559591588
 30
0.0
 41
1.0
 10
715.9371813751635
 20
768.132000188726
 30
0.0
 41
0.6013878965362119
 10
703.1066961573778
 20
767.0519976936209
 30
0.0
 41
1.0
 10
690.2762109395921
 20
765.971995198516
 30
0.0
 41
0.6013878965362089
 10
697.375708349556
 20
762.6659491724931
 30
0.0
 41
1.0
  0
SPLINE
  5
10E0
330
A
100
AcDbEntity
  8
MODEL
  6
Continuous
100
AcDbSpline
210
0.0
220
0.0
230
1.0
 70
    12
 71
     2
 72
     6
 73
     3
 74
     0
 42
0.000000001
 43
0.0000000001
 40
0.0
 40
0.0
 40
0.0
 40
1.0
 40
1.0
 40
1.0
 10
714.2593137186276
 20
762.256853425087
 30
0.0
 41
1.0
 10
716.6371813751629
 20
763.1200249498029
 30
0.0
 41
0.9430808577990833
 10
716.6371813751633
 20
764.2283559591588
 30
0.0
 41
1.0
  0
SPLINE
  5
10E1
330
A
100
AcDbEntity
  8
MODEL
  6
Continuous
100
AcDbSpline
210
0.0
220
0.0
230
1.0
 70
    12
 71
     2
 72
     8
 73
     5
 74
     0
 42
0.000000001
 43
0.0000000001
 40
0.0
 40
0.0
 40
0.0
 40
0.5
 40
0.5
 40
1.0
 40
1.0
 40
1.0
 10
716.6371813751633
 20
764.2283559591588
 30
0.0
 41
1.0
 10
716.6371813751632
 20
768.6693766311
 30
0.0
 41
0.5776835114360365
 10
702.3121235219418
 20
767.1924551585844
 30
0.0
 41
1.0
 10
687.9870656687207
 20
765.715533686069
 30
0.0
 41
0.5776835114360097
 10
697.515049031699
 20
762.256853425087
 30
0.0
 41
1.0
  0
LINE
  5
10E2
330
A
100
AcDbEntity
  8
MODEL
  6
Continuous
100
AcDbLine
 10
694.8871813751274
 20
765.2882439211267
 30
0.0
 11
694.8871813751274
 21
763.7758030863267
 31
0.0
  0
SPLINE
  5
10E3
330
A
100
AcDbEntity
  8
MODEL
  6
Continuous
100
AcDbSpline
210
0.0
220
0.0
230
1.0
 70
    12
 71
     2
 72
     6
 73
     3
 74
     0
 42
0.000000001
 43
0.0000000001
 40
0.0
 40
0.0
 40
0.0
 40
1.0
 40
1.0
 40
1.0
 10
694.8871813751633
 20
768.3459404550495
 30
0.0
 41
1.0
 10
693.2289995569815
 20
767.0972702270478
 30
0.0
 41
0.9322033898305006
 10
694.8871813751633
 20
765.8485999990457
 30
0.0
 41
1.0
  0
LINE
  5
10E4
330
A
100
AcDbEntity
  8
MODEL
  6
Continuous
100
AcDbLine
 10
694.8871813751274
 20
768.3459404551268
 30
0.0
 11
694.8871813751274
 21
766.6088779441266
 31
0.0
  0
LINE
  5
10E5
330
A
100
AcDbEntity
  8
MODEL
  6
Continuous
100
AcDbLine
 10
694.8871813751274
 20
766.6088779441266
 30
0.0
 11
694.8871813751274
 21
765.2882439211267
 31
0.0
  0
LINE
  5
10E6
330
A
100
AcDbEntity
  8
MODEL
  6
Continuous
100
AcDbLine
 10
694.8871813751274
 20
763.6959735477267
 30
0.0
 11
694.8871813751274
 21
763.7758030863267
 31
0.0
  0
LINE
  5
10E7
330
A
100
AcDbEntity
  8
MODEL
  6
Continuous
100
AcDbLine
 10
716.8871813751274
 20
763.7758030863267
 30
0.0
 11
716.8871813751274
 21
765.2882439211267
 31
0.0
  0
SPLINE
  5
10E8
330
A
100
AcDbEntity
  8
MODEL
  6
Continuous
100
AcDbSpline
210
0.0
220
0.0
230
1.0
 70
    12
 71
     2
 72
     6
 73
     3
 74
     0
 42
0.000000001
 43
0.0000000001
 40
0.0
 40
0.0
 40
0.0
 40
1.0
 40
1.0
 40
1.0
 10
716.8871813751633
 20
765.8485999990457
 30
0.0
 41
1.0
 10
718.5453631933451
 20
767.0972702270477
 30
0.0
 41
0.9322033898304433
 10
716.8871813751633
 20
768.3459404550495
 30
0.0
 41
1.0
  0
LINE
  5
10E9
330
A
100
AcDbEntity
  8
MODEL
  6
Continuous
100
AcDbLine
 10
716.8871813751274
 20
763.7758030863267
 30
0.0
 11
716.8871813751274
 21
763.6957481113268
 31
0.0
  0
LINE
  5
10EA
330
A
100
AcDbEntity
  8
MODEL
  6
Continuous
100
AcDbLine
 10
716.8871813751274
 20
765.2882439211267
 30
0.0
 11
716.8871813751274
 21
766.6088779441266
 31
0.0
  0
LINE
  5
10EB
330
A
100
AcDbEntity
  8
MODEL
  6
Continuous
100
AcDbLine
 10
716.8871813751274
 20
766.6088779441266
 30
0.0
 11
716.8871813751274
 21
768.3459404551268
 31
0.0
  0
LINE
  5
10EC
330
A
100
AcDbEntity
  8
MODEL
  6
Continuous
100
AcDbLine
 10
696.3015688011272
 20
762.7825255649268
 30
0.0
 11
696.7681251653274
 21
762.5640105749267
 31
0.0
  0
LINE
  5
10ED
330
A
100
AcDbEntity
  8
MODEL
  6
Continuous
100
AcDbLine
 10
715.0062375851275
 20
762.5640105749267
 30
0.0
 11
715.4727939493272
 21
762.7825255649268
 31
0.0
  0
ARC
  5
10EE
330
A
100
AcDbEntity
  8
MODEL
  6
Continuous
100
AcDbCircle
 10
713.3640570411275
 20
767.5726174485267
 30
0.0
 40
5.234053398211462
100
AcDbArc
 50
292.9239549998969
 51
312.2610642193003
  0
ARC
  5
10EF
330
A
100
AcDbEntity
  8
MODEL
  6
Continuous
100
AcDbCircle
 10
698.4106328079273
 20
767.6018633165268
 30
0.0
 40
5.259064205933528
100
AcDbArc
 50
227.915478014599
 51
246.8147251810978
  0
LINE
  5
10F0
330
A
100
AcDbEntity
  8
MODEL
  6
Continuous
100
AcDbLine
 10
694.0871813751272
 20
770.1891983355267
 30
0.0
 11
694.0871813751272
 21
767.0972702271267
 31
0.0
  0
LINE
  5
10F1
330
A
100
AcDbEntity
  8
MODEL
  6
Continuous
100
AcDbLine
 10
717.6871813751271
 20
767.0972702271267
 30
0.0
 11
717.6871813751271
 21
770.2219606299268
 31
0.0
  0
LINE
  5
10F2
330
A
100
AcDbEntity
  8
MODEL
  6
Continuous
100
AcDbLine
 10
689.6371813751274
 20
792.6303071695268
 30
0.0
 11
689.6371813751274
 21
791.8211097695266
 31
0.0
  0
LINE
  5
10F3
330
A
100
AcDbEntity
  8
MODEL
  6
Continuous
100
AcDbLine
 10
722.1371813751274
 20
791.8210602755266
 30
0.0
 11
722.1371813751274
 21
792.6303071695268
 31
0.0
  0
SPLINE
  5
10F4
330
A
100
AcDbEntity
  8
MODEL
  6
Continuous
100
AcDbSpline
210
0.0
220
0.0
230
1.0
 70
     8
 71
     3
 72
    12
 73
     8
 74
     0
 42
0.000000001
 43
0.0000000001
 40
0.0
 40
0.0
 40
0.0
 40
0.0
 40
0.3066793156483854
 40
0.3066793156483854
 40
0.6133586312967708
 40
0.6133586312967708
 40
1.0
 40
1.0
 40
1.0
 40
1.0
 10
705.6408664871082
 20
756.941664363118
 30
0.0
 10
704.2778848686911
 20
756.941664279982
 30
0.0
 10
702.9076364331803
 20
757.2820978832981
 30
0.0
 10
700.4627464139984
 20
758.3909352399835
 30
0.0
 10
699.3547063528252
 20
759.1564366589871
 30
0.0
 10
697.1333902573923
 20
761.1082749867182
 30
0.0
 10
696.071137657012
 20
762.358407422847
 30
0.0
 10
695.1450737974632
 20
763.6902493925695
 30
0.0
  0
SPLINE
  5
10F5
330
A
100
AcDbEntity
  8
MODEL
  6
Continuous
100
AcDbSpline
210
0.0
220
0.0
230
1.0
 70
     8
 71
     3
 72
    12
 73
     8
 74
     0
 42
0.000000001
 43
0.0000000001
 40
0.0
 40
0.0
 40
0.0
 40
0.0
 40
0.1110499829024119
 40
0.1110499829024119
 40
0.5555249914512059
 40
0.5555249914512059
 40
0.9999999999999999
 40
0.9999999999999999
 40
0.9999999999999999
 40
0.9999999999999999
 10
694.8779327070068
 20
764.0472875906567
 30
0.0
 10
694.5308263553619
 20
764.5863252690601
 30
0.0
 10
694.2039108317744
 20
765.1358122516613
 30
0.0
 10
692.6569718559266
 20
767.911978904229
 30
0.0
 10
691.6939702568837
 20
770.2573042559059
 30
0.0
 10
690.001541298085
 20
775.0165445445525
 30
0.0
 10
689.2789608642782
 20
777.4352770249895
 30
0.0
 10
688.6366662890481
 20
779.8299947179926
 30
0.0
  0
ARC
  5
10F6
330
A
100
AcDbEntity
  8
MODEL
  6
Continuous
100
AcDbCircle
 10
707.8687084997272
 20
784.8936613243268
 30
0.0
 40
19.88748770195907
100
AcDbArc
 50
179.8588281277003
 51
194.7508147826007
  0
LINE
  5
10F7
330
A
100
AcDbEntity
  8
MODEL
  6
Continuous
100
AcDbLine
 10
687.9812535885275
 20
784.9426045047267
 30
0.0
 11
687.9812448405272
 21
791.3052929269265
 31
0.0
  0
ARC
  5
10F8
330
A
100
AcDbEntity
  8
MODEL
  6
Continuous
100
AcDbCircle
 10
704.0656303955274
 20
784.8763698913267
 30
0.0
 40
19.72837118336058
100
AcDbArc
 50
345.1934968361998
 51
0.2017278854000293
  0
SPLINE
  5
10F9
330
A
100
AcDbEntity
  8
MODEL
  6
Continuous
100
AcDbSpline
210
0.0
220
0.0
230
1.0
 70
     8
 71
     3
 72
    12
 73
     8
 74
     0
 42
0.000000001
 43
0.0000000001
 40
0.0
 40
0.0
 40
0.0
 40
0.0
 40
0.4435684895726278
 40
0.4435684895726278
 40
0.8871524065352233
 40
0.8871524065352233
 40
1.0
 40
1.0
 40
1.0
 40
1.0
 10
723.1388420287702
 20
779.8344266941097
 30
0.0
 10
722.4973969371334
 20
777.4423840779189
 30
0.0
 10
721.7800693989351
 20
775.0408294005952
 30
0.0
 10
720.0980210617498
 20
770.3030312736478
 30
0.0
 10
719.1408371925385
 20
767.9624843920183
 30
0.0
 10
717.5898800359131
 20
765.1686388055
 30
0.0
 10
717.2564315783801
 20
764.6068057675711
 30
0.0
 10
716.9015304394815
 20
764.0553725095479
 30
0.0
  0
SPLINE
  5
10FA
330
A
100
AcDbEntity
  8
MODEL
  6
Continuous
100
AcDbSpline
210
0.0
220
0.0
230
1.0
 70
     8
 71
     3
 72
    14
 73
    10
 74
     0
 42
0.000000001
 43
0.0000000001
 40
0.0
 40
0.0
 40
0.0
 40
0.0
 40
0.3857308926199672
 40
0.3857308926199672
 40
0.6928654463099834
 40
0.6928654463099834
 40
0.8464327231549919
 40
0.8464327231549919
 40
1.0
 40
1.0
 40
1.0
 40
1.0
 10
716.1488179709635
 20
763.7080806363338
 30
0.0
 10
715.2224706870146
 20
762.3736547468216
 30
0.0
 10
714.1582380394465
 20
761.1184407532348
 30
0.0
 10
711.9301266774099
 20
759.1579981696077
 30
0.0
 10
710.8484807173921
 20
758.4067934349432
 30
0.0
 10
708.9959980980597
 20
757.5629350736872
 30
0.0
 10
708.3531930672674
 20
757.3375289542703
 30
0.0
 10
707.0271425012555
 20
757.0271299146248
 30
0.0
 10
706.313632689575
 20
756.9416643220857
 30
0.0
 10
705.6408664871082
 20
756.941664363118
 30
0.0
  0
SPLINE
  5
10FB
330
A
100
AcDbEntity
  8
MODEL
  6
Continuous
100
AcDbSpline
210
0.0
220
0.0
230
1.0
 70
     8
 71
     3
 72
    58
 73
    54
 74
     0
 42
0.000000001
 43
0.0000000001
 40
0.0
 40
0.0
 40
0.0
 40
0.0
 40
0.0625000000000001
 40
0.0625000000000001
 40
0.1250000000000002
 40
0.1250000000000002
 40
0.2500000000000003
 40
0.2500000000000003
 40
0.3125000000000002
 40
0.3125000000000002
 40
0.3437500000000001
 40
0.3437500000000001
 40
0.375
 40
0.375
 40
0.390625
 40
0.390625
 40
0.4062499999999999
 40
0.4062499999999999
 40
0.4218749999999999
 40
0.4218749999999999
 40
0.4374999999999999
 40
0.4374999999999999
 40
0.4531249999999999
 40
0.4531249999999999
 40
0.4687499999999998
 40
0.4687499999999998
 40
0.4999999999999998
 40
0.4999999999999998
 40
0.5156249999999998
 40
0.5156249999999998
 40
0.5312499999999998
 40
0.5312499999999998
 40
0.5624999999999998
 40
0.5624999999999998
 40
0.5781249999999997
 40
0.5781249999999997
 40
0.5937499999999996
 40
0.5937499999999996
 40
0.6093749999999996
 40
0.6093749999999996
 40
0.6249999999999994
 40
0.6249999999999994
 40
0.6562499999999994
 40
0.6562499999999994
 40
0.6874999999999996
 40
0.6874999999999996
 40
0.7499999999999996
 40
0.7499999999999996
 40
0.8749999999999999
 40
0.8749999999999999
 40
0.9375
 40
0.9375
 40
1.0
 40
1.0
 40
1.0
 40
1.0
 10
722.5600555905202
 20
791.2775086801767
 30
0.0
 10
722.5579707318278
 20
791.2474802816062
 30
0.0
 10
722.5539343781705
 20
791.1941440060559
 30
0.0
 10
722.5401446089317
 20
790.9690604718503
 30
0.0
 10
722.5304210862749
 20
790.8051346841576
 30
0.0
 10
722.4925638950257
 20
790.1726696202506
 30
0.0
 10
722.4561978415053
 20
789.5546271281164
 30
0.0
 10
722.3855517541982
 20
788.2801640826901
 30
0.0
 10
722.3595756994063
 20
787.7971755179233
 30
0.0
 10
722.3127695048846
 20
786.9778472005735
 30
0.0
 10
722.2960189316212
 20
786.6888830598443
 30
0.0
 10
722.254573338901
 20
786.0777513164844
 30
0.0
 10
722.2390807355058
 20
785.7548587587294
 30
0.0
 10
722.1516468121143
 20
785.2478524617129
 30
0.0
 10
722.1157155451305
 20
785.0755884198823
 30
0.0
 10
721.8470989487972
 20
784.7314203654223
 30
0.0
 10
721.5938933986175
 20
784.5566231723528
 30
0.0
 10
720.8959115121173
 20
784.2139157422785
 30
0.0
 10
720.4595794675128
 20
784.0443051425318
 30
0.0
 10
719.4080354368374
 20
783.7135182750101
 30
0.0
 10
718.7731101211424
 20
783.5518954359632
 30
0.0
 10
717.3251554323646
 20
783.2616682231721
 30
0.0
 10
716.5135727533033
 20
783.129997337991
 30
0.0
 10
714.7447690135876
 20
782.891161943393
 30
0.0
 10
713.7898860054173
 20
782.7849098406923
 30
0.0
 10
710.8250616515901
 20
782.5208183493057
 30
0.0
 10
708.6521459745271
 20
782.4151367401817
 30
0.0
 10
705.3881497537471
 20
782.3917055879074
 30
0.0
 10
704.2768602075065
 20
782.406004994923
 30
0.0
 10
702.1239250178295
 20
782.4771726012254
 30
0.0
 10
701.0748704864681
 20
782.5334935802127
 30
0.0
 10
698.0102277349773
 20
782.7626628008288
 30
0.0
 10
696.146689923611
 20
782.9916671566984
 30
0.0
 10
693.7931329678903
 20
783.4108761355155
 30
0.0
 10
693.095841261786
 20
783.5605634233409
 30
0.0
 10
691.8681935941535
 20
783.876699430075
 30
0.0
 10
691.3353610954636
 20
784.0447427199326
 30
0.0
 10
690.4636680626012
 20
784.3823100012557
 30
0.0
 10
690.1059470188719
 20
784.5529521890821
 30
0.0
 10
689.6621061252207
 20
784.8924807508174
 30
0.0
 10
689.6454454653898
 20
785.0698407891664
 30
0.0
 10
689.557016844309
 20
785.5935217847805
 30
0.0
 10
689.538805721961
 20
785.9264654155422
 30
0.0
 10
689.4947630771497
 20
786.556795643226
 30
0.0
 10
689.4772210245409
 20
786.8547365070026
 30
0.0
 10
689.4287625581663
 20
787.6992761798101
 30
0.0
 10
689.4025893254596
 20
788.1968217806673
 30
0.0
 10
689.3312397416329
 20
789.5091553215186
 30
0.0
 10
689.2941679853437
 20
790.1441906385473
 30
0.0
 10
689.2526102547457
 20
790.7933469456598
 30
0.0
 10
689.2412801208842
 20
790.9612653030902
 30
0.0
 10
689.2242318267744
 20
791.1924888067201
 30
0.0
 10
689.2185877056717
 20
791.2470561465916
 30
0.0
 10
689.215521537676
 20
791.2775097642289
 30
0.0
  0
SPLINE
  5
10FC
330
A
100
AcDbEntity
  8
MODEL
  6
Continuous
100
AcDbSpline
210
0.0
220
0.0
230
1.0
 70
     8
 71
     3
 72
    54
 73
    50
 74
     0
 42
0.000000001
 43
0.0000000001
 40
0.0
 40
0.0
 40
0.0
 40
0.0
 40
0.0625000000000005
 40
0.0625000000000005
 40
0.1250000000000011
 40
0.1250000000000011
 40
0.250000000000002
 40
0.250000000000002
 40
0.3125000000000024
 40
0.3125000000000024
 40
0.3750000000000029
 40
0.3750000000000029
 40
0.3906250000000029
 40
0.3906250000000029
 40
0.4062500000000029
 40
0.4062500000000029
 40
0.4218750000000028
 40
0.4218750000000028
 40
0.4375000000000028
 40
0.4375000000000028
 40
0.4531250000000028
 40
0.4531250000000028
 40
0.4687500000000027
 40
0.4687500000000027
 40
0.4843750000000027
 40
0.4843750000000027
 40
0.5000000000000027
 40
0.5000000000000027
 40
0.5312500000000026
 40
0.5312500000000026
 40
0.5625000000000026
 40
0.5625000000000026
 40
0.5781250000000026
 40
0.5781250000000026
 40
0.5937500000000026
 40
0.5937500000000026
 40
0.6093750000000026
 40
0.6093750000000026
 40
0.6250000000000026
 40
0.6250000000000026
 40
0.6875000000000022
 40
0.6875000000000022
 40
0.7500000000000019
 40
0.7500000000000019
 40
0.8750000000000009
 40
0.8750000000000009
 40
0.9375000000000004
 40
0.9375000000000004
 40
1.0
 40
1.0
 40
1.0
 40
1.0
 10
689.7155214189082
 20
791.7774991336355
 30
0.0
 10
689.7185515879959
 20
791.7473905059942
 30
0.0
 10
689.7240959729173
 20
791.6938303938089
 30
0.0
 10
689.7408099379912
 20
791.4677782387128
 30
0.0
 10
689.7519129795149
 20
791.3032700529534
 30
0.0
 10
689.792645511698
 20
790.668011506124
 30
0.0
 10
689.829050732047
 20
790.0464685446345
 30
0.0
 10
689.8986876099533
 20
788.7662580833517
 30
0.0
 10
689.9242331202144
 20
788.2813461273242
 30
0.0
 10
689.9864480513264
 20
787.1836640690362
 30
0.0
 10
690.004199210788
 20
786.5707739952361
 30
0.0
 10
690.1160491932068
 20
785.7170184685019
 30
0.0
 10
690.115037689331
 20
785.5413368943482
 30
0.0
 10
690.3508833805585
 20
785.184464866828
 30
0.0
 10
690.6677240028743
 20
785.0067696471899
 30
0.0
 10
691.4465641010996
 20
784.6581062620589
 30
0.0
 10
691.9328639396039
 20
784.4838949992877
 30
0.0
 10
693.0792606822332
 20
784.1518039357497
 30
0.0
 10
693.7378094381869
 20
783.9939861760836
 30
0.0
 10
695.2326809119958
 20
783.6983663032497
 30
0.0
 10
696.0679954787109
 20
783.5613777623926
 30
0.0
 10
697.8431828559573
 20
783.3229016272483
 30
0.0
 10
698.7932634985808
 20
783.2194578014696
 30
0.0
 10
700.814532320422
 20
783.0499491395724
 30
0.0
 10
701.8525614384788
 20
782.986614537901
 30
0.0
 10
703.9819908884741
 20
782.9034052446509
 30
0.0
 10
705.0868691385966
 20
782.8838214674872
 30
0.0
 10
708.3528325401315
 20
782.8960568520135
 30
0.0
 10
710.5248409952286
 20
783.0002808934591
 30
0.0
 10
714.4681176118346
 20
783.3567702930261
 30
0.0
 10
716.2905260167462
 20
783.6062890172252
 30
0.0
 10
718.4389193742157
 20
784.0579794956409
 30
0.0
 10
719.0612936350566
 20
784.2259850834171
 30
0.0
 10
720.0931340770907
 20
784.5682917828306
 30
0.0
 10
720.5211075811361
 20
784.7433941564018
 30
0.0
 10
721.1917903195784
 20
785.1001882499281
 30
0.0
 10
721.4118689661462
 20
785.2772077565603
 30
0.0
 10
721.636181930114
 20
785.6275933321253
 30
0.0
 10
721.664672313313
 20
785.8004765541014
 30
0.0
 10
721.7929894336174
 20
786.6418646057259
 30
0.0
 10
721.7998799291735
 20
787.2456561264173
 30
0.0
 10
721.8614090813884
 20
788.327833896963
 30
0.0
 10
721.8871441740342
 20
788.8062388353767
 30
0.0
 10
721.9571527855159
 20
790.0697725943653
 30
0.0
 10
721.993189179991
 20
790.6821961853543
 30
0.0
 10
722.030677779654
 20
791.3089764201652
 30
0.0
 10
722.0403043906985
 20
791.4714755424384
 30
0.0
 10
722.0539696132035
 20
791.6945692256465
 30
0.0
 10
722.0579795216757
 20
791.7475828086433
 30
0.0
 10
722.0600556470007
 20
791.7774977321085
 30
0.0
  0
LINE
  5
10FD
330
A
100
AcDbEntity
  8
MODEL
  6
Continuous
100
AcDbLine
 10
723.7938854915272
 20
791.3052983391267
 30
0.0
 11
723.7938793011275
 21
784.9458297087267
 31
0.0
  0
LINE
  5
10FE
330
A
100
AcDbEntity
  8
MODEL
  6
Continuous
100
AcDbLine
 10
705.6371813751274
 20
661.4269463813266
 30
0.0
 11
705.6371813751274
 21
669.4269463813266
 31
0.0
  0
LINE
  5
10FF
330
A
100
AcDbEntity
  8
MODEL
  6
Continuous
100
AcDbLine
 10
706.1371813751274
 20
669.4269463813266
 30
0.0
 11
706.1371813751274
 21
661.4269463813266
 31
0.0
  0
SPLINE
  5
1100
330
A
100
AcDbEntity
  8
MODEL
  6
Continuous
100
AcDbSpline
210
0.0
220
0.0
230
1.0
 70
    12
 71
     2
 72
     6
 73
     3
 74
     0
 42
0.000000001
 43
0.0000000001
 40
0.0
 40
0.0
 40
0.0
 40
1.0
 40
1.0
 40
1.0
 10
705.6371813751738
 20
661.4269463812489
 30
0.0
 41
1.0
 10
705.6371813751736
 20
660.9269463812489
 30
0.0
 41
0.7071067811862622
 10
705.8871813751738
 20
660.9269463812489
 30
0.0
 41
1.0
  0
SPLINE
  5
1101
330
A
100
AcDbEntity
  8
MODEL
  6
Continuous
100
AcDbSpline
210
0.0
220
0.0
230
1.0
 70
    12
 71
     2
 72
     6
 73
     3
 74
     0
 42
0.000000001
 43
0.0000000001
 40
0.0
 40
0.0
 40
0.0
 40
1.0
 40
1.0
 40
1.0
 10
705.8871813751738
 20
660.9269463812489
 30
0.0
 41
1.0
 10
706.1371813751736
 20
660.9269463812486
 30
0.0
 41
0.707106781186262
 10
706.1371813751738
 20
661.4269463812489
 30
0.0
 41
1.0
  0
LINE
  5
1102
330
A
100
AcDbEntity
  8
MODEL
  6
Continuous
100
AcDbLine
 10
695.4071813751274
 20
660.9269463813266
 30
0.0
 11
695.4071813751274
 21
660.1745043623266
 31
0.0
  0
LINE
  5
1103
330
A
100
AcDbEntity
  8
MODEL
  6
Continuous
100
AcDbLine
 10
696.5721813751273
 20
660.1745043623266
 30
0.0
 11
696.5721813751273
 21
660.9269463813266
 31
0.0
  0
LINE
  5
1104
330
A
100
AcDbEntity
  8
MODEL
  6
Continuous
100
AcDbLine
 10
716.3671813751274
 20
660.1745043623266
 30
0.0
 11
716.3671813751274
 21
660.9269463813266
 31
0.0
  0
LINE
  5
1105
330
A
100
AcDbEntity
  8
MODEL
  6
Continuous
100
AcDbLine
 10
715.2021813751275
 20
660.1745043623266
 30
0.0
 11
715.2021813751275
 21
660.9269463813266
 31
0.0
  0
SPLINE
  5
1106
330
A
100
AcDbEntity
  8
HIDDEN
100
AcDbSpline
210
0.0
220
0.0
230
1.0
 70
     8
 71
     3
 72
    42
 73
    38
 74
     0
 42
0.000000001
 43
0.0000000001
 40
0.0
 40
0.0
 40
0.0
 40
0.0
 40
0.2500000000000001
 40
0.2500000000000001
 40
0.2812500000000001
 40
0.2812500000000001
 40
0.3125000000000001
 40
0.3125000000000001
 40
0.3437500000000002
 40
0.3437500000000002
 40
0.3750000000000002
 40
0.3750000000000002
 40
0.4062500000000002
 40
0.4062500000000002
 40
0.4375000000000002
 40
0.4375000000000002
 40
0.4687500000000002
 40
0.4687500000000002
 40
0.5000000000000002
 40
0.5000000000000002
 40
0.5312500000000002
 40
0.5312500000000002
 40
0.5625000000000002
 40
0.5625000000000002
 40
0.5937500000000002
 40
0.5937500000000002
 40
0.6250000000000002
 40
0.6250000000000002
 40
0.6562500000000003
 40
0.6562500000000003
 40
0.6875000000000003
 40
0.6875000000000003
 40
0.7187500000000003
 40
0.7187500000000003
 40
0.7500000000000003
 40
0.7500000000000003
 40
1.0
 40
1.0
 40
1.0
 40
1.0
 10
408.4061644112458
 20
1013.632627921461
 30
0.0
 10
408.421421879842
 20
1021.708691074279
 30
0.0
 10
408.4168588672565
 20
1029.784770113582
 30
0.0
 10
408.3754202603823
 20
1038.870315946113
 30
0.0
 10
408.3706865372242
 20
1039.879821081041
 30
0.0
 10
408.3823006722505
 20
1041.898824440838
 30
0.0
 10
408.3938099935885
 20
1042.910525642236
 30
0.0
 10
408.5533244273947
 20
1044.922618837852
 30
0.0
 10
408.7152919012206
 20
1045.910048044559
 30
0.0
 10
409.344395046412
 20
1047.815797858897
 30
0.0
 10
409.8061752211206
 20
1048.730219392202
 30
0.0
 10
410.9288269113208
 20
1050.383914826801
 30
0.0
 10
411.6045160634626
 20
1051.149379249497
 30
0.0
 10
413.1004139472143
 20
1052.491984205494
 30
0.0
 10
413.9218169536944
 20
1053.074399631407
 30
0.0
 10
415.6975855301739
 20
1054.04514012959
 30
0.0
 10
416.6246712421498
 20
1054.418265198033
 30
0.0
 10
418.5603051777471
 20
1054.931264257167
 30
0.0
 10
419.5769656922548
 20
1055.066545245433
 30
0.0
 10
421.5746497854307
 20
1055.06641865223
 30
0.0
 10
422.5823436471546
 20
1054.933180402622
 30
0.0
 10
424.5304282845259
 20
1054.41719648508
 30
0.0
 10
425.4595360616772
 20
1054.041725009046
 30
0.0
 10
427.2336122051515
 20
1053.070803015701
 30
0.0
 10
428.055571721557
 20
1052.486964320016
 30
0.0
 10
429.5469300568957
 20
1051.147252751818
 30
0.0
 10
430.2247444845307
 20
1050.378938293293
 30
0.0
 10
431.3452816663271
 20
1048.726958775498
 30
0.0
 10
431.8006476190903
 20
1047.829184037652
 30
0.0
 10
432.4368650463248
 20
1045.904757003873
 30
0.0
 10
432.5977893937688
 20
1044.914412599053
 30
0.0
 10
432.7559996951686
 20
1042.904437840559
 30
0.0
 10
432.7670330346155
 20
1041.891706800489
 30
0.0
 10
432.7775366420437
 20
1039.872736905017
 30
0.0
 10
432.7722580184354
 20
1038.863247103752
 30
0.0
 10
432.7259071807025
 20
1029.777839425535
 30
0.0
 10
432.7169660221607
 20
1021.701936389665
 30
0.0
 10
432.7278492770965
 20
1013.626041896009
 30
0.0
  0
LINE
  5
1107
330
A
100
AcDbEntity
  8
DIM
100
AcDbLine
 10
480.5097917221833
 20
995.0971335135372
 30
0.0
 11
487.1375176663837
 21
995.0971335135372
 31
0.0
  0
LINE
  5
1108
330
A
100
AcDbEntity
  8
DIM
100
AcDbLine
 10
420.5807671233833
 20
1055.066360311338
 30
0.0
 11
420.5807671233833
 21
1061.694086255538
 31
0.0
  0
LINE
  5
1109
102
{ACAD_REACTORS
330
11BC
102
}
330
A
100
AcDbEntity
  8
MODEL
  6
Continuous
100
AcDbLine
 10
445.3106660237836
 20
697.9269468401267
 30
0.0
 11
445.3106660237836
 21
702.2269468401266
 31
0.0
  0
LINE
  5
110A
330
A
100
AcDbEntity
  8
MODEL
  6
Continuous
100
AcDbLine
 10
395.8106660237836
 20
702.2269468401266
 30
0.0
 11
395.8106660237836
 21
697.9269468401267
 31
0.0
  0
DIMENSION
  5
110B
330
A
100
AcDbEntity
  8
DIM
100
AcDbDimension
  2
*D22
 10
311.4656280793834
 20
678.4269463813266
 30
0.0
 11
311.4656280793834
 21
635.4529463813267
 31
0.0
 70
   160
  1
\A1;max.20 {}
 71
     5
 42
19.50000045880006
 73
     0
 74
     1
 75
     1
  3
tfrom線あり
100
AcDbAlignedDimension
 13
420.5606660237836
 23
697.9269468401267
 33
0.0
 14
396.5261458411833
 24
678.4269463813266
 34
0.0
 50
90.0
100
AcDbRotatedDimension
1001
ACAD
1000
DSTYLE
1002
{
1070
   172
1070
     1
1070
   140
1040
12.0
1070
   178
1070
   256
1070
   177
1070
   256
1070
   176
1070
   256
1002
}
  0
DIMENSION
  5
110D
330
A
100
AcDbEntity
  8
DIM
100
AcDbDimension
  2
*D23
 10
311.4656280793834
 20
697.9269468401267
 30
0.0
 11
311.4656280793834
 21
762.3516624183267
 31
0.0
 70
   160
  1
\A1;<>
 71
     5
 42
128.8494315144001
 73
     0
 74
     0
 75
     0
  3
tfrom線あり
100
AcDbAlignedDimension
 13
434.4425544061837
 23
826.7763783545267
 33
0.0
 14
397.6715423591836
 24
697.9269468401267
 34
0.0
 50
90.0
100
AcDbRotatedDimension
1001
ACAD
1000
DSTYLE
1002
{
1070
   140
1040
12.0
1070
   178
1070
   256
1070
   177
1070
   256
1070
   176
1070
   256
1070
   144
1040
1.0
1070
     0
1002
}
  0
DIMENSION
  5
110E
330
A
100
AcDbEntity
  8
DIM
100
AcDbDimension
  2
*D24
 10
513.6125860053835
 20
744.2303153455266
 30
0.0
 11
531.6302273003835
 21
724.4788772635777
 31
0.0
 70
   162
  1
\A1;<>
 71
     5
 42
0.2967059728343786
 73
     0
 74
     0
 75
     0
  3
tfrom線あり
100
AcDb2LineAngularDimension
 13
513.6125860053835
 23
764.2303153455266
 33
0.0
 14
519.4600200997834
 24
745.1042202261267
 34
0.0
 15
513.6125860053835
 25
764.2303153455266
 35
0.0
 16
517.9220461868588
 26
720.7994417604538
 36
0.0
1001
ACAD
1000
DSTYLE
1002
{
1070
   179
1070
     0
1070
   140
1040
12.0
1070
   178
1070
   256
1070
   177
1070
   256
1070
   176
1070
   256
1070
   144
1041
4.0
1070
     0
1002
}
  0
DIMENSION
  5
110F
330
A
100
AcDbEntity
  8
DIM
100
AcDbDimension
  2
*D25
 10
585.4511028919837
 20
764.2303153455266
 30
0.0
 11
585.4511028919837
 21
731.0786293065266
 31
0.0
 70
   160
  1
\A1;<>
 71
     5
 42
66.30336850539993
 73
     0
 74
     0
 75
     0
  3
tfrom線あり
100
AcDbAlignedDimension
 13
465.1332712565836
 23
697.9269468401267
 33
0.0
 14
520.2403119493833
 24
764.2303153455266
 34
0.0
 50
90.0
100
AcDbRotatedDimension
1001
ACAD
1000
DSTYLE
1002
{
1070
   140
1040
12.0
1070
   178
1070
   256
1070
   177
1070
   256
1070
   176
1070
   256
1070
   144
1040
1.0
1070
     0
1002
}
  0
DIMENSION
  5
1110
330
A
100
AcDbEntity
  8
DIM
100
AcDbDimension
  2
*D26
 10
420.5606660237836
 20
541.4578294149397
 30
0.0
 11
467.0866270797833
 21
541.4578294149397
 31
0.0
 70
   160
  1
\A1;<>
 71
     5
 42
93.0519199815999
 73
     0
 74
     0
 75
     0
  3
tfrom線あり
100
AcDbAlignedDimension
 13
513.6125860053835
 23
754.2303153455266
 33
0.0
 14
420.5606660237836
 24
619.9269468401267
 34
0.0
100
AcDbRotatedDimension
1001
ACAD
1000
DSTYLE
1002
{
1070
   140
1040
12.0
1070
   178
1070
   256
1070
   177
1070
   256
1070
   176
1070
   256
1070
   144
1040
1.0
1070
     0
1002
}
  0
DIMENSION
  5
1111
330
A
100
AcDbEntity
  8
DIM
100
AcDbDimension
  2
*D27
 10
431.0783069601835
 20
657.0228927103267
 30
0.0
 11
460.9403069601835
 21
657.0228927103267
 31
0.0
 70
   161
  1
\A1;G1/2 {}
 71
     5
 42
83.84000000000015
 73
     0
 74
     0
 75
     0
  3
tfrom線あり
100
AcDbAlignedDimension
 13
410.1183069601834
 23
660.6769466107266
 33
0.0
 14
431.0783069601835
 24
660.6769466107266
 34
0.0
1001
ACAD
1000
DSTYLE
1002
{
1070
   172
1070
     1
1070
   140
1040
12.0
1070
   178
1070
   256
1070
   177
1070
   256
1070
   176
1070
   256
1070
   144
1041
4.0
1070
    75
1070
     1
1070
    76
1070
     1
1070
     0
1002
}
  0
INSERT
  5
1112
330
A
100
AcDbEntity
  8
MODEL
100
AcDbBlockReference
  2
SE
 10
289.5749994803837
 20
432.6500836979267
 30
0.0
 41
2.0
 42
2.0
 43
2.0
  0
DIMENSION
  5
1113
330
A
100
AcDbEntity
  8
DIM
100
AcDbDimension
  2
*D28
 10
410.0806660237836
 20
591.1903639685268
 30
0.0
 11
410.0806660237836
 21
591.1903639685268
 31
0.0
 70
   160
  1
\A1;PJ1/2 {}
 71
     5
 42
20.96000000000004
 73
     0
 74
     1
 75
     1
  3
tfrom線あり
100
AcDbAlignedDimension
 13
431.0406660237836
 23
625.0869468401268
 33
0.0
 14
410.0806660237836
 24
625.0869468401268
 34
0.0
100
AcDbRotatedDimension
1001
ACAD
1000
DSTYLE
1002
{
1070
   147
1040
5.0
1070
   172
1070
     1
1070
   140
1040
12.0
1002
}
  0
DIMENSION
  5
1116
330
A
100
AcDbEntity
  8
DIM
100
AcDbDimension
  2
*D29
 10
585.4511028919837
 20
623.9269468401267
 30
0.0
 11
585.4511028919837
 21
660.9269463633266
 31
0.0
 70
   160
  1
\A1;<>
 71
     5
 42
74.0
 73
     0
 74
     0
 75
     0
  3
tfrom線あり
100
AcDbAlignedDimension
 13
465.1332712565836
 23
697.9269468401267
 33
0.0
 14
429.8806660237833
 24
623.9269468401267
 34
0.0
 50
90.0
100
AcDbRotatedDimension
1001
ACAD
1000
DSTYLE
1002
{
1070
   140
1040
12.0
1070
   178
1070
   256
1070
   177
1070
   256
1070
   176
1070
   256
1070
   144
1040
1.0
1070
     0
1002
}
  0
INSERT
  5
1117
330
A
100
AcDbEntity
  8
MODEL
100
AcDbBlockReference
  2
SE2
 10
344.9015148317275
 20
432.6500836979267
 30
0.0
 41
2.0
 42
2.0
 43
2.0
  0
DIMENSION
  5
1118
330
A
100
AcDbEntity
  8
DIM
100
AcDbDimension
  2
*D30
 10
420.5807671233833
 20
1061.694086255538
 30
0.0
 11
478.1048248247835
 21
1052.621191214937
 31
0.0
 70
   162
  1
\A1;<>
 71
     5
 42
1.570796326794897
 73
     0
 74
     0
 75
     0
  3
tfrom線あり
100
AcDb2LineAngularDimension
 13
420.5807671233833
 23
995.0971335135372
 33
0.0
 14
487.1375176663837
 24
995.0971335135372
 34
0.0
 15
420.5807671233833
 25
995.0971335135372
 35
0.0
 16
491.033061774807
 26
1035.772784795563
 36
0.0
1001
ACAD
1000
DSTYLE
1002
{
1070
   179
1070
     0
1070
   140
1040
12.0
1070
   178
1070
   256
1070
   177
1070
   256
1070
   176
1070
   256
1070
   144
1041
4.0
1070
     0
1002
}
  0
DIMENSION
  5
11BA
102
{ACAD_REACTORS
330
11BC
102
}
102
{ACAD_XDICTIONARY
360
11BB
102
}
330
A
100
AcDbEntity
  8
DIM
100
AcDbDimension
  2
*D31
 10
445.3106660237836
 20
729.8158144167231
 30
0.0
 11
354.0906660237833
 21
729.8158144167231
 31
0.0
 70
   160
 71
     5
 42
49.50000000000023
 73
     0
 74
     0
 75
     0
  3
tfrom線あり
100
AcDbAlignedDimension
 13
395.8106660237834
 23
702.2269468401266
 33
0.0
 14
445.3106660237836
 24
702.2269468401266
 34
0.0
100
AcDbRotatedDimension
1001
ACAD
1000
DSTYLE
1002
{
1070
   140
1040
12.0
1070
   271
1070
     1
1070
     3
1000
Φ<>
1002
}
  0
DIMENSION
  5
11CB
102
{ACAD_REACTORS
330
11CD
102
}
102
{ACAD_XDICTIONARY
360
11CC
102
}
330
A
100
AcDbEntity
  8
DIM
100
AcDbDimension
  2
*D32
 10
437.5162187665833
 20
684.7299749224645
 30
0.0
 11
495.24529083279
 21
684.7299749224645
 31
0.0
 70
   160
 71
     5
 42
33.93337590561782
 73
     0
 74
     0
 75
     0
  3
tfrom線あり
100
AcDbAlignedDimension
 13
403.5828428609655
 23
691.465224490431
 33
0.0
 14
437.5162187665833
 24
690.7842037055267
 34
0.0
100
AcDbRotatedDimension
1001
ACAD
1000
DSTYLE
1002
{
1070
   140
1040
12.0
1070
     3
1000
Φ<>
1002
}
  0
DIMENSION
  5
11DD
102
{ACAD_REACTORS
330
11DF
102
}
102
{ACAD_XDICTIONARY
360
11DE
102
}
330
A
100
AcDbEntity
  8
DIM
100
AcDbDimension
  2
*D33
 10
695.5711624124293
 20
980.981119419531
 30
0.0
 11
752.5797861938431
 21
1059.100447786959
 31
0.0
 70
   163
  1
\A1;<>%%p1
 71
     5
 42
35.0
 73
     0
 74
     0
 75
     0
  3
tfrom線あり
100
AcDbDiametricDimension
 15
716.2032003378255
 25
1009.253349806344
 35
0.0
 40
0.0
1001
ACAD_DSTYLE_DIMRADIAL_EXTENSION
1070
   387
1070
     1
1070
   388
1040
0.0
1070
   390
1040
6.283185307179586
1001
ACAD
1000
DSTYLE
1002
{
1070
   140
1040
12.0
1070
   178
1070
   256
1070
   177
1070
   256
1070
   176
1070
   256
1002
}
  0
SPLINE
  5
11EE
330
A
100
AcDbEntity
  8
MODEL
  6
Continuous
 62
     7
100
AcDbSpline
210
0.0
220
0.0
230
1.0
 70
    11
 71
     3
 72
    25
 73
    21
 74
     0
 42
0.000000001
 43
0.0000000001
 40
0.0
 40
0.0
 40
0.0
 40
0.0
 40
0.1228393956552524
 40
0.1666666666666722
 40
0.1666666666666722
 40
0.1666666666666722
 40
0.3333333333333423
 40
0.3333333333333423
 40
0.3333333333333423
 40
0.385836564550762
 40
0.500000000000011
 40
0.6141634354492455
 40
0.6666666666666585
 40
0.6666666666666585
 40
0.6666666666666585
 40
0.8333333333333288
 40
0.8333333333333288
 40
0.8333333333333288
 40
0.8771606043447462
 40
1.0
 40
1.0
 40
1.0
 40
1.0
 10
423.6623331158302
 20
995.2246222717505
 30
0.0
 10
423.6545991410621
 20
996.0935696072984
 30
0.0
 10
422.8584870296726
 20
997.2725432888474
 30
0.0
 10
423.1417683235275
 20
998.4512800073423
 30
0.0
 10
423.238083579384
 20
998.7612575417504
 30
0.0
 10
423.1895234046013
 20
998.859257215084
 30
0.0
 10
423.1409632298189
 20
998.9572568884171
 30
0.0
 10
423.0924030550364
 20
999.0552565617504
 30
0.0
 10
422.9566621533068
 20
998.6530323145581
 30
0.0
 10
422.5583994563377
 20
997.3763223072115
 30
0.0
 10
424.0208117064727
 20
995.2246222717505
 30
0.0
 10
422.5583994563377
 20
993.0729222362895
 30
0.0
 10
422.9566621533068
 20
991.796212228943
 30
0.0
 10
423.092403057403
 20
991.3939879747379
 30
0.0
 10
423.1409632298189
 20
991.4919876550839
 30
0.0
 10
423.1895234046013
 20
991.5899873284172
 30
0.0
 10
423.238083579384
 20
991.6879870017506
 30
0.0
 10
423.1417683235275
 20
991.9979645361589
 30
0.0
 10
422.8584870296725
 20
993.1767012546537
 30
0.0
 10
423.6545991410621
 20
994.3556749362028
 30
0.0
 10
423.6623331158302
 20
995.2246222717505
 30
0.0
  0
SPLINE
  5
11EF
330
A
100
AcDbEntity
  8
MODEL
  6
Continuous
 62
     7
100
AcDbSpline
210
0.0
220
0.0
230
1.0
 70
    15
 71
     3
 72
    33
 73
    29
 74
     0
 42
0.000000001
 43
0.0000000001
 40
0.0
 40
0.0
 40
0.0
 40
0.0
 40
0.0506653747815351
 40
0.0674742208581046
 40
0.0674742208581046
 40
0.0887444607711766
 40
0.0887444607711766
 40
0.0887444607711766
 40
0.1562186816292813
 40
0.1562186816292813
 40
0.1562186816292813
 40
0.223692902487386
 40
0.223692902487386
 40
0.2676173471574546
 40
0.4036130435950504
 40
0.539608740032629
 40
0.5835331847026912
 40
0.5835331847026912
 40
0.6510074055607866
 40
0.6510074055607866
 40
0.6510074055607866
 40
0.7184816264188914
 40
0.7184816264188914
 40
0.7184816264188914
 40
0.7859558472769961
 40
0.7859558472769961
 40
0.8392774739805772
 40
1.0
 40
1.0
 40
1.0
 40
1.0
 10
422.8316662977451
 20
995.2246222717505
 30
0.0
 41
1.0
 10
422.823932322977
 20
996.0935696072984
 30
0.0
 41
1.0
 10
422.0425028789634
 20
997.2507995191397
 30
0.0
 41
1.0
 10
422.3010195598173
 20
998.4078011279282
 30
0.0
 41
1.0
 10
422.4969154287929
 20
999.0607759426015
 30
0.0
 41
1.0
 10
422.6063390670656
 20
999.4255150271761
 30
0.0
 41
1.0
 10
422.7157627053385
 20
999.7902541117505
 30
0.0
 41
1.0
 10
422.6609898304566
 20
999.8647775749921
 30
0.0
 41
0.997360588447966
 10
422.5998089443592
 20
999.9341368827503
 30
0.0
 41
0.997360588447966
 10
422.5327044916589
 20
999.9977828317506
 30
0.0
 41
1.0
 10
422.403897312898
 20
999.5638675071762
 30
0.0
 41
1.0
 10
422.2750901341371
 20
999.1299521826018
 30
0.0
 41
1.0
 10
422.0624319123463
 20
998.4135661688754
 30
0.0
 41
1.0
 10
421.8091266284757
 20
997.2565643855769
 30
0.0
 41
1.0
 10
423.1901448883874
 20
995.2246222717505
 30
0.0
 41
1.0
 10
421.8091266284758
 20
993.1926801579243
 30
0.0
 41
1.0
 10
422.0624319123463
 20
992.0356783746257
 30
0.0
 41
1.0
 10
422.2750901341371
 20
991.3192923608997
 30
0.0
 41
1.0
 10
422.403897312898
 20
990.885377036325
 30
0.0
 41
1.0
 10
422.5327044916589
 20
990.4514617117504
 30
0.0
 41
1.0
 10
422.5998089443592
 20
990.5151076607509
 30
0.0
 41
0.997360588447966
 10
422.6609898304566
 20
990.584466968509
 30
0.0
 41
0.997360588447966
 10
422.7157627053385
 20
990.6589904317505
 30
0.0
 41
1.0
 10
422.6063390670656
 20
991.0237295163249
 30
0.0
 41
1.0
 10
422.4969154287929
 20
991.3884686008993
 30
0.0
 41
1.0
 10
422.3010195598173
 20
992.0414434155729
 30
0.0
 41
1.0
 10
422.0425028789635
 20
993.1984450243615
 30
0.0
 41
1.0
 10
422.823932322977
 20
994.3556749362028
 30
0.0
 41
1.0
 10
422.8316662977451
 20
995.2246222717505
 30
0.0
 41
1.0
  0
SPLINE
  5
11F0
330
A
100
AcDbEntity
  8
MODEL
  6
Continuous
 62
     7
100
AcDbSpline
210
0.0
220
0.0
230
1.0
 70
    15
 71
     3
 72
    29
 73
    25
 74
     0
 42
0.000000001
 43
0.0000000001
 40
0.0
 40
0.0
 40
0.0
 40
0.0
 40
0.006937900788544
 40
0.0870663221932876
 40
0.1666666666666736
 40
0.1666666666666736
 40
0.1666666666666736
 40
0.2462670111400558
 40
0.3263954325447939
 40
0.3333333333333381
 40
0.3333333333333381
 40
0.3333333333333381
 40
0.5000000000000032
 40
0.5000000000000032
 40
0.5000000000000032
 40
0.5116154467721388
 40
0.5891410567193993
 40
0.6666666666666591
 40
0.7441922766139287
 40
0.8217178865611979
 40
0.8333333333333347
 40
0.8333333333333347
 40
0.8333333333333347
 40
1.0
 40
1.0
 40
1.0
 40
1.0
 10
421.9889554474812
 20
1000.682627607762
 30
0.0
 41
1.0
 10
421.9969255846499
 20
1000.606862067584
 30
0.0
 41
1.0
 10
422.0508239029487
 20
999.6560807522269
 30
0.0
 41
1.0
 10
420.8158456868485
 20
997.8372272627313
 30
0.0
 41
0.9999999999999996
 10
421.9932655048918
 20
996.0935696072984
 30
0.0
 41
1.0
 10
422.00099947966
 20
995.2246222717505
 30
0.0
 41
1.0
 10
421.9932655048918
 20
994.3556749362028
 30
0.0
 41
1.0
 10
420.8158456868486
 20
992.61201728077
 30
0.0
 41
1.0
 10
422.0508239029485
 20
990.7931637912743
 30
0.0
 41
1.0
 10
421.9969255846499
 20
989.8423824759177
 30
0.0
 41
1.0
 10
421.9889554474798
 20
989.7666169357265
 30
0.0
 41
1.0
 10
421.9089770405641
 20
989.6967786279147
 30
0.0
 41
0.9965248981312175
 10
421.8222940344394
 20
989.635459860284
 30
0.0
 41
0.9965248981312175
 10
421.7298101259377
 20
989.5832998997505
 30
0.0
 41
1.0
 10
421.7521845637457
 20
989.7144097482794
 30
0.0
 41
1.0
 10
421.8522628912311
 20
990.720567294559
 30
0.0
 41
1.0
 10
420.5759726135096
 20
992.6004861881859
 30
0.0
 41
1.0
 10
422.3594780703022
 20
995.2246222717507
 30
0.0
 41
1.0
 10
420.5759726135096
 20
997.8487583553151
 30
0.0
 41
1.0
 10
421.852262891231
 20
999.7286772489422
 30
0.0
 41
1.0
 10
421.7521845637457
 20
1000.734834795222
 30
0.0
 41
1.0
 10
421.7298101259377
 20
1000.86594464375
 30
0.0
 41
1.0
 10
421.8222940344393
 20
1000.813784683217
 30
0.0
 41
0.9965248981312176
 10
421.9089770405641
 20
1000.752465915586
 30
0.0
 41
0.9965248981312176
 10
421.9889554474812
 20
1000.682627607762
 30
0.0
 41
1.0
  0
SPLINE
  5
11F1
330
A
100
AcDbEntity
  8
MODEL
  6
Continuous
 62
     7
100
AcDbSpline
210
0.0
220
0.0
230
1.0
 70
    11
 71
     1
 72
    15
 73
    13
 74
     0
 42
0.000000001
 43
0.0000000001
 40
0.0
 40
0.0
 40
0.0833333333333333
 40
0.1666666666666667
 40
0.25
 40
0.3333333333333333
 40
0.4166666666666667
 40
0.5
 40
0.5833333333333334
 40
0.6666666666666666
 40
0.75
 40
0.8333333333333334
 40
0.9166666666666666
 40
1.0
 40
1.0
 10
420.7237109990151
 20
1001.190613023346
 30
0.0
 10
420.7237109990151
 20
999.6001114414315
 30
0.0
 10
418.6017404468678
 20
999.6001114414315
 30
0.0
 10
418.6017404468678
 20
1001.048948914835
 30
0.0
 10
419.007414939421
 20
1001.048948914835
 30
0.0
 10
419.007414939421
 20
1000.148645908346
 30
0.0
 10
419.4036590788023
 20
1000.148645908346
 30
0.0
 10
419.4036590788023
 20
1000.904065167495
 30
0.0
 10
419.7964550160364
 20
1000.904065167495
 30
0.0
 10
419.7964550160364
 20
1000.148645908346
 30
0.0
 10
420.3180365064618
 20
1000.148645908346
 30
0.0
 10
420.3180365064618
 20
1001.190613023346
 30
0.0
 10
420.7237109990151
 20
1001.190613023346
 30
0.0
  0
SPLINE
  5
11F2
330
A
100
AcDbEntity
  8
MODEL
  6
Continuous
 62
     7
100
AcDbSpline
210
0.0
220
0.0
230
1.0
 70
    11
 71
     1
 72
    15
 73
    13
 74
     0
 42
0.000000001
 43
0.0000000001
 40
0.0
 40
0.0
 40
0.0833333333333333
 40
0.1666666666666667
 40
0.25
 40
0.3333333333333333
 40
0.4166666666666667
 40
0.5
 40
0.5833333333333334
 40
0.6666666666666666
 40
0.75
 40
0.8333333333333334
 40
0.9166666666666666
 40
1.0
 40
1.0
 10
418.6017404468678
 20
999.0005410995802
 30
0.0
 10
418.6017404468678
 20
998.4485478206655
 30
0.0
 10
419.3843412458235
 20
998.4485478206655
 30
0.0
 10
419.3843412458235
 20
997.4702559627506
 30
0.0
 10
418.6017404468678
 20
997.4702559627506
 30
0.0
 10
418.6017404468678
 20
996.9217214958358
 30
0.0
 10
420.7237109990151
 20
996.9217214958358
 30
0.0
 10
420.7237109990151
 20
997.4702559627506
 30
0.0
 10
419.8222121266746
 20
997.4702559627506
 30
0.0
 10
419.8222121266746
 20
998.4485478206655
 30
0.0
 10
420.7237109990151
 20
998.4485478206655
 30
0.0
 10
420.7237109990151
 20
999.0005410995802
 30
0.0
 10
418.6017404468678
 20
999.0005410995802
 30
0.0
  0
SPLINE
  5
11F3
330
A
100
AcDbEntity
  8
MODEL
  6
Continuous
 62
     7
100
AcDbSpline
210
0.0
220
0.0
230
1.0
 70
    15
 71
     3
 72
    46
 73
    42
 74
     0
 42
0.000000001
 43
0.0000000001
 40
0.0
 40
0.0
 40
0.0
 40
0.0
 40
0.0456752016340695
 40
0.0456752016340695
 40
0.0456752016340695
 40
0.1737276384392318
 40
0.1737276384392318
 40
0.1737276384392318
 40
0.2180303383312912
 40
0.2593297662858758
 40
0.3017800752443796
 40
0.3017800752443796
 40
0.3017800752443796
 40
0.3442303842028859
 40
0.385529812157452
 40
0.4298325120494566
 40
0.4298325120494566
 40
0.4298325120494566
 40
0.474135211941516
 40
0.5154346398960953
 40
0.5578849488545721
 40
0.5578849488545721
 40
0.5578849488545721
 40
0.6003352578130785
 40
0.6416346857676957
 40
0.6859373856597942
 40
0.6859373856597942
 40
0.6859373856597942
 40
0.8139898224649564
 40
0.8139898224649564
 40
0.8139898224649564
 40
0.8780160408675374
 40
0.8780160408675374
 40
0.8780160408675374
 40
0.9420422592700993
 40
0.9420422592700993
 40
0.9420422592700993
 40
0.9870888666050625
 40
0.9870888666050625
 40
0.9870888666050625
 40
1.0
 40
1.0
 40
1.0
 40
1.0
 10
418.5036478591471
 20
995.2211634597506
 30
0.0
 41
1.0
 10
418.5036478591458
 20
995.6227651935042
 30
0.0
 41
0.9600568399204453
 10
418.6576756121977
 20
995.9791260295633
 30
0.0
 41
0.9868828039524479
 10
418.9257037158976
 20
996.2275507373454
 30
0.0
 41
1.080477892096008
 10
418.9257037158976
 20
995.8920883114805
 30
0.0
 41
1.080477892096008
 10
418.9257037158976
 20
995.5566258856156
 30
0.0
 41
1.080477892096008
 10
418.9257037158976
 20
995.2211634597504
 30
0.0
 41
1.080477892096008
 10
418.9204720055129
 20
995.4123062766321
 30
0.0
 41
1.080477892096008
 10
419.0227408350806
 20
995.6842960732764
 30
0.0
 41
1.080477892096008
 10
419.2079303372709
 20
995.832654144173
 30
0.0
 41
1.080477892096008
 10
419.4484002878759
 20
995.9452963831873
 30
0.0
 41
1.080477892096008
 10
419.6627257229415
 20
995.9455821964524
 30
0.0
 41
1.080477892096008
 10
419.8770511580072
 20
995.9452963831873
 30
0.0
 41
1.080477892096008
 10
420.1175211086123
 20
995.8326541441731
 30
0.0
 41
1.080477892096008
 10
420.3027106108024
 20
995.6842960732763
 30
0.0
 41
1.080477892096007
 10
420.4049794403703
 20
995.4123062766321
 30
0.0
 41
1.080477892096008
 10
420.3997477299856
 20
995.2211634597502
 30
0.0
 41
1.080477892096008
 10
420.4049794403703
 20
995.0300206428686
 30
0.0
 41
1.080477892096008
 10
420.3027106108025
 20
994.7580308462245
 30
0.0
 41
1.080477892096007
 10
420.1175211086124
 20
994.6096727753277
 30
0.0
 41
1.080477892096007
 10
419.8770511580072
 20
994.4970305363132
 30
0.0
 41
1.080477892096008
 10
419.6627257229416
 20
994.4967447230483
 30
0.0
 41
1.080477892096008
 10
419.4484002878759
 20
994.4970305363132
 30
0.0
 41
1.080477892096008
 10
419.2079303372708
 20
994.6096727753277
 30
0.0
 41
1.080477892096008
 10
419.0227408350805
 20
994.7580308462245
 30
0.0
 41
1.080477892096007
 10
418.9204720055129
 20
995.0300206428686
 30
0.0
 41
1.080477892096008
 10
418.9257037159147
 20
995.2211634597319
 30
0.0
 41
1.080477892096008
 10
418.9257037159147
 20
995.5566258855971
 30
0.0
 41
1.080477892096008
 10
418.9257037159147
 20
995.8920883114617
 30
0.0
 41
1.080477892096008
 10
418.9257037159147
 20
996.2275507373269
 30
0.0
 41
1.080477892096008
 10
419.6060301020437
 20
996.8581185073552
 30
0.0
 41
0.7746432529499301
 10
420.4559192067113
 20
996.5949994702563
 30
0.0
 41
0.7746432529499301
 10
420.7536750205636
 20
995.6616250808122
 30
0.0
 41
1.080477892096008
 10
421.051430834416
 20
994.7282506913683
 30
0.0
 41
0.7746432529499301
 10
420.5442095670822
 20
993.9172097336868
 30
0.0
 41
0.7746432529499301
 10
419.6627257229415
 20
993.9172097336867
 30
0.0
 41
1.080477892096008
 10
419.1566371874746
 20
993.917209733687
 30
0.0
 41
0.949278918900485
 10
418.7427277192775
 20
994.2448212539956
 30
0.0
 41
0.949278918900485
 10
418.5717764253191
 20
994.7807018386886
 30
0.0
 41
1.080477892096008
 10
418.5271762397161
 20
994.9205099266238
 30
0.0
 41
1.042874007044045
 10
418.5036478591475
 20
995.0687027489295
 30
0.0
 41
1.016048043012042
 10
418.5036478591471
 20
995.2211634597506
 30
0.0
 41
1.0
  0
SPLINE
  5
11F4
330
A
100
AcDbEntity
  8
MODEL
  6
Continuous
 62
     7
100
AcDbSpline
210
0.0
220
0.0
230
1.0
 70
    11
 71
     3
 72
    52
 73
    48
 74
     0
 42
0.000000001
 43
0.0000000001
 40
0.0
 40
0.0
 40
0.0
 40
0.0
 40
0.0255005563571848
 40
0.0503097607166889
 40
0.0769230769231093
 40
0.0769230769231093
 40
0.0769230769231093
 40
0.1538461538462172
 40
0.1538461538462172
 40
0.1538461538462172
 40
0.2307692307693251
 40
0.2307692307693251
 40
0.2307692307693251
 40
0.3076923076924329
 40
0.3076923076924329
 40
0.3076923076924329
 40
0.3846153846155408
 40
0.3846153846155408
 40
0.3846153846155408
 40
0.4615384615386487
 40
0.4615384615386487
 40
0.4615384615386487
 40
0.4881517777450676
 40
0.5129609821045419
 40
0.538461538461698
 40
0.538461538461698
 40
0.538461538461698
 40
0.5650551493322635
 40
0.590927774129303
 40
0.6153846153848479
 40
0.6153846153848479
 40
0.6153846153848479
 40
0.6923076923079557
 40
0.6923076923079557
 40
0.6923076923079557
 40
0.7692307692310637
 40
0.7692307692310637
 40
0.7692307692310637
 40
0.8461538461541716
 40
0.8461538461541716
 40
0.8461538461541716
 40
0.9230769230772795
 40
0.9230769230772795
 40
0.9230769230772795
 40
0.9319002514120281
 40
0.9654822155375229
 40
1.0
 40
1.0
 40
1.0
 40
1.0
 10
419.2663775836848
 20
993.569682870261
 30
0.0
 10
419.073101613432
 20
993.5693775349407
 30
0.0
 10
418.8562488492903
 20
993.4490414332859
 30
0.0
 10
418.6892472952961
 20
993.2905499823257
 30
0.0
 10
418.5970225565234
 20
992.9999823222323
 30
0.0
 10
418.6017404468678
 20
992.7957837760729
 30
0.0
 10
418.6017404468678
 20
992.4527659069015
 30
0.0
 10
418.6017404468678
 20
992.10974803773
 30
0.0
 10
418.6017404468678
 20
991.7667301685591
 30
0.0
 10
419.3090639642502
 20
991.7667301685591
 30
0.0
 10
420.0163874816326
 20
991.7667301685591
 30
0.0
 10
420.7237109990151
 20
991.7667301685591
 30
0.0
 10
420.7237109990151
 20
991.9545424336301
 30
0.0
 10
420.7237109990151
 20
992.142354698701
 30
0.0
 10
420.7237109990151
 20
992.3301669637717
 30
0.0
 10
420.1515990803031
 20
992.3301669637717
 30
0.0
 10
419.5794871615913
 20
992.3301669637717
 30
0.0
 10
419.0073752428793
 20
992.3301669637717
 30
0.0
 10
419.0073752428793
 20
992.4518346665567
 30
0.0
 10
419.0073752428793
 20
992.5735023693419
 30
0.0
 10
419.0073752428793
 20
992.6951700721269
 30
0.0
 10
419.0049797249137
 20
992.7807012315051
 30
0.0
 10
419.0518070147557
 20
992.9024091932561
 30
0.0
 10
419.1366023774427
 20
992.9687953542116
 30
0.0
 10
419.2467097886929
 20
993.0191996616034
 30
0.0
 10
419.3448460371546
 20
993.0193275551874
 30
0.0
 10
419.4429822856163
 20
993.0191996616034
 30
0.0
 10
419.5530896968666
 20
992.9687953542116
 30
0.0
 10
419.6343997880591
 20
992.9051378070277
 30
0.0
 10
419.6789167496052
 20
992.7953752778628
 30
0.0
 10
419.682083252449
 20
992.7247023788867
 30
0.0
 10
419.6820832524618
 20
992.6168012586003
 30
0.0
 10
419.6820832524618
 20
992.508900138314
 30
0.0
 10
419.6820832524618
 20
992.400999018027
 30
0.0
 10
420.029292501313
 20
992.6607165502965
 30
0.0
 10
420.3765017501639
 20
992.9204340825661
 30
0.0
 10
420.7237109990151
 20
993.1801516148357
 30
0.0
 10
420.7237109990151
 20
993.4130422768873
 30
0.0
 10
420.7237109990151
 20
993.6459329389388
 30
0.0
 10
420.7237109990151
 20
993.8788236009905
 30
0.0
 10
420.4399188310628
 20
993.6419383752509
 30
0.0
 10
420.1561266631105
 20
993.4050531495117
 30
0.0
 10
419.8723344951583
 20
993.1681679237719
 30
0.0
 10
419.8606884629399
 20
993.1988860953759
 30
0.0
 10
419.7998813436106
 20
993.3319533802646
 30
0.0
 10
419.6765063180793
 20
993.4490414332859
 30
0.0
 10
419.4596535539376
 20
993.5693775349407
 30
0.0
 10
419.2663775836848
 20
993.569682870261
 30
0.0
  0
SPLINE
  5
11F5
330
A
100
AcDbEntity
  8
MODEL
  6
Continuous
 62
     7
100
AcDbSpline
210
0.0
220
0.0
230
1.0
 70
    15
 71
     3
 72
    49
 73
    45
 74
     0
 42
0.000000001
 43
0.0000000001
 40
0.0
 40
0.0
 40
0.0
 40
0.0
 40
0.0833333333392575
 40
0.0833333333392575
 40
0.0833333333392575
 40
0.166666666678515
 40
0.166666666678515
 40
0.166666666678515
 40
0.2500000000177725
 40
0.2500000000177725
 40
0.2500000000177725
 40
0.3333333333570299
 40
0.3333333333570299
 40
0.3333333333570299
 40
0.3621644259160217
 40
0.3890410639740575
 40
0.4166666666963081
 40
0.4166666666963081
 40
0.4166666666963081
 40
0.4442922694185444
 40
0.4711689074765684
 40
0.5000000000355591
 40
0.5000000000355591
 40
0.5000000000355591
 40
0.5833333333748167
 40
0.5833333333748167
 40
0.5833333333748167
 40
0.6666666667140742
 40
0.6666666667140742
 40
0.6666666667140742
 40
0.7500000000533316
 40
0.7500000000533316
 40
0.7500000000533316
 40
0.7788310926123233
 40
0.8057077306703575
 40
0.8333333333926092
 40
0.8333333333926092
 40
0.8333333333926092
 40
0.8609632121900298
 40
0.8878377871872323
 40
0.9166666666607426
 40
0.9166666666607426
 40
0.9166666666607426
 40
1.0
 40
1.0
 40
1.0
 40
1.0
 10
420.532028206984
 20
991.3063218158995
 30
0.0
 41
1.0
 10
420.2422607123031
 20
991.3063218158995
 30
0.0
 41
1.0
 10
419.9524932176223
 20
991.3063218158995
 30
0.0
 41
1.0
 10
419.6627257229414
 20
991.3063218158995
 30
0.0
 41
1.0
 10
419.6627257229414
 20
991.1174363378852
 30
0.0
 41
1.0
 10
419.6627257229414
 20
990.9285508598712
 30
0.0
 41
1.0
 10
419.6627257229414
 20
990.7396653818571
 30
0.0
 41
1.0
 10
419.8704305213489
 20
990.7396653818571
 30
0.0
 41
1.0
 10
420.0781353197565
 20
990.7396653818571
 30
0.0
 41
1.0
 10
420.285840118164
 20
990.7396653818571
 30
0.0
 41
1.0
 10
420.3582571585815
 20
990.5916860507529
 30
0.0
 41
0.982778304235208
 10
420.3953857761705
 20
990.431175689926
 30
0.0
 41
0.982778304235208
 10
420.395307717662
 20
990.2664270811805
 30
0.0
 41
1.0
 10
420.4005080324339
 20
990.1092523841126
 30
0.0
 41
1.0
 10
420.2988552801528
 20
989.8855980790486
 30
0.0
 41
1.0
 10
420.1147813773732
 20
989.763604821741
 30
0.0
 41
1.0
 10
419.8757600409284
 20
989.6709803115631
 30
0.0
 41
1.0
 10
419.6627257229414
 20
989.6707452903674
 30
0.0
 41
1.0
 10
419.4496914049544
 20
989.6710476419597
 30
0.0
 41
1.0
 10
419.2106700685096
 20
989.7902078226209
 30
0.0
 41
1.0
 10
419.0265961657302
 20
989.9471504995897
 30
0.0
 41
1.0
 10
418.924943413449
 20
990.2348787406987
 30
0.0
 41
1.0
 10
418.930143607506
 20
990.4370818644211
 30
0.0
 41
1.0
 10
418.9301558948815
 20
990.7226774786525
 30
0.0
 41
0.972058195946033
 10
419.0119840741145
 20
990.9962994881887
 30
0.0
 41
0.972058195946033
 10
419.1687688656991
 20
991.2350114153037
 30
0.0
 41
1.0
 10
419.0296568632435
 20
991.2350114153037
 30
0.0
 41
1.0
 10
418.8905448607878
 20
991.2350114153037
 30
0.0
 41
1.0
 10
418.7514328583322
 20
991.2350114153037
 30
0.0
 41
1.0
 10
418.6113146526853
 20
990.9447473018147
 30
0.0
 41
0.983215874790017
 10
418.5394461755843
 20
990.6305478601657
 30
0.0
 41
0.983215874790017
 10
418.5394461755843
 20
990.3082337786655
 30
0.0
 41
1.0
 10
418.5314734425813
 20
989.985414110361
 30
0.0
 41
1.0
 10
418.6873234443444
 20
989.5260525849462
 30
0.0
 41
1.0
 10
418.9695383124018
 20
989.2754917529019
 30
0.0
 41
1.0
 10
419.3359964246554
 20
989.0852511211644
 30
0.0
 41
1.0
 10
419.662612262287
 20
989.0847684132871
 30
0.0
 41
1.0
 10
419.9893689937913
 20
989.0852064623899
 30
0.0
 41
1.0
 10
420.3558914691397
 20
989.2754725184959
 30
0.0
 41
0.9999999999999998
 10
420.6381280015385
 20
989.5260525849462
 30
0.0
 41
1.0
 10
420.7939780033016
 20
989.985414110361
 30
0.0
 41
1.0
 10
420.7860052702986
 20
990.3082337786655
 30
0.0
 41
1.0
 10
420.7860052702986
 20
990.6587490144544
 30
0.0
 41
0.9794107581954942
 10
420.6995665413011
 20
990.998438985825
 30
0.0
 41
0.9794107581954942
 10
420.532028206984
 20
991.3063218158995
 30
0.0
 41
1.0
  0
MTEXT
  5
121D
330
A
100
AcDbEntity
  8
TEMPLATE
390
1D
100
AcDbMText
 10
66.10107227386537
 20
115.0746453469642
 30
0.0
 40
12.21630859375
 41
0.0
 46
12.21630859375
 71
     1
 72
     1
  1
{クローム}
  7
ＭＳ ゴシック
 73
     1
 44
0.7828267384257843
1001
ACAD
1000
ACAD_MTEXT_DEFINED_HEIGHT_BEGIN
1070
    46
1040
12.21630859375
1000
ACAD_MTEXT_DEFINED_HEIGHT_END
  0
VIEWPORT
  5
349
330
B
100
AcDbEntity
 67
     1
  8
0
100
AcDbViewport
 10
202.5
 20
128.5
 30
0.0
 40
486.0
 41
308.4
 68
     1
 69
     1
 12
202.5
 22
128.5
 13
0.0
 23
0.0
 14
0.5
 24
0.5
 15
0.0
 25
0.0
 16
0.0
 26
0.0
 36
1.0
 17
0.0
 27
0.0
 37
0.0
 42
50.0
 43
0.0
 44
0.0
 45
308.4
 50
0.0
 51
0.0
 72
   100
 90
   557152
  1

281
     0
 71
     1
 74
     0
110
0.0
120
0.0
130
0.0
111
1.0
121
0.0
131
0.0
112
0.0
122
1.0
132
0.0
 79
     0
146
0.0
170
     0
 61
     5
348
26C
292
     1
282
     1
141
0.0
142
0.0
 63
   256
  0
VIEWPORT
  5
34A
330
B
100
AcDbEntity
 67
     1
  8
0
100
AcDbViewport
 10
202.5
 20
128.5
 30
0.0
 40
324.0
 41
205.6
 68
     2
 69
     2
 12
986.6781359294573
 22
1427.077061889956
 13
0.0
 23
0.0
 14
0.5
 24
0.5
 15
0.0
 25
0.0
 16
0.0
 26
0.0
 36
1.0
 17
0.0
 27
0.0
 37
0.0
 42
50.0
 43
0.0
 44
0.0
 45
2890.021615685494
 50
0.0
 51
0.0
 72
   100
 90
   557152
  1

281
     0
 71
     1
 74
     0
110
0.0
120
0.0
130
0.0
111
1.0
121
0.0
131
0.0
112
0.0
122
1.0
132
0.0
 79
     0
146
0.0
170
     0
 61
     5
348
26C
292
     1
282
     1
141
0.0
142
0.0
 63
   256
  0
ENDSEC
  0
SECTION
  2
OBJECTS
  0
DICTIONARY
  5
19
330
0
100
AcDbDictionary
281
     1
  3
ACAD_COLOR
350
674
  3
ACAD_DETAILVIEWSTYLE
350
BBF
  3
ACAD_GROUP
350
1A
  3
ACAD_IMAGE_VARS
350
27B
  3
ACAD_LAYOUT
350
1E
  3
ACAD_MATERIAL
350
263
  3
ACAD_MLEADERSTYLE
350
336
  3
ACAD_MLINESTYLE
350
1B
  3
ACAD_PLOTSETTINGS
350
22
  3
ACAD_PLOTSTYLENAME
350
1F
  3
ACAD_SCALELIST
350
241
  3
ACAD_SECTIONVIEWSTYLE
350
BC0
  3
ACAD_TABLESTYLE
350
278
  3
ACAD_VISUALSTYLE
350
267
  3
ACDB_RECOMPOSE_DATA
350
1223
  3
AcDbVariableDictionary
350
330
  3
APPDATA
350
27A
  0
SUN
  5
904
330
15
100
AcDbSun
 90
        1
290
     0
 63
     7
421
 16777215
 40
1.0
291
     1
 91
  2455826
 92
 54000000
292
     0
 70
     2
 71
   256
280
     1
  0
DICTIONARY
  5
2E1
330
2
100
AcDbDictionary
280
     1
281
     1
  3
ACAD_LAYERSTATES
360
2E2
  3
ACLYDICTIONARY
360
11F9
  0
DICTIONARY
  5
11BB
330
11BA
100
AcDbDictionary
280
     1
281
     1
  3
ACAD_DIMASSOC
360
11BC
  0
DICTIONARY
  5
11CC
330
11CB
100
AcDbDictionary
280
     1
281
     1
  3
ACAD_DIMASSOC
360
11CD
  0
DICTIONARY
  5
11DE
330
11DD
100
AcDbDictionary
280
     1
281
     1
  3
ACAD_DIMASSOC
360
11DF
  0
DICTIONARY
  5
674
102
{ACAD_REACTORS
330
19
102
}
330
19
100
AcDbDictionary
281
     1
  0
DICTIONARY
  5
BBF
102
{ACAD_REACTORS
330
19
102
}
330
19
100
AcDbDictionary
281
     1
  0
DICTIONARY
  5
1A
102
{ACAD_REACTORS
330
19
102
}
330
19
100
AcDbDictionary
281
     1
  0
RASTERVARIABLES
  5
27B
102
{ACAD_REACTORS
330
19
102
}
330
19
100
AcDbRasterVariables
 90
        0
 70
     1
 71
     1
 72
     1
  0
DICTIONARY
  5
1E
102
{ACAD_REACTORS
330
19
102
}
330
19
100
AcDbDictionary
281
     1
  3
Layout1
350
21
  3
Model
350
20
  0
DICTIONARY
  5
263
102
{ACAD_REACTORS
330
19
102
}
330
19
100
AcDbDictionary
281
     1
  3
ByBlock
350
11ED
  3
ByLayer
350
264
  3
Global
350
266
  0
DICTIONARY
  5
336
102
{ACAD_REACTORS
330
19
102
}
330
19
100
AcDbDictionary
281
     1
  0
DICTIONARY
  5
1B
102
{ACAD_REACTORS
330
19
102
}
330
19
100
AcDbDictionary
281
     1
  3
Standard
350
1C
  0
DICTIONARY
  5
22
102
{ACAD_REACTORS
330
19
102
}
330
19
100
AcDbDictionary
281
     1
  0
ACDBDICTIONARYWDFLT
  5
1F
102
{ACAD_REACTORS
330
19
102
}
330
19
100
AcDbDictionary
281
     1
  3
Normal
350
1D
100
AcDbDictionaryWithDefault
340
1D
  0
DICTIONARY
  5
241
102
{ACAD_REACTORS
330
19
102
}
330
19
100
AcDbDictionary
281
     1
  3
A0
350
242
  3
A1
350
243
  3
A2
350
244
  3
A3
350
245
  3
A4
350
246
  3
A5
350
247
  3
A6
350
248
  3
A7
350
249
  3
A8
350
24A
  3
A9
350
24B
  3
B0
350
24C
  3
B1
350
24D
  3
B2
350
24E
  3
B3
350
24F
  3
B4
350
250
  3
B5
350
251
  3
B6
350
252
  3
B7
350
253
  3
B8
350
254
  3
B9
350
255
  3
C0
350
256
  3
C1
350
257
  3
C2
350
258
  3
C3
350
259
  3
C4
350
25A
  3
C5
350
25B
  3
C6
350
25C
  3
C7
350
25D
  3
C8
350
25E
  3
C9
350
25F
  3
D0
350
260
  3
D1
350
261
  3
D2
350
262
  0
DICTIONARY
  5
BC0
102
{ACAD_REACTORS
330
19
102
}
330
19
100
AcDbDictionary
281
     1
  0
DICTIONARY
  5
278
102
{ACAD_REACTORS
330
19
102
}
330
19
100
AcDbDictionary
281
     1
  3
Standard
350
279
  0
DICTIONARY
  5
267
102
{ACAD_REACTORS
330
19
102
}
330
19
100
AcDbDictionary
281
     1
  3
2dWireframe
350
26C
  3
3D Hidden
350
26E
  3
3dWireframe
350
26D
  3
Basic
350
26F
  3
Brighten
350
273
  3
ColorChange
350
277
  3
Conceptual
350
271
  3
Dim
350
272
  3
EdgeColorOff
350
8FE
  3
Facepattern
350
276
  3
Flat
350
268
  3
FlatWithEdges
350
269
  3
Gouraud
350
26A
  3
GouraudWithEdges
350
26B
  3
Hidden
350
8FB
  3
JitterOff
350
8FC
  3
Linepattern
350
275
  3
OverhangOff
350
8FD
  3
Realistic
350
270
  3
Shaded
350
903
  3
Shaded with edges
350
902
  3
Shades of Gray
350
8FF
  3
Sketchy
350
900
  3
Thicken
350
274
  3
Wireframe
350
8FA
  3
X-Ray
350
901
  0
XRECORD
  5
1223
102
{ACAD_REACTORS
330
19
102
}
330
19
100
AcDbXrecord
280
     1
 90
        1
330
279
  0
DICTIONARY
  5
330
102
{ACAD_REACTORS
330
19
102
}
330
19
100
AcDbDictionary
281
     1
  3
CANNOSCALE
350
331
  3
CTABLESTYLE
350
335
  3
HPTRANSPARENCY
350
D52
  3
XCLIPFRAME
350
896
  0
DICTIONARY
  5
27A
102
{ACAD_REACTORS
330
19
102
}
330
19
100
AcDbDictionary
281
     1
  0
DICTIONARY
  5
2E2
102
{ACAD_REACTORS
330
2E1
102
}
330
2E1
100
AcDbDictionary
281
     1
  3
ARGON_LAYERP_8
350
C9F
  3
ARGON_LAYERP_9
350
7AA
  0
DICTIONARY
  5
11F9
102
{ACAD_REACTORS
330
2E1
102
}
330
2E1
100
AcDbDictionary
281
     1
1001
ACAD
1000
<All
  0
DIMASSOC
  5
11BC
102
{ACAD_REACTORS
330
11BB
102
}
330
11BB
100
AcDbDimAssoc
330
11BA
 90
        3
 70
     0
 71
     1
  1
AcDbOsnapPointRef
 72
     1
331
1004
 73
     0
 91
        0
 40
0.0
 10
0.0
 20
0.0
 30
0.0
 75
     0
  1
AcDbOsnapPointRef
 72
     1
331
1109
 73
     0
 91
        0
 40
0.0
 10
0.0
 20
0.0
 30
0.0
 75
     0
  0
DIMASSOC
  5
11CD
102
{ACAD_REACTORS
330
11CC
102
}
330
11CC
100
AcDbDimAssoc
330
11CB
 90
        2
 70
     0
 71
     1
  1
AcDbOsnapPointRef
 72
     2
331
102D
 73
     0
 91
        0
 40
0.5
 10
0.0
 20
0.0
 30
0.0
 75
     0
  0
DIMASSOC
  5
11DF
102
{ACAD_REACTORS
330
11DE
102
}
330
11DE
100
AcDbDimAssoc
330
11DD
 90
        2
 70
     0
 71
     1
  1
AcDbOsnapPointRef
 72
     3
331
104D
 73
     0
 91
        0
 40
0.0
 10
0.0
 20
0.0
 30
0.0
 75
     0
  0
LAYOUT
  5
21
102
{ACAD_REACTORS
330
1E
102
}
330
1E
100
AcDbPlotSettings
  1

  2
none_device
  4
ISO_A3_(420.00_x_297.00_MM)
  6

 40
7.5
 41
20.0
 42
7.5
 43
20.0
 44
420.0
 45
297.0
 46
0.0
 47
0.0
 48
0.0
 49
0.0
140
0.0
141
0.0
142
1.0
143
1.0
 70
     0
 72
     1
 73
     0
 74
     0
  7

 75
     0
 76
     0
 77
     2
 78
   300
147
1.0
148
0.0
149
0.0
100
AcDbLayout
  1
Layout1
 70
     0
 71
     0
 10
-7.5
 20
-20.0
 11
412.5
 21
277.0
 12
0.0
 22
0.0
 32
0.0
 14
0.0
 24
0.0
 34
0.0
 15
0.0
 25
0.0
 35
0.0
146
0.0
 13
0.0
 23
0.0
 33
0.0
 16
0.0
 26
0.0
 36
0.0
 17
0.0
 27
0.0
 37
0.0
 76
     0
330
B
331
349
  0
LAYOUT
  5
20
102
{ACAD_REACTORS
330
1E
102
}
330
1E
100
AcDbPlotSettings
  1

  2
none_device
  4
ISO_A3_(420.00_x_297.00_MM)
  6

 40
7.5
 41
20.0
 42
7.5
 43
20.0
 44
420.0
 45
297.0
 46
0.0
 47
0.0
 48
0.0
 49
0.0
140
0.0
141
0.0
142
1.0
143
1.0
 70
  1024
 72
     1
 73
     0
 74
     0
  7

 75
     0
 76
     0
 77
     2
 78
   300
147
1.0
148
0.0
149
0.0
100
AcDbLayout
  1
Model
 70
     0
 71
     1
 10
0.0
 20
0.0
 11
1050.0
 21
1485.0
 12
0.0
 22
0.0
 32
0.0
 14
36.10107227362437
 24
31.89607416228557
 34
0.0
 15
1011.101072273866
 25
1448.573336753213
 35
0.0
146
0.0
 13
0.0
 23
0.0
 33
0.0
 16
0.0
 26
0.0
 36
0.0
 17
0.0
 27
0.0
 37
0.0
 76
     0
330
A
331
15
  0
MATERIAL
  5
11ED
102
{ACAD_REACTORS
330
263
102
}
330
263
100
AcDbMaterial
  1
ByBlock
 72
     1
 94
      127
  0
MATERIAL
  5
264
102
{ACAD_REACTORS
330
263
102
}
330
263
100
AcDbMaterial
  1
ByLayer
 72
     1
 94
      127
  0
MATERIAL
  5
266
102
{ACAD_REACTORS
330
263
102
}
330
263
100
AcDbMaterial
  1
Global
 72
     1
 94
      127
  0
MLINESTYLE
  5
1C
102
{ACAD_REACTORS
330
1B
102
}
330
1B
100
AcDbMlineStyle
  2
Standard
 70
     0
  3

 62
     0
 51
90.0
 52
90.0
 71
     2
 49
0.5
 62
   256
  6
BYLAYER
 49
-0.5
 62
   256
  6
BYLAYER
  0
ACDBPLACEHOLDER
  5
1D
102
{ACAD_REACTORS
330
1F
102
}
330
1F
  0
SCALE
  5
242
102
{ACAD_REACTORS
330
241
102
}
330
241
100
AcDbScale
 70
     0
300
1:1
140
1.0
141
1.0
290
     1
  0
SCALE
  5
243
102
{ACAD_REACTORS
330
241
102
}
330
241
100
AcDbScale
 70
     0
300
1:2
140
1.0
141
2.0
290
     0
  0
SCALE
  5
244
102
{ACAD_REACTORS
330
241
102
}
330
241
100
AcDbScale
 70
     0
300
1:4
140
1.0
141
4.0
290
     0
  0
SCALE
  5
245
102
{ACAD_REACTORS
330
241
102
}
330
241
100
AcDbScale
 70
     0
300
1:5
140
1.0
141
5.0
290
     0
  0
SCALE
  5
246
102
{ACAD_REACTORS
330
241
102
}
330
241
100
AcDbScale
 70
     0
300
1:8
140
1.0
141
8.0
290
     0
  0
SCALE
  5
247
102
{ACAD_REACTORS
330
241
102
}
330
241
100
AcDbScale
 70
     0
300
1:10
140
1.0
141
10.0
290
     0
  0
SCALE
  5
248
102
{ACAD_REACTORS
330
241
102
}
330
241
100
AcDbScale
 70
     0
300
1:16
140
1.0
141
16.0
290
     0
  0
SCALE
  5
249
102
{ACAD_REACTORS
330
241
102
}
330
241
100
AcDbScale
 70
     0
300
1:20
140
1.0
141
20.0
290
     0
  0
SCALE
  5
24A
102
{ACAD_REACTORS
330
241
102
}
330
241
100
AcDbScale
 70
     0
300
1:30
140
1.0
141
30.0
290
     0
  0
SCALE
  5
24B
102
{ACAD_REACTORS
330
241
102
}
330
241
100
AcDbScale
 70
     0
300
1:40
140
1.0
141
40.0
290
     0
  0
SCALE
  5
24C
102
{ACAD_REACTORS
330
241
102
}
330
241
100
AcDbScale
 70
     0
300
1:50
140
1.0
141
50.0
290
     0
  0
SCALE
  5
24D
102
{ACAD_REACTORS
330
241
102
}
330
241
100
AcDbScale
 70
     0
300
1:100
140
1.0
141
100.0
290
     0
  0
SCALE
  5
24E
102
{ACAD_REACTORS
330
241
102
}
330
241
100
AcDbScale
 70
     0
300
2:1
140
2.0
141
1.0
290
     0
  0
SCALE
  5
24F
102
{ACAD_REACTORS
330
241
102
}
330
241
100
AcDbScale
 70
     0
300
4:1
140
4.0
141
1.0
290
     0
  0
SCALE
  5
250
102
{ACAD_REACTORS
330
241
102
}
330
241
100
AcDbScale
 70
     0
300
8:1
140
8.0
141
1.0
290
     0
  0
SCALE
  5
251
102
{ACAD_REACTORS
330
241
102
}
330
241
100
AcDbScale
 70
     0
300
10:1
140
10.0
141
1.0
290
     0
  0
SCALE
  5
252
102
{ACAD_REACTORS
330
241
102
}
330
241
100
AcDbScale
 70
     0
300
100:1
140
100.0
141
1.0
290
     0
  0
SCALE
  5
253
102
{ACAD_REACTORS
330
241
102
}
330
241
100
AcDbScale
 70
     0
300
1/128" = 1'-0"
140
0.0078125
141
12.0
290
     0
  0
SCALE
  5
254
102
{ACAD_REACTORS
330
241
102
}
330
241
100
AcDbScale
 70
     0
300
1/64" = 1'-0"
140
0.015625
141
12.0
290
     0
  0
SCALE
  5
255
102
{ACAD_REACTORS
330
241
102
}
330
241
100
AcDbScale
 70
     0
300
1/32" = 1'-0"
140
0.03125
141
12.0
290
     0
  0
SCALE
  5
256
102
{ACAD_REACTORS
330
241
102
}
330
241
100
AcDbScale
 70
     0
300
1/16" = 1'-0"
140
0.0625
141
12.0
290
     0
  0
SCALE
  5
257
102
{ACAD_REACTORS
330
241
102
}
330
241
100
AcDbScale
 70
     0
300
3/32" = 1'-0"
140
0.09375
141
12.0
290
     0
  0
SCALE
  5
258
102
{ACAD_REACTORS
330
241
102
}
330
241
100
AcDbScale
 70
     0
300
1/8" = 1'-0"
140
0.125
141
12.0
290
     0
  0
SCALE
  5
259
102
{ACAD_REACTORS
330
241
102
}
330
241
100
AcDbScale
 70
     0
300
3/16" = 1'-0"
140
0.1875
141
12.0
290
     0
  0
SCALE
  5
25A
102
{ACAD_REACTORS
330
241
102
}
330
241
100
AcDbScale
 70
     0
300
1/4" = 1'-0"
140
0.25
141
12.0
290
     0
  0
SCALE
  5
25B
102
{ACAD_REACTORS
330
241
102
}
330
241
100
AcDbScale
 70
     0
300
3/8" = 1'-0"
140
0.375
141
12.0
290
     0
  0
SCALE
  5
25C
102
{ACAD_REACTORS
330
241
102
}
330
241
100
AcDbScale
 70
     0
300
1/2" = 1'-0"
140
0.5
141
12.0
290
     0
  0
SCALE
  5
25D
102
{ACAD_REACTORS
330
241
102
}
330
241
100
AcDbScale
 70
     0
300
3/4" = 1'-0"
140
0.75
141
12.0
290
     0
  0
SCALE
  5
25E
102
{ACAD_REACTORS
330
241
102
}
330
241
100
AcDbScale
 70
     0
300
1" = 1'-0"
140
1.0
141
12.0
290
     0
  0
SCALE
  5
25F
102
{ACAD_REACTORS
330
241
102
}
330
241
100
AcDbScale
 70
     0
300
1-1/2" = 1'-0"
140
1.5
141
12.0
290
     0
  0
SCALE
  5
260
102
{ACAD_REACTORS
330
241
102
}
330
241
100
AcDbScale
 70
     0
300
3" = 1'-0"
140
3.0
141
12.0
290
     0
  0
SCALE
  5
261
102
{ACAD_REACTORS
330
241
102
}
330
241
100
AcDbScale
 70
     0
300
6" = 1'-0"
140
6.0
141
12.0
290
     0
  0
SCALE
  5
262
102
{ACAD_REACTORS
330
241
102
}
330
241
100
AcDbScale
 70
     0
300
1'-0" = 1'-0"
140
12.0
141
12.0
290
     0
  0
TABLESTYLE
  5
279
102
{ACAD_REACTORS
330
278
102
}
102
{ACAD_XDICTIONARY
360
1221
102
}
330
278
100
AcDbTableStyle
  3
Standard
 70
     0
 71
     0
 40
0.06
 41
0.06
280
     0
281
     0
  7
Standard
140
4.5
170
     2
 62
     0
 63
   257
283
     0
 90
        4
 91
        0
  1

274
    -2
284
     1
 64
     0
275
    -2
285
     1
 65
     0
276
    -2
286
     1
 66
     0
277
    -2
287
     1
 67
     0
278
    -2
288
     1
 68
     0
279
    -2
289
     1
 69
     0
  7
Standard
140
6.0
170
     5
 62
     0
 63
   257
283
     0
 90
        4
 91
        0
  1

274
    -2
284
     1
 64
     0
275
    -2
285
     1
 65
     0
276
    -2
286
     1
 66
     0
277
    -2
287
     1
 67
     0
278
    -2
288
     1
 68
     0
279
    -2
289
     1
 69
     0
  7
Standard
140
4.5
170
     5
 62
     0
 63
   257
283
     0
 90
        4
 91
        0
  1

274
    -2
284
     1
 64
     0
275
    -2
285
     1
 65
     0
276
    -2
286
     1
 66
     0
277
    -2
287
     1
 67
     0
278
    -2
288
     1
 68
     0
279
    -2
289
     1
 69
     0
  0
VISUALSTYLE
  5
26C
102
{ACAD_REACTORS
330
267
102
}
330
267
100
AcDbVisualStyle
  2
2dWireframe
 70
     4
 71
     0
 72
     2
 73
     0
 90
        0
 40
-0.6
 41
-30.0
 62
     5
 63
     7
421
 16777215
 74
     1
 91
        4
 64
     7
 65
   257
 75
     1
175
     1
 42
1.0
 92
        0
 66
   257
 43
1.0
 76
     1
 77
     6
 78
     2
 67
     7
 79
     5
170
     0
171
     0
290
     0
174
     0
 93
        1
 44
0.0
173
     0
291
     0
 45
0.0
  0
VISUALSTYLE
  5
26E
102
{ACAD_REACTORS
330
267
102
}
330
267
100
AcDbVisualStyle
  2
3D Hidden
 70
     6
 71
     1
 72
     2
 73
     2
 90
        0
 40
-0.6
 41
-30.0
 62
     5
 63
     7
421
 16777215
 74
     2
 91
        2
 64
     7
 65
   257
 75
     2
175
     1
 42
40.0
 92
        0
 66
   257
 43
1.0
 76
     1
 77
     6
 78
     2
 67
     7
 79
     3
170
     0
171
     0
290
     0
174
     0
 93
        1
 44
0.0
173
     0
291
     0
 45
0.0
  0
VISUALSTYLE
  5
26D
102
{ACAD_REACTORS
330
267
102
}
330
267
100
AcDbVisualStyle
  2
3dWireframe
 70
     5
 71
     0
 72
     2
 73
     0
 90
        0
 40
-0.6
 41
-30.0
 62
     5
 63
     7
421
 16777215
 74
     1
 91
        4
 64
     7
 65
   257
 75
     1
175
     1
 42
1.0
 92
        0
 66
   257
 43
1.0
 76
     1
 77
     6
 78
     2
 67
     7
 79
     5
170
     0
171
     0
290
     0
174
     0
 93
        1
 44
0.0
173
     0
291
     0
 45
0.0
  0
VISUALSTYLE
  5
26F
102
{ACAD_REACTORS
330
267
102
}
330
267
100
AcDbVisualStyle
  2
Basic
 70
     7
 71
     1
 72
     0
 73
     1
 90
        0
 40
-0.6
 41
-30.0
 62
     5
 63
     7
421
 16777215
 74
     0
 91
        4
 64
     7
 65
   257
 75
     1
175
     1
 42
1.0
 92
        8
 66
     7
 43
1.0
 76
     1
 77
     6
 78
     2
 67
     7
 79
     5
170
     0
171
     0
290
     0
174
     0
 93
        1
 44
0.0
173
     0
291
     1
 45
0.0
  0
VISUALSTYLE
  5
273
102
{ACAD_REACTORS
330
267
102
}
330
267
100
AcDbVisualStyle
  2
Brighten
 70
    12
 71
     2
 72
     2
 73
     0
 90
        0
 40
-0.6
 41
-30.0
 62
     5
 63
     7
421
 16777215
 74
     1
 91
        4
 64
     7
 65
   257
 75
     1
175
     1
 42
1.0
 92
        8
 66
     7
 43
1.0
 76
     1
 77
     6
 78
     2
 67
     7
 79
     5
170
     0
171
     0
290
     0
174
     0
 93
        1
 44
50.0
173
     0
291
     1
 45
0.0
  0
VISUALSTYLE
  5
277
102
{ACAD_REACTORS
330
267
102
}
330
267
100
AcDbVisualStyle
  2
ColorChange
 70
    16
 71
     2
 72
     2
 73
     3
 90
        0
 40
-0.6
 41
-30.0
 62
     5
 63
     8
421
  8421504
 74
     1
 91
        4
 64
     7
 65
   257
 75
     1
175
     1
 42
1.0
 92
        8
 66
     8
424
  8421504
 43
1.0
 76
     1
 77
     6
 78
     2
 67
     7
 79
     5
170
     0
171
     0
290
     0
174
     0
 93
        1
 44
0.0
173
     0
291
     1
 45
0.0
  0
VISUALSTYLE
  5
271
102
{ACAD_REACTORS
330
267
102
}
330
267
100
AcDbVisualStyle
  2
Conceptual
 70
     9
 71
     3
 72
     2
 73
     0
 90
        0
 40
-0.6
 41
-30.0
 62
     5
 63
     7
421
 16777215
 74
     2
 91
        2
 64
     7
 65
   257
 75
     1
175
     1
 42
40.0
 92
        8
 66
     7
 43
1.0
 76
     1
 77
     6
 78
     2
 67
     7
 79
     3
170
     0
171
     0
290
     0
174
     0
 93
        1
 44
0.0
173
     0
291
     0
 45
0.0
  0
VISUALSTYLE
  5
272
102
{ACAD_REACTORS
330
267
102
}
330
267
100
AcDbVisualStyle
  2
Dim
 70
    11
 71
     2
 72
     2
 73
     0
 90
        0
 40
-0.6
 41
-30.0
 62
     5
 63
     7
421
 16777215
 74
     1
 91
        4
 64
     7
 65
   257
 75
     1
175
     1
 42
1.0
 92
        8
 66
     7
 43
1.0
 76
     1
 77
     6
 78
     2
 67
     7
 79
     5
170
     0
171
     0
290
     0
174
     0
 93
        1
 44
-50.0
173
     0
291
     1
 45
0.0
  0
VISUALSTYLE
  5
8FE
102
{ACAD_REACTORS
330
267
102
}
330
267
100
AcDbVisualStyle
  2
EdgeColorOff
 70
    22
 71
     2
 72
     2
 73
     0
 90
        0
 40
0.6
 41
30.0
 62
     5
 63
     7
421
 16777215
 74
     1
 91
        4
 64
     7
 65
   257
 75
     1
175
     1
 42
1.0
 92
        8
 66
     7
 43
1.0
 76
     1
 77
     6
 78
     2
 67
     7
 79
     5
170
     0
171
     0
290
     0
174
     0
 93
        1
 44
0.0
173
     0
291
     1
 45
0.0
  0
VISUALSTYLE
  5
276
102
{ACAD_REACTORS
330
267
102
}
330
267
100
AcDbVisualStyle
  2
Facepattern
 70
    15
 71
     2
 72
     2
 73
     0
 90
        0
 40
-0.6
 41
-30.0
 62
     5
 63
     7
421
 16777215
 74
     1
 91
        4
 64
     7
 65
   257
 75
     1
175
     1
 42
1.0
 92
        8
 66
     7
 43
1.0
 76
     1
 77
     6
 78
     2
 67
     7
 79
     5
170
     0
171
     0
290
     0
174
     0
 93
        1
 44
0.0
173
     0
291
     1
 45
0.0
  0
VISUALSTYLE
  5
268
102
{ACAD_REACTORS
330
267
102
}
330
267
100
AcDbVisualStyle
  2
Flat
 70
     0
 71
     2
 72
     1
 73
     1
 90
        2
 40
-0.6
 41
30.0
 62
     5
 63
     7
421
 16777215
 74
     0
 91
        4
 64
     7
 65
   257
 75
     1
175
     1
 42
1.0
 92
        8
 66
     7
 43
1.0
 76
     1
 77
     6
 78
     2
 67
     7
 79
     5
170
     0
171
     0
290
     0
174
     0
 93
       13
 44
0.0
173
     0
291
     1
 45
0.0
  0
VISUALSTYLE
  5
269
102
{ACAD_REACTORS
330
267
102
}
330
267
100
AcDbVisualStyle
  2
FlatWithEdges
 70
     1
 71
     2
 72
     1
 73
     1
 90
        2
 40
-0.6
 41
30.0
 62
     5
 63
     7
421
 16777215
 74
     1
 91
        4
 64
     7
 65
   257
 75
     1
175
     1
 42
1.0
 92
        0
 66
   257
 43
1.0
 76
     1
 77
     6
 78
     2
 67
     7
 79
     5
170
     0
171
     0
290
     0
174
     0
 93
       13
 44
0.0
173
     0
291
     1
 45
0.0
  0
VISUALSTYLE
  5
26A
102
{ACAD_REACTORS
330
267
102
}
330
267
100
AcDbVisualStyle
  2
Gouraud
 70
     2
 71
     2
 72
     2
 73
     1
 90
        2
 40
-0.6
 41
30.0
 62
     5
 63
     7
421
 16777215
 74
     0
 91
        4
 64
     7
 65
   257
 75
     1
175
     1
 42
1.0
 92
        0
 66
     7
 43
1.0
 76
     1
 77
     6
 78
     2
 67
     7
 79
     5
170
     0
171
     0
290
     0
174
     0
 93
       13
 44
0.0
173
     0
291
     1
 45
0.0
  0
VISUALSTYLE
  5
26B
102
{ACAD_REACTORS
330
267
102
}
330
267
100
AcDbVisualStyle
  2
GouraudWithEdges
 70
     3
 71
     2
 72
     2
 73
     1
 90
        2
 40
-0.6
 41
30.0
 62
     5
 63
     7
421
 16777215
 74
     1
 91
        4
 64
     7
 65
   257
 75
     1
175
     1
 42
1.0
 92
        0
 66
   257
 43
1.0
 76
     1
 77
     6
 78
     2
 67
     7
 79
     5
170
     0
171
     0
290
     0
174
     0
 93
       13
 44
0.0
173
     0
291
     1
 45
0.0
  0
VISUALSTYLE
  5
8FB
102
{ACAD_REACTORS
330
267
102
}
330
267
100
AcDbVisualStyle
  2
Hidden
 70
     6
 71
     1
 72
     2
 73
     2
 90
        0
 40
0.6
 41
30.0
 62
     5
 63
     7
421
 16777215
 74
     2
 91
        2
 64
     7
 65
   257
 75
     2
175
     1
 42
40.0
 92
        0
 66
   257
 43
1.0
 76
     1
 77
     6
 78
     2
 67
     7
 79
     3
170
     0
171
     0
290
     0
174
     0
 93
        1
 44
0.0
173
     0
291
     0
 45
0.0
  0
VISUALSTYLE
  5
8FC
102
{ACAD_REACTORS
330
267
102
}
330
267
100
AcDbVisualStyle
  2
JitterOff
 70
    20
 71
     2
 72
     2
 73
     0
 90
        0
 40
0.6
 41
30.0
 62
     5
 63
     7
421
 16777215
 74
     1
 91
        4
 64
     7
 65
   257
 75
     1
175
     1
 42
1.0
 92
       10
 66
     7
 43
1.0
 76
     1
 77
     6
 78
     2
 67
     7
 79
     5
170
     0
171
     0
290
     0
174
     0
 93
        1
 44
0.0
173
     0
291
     1
 45
0.0
  0
VISUALSTYLE
  5
275
102
{ACAD_REACTORS
330
267
102
}
330
267
100
AcDbVisualStyle
  2
Linepattern
 70
    14
 71
     2
 72
     2
 73
     0
 90
        0
 40
-0.6
 41
-30.0
 62
     5
 63
     7
421
 16777215
 74
     1
 91
        4
 64
     7
 65
   257
 75
     7
175
     7
 42
1.0
 92
        8
 66
     7
 43
1.0
 76
     1
 77
     6
 78
     2
 67
     7
 79
     5
170
     0
171
     0
290
     0
174
     0
 93
        1
 44
0.0
173
     0
291
     1
 45
0.0
  0
VISUALSTYLE
  5
8FD
102
{ACAD_REACTORS
330
267
102
}
330
267
100
AcDbVisualStyle
  2
OverhangOff
 70
    21
 71
     2
 72
     2
 73
     0
 90
        0
 40
0.6
 41
30.0
 62
     5
 63
     7
421
 16777215
 74
     1
 91
        4
 64
     7
 65
   257
 75
     1
175
     1
 42
1.0
 92
        9
 66
     7
 43
1.0
 76
     1
 77
     6
 78
     2
 67
     7
 79
     5
170
     0
171
     0
290
     0
174
     0
 93
        1
 44
0.0
173
     0
291
     1
 45
0.0
  0
VISUALSTYLE
  5
270
102
{ACAD_REACTORS
330
267
102
}
330
267
100
AcDbVisualStyle
  2
Realistic
 70
     8
 71
     2
 72
     2
 73
     0
 90
        0
 40
-0.6
 41
-30.0
 62
     5
 63
     7
421
 16777215
 74
     1
 91
        0
 64
     7
 65
   257
 75
     1
175
     1
 42
1.0
 92
        8
 66
     8
424
  7895160
 43
1.0
 76
     1
 77
     6
 78
     2
 67
     7
 79
     5
170
     0
171
     0
290
     0
174
     0
 93
       13
 44
0.0
173
     0
291
     0
 45
0.0
  0
VISUALSTYLE
  5
903
102
{ACAD_REACTORS
330
267
102
}
330
267
100
AcDbVisualStyle
  2
Shaded
 70
    27
 71
     2
 72
     2
 73
     1
 90
        2
 40
0.6
 41
30.0
 62
     5
 63
     7
421
 16777215
 74
     0
 91
        4
 64
     7
 65
   257
 75
     1
175
     1
 42
1.0
 92
        8
 66
   257
 43
1.0
 76
     1
 77
     6
 78
     2
 67
     8
425
  7895160
 79
     3
170
     0
171
     0
290
     0
174
     0
 93
        5
 44
0.0
173
     0
291
     0
 45
0.0
  0
VISUALSTYLE
  5
902
102
{ACAD_REACTORS
330
267
102
}
330
267
100
AcDbVisualStyle
  2
Shaded with edges
 70
    26
 71
     2
 72
     2
 73
     1
 90
        2
 40
0.6
 41
30.0
 62
     5
 63
     7
421
 16777215
 74
     1
 91
       10
 64
     7
 65
   257
 75
     2
175
     1
 42
1.0
 92
        8
 66
   257
 43
1.0
 76
     1
 77
     6
 78
     2
 67
     7
 79
     3
170
     0
171
     0
290
     0
174
     0
 93
        5
 44
0.0
173
     0
291
     0
 45
0.0
  0
VISUALSTYLE
  5
8FF
102
{ACAD_REACTORS
330
267
102
}
330
267
100
AcDbVisualStyle
  2
Shades of Gray
 70
    23
 71
     2
 72
     2
 73
     3
 90
        0
 40
0.6
 41
30.0
 62
     5
 63
     7
421
 16777215
 74
     2
 91
        2
 64
     7
 65
     7
 75
     1
175
     1
 42
40.0
 92
        8
 66
     7
 43
1.0
 76
     1
 77
     6
 78
     2
 67
     7
 79
     3
170
     0
171
     0
290
     0
174
     0
 93
        1
 44
0.0
173
     0
291
     0
 45
0.0
  0
VISUALSTYLE
  5
900
102
{ACAD_REACTORS
330
267
102
}
330
267
100
AcDbVisualStyle
  2
Sketchy
 70
    24
 71
     1
 72
     2
 73
     2
 90
        0
 40
0.6
 41
30.0
 62
     5
 63
     7
421
 16777215
 74
     2
 91
        2
 64
     7
 65
     7
 75
     1
175
     1
 42
40.0
 92
       11
 66
     7
 43
1.0
 76
     1
 77
     6
 78
     2
 67
     7
 79
     6
170
     0
171
     0
290
     0
174
     0
 93
        1
 44
0.0
173
     0
291
     0
 45
0.0
  0
VISUALSTYLE
  5
274
102
{ACAD_REACTORS
330
267
102
}
330
267
100
AcDbVisualStyle
  2
Thicken
 70
    13
 71
     2
 72
     2
 73
     0
 90
        0
 40
-0.6
 41
-30.0
 62
     5
 63
     7
421
 16777215
 74
     1
 91
        4
 64
     7
 65
   257
 75
     1
175
     1
 42
1.0
 92
       12
 66
     7
 43
1.0
 76
     1
 77
     6
 78
     2
 67
     7
 79
     5
170
     0
171
     0
290
     0
174
     0
 93
        1
 44
0.0
173
     0
291
     1
 45
0.0
  0
VISUALSTYLE
  5
8FA
102
{ACAD_REACTORS
330
267
102
}
330
267
100
AcDbVisualStyle
  2
Wireframe
 70
     5
 71
     0
 72
     2
 73
     0
 90
        0
 40
0.6
 41
30.0
 62
     5
 63
     7
421
 16777215
 74
     1
 91
        4
 64
     7
 65
   257
 75
     1
175
     1
 42
1.0
 92
        0
 66
   257
 43
1.0
 76
     1
 77
     6
 78
     2
 67
     7
 79
     3
170
     0
171
     0
290
     0
174
     0
 93
        1
 44
0.0
173
     0
291
     0
 45
0.0
  0
VISUALSTYLE
  5
901
102
{ACAD_REACTORS
330
267
102
}
330
267
100
AcDbVisualStyle
  2
X-Ray
 70
    25
 71
     2
 72
     2
 73
     1
 90
        1
 40
0.5
 41
30.0
 62
     5
 63
     7
421
 16777215
 74
     1
 91
        0
 64
     7
 65
   257
 75
     1
175
     1
 42
1.0
 92
        8
 66
     7
 43
1.0
 76
     1
 77
     6
 78
     2
 67
     7
 79
     3
170
     0
171
     0
290
     0
174
     0
 93
       13
 44
0.0
173
     0
291
     0
 45
0.0
  0
DICTIONARYVAR
  5
331
102
{ACAD_REACTORS
330
330
102
}
330
330
100
DictionaryVariables
280
     0
  1
1:1
  0
DICTIONARYVAR
  5
335
102
{ACAD_REACTORS
330
330
102
}
330
330
100
DictionaryVariables
280
     0
  1
Standard
  0
DICTIONARYVAR
  5
D52
102
{ACAD_REACTORS
330
330
102
}
330
330
100
DictionaryVariables
280
     0
  1
ByLayer
  0
DICTIONARYVAR
  5
896
102
{ACAD_REACTORS
330
330
102
}
330
330
100
DictionaryVariables
280
     0
  1
0
  0
XRECORD
  5
C9F
102
{ACAD_REACTORS
330
2E2
102
}
330
2E2
100
AcDbXrecord
280
     1
 91
     1023
301

290
     0
302
MODEL
330
14
 90
        8
 62
     7
370
    -3
331
13
  1
Color_7
330
0
 90
        0
 62
     7
370
    -3
331
13
  1
Color_7
330
4B
 90
        8
 62
     7
370
     0
331
13
  1
Color_7
330
4C
 90
        8
 62
     7
370
     9
331
13
  1
Color_7
330
4D
 90
        8
 62
     7
370
    -3
331
13
  1
Color_7
330
667
 90
        8
 62
     7
370
    -3
331
13
  1
Color_7
330
88C
 90
        8
 62
     7
370
     9
331
45
  1
Color_7
330
0
 90
        8
 62
     7
370
    -3
331
13
  1
Color_7
  0
XRECORD
  5
7AA
102
{ACAD_REACTORS
330
2E2
102
}
330
2E2
100
AcDbXrecord
280
     1
 91
     1023
301

290
     0
302
MDS_Layer_11
330
14
 90
        8
 62
     7
370
    -3
331
13
  1
Color_7
330
4B
 90
        8
 62
     7
370
    20
331
13
  1
Color_7
330
4C
 90
        8
 62
     7
370
    13
331
13
  1
Color_7
330
4D
 90
        8
 62
     7
370
    20
331
13
  1
Color_7
330
667
 90
        8
 62
     7
370
    -3
331
13
  1
Color_7
330
88C
 90
        8
 62
     7
370
    20
331
45
  1
Color_7
330
D5F
 90
        8
 62
     7
370
    -3
331
13
  1
Color_7
330
D62
 90
        8
 62
     7
370
    -3
331
13
  1
Color_7
330
D63
 90
        8
 62
     7
370
    -3
331
13
  1
Color_7
330
FA9
 90
        0
 62
     7
370
    -3
331
13
  1
Color_7
  0
DICTIONARY
  5
1221
330
279
100
AcDbDictionary
280
     1
281
     1
  3
ACAD_ROUNDTRIP_2008_TABLESTYLE_CELLSTYLEMAP
360
1222
  0
CELLSTYLEMAP
  5
1222
102
{ACAD_REACTORS
330
1221
102
}
330
1221
100
AcDbCellStyleMap
 90
        3
300
CELLSTYLE
  1
TABLEFORMAT_BEGIN
 90
        5
170
     1
 91
        0
 92
    32768
 62
   257
 93
        1
300
CONTENTFORMAT
  1
CONTENTFORMAT_BEGIN
 90
        0
 91
        0
 92
        4
 93
        0
300

 40
0.0
140
1.0
 94
        5
 62
     0
340
17
144
6.0
309
CONTENTFORMAT_END
171
     1
301
MARGIN
  1
CELLMARGIN_BEGIN
 40
0.06
 40
0.06
 40
0.06
 40
0.06
 40
0.18
 40
0.18
309
CELLMARGIN_END
 94
        6
 95
        1
302
GRIDFORMAT
  1
GRIDFORMAT_BEGIN
 90
        0
 91
        1
 62
     0
 92
       -2
340
0
 93
        0
 40
0.045
309
GRIDFORMAT_END
 95
        2
302
GRIDFORMAT
  1
GRIDFORMAT_BEGIN
 90
        0
 91
        1
 62
     0
 92
       -2
340
0
 93
        0
 40
0.045
309
GRIDFORMAT_END
 95
        4
302
GRIDFORMAT
  1
GRIDFORMAT_BEGIN
 90
        0
 91
        1
 62
     0
 92
       -2
340
0
 93
        0
 40
0.045
309
GRIDFORMAT_END
 95
        8
302
GRIDFORMAT
  1
GRIDFORMAT_BEGIN
 90
        0
 91
        1
 62
     0
 92
       -2
340
0
 93
        0
 40
0.045
309
GRIDFORMAT_END
 95
       16
302
GRIDFORMAT
  1
GRIDFORMAT_BEGIN
 90
        0
 91
        1
 62
     0
 92
       -2
340
0
 93
        0
 40
0.045
309
GRIDFORMAT_END
 95
       32
302
GRIDFORMAT
  1
GRIDFORMAT_BEGIN
 90
        0
 91
        1
 62
     0
 92
       -2
340
0
 93
        0
 40
0.045
309
GRIDFORMAT_END
309
TABLEFORMAT_END
  1
CELLSTYLE_BEGIN
 90
        1
 91
        1
300
_TITLE
309
CELLSTYLE_END
300
CELLSTYLE
  1
TABLEFORMAT_BEGIN
 90
        5
170
     1
 91
        0
 92
        0
 62
   257
 93
        1
300
CONTENTFORMAT
  1
CONTENTFORMAT_BEGIN
 90
        0
 91
        0
 92
        4
 93
        0
300

 40
0.0
140
1.0
 94
        5
 62
     0
340
17
144
4.5
309
CONTENTFORMAT_END
171
     1
301
MARGIN
  1
CELLMARGIN_BEGIN
 40
0.06
 40
0.06
 40
0.06
 40
0.06
 40
0.18
 40
0.18
309
CELLMARGIN_END
 94
        6
 95
        1
302
GRIDFORMAT
  1
GRIDFORMAT_BEGIN
 90
        0
 91
        1
 62
     0
 92
       -2
340
0
 93
        0
 40
0.045
309
GRIDFORMAT_END
 95
        2
302
GRIDFORMAT
  1
GRIDFORMAT_BEGIN
 90
        0
 91
        1
 62
     0
 92
       -2
340
0
 93
        0
 40
0.045
309
GRIDFORMAT_END
 95
        4
302
GRIDFORMAT
  1
GRIDFORMAT_BEGIN
 90
        0
 91
        1
 62
     0
 92
       -2
340
0
 93
        0
 40
0.045
309
GRIDFORMAT_END
 95
        8
302
GRIDFORMAT
  1
GRIDFORMAT_BEGIN
 90
        0
 91
        1
 62
     0
 92
       -2
340
0
 93
        0
 40
0.045
309
GRIDFORMAT_END
 95
       16
302
GRIDFORMAT
  1
GRIDFORMAT_BEGIN
 90
        0
 91
        1
 62
     0
 92
       -2
340
0
 93
        0
 40
0.045
309
GRIDFORMAT_END
 95
       32
302
GRIDFORMAT
  1
GRIDFORMAT_BEGIN
 90
        0
 91
        1
 62
     0
 92
       -2
340
0
 93
        0
 40
0.045
309
GRIDFORMAT_END
309
TABLEFORMAT_END
  1
CELLSTYLE_BEGIN
 90
        2
 91
        1
300
_HEADER
309
CELLSTYLE_END
300
CELLSTYLE
  1
TABLEFORMAT_BEGIN
 90
        5
170
     1
 91
        0
 92
        0
 62
   257
 93
        1
300
CONTENTFORMAT
  1
CONTENTFORMAT_BEGIN
 90
        0
 91
        0
 92
        4
 93
        0
300

 40
0.0
140
1.0
 94
        2
 62
     0
340
17
144
4.5
309
CONTENTFORMAT_END
171
     1
301
MARGIN
  1
CELLMARGIN_BEGIN
 40
0.06
 40
0.06
 40
0.06
 40
0.06
 40
0.18
 40
0.18
309
CELLMARGIN_END
 94
        6
 95
        1
302
GRIDFORMAT
  1
GRIDFORMAT_BEGIN
 90
        0
 91
        1
 62
     0
 92
       -2
340
0
 93
        0
 40
0.045
309
GRIDFORMAT_END
 95
        2
302
GRIDFORMAT
  1
GRIDFORMAT_BEGIN
 90
        0
 91
        1
 62
     0
 92
       -2
340
0
 93
        0
 40
0.045
309
GRIDFORMAT_END
 95
        4
302
GRIDFORMAT
  1
GRIDFORMAT_BEGIN
 90
        0
 91
        1
 62
     0
 92
       -2
340
0
 93
        0
 40
0.045
309
GRIDFORMAT_END
 95
        8
302
GRIDFORMAT
  1
GRIDFORMAT_BEGIN
 90
        0
 91
        1
 62
     0
 92
       -2
340
0
 93
        0
 40
0.045
309
GRIDFORMAT_END
 95
       16
302
GRIDFORMAT
  1
GRIDFORMAT_BEGIN
 90
        0
 91
        1
 62
     0
 92
       -2
340
0
 93
        0
 40
0.045
309
GRIDFORMAT_END
 95
       32
302
GRIDFORMAT
  1
GRIDFORMAT_BEGIN
 90
        0
 91
        1
 62
     0
 92
       -2
340
0
 93
        0
 40
0.045
309
GRIDFORMAT_END
309
TABLEFORMAT_END
  1
CELLSTYLE_BEGIN
 90
        3
 91
        2
300
_DATA
309
CELLSTYLE_END
  0
ENDSEC
  0
EOF
