  0
SECTION
  2
HEADER
  9
$ACADVER
  1
AC1021
  9
$ACADMAINTVER
 70
    25
  9
$DWGCODEPAGE
  3
ANSI_932
  9
$LASTSAVEDBY
  1
howeNelson
  9
$INSBASE
 10
0.0
 20
0.0
 30
0.0
  9
$EXTMIN
 10
0.0
 20
0.0
 30
-0.0000000000000142
  9
$EXTMAX
 10
420.0
 20
594.0
 30
0.0000000000000142
  9
$LIMMIN
 10
0.0
 20
0.0
  9
$LIMMAX
 10
420.0
 20
594.0
  9
$ORTHOMODE
 70
     0
  9
$REGENMODE
 70
     1
  9
$FILLMODE
 70
     1
  9
$QTEXTMODE
 70
     0
  9
$MIRRTEXT
 70
     1
  9
$LTSCALE
 40
50.0
  9
$ATTMODE
 70
     1
  9
$TEXTSIZE
 40
2.5
  9
$TRACEWID
 40
1.0
  9
$TEXTSTYLE
  7
ＭＳ ゴシック
  9
$CLAYER
  8
MODEL
  9
$CELTYPE
  6
ByLayer
  9
$CECOLOR
 62
   256
  9
$CELTSCALE
 40
0.05
  9
$DISPSILH
 70
     0
  9
$DIMSCALE
 40
1.0
  9
$DIMASZ
 40
1.0
  9
$DIMEXO
 40
5.0
  9
$DIMDLI
 40
0.9999999999999999
  9
$DIMRND
 40
0.0
  9
$DIMDLE
 40
0.0
  9
$DIMEXE
 40
0.0
  9
$DIMTP
 40
0.0
  9
$DIMTM
 40
0.0
  9
$DIMTXT
 40
5.0
  9
$DIMCEN
 40
0.0
  9
$DIMTSZ
 40
0.0
  9
$DIMTOL
 70
     0
  9
$DIMLIM
 70
     0
  9
$DIMTIH
 70
     0
  9
$DIMTOH
 70
     0
  9
$DIMSE1
 70
     0
  9
$DIMSE2
 70
     0
  9
$DIMTAD
 70
     1
  9
$DIMZIN
 70
    11
  9
$DIMBLK
  1
DOT
  9
$DIMASO
 70
     1
  9
$DIMSHO
 70
     1
  9
$DIMPOST
  1
<>
  9
$DIMAPOST
  1
[]
  9
$DIMALT
 70
     0
  9
$DIMALTD
 70
     1
  9
$DIMALTF
 40
1.0
  9
$DIMLFAC
 40
1.0
  9
$DIMTOFL
 70
     0
  9
$DIMTVP
 40
0.0
  9
$DIMTIX
 70
     1
  9
$DIMSOXD
 70
     0
  9
$DIMSAH
 70
     0
  9
$DIMBLK1
  1

  9
$DIMBLK2
  1

  9
$DIMSTYLE
  2
tfrom線あり
  9
$DIMCLRD
 70
     0
  9
$DIMCLRE
 70
     0
  9
$DIMCLRT
 70
     0
  9
$DIMTFAC
 40
1.0
  9
$DIMGAP
 40
5.0
  9
$DIMJUST
 70
     0
  9
$DIMSD1
 70
     0
  9
$DIMSD2
 70
     0
  9
$DIMTOLJ
 70
     1
  9
$DIMTZIN
 70
    11
  9
$DIMALTZ
 70
    11
  9
$DIMALTTZ
 70
    11
  9
$DIMUPT
 70
     0
  9
$DIMDEC
 70
     0
  9
$DIMTDEC
 70
     1
  9
$DIMALTU
 70
     2
  9
$DIMALTTD
 70
     2
  9
$DIMTXSTY
  7
ＭＳ ゴシック
  9
$DIMAUNIT
 70
     0
  9
$DIMADEC
 70
     2
  9
$DIMALTRND
 40
0.0
  9
$DIMAZIN
 70
     0
  9
$DIMDSEP
 70
    46
  9
$DIMATFIT
 70
     0
  9
$DIMFRAC
 70
     2
  9
$DIMLDRBLK
  1
DOT
  9
$DIMLUNIT
 70
     2
  9
$DIMLWD
 70
    -2
  9
$DIMLWE
 70
    -2
  9
$DIMTMOVE
 70
     0
  9
$DIMFXL
 40
1.0
  9
$DIMFXLON
 70
     0
  9
$DIMJOGANG
 40
0.7853981633974483
  9
$DIMTFILL
 70
     0
  9
$DIMTFILLCLR
 70
     0
  9
$DIMARCSYM
 70
     0
  9
$DIMLTYPE
  6

  9
$DIMLTEX1
  6

  9
$DIMLTEX2
  6

  9
$LUNITS
 70
     2
  9
$LUPREC
 70
     0
  9
$SKETCHINC
 40
0.1
  9
$FILLETRAD
 40
0.0
  9
$AUNITS
 70
     0
  9
$AUPREC
 70
     0
  9
$MENU
  1
acad
  9
$ELEVATION
 40
0.0
  9
$PELEVATION
 40
0.0
  9
$THICKNESS
 40
0.0
  9
$LIMCHECK
 70
     0
  9
$CHAMFERA
 40
0.0
  9
$CHAMFERB
 40
0.0
  9
$CHAMFERC
 40
0.0
  9
$CHAMFERD
 40
0.0
  9
$SKPOLY
 70
     0
  9
$TDCREATE
 40
2447893.375
  9
$TDUCREATE
 40
0.0
  9
$TDUPDATE
 40
2457595.694780926
  9
$TDUUPDATE
 40
2457595.319780926
  9
$TDINDWG
 40
0.2542776736
  9
$TDUSRTIMER
 40
2457595.31977853
  9
$USRTIMER
 70
     1
  9
$ANGBASE
 50
0.0
  9
$ANGDIR
 70
     0
  9
$PDMODE
 70
     1
  9
$PDSIZE
 40
-2.0
  9
$PLINEWID
 40
0.0
  9
$SPLFRAME
 70
     0
  9
$SPLINETYPE
 70
     6
  9
$SPLINESEGS
 70
     8
  9
$HANDSEED
  5
50EB
  9
$SURFTAB1
 70
     6
  9
$SURFTAB2
 70
     6
  9
$SURFTYPE
 70
     6
  9
$SURFU
 70
     6
  9
$SURFV
 70
     6
  9
$UCSBASE
  2

  9
$UCSNAME
  2

  9
$UCSORG
 10
0.0
 20
0.0
 30
0.0
  9
$UCSXDIR
 10
1.0
 20
0.0
 30
0.0
  9
$UCSYDIR
 10
0.0
 20
1.0
 30
0.0
  9
$UCSORTHOREF
  2

  9
$UCSORTHOVIEW
 70
     0
  9
$UCSORGTOP
 10
0.0
 20
0.0
 30
0.0
  9
$UCSORGBOTTOM
 10
0.0
 20
0.0
 30
0.0
  9
$UCSORGLEFT
 10
0.0
 20
0.0
 30
0.0
  9
$UCSORGRIGHT
 10
0.0
 20
0.0
 30
0.0
  9
$UCSORGFRONT
 10
0.0
 20
0.0
 30
0.0
  9
$UCSORGBACK
 10
0.0
 20
0.0
 30
0.0
  9
$PUCSBASE
  2

  9
$PUCSNAME
  2

  9
$PUCSORG
 10
0.0
 20
0.0
 30
0.0
  9
$PUCSXDIR
 10
1.0
 20
0.0
 30
0.0
  9
$PUCSYDIR
 10
0.0
 20
1.0
 30
0.0
  9
$PUCSORTHOREF
  2

  9
$PUCSORTHOVIEW
 70
     0
  9
$PUCSORGTOP
 10
0.0
 20
0.0
 30
0.0
  9
$PUCSORGBOTTOM
 10
0.0
 20
0.0
 30
0.0
  9
$PUCSORGLEFT
 10
0.0
 20
0.0
 30
0.0
  9
$PUCSORGRIGHT
 10
0.0
 20
0.0
 30
0.0
  9
$PUCSORGFRONT
 10
0.0
 20
0.0
 30
0.0
  9
$PUCSORGBACK
 10
0.0
 20
0.0
 30
0.0
  9
$USERI1
 70
     0
  9
$USERI2
 70
     0
  9
$USERI3
 70
     0
  9
$USERI4
 70
     0
  9
$USERI5
 70
     0
  9
$USERR1
 40
0.0
  9
$USERR2
 40
0.0
  9
$USERR3
 40
0.0
  9
$USERR4
 40
0.0
  9
$USERR5
 40
0.0
  9
$WORLDVIEW
 70
     1
  9
$SHADEDGE
 70
     3
  9
$SHADEDIF
 70
    70
  9
$TILEMODE
 70
     1
  9
$MAXACTVP
 70
    64
  9
$PINSBASE
 10
0.0
 20
0.0
 30
0.0
  9
$PLIMCHECK
 70
     0
  9
$PEXTMIN
 10
0.0
 20
0.0
 30
0.0
  9
$PEXTMAX
 10
0.0
 20
0.0
 30
0.0
  9
$PLIMMIN
 10
-95.87226993865028
 20
-25.69999999999999
  9
$PLIMMAX
 10
201.1277300613497
 20
184.3
  9
$UNITMODE
 70
     0
  9
$VISRETAIN
 70
     0
  9
$PLINEGEN
 70
     1
  9
$PSLTSCALE
 70
     0
  9
$TREEDEPTH
 70
  3020
  9
$CMLSTYLE
  2
Standard
  9
$CMLJUST
 70
     0
  9
$CMLSCALE
 40
1.0
  9
$PROXYGRAPHICS
 70
     0
  9
$MEASUREMENT
 70
     1
  9
$CELWEIGHT
370
    -1
  9
$ENDCAPS
280
     0
  9
$JOINSTYLE
280
     0
  9
$LWDISPLAY
290
     1
  9
$INSUNITS
 70
     4
  9
$HYPERLINKBASE
  1

  9
$STYLESHEET
  1

  9
$XEDIT
290
     1
  9
$CEPSNTYPE
380
     0
  9
$PSTYLEMODE
290
     1
  9
$FINGERPRINTGUID
  2

  9
$VERSIONGUID
  2

  9
$EXTNAMES
290
     1
  9
$PSVPSCALE
 40
0.0
  9
$OLESTARTUP
290
     0
  9
$SORTENTS
280
   127
  9
$INDEXCTL
280
     0
  9
$HIDETEXT
280
     1
  9
$XCLIPFRAME
290
     0
  9
$HALOGAP
280
     0
  9
$OBSCOLOR
 70
   257
  9
$OBSLTYPE
280
     0
  9
$INTERSECTIONDISPLAY
280
     0
  9
$INTERSECTIONCOLOR
 70
   257
  9
$DIMASSOC
280
     2
  9
$PROJECTNAME
  1

  9
$CAMERADISPLAY
290
     0
  9
$LENSLENGTH
 40
50.0
  9
$CAMERAHEIGHT
 40
0.0
  9
$STEPSPERSEC
 40
2.0
  9
$STEPSIZE
 40
6.0
  9
$3DDWFPREC
 40
2.0
  9
$PSOLWIDTH
 40
0.25
  9
$PSOLHEIGHT
 40
4.0
  9
$LOFTANG1
 40
1.570796326794897
  9
$LOFTANG2
 40
1.570796326794897
  9
$LOFTMAG1
 40
0.0
  9
$LOFTMAG2
 40
0.0
  9
$LOFTPARAM
 70
     7
  9
$LOFTNORMALS
280
     1
  9
$LATITUDE
 40
37.795
  9
$LONGITUDE
 40
-122.394
  9
$NORTHDIRECTION
 40
0.0
  9
$TIMEZONE
 70
 -8000
  9
$LIGHTGLYPHDISPLAY
280
     1
  9
$TILEMODELIGHTSYNCH
280
     1
  9
$SOLIDHIST
280
     1
  9
$SHOWHIST
280
     1
  9
$DWFFRAME
280
     2
  9
$DGNFRAME
280
     2
  9
$REALWORLDSCALE
290
     1
  9
$INTERFERECOLOR
 62
   256
  9
$CSHADOW
280
     0
  9
$SHADOWPLANELOCATION
 40
0.0
  0
ENDSEC
  0
SECTION
  2
CLASSES
  0
CLASS
  1
LWPOLYLINE
  2
AcDbPolyline
  3
ObjectDBX Classes
 90
        0
 91
        1
280
     0
281
     1
  0
CLASS
  1
IMAGE
  2
AcDbRasterImage
  3
ISM
 90
      127
 91
       13
280
     0
281
     1
  0
CLASS
  1
OLE2FRAME
  2
AcDbOle2Frame
  3
ObjectDBX Classes
 90
        0
 91
        1
280
     0
281
     1
  0
CLASS
  1
HATCH
  2
AcDbHatch
  3
ObjectDBX Classes
 90
        0
 91
        1
280
     0
281
     1
  0
CLASS
  1
DICTIONARYVAR
  2
AcDbDictionaryVar
  3
ObjectDBX Classes
 90
        0
 91
       12
280
     0
281
     0
  0
CLASS
  1
RASTERVARIABLES
  2
AcDbRasterVariables
  3
ISM
 90
        0
 91
       12
280
     0
281
     0
  0
CLASS
  1
IMAGEDEF
  2
AcDbRasterImageDef
  3
ISM
 90
        0
 91
       12
280
     0
281
     0
  0
CLASS
  1
IMAGEDEF_REACTOR
  2
AcDbRasterImageDefReactor
  3
ISM
 90
        1
 91
       12
280
     0
281
     0
  0
CLASS
  1
IDBUFFER
  2
AcDbIdBuffer
  3
ObjectDBX Classes
 90
        0
 91
       12
280
     0
281
     0
  0
CLASS
  1
SPATIAL_FILTER
  2
AcDbSpatialFilter
  3
ObjectDBX Classes
 90
        0
 91
       12
280
     0
281
     0
  0
CLASS
  1
XRECORD
  2
AcDbXrecord
  3
ObjectDBX Classes
 90
        0
 91
        1
280
     0
281
     0
  0
CLASS
  1
SORTENTSTABLE
  2
AcDbSortentsTable
  3
ObjectDBX Classes
 90
        0
 91
       12
280
     0
281
     0
  0
CLASS
  1
LAYER_INDEX
  2
AcDbLayerIndex
  3
ObjectDBX Classes
 90
        0
 91
       12
280
     0
281
     0
  0
CLASS
  1
SPATIAL_INDEX
  2
AcDbSpatialIndex
  3
AutoCAD 2000
 90
        0
 91
       12
280
     0
281
     0
  0
CLASS
  1
OBJECT_PTR
  2
CAseDLPNTableRecord
  3
ASE-LPNTableRecord
 90
        1
 91
       12
280
     0
281
     0
  0
CLASS
  1
LAYOUT
  2
AcDbLayout
  3
ObjectDBX Classes
 90
        0
 91
        1
280
     0
281
     0
  0
CLASS
  1
PLOTSETTINGS
  2
AcDbPlotSettings
  3
ObjectDBX Classes
 90
        0
 91
       12
280
     0
281
     0
  0
CLASS
  1
ACDBDICTIONARYWDFLT
  2
AcDbDictionaryWithDefault
  3
ObjectDBX Classes
 90
        0
 91
       12
280
     0
281
     0
  0
CLASS
  1
ACDBPLACEHOLDER
  2
AcDbPlaceHolder
  3
ObjectDBX Classes
 90
        0
 91
        1
280
     0
281
     0
  0
CLASS
  1
SCALE
  2
AcDbScale
  3
ObjectDBX Classes
 90
     1153
 91
       12
280
     0
281
     0
  0
CLASS
  1
MATERIAL
  2
AcDbMaterial
  3
ObjectDBX Classes
 90
     1153
 91
       12
280
     0
281
     0
  0
CLASS
  1
VISUALSTYLE
  2
AcDbVisualStyle
  3
ObjectDBX Classes
 90
     4095
 91
       12
280
     0
281
     0
  0
CLASS
  1
TABLESTYLE
  2
AcDbTableStyle
  3
ObjectDBX Classes
 90
     4095
 91
       12
280
     0
281
     0
  0
CLASS
  1
DIMASSOC
  2
AcDbDimAssoc
  3
"AcDbDimAssoc|Product Desc:     AcDim ARX App For Dimension|Company:          Autodesk, Inc.|WEB Address:      www.autodesk.com"
 90
        0
 91
       12
280
     0
281
     0
  0
CLASS
  1
CELLSTYLEMAP
  2
AcDbCellStyleMap
  3
ObjectDBX Classes
 90
     1152
 91
       12
280
     0
281
     0
  0
CLASS
  1
SUN
  2
AcDbSun
  3
SCENEOE
 90
     1153
 91
       12
280
     0
281
     0
  0
CLASS
  1
MLEADERSTYLE
  2
AcDbMLeaderStyle
  3
ACDB_MLEADERSTYLE_CLASS
 90
     4095
 91
       12
280
     0
281
     0
  0
CLASS
  1
FIELD
  2
AcDbField
  3
ObjectDBX Classes
 90
     1152
 91
       12
280
     0
281
     0
  0
CLASS
  1
FIELDLIST
  2
AcDbFieldList
  3
ObjectDBX Classes
 90
     1152
 91
       12
280
     0
281
     0
  0
ENDSEC
  0
SECTION
  2
TABLES
  0
TABLE
  2
VPORT
  5
7
330
0
100
AcDbSymbolTable
 70
     1
  0
VPORT
  5
15
330
7
100
AcDbSymbolTableRecord
100
AcDbViewportTableRecord
  2
*ACTIVE
 70
     0
 10
0.0
 20
0.0
 11
1.0
 21
1.0
 12
301.0201356709077
 22
223.401285469834
 13
0.0
 23
0.0
 14
1.0
 24
1.0
 15
0.0
 25
0.0
 16
0.0
 26
0.0
 36
1.0
 17
-91.02013567090768
 27
73.59871453016603
 37
-46.86809886248109
 40
605.8800000000005
 41
2.479940564635958
 42
50.0
 43
0.0
 44
0.0
 50
0.0
 51
0.0
 71
    16
 72
  2000
 73
     1
 74
     1
 75
     0
 76
     0
 77
     0
 78
     0
281
     0
 65
     1
110
0.0
120
0.0
130
0.0
111
1.0
121
0.0
131
0.0
112
0.0
122
1.0
132
0.0
 79
     0
146
0.0
348
26C
 60
     3
 61
     5
292
     1
282
     1
141
0.0
142
0.0
 63
   256
361
904
  0
ENDTAB
  0
TABLE
  2
LTYPE
  5
4
330
0
100
AcDbSymbolTable
 70
     4
  0
LTYPE
  5
11
330
4
100
AcDbSymbolTableRecord
100
AcDbLinetypeTableRecord
  2
ByBlock
 70
     0
  3

 72
    65
 73
     0
 40
0.0
  0
LTYPE
  5
12
330
4
100
AcDbSymbolTableRecord
100
AcDbLinetypeTableRecord
  2
ByLayer
 70
     0
  3

 72
    65
 73
     0
 40
0.0
  0
LTYPE
  5
13
330
4
100
AcDbSymbolTableRecord
100
AcDbLinetypeTableRecord
  2
Continuous
 70
     0
  3
Solid line
 72
    65
 73
     0
 40
0.0
  0
LTYPE
  5
D6C
330
4
100
AcDbSymbolTableRecord
100
AcDbLinetypeTableRecord
  2
BORDER
 70
     0
  3
Border __  __  . __  __  . __  __  . __  __  . 
 72
    65
 73
     6
 40
44.45
 49
12.7
 74
     0
 49
-6.35
 74
     0
 49
12.7
 74
     0
 49
-6.35
 74
     0
 49
0.0
 74
     0
 49
-6.35
 74
     0
  0
LTYPE
  5
1638
330
4
100
AcDbSymbolTableRecord
100
AcDbLinetypeTableRecord
  2
HIDDEN2
 70
     0
  3
Hidden (.5x) _ _ _ _ _ _ _ _ _ _ _ _ _ _ _ _ _ 
 72
    65
 73
     2
 40
4.7625
 49
3.175
 74
     4
 75
     0
340
0
 46
0.0
 50
0.0
 44
0.0
 45
0.0
 49
-1.5875
 74
     4
 75
     0
340
0
 46
0.0
 50
0.0
 44
0.0
 45
0.0
  0
LTYPE
  5
501B
330
4
100
AcDbSymbolTableRecord
100
AcDbLinetypeTableRecord
  2
HIDDEN
 70
     0
  3
Hidden _ _ _ _ _ _ _ _ _ _ _ _ _ _ _ _ _ _ _ _ 
 72
    65
 73
     2
 40
9.524999999999999
 49
6.35
 74
     0
 49
-3.175
 74
     0
  0
ENDTAB
  0
TABLE
  2
LAYER
  5
2
102
{ACAD_XDICTIONARY
360
2E1
102
}
330
0
100
AcDbSymbolTable
 70
     9
  0
LAYER
  5
14
330
2
100
AcDbSymbolTableRecord
100
AcDbLayerTableRecord
  2
0
 70
     0
 62
     7
  6
Continuous
370
    -3
390
1D
347
266
  0
LAYER
  5
4B
330
2
100
AcDbSymbolTableRecord
100
AcDbLayerTableRecord
  2
TEMPLATE
 70
     0
 62
     7
  6
Continuous
370
    20
390
1D
347
266
  0
LAYER
  5
4C
330
2
100
AcDbSymbolTableRecord
100
AcDbLayerTableRecord
  2
DIM
 70
     0
 62
     3
  6
Continuous
370
    13
390
1D
347
266
  0
LAYER
  5
4D
330
2
100
AcDbSymbolTableRecord
100
AcDbLayerTableRecord
  2
MODEL
 70
     0
 62
     7
  6
Continuous
370
    20
390
1D
347
266
  0
LAYER
  5
667
330
2
100
AcDbSymbolTableRecord
100
AcDbLayerTableRecord
  2
LOGO
 70
     0
 62
     7
  6
Continuous
370
    -3
390
1D
347
266
  0
LAYER
  5
D6B
330
2
100
AcDbSymbolTableRecord
100
AcDbLayerTableRecord
  2
BORDER
 70
     0
 62
     4
  6
BORDER
290
     0
370
    20
390
1D
347
266
1001
AcAecLayerStandard
1000

1000

  0
LAYER
  5
D8C
330
2
100
AcDbSymbolTableRecord
100
AcDbLayerTableRecord
  2
Defpoints
 70
     0
 62
     7
  6
Continuous
290
     0
370
    -3
390
1D
347
266
  0
LAYER
  5
1635
330
2
100
AcDbSymbolTableRecord
100
AcDbLayerTableRecord
  2
Standard
 70
     0
 62
     7
  6
Continuous
370
    -3
390
1D
347
266
  0
LAYER
  5
3445
330
2
100
AcDbSymbolTableRecord
100
AcDbLayerTableRecord
  2
Layer50
 70
     0
 62
     7
  6
Continuous
370
    -3
390
1D
347
266
  0
ENDTAB
  0
TABLE
  2
STYLE
  5
3
330
0
100
AcDbSymbolTable
 70
     2
  0
STYLE
  5
17
330
3
100
AcDbSymbolTableRecord
100
AcDbTextStyleTableRecord
  2
Standard
 70
     0
 40
0.0
 41
1.0
 50
0.0
 71
     0
 42
2.5
  3
txt
  4
BIGFONT.SHX
  0
STYLE
  5
39
330
3
100
AcDbSymbolTableRecord
100
AcDbTextStyleTableRecord
  2
ＭＳ ゴシック
 70
     0
 40
0.0
 41
1.0
 50
0.0
 71
     0
 42
2.5
  3
msgothic.ttc
  4
ＭＳ ゴシック
1001
ACAD
1000
ＭＳ ゴシック
1071
        0
  0
ENDTAB
  0
TABLE
  2
VIEW
  5
5
330
0
100
AcDbSymbolTable
 70
     0
  0
ENDTAB
  0
TABLE
  2
UCS
  5
6
330
0
100
AcDbSymbolTable
 70
     0
  0
ENDTAB
  0
TABLE
  2
APPID
  5
8
330
0
100
AcDbSymbolTable
 70
     3
  0
APPID
  5
16
330
8
100
AcDbSymbolTableRecord
100
AcDbRegAppTableRecord
  2
ACAD
 70
     0
  0
APPID
  5
7AC
330
8
100
AcDbSymbolTableRecord
100
AcDbRegAppTableRecord
  2
AcAecLayerStandard
 70
     0
  0
APPID
  5
E29
330
8
100
AcDbSymbolTableRecord
100
AcDbRegAppTableRecord
  2
ACAD_MLEADERVER
 70
     0
  0
ENDTAB
  0
TABLE
  2
DIMSTYLE
  5
9
330
0
100
AcDbSymbolTable
 70
     2
100
AcDbDimStyleTable
  0
DIMSTYLE
105
18
330
9
100
AcDbSymbolTableRecord
100
AcDbDimStyleTableRecord
  2
Standard
 70
     0
178
     0
340
17
  0
DIMSTYLE
105
57
102
{ACAD_REACTORS
330
4CE4
330
4DB3
330
4DB4
330
4F2F
330
5044
330
5053
330
5085
330
5088
330
50BB
102
}
330
9
100
AcDbSymbolTableRecord
100
AcDbDimStyleTableRecord
  2
tfrom線あり
 70
     0
  3
<>
  4
[]
 41
1.0
 42
5.0
 43
0.9999999999999999
 44
0.0
 73
     0
 74
     0
 77
     1
 78
    11
140
5.0
141
0.0
143
1.0
147
5.0
171
     1
174
     1
178
     0
179
     2
271
     0
272
     1
276
     2
284
    11
285
    11
286
    11
289
     0
340
39
341
4E
342
4E
  0
ENDTAB
  0
TABLE
  2
BLOCK_RECORD
  5
1
330
0
100
AcDbSymbolTable
 70
    18
  0
BLOCK_RECORD
  5
A
330
1
100
AcDbSymbolTableRecord
100
AcDbBlockTableRecord
  2
*MODEL_SPACE
340
20
 70
     0
280
     1
281
     0
  0
BLOCK_RECORD
  5
B
330
1
100
AcDbSymbolTableRecord
100
AcDbBlockTableRecord
  2
*PAPER_SPACE
340
21
 70
     0
280
     1
281
     0
  0
BLOCK_RECORD
  5
4E
330
1
100
AcDbSymbolTableRecord
100
AcDbBlockTableRecord
  2
_DOT
340
0
102
{BLKREFS
331
4EBF
331
4EC0
331
4ECB
331
4ECC
331
4ED7
331
4ED8
331
4F3A
331
4F3B
331
5073
331
5074
331
507F
331
5080
331
5091
331
5092
331
509D
331
509E
331
50C5
331
50C4
102
}
 70
     0
280
     1
281
     0
  0
BLOCK_RECORD
  5
68A
330
1
100
AcDbSymbolTableRecord
100
AcDbBlockTableRecord
  2
名称未設定-1
340
0
102
{BLKREFS
331
6B5
102
}
 70
     1
280
     1
281
     0
  0
BLOCK_RECORD
  5
68D
330
1
100
AcDbSymbolTableRecord
100
AcDbBlockTableRecord
  2
block 2
340
0
102
{BLKREFS
331
68C
331
1343
102
}
 70
     0
280
     1
281
     0
  0
BLOCK_RECORD
  5
690
330
1
100
AcDbSymbolTableRecord
100
AcDbBlockTableRecord
  2
block 3
340
0
102
{BLKREFS
331
68F
102
}
 70
     0
280
     1
281
     0
  0
BLOCK_RECORD
  5
693
330
1
100
AcDbSymbolTableRecord
100
AcDbBlockTableRecord
  2
block 4
340
0
102
{BLKREFS
331
692
102
}
 70
     0
280
     1
281
     0
  0
BLOCK_RECORD
  5
6A2
330
1
100
AcDbSymbolTableRecord
100
AcDbBlockTableRecord
  2
block 5
340
0
102
{BLKREFS
331
6A1
102
}
 70
     0
280
     1
281
     0
  0
BLOCK_RECORD
  5
4EB9
330
1
100
AcDbSymbolTableRecord
100
AcDbBlockTableRecord
  2
*D6
340
0
 70
     0
280
     1
281
     0
  0
BLOCK_RECORD
  5
4EC5
330
1
100
AcDbSymbolTableRecord
100
AcDbBlockTableRecord
  2
*D7
340
0
 70
     0
280
     1
281
     0
  0
BLOCK_RECORD
  5
4ED1
330
1
100
AcDbSymbolTableRecord
100
AcDbBlockTableRecord
  2
*D8
340
0
 70
     0
280
     1
281
     0
  0
BLOCK_RECORD
  5
4F34
330
1
100
AcDbSymbolTableRecord
100
AcDbBlockTableRecord
  2
*D9
340
0
 70
     0
280
     1
281
     0
  0
BLOCK_RECORD
  5
5045
330
1
100
AcDbSymbolTableRecord
100
AcDbBlockTableRecord
  2
*D11
340
0
 70
     0
280
     1
281
     0
  0
BLOCK_RECORD
  5
5054
330
1
100
AcDbSymbolTableRecord
100
AcDbBlockTableRecord
  2
*D12
340
0
 70
     0
280
     1
281
     0
  0
BLOCK_RECORD
  5
506D
330
1
100
AcDbSymbolTableRecord
100
AcDbBlockTableRecord
  2
*D13
340
0
 70
     0
280
     1
281
     0
  0
BLOCK_RECORD
  5
5079
330
1
100
AcDbSymbolTableRecord
100
AcDbBlockTableRecord
  2
*D14
340
0
 70
     0
280
     1
281
     0
  0
BLOCK_RECORD
  5
508B
330
1
100
AcDbSymbolTableRecord
100
AcDbBlockTableRecord
  2
*D15
340
0
 70
     0
280
     1
281
     0
  0
BLOCK_RECORD
  5
5097
330
1
100
AcDbSymbolTableRecord
100
AcDbBlockTableRecord
  2
*D16
340
0
 70
     0
280
     1
281
     0
  0
BLOCK_RECORD
  5
50BE
330
1
100
AcDbSymbolTableRecord
100
AcDbBlockTableRecord
  2
*D17
340
0
 70
     0
280
     1
281
     0
  0
ENDTAB
  0
ENDSEC
  0
SECTION
  2
BLOCKS
  0
BLOCK
  5
D
330
A
100
AcDbEntity
  8
0
390
1D
100
AcDbBlockBegin
  2
*MODEL_SPACE
 70
     0
 10
0.0
 20
0.0
 30
0.0
  3
*MODEL_SPACE
  1
*MODEL_SPACE
  0
ENDBLK
  5
E
330
A
100
AcDbEntity
  8
0
390
1D
100
AcDbBlockEnd
  0
BLOCK
  5
F
330
B
100
AcDbEntity
 67
     1
  8
0
390
1D
100
AcDbBlockBegin
  2
*PAPER_SPACE
 70
     0
 10
0.0
 20
0.0
 30
0.0
  3
*PAPER_SPACE
  1
*PAPER_SPACE
  0
ENDBLK
  5
10
330
B
100
AcDbEntity
 67
     1
  8
0
390
1D
100
AcDbBlockEnd
  0
BLOCK
  5
38A8
330
4E
100
AcDbEntity
  8
0
390
1D
100
AcDbBlockBegin
  2
_DOT
 70
     0
 10
0.0
 20
0.0
 30
0.0
  3
_DOT
  1
_DOT
  0
POLYLINE
  5
38AA
330
4E
100
AcDbEntity
  8
0
  6
ByBlock
 62
     0
370
    -2
390
1D
100
AcDb2dPolyline
 66
     1
 10
0.0
 20
0.0
 30
0.0
 70
     1
 40
0.5
 41
0.5
  0
VERTEX
  5
38AB
330
38AA
100
AcDbEntity
  8
0
  6
ByBlock
 62
     0
370
    -2
390
1D
100
AcDbVertex
100
AcDb2dVertex
 10
-0.25
 20
0.0
 30
0.0
 42
1.0
  0
VERTEX
  5
38AC
330
38AA
100
AcDbEntity
  8
0
  6
ByBlock
 62
     0
370
    -2
390
1D
100
AcDbVertex
100
AcDb2dVertex
 10
0.25
 20
0.0
 30
0.0
 42
1.0
  0
SEQEND
  5
38AD
330
38AA
100
AcDbEntity
  8
0
390
1D
  0
LINE
  5
38AE
330
4E
100
AcDbEntity
  8
0
  6
ByBlock
 62
     0
370
    -2
390
1D
100
AcDbLine
 10
-0.5
 20
0.0
 30
0.0
 11
-1.0
 21
0.0
 31
0.0
  0
ENDBLK
  5
38AF
330
4E
100
AcDbEntity
  8
0
390
1D
100
AcDbBlockEnd
  0
BLOCK
  5
68B
330
68A
100
AcDbEntity
  8
0
100
AcDbBlockBegin
  2
名称未設定-1
 70
     0
 10
0.0
 20
0.0
 30
0.0
  3
名称未設定-1
  1
名称未設定-1
  0
INSERT
  5
68F
330
68A
100
AcDbEntity
  8
LOGO
100
AcDbBlockReference
  2
block 3
 10
0.0
 20
0.0
 30
0.0
  0
ENDBLK
  5
6B1
330
68A
100
AcDbEntity
  8
0
100
AcDbBlockEnd
  0
BLOCK
  5
68E
330
68D
100
AcDbEntity
  8
0
100
AcDbBlockBegin
  2
block 2
 70
     0
 10
0.0
 20
0.0
 30
0.0
  3
block 2
  1
block 2
  0
ENDBLK
  5
6B0
330
68D
100
AcDbEntity
  8
0
100
AcDbBlockEnd
  0
BLOCK
  5
691
330
690
100
AcDbEntity
  8
0
100
AcDbBlockBegin
  2
block 3
 70
     0
 10
0.0
 20
0.0
 30
0.0
  3
block 3
  1
block 3
  0
INSERT
  5
692
330
690
100
AcDbEntity
  8
LOGO
100
AcDbBlockReference
  2
block 4
 10
0.0
 20
0.0
 30
0.0
  0
INSERT
  5
6A1
330
690
100
AcDbEntity
  8
LOGO
100
AcDbBlockReference
  2
block 5
 10
0.0
 20
0.0
 30
0.0
  0
ENDBLK
  5
6AF
330
690
100
AcDbEntity
  8
0
100
AcDbBlockEnd
  0
BLOCK
  5
694
330
693
100
AcDbEntity
  8
0
100
AcDbBlockBegin
  2
block 4
 70
     0
 10
0.0
 20
0.0
 30
0.0
  3
block 4
  1
block 4
  0
POLYLINE
  5
695
330
693
100
AcDbEntity
  8
LOGO
370
     0
100
AcDb2dPolyline
 66
     1
 10
0.0
 20
0.0
 30
0.0
  0
VERTEX
  5
696
330
695
100
AcDbEntity
  8
LOGO
370
     0
100
AcDbVertex
100
AcDb2dVertex
 10
83.79545727667795
 20
167.6444858234922
 30
0.0
  0
VERTEX
  5
697
330
695
100
AcDbEntity
  8
LOGO
370
     0
100
AcDbVertex
100
AcDb2dVertex
 10
83.79545727667795
 20
159.7968976406313
 30
0.0
  0
VERTEX
  5
698
330
695
100
AcDbEntity
  8
LOGO
370
     0
100
AcDbVertex
100
AcDb2dVertex
 10
71.3631329975216
 20
159.7968976406313
 30
0.0
  0
VERTEX
  5
699
330
695
100
AcDbEntity
  8
LOGO
370
     0
100
AcDbVertex
100
AcDb2dVertex
 10
71.3631329975216
 20
127.8027915271048
 30
0.0
  0
VERTEX
  5
69A
330
695
100
AcDbEntity
  8
LOGO
370
     0
100
AcDbVertex
100
AcDb2dVertex
 10
60.43011526263018
 20
127.8027915271048
 30
0.0
  0
VERTEX
  5
69B
330
695
100
AcDbEntity
  8
LOGO
370
     0
100
AcDbVertex
100
AcDb2dVertex
 10
60.43011526263018
 20
159.7968976406313
 30
0.0
  0
VERTEX
  5
69C
330
695
100
AcDbEntity
  8
LOGO
370
     0
100
AcDbVertex
100
AcDb2dVertex
 10
48.21793273020759
 20
159.7968976406313
 30
0.0
  0
VERTEX
  5
69D
330
695
100
AcDbEntity
  8
LOGO
370
     0
100
AcDbVertex
100
AcDb2dVertex
 10
48.21793273020759
 20
167.6444858234922
 30
0.0
  0
VERTEX
  5
69E
330
695
100
AcDbEntity
  8
LOGO
370
     0
100
AcDbVertex
100
AcDb2dVertex
 10
83.79545727667795
 20
167.6444858234922
 30
0.0
  0
SEQEND
  5
69F
330
695
100
AcDbEntity
  8
LOGO
370
     0
  0
HATCH
  5
6A0
330
693
100
AcDbEntity
  8
LOGO
 62
   250
420
  2234388
100
AcDbHatch
 10
0.0
 20
0.0
 30
0.0
210
0.0
220
0.0
230
1.0
  2
SOLID
 70
     1
 71
     0
 91
        1
 92
        1
 93
        8
 72
     1
 10
83.79545727667795
 20
167.6444858234922
 11
83.79545727667795
 21
159.7968976406313
 72
     1
 10
83.79545727667795
 20
159.7968976406313
 11
71.3631329975216
 21
159.7968976406313
 72
     1
 10
71.3631329975216
 20
159.7968976406313
 11
71.3631329975216
 21
127.8027915271048
 72
     1
 10
71.3631329975216
 20
127.8027915271048
 11
60.43011526263018
 21
127.8027915271048
 72
     1
 10
60.43011526263018
 20
127.8027915271048
 11
60.43011526263018
 21
159.7968976406313
 72
     1
 10
60.43011526263018
 20
159.7968976406313
 11
48.21793273020759
 21
159.7968976406313
 72
     1
 10
48.21793273020759
 20
159.7968976406313
 11
48.21793273020759
 21
167.6444858234922
 72
     1
 10
48.21793273020759
 20
167.6444858234922
 11
83.79545727667795
 21
167.6444858234922
 97
        0
 75
     2
 76
     1
 98
        0
  0
ENDBLK
  5
6AE
330
693
100
AcDbEntity
  8
0
100
AcDbBlockEnd
  0
BLOCK
  5
6A3
330
6A2
100
AcDbEntity
  8
0
100
AcDbBlockBegin
  2
block 5
 70
     0
 10
0.0
 20
0.0
 30
0.0
  3
block 5
  1
block 5
  0
SPLINE
  5
6A4
330
6A2
100
AcDbEntity
  8
LOGO
370
     0
100
AcDbSpline
210
0.0
220
0.0
230
1.0
 70
    11
 71
     3
 72
    56
 73
    52
 74
     0
 42
0.000000001
 43
0.0000000001
 40
0.0
 40
0.0
 40
0.0
 40
0.0
 40
1.0
 40
1.0
 40
1.0
 40
2.0
 40
2.0
 40
2.0
 40
3.0
 40
3.0
 40
3.0
 40
4.0
 40
4.0
 40
4.0
 40
5.0
 40
5.0
 40
5.0
 40
6.0
 40
6.0
 40
6.0
 40
7.0
 40
7.0
 40
7.0
 40
8.0
 40
8.0
 40
8.0
 40
9.0
 40
9.0
 40
9.0
 40
10.0
 40
10.0
 40
10.0
 40
11.0
 40
11.0
 40
11.0
 40
12.0
 40
12.0
 40
12.0
 40
13.0
 40
13.0
 40
13.0
 40
14.0
 40
14.0
 40
14.0
 40
15.0
 40
15.0
 40
15.0
 40
16.0
 40
16.0
 40
16.0
 40
17.0
 40
17.0
 40
17.0
 40
17.0
 10
100.4504378777679
 20
166.69157178364
 30
0.0
 10
101.9848844191641
 20
167.1313385124438
 30
0.0
 10
103.9637485713373
 20
166.7649523658846
 30
0.0
 10
103.9637485713373
 20
166.7649523658846
 30
0.0
 10
103.9637485713373
 20
166.7649523658846
 30
0.0
 10
103.0132460999156
 20
163.911205638077
 30
0.0
 10
103.0132460999156
 20
163.911205638077
 30
0.0
 10
103.0132460999156
 20
163.911205638077
 30
0.0
 10
101.0674548862189
 20
164.3601018759394
 30
0.0
 10
99.57090442016032
 20
163.1805004036133
 30
0.0
 10
98.40508333886608
 20
162.258247733807
 30
0.0
 10
97.65301849830304
 20
159.804132345923
 30
0.0
 10
97.3598406791005
 20
158.8699940888517
 30
0.0
 10
97.3598406791005
 20
158.8699940888517
 30
0.0
 10
96.07137411762282
 20
154.9119212747295
 30
0.0
 10
96.07137411762282
 20
154.9119212747295
 30
0.0
 10
96.07137411762282
 20
154.9119212747295
 30
0.0
 10
100.3012651448482
 20
154.9119212747295
 30
0.0
 10
100.3012651448482
 20
154.9119212747295
 30
0.0
 10
100.3012651448482
 20
154.9119212747295
 30
0.0
 10
99.64152892419852
 20
152.4199098115079
 30
0.0
 10
99.64152892419852
 20
152.4199098115079
 30
0.0
 10
99.64152892419852
 20
152.4199098115079
 30
0.0
 10
95.38097652692731
 20
152.4199098115079
 30
0.0
 10
95.38097652692731
 20
152.4199098115079
 30
0.0
 10
95.38097652692731
 20
152.4199098115079
 30
0.0
 10
87.75353009080013
 20
127.8027915271048
 30
0.0
 10
87.75353009080013
 20
127.8027915271048
 30
0.0
 10
87.75353009080013
 20
127.8027915271048
 30
0.0
 10
85.36538832498108
 20
127.8027915271048
 30
0.0
 10
85.36538832498108
 20
127.8027915271048
 30
0.0
 10
85.36538832498108
 20
127.8027915271048
 30
0.0
 10
93.00006946639998
 20
152.4199098115079
 30
0.0
 10
93.00006946639998
 20
152.4199098115079
 30
0.0
 10
93.00006946639998
 20
152.4199098115079
 30
0.0
 10
89.85297266450198
 20
152.4199098115079
 30
0.0
 10
89.85297266450198
 20
152.4199098115079
 30
0.0
 10
89.85297266450198
 20
152.4199098115079
 30
0.0
 10
90.51270888515164
 20
154.9119212747295
 30
0.0
 10
90.51270888515164
 20
154.9119212747295
 30
0.0
 10
90.51270888515164
 20
154.9119212747295
 30
0.0
 10
93.6904670570955
 20
154.9119212747295
 30
0.0
 10
93.6904670570955
 20
154.9119212747295
 30
0.0
 10
93.6904670570955
 20
154.9119212747295
 30
0.0
 10
94.81598049462158
 20
158.3616699146644
 30
0.0
 10
94.81598049462158
 20
158.3616699146644
 30
0.0
 10
95.7237637538445
 20
161.2605474231013
 30
0.0
 10
96.4968436907311
 20
162.8139420021662
 30
0.0
 10
97.15657991138076
 20
163.9844139654337
 30
0.0
 10
97.81183750494507
 20
165.1523021053827
 30
0.0
 10
99.1047826935081
 20
166.3084769129547
 30
0.0
 10
100.4504378777679
 20
166.69157178364
 30
0.0
  0
HATCH
  5
6A5
330
6A2
100
AcDbEntity
  8
LOGO
 62
   250
420
  2234388
100
AcDbHatch
 10
0.0
 20
0.0
 30
0.0
210
0.0
220
0.0
230
1.0
  2
SOLID
 70
     1
 71
     0
 91
        1
 92
        1
 93
        1
 72
     4
 94
        3
 73
     0
 74
     1
 95
       56
 96
       52
 40
0.0
 40
0.0
 40
0.0
 40
0.0
 40
1.0
 40
1.0
 40
1.0
 40
2.0
 40
2.0
 40
2.0
 40
3.0
 40
3.0
 40
3.0
 40
4.0
 40
4.0
 40
4.0
 40
5.0
 40
5.0
 40
5.0
 40
6.0
 40
6.0
 40
6.0
 40
7.0
 40
7.0
 40
7.0
 40
8.0
 40
8.0
 40
8.0
 40
9.0
 40
9.0
 40
9.0
 40
10.0
 40
10.0
 40
10.0
 40
11.0
 40
11.0
 40
11.0
 40
12.0
 40
12.0
 40
12.0
 40
13.0
 40
13.0
 40
13.0
 40
14.0
 40
14.0
 40
14.0
 40
15.0
 40
15.0
 40
15.0
 40
16.0
 40
16.0
 40
16.0
 40
17.0
 40
17.0
 40
17.0
 40
17.0
 10
100.4504378777679
 20
166.69157178364
 10
101.9848844191641
 20
167.1313385124438
 10
103.9637485713373
 20
166.7649523658846
 10
103.9637485713373
 20
166.7649523658846
 10
103.9637485713373
 20
166.7649523658846
 10
103.0132460999156
 20
163.911205638077
 10
103.0132460999156
 20
163.911205638077
 10
103.0132460999156
 20
163.911205638077
 10
101.0674548862189
 20
164.3601018759394
 10
99.57090442016032
 20
163.1805004036133
 10
98.40508333886608
 20
162.258247733807
 10
97.65301849830304
 20
159.804132345923
 10
97.3598406791005
 20
158.8699940888517
 10
97.3598406791005
 20
158.8699940888517
 10
96.07137411762282
 20
154.9119212747295
 10
96.07137411762282
 20
154.9119212747295
 10
96.07137411762282
 20
154.9119212747295
 10
100.3012651448482
 20
154.9119212747295
 10
100.3012651448482
 20
154.9119212747295
 10
100.3012651448482
 20
154.9119212747295
 10
99.64152892419852
 20
152.4199098115079
 10
99.64152892419852
 20
152.4199098115079
 10
99.64152892419852
 20
152.4199098115079
 10
95.38097652692731
 20
152.4199098115079
 10
95.38097652692731
 20
152.4199098115079
 10
95.38097652692731
 20
152.4199098115079
 10
87.75353009080013
 20
127.8027915271048
 10
87.75353009080013
 20
127.8027915271048
 10
87.75353009080013
 20
127.8027915271048
 10
85.36538832498108
 20
127.8027915271048
 10
85.36538832498108
 20
127.8027915271048
 10
85.36538832498108
 20
127.8027915271048
 10
93.00006946639998
 20
152.4199098115079
 10
93.00006946639998
 20
152.4199098115079
 10
93.00006946639998
 20
152.4199098115079
 10
89.85297266450198
 20
152.4199098115079
 10
89.85297266450198
 20
152.4199098115079
 10
89.85297266450198
 20
152.4199098115079
 10
90.51270888515164
 20
154.9119212747295
 10
90.51270888515164
 20
154.9119212747295
 10
90.51270888515164
 20
154.9119212747295
 10
93.6904670570955
 20
154.9119212747295
 10
93.6904670570955
 20
154.9119212747295
 10
93.6904670570955
 20
154.9119212747295
 10
94.81598049462158
 20
158.3616699146644
 10
94.81598049462158
 20
158.3616699146644
 10
95.7237637538445
 20
161.2605474231013
 10
96.4968436907311
 20
162.8139420021662
 10
97.15657991138076
 20
163.9844139654337
 10
97.81183750494507
 20
165.1523021053827
 10
99.1047826935081
 20
166.3084769129547
 10
100.4504378777679
 20
166.69157178364
 97
        0
 75
     2
 76
     1
 98
        0
  0
SPLINE
  5
6A6
330
6A2
100
AcDbEntity
  8
LOGO
370
     0
100
AcDbSpline
210
0.0
220
0.0
230
1.0
 70
    11
 71
     3
 72
    38
 73
    34
 74
     0
 42
0.000000001
 43
0.0000000001
 40
0.0
 40
0.0
 40
0.0
 40
0.0
 40
1.0
 40
1.0
 40
1.0
 40
2.0
 40
2.0
 40
2.0
 40
3.0
 40
3.0
 40
3.0
 40
4.0
 40
4.0
 40
4.0
 40
5.0
 40
5.0
 40
5.0
 40
6.0
 40
6.0
 40
6.0
 40
7.0
 40
7.0
 40
7.0
 40
8.0
 40
8.0
 40
8.0
 40
9.0
 40
9.0
 40
9.0
 40
10.0
 40
10.0
 40
10.0
 40
11.0
 40
11.0
 40
11.0
 40
11.0
 10
126.377554584636
 20
154.8151140277308
 30
0.0
 10
126.377554584636
 20
154.8151140277308
 30
0.0
 10
128.8311532078563
 20
154.8151140277308
 30
0.0
 10
128.8311532078563
 20
154.8151140277308
 30
0.0
 10
128.8311532078563
 20
154.8151140277308
 30
0.0
 10
127.7345785914971
 20
151.3062819612468
 30
0.0
 10
127.7345785914971
 20
151.3062819612468
 30
0.0
 10
128.571392836906
 20
152.2922689395754
 30
0.0
 10
129.8860421413442
 20
153.604506675583
 30
0.0
 10
131.0163787157314
 20
154.2664822097754
 30
0.0
 10
132.7044766171327
 20
155.2500576196734
 30
0.0
 10
133.6642808525008
 20
155.3847609420097
 30
0.0
 10
134.7284715499351
 20
155.3565111403944
 30
0.0
 10
134.7284715499351
 20
155.3565111403944
 30
0.0
 10
133.6877075172549
 20
152.0345756272799
 30
0.0
 10
133.6877075172549
 20
152.0345756272799
 30
0.0
 10
133.011434827367
 20
152.3184516825359
 30
0.0
 10
130.930940291334
 20
151.7768823149844
 30
0.0
 10
129.739280976855
 20
150.9162968950455
 30
0.0
 10
128.66613302525
 20
150.1454562717016
 30
0.0
 10
127.9192358313239
 20
149.4857200510519
 30
0.0
 10
127.0393578639405
 20
147.8282835196966
 30
0.0
 10
126.164647543194
 20
146.1699857139017
 30
0.0
 10
125.4742499524985
 20
143.5262176944419
 30
0.0
 10
124.2822461282437
 20
139.6959580071401
 30
0.0
 10
124.2822461282437
 20
139.6959580071401
 30
0.0
 10
120.5753209406769
 20
127.8027915271048
 30
0.0
 10
120.5753209406769
 20
127.8027915271048
 30
0.0
 10
120.5753209406769
 20
127.8027915271048
 30
0.0
 10
118.1964809388044
 20
127.8027915271048
 30
0.0
 10
118.1964809388044
 20
127.8027915271048
 30
0.0
 10
118.1964809388044
 20
127.8027915271048
 30
0.0
 10
126.377554584636
 20
154.8151140277308
 30
0.0
 10
126.377554584636
 20
154.8151140277308
 30
0.0
  0
HATCH
  5
6A7
330
6A2
100
AcDbEntity
  8
LOGO
 62
   250
420
  2234388
100
AcDbHatch
 10
0.0
 20
0.0
 30
0.0
210
0.0
220
0.0
230
1.0
  2
SOLID
 70
     1
 71
     0
 91
        1
 92
        1
 93
        1
 72
     4
 94
        3
 73
     0
 74
     1
 95
       38
 96
       34
 40
0.0
 40
0.0
 40
0.0
 40
0.0
 40
1.0
 40
1.0
 40
1.0
 40
2.0
 40
2.0
 40
2.0
 40
3.0
 40
3.0
 40
3.0
 40
4.0
 40
4.0
 40
4.0
 40
5.0
 40
5.0
 40
5.0
 40
6.0
 40
6.0
 40
6.0
 40
7.0
 40
7.0
 40
7.0
 40
8.0
 40
8.0
 40
8.0
 40
9.0
 40
9.0
 40
9.0
 40
10.0
 40
10.0
 40
10.0
 40
11.0
 40
11.0
 40
11.0
 40
11.0
 10
126.377554584636
 20
154.8151140277308
 10
126.377554584636
 20
154.8151140277308
 10
128.8311532078563
 20
154.8151140277308
 10
128.8311532078563
 20
154.8151140277308
 10
128.8311532078563
 20
154.8151140277308
 10
127.7345785914971
 20
151.3062819612468
 10
127.7345785914971
 20
151.3062819612468
 10
128.571392836906
 20
152.2922689395754
 10
129.8860421413442
 20
153.604506675583
 10
131.0163787157314
 20
154.2664822097754
 10
132.7044766171327
 20
155.2500576196734
 10
133.6642808525008
 20
155.3847609420097
 10
134.7284715499351
 20
155.3565111403944
 10
134.7284715499351
 20
155.3565111403944
 10
133.6877075172549
 20
152.0345756272799
 10
133.6877075172549
 20
152.0345756272799
 10
133.011434827367
 20
152.3184516825359
 10
130.930940291334
 20
151.7768823149844
 10
129.739280976855
 20
150.9162968950455
 10
128.66613302525
 20
150.1454562717016
 10
127.9192358313239
 20
149.4857200510519
 10
127.0393578639405
 20
147.8282835196966
 10
126.164647543194
 20
146.1699857139017
 10
125.4742499524985
 20
143.5262176944419
 10
124.2822461282437
 20
139.6959580071401
 10
124.2822461282437
 20
139.6959580071401
 10
120.5753209406769
 20
127.8027915271048
 10
120.5753209406769
 20
127.8027915271048
 10
120.5753209406769
 20
127.8027915271048
 10
118.1964809388044
 20
127.8027915271048
 10
118.1964809388044
 20
127.8027915271048
 10
118.1964809388044
 20
127.8027915271048
 10
126.377554584636
 20
154.8151140277308
 10
126.377554584636
 20
154.8151140277308
 97
        0
 75
     2
 76
     1
 98
        0
  0
SPLINE
  5
6A8
330
6A2
100
AcDbEntity
  8
LOGO
370
     0
100
AcDbSpline
210
0.0
220
0.0
230
1.0
 70
    11
 71
     3
 72
   104
 73
   100
 74
     0
 42
0.000000001
 43
0.0000000001
 40
0.0
 40
0.0
 40
0.0
 40
0.0
 40
1.0
 40
1.0
 40
1.0
 40
2.0
 40
2.0
 40
2.0
 40
3.0
 40
3.0
 40
3.0
 40
4.0
 40
4.0
 40
4.0
 40
5.0
 40
5.0
 40
5.0
 40
6.0
 40
6.0
 40
6.0
 40
7.0
 40
7.0
 40
7.0
 40
8.0
 40
8.0
 40
8.0
 40
9.0
 40
9.0
 40
9.0
 40
10.0
 40
10.0
 40
10.0
 40
11.0
 40
11.0
 40
11.0
 40
12.0
 40
12.0
 40
12.0
 40
13.0
 40
13.0
 40
13.0
 40
14.0
 40
14.0
 40
14.0
 40
15.0
 40
15.0
 40
15.0
 40
16.0
 40
16.0
 40
16.0
 40
17.0
 40
17.0
 40
17.0
 40
18.0
 40
18.0
 40
18.0
 40
19.0
 40
19.0
 40
19.0
 40
20.0
 40
20.0
 40
20.0
 40
21.0
 40
21.0
 40
21.0
 40
22.0
 40
22.0
 40
22.0
 40
23.0
 40
23.0
 40
23.0
 40
24.0
 40
24.0
 40
24.0
 40
25.0
 40
25.0
 40
25.0
 40
26.0
 40
26.0
 40
26.0
 40
27.0
 40
27.0
 40
27.0
 40
28.0
 40
28.0
 40
28.0
 40
29.0
 40
29.0
 40
29.0
 40
30.0
 40
30.0
 40
30.0
 40
31.0
 40
31.0
 40
31.0
 40
32.0
 40
32.0
 40
32.0
 40
33.0
 40
33.0
 40
33.0
 40
33.0
 10
139.8926730891197
 20
154.8294111834263
 30
0.0
 10
139.8926730891197
 20
154.8294111834263
 30
0.0
 10
142.0344903652445
 20
154.8294111834263
 30
0.0
 10
142.0344903652445
 20
154.8294111834263
 30
0.0
 10
142.0344903652445
 20
154.8294111834263
 30
0.0
 10
140.9516961399171
 20
151.3157559800812
 30
0.0
 10
140.9516961399171
 20
151.3157559800812
 30
0.0
 10
141.8928968473923
 20
152.7887075264977
 30
0.0
 10
142.7341897198865
 20
153.4484437471474
 30
0.0
 10
143.8552245303272
 20
154.2926649527359
 30
0.0
 10
144.9803934580775
 20
155.1296514530327
 30
0.0
 10
146.3139908001845
 20
155.3044901642492
 30
0.0
 10
147.241066606852
 20
155.3044901642492
 30
0.0
 10
148.3855280820469
 20
155.3044901642492
 30
0.0
 10
149.4969166187653
 20
155.0752189084569
 30
0.0
 10
150.0784491203092
 20
153.8172414621372
 30
0.0
 10
150.5228667310863
 20
152.833838307127
 30
0.0
 10
150.5414702589793
 20
152.7201500811143
 30
0.0
 10
150.4140016419347
 20
150.7765981809602
 30
0.0
 10
151.5818897818837
 20
152.7699317437168
 30
0.0
 10
152.4424752018226
 20
153.6256940267945
 30
0.0
 10
153.9038856707499
 20
154.4507949398263
 30
0.0
 10
155.4455669174378
 20
155.3044901642492
 30
0.0
 10
156.339225275853
 20
155.3659851592288
 30
0.0
 10
157.3748216618963
 20
155.2147453676543
 30
0.0
 10
158.911679771723
 20
154.9877134254046
 30
0.0
 10
159.8859534176746
 20
154.4390816074493
 30
0.0
 10
160.3965169054045
 20
152.7816450760939
 30
0.0
 10
160.9070803931344
 20
151.1219692311958
 30
0.0
 10
160.6328506116007
 20
150.2303779314354
 30
0.0
 10
159.9992971339115
 20
147.597634224801
 30
0.0
 10
159.7105979417943
 20
146.4014962832367
 30
0.0
 10
159.2947746424084
 20
144.9400858143094
 30
0.0
 10
158.7463150793409
 20
143.2092687007094
 30
0.0
 10
158.7463150793409
 20
143.2092687007094
 30
0.0
 10
153.9038856707499
 20
127.8027915271048
 30
0.0
 10
153.9038856707499
 20
127.8027915271048
 30
0.0
 10
153.9038856707499
 20
127.8027915271048
 30
0.0
 10
151.3882752878863
 20
127.8027915271048
 30
0.0
 10
151.3882752878863
 20
127.8027915271048
 30
0.0
 10
151.3882752878863
 20
127.8027915271048
 30
0.0
 10
155.6250565106276
 20
141.2751908193897
 30
0.0
 10
155.6250565106276
 20
141.2751908193897
 30
0.0
 10
156.5094131050963
 20
144.0936252951782
 30
0.0
 10
157.109893644309
 20
146.1506931664571
 30
0.0
 10
157.4220195011804
 20
147.4415712963654
 30
0.0
 10
157.8095929989511
 20
149.0530157726519
 30
0.0
 10
157.9656559273867
 20
149.5826995529385
 30
0.0
 10
157.7816877071116
 20
150.7529992613181
 30
0.0
 10
157.6111553680925
 20
151.8430281919372
 30
0.0
 10
157.0582171779396
 20
152.5547853887321
 30
0.0
 10
156.1170164704645
 20
152.5547853887321
 30
0.0
 10
155.1096698860365
 20
152.5547853887321
 30
0.0
 10
154.2962823053817
 20
152.4412694176073
 30
0.0
 10
153.156643967048
 20
151.2945686288697
 30
0.0
 10
152.0170056287143
 20
150.1476955852443
 30
0.0
 10
151.076149431015
 20
148.7930831468137
 30
0.0
 10
150.3337308641742
 20
147.2290087646991
 30
0.0
 10
149.5957909244188
 20
145.6683794803425
 30
0.0
 10
148.8530278478023
 20
143.6822806228776
 30
0.0
 10
148.0964843801539
 20
141.2751908193897
 30
0.0
 10
148.0964843801539
 20
141.2751908193897
 30
0.0
 10
143.8552245303272
 20
127.8027915271048
 30
0.0
 10
143.8552245303272
 20
127.8027915271048
 30
0.0
 10
143.8552245303272
 20
127.8027915271048
 30
0.0
 10
141.486030802177
 20
127.8027915271048
 30
0.0
 10
141.486030802177
 20
127.8027915271048
 30
0.0
 10
141.486030802177
 20
127.8027915271048
 30
0.0
 10
146.3329388378533
 20
143.2092687007094
 30
0.0
 10
146.3329388378533
 20
143.2092687007094
 30
0.0
 10
146.8483254624444
 20
144.8408669988801
 30
0.0
 10
147.2314203331297
 20
146.1837661049335
 30
0.0
 10
147.4867020769946
 20
147.224185627838
 30
0.0
 10
147.9169947869641
 20
149.0197705792876
 30
0.0
 10
148.0306830129768
 20
150.2400242051577
 30
0.0
 10
147.709255392159
 20
151.3157559800812
 30
0.0
 10
147.3874832615654
 20
152.3916600098926
 30
0.0
 10
146.8245542879144
 20
152.6683013598569
 30
0.0
 10
145.8840425999909
 20
152.6683013598569
 30
0.0
 10
145.0989048209514
 20
152.6683013598569
 30
0.0
 10
144.3282364524954
 20
152.3275811915945
 30
0.0
 10
143.4531816219731
 20
151.6538923250251
 30
0.0
 10
142.34627171234
 20
150.8074318058939
 30
0.0
 10
141.901854101563
 20
150.1097995099067
 30
0.0
 10
141.3578731655808
 20
149.289521733736
 30
0.0
 10
140.6299240093235
 20
148.192602607601
 30
0.0
 10
140.2850697237515
 20
147.455696197173
 30
0.0
 10
139.6652966370942
 20
145.8385673095858
 30
0.0
 10
139.0506911970739
 20
144.2214384219986
 30
0.0
 10
138.463991048893
 20
142.3252566160164
 30
0.0
 10
138.0571250036777
 20
141.0154304484394
 30
0.0
 10
138.0571250036777
 20
141.0154304484394
 30
0.0
 10
133.9009590684727
 20
127.8027915271048
 30
0.0
 10
133.9009590684727
 20
127.8027915271048
 30
0.0
 10
133.9009590684727
 20
127.8027915271048
 30
0.0
 10
131.4180771143097
 20
127.8027915271048
 30
0.0
 10
131.4180771143097
 20
127.8027915271048
 30
0.0
 10
131.4180771143097
 20
127.8027915271048
 30
0.0
 10
139.8926730891197
 20
154.8294111834263
 30
0.0
 10
139.8926730891197
 20
154.8294111834263
 30
0.0
  0
HATCH
  5
6A9
330
6A2
100
AcDbEntity
  8
LOGO
 62
   250
420
  2234388
100
AcDbHatch
 10
0.0
 20
0.0
 30
0.0
210
0.0
220
0.0
230
1.0
  2
SOLID
 70
     1
 71
     0
 91
        1
 92
        1
 93
        1
 72
     4
 94
        3
 73
     0
 74
     1
 95
      104
 96
      100
 40
0.0
 40
0.0
 40
0.0
 40
0.0
 40
1.0
 40
1.0
 40
1.0
 40
2.0
 40
2.0
 40
2.0
 40
3.0
 40
3.0
 40
3.0
 40
4.0
 40
4.0
 40
4.0
 40
5.0
 40
5.0
 40
5.0
 40
6.0
 40
6.0
 40
6.0
 40
7.0
 40
7.0
 40
7.0
 40
8.0
 40
8.0
 40
8.0
 40
9.0
 40
9.0
 40
9.0
 40
10.0
 40
10.0
 40
10.0
 40
11.0
 40
11.0
 40
11.0
 40
12.0
 40
12.0
 40
12.0
 40
13.0
 40
13.0
 40
13.0
 40
14.0
 40
14.0
 40
14.0
 40
15.0
 40
15.0
 40
15.0
 40
16.0
 40
16.0
 40
16.0
 40
17.0
 40
17.0
 40
17.0
 40
18.0
 40
18.0
 40
18.0
 40
19.0
 40
19.0
 40
19.0
 40
20.0
 40
20.0
 40
20.0
 40
21.0
 40
21.0
 40
21.0
 40
22.0
 40
22.0
 40
22.0
 40
23.0
 40
23.0
 40
23.0
 40
24.0
 40
24.0
 40
24.0
 40
25.0
 40
25.0
 40
25.0
 40
26.0
 40
26.0
 40
26.0
 40
27.0
 40
27.0
 40
27.0
 40
28.0
 40
28.0
 40
28.0
 40
29.0
 40
29.0
 40
29.0
 40
30.0
 40
30.0
 40
30.0
 40
31.0
 40
31.0
 40
31.0
 40
32.0
 40
32.0
 40
32.0
 40
33.0
 40
33.0
 40
33.0
 40
33.0
 10
139.8926730891197
 20
154.8294111834263
 10
139.8926730891197
 20
154.8294111834263
 10
142.0344903652445
 20
154.8294111834263
 10
142.0344903652445
 20
154.8294111834263
 10
142.0344903652445
 20
154.8294111834263
 10
140.9516961399171
 20
151.3157559800812
 10
140.9516961399171
 20
151.3157559800812
 10
141.8928968473923
 20
152.7887075264977
 10
142.7341897198865
 20
153.4484437471474
 10
143.8552245303272
 20
154.2926649527359
 10
144.9803934580775
 20
155.1296514530327
 10
146.3139908001845
 20
155.3044901642492
 10
147.241066606852
 20
155.3044901642492
 10
148.3855280820469
 20
155.3044901642492
 10
149.4969166187653
 20
155.0752189084569
 10
150.0784491203092
 20
153.8172414621372
 10
150.5228667310863
 20
152.833838307127
 10
150.5414702589793
 20
152.7201500811143
 10
150.4140016419347
 20
150.7765981809602
 10
151.5818897818837
 20
152.7699317437168
 10
152.4424752018226
 20
153.6256940267945
 10
153.9038856707499
 20
154.4507949398263
 10
155.4455669174378
 20
155.3044901642492
 10
156.339225275853
 20
155.3659851592288
 10
157.3748216618963
 20
155.2147453676543
 10
158.911679771723
 20
154.9877134254046
 10
159.8859534176746
 20
154.4390816074493
 10
160.3965169054045
 20
152.7816450760939
 10
160.9070803931344
 20
151.1219692311958
 10
160.6328506116007
 20
150.2303779314354
 10
159.9992971339115
 20
147.597634224801
 10
159.7105979417943
 20
146.4014962832367
 10
159.2947746424084
 20
144.9400858143094
 10
158.7463150793409
 20
143.2092687007094
 10
158.7463150793409
 20
143.2092687007094
 10
153.9038856707499
 20
127.8027915271048
 10
153.9038856707499
 20
127.8027915271048
 10
153.9038856707499
 20
127.8027915271048
 10
151.3882752878863
 20
127.8027915271048
 10
151.3882752878863
 20
127.8027915271048
 10
151.3882752878863
 20
127.8027915271048
 10
155.6250565106276
 20
141.2751908193897
 10
155.6250565106276
 20
141.2751908193897
 10
156.5094131050963
 20
144.0936252951782
 10
157.109893644309
 20
146.1506931664571
 10
157.4220195011804
 20
147.4415712963654
 10
157.8095929989511
 20
149.0530157726519
 10
157.9656559273867
 20
149.5826995529385
 10
157.7816877071116
 20
150.7529992613181
 10
157.6111553680925
 20
151.8430281919372
 10
157.0582171779396
 20
152.5547853887321
 10
156.1170164704645
 20
152.5547853887321
 10
155.1096698860365
 20
152.5547853887321
 10
154.2962823053817
 20
152.4412694176073
 10
153.156643967048
 20
151.2945686288697
 10
152.0170056287143
 20
150.1476955852443
 10
151.076149431015
 20
148.7930831468137
 10
150.3337308641742
 20
147.2290087646991
 10
149.5957909244188
 20
145.6683794803425
 10
148.8530278478023
 20
143.6822806228776
 10
148.0964843801539
 20
141.2751908193897
 10
148.0964843801539
 20
141.2751908193897
 10
143.8552245303272
 20
127.8027915271048
 10
143.8552245303272
 20
127.8027915271048
 10
143.8552245303272
 20
127.8027915271048
 10
141.486030802177
 20
127.8027915271048
 10
141.486030802177
 20
127.8027915271048
 10
141.486030802177
 20
127.8027915271048
 10
146.3329388378533
 20
143.2092687007094
 10
146.3329388378533
 20
143.2092687007094
 10
146.8483254624444
 20
144.8408669988801
 10
147.2314203331297
 20
146.1837661049335
 10
147.4867020769946
 20
147.224185627838
 10
147.9169947869641
 20
149.0197705792876
 10
148.0306830129768
 20
150.2400242051577
 10
147.709255392159
 20
151.3157559800812
 10
147.3874832615654
 20
152.3916600098926
 10
146.8245542879144
 20
152.6683013598569
 10
145.8840425999909
 20
152.6683013598569
 10
145.0989048209514
 20
152.6683013598569
 10
144.3282364524954
 20
152.3275811915945
 10
143.4531816219731
 20
151.6538923250251
 10
142.34627171234
 20
150.8074318058939
 10
141.901854101563
 20
150.1097995099067
 10
141.3578731655808
 20
149.289521733736
 10
140.6299240093235
 20
148.192602607601
 10
140.2850697237515
 20
147.455696197173
 10
139.6652966370942
 20
145.8385673095858
 10
139.0506911970739
 20
144.2214384219986
 10
138.463991048893
 20
142.3252566160164
 10
138.0571250036777
 20
141.0154304484394
 10
138.0571250036777
 20
141.0154304484394
 10
133.9009590684727
 20
127.8027915271048
 10
133.9009590684727
 20
127.8027915271048
 10
133.9009590684727
 20
127.8027915271048
 10
131.4180771143097
 20
127.8027915271048
 10
131.4180771143097
 20
127.8027915271048
 10
131.4180771143097
 20
127.8027915271048
 10
139.8926730891197
 20
154.8294111834263
 10
139.8926730891197
 20
154.8294111834263
 97
        0
 75
     2
 76
     1
 98
        0
  0
SPLINE
  5
6AA
330
6A2
100
AcDbEntity
  8
LOGO
370
     0
100
AcDbSpline
210
0.0
220
0.0
230
1.0
 70
    11
 71
     3
 72
    29
 73
    25
 74
     0
 42
0.000000001
 43
0.0000000001
 40
0.0
 40
0.0
 40
0.0
 40
0.0
 40
1.0
 40
1.0
 40
1.0
 40
2.0
 40
2.0
 40
2.0
 40
3.0
 40
3.0
 40
3.0
 40
4.0
 40
4.0
 40
4.0
 40
5.0
 40
5.0
 40
5.0
 40
6.0
 40
6.0
 40
6.0
 40
7.0
 40
7.0
 40
7.0
 40
8.0
 40
8.0
 40
8.0
 40
8.0
 10
101.6420971922469
 20
132.8388354296931
 30
0.0
 10
101.630039350094
 20
134.7164137077823
 30
0.0
 10
102.2236296937908
 20
138.0598810818841
 30
0.0
 10
103.7487744712405
 20
142.5378191476827
 30
0.0
 10
105.819967243327
 20
148.5896501242061
 30
0.0
 10
107.0602024361932
 20
150.8074318058939
 30
0.0
 10
108.1522984254671
 20
151.8833358357054
 30
0.0
 10
109.741177511439
 20
153.4532668840085
 30
0.0
 10
111.8740375333931
 20
153.5290590346837
 30
0.0
 10
112.5075910110823
 20
153.4532668840085
 30
0.0
 10
113.4012493694975
 20
153.3490526768302
 30
0.0
 10
114.6683563248758
 20
152.7580461564518
 30
0.0
 10
114.7493161221879
 20
150.7838328862519
 30
0.0
 10
114.8106388622796
 20
149.0909118479895
 30
0.0
 10
114.3186789024427
 20
145.9191825971221
 30
0.0
 10
112.6164561002338
 20
140.9489400617108
 30
0.0
 10
110.6444821435766
 20
135.1746117095912
 30
0.0
 10
109.4669477299053
 20
132.8960240524753
 30
0.0
 10
108.5212683953448
 20
131.9072809959403
 30
0.0
 10
106.7346406980658
 20
130.0538184021569
 30
0.0
 10
104.8222669326213
 20
130.2336525051225
 30
0.0
 10
104.5408024457958
 20
130.2336525051225
 30
0.0
 10
104.1721769856939
 20
130.2336525051225
 30
0.0
 10
101.6465758193322
 20
130.6305277668397
 30
0.0
 10
101.6420971922469
 20
132.8388354296931
 30
0.0
  0
SPLINE
  5
6AB
330
6A2
100
AcDbEntity
  8
LOGO
370
     0
100
AcDbSpline
210
0.0
220
0.0
230
1.0
 70
    11
 71
     3
 72
    32
 73
    28
 74
     0
 42
0.000000001
 43
0.0000000001
 40
0.0
 40
0.0
 40
0.0
 40
0.0
 40
1.0
 40
1.0
 40
1.0
 40
2.0
 40
2.0
 40
2.0
 40
3.0
 40
3.0
 40
3.0
 40
4.0
 40
4.0
 40
4.0
 40
5.0
 40
5.0
 40
5.0
 40
6.0
 40
6.0
 40
6.0
 40
7.0
 40
7.0
 40
7.0
 40
8.0
 40
8.0
 40
8.0
 40
9.0
 40
9.0
 40
9.0
 40
9.0
 10
106.2595617172429
 20
153.4105476718098
 30
0.0
 10
104.8222669326213
 20
151.5474388043041
 30
0.0
 10
103.7177685914188
 20
149.8758773721411
 30
0.0
 10
101.9232171692965
 20
144.6141795664062
 30
0.0
 10
100.2754269116635
 20
139.7999999594306
 30
0.0
 10
99.22777268346732
 20
136.3052927937542
 30
0.0
 10
99.06964269637689
 20
132.039572749846
 30
0.0
 10
98.94665270641765
 20
128.8673267343149
 30
0.0
 10
100.8807305877373
 20
127.8027915271048
 30
0.0
 10
103.7129454545577
 20
127.8027915271048
 30
0.0
 10
104.9352661390825
 20
127.8027915271048
 30
0.0
 10
108.0151835347002
 20
127.8827177950895
 30
0.0
 10
110.2045431598849
 20
130.5926316915021
 30
0.0
 10
111.7417457794874
 20
132.4984597712065
 30
0.0
 10
113.155269389579
 20
134.475256864725
 30
0.0
 10
115.0562743324223
 20
140.9489400617108
 30
0.0
 10
116.6361961642235
 20
146.3680788349845
 30
0.0
 10
117.7282921534974
 20
149.8639917848761
 30
0.0
 10
117.6480213757369
 20
151.8595646611754
 30
0.0
 10
117.6480213757369
 20
151.8595646611754
 30
0.0
 10
117.6480213757369
 20
151.8595646611754
 30
0.0
 10
117.6480213757369
 20
151.8595646611754
 30
0.0
 10
117.13229024137
 20
155.18150017429
 30
0.0
 10
114.7162431837115
 20
155.886194920681
 30
0.0
 10
113.3351034925446
 20
155.886194920681
 30
0.0
 10
111.9829026225447
 20
155.886194920681
 30
0.0
 10
108.3414342923792
 20
156.1251124501957
 30
0.0
 10
106.2595617172429
 20
153.4105476718098
 30
0.0
  0
HATCH
  5
6AC
330
6A2
100
AcDbEntity
  8
LOGO
 62
   250
420
  2234388
100
AcDbHatch
 10
0.0
 20
0.0
 30
0.0
210
0.0
220
0.0
230
1.0
  2
SOLID
 70
     1
 71
     0
 91
        2
 92
        1
 93
        1
 72
     4
 94
        3
 73
     0
 74
     1
 95
       29
 96
       25
 40
0.0
 40
0.0
 40
0.0
 40
0.0
 40
1.0
 40
1.0
 40
1.0
 40
2.0
 40
2.0
 40
2.0
 40
3.0
 40
3.0
 40
3.0
 40
4.0
 40
4.0
 40
4.0
 40
5.0
 40
5.0
 40
5.0
 40
6.0
 40
6.0
 40
6.0
 40
7.0
 40
7.0
 40
7.0
 40
8.0
 40
8.0
 40
8.0
 40
8.0
 10
101.6420971922469
 20
132.8388354296931
 10
101.630039350094
 20
134.7164137077823
 10
102.2236296937908
 20
138.0598810818841
 10
103.7487744712405
 20
142.5378191476827
 10
105.819967243327
 20
148.5896501242061
 10
107.0602024361932
 20
150.8074318058939
 10
108.1522984254671
 20
151.8833358357054
 10
109.741177511439
 20
153.4532668840085
 10
111.8740375333931
 20
153.5290590346837
 10
112.5075910110823
 20
153.4532668840085
 10
113.4012493694975
 20
153.3490526768302
 10
114.6683563248758
 20
152.7580461564518
 10
114.7493161221879
 20
150.7838328862519
 10
114.8106388622796
 20
149.0909118479895
 10
114.3186789024427
 20
145.9191825971221
 10
112.6164561002338
 20
140.9489400617108
 10
110.6444821435766
 20
135.1746117095912
 10
109.4669477299053
 20
132.8960240524753
 10
108.5212683953448
 20
131.9072809959403
 10
106.7346406980658
 20
130.0538184021569
 10
104.8222669326213
 20
130.2336525051225
 10
104.5408024457958
 20
130.2336525051225
 10
104.1721769856939
 20
130.2336525051225
 10
101.6465758193322
 20
130.6305277668397
 10
101.6420971922469
 20
132.8388354296931
 97
        0
 92
        1
 93
        1
 72
     4
 94
        3
 73
     0
 74
     1
 95
       32
 96
       28
 40
0.0
 40
0.0
 40
0.0
 40
0.0
 40
1.0
 40
1.0
 40
1.0
 40
2.0
 40
2.0
 40
2.0
 40
3.0
 40
3.0
 40
3.0
 40
4.0
 40
4.0
 40
4.0
 40
5.0
 40
5.0
 40
5.0
 40
6.0
 40
6.0
 40
6.0
 40
7.0
 40
7.0
 40
7.0
 40
8.0
 40
8.0
 40
8.0
 40
9.0
 40
9.0
 40
9.0
 40
9.0
 10
106.2595617172429
 20
153.4105476718098
 10
104.8222669326213
 20
151.5474388043041
 10
103.7177685914188
 20
149.8758773721411
 10
101.9232171692965
 20
144.6141795664062
 10
100.2754269116635
 20
139.7999999594306
 10
99.22777268346732
 20
136.3052927937542
 10
99.06964269637689
 20
132.039572749846
 10
98.94665270641765
 20
128.8673267343149
 10
100.8807305877373
 20
127.8027915271048
 10
103.7129454545577
 20
127.8027915271048
 10
104.9352661390825
 20
127.8027915271048
 10
108.0151835347002
 20
127.8827177950895
 10
110.2045431598849
 20
130.5926316915021
 10
111.7417457794874
 20
132.4984597712065
 10
113.155269389579
 20
134.475256864725
 10
115.0562743324223
 20
140.9489400617108
 10
116.6361961642235
 20
146.3680788349845
 10
117.7282921534974
 20
149.8639917848761
 10
117.6480213757369
 20
151.8595646611754
 10
117.6480213757369
 20
151.8595646611754
 10
117.6480213757369
 20
151.8595646611754
 10
117.6480213757369
 20
151.8595646611754
 10
117.13229024137
 20
155.18150017429
 10
114.7162431837115
 20
155.886194920681
 10
113.3351034925446
 20
155.886194920681
 10
111.9829026225447
 20
155.886194920681
 10
108.3414342923792
 20
156.1251124501957
 10
106.2595617172429
 20
153.4105476718098
 97
        0
 75
     2
 76
     1
 98
        0
  0
ENDBLK
  5
6AD
330
6A2
100
AcDbEntity
  8
0
100
AcDbBlockEnd
  0
BLOCK
  5
4EBA
330
4EB9
100
AcDbEntity
  8
0
100
AcDbBlockBegin
  2
*D6
 70
     1
 10
0.0
 20
0.0
 30
0.0
  3
*D6
  1
*D18
  0
LINE
  5
4EBC
330
4EB9
100
AcDbEntity
  8
DIM
 62
     0
 48
0.05
370
    -2
100
AcDbLine
 10
100.0351914471871
 20
285.4155527857803
 30
0.0
 11
53.74321943355977
 21
285.4155527857803
 31
0.0
  0
LINE
  5
4EBD
330
4EB9
100
AcDbEntity
  8
DIM
 62
     0
 48
0.05
370
    -2
100
AcDbLine
 10
97.05143207238939
 20
207.6684297857804
 30
0.0
 11
53.74321943355977
 21
207.6684297857804
 31
0.0
  0
LINE
  5
4EBE
330
4EB9
100
AcDbEntity
  8
DIM
 62
     0
 48
0.05
370
    -2
100
AcDbLine
 10
53.74321943355977
 20
284.4155527857803
 30
0.0
 11
53.74321943355977
 21
208.6684297857804
 31
0.0
  0
INSERT
  5
4EBF
330
4EB9
100
AcDbEntity
  8
DIM
 62
     0
370
    -2
100
AcDbBlockReference
  2
_DOT
 10
53.74321943355977
 20
285.4155527857803
 30
0.0
 50
90.0
  0
INSERT
  5
4EC0
330
4EB9
100
AcDbEntity
  8
DIM
 62
     0
370
    -2
100
AcDbBlockReference
  2
_DOT
 10
53.74321943355977
 20
207.6684297857804
 30
0.0
 50
270.0
  0
MTEXT
  5
4EC1
330
4EB9
100
AcDbEntity
  8
DIM
 62
     0
 48
0.05
100
AcDbMText
 10
45.83821943355977
 20
246.5419912857804
 30
0.0
 40
5.0
 41
0.0
 46
0.0
 71
     5
 72
     1
  1
\A1;φ78
  7
ＭＳ ゴシック
 11
9.139151499665146E-17
 21
1.0
 31
0.0
 73
     1
 44
1.0
  0
POINT
  5
4EC2
330
4EB9
100
AcDbEntity
  8
Defpoints
 62
     0
100
AcDbPoint
 10
105.0351914471871
 20
285.4155527857803
 30
0.0
  0
POINT
  5
4EC3
330
4EB9
100
AcDbEntity
  8
Defpoints
 62
     0
100
AcDbPoint
 10
102.0514320723894
 20
207.6684297857804
 30
0.0
  0
POINT
  5
4EC4
330
4EB9
100
AcDbEntity
  8
Defpoints
 62
     0
100
AcDbPoint
 10
53.74321943355977
 20
207.6684297857804
 30
0.0
  0
ENDBLK
  5
4EBB
330
4EB9
100
AcDbEntity
  8
0
100
AcDbBlockEnd
  0
BLOCK
  5
4EC6
330
4EC5
100
AcDbEntity
  8
0
100
AcDbBlockBegin
  2
*D7
 70
     1
 10
0.0
 20
0.0
 30
0.0
  3
*D7
  1
*D19
  0
LINE
  5
4EC8
330
4EC5
100
AcDbEntity
  8
DIM
 62
     0
 48
0.05
370
    -2
100
AcDbLine
 10
365.9101728990784
 20
238.0354156041032
 30
0.0
 11
365.9101728990784
 21
142.132657934809
 31
0.0
  0
LINE
  5
4EC9
330
4EC5
100
AcDbEntity
  8
DIM
 62
     0
 48
0.05
370
    -2
100
AcDbLine
 10
264.3329688990784
 20
167.5419917857802
 30
0.0
 11
264.3329688990784
 21
142.132657934809
 31
0.0
  0
LINE
  5
4ECA
330
4EC5
100
AcDbEntity
  8
DIM
 62
     0
 48
0.05
370
    -2
100
AcDbLine
 10
364.9101728990784
 20
142.132657934809
 30
0.0
 11
265.3329688990784
 21
142.132657934809
 31
0.0
  0
INSERT
  5
4ECB
330
4EC5
100
AcDbEntity
  8
DIM
 62
     0
370
    -2
100
AcDbBlockReference
  2
_DOT
 10
365.9101728990784
 20
142.132657934809
 30
0.0
  0
INSERT
  5
4ECC
330
4EC5
100
AcDbEntity
  8
DIM
 62
     0
370
    -2
100
AcDbBlockReference
  2
_DOT
 10
264.3329688990784
 20
142.132657934809
 30
0.0
 50
180.0
  0
MTEXT
  5
4ECD
330
4EC5
100
AcDbEntity
  8
DIM
 62
     0
 48
0.05
100
AcDbMText
 10
315.1215708990784
 20
149.632657934809
 30
0.0
 40
5.0
 41
0.0
 46
0.0
 71
     5
 72
     1
  1
\A1;110～75
  7
ＭＳ ゴシック
 73
     1
 44
1.0
  0
POINT
  5
4ECE
330
4EC5
100
AcDbEntity
  8
Defpoints
 62
     0
100
AcDbPoint
 10
365.9101728990784
 20
243.0354156041032
 30
0.0
  0
POINT
  5
4ECF
330
4EC5
100
AcDbEntity
  8
Defpoints
 62
     0
100
AcDbPoint
 10
264.3329688990784
 20
172.5419917857802
 30
0.0
  0
POINT
  5
4ED0
330
4EC5
100
AcDbEntity
  8
Defpoints
 62
     0
100
AcDbPoint
 10
264.3329688990784
 20
142.132657934809
 30
0.0
  0
ENDBLK
  5
4EC7
330
4EC5
100
AcDbEntity
  8
0
100
AcDbBlockEnd
  0
BLOCK
  5
4ED2
330
4ED1
100
AcDbEntity
  8
0
100
AcDbBlockBegin
  2
*D8
 70
     1
 10
0.0
 20
0.0
 30
0.0
  3
*D8
  1
*D20
  0
LINE
  5
4ED4
330
4ED1
100
AcDbEntity
  8
DIM
 62
     0
 48
0.05
370
    -2
100
AcDbLine
 10
277.4420238990783
 20
224.528166434346
 30
0.0
 11
277.4420238990783
 21
160.8174181796959
 31
0.0
  0
LINE
  5
4ED5
330
4ED1
100
AcDbEntity
  8
DIM
 62
     0
 48
0.05
370
    -2
100
AcDbLine
 10
264.3329688990784
 20
167.5419917857802
 30
0.0
 11
264.3329688990784
 21
160.8174181796959
 31
0.0
  0
LINE
  5
4ED6
330
4ED1
100
AcDbEntity
  8
DIM
 62
     0
 48
0.05
370
    -2
100
AcDbLine
 10
276.4420238990783
 20
160.8174181796959
 30
0.0
 11
265.3329688990784
 21
160.8174181796959
 31
0.0
  0
INSERT
  5
4ED7
330
4ED1
100
AcDbEntity
  8
DIM
 62
     0
370
    -2
100
AcDbBlockReference
  2
_DOT
 10
277.4420238990783
 20
160.8174181796959
 30
0.0
  0
INSERT
  5
4ED8
330
4ED1
100
AcDbEntity
  8
DIM
 62
     0
370
    -2
100
AcDbBlockReference
  2
_DOT
 10
264.3329688990784
 20
160.8174181796959
 30
0.0
 50
180.0
  0
MTEXT
  5
4ED9
330
4ED1
100
AcDbEntity
  8
DIM
 62
     0
 48
0.05
100
AcDbMText
 10
270.8874946888784
 20
168.3174181796959
 30
0.0
 40
5.0
 41
0.0
 46
0.0
 71
     5
 72
     1
  1
\A1;13
  7
ＭＳ ゴシック
 73
     1
 44
1.0
  0
POINT
  5
4EDA
330
4ED1
100
AcDbEntity
  8
Defpoints
 62
     0
100
AcDbPoint
 10
277.4420238990783
 20
229.528166434346
 30
0.0
  0
POINT
  5
4EDB
330
4ED1
100
AcDbEntity
  8
Defpoints
 62
     0
100
AcDbPoint
 10
264.3329688990784
 20
172.5419917857802
 30
0.0
  0
POINT
  5
4EDC
330
4ED1
100
AcDbEntity
  8
Defpoints
 62
     0
100
AcDbPoint
 10
264.3329688990784
 20
160.8174181796959
 30
0.0
  0
ENDBLK
  5
4ED3
330
4ED1
100
AcDbEntity
  8
0
100
AcDbBlockEnd
  0
BLOCK
  5
4F35
330
4F34
100
AcDbEntity
  8
0
100
AcDbBlockBegin
  2
*D9
 70
     1
 10
0.0
 20
0.0
 30
0.0
  3
*D9
  1
*D22
  0
LINE
  5
4F37
330
4F34
100
AcDbEntity
  8
DIM
 62
     0
 48
0.05
370
    -2
100
AcDbLine
 10
193.8329688990784
 20
284.0419917857802
 30
0.0
 11
182.188993444076
 21
284.0419917857802
 31
0.0
  0
LINE
  5
4F38
330
4F34
100
AcDbEntity
  8
DIM
 62
     0
 48
0.05
370
    -2
100
AcDbLine
 10
193.8329688990784
 20
209.0419917857802
 30
0.0
 11
182.188993444076
 21
209.0419917857802
 31
0.0
  0
LINE
  5
4F39
330
4F34
100
AcDbEntity
  8
DIM
 62
     0
 48
0.05
370
    -2
100
AcDbLine
 10
182.188993444076
 20
283.0419917857802
 30
0.0
 11
182.188993444076
 21
210.0419917857802
 31
0.0
  0
INSERT
  5
4F3A
330
4F34
100
AcDbEntity
  8
DIM
 62
     0
370
    -2
100
AcDbBlockReference
  2
_DOT
 10
182.188993444076
 20
284.0419917857802
 30
0.0
 50
90.0
  0
INSERT
  5
4F3B
330
4F34
100
AcDbEntity
  8
DIM
 62
     0
370
    -2
100
AcDbBlockReference
  2
_DOT
 10
182.188993444076
 20
209.0419917857802
 30
0.0
 50
270.0
  0
MTEXT
  5
4F3C
330
4F34
100
AcDbEntity
  8
DIM
 62
     0
 48
0.05
100
AcDbMText
 10
174.688993444076
 20
246.5419917857802
 30
0.0
 40
5.0
 41
0.0
 46
0.0
 71
     5
 72
     1
  1
\A1;75
  7
ＭＳ ゴシック
 11
0.0
 21
1.0
 31
0.0
 73
     1
 44
1.0
  0
POINT
  5
4F3D
330
4F34
100
AcDbEntity
  8
Defpoints
 62
     0
100
AcDbPoint
 10
198.8329688990784
 20
284.0419917857802
 30
0.0
  0
POINT
  5
4F3E
330
4F34
100
AcDbEntity
  8
Defpoints
 62
     0
100
AcDbPoint
 10
198.8329688990784
 20
209.0419917857802
 30
0.0
  0
POINT
  5
4F3F
330
4F34
100
AcDbEntity
  8
Defpoints
 62
     0
100
AcDbPoint
 10
182.188993444076
 20
209.0419917857802
 30
0.0
  0
ENDBLK
  5
4F36
330
4F34
100
AcDbEntity
  8
0
100
AcDbBlockEnd
  0
BLOCK
  5
5046
330
5045
100
AcDbEntity
  8
0
100
AcDbBlockBegin
  2
*D11
 70
     1
 10
0.0
 20
0.0
 30
0.0
  3
*D11
  1
*D11
  0
LINE
  5
5047
330
5045
100
AcDbEntity
  8
DIM
 62
     0
 48
0.05
370
    -2
100
AcDbLine
 10
6.299970088779986
 20
102.1803192119461
 30
0.0
 11
6.299970088779986
 21
111.6305639611677
 31
0.0
  0
LINE
  5
5048
330
5045
100
AcDbEntity
  8
DIM
 62
     0
 48
0.05
370
    -2
100
AcDbLine
 10
32.7000299112199
 20
102.1803192119461
 30
0.0
 11
32.7000299112199
 21
111.6305639611677
 31
0.0
  0
LINE
  5
5049
330
5045
100
AcDbEntity
  8
DIM
 62
     0
 48
0.05
370
    -2
100
AcDbLine
 10
7.299970088779986
 20
111.6305639611677
 30
0.0
 11
31.7000299112199
 21
111.6305639611677
 31
0.0
  0
INSERT
  5
504A
330
5045
100
AcDbEntity
  8
DIM
 62
     0
370
    -2
100
AcDbBlockReference
  2
_DOT
 10
6.299970088779986
 20
111.6305639611677
 30
0.0
 50
180.0
  0
INSERT
  5
504B
330
5045
100
AcDbEntity
  8
DIM
 62
     0
370
    -2
100
AcDbBlockReference
  2
_DOT
 10
32.7000299112199
 20
111.6305639611677
 30
0.0
  0
MTEXT
  5
504C
330
5045
100
AcDbEntity
  8
DIM
 62
     0
 48
0.05
100
AcDbMText
 10
19.49991969884729
 20
119.6630639611677
 30
0.0
 40
5.0
 41
0.0
 46
0.0
 71
     5
 72
     1
  1
\A1;G3/4"
  7
ＭＳ ゴシック
 73
     1
 44
1.0
  0
POINT
  5
504D
330
5045
100
AcDbEntity
  8
Defpoints
 62
     0
100
AcDbPoint
 10
6.299970088779986
 20
97.18031921194611
 30
0.0
  0
POINT
  5
504E
330
5045
100
AcDbEntity
  8
Defpoints
 62
     0
100
AcDbPoint
 10
32.7000299112199
 20
97.18031921194611
 30
0.0
  0
POINT
  5
504F
330
5045
100
AcDbEntity
  8
Defpoints
 62
     0
100
AcDbPoint
 10
32.7000299112199
 20
111.6305639611677
 30
0.0
  0
ENDBLK
  5
5050
330
5045
100
AcDbEntity
  8
0
100
AcDbBlockEnd
  0
BLOCK
  5
5055
330
5054
100
AcDbEntity
  8
0
100
AcDbBlockBegin
  2
*D12
 70
     1
 10
0.0
 20
0.0
 30
0.0
  3
*D12
  1
*D12
  0
LINE
  5
5056
330
5054
100
AcDbEntity
  8
DIM
 62
     0
 48
0.05
370
    -2
100
AcDbLine
 10
6.299970088779987
 20
17.31388291452194
 30
0.0
 11
6.29997008877999
 21
0.5
 31
0.0
  0
LINE
  5
5057
330
5054
100
AcDbEntity
  8
DIM
 62
     0
 48
0.05
370
    -2
100
AcDbLine
 10
32.7000299112199
 20
17.31388291452194
 30
0.0
 11
32.7000299112199
 21
0.5
 31
0.0
  0
LINE
  5
5058
330
5054
100
AcDbEntity
  8
DIM
 62
     0
 48
0.05
370
    -2
100
AcDbLine
 10
7.29997008877999
 20
0.5
 30
0.0
 11
31.7000299112199
 21
0.5
 31
0.0
  0
INSERT
  5
5059
330
5054
100
AcDbEntity
  8
DIM
 62
     0
370
    -2
100
AcDbBlockReference
  2
_DOT
 10
6.29997008877999
 20
0.5
 30
0.0
 50
180.0
  0
INSERT
  5
505A
330
5054
100
AcDbEntity
  8
DIM
 62
     0
370
    -2
100
AcDbBlockReference
  2
_DOT
 10
32.7000299112199
 20
0.5
 30
0.0
  0
MTEXT
  5
505B
330
5054
100
AcDbEntity
  8
DIM
 62
     0
 48
0.05
100
AcDbMText
 10
19.49991969884729
 20
8.5325
 30
0.0
 40
5.0
 41
0.0
 46
0.0
 71
     5
 72
     1
  1
\A1;G3/4"
  7
ＭＳ ゴシック
 73
     1
 44
1.0
  0
POINT
  5
505C
330
5054
100
AcDbEntity
  8
Defpoints
 62
     0
100
AcDbPoint
 10
6.299970088779986
 20
22.31388291452194
 30
0.0
  0
POINT
  5
505D
330
5054
100
AcDbEntity
  8
Defpoints
 62
     0
100
AcDbPoint
 10
32.7000299112199
 20
22.31388291452194
 30
0.0
  0
POINT
  5
505E
330
5054
100
AcDbEntity
  8
Defpoints
 62
     0
100
AcDbPoint
 10
32.7000299112199
 20
0.5
 30
0.0
  0
ENDBLK
  5
505F
330
5054
100
AcDbEntity
  8
0
100
AcDbBlockEnd
  0
BLOCK
  5
506E
330
506D
100
AcDbEntity
  8
0
100
AcDbBlockBegin
  2
*D13
 70
     1
 10
0.0
 20
0.0
 30
0.0
  3
*D13
  1
*D13
  0
LINE
  5
5070
330
506D
100
AcDbEntity
  8
DIM
 62
     0
 48
0.05
370
    -2
100
AcDbLine
 10
187.9415451259271
 20
435.6411513070427
 30
0.0
 11
187.9415451259271
 21
445.0913960562643
 31
0.0
  0
LINE
  5
5071
330
506D
100
AcDbEntity
  8
DIM
 62
     0
 48
0.05
370
    -2
100
AcDbLine
 10
214.341604948367
 20
435.6411513070427
 30
0.0
 11
214.341604948367
 21
445.0913960562643
 31
0.0
  0
LINE
  5
5072
330
506D
100
AcDbEntity
  8
DIM
 62
     0
 48
0.05
370
    -2
100
AcDbLine
 10
188.9415451259271
 20
445.0913960562643
 30
0.0
 11
213.341604948367
 21
445.0913960562643
 31
0.0
  0
INSERT
  5
5073
330
506D
100
AcDbEntity
  8
DIM
 62
     0
370
    -2
100
AcDbBlockReference
  2
_DOT
 10
187.9415451259271
 20
445.0913960562643
 30
0.0
 50
180.0
  0
INSERT
  5
5074
330
506D
100
AcDbEntity
  8
DIM
 62
     0
370
    -2
100
AcDbBlockReference
  2
_DOT
 10
214.341604948367
 20
445.0913960562643
 30
0.0
  0
MTEXT
  5
5075
330
506D
100
AcDbEntity
  8
DIM
 62
     0
 48
0.05
100
AcDbMText
 10
201.1414947359944
 20
453.1238960562644
 30
0.0
 40
5.0
 41
0.0
 46
0.0
 71
     5
 72
     1
  1
\A1;G3/4"
  7
ＭＳ ゴシック
 73
     1
 44
1.0
  0
POINT
  5
5076
330
506D
100
AcDbEntity
  8
Defpoints
 62
     0
100
AcDbPoint
 10
187.9415451259271
 20
430.6411513070427
 30
0.0
  0
POINT
  5
5077
330
506D
100
AcDbEntity
  8
Defpoints
 62
     0
100
AcDbPoint
 10
214.341604948367
 20
430.6411513070427
 30
0.0
  0
POINT
  5
5078
330
506D
100
AcDbEntity
  8
Defpoints
 62
     0
100
AcDbPoint
 10
214.341604948367
 20
445.0913960562643
 30
0.0
  0
ENDBLK
  5
506F
330
506D
100
AcDbEntity
  8
0
100
AcDbBlockEnd
  0
BLOCK
  5
507A
330
5079
100
AcDbEntity
  8
0
100
AcDbBlockBegin
  2
*D14
 70
     1
 10
0.0
 20
0.0
 30
0.0
  3
*D14
  1
*D14
  0
LINE
  5
507C
330
5079
100
AcDbEntity
  8
DIM
 62
     0
 48
0.05
370
    -2
100
AcDbLine
 10
187.9415451259271
 20
350.7747150096186
 30
0.0
 11
187.9415451259271
 21
333.9608320950966
 31
0.0
  0
LINE
  5
507D
330
5079
100
AcDbEntity
  8
DIM
 62
     0
 48
0.05
370
    -2
100
AcDbLine
 10
214.341604948367
 20
350.7747150096186
 30
0.0
 11
214.341604948367
 21
333.9608320950966
 31
0.0
  0
LINE
  5
507E
330
5079
100
AcDbEntity
  8
DIM
 62
     0
 48
0.05
370
    -2
100
AcDbLine
 10
188.9415451259271
 20
333.9608320950966
 30
0.0
 11
213.341604948367
 21
333.9608320950966
 31
0.0
  0
INSERT
  5
507F
330
5079
100
AcDbEntity
  8
DIM
 62
     0
370
    -2
100
AcDbBlockReference
  2
_DOT
 10
187.9415451259271
 20
333.9608320950966
 30
0.0
 50
180.0
  0
INSERT
  5
5080
330
5079
100
AcDbEntity
  8
DIM
 62
     0
370
    -2
100
AcDbBlockReference
  2
_DOT
 10
214.341604948367
 20
333.9608320950966
 30
0.0
  0
MTEXT
  5
5081
330
5079
100
AcDbEntity
  8
DIM
 62
     0
 48
0.05
100
AcDbMText
 10
201.1414947359944
 20
341.9933320950967
 30
0.0
 40
5.0
 41
0.0
 46
0.0
 71
     5
 72
     1
  1
\A1;G3/4"
  7
ＭＳ ゴシック
 73
     1
 44
1.0
  0
POINT
  5
5082
330
5079
100
AcDbEntity
  8
Defpoints
 62
     0
100
AcDbPoint
 10
187.9415451259271
 20
355.7747150096186
 30
0.0
  0
POINT
  5
5083
330
5079
100
AcDbEntity
  8
Defpoints
 62
     0
100
AcDbPoint
 10
214.341604948367
 20
355.7747150096186
 30
0.0
  0
POINT
  5
5084
330
5079
100
AcDbEntity
  8
Defpoints
 62
     0
100
AcDbPoint
 10
214.341604948367
 20
333.9608320950966
 30
0.0
  0
ENDBLK
  5
507B
330
5079
100
AcDbEntity
  8
0
100
AcDbBlockEnd
  0
BLOCK
  5
508C
330
508B
100
AcDbEntity
  8
0
100
AcDbBlockBegin
  2
*D15
 70
     1
 10
0.0
 20
0.0
 30
0.0
  3
*D15
  1
*D15
  0
LINE
  5
508E
330
508B
100
AcDbEntity
  8
DIM
 62
     0
 48
0.05
370
    -2
100
AcDbLine
 10
201.6329389878584
 20
288.9752099344923
 30
0.0
 11
201.6329389878584
 21
298.4254546837139
 31
0.0
  0
LINE
  5
508F
330
508B
100
AcDbEntity
  8
DIM
 62
     0
 48
0.05
370
    -2
100
AcDbLine
 10
228.0329988102983
 20
288.9752099344923
 30
0.0
 11
228.0329988102983
 21
298.4254546837139
 31
0.0
  0
LINE
  5
5090
330
508B
100
AcDbEntity
  8
DIM
 62
     0
 48
0.05
370
    -2
100
AcDbLine
 10
202.6329389878584
 20
298.4254546837139
 30
0.0
 11
227.0329988102983
 21
298.4254546837139
 31
0.0
  0
INSERT
  5
5091
330
508B
100
AcDbEntity
  8
DIM
 62
     0
370
    -2
100
AcDbBlockReference
  2
_DOT
 10
201.6329389878584
 20
298.4254546837139
 30
0.0
 50
180.0
  0
INSERT
  5
5092
330
508B
100
AcDbEntity
  8
DIM
 62
     0
370
    -2
100
AcDbBlockReference
  2
_DOT
 10
228.0329988102983
 20
298.4254546837139
 30
0.0
  0
MTEXT
  5
5093
330
508B
100
AcDbEntity
  8
DIM
 62
     0
 48
0.05
100
AcDbMText
 10
214.8328885979257
 20
306.4579546837139
 30
0.0
 40
5.0
 41
0.0
 46
0.0
 71
     5
 72
     1
  1
\A1;G3/4"
  7
ＭＳ ゴシック
 73
     1
 44
1.0
  0
POINT
  5
5094
330
508B
100
AcDbEntity
  8
Defpoints
 62
     0
100
AcDbPoint
 10
201.6329389878584
 20
283.9752099344923
 30
0.0
  0
POINT
  5
5095
330
508B
100
AcDbEntity
  8
Defpoints
 62
     0
100
AcDbPoint
 10
228.0329988102983
 20
283.9752099344923
 30
0.0
  0
POINT
  5
5096
330
508B
100
AcDbEntity
  8
Defpoints
 62
     0
100
AcDbPoint
 10
228.0329988102983
 20
298.4254546837139
 30
0.0
  0
ENDBLK
  5
508D
330
508B
100
AcDbEntity
  8
0
100
AcDbBlockEnd
  0
BLOCK
  5
5098
330
5097
100
AcDbEntity
  8
0
100
AcDbBlockBegin
  2
*D16
 70
     1
 10
0.0
 20
0.0
 30
0.0
  3
*D16
  1
*D16
  0
LINE
  5
509A
330
5097
100
AcDbEntity
  8
DIM
 62
     0
 48
0.05
370
    -2
100
AcDbLine
 10
201.6329389878584
 20
204.1087736370682
 30
0.0
 11
201.6329389878584
 21
187.2948907225462
 31
0.0
  0
LINE
  5
509B
330
5097
100
AcDbEntity
  8
DIM
 62
     0
 48
0.05
370
    -2
100
AcDbLine
 10
228.0329988102983
 20
204.1087736370682
 30
0.0
 11
228.0329988102983
 21
187.2948907225462
 31
0.0
  0
LINE
  5
509C
330
5097
100
AcDbEntity
  8
DIM
 62
     0
 48
0.05
370
    -2
100
AcDbLine
 10
202.6329389878584
 20
187.2948907225462
 30
0.0
 11
227.0329988102983
 21
187.2948907225462
 31
0.0
  0
INSERT
  5
509D
330
5097
100
AcDbEntity
  8
DIM
 62
     0
370
    -2
100
AcDbBlockReference
  2
_DOT
 10
201.6329389878584
 20
187.2948907225462
 30
0.0
 50
180.0
  0
INSERT
  5
509E
330
5097
100
AcDbEntity
  8
DIM
 62
     0
370
    -2
100
AcDbBlockReference
  2
_DOT
 10
228.0329988102983
 20
187.2948907225462
 30
0.0
  0
MTEXT
  5
509F
330
5097
100
AcDbEntity
  8
DIM
 62
     0
 48
0.05
100
AcDbMText
 10
214.8328885979257
 20
195.3273907225462
 30
0.0
 40
5.0
 41
0.0
 46
0.0
 71
     5
 72
     1
  1
\A1;G3/4"
  7
ＭＳ ゴシック
 73
     1
 44
1.0
  0
POINT
  5
50A0
330
5097
100
AcDbEntity
  8
Defpoints
 62
     0
100
AcDbPoint
 10
201.6329389878584
 20
209.1087736370682
 30
0.0
  0
POINT
  5
50A1
330
5097
100
AcDbEntity
  8
Defpoints
 62
     0
100
AcDbPoint
 10
228.0329988102983
 20
209.1087736370682
 30
0.0
  0
POINT
  5
50A2
330
5097
100
AcDbEntity
  8
Defpoints
 62
     0
100
AcDbPoint
 10
228.0329988102983
 20
187.2948907225462
 30
0.0
  0
ENDBLK
  5
5099
330
5097
100
AcDbEntity
  8
0
100
AcDbBlockEnd
  0
BLOCK
  5
50BF
330
50BE
100
AcDbEntity
  8
0
100
AcDbBlockBegin
  2
*D17
 70
     1
 10
0.0
 20
0.0
 30
0.0
  3
*D17
  1
*D17
  0
LINE
  5
50C1
330
50BE
100
AcDbEntity
  8
DIM
 62
     0
 48
0.05
370
    -2
100
AcDbLine
 10
264.3329688990784
 20
167.5419917857802
 30
0.0
 11
264.3329688990784
 21
142.132657934809
 31
0.0
  0
LINE
  5
50C2
330
50BE
100
AcDbEntity
  8
DIM
 62
     0
 48
0.05
370
    -2
100
AcDbLine
 10
214.8329688990783
 20
182.2948907225462
 30
0.0
 11
214.8329688990783
 21
142.132657934809
 31
0.0
  0
LINE
  5
50C3
330
50BE
100
AcDbEntity
  8
DIM
 62
     0
 48
0.05
370
    -2
100
AcDbLine
 10
263.3329688990784
 20
142.132657934809
 30
0.0
 11
215.8329688990783
 21
142.132657934809
 31
0.0
  0
INSERT
  5
50C4
330
50BE
100
AcDbEntity
  8
DIM
 62
     0
370
    -2
100
AcDbBlockReference
  2
_DOT
 10
264.3329688990784
 20
142.132657934809
 30
0.0
  0
INSERT
  5
50C5
330
50BE
100
AcDbEntity
  8
DIM
 62
     0
370
    -2
100
AcDbBlockReference
  2
_DOT
 10
214.8329688990783
 20
142.132657934809
 30
0.0
 50
180.0
  0
MTEXT
  5
50C6
330
50BE
100
AcDbEntity
  8
DIM
 62
     0
 48
0.05
100
AcDbMText
 10
239.5829688990784
 20
149.632657934809
 30
0.0
 40
5.0
 41
0.0
 46
0.0
 71
     5
 72
     1
  1
\A1;42-77
  7
ＭＳ ゴシック
 73
     1
 44
1.0
  0
POINT
  5
50C7
330
50BE
100
AcDbEntity
  8
Defpoints
 62
     0
100
AcDbPoint
 10
264.3329688990784
 20
172.5419917857802
 30
0.0
  0
POINT
  5
50C8
330
50BE
100
AcDbEntity
  8
Defpoints
 62
     0
100
AcDbPoint
 10
214.8329688990783
 20
187.2948907225462
 30
0.0
  0
POINT
  5
50C9
330
50BE
100
AcDbEntity
  8
Defpoints
 62
     0
100
AcDbPoint
 10
214.8329688990783
 20
142.132657934809
 30
0.0
  0
ENDBLK
  5
50C0
330
50BE
100
AcDbEntity
  8
0
100
AcDbBlockEnd
  0
ENDSEC
  0
SECTION
  2
ENTITIES
  0
MTEXT
  5
177
330
A
100
AcDbEntity
  8
TEMPLATE
390
1D
100
AcDbMText
 10
15.84042890954615
 20
68.74635032628565
 30
0.0
 40
3.257682291666665
 41
0.0
 46
0.0
 71
     1
 72
     1
  1
品名
  7
ＭＳ ゴシック
 73
     1
 44
0.7828267384257843
  0
MTEXT
  5
178
330
A
100
AcDbEntity
  8
TEMPLATE
390
1D
100
AcDbMText
 10
15.84042890954615
 20
51.7463503262856
 30
0.0
 40
3.257682291666665
 41
0.0
 46
0.0
 71
     1
 72
     1
  1
仕様
  7
ＭＳ ゴシック
 73
     1
 44
0.7828267384257843
  0
LINE
  5
179
330
A
100
AcDbEntity
  8
TEMPLATE
390
1D
100
AcDbLine
 10
404.4404289094496
 20
53.42933470128568
 30
0.0
 11
14.44042890944975
 21
53.42933470128568
 31
0.0
  0
LWPOLYLINE
  5
17A
330
A
100
AcDbEntity
  8
TEMPLATE
390
1D
100
AcDbPolyline
 90
        5
 70
   128
 43
0.0
 10
404.4404289094496
 20
579.4293347012853
 10
14.44042890944975
 20
579.4293347012853
 10
14.44042890944975
 20
19.42933470128565
 10
404.4404289094496
 20
19.42933470128565
 10
404.4404289094496
 20
579.4293347012853
  0
LINE
  5
17B
330
A
100
AcDbEntity
  8
TEMPLATE
390
1D
100
AcDbLine
 10
404.4404289094496
 20
70.42933470128564
 30
0.0
 11
14.44042890944975
 21
70.42933470128564
 31
0.0
  0
LINE
  5
17C
330
A
100
AcDbEntity
  8
TEMPLATE
390
1D
100
AcDbLine
 10
404.4404289095464
 20
36.42933470128565
 30
0.0
 11
253.840428909546
 21
36.42933470128565
 31
0.0
  0
MTEXT
  5
17E
330
A
100
AcDbEntity
  8
TEMPLATE
390
1D
100
AcDbMText
 10
259.8147101599982
 20
30.44725580662403
 30
0.0
 40
4.8865234375
 41
0.0
 46
0.0
 71
     1
 72
     1
  1
大洋金物株式会社 ティーフォルム事業部
  7
ＭＳ ゴシック
 73
     1
 44
0.7828267384257843
  0
MTEXT
  5
180
330
A
100
AcDbEntity
  8
TEMPLATE
390
1D
100
AcDbMText
 10
366.240428909598
 20
46.02985813878564
 30
0.0
 40
4.8865234375
 41
0.0
 46
4.8865234375
 71
     1
 72
     1
  1
{1:2}
  7
ＭＳ ゴシック
 73
     1
 44
0.7828267384257843
1001
ACAD
1000
ACAD_MTEXT_DEFINED_HEIGHT_BEGIN
1070
    46
1040
4.8865234375
1000
ACAD_MTEXT_DEFINED_HEIGHT_END
  0
MTEXT
  5
181
330
A
100
AcDbEntity
  8
TEMPLATE
390
1D
100
AcDbMText
 10
355.640428909598
 20
51.7463503262856
 30
0.0
 40
3.257682291666665
 41
0.0
 46
0.0
 71
     1
 72
     1
  1
縮尺
  7
ＭＳ ゴシック
 73
     1
 44
0.7828267384257843
  0
LINE
  5
182
330
A
100
AcDbEntity
  8
TEMPLATE
390
1D
100
AcDbLine
 10
354.240428909598
 20
36.42933470128565
 30
0.0
 11
354.240428909598
 21
53.42933470128568
 31
0.0
  0
MTEXT
  5
183
330
A
100
AcDbEntity
  8
TEMPLATE
390
1D
100
AcDbMText
 10
305.440428909598
 20
51.7463503262856
 30
0.0
 40
3.257682291666665
 41
0.0
 46
0.0
 71
     1
 72
     1
  1
容量
  7
ＭＳ ゴシック
 73
     1
 44
0.7828267384257843
  0
LINE
  5
184
330
A
100
AcDbEntity
  8
TEMPLATE
390
1D
100
AcDbLine
 10
304.040428909598
 20
36.42933470128565
 30
0.0
 11
304.040428909598
 21
53.42933470128568
 31
0.0
  0
MTEXT
  5
185
330
A
100
AcDbEntity
  8
TEMPLATE
390
1D
100
AcDbMText
 10
255.240428909598
 20
68.74635032628565
 30
0.0
 40
3.257682291666665
 41
0.0
 46
0.0
 71
     1
 72
     1
  1
品番
  7
ＭＳ ゴシック
 73
     1
 44
0.7828267384257843
  0
MTEXT
  5
186
330
A
100
AcDbEntity
  8
TEMPLATE
390
1D
100
AcDbMText
 10
255.240428909598
 20
51.7463503262856
 30
0.0
 40
3.257682291666665
 41
0.0
 46
0.0
 71
     1
 72
     1
  1
重量
  7
ＭＳ ゴシック
 73
     1
 44
0.7828267384257843
  0
MTEXT
  5
187
330
A
100
AcDbEntity
  8
TEMPLATE
390
1D
100
AcDbMText
 10
265.840428909598
 20
63.02985813878564
 30
0.0
 40
4.8865234375
 41
0.0
 46
4.8865234375
 71
     1
 72
     1
  1
{FHT73-2605}
  7
ＭＳ ゴシック
 73
     1
 44
0.7828267384257843
1001
ACAD
1000
ACAD_MTEXT_DEFINED_HEIGHT_BEGIN
1070
    46
1040
4.8865234375
1000
ACAD_MTEXT_DEFINED_HEIGHT_END
  0
LINE
  5
188
330
A
100
AcDbEntity
  8
TEMPLATE
390
1D
100
AcDbLine
 10
253.840428909598
 20
19.42933470128565
 30
0.0
 11
253.840428909598
 21
70.42933470128564
 31
0.0
  0
MTEXT
  5
189
330
A
100
AcDbEntity
  8
TEMPLATE
390
1D
100
AcDbMText
 10
26.44042890954615
 20
63.02985813878564
 30
0.0
 40
4.8865234375
 41
0.0
 46
5.678140234375
 71
     1
 72
     1
  1
{埋込ストップバルブ　-GROHE,Kensington-}
  7
ＭＳ ゴシック
 73
     1
 44
0.7828267384257843
1001
ACAD
1000
ACAD_MTEXT_DEFINED_HEIGHT_BEGIN
1070
    46
1040
5.678140234375
1000
ACAD_MTEXT_DEFINED_HEIGHT_END
  0
INSERT
  5
6B5
330
A
100
AcDbEntity
  8
TEMPLATE
100
AcDbBlockReference
  2
名称未設定-1
 10
374.15014961769
 20
5.189353151330764
 30
0.0
 41
0.1524
 42
0.1524
 43
0.1524
  0
INSERT
  5
68C
330
A
100
AcDbEntity
  8
TEMPLATE
100
AcDbBlockReference
  2
block 2
 10
919.2743017702577
 20
8.373076514336368
 30
0.0
 41
0.3809999999999999
 42
0.3809999999999999
 43
0.3809999999999999
  0
LWPOLYLINE
  5
D69
330
A
100
AcDbEntity
  8
BORDER
 48
0.025
100
AcDbPolyline
 90
        4
 70
     1
 43
0.0
 10
0.0
 20
0.0
 10
0.0
 20
594.0
 10
420.0
 20
594.0
 10
420.0
 20
0.0
  0
INSERT
  5
1343
330
A
100
AcDbEntity
  8
TEMPLATE
100
AcDbBlockReference
  2
block 2
 10
2096.743470866468
 20
24.43532141229569
 30
0.0
 41
0.3809999999999999
 42
0.3809999999999999
 43
0.3809999999999999
  0
POINT
  5
3697
330
A
100
AcDbEntity
  8
Layer50
  6
HIDDEN2
 62
     7
100
AcDbPoint
 10
396.8678405503807
 20
449.3605456225488
 30
0.0
  0
POINT
  5
36AA
330
A
100
AcDbEntity
  8
Layer50
  6
HIDDEN2
 62
     7
100
AcDbPoint
 10
396.8678405503807
 20
469.8605456225488
 30
0.0
  0
POINT
  5
36B6
330
A
100
AcDbEntity
  8
Layer50
  6
HIDDEN2
 62
     7
100
AcDbPoint
 10
405.6628405503807
 20
460.6105456225488
 30
0.0
  0
POINT
  5
36BC
330
A
100
AcDbEntity
  8
Layer50
  6
HIDDEN2
 62
     7
100
AcDbPoint
 10
403.6628405503807
 20
460.6105456225488
 30
0.0
  0
MTEXT
  5
4530
102
{ACAD_XDICTIONARY
360
4532
102
}
330
A
100
AcDbEntity
  8
MODEL
 48
0.05
100
AcDbMText
 10
14.6329326238789
 20
17.30781899803597
 30
0.0
 40
4.0
 41
0.0
 46
4.0
 71
     1
 72
     1
  1
{20160725N}
  7
ＭＳ ゴシック
 73
     1
 44
1.0
1001
ACAD
1000
ACAD_MTEXT_DEFINED_HEIGHT_BEGIN
1070
    46
1040
4.0
1000
ACAD_MTEXT_DEFINED_HEIGHT_END
  0
HATCH
  5
4B3F
330
A
100
AcDbEntity
  8
MODEL
100
AcDbHatch
 10
0.0
 20
0.0
 30
0.0
210
0.0
220
0.0
230
1.0
  2
LINE
 70
     0
 71
     0
 91
        1
 92
        1
 93
        4
 72
     1
 10
252.3329688990202
 20
320.5419917857667
 11
252.3329688990202
 21
264.5419917857667
 72
     1
 10
252.3329688990202
 20
264.5419917857666
 11
260.3329688990202
 21
264.5419917857666
 72
     1
 10
260.3329688990202
 20
264.5419917857666
 11
260.3329688990202
 21
320.5419917857666
 72
     1
 10
260.3329688990202
 20
320.5419917857667
 11
252.3329688990202
 21
320.5419917857667
 97
        0
 75
     0
 76
     1
 52
45.0
 41
2.0
 77
     0
 78
     1
 53
45.0
 43
94.39607485427803
 44
-58.54449658161971
 45
-4.490128060534576
 46
4.490128060534576
 79
     0
 98
        0
  0
HATCH
  5
4B40
330
A
100
AcDbEntity
  8
MODEL
100
AcDbHatch
 10
0.0
 20
0.0
 30
0.0
210
0.0
220
0.0
230
1.0
  2
LINE
 70
     0
 71
     0
 91
        1
 92
        1
 93
       10
 72
     1
 10
264.3329688990202
 20
281.257201496161
 11
264.3329688990202
 21
320.5419917857666
 72
     1
 10
264.3329688990202
 20
320.5419917857667
 11
260.3329688990202
 21
320.5419917857667
 72
     1
 10
260.3329688990202
 20
320.5419917857667
 11
260.3329688990202
 21
264.5419917857667
 72
     1
 10
260.3329688990202
 20
264.5419917857666
 11
264.3329688990202
 21
264.5419917857666
 72
     4
 94
        3
 73
     0
 74
     0
 95
       21
 96
       17
 40
0.0
 40
0.0
 40
0.0
 40
0.0
 40
0.0518364784306705
 40
0.150593254752574
 40
0.2217176675263679
 40
0.2749211551898911
 40
0.3067298695273143
 40
0.3368246892862713
 40
0.3677027494859613
 40
0.3831223799364778
 40
0.3908272121093039
 40
0.3946783658861105
 40
0.3966036251348891
 40
0.3975661750919777
 40
0.3980474301215471
 40
0.3985286718391066
 40
0.3985286718391066
 40
0.3985286718391066
 40
0.3985286718391066
 10
264.3327705768774
 20
264.5420123866887
 10
264.3327668356172
 20
265.0525278389351
 10
264.3327572937081
 20
266.5331591159136
 10
264.3327496254855
 20
268.701482945859
 10
264.3327506383743
 20
270.8677446664772
 10
264.3327563589922
 20
272.3752675713147
 10
264.332763303002
 20
273.4819803243295
 10
264.3327705701907
 20
274.3712092835461
 10
264.3327779615714
 20
275.1009860774421
 10
264.3327839717725
 20
275.6155472381978
 10
264.3327871736054
 20
275.8722481073285
 10
264.3327888240651
 20
276.0004515956438
 10
264.3327896617014
 20
276.0645164007182
 10
264.332790083657
 20
276.0965394864556
 10
264.3327903256207
 20
276.1148356829685
 10
264.3327904469801
 20
276.1239828897997
 10
264.3327905067985
 20
276.1285564299592
 72
     1
 10
264.3327905067985
 20
276.1285564299592
 11
264.3327944386202
 21
276.2830527615251
 72
     1
 10
264.3327944386205
 20
276.2830527615251
 11
264.3328008854791
 21
276.3792921735318
 72
     1
 10
264.3328008854791
 20
276.3792921735318
 11
264.3329688990202
 21
278.1079619735323
 72
     1
 10
264.3329688990202
 20
278.107961973532
 11
264.3329688990202
 21
281.2298887391412
 72
     2
 10
264.6326754470509
 20
281.2435451176512
 40
0.3000175188342922
 50
177.3534190589228
 51
182.6089253287276
 73
     0
 97
        0
 75
     0
 76
     1
 52
315.0
 41
2.0
 77
     0
 78
     1
 53
315.0
 43
94.39607485427803
 44
-58.54449658161971
 45
4.490128060534576
 46
4.490128060534576
 79
     0
 98
        0
  0
LINE
  5
4B41
330
A
100
AcDbEntity
  8
MODEL
100
AcDbLine
 10
260.3329688990784
 20
320.5419917857802
 30
0.0
 11
260.3329688990784
 21
264.5419917857803
 31
0.0
  0
LINE
  5
4B42
330
A
100
AcDbEntity
  8
MODEL
100
AcDbLine
 10
264.3329688990784
 20
264.5419917857803
 30
0.0
 11
252.3329688990784
 21
264.5419917857803
 31
0.0
  0
HATCH
  5
4B43
330
A
100
AcDbEntity
  8
MODEL
100
AcDbHatch
 10
0.0
 20
0.0
 30
0.0
210
0.0
220
0.0
230
1.0
  2
LINE
 70
     0
 71
     0
 91
        1
 92
        1
 93
        4
 72
     1
 10
264.3329688990202
 20
172.5419917857667
 11
264.3329688990202
 21
228.5419917857667
 72
     1
 10
264.3329688990202
 20
228.5419917857667
 11
260.3329688990202
 21
228.5419917857667
 72
     1
 10
260.3329688990202
 20
228.5419917857667
 11
260.3329688990202
 21
172.5419917857667
 72
     1
 10
260.3329688990202
 20
172.5419917857667
 11
264.3329688990202
 21
172.5419917857667
 97
        0
 75
     0
 76
     1
 52
315.0
 41
2.0
 77
     0
 78
     1
 53
315.0
 43
94.39607485427803
 44
-58.54449658161971
 45
4.490128060534576
 46
4.490128060534576
 79
     0
 98
        0
  0
LINE
  5
4B44
102
{ACAD_REACTORS
330
50BD
102
}
330
A
100
AcDbEntity
  8
MODEL
100
AcDbLine
 10
264.3329688990784
 20
172.5419917857802
 30
0.0
 11
264.3329688990784
 21
320.5419917857802
 31
0.0
  0
HATCH
  5
4B45
330
A
100
AcDbEntity
  8
MODEL
100
AcDbHatch
 10
0.0
 20
0.0
 30
0.0
210
0.0
220
0.0
230
1.0
  2
LINE
 70
     0
 71
     0
 91
        1
 92
        1
 93
        4
 72
     1
 10
252.3329688990202
 20
228.5419917857667
 11
252.3329688990202
 21
172.5419917857667
 72
     1
 10
252.3329688990202
 20
172.5419917857667
 11
260.3329688990202
 21
172.5419917857667
 72
     1
 10
260.3329688990202
 20
172.5419917857667
 11
260.3329688990202
 21
228.5419917857667
 72
     1
 10
260.3329688990202
 20
228.5419917857667
 11
252.3329688990202
 21
228.5419917857667
 97
        0
 75
     0
 76
     1
 52
45.0
 41
2.0
 77
     0
 78
     1
 53
45.0
 43
94.39607485427803
 44
-58.54449658161971
 45
-4.490128060534576
 46
4.490128060534576
 79
     0
 98
        0
  0
LINE
  5
4B46
330
A
100
AcDbEntity
  8
MODEL
100
AcDbLine
 10
260.3329688990784
 20
172.5419917857802
 30
0.0
 11
260.3329688990784
 21
228.5419917857804
 31
0.0
  0
LINE
  5
4B47
330
A
100
AcDbEntity
  8
MODEL
100
AcDbLine
 10
264.3329688990784
 20
228.5419917857804
 30
0.0
 11
252.3329688990784
 21
228.5419917857804
 31
0.0
  0
MTEXT
  5
4BCC
330
A
100
AcDbEntity
  8
DIM
390
1D
100
AcDbMText
 10
230.1399154723156
 20
312.4604195786073
 30
0.0
 40
4.8865234375
 41
0.0
 46
4.8865234375
 71
     1
 72
     1
  1
{\fＭＳ ゴシック|b0|i0|c1|p0;M24x1}
  7
ＭＳ ゴシック
 73
     1
 44
0.7828267384257843
1001
ACAD
1000
ACAD_MTEXT_DEFINED_HEIGHT_BEGIN
1070
    46
1040
4.8865234375
1000
ACAD_MTEXT_DEFINED_HEIGHT_END
  0
LINE
  5
4BCD
330
A
100
AcDbEntity
  8
DIM
 48
0.05
100
AcDbLine
 10
254.3329688990784
 20
251.7562751442096
 30
0.0
 11
247.0468981764039
 21
304.4862322344434
 31
0.0
  0
LINE
  5
4BCE
330
A
100
AcDbEntity
  8
DIM
 48
0.05
100
AcDbLine
 10
226.0248688202281
 20
304.4862322344434
 30
0.0
 11
247.0468981764039
 21
304.4862322344434
 31
0.0
  0
ARC
  5
4BEF
330
A
100
AcDbEntity
  8
MODEL
 48
25.4
100
AcDbCircle
 10
306.8329688990784
 20
259.0745957857803
 30
0.0
 40
0.4999996643598758
100
AcDbArc
 50
79.7101381358789
 51
180.0
  0
ARC
  5
4BF0
330
A
100
AcDbEntity
  8
MODEL
 48
25.4
100
AcDbCircle
 10
306.8329688990784
 20
234.0093867857803
 30
0.0
 40
0.4999999999999866
100
AcDbArc
 50
180.0
 51
280.2898618641002
  0
ARC
  5
4BF1
330
A
100
AcDbEntity
  8
MODEL
 48
25.4
100
AcDbCircle
 10
314.2407078990784
 20
260.1884517857803
 30
0.0
 40
0.7500003139312674
100
AcDbArc
 50
28.23665410489317
 51
120.9718139764079
  0
ARC
  5
4BF2
330
A
100
AcDbEntity
  8
MODEL
 48
25.4
100
AcDbCircle
 10
314.2407078990784
 20
232.8955307857803
 30
0.0
 40
0.749999506445838
100
AcDbArc
 50
239.0281860236126
 51
331.7633458951153
  0
ARC
  5
4BF3
330
A
100
AcDbEntity
  8
MODEL
 48
25.4
100
AcDbCircle
 10
317.4041928990785
 20
240.0919917857803
 30
0.0
 40
0.2999994613225328
100
AcDbArc
 50
347.2801755102014
 51
0.0
  0
ARC
  5
4BF4
330
A
100
AcDbEntity
  8
MODEL
 48
25.4
100
AcDbCircle
 10
317.4041928990785
 20
252.9919917857803
 30
0.0
 40
0.2999999999998004
100
AcDbArc
 50
0.0
 51
12.7196381905095
  0
LINE
  5
4BF5
330
A
100
AcDbEntity
  8
MODEL
 48
25.4
100
AcDbLine
 10
317.7041928990784
 20
240.0919917857803
 30
0.0
 11
317.7041928990784
 21
252.9919917857803
 31
0.0
  0
LINE
  5
4BF6
330
A
100
AcDbEntity
  8
MODEL
 48
25.4
100
AcDbLine
 10
306.3329688990784
 20
259.0745957857803
 30
0.0
 11
306.3329688990784
 21
234.0093867857803
 31
0.0
  0
ARC
  5
4BF7
330
A
100
AcDbEntity
  8
MODEL
 48
25.4
100
AcDbCircle
 10
288.8292118990785
 20
246.5419917857803
 30
0.0
 40
29.59389094578806
100
AcDbArc
 50
331.7633480697997
 51
347.2802511457998
  0
ARC
  5
4BF8
330
A
100
AcDbEntity
  8
MODEL
 48
25.4
100
AcDbCircle
 10
308.7085758990786
 20
269.4057187857803
 30
0.0
 40
10.00000052895364
100
AcDbArc
 50
259.7100699666991
 51
300.9718572058996
  0
LINE
  5
4BF9
330
A
100
AcDbEntity
  8
MODEL
 48
25.4
100
AcDbLine
 10
314.3423523114784
 20
259.8586862811803
 30
0.0
 11
314.3423523114784
 21
233.2252962905803
 31
0.0
  0
LINE
  5
4BFA
330
A
100
AcDbEntity
  8
MODEL
 48
25.4
100
AcDbLine
 10
317.6968298990785
 20
253.0580457857803
 30
0.0
 11
317.6968298990785
 21
240.0259367857803
 31
0.0
  0
ARC
  5
4BFB
330
A
100
AcDbEntity
  8
MODEL
 48
25.4
100
AcDbCircle
 10
288.8292118990785
 20
246.5419917857803
 30
0.0
 40
29.59389005732086
100
AcDbArc
 50
12.71974696560003
 51
28.23665022450029
  0
ARC
  5
4BFC
330
A
100
AcDbEntity
  8
MODEL
 48
25.4
100
AcDbCircle
 10
308.7085758990786
 20
223.6782647857803
 30
0.0
 40
9.999999422864922
100
AcDbArc
 50
59.02813984560027
 51
100.2899310568006
  0
LINE
  5
4BFD
330
A
100
AcDbEntity
  8
MODEL
 48
25.4
100
AcDbLine
 10
340.3259998990786
 20
252.5419917857803
 30
0.0
 11
317.7041928990784
 21
252.5419917857803
 31
0.0
  0
LINE
  5
4BFE
330
A
100
AcDbEntity
  8
MODEL
 48
25.4
100
AcDbLine
 10
317.7041928990784
 20
240.5419917857803
 30
0.0
 11
340.3259998990786
 21
240.5419917857803
 31
0.0
  0
LINE
  5
4BFF
330
A
100
AcDbEntity
  8
MODEL
 48
25.4
100
AcDbLine
 10
351.9559718990783
 20
219.2160307857803
 30
0.0
 11
354.2151858990785
 21
217.6019957857803
 31
0.0
  0
LINE
  5
4C00
330
A
100
AcDbEntity
  8
MODEL
 48
25.4
100
AcDbLine
 10
358.4842088990786
 20
245.4630337857803
 30
0.0
 11
356.5162108990785
 21
245.4630337857803
 31
0.0
  0
LINE
  5
4C01
330
A
100
AcDbEntity
  8
MODEL
 48
25.4
100
AcDbLine
 10
348.7793088990786
 20
269.2031177857803
 30
0.0
 11
347.8643958990785
 21
269.0858787857803
 31
0.0
  0
LINE
  5
4C02
330
A
100
AcDbEntity
  8
MODEL
 48
25.4
100
AcDbLine
 10
354.2151858990785
 20
217.8721717857803
 30
0.0
 11
351.9559718990783
 21
222.8770157857802
 31
0.0
  0
LINE
  5
4C03
330
A
100
AcDbEntity
  8
MODEL
 48
25.4
100
AcDbLine
 10
349.5047288990784
 20
249.6053247857803
 30
0.0
 11
351.3848318990786
 21
246.5419917857803
 31
0.0
  0
LINE
  5
4C04
330
A
100
AcDbEntity
  8
MODEL
 48
25.4
100
AcDbLine
 10
349.5047288990784
 20
237.8666127857803
 30
0.0
 11
349.5047288990784
 21
243.4786587857803
 31
0.0
  0
LINE
  5
4C05
330
A
100
AcDbEntity
  8
MODEL
 48
25.4
100
AcDbLine
 10
356.5162108990785
 20
260.8995377857802
 30
0.0
 11
354.2151858990785
 21
254.7643997857803
 31
0.0
  0
LINE
  5
4C06
330
A
100
AcDbEntity
  8
MODEL
 48
25.4
100
AcDbLine
 10
363.6481678990785
 20
224.6745297857803
 30
0.0
 11
365.9101728990784
 21
242.2715427857803
 31
0.0
  0
LINE
  5
4C07
330
A
100
AcDbEntity
  8
MODEL
 48
25.4
100
AcDbLine
 10
356.5162108990785
 20
272.4889487857803
 30
0.0
 11
354.2151858990785
 21
267.9977157857802
 31
0.0
  0
LINE
  5
4C08
330
A
100
AcDbEntity
  8
MODEL
 48
25.4
100
AcDbLine
 10
358.4842088990786
 20
247.6209507857803
 30
0.0
 11
360.2151858990785
 21
253.7835627857804
 31
0.0
  0
LINE
  5
4C09
330
A
100
AcDbEntity
  8
MODEL
 48
25.4
100
AcDbLine
 10
358.4842088990786
 20
247.6209507857803
 30
0.0
 11
358.4842088990786
 21
245.4630337857803
 31
0.0
  0
LINE
  5
4C0A
330
A
100
AcDbEntity
  8
MODEL
 48
25.4
100
AcDbLine
 10
351.3848318990786
 20
246.5419917857803
 30
0.0
 11
349.5047288990784
 21
243.4786587857803
 31
0.0
  0
LINE
  5
4C0B
330
A
100
AcDbEntity
  8
MODEL
 48
25.4
100
AcDbLine
 10
351.3848318990786
 20
259.7566187857802
 30
0.0
 11
349.5047288990784
 21
255.2173717857803
 31
0.0
  0
LINE
  5
4C0C
330
A
100
AcDbEntity
  8
MODEL
 48
25.4
100
AcDbLine
 10
360.2151858990785
 20
275.4746267857803
 30
0.0
 11
360.2151858990785
 21
275.2191737857803
 31
0.0
  0
LINE
  5
4C0D
330
A
100
AcDbEntity
  8
MODEL
 48
25.4
100
AcDbLine
 10
349.5047288990784
 20
243.4786587857803
 30
0.0
 11
349.5047288990784
 21
249.6053247857803
 31
0.0
  0
LINE
  5
4C0E
330
A
100
AcDbEntity
  8
MODEL
 48
25.4
100
AcDbLine
 10
358.4842088990786
 20
272.4889487857803
 30
0.0
 11
356.5162108990785
 21
272.4889487857803
 31
0.0
  0
LINE
  5
4C0F
330
A
100
AcDbEntity
  8
MODEL
 48
25.4
100
AcDbLine
 10
354.2151858990785
 20
225.8244037857803
 30
0.0
 11
354.2151858990785
 21
225.0862677857803
 31
0.0
  0
LINE
  5
4C10
330
A
100
AcDbEntity
  8
MODEL
 48
25.4
100
AcDbLine
 10
354.2151858990785
 20
275.4819887857802
 30
0.0
 11
354.2151858990785
 21
275.2118127857802
 31
0.0
  0
LINE
  5
4C11
330
A
100
AcDbEntity
  8
MODEL
 48
25.4
100
AcDbLine
 10
365.9101728990784
 20
242.8436747857803
 30
0.0
 11
365.9101728990784
 21
242.2715427857803
 31
0.0
  0
LINE
  5
4C12
330
A
100
AcDbEntity
  8
MODEL
 48
25.4
100
AcDbLine
 10
354.2151858990785
 20
275.4819887857802
 30
0.0
 11
351.9559718990783
 21
273.8679537857803
 31
0.0
  0
LINE
  5
4C13
330
A
100
AcDbEntity
  8
MODEL
 48
25.4
100
AcDbLine
 10
363.6481678990785
 20
235.6082607857803
 30
0.0
 11
365.9101728990784
 21
244.4067677857803
 31
0.0
  0
LINE
  5
4C14
330
A
100
AcDbEntity
  8
MODEL
 48
25.4
100
AcDbLine
 10
356.5162108990785
 20
219.5160767857803
 30
0.0
 11
354.2151858990785
 21
217.8721717857803
 31
0.0
  0
ARC
  5
4C15
330
A
100
AcDbEntity
  8
MODEL
 48
25.4
100
AcDbCircle
 10
347.9724328990785
 20
224.8412117857803
 30
0.0
 40
0.8500003193150985
100
AcDbArc
 50
217.216127907489
 51
262.6978183114989
  0
LINE
  5
4C16
330
A
100
AcDbEntity
  8
MODEL
 48
25.4
100
AcDbLine
 10
356.5162108990785
 20
262.7683487857803
 30
0.0
 11
356.5162108990785
 21
260.8995377857802
 31
0.0
  0
LINE
  5
4C17
330
A
100
AcDbEntity
  8
MODEL
 48
25.4
100
AcDbLine
 10
354.2151858990785
 20
217.8721717857803
 30
0.0
 11
354.2151858990785
 21
217.6019957857803
 31
0.0
  0
LINE
  5
4C18
330
A
100
AcDbEntity
  8
MODEL
 48
25.4
100
AcDbLine
 10
360.2151858990785
 20
239.3004217857802
 30
0.0
 11
360.2151858990785
 21
238.3470587857803
 31
0.0
  0
LINE
  5
4C19
330
A
100
AcDbEntity
  8
MODEL
 48
25.4
100
AcDbLine
 10
365.9101728990784
 20
250.8124417857803
 30
0.0
 11
363.6481678990785
 21
268.4094547857803
 31
0.0
  0
LINE
  5
4C1A
330
A
100
AcDbEntity
  8
MODEL
 48
25.4
100
AcDbLine
 10
360.2151858990785
 20
267.9776037857803
 30
0.0
 11
358.4842088990786
 21
272.4889487857803
 31
0.0
  0
LINE
  5
4C1B
330
A
100
AcDbEntity
  8
MODEL
 48
25.4
100
AcDbLine
 10
363.2672818990784
 20
269.7101247857803
 30
0.0
 11
362.1088778990786
 21
273.6659037857803
 31
0.0
  0
LINE
  5
4C1C
330
A
100
AcDbEntity
  8
MODEL
 48
25.4
100
AcDbLine
 10
349.5047288990784
 20
225.3891277857803
 30
0.0
 11
349.5047288990784
 21
228.4524607857803
 31
0.0
  0
LINE
  5
4C1D
330
A
100
AcDbEntity
  8
MODEL
 48
25.4
100
AcDbLine
 10
363.2672818990784
 20
229.5849917857803
 30
0.0
 11
362.1088778990786
 21
232.9800367857803
 31
0.0
  0
LINE
  5
4C1E
330
A
100
AcDbEntity
  8
MODEL
 48
25.4
100
AcDbLine
 10
363.2672818990784
 20
240.3308597857803
 30
0.0
 11
363.6481678990785
 21
235.6082607857803
 31
0.0
  0
LINE
  5
4C1F
330
A
100
AcDbEntity
  8
MODEL
 48
25.4
100
AcDbLine
 10
363.6481678990785
 20
265.4797697857803
 30
0.0
 11
363.2672818990784
 21
263.5041187857803
 31
0.0
  0
LINE
  5
4C20
330
A
100
AcDbEntity
  8
MODEL
 48
25.4
100
AcDbLine
 10
362.1066998990784
 20
260.1061047857804
 30
0.0
 11
362.1088778990786
 21
260.1039477857803
 31
0.0
  0
LINE
  5
4C21
330
A
100
AcDbEntity
  8
MODEL
 48
25.4
100
AcDbLine
 10
360.2151858990785
 20
217.8648107857803
 30
0.0
 11
360.2151858990785
 21
217.6093577857803
 31
0.0
  0
LINE
  5
4C22
330
A
100
AcDbEntity
  8
MODEL
 48
25.4
100
AcDbLine
 10
360.2151858990785
 20
275.2191737857803
 30
0.0
 11
362.1066998990784
 21
270.0357237857804
 31
0.0
  0
LINE
  5
4C23
330
A
100
AcDbEntity
  8
MODEL
 48
25.4
100
AcDbLine
 10
363.6481678990785
 20
257.4757237857802
 30
0.0
 11
365.9101728990784
 21
248.6772167857803
 31
0.0
  0
LINE
  5
4C24
330
A
100
AcDbEntity
  8
MODEL
 48
25.4
100
AcDbLine
 10
351.3848318990786
 20
269.4303967857803
 30
0.0
 11
351.9559718990783
 21
270.2069687857804
 31
0.0
  0
ARC
  5
4C25
330
A
100
AcDbEntity
  8
MODEL
 48
25.4
100
AcDbCircle
 10
348.8047288990786
 20
224.0792447857803
 30
0.0
 40
0.2000000182099704
100
AcDbArc
 50
262.6979563154616
 51
0.0
  0
LINE
  5
4C26
330
A
100
AcDbEntity
  8
MODEL
 48
25.4
100
AcDbLine
 10
354.2151858990785
 20
267.9977157857802
 30
0.0
 11
351.9559718990783
 21
270.2069687857804
 31
0.0
  0
LINE
  5
4C27
330
A
100
AcDbEntity
  8
MODEL
 48
25.4
100
AcDbLine
 10
362.1066998990784
 20
246.5419917857803
 30
0.0
 11
362.1088778990786
 21
246.5419917857803
 31
0.0
  0
LINE
  5
4C28
330
A
100
AcDbEntity
  8
MODEL
 48
25.4
100
AcDbLine
 10
363.6481678990785
 20
227.6042137857803
 30
0.0
 11
363.2672818990784
 21
223.3757357857803
 31
0.0
  0
LINE
  5
4C29
330
A
100
AcDbEntity
  8
MODEL
 48
25.4
100
AcDbLine
 10
349.5047288990784
 20
232.5607637857803
 30
0.0
 11
349.5047288990784
 21
237.8666127857803
 31
0.0
  0
LINE
  5
4C2A
330
A
100
AcDbEntity
  8
MODEL
 48
25.4
100
AcDbLine
 10
351.9559718990783
 20
246.5419917857803
 30
0.0
 11
354.2151858990785
 21
253.7560887857803
 31
0.0
  0
LINE
  5
4C2B
330
A
100
AcDbEntity
  8
MODEL
 48
25.4
100
AcDbLine
 10
351.3848318990786
 20
223.6535877857803
 30
0.0
 11
351.9559718990783
 21
222.8770157857802
 31
0.0
  0
LINE
  5
4C2C
330
A
100
AcDbEntity
  8
MODEL
 48
25.4
100
AcDbLine
 10
360.2151858990785
 20
225.8042907857803
 30
0.0
 11
360.2151858990785
 21
225.1063807857803
 31
0.0
  0
LINE
  5
4C2D
330
A
100
AcDbEntity
  8
MODEL
 48
25.4
100
AcDbLine
 10
358.4842088990786
 20
260.8995377857802
 30
0.0
 11
356.5162108990785
 21
260.8995377857802
 31
0.0
  0
LINE
  5
4C2E
330
A
100
AcDbEntity
  8
MODEL
 48
25.4
100
AcDbLine
 10
354.2151858990785
 20
239.3278957857803
 30
0.0
 11
351.9559718990783
 21
246.5419917857803
 31
0.0
  0
LINE
  5
4C2F
330
A
100
AcDbEntity
  8
MODEL
 48
25.4
100
AcDbLine
 10
354.2151858990785
 20
253.7560887857803
 30
0.0
 11
356.5162108990785
 21
247.6209507857803
 31
0.0
  0
LINE
  5
4C30
330
A
100
AcDbEntity
  8
MODEL
 48
25.4
100
AcDbLine
 10
362.1066998990784
 20
219.4137677857803
 30
0.0
 11
362.1088778990786
 21
219.4180807857803
 31
0.0
  0
LINE
  5
4C31
330
A
100
AcDbEntity
  8
MODEL
 48
25.4
100
AcDbLine
 10
358.4842088990786
 20
277.1258937857802
 30
0.0
 11
356.5162108990785
 21
277.1258937857802
 31
0.0
  0
LINE
  5
4C32
330
A
100
AcDbEntity
  8
MODEL
 48
25.4
100
AcDbLine
 10
356.5162108990785
 20
273.5679067857803
 30
0.0
 11
358.4842088990786
 21
273.5679067857803
 31
0.0
  0
LINE
  5
4C33
330
A
100
AcDbEntity
  8
MODEL
 48
25.4
100
AcDbLine
 10
349.5047288990784
 20
228.4524607857803
 30
0.0
 11
351.3848318990786
 21
223.6535877857803
 31
0.0
  0
LINE
  5
4C34
330
A
100
AcDbEntity
  8
MODEL
 48
25.4
100
AcDbLine
 10
362.1066998990784
 20
270.0357237857804
 30
0.0
 11
362.1088778990786
 21
270.0319887857803
 31
0.0
  0
LINE
  5
4C35
330
A
100
AcDbEntity
  8
MODEL
 48
25.4
100
AcDbLine
 10
363.6481678990785
 20
265.4797697857803
 30
0.0
 11
365.9101728990784
 21
250.2403097857803
 31
0.0
  0
LINE
  5
4C36
330
A
100
AcDbEntity
  8
MODEL
 48
25.4
100
AcDbLine
 10
356.5162108990785
 20
273.5679067857803
 30
0.0
 11
356.5162108990785
 21
272.4889487857803
 31
0.0
  0
LINE
  5
4C37
330
A
100
AcDbEntity
  8
MODEL
 48
25.4
100
AcDbLine
 10
349.5047288990784
 20
255.2173717857803
 30
0.0
 11
349.5047288990784
 21
260.5232197857803
 31
0.0
  0
LINE
  5
4C38
330
A
100
AcDbEntity
  8
MODEL
 48
25.4
100
AcDbLine
 10
363.2672818990784
 20
269.7101247857803
 30
0.0
 11
363.2672818990784
 21
269.7082487857803
 31
0.0
  0
LINE
  5
4C39
330
A
100
AcDbEntity
  8
MODEL
 48
25.4
100
AcDbLine
 10
351.9559718990783
 20
260.2049727857802
 30
0.0
 11
354.2151858990785
 21
267.2595807857803
 31
0.0
  0
LINE
  5
4C3A
330
A
100
AcDbEntity
  8
MODEL
 48
25.4
100
AcDbLine
 10
351.3848318990786
 20
272.9712447857803
 30
0.0
 11
349.5047288990784
 21
269.1985997857803
 31
0.0
  0
LINE
  5
4C3B
330
A
100
AcDbEntity
  8
MODEL
 48
25.4
100
AcDbLine
 10
362.1088778990786
 20
219.4180807857803
 30
0.0
 11
363.2672818990784
 21
223.3738587857803
 31
0.0
  0
LINE
  5
4C3C
330
A
100
AcDbEntity
  8
MODEL
 48
25.4
100
AcDbLine
 10
358.4842088990786
 20
273.5679067857803
 30
0.0
 11
360.2151858990785
 21
275.2191737857803
 31
0.0
  0
LINE
  5
4C3D
330
A
100
AcDbEntity
  8
MODEL
 48
25.4
100
AcDbLine
 10
349.5047288990784
 20
269.1985997857803
 30
0.0
 11
349.5047288990784
 21
267.6948567857804
 31
0.0
  0
LINE
  5
4C3E
330
A
100
AcDbEntity
  8
MODEL
 48
25.4
100
AcDbLine
 10
356.5162108990785
 20
230.3156357857803
 30
0.0
 11
354.2151858990785
 21
225.8244037857803
 31
0.0
  0
LINE
  5
4C3F
330
A
100
AcDbEntity
  8
MODEL
 48
25.4
100
AcDbLine
 10
349.5047288990784
 20
260.5232197857803
 30
0.0
 11
351.3848318990786
 21
259.7566187857802
 31
0.0
  0
LINE
  5
4C40
330
A
100
AcDbEntity
  8
MODEL
 48
25.4
100
AcDbLine
 10
360.2151858990785
 20
239.3004217857802
 30
0.0
 11
358.4842088990786
 21
245.4630337857803
 31
0.0
  0
LINE
  5
4C41
330
A
100
AcDbEntity
  8
MODEL
 48
25.4
100
AcDbLine
 10
360.2151858990785
 20
225.8042907857803
 30
0.0
 11
358.4842088990786
 21
230.3156357857803
 31
0.0
  0
LINE
  5
4C42
330
A
100
AcDbEntity
  8
MODEL
 48
25.4
100
AcDbLine
 10
363.2672818990784
 20
263.5041187857803
 30
0.0
 11
362.1088778990786
 21
270.0319887857803
 31
0.0
  0
LINE
  5
4C43
330
A
100
AcDbEntity
  8
MODEL
 48
25.4
100
AcDbLine
 10
363.6481678990785
 20
246.5419917857803
 30
0.0
 11
363.2672818990784
 21
240.3378627857803
 31
0.0
  0
LINE
  5
4C44
330
A
100
AcDbEntity
  8
MODEL
 48
25.4
100
AcDbLine
 10
363.2672818990784
 20
269.7082487857803
 30
0.0
 11
363.6481678990785
 21
265.4797697857803
 31
0.0
  0
LINE
  5
4C45
330
A
100
AcDbEntity
  8
MODEL
 48
25.4
100
AcDbLine
 10
360.2151858990785
 20
267.9776037857803
 30
0.0
 11
360.2151858990785
 21
267.2796937857803
 31
0.0
  0
LINE
  5
4C46
330
A
100
AcDbEntity
  8
MODEL
 48
25.4
100
AcDbLine
 10
360.2151858990785
 20
267.2796937857803
 30
0.0
 11
362.1066998990784
 21
260.1061047857804
 31
0.0
  0
LINE
  5
4C47
330
A
100
AcDbEntity
  8
MODEL
 48
25.4
100
AcDbLine
 10
351.3848318990786
 20
233.3273657857803
 30
0.0
 11
351.9559718990783
 21
232.8790117857803
 31
0.0
  0
LINE
  5
4C48
330
A
100
AcDbEntity
  8
MODEL
 48
25.4
100
AcDbLine
 10
358.4842088990786
 20
220.5950357857803
 30
0.0
 11
358.4842088990786
 21
219.5160767857803
 31
0.0
  0
LINE
  5
4C49
330
A
100
AcDbEntity
  8
MODEL
 48
25.4
100
AcDbLine
 10
354.2151858990785
 20
254.7643997857803
 30
0.0
 11
354.2151858990785
 21
253.7560887857803
 31
0.0
  0
LINE
  5
4C4A
330
A
100
AcDbEntity
  8
MODEL
 48
25.4
100
AcDbLine
 10
358.4842088990786
 20
215.9580907857802
 30
0.0
 11
360.2151858990785
 21
217.6093577857803
 31
0.0
  0
LINE
  5
4C4B
330
A
100
AcDbEntity
  8
MODEL
 48
25.4
100
AcDbLine
 10
340.3259998990786
 20
240.4419917857803
 30
0.0
 11
340.3259998990786
 21
252.6419917857804
 31
0.0
  0
LINE
  5
4C4C
330
A
100
AcDbEntity
  8
MODEL
 48
25.4
100
AcDbLine
 10
354.2151858990785
 20
267.9977157857802
 30
0.0
 11
354.2151858990785
 21
267.2595807857803
 31
0.0
  0
LINE
  5
4C4D
330
A
100
AcDbEntity
  8
MODEL
 48
25.4
100
AcDbLine
 10
354.2151858990785
 20
254.7643997857803
 30
0.0
 11
351.9559718990783
 21
260.2049727857802
 31
0.0
  0
LINE
  5
4C4E
330
A
100
AcDbEntity
  8
MODEL
 48
25.4
100
AcDbLine
 10
351.3848318990786
 20
220.1127397857803
 30
0.0
 11
351.9559718990783
 21
219.2160307857803
 31
0.0
  0
LINE
  5
4C4F
330
A
100
AcDbEntity
  8
MODEL
 48
25.4
100
AcDbLine
 10
349.5047288990784
 20
228.4524607857803
 30
0.0
 11
349.5047288990784
 21
232.5607637857803
 31
0.0
  0
LINE
  5
4C50
330
A
100
AcDbEntity
  8
MODEL
 48
25.4
100
AcDbLine
 10
351.9559718990783
 20
270.2069687857804
 30
0.0
 11
354.2151858990785
 21
275.2118127857802
 31
0.0
  0
LINE
  5
4C51
330
A
100
AcDbEntity
  8
MODEL
 48
25.4
100
AcDbLine
 10
349.0047288990784
 20
224.0792447857803
 30
0.0
 11
349.0047288990784
 21
269.0047397857802
 31
0.0
  0
LINE
  5
4C52
330
A
100
AcDbEntity
  8
MODEL
 48
25.4
100
AcDbLine
 10
363.2672818990784
 20
252.7531247857803
 30
0.0
 11
362.1088778990786
 21
260.1039477857803
 31
0.0
  0
ARC
  5
4C53
330
A
100
AcDbEntity
  8
MODEL
 48
25.4
100
AcDbCircle
 10
376.5454708990785
 20
246.5419917857803
 30
0.0
 40
36.72955321699194
100
AcDbArc
 50
189.5599096861
 51
217.2161083640002
  0
LINE
  5
4C54
330
A
100
AcDbEntity
  8
MODEL
 48
25.4
100
AcDbLine
 10
349.5047288990784
 20
223.8853847857803
 30
0.0
 11
349.5047288990784
 21
225.3891277857803
 31
0.0
  0
LINE
  5
4C55
330
A
100
AcDbEntity
  8
MODEL
 48
25.4
100
AcDbLine
 10
351.3848318990786
 20
269.4303967857803
 30
0.0
 11
349.5047288990784
 21
264.6315237857802
 31
0.0
  0
LINE
  5
4C56
330
A
100
AcDbEntity
  8
MODEL
 48
25.4
100
AcDbLine
 10
363.6481678990785
 20
235.6082607857803
 30
0.0
 11
363.2672818990784
 21
229.5849917857803
 31
0.0
  0
LINE
  5
4C57
330
A
100
AcDbEntity
  8
MODEL
 48
25.4
100
AcDbLine
 10
365.9101728990784
 20
244.4067677857803
 30
0.0
 11
365.9101728990784
 21
242.8436747857803
 31
0.0
  0
LINE
  5
4C58
330
A
100
AcDbEntity
  8
MODEL
 48
25.4
100
AcDbLine
 10
363.2672818990784
 20
240.3378627857803
 30
0.0
 11
362.1088778990786
 21
246.5419917857803
 31
0.0
  0
LINE
  5
4C59
330
A
100
AcDbEntity
  8
MODEL
 48
25.4
100
AcDbLine
 10
362.1088778990786
 20
246.5419917857803
 30
0.0
 11
363.2672818990784
 21
252.7461217857803
 31
0.0
  0
LINE
  5
4C5A
330
A
100
AcDbEntity
  8
MODEL
 48
25.4
100
AcDbLine
 10
362.1066998990784
 20
232.9778797857803
 30
0.0
 11
362.1088778990786
 21
232.9800367857803
 31
0.0
  0
LINE
  5
4C5B
330
A
100
AcDbEntity
  8
MODEL
 48
25.4
100
AcDbLine
 10
362.1066998990784
 20
246.5419917857803
 30
0.0
 11
360.2151858990785
 21
239.3004217857802
 31
0.0
  0
LINE
  5
4C5C
330
A
100
AcDbEntity
  8
MODEL
 48
25.4
100
AcDbLine
 10
356.5162108990785
 20
232.1844467857803
 30
0.0
 11
358.4842088990786
 21
232.1844467857803
 31
0.0
  0
LINE
  5
4C5D
330
A
100
AcDbEntity
  8
MODEL
 48
25.4
100
AcDbLine
 10
358.4842088990786
 20
232.1844467857803
 30
0.0
 11
360.2151858990785
 21
238.3470587857803
 31
0.0
  0
LINE
  5
4C5E
330
A
100
AcDbEntity
  8
MODEL
 48
25.4
100
AcDbLine
 10
349.5047288990784
 20
223.8853847857803
 30
0.0
 11
351.3848318990786
 21
220.1127397857803
 31
0.0
  0
LINE
  5
4C5F
330
A
100
AcDbEntity
  8
MODEL
 48
25.4
100
AcDbLine
 10
349.5047288990784
 20
249.6053247857803
 30
0.0
 11
349.5047288990784
 21
255.2173717857803
 31
0.0
  0
LINE
  5
4C60
330
A
100
AcDbEntity
  8
MODEL
 48
25.4
100
AcDbLine
 10
358.4842088990786
 20
262.7683487857803
 30
0.0
 11
360.2151858990785
 21
267.2796937857803
 31
0.0
  0
LINE
  5
4C61
330
A
100
AcDbEntity
  8
MODEL
 48
25.4
100
AcDbLine
 10
351.3848318990786
 20
259.7566187857802
 30
0.0
 11
351.9559718990783
 21
260.2049727857802
 31
0.0
  0
LINE
  5
4C62
330
A
100
AcDbEntity
  8
MODEL
 48
25.4
100
AcDbLine
 10
365.9101728990784
 20
248.6772167857803
 30
0.0
 11
365.9101728990784
 21
246.5419917857803
 31
0.0
  0
ARC
  5
4C63
330
A
100
AcDbEntity
  8
MODEL
 48
25.4
100
AcDbCircle
 10
348.8047288990786
 20
269.0047397857802
 30
0.0
 40
0.2000000000000058
100
AcDbArc
 50
0.0
 51
97.30204368461922
  0
LINE
  5
4C64
330
A
100
AcDbEntity
  8
MODEL
 48
25.4
100
AcDbLine
 10
360.2151858990785
 20
217.6093577857803
 30
0.0
 11
362.1066998990784
 21
219.4137677857803
 31
0.0
  0
LINE
  5
4C65
330
A
100
AcDbEntity
  8
MODEL
 48
25.4
100
AcDbLine
 10
362.1066998990784
 20
270.0357237857804
 30
0.0
 11
360.2151858990785
 21
267.9776037857803
 31
0.0
  0
LINE
  5
4C66
330
A
100
AcDbEntity
  8
MODEL
 48
25.4
100
AcDbLine
 10
347.8643958990785
 20
223.9981057857803
 30
0.0
 11
348.7793088990786
 21
223.8808667857802
 31
0.0
  0
LINE
  5
4C67
330
A
100
AcDbEntity
  8
MODEL
 48
25.4
100
AcDbLine
 10
356.5162108990785
 20
277.1258937857802
 30
0.0
 11
354.2151858990785
 21
275.4819887857802
 31
0.0
  0
LINE
  5
4C68
330
A
100
AcDbEntity
  8
MODEL
 48
25.4
100
AcDbLine
 10
363.2672818990784
 20
223.3757357857803
 30
0.0
 11
362.1088778990786
 21
223.0519957857803
 31
0.0
  0
LINE
  5
4C69
330
A
100
AcDbEntity
  8
MODEL
 48
25.4
100
AcDbLine
 10
358.4842088990786
 20
273.5679067857803
 30
0.0
 11
358.4842088990786
 21
272.4889487857803
 31
0.0
  0
ARC
  5
4C6A
330
A
100
AcDbEntity
  8
MODEL
 48
25.4
100
AcDbCircle
 10
376.5454708990785
 20
246.5419917857803
 30
0.0
 40
36.72955373289406
100
AcDbArc
 50
142.7838916359999
 51
170.4400903139
  0
LINE
  5
4C6B
330
A
100
AcDbEntity
  8
MODEL
 48
25.4
100
AcDbLine
 10
354.2151858990785
 20
238.3195847857803
 30
0.0
 11
356.5162108990785
 21
232.1844467857803
 31
0.0
  0
LINE
  5
4C6C
330
A
100
AcDbEntity
  8
MODEL
 48
25.4
100
AcDbLine
 10
360.2151858990785
 20
253.7835627857804
 30
0.0
 11
362.1066998990784
 21
246.5419917857803
 31
0.0
  0
LINE
  5
4C6D
330
A
100
AcDbEntity
  8
MODEL
 48
25.4
100
AcDbLine
 10
356.5162108990785
 20
247.6209507857803
 30
0.0
 11
356.5162108990785
 21
245.4630337857803
 31
0.0
  0
LINE
  5
4C6E
330
A
100
AcDbEntity
  8
MODEL
 48
25.4
100
AcDbLine
 10
362.1088778990786
 20
270.0319887857803
 30
0.0
 11
363.2672818990784
 21
269.7082487857803
 31
0.0
  0
LINE
  5
4C6F
330
A
100
AcDbEntity
  8
MODEL
 48
25.4
100
AcDbLine
 10
360.2151858990785
 20
225.1063807857803
 30
0.0
 11
362.1066998990784
 21
223.0482607857802
 31
0.0
  0
LINE
  5
4C70
330
A
100
AcDbEntity
  8
MODEL
 48
25.4
100
AcDbLine
 10
362.1066998990784
 20
223.0482607857802
 30
0.0
 11
362.1088778990786
 21
223.0519957857803
 31
0.0
  0
LINE
  5
4C71
330
A
100
AcDbEntity
  8
MODEL
 48
25.4
100
AcDbLine
 10
365.9101728990784
 20
250.8124417857803
 30
0.0
 11
365.9101728990784
 21
250.2403097857803
 31
0.0
  0
LINE
  5
4C72
330
A
100
AcDbEntity
  8
MODEL
 48
25.4
100
AcDbLine
 10
362.1066998990784
 20
232.9778797857803
 30
0.0
 11
360.2151858990785
 21
225.8042907857803
 31
0.0
  0
LINE
  5
4C73
330
A
100
AcDbEntity
  8
MODEL
 48
25.4
100
AcDbLine
 10
363.6481678990785
 20
268.4094547857803
 30
0.0
 11
363.2672818990784
 21
269.7101247857803
 31
0.0
  0
LINE
  5
4C74
330
A
100
AcDbEntity
  8
MODEL
 48
25.4
100
AcDbLine
 10
356.5162108990785
 20
220.5950357857803
 30
0.0
 11
358.4842088990786
 21
220.5950357857803
 31
0.0
  0
LINE
  5
4C75
330
A
100
AcDbEntity
  8
MODEL
 48
25.4
100
AcDbLine
 10
362.1088778990786
 20
223.0519957857803
 30
0.0
 11
363.2672818990784
 21
229.5798647857803
 31
0.0
  0
LINE
  5
4C76
330
A
100
AcDbEntity
  8
MODEL
 48
25.4
100
AcDbLine
 10
360.2151858990785
 20
275.4746267857803
 30
0.0
 11
358.4842088990786
 21
277.1258937857802
 31
0.0
  0
LINE
  5
4C77
330
A
100
AcDbEntity
  8
MODEL
 48
25.4
100
AcDbLine
 10
363.6481678990785
 20
246.5419917857803
 30
0.0
 11
365.9101728990784
 21
246.5419917857803
 31
0.0
  0
LINE
  5
4C78
330
A
100
AcDbEntity
  8
MODEL
 48
25.4
100
AcDbLine
 10
360.2151858990785
 20
217.8648107857803
 30
0.0
 11
358.4842088990786
 21
219.5160767857803
 31
0.0
  0
LINE
  5
4C79
330
A
100
AcDbEntity
  8
MODEL
 48
25.4
100
AcDbLine
 10
351.3848318990786
 20
223.6535877857803
 30
0.0
 11
349.5047288990784
 21
225.3891277857803
 31
0.0
  0
LINE
  5
4C7A
330
A
100
AcDbEntity
  8
MODEL
 48
25.4
100
AcDbLine
 10
360.2151858990785
 20
238.3470587857803
 30
0.0
 11
362.1066998990784
 21
232.9778797857803
 31
0.0
  0
LINE
  5
4C7B
330
A
100
AcDbEntity
  8
MODEL
 48
25.4
100
AcDbLine
 10
356.5162108990785
 20
215.9580907857802
 30
0.0
 11
358.4842088990786
 21
215.9580907857802
 31
0.0
  0
LINE
  5
4C7C
330
A
100
AcDbEntity
  8
MODEL
 48
25.4
100
AcDbLine
 10
360.2151858990785
 20
254.7369257857803
 30
0.0
 11
360.2151858990785
 21
253.7835627857804
 31
0.0
  0
LINE
  5
4C7D
330
A
100
AcDbEntity
  8
MODEL
 48
25.4
100
AcDbLine
 10
349.5047288990784
 20
264.6315237857802
 30
0.0
 11
349.5047288990784
 21
267.6948567857804
 31
0.0
  0
LINE
  5
4C7E
330
A
100
AcDbEntity
  8
MODEL
 48
25.4
100
AcDbLine
 10
363.2672818990784
 20
223.3738587857803
 30
0.0
 11
363.6481678990785
 21
224.6745297857803
 31
0.0
  0
LINE
  5
4C7F
330
A
100
AcDbEntity
  8
MODEL
 48
25.4
100
AcDbLine
 10
351.9559718990783
 20
232.8790117857803
 30
0.0
 11
354.2151858990785
 21
238.3195847857803
 31
0.0
  0
LINE
  5
4C80
330
A
100
AcDbEntity
  8
MODEL
 48
25.4
100
AcDbLine
 10
349.5047288990784
 20
260.5232197857803
 30
0.0
 11
349.5047288990784
 21
264.6315237857802
 31
0.0
  0
LINE
  5
4C81
330
A
100
AcDbEntity
  8
MODEL
 48
25.4
100
AcDbLine
 10
362.1066998990784
 20
273.6702167857803
 30
0.0
 11
360.2151858990785
 21
275.4746267857803
 31
0.0
  0
LINE
  5
4C82
330
A
100
AcDbEntity
  8
MODEL
 48
25.4
100
AcDbLine
 10
351.9559718990783
 20
222.8770157857802
 30
0.0
 11
354.2151858990785
 21
225.0862677857803
 31
0.0
  0
LINE
  5
4C83
330
A
100
AcDbEntity
  8
MODEL
 48
25.4
100
AcDbLine
 10
362.1066998990784
 20
260.1061047857804
 30
0.0
 11
360.2151858990785
 21
254.7369257857803
 31
0.0
  0
LINE
  5
4C84
330
A
100
AcDbEntity
  8
MODEL
 48
25.4
100
AcDbLine
 10
358.4842088990786
 20
230.3156357857803
 30
0.0
 11
356.5162108990785
 21
230.3156357857803
 31
0.0
  0
LINE
  5
4C85
330
A
100
AcDbEntity
  8
MODEL
 48
25.4
100
AcDbLine
 10
354.2151858990785
 20
225.8244037857803
 30
0.0
 11
351.9559718990783
 21
232.8790117857803
 31
0.0
  0
LINE
  5
4C86
330
A
100
AcDbEntity
  8
MODEL
 48
25.4
100
AcDbLine
 10
363.2672818990784
 20
263.4989927857803
 30
0.0
 11
363.6481678990785
 21
257.4757237857802
 31
0.0
  0
ARC
  5
4C87
330
A
100
AcDbEntity
  8
MODEL
 48
25.4
100
AcDbCircle
 10
347.9724328990785
 20
268.2427727857803
 30
0.0
 40
0.8499998356500774
100
AcDbArc
 50
97.30218168849808
 51
142.7839257726131
  0
LINE
  5
4C88
330
A
100
AcDbEntity
  8
MODEL
 48
25.4
100
AcDbLine
 10
356.5162108990785
 20
232.1844467857803
 30
0.0
 11
356.5162108990785
 21
230.3156357857803
 31
0.0
  0
LINE
  5
4C89
330
A
100
AcDbEntity
  8
MODEL
 48
25.4
100
AcDbLine
 10
363.2672818990784
 20
252.7461217857803
 30
0.0
 11
363.6481678990785
 21
246.5419917857803
 31
0.0
  0
LINE
  5
4C8A
330
A
100
AcDbEntity
  8
MODEL
 48
25.4
100
AcDbLine
 10
358.4842088990786
 20
232.1844467857803
 30
0.0
 11
358.4842088990786
 21
230.3156357857803
 31
0.0
  0
LINE
  5
4C8B
330
A
100
AcDbEntity
  8
MODEL
 48
25.4
100
AcDbLine
 10
363.2672818990784
 20
240.3378627857803
 30
0.0
 11
363.2672818990784
 21
240.3308597857803
 31
0.0
  0
LINE
  5
4C8C
330
A
100
AcDbEntity
  8
MODEL
 48
25.4
100
AcDbLine
 10
356.5162108990785
 20
247.6209507857803
 30
0.0
 11
358.4842088990786
 21
247.6209507857803
 31
0.0
  0
LINE
  5
4C8D
330
A
100
AcDbEntity
  8
MODEL
 48
25.4
100
AcDbLine
 10
349.5047288990784
 20
267.6948567857804
 30
0.0
 11
351.3848318990786
 21
269.4303967857803
 31
0.0
  0
LINE
  5
4C8E
330
A
100
AcDbEntity
  8
MODEL
 48
25.4
100
AcDbLine
 10
363.2672818990784
 20
229.5798647857803
 30
0.0
 11
363.6481678990785
 21
227.6042137857803
 31
0.0
  0
LINE
  5
4C8F
330
A
100
AcDbEntity
  8
MODEL
 48
25.4
100
AcDbLine
 10
365.9101728990784
 20
246.5419917857803
 30
0.0
 11
365.9101728990784
 21
244.4067677857803
 31
0.0
  0
LINE
  5
4C90
330
A
100
AcDbEntity
  8
MODEL
 48
25.4
100
AcDbLine
 10
363.2672818990784
 20
229.5849917857803
 30
0.0
 11
363.2672818990784
 21
229.5798647857803
 31
0.0
  0
LINE
  5
4C91
330
A
100
AcDbEntity
  8
MODEL
 48
25.4
100
AcDbLine
 10
363.2672818990784
 20
223.3757357857803
 30
0.0
 11
363.2672818990784
 21
223.3738587857803
 31
0.0
  0
LINE
  5
4C92
330
A
100
AcDbEntity
  8
MODEL
 48
25.4
100
AcDbLine
 10
363.2672818990784
 20
263.5041187857803
 30
0.0
 11
363.2672818990784
 21
263.4989927857803
 31
0.0
  0
LINE
  5
4C93
330
A
100
AcDbEntity
  8
MODEL
 48
25.4
100
AcDbLine
 10
356.5162108990785
 20
220.5950357857803
 30
0.0
 11
356.5162108990785
 21
219.5160767857803
 31
0.0
  0
LINE
  5
4C94
330
A
100
AcDbEntity
  8
MODEL
 48
25.4
100
AcDbLine
 10
351.9559718990783
 20
273.8679537857803
 30
0.0
 11
351.3848318990786
 21
272.9712447857803
 31
0.0
  0
LINE
  5
4C95
330
A
100
AcDbEntity
  8
MODEL
 48
25.4
100
AcDbLine
 10
356.5162108990785
 20
245.4630337857803
 30
0.0
 11
354.2151858990785
 21
239.3278957857803
 31
0.0
  0
LINE
  5
4C96
330
A
100
AcDbEntity
  8
MODEL
 48
25.4
100
AcDbLine
 10
354.2151858990785
 20
225.0862677857803
 30
0.0
 11
356.5162108990785
 21
220.5950357857803
 31
0.0
  0
LINE
  5
4C97
330
A
100
AcDbEntity
  8
MODEL
 48
25.4
100
AcDbLine
 10
354.2151858990785
 20
239.3278957857803
 30
0.0
 11
354.2151858990785
 21
238.3195847857803
 31
0.0
  0
LINE
  5
4C98
330
A
100
AcDbEntity
  8
MODEL
 48
25.4
100
AcDbLine
 10
358.4842088990786
 20
219.5160767857803
 30
0.0
 11
356.5162108990785
 21
219.5160767857803
 31
0.0
  0
LINE
  5
4C99
330
A
100
AcDbEntity
  8
MODEL
 48
25.4
100
AcDbLine
 10
362.1088778990786
 20
260.1039477857803
 30
0.0
 11
363.2672818990784
 21
263.4989927857803
 31
0.0
  0
LINE
  5
4C9A
330
A
100
AcDbEntity
  8
MODEL
 48
25.4
100
AcDbLine
 10
354.2151858990785
 20
217.6019957857803
 30
0.0
 11
356.5162108990785
 21
215.9580907857802
 31
0.0
  0
LINE
  5
4C9B
330
A
100
AcDbEntity
  8
MODEL
 48
25.4
100
AcDbLine
 10
354.2151858990785
 20
275.2118127857802
 30
0.0
 11
356.5162108990785
 21
273.5679067857803
 31
0.0
  0
LINE
  5
4C9C
330
A
100
AcDbEntity
  8
MODEL
 48
25.4
100
AcDbLine
 10
362.1088778990786
 20
273.6659037857803
 30
0.0
 11
362.1066998990784
 21
273.6702167857803
 31
0.0
  0
LINE
  5
4C9D
330
A
100
AcDbEntity
  8
MODEL
 48
25.4
100
AcDbLine
 10
362.1066998990784
 20
223.0482607857802
 30
0.0
 11
360.2151858990785
 21
217.8648107857803
 31
0.0
  0
LINE
  5
4C9E
330
A
100
AcDbEntity
  8
MODEL
 48
25.4
100
AcDbLine
 10
354.2151858990785
 20
267.2595807857803
 30
0.0
 11
356.5162108990785
 21
262.7683487857803
 31
0.0
  0
LINE
  5
4C9F
330
A
100
AcDbEntity
  8
MODEL
 48
25.4
100
AcDbLine
 10
365.9101728990784
 20
250.2403097857803
 30
0.0
 11
365.9101728990784
 21
248.6772167857803
 31
0.0
  0
LINE
  5
4CA0
330
A
100
AcDbEntity
  8
MODEL
 48
25.4
100
AcDbLine
 10
363.6481678990785
 20
227.6042137857803
 30
0.0
 11
365.9101728990784
 21
242.8436747857803
 31
0.0
  0
LINE
  5
4CA1
330
A
100
AcDbEntity
  8
MODEL
 48
25.4
100
AcDbLine
 10
362.1088778990786
 20
232.9800367857803
 30
0.0
 11
363.2672818990784
 21
240.3308597857803
 31
0.0
  0
LINE
  5
4CA2
330
A
100
AcDbEntity
  8
MODEL
 48
25.4
100
AcDbLine
 10
363.2672818990784
 20
252.7531247857803
 30
0.0
 11
363.2672818990784
 21
252.7461217857803
 31
0.0
  0
LINE
  5
4CA3
330
A
100
AcDbEntity
  8
MODEL
 48
25.4
100
AcDbLine
 10
356.5162108990785
 20
262.7683487857803
 30
0.0
 11
358.4842088990786
 21
262.7683487857803
 31
0.0
  0
LINE
  5
4CA4
330
A
100
AcDbEntity
  8
MODEL
 48
25.4
100
AcDbLine
 10
363.6481678990785
 20
257.4757237857802
 30
0.0
 11
363.2672818990784
 21
252.7531247857803
 31
0.0
  0
LINE
  5
4CA5
330
A
100
AcDbEntity
  8
MODEL
 48
25.4
100
AcDbLine
 10
351.3848318990786
 20
233.3273657857803
 30
0.0
 11
349.5047288990784
 21
232.5607637857803
 31
0.0
  0
LINE
  5
4CA6
330
A
100
AcDbEntity
  8
MODEL
 48
25.4
100
AcDbLine
 10
358.4842088990786
 20
262.7683487857803
 30
0.0
 11
358.4842088990786
 21
260.8995377857802
 31
0.0
  0
LINE
  5
4CA7
330
A
100
AcDbEntity
  8
MODEL
 48
25.4
100
AcDbLine
 10
349.5047288990784
 20
237.8666127857803
 30
0.0
 11
351.3848318990786
 21
233.3273657857803
 31
0.0
  0
LINE
  5
4CA8
330
A
100
AcDbEntity
  8
MODEL
 48
25.4
100
AcDbLine
 10
351.3848318990786
 20
246.5419917857803
 30
0.0
 11
351.9559718990783
 21
246.5419917857803
 31
0.0
  0
LINE
  5
4CA9
330
A
100
AcDbEntity
  8
MODEL
 48
25.4
100
AcDbLine
 10
360.2151858990785
 20
254.7369257857803
 30
0.0
 11
358.4842088990786
 21
260.8995377857802
 31
0.0
  0
LINE
  5
4CAA
330
A
100
AcDbEntity
  8
MODEL
 48
25.4
100
AcDbLine
 10
358.4842088990786
 20
220.5950357857803
 30
0.0
 11
360.2151858990785
 21
225.1063807857803
 31
0.0
  0
LINE
  5
4CAB
330
A
100
AcDbEntity
  8
MODEL
 48
25.4
100
AcDbLine
 10
254.3329688990784
 20
233.5419917857803
 30
0.0
 11
264.3329688990784
 21
233.5419917857803
 31
0.0
  0
LINE
  5
4CAC
330
A
100
AcDbEntity
  8
MODEL
 48
25.4
100
AcDbLine
 10
277.4420238990784
 20
233.5419917857803
 30
0.0
 11
305.8329688990784
 21
233.5419917857803
 31
0.0
  0
ARC
  5
4CAD
330
A
100
AcDbEntity
  8
MODEL
 48
25.4
100
AcDbCircle
 10
305.8329688990784
 20
259.0419917857803
 30
0.0
 40
0.5000000000000004
100
AcDbArc
 50
0.0
 51
90.0
  0
ARC
  5
4CAE
330
A
100
AcDbEntity
  8
MODEL
 48
25.4
100
AcDbCircle
 10
305.8329688990784
 20
234.0419917857803
 30
0.0
 40
0.5000000000000004
100
AcDbArc
 50
270.0
 51
0.0
  0
LINE
  5
4CAF
330
A
100
AcDbEntity
  8
MODEL
 48
25.4
100
AcDbLine
 10
305.8329688990784
 20
259.5419917857803
 30
0.0
 11
277.4420238990784
 21
259.5419917857803
 31
0.0
  0
LINE
  5
4CB0
330
A
100
AcDbEntity
  8
MODEL
 48
25.4
100
AcDbLine
 10
264.3329688990784
 20
259.5419917857803
 30
0.0
 11
254.3329688990784
 21
259.5419917857803
 31
0.0
  0
LINE
  5
4CB1
330
A
100
AcDbEntity
  8
MODEL
 48
25.4
100
AcDbLine
 10
254.3329688990784
 20
259.5419917857803
 30
0.0
 11
254.3329688990784
 21
233.5419917857803
 31
0.0
  0
ELLIPSE
  5
4CB2
330
A
100
AcDbEntity
  8
MODEL
 48
25.4
100
AcDbEllipse
 10
272.8459488990784
 20
279.3013447857802
 30
0.0
 11
-0.3078305000000642
 21
-0.394005499999933
 31
0.0
210
0.0
220
0.0
230
1.0
 40
0.1627661208
 41
2.730808575261783
 42
3.141592653589793
  0
LINE
  5
4CB3
330
A
100
AcDbEntity
  8
MODEL
 48
25.4
100
AcDbLine
 10
273.1537798990785
 20
222.3634777857803
 30
0.0
 11
267.3947858990783
 21
219.0696737857803
 31
0.0
  0
ARC
  5
4CB4
330
A
100
AcDbEntity
  8
MODEL
 48
25.4
100
AcDbCircle
 10
171.0397408990784
 20
246.5401937857803
 30
0.0
 40
107.8072767680488
100
AcDbArc
 50
9.260268574299968
 51
17.56750219900005
  0
ARC
  5
4CB5
330
A
100
AcDbEntity
  8
MODEL
 48
25.4
100
AcDbCircle
 10
215.8190828990785
 20
230.0859887857803
 30
0.0
 40
58.00620316834064
100
AcDbArc
 50
352.4343123758001
 51
7.565688603300008
  0
ARC
  5
4CB6
330
A
100
AcDbEntity
  8
MODEL
 48
25.4
100
AcDbCircle
 10
299.3684148990785
 20
246.5419917857803
 30
0.0
 40
33.84431650384848
100
AcDbArc
 50
162.6142565369998
 51
197.3857450786001
  0
ELLIPSE
  5
4CB7
330
A
100
AcDbEntity
  8
MODEL
 48
25.4
100
AcDbEllipse
 10
272.8459488990784
 20
213.7826377857803
 30
0.0
 11
0.3078305000001475
 21
-0.3940054999998777
 31
0.0
210
0.0
220
0.0
230
1.0
 40
0.1627661208
 41
0.0
 42
0.410784078327974
  0
ARC
  5
4CB8
330
A
100
AcDbEntity
  8
MODEL
 48
25.4
100
AcDbCircle
 10
267.1245408990785
 20
283.8439787857803
 30
0.0
 40
0.4428167631266314
100
AcDbArc
 50
52.38979344620528
 51
97.03771088520817
  0
SPLINE
  5
4CB9
330
A
100
AcDbEntity
  8
MODEL
 48
25.4
100
AcDbSpline
210
0.0
220
0.0
230
1.0
 70
     8
 71
     3
 72
    26
 73
    22
 74
     0
 42
0.000000001
 43
0.0000000001
 40
0.0
 40
0.0
 40
0.0
 40
0.0
 40
0.019589
 40
0.019589
 40
0.106213
 40
0.106213
 40
0.214495
 40
0.214495
 40
0.322776
 40
0.322776
 40
0.501566
 40
0.501566
 40
0.680357
 40
0.680357
 40
0.782766
 40
0.782766
 40
0.885175
 40
0.885175
 40
0.967102
 40
0.967102
 40
1.0
 40
1.0
 40
1.0
 40
1.0
 10
267.0702858990185
 20
284.2834587858609
 30
0.0
 10
267.0270948990185
 20
284.2486727858608
 30
0.0
 10
266.9850758990183
 20
284.2129327858607
 30
0.0
 10
266.7633638990185
 20
284.0144087858609
 30
0.0
 10
266.6029348990181
 20
283.8339187858609
 30
0.0
 10
266.2829688990182
 20
283.3933347858606
 30
0.0
 10
266.1336888990186
 20
283.1245917858609
 30
0.0
 10
265.8864968990184
 20
282.549143785861
 30
0.0
 10
265.7886638990183
 20
282.2428737858609
 30
0.0
 10
265.5910938990181
 20
281.3861467858608
 30
0.0
 10
265.5317098990183
 20
280.8077487858608
 30
0.0
 10
265.5338348990184
 20
279.5750137858608
 30
0.0
 10
265.5953468990185
 20
278.920179785861
 30
0.0
 10
265.7923958990184
 20
277.8334757858609
 30
0.0
 10
265.8850498990183
 20
277.4263027858608
 30
0.0
 10
266.1163578990186
 20
276.5859967858609
 30
0.0
 10
266.2549448990183
 20
276.1533337858609
 30
0.0
 10
266.5498408990184
 20
275.3536657858609
 30
0.0
 10
266.6970608990182
 20
274.9908247858609
 30
0.0
 10
266.9284808990185
 20
274.4721477858609
 30
0.0
 10
266.9977528990185
 20
274.3221597858609
 30
0.0
 10
267.0702858990185
 20
274.1706627858608
 30
0.0
  0
SPLINE
  5
4CBA
330
A
100
AcDbEntity
  8
MODEL
 48
25.4
100
AcDbSpline
210
0.0
220
0.0
230
1.0
 70
     8
 71
     3
 72
    18
 73
    14
 74
     0
 42
0.000000001
 43
0.0000000001
 40
0.0
 40
0.0
 40
0.0
 40
0.0
 40
0.0031000992031744
 40
0.0031000992031744
 40
0.3606935421933502
 40
0.3606935421933502
 40
0.5655180965790905
 40
0.5655180965790905
 40
0.770342650964831
 40
0.770342650964831
 40
0.9342018944606229
 40
0.9342018944606229
 40
1.0
 40
1.0
 40
1.0
 40
1.0
 10
265.5327578990184
 20
285.4155527858608
 30
0.0
 10
265.5327578990184
 20
285.4155527858608
 30
0.0
 10
265.5327628990185
 20
285.4155497858608
 30
0.0
 10
265.5338348990184
 20
285.4147657858609
 30
0.0
 10
265.5953468990185
 20
285.3698297858609
 30
0.0
 10
265.7923958990184
 20
285.2254877858609
 30
0.0
 10
265.8850498990183
 20
285.1575687858609
 30
0.0
 10
266.1163578990186
 20
284.9876917858607
 30
0.0
 10
266.2549448990183
 20
284.8857837858608
 30
0.0
 10
266.5498408990184
 20
284.6684067858609
 30
0.0
 10
266.6970608990182
 20
284.559726785861
 30
0.0
 10
266.9284808990185
 20
284.3885057858609
 30
0.0
 10
266.9977528990185
 20
284.3372147858609
 30
0.0
 10
267.0702858990185
 20
284.2834587858609
 30
0.0
  0
ELLIPSE
  5
4CBB
330
A
100
AcDbEntity
  8
MODEL
 48
25.4
100
AcDbEllipse
 10
272.8459488990784
 20
213.7826377857803
 30
0.0
 11
0.4903559999999559
 21
-0.09772999999976834
 31
0.0
210
0.0
220
0.0
230
1.0
 40
0.8123961370000005
 41
5.541270389903245
 42
6.142427748605811
  0
LINE
  5
4CBC
330
A
100
AcDbEntity
  8
MODEL
 48
25.4
100
AcDbLine
 10
273.1537798990785
 20
237.7641487857803
 30
0.0
 11
267.3947858990783
 21
236.5585327857803
 31
0.0
  0
ARC
  5
4CBD
330
A
100
AcDbEntity
  8
MODEL
 48
25.4
100
AcDbCircle
 10
254.2431678990786
 20
218.0393597857803
 30
0.0
 40
19.58009663462699
100
AcDbArc
 50
346.9855553478998
 51
13.01444180100011
  0
LINE
  5
4CBE
330
A
100
AcDbEntity
  8
MODEL
 48
25.4
100
AcDbLine
 10
273.1537798990785
 20
213.3886327857803
 30
0.0
 11
273.5247828990783
 21
213.6784917857803
 31
0.0
  0
ELLIPSE
  5
4CBF
330
A
100
AcDbEntity
  8
MODEL
 48
25.4
100
AcDbEllipse
 10
272.8459488990784
 20
213.7826377857803
 30
0.0
 11
0.3078305000010912
 21
-0.3940054999991006
 31
0.0
210
0.0
220
0.0
230
1.0
 40
0.9894850764999998
 41
0.0
 42
0.6011601317188905
  0
LINE
  5
4CC0
330
A
100
AcDbEntity
  8
MODEL
 48
25.4
100
AcDbLine
 10
267.3947858990783
 20
208.8892127857803
 30
0.0
 11
273.1537798990785
 21
213.3886327857803
 31
0.0
  0
ELLIPSE
  5
4CC1
330
A
100
AcDbEntity
  8
MODEL
 48
25.4
100
AcDbEllipse
 10
267.0869548990784
 20
283.8007637857804
 30
0.0
 11
-0.3078305000000642
 21
-0.394005499999933
 31
0.0
210
0.0
220
0.0
230
1.0
 40
0.1627661208
 41
2.730808575261783
 42
3.141592653589793
  0
ARC
  5
4CC2
330
A
100
AcDbEntity
  8
MODEL
 48
25.4
100
AcDbCircle
 10
291.0136938990784
 20
227.6712577857802
 30
0.0
 40
25.49486741809634
100
AcDbArc
 50
159.9086636178
 51
200.0913363821999
  0
LINE
  5
4CC3
330
A
100
AcDbEntity
  8
MODEL
 48
25.4
100
AcDbLine
 10
264.3329688990784
 20
285.0419917857802
 30
0.0
 11
264.3329688990784
 21
208.0419917857803
 31
0.0
  0
LINE
  5
4CC4
330
A
100
AcDbEntity
  8
MODEL
 48
25.4
100
AcDbLine
 10
273.1537798990785
 20
279.6953497857804
 30
0.0
 11
273.5869748990784
 21
279.3569007857802
 31
0.0
  0
LINE
  5
4CC5
330
A
100
AcDbEntity
  8
MODEL
 48
25.4
100
AcDbLine
 10
277.4420238990784
 20
263.8884817857803
 30
0.0
 11
277.4420238990784
 21
229.1955007857803
 31
0.0
  0
ARC
  5
4CC6
330
A
100
AcDbEntity
  8
MODEL
 48
25.4
100
AcDbCircle
 10
254.4661448990785
 20
275.0446227857802
 30
0.0
 40
19.36291205474953
100
AcDbArc
 50
346.8369733838001
 51
13.16302949750025
  0
SPLINE
  5
4CC7
330
A
100
AcDbEntity
  8
MODEL
 48
25.4
100
AcDbSpline
210
0.0
220
0.0
230
1.0
 70
     8
 71
     3
 72
    19
 73
    15
 74
     0
 42
0.000000001
 43
0.0000000001
 40
0.0
 40
0.0
 40
0.0
 40
0.0
 40
0.000923
 40
0.001984
 40
0.004836
 40
0.014243
 40
0.048722
 40
0.103264
 40
0.176311
 40
0.29961
 40
0.448842
 40
0.62
 40
0.909047
 40
1.0
 40
1.0
 40
1.0
 40
1.0
 10
265.5327578990184
 20
207.6684297858609
 30
0.0
 10
265.5345658990184
 20
207.6680227858609
 30
0.0
 10
265.5379168990185
 20
207.6672687858609
 30
0.0
 10
265.5454328990186
 20
207.6656837858609
 30
0.0
 10
265.5596068990183
 20
207.6629617858609
 30
0.0
 10
265.5878488990186
 20
207.6587137858607
 30
0.0
 10
265.6205028990182
 20
207.6567097858607
 30
0.0
 10
265.6614158990185
 20
207.6584767858609
 30
0.0
 10
265.7134558990185
 20
207.6682057858609
 30
0.0
 10
265.7801428990183
 20
207.6917997858609
 30
0.0
 10
265.8683978990184
 20
207.7369047858607
 30
0.0
 10
266.0033728990186
 20
207.8217877858609
 30
0.0
 10
266.1430138990182
 20
207.9204157858609
 30
0.0
 10
266.2626698990182
 20
208.0116877858606
 30
0.0
 10
266.2962948990182
 20
208.0374017858609
 30
0.0
  0
ARC
  5
4CC8
330
A
100
AcDbEntity
  8
MODEL
 48
25.4
100
AcDbCircle
 10
267.3411718990785
 20
215.5901147857802
 30
0.0
 40
8.1254812849655
100
AcDbArc
 50
248.2709103709996
 51
257.1403600639005
  0
ARC
  5
4CC9
330
A
100
AcDbEntity
  8
MODEL
 48
25.4
100
AcDbCircle
 10
273.3027108990784
 20
278.8755647857803
 30
0.0
 40
0.554155669415171
100
AcDbArc
 50
19.36142230778014
 51
55.79980728098477
  0
SPLINE
  5
4CCA
330
A
100
AcDbEntity
  8
MODEL
 48
25.4
100
AcDbSpline
210
0.0
220
0.0
230
1.0
 70
     8
 71
     3
 72
    19
 73
    15
 74
     0
 42
0.000000001
 43
0.0000000001
 40
0.0
 40
0.0
 40
0.0
 40
0.0
 40
0.113399
 40
0.395477
 40
0.562431
 40
0.707951
 40
0.828151
 40
0.899347
 40
0.952501
 40
0.986101
 40
0.995274
 40
0.998058
 40
0.999096
 40
1.0
 40
1.0
 40
1.0
 40
1.0
 10
266.3218008990182
 20
285.0275007858607
 30
0.0
 10
266.2787028990185
 20
285.0605237858609
 30
0.0
 10
266.1510988990185
 20
285.1579877858608
 30
0.0
 10
266.0041728990184
 20
285.2621477858609
 30
0.0
 10
265.8693638990185
 20
285.3469097858609
 30
0.0
 10
265.7809768990181
 20
285.3921077858609
 30
0.0
 10
265.7141338990184
 20
285.4157467858609
 30
0.0
 10
265.6619088990183
 20
285.4255127858609
 30
0.0
 10
265.6208278990182
 20
285.427295785861
 30
0.0
 10
265.5880368990186
 20
285.4252937858609
 30
0.0
 10
265.5596848990183
 20
285.421035785861
 30
0.0
 10
265.5454648990183
 20
285.4183057858607
 30
0.0
 10
265.5379288990184
 20
285.4167157858608
 30
0.0
 10
265.5345708990183
 20
285.4159617858607
 30
0.0
 10
265.5327578990184
 20
285.4155527858608
 30
0.0
  0
LINE
  5
4CCB
330
A
100
AcDbEntity
  8
MODEL
 48
25.4
100
AcDbLine
 10
273.1537798990785
 20
279.6953497857804
 30
0.0
 11
267.3947858990783
 21
284.1947697857802
 31
0.0
  0
ELLIPSE
  5
4CCC
330
A
100
AcDbEntity
  8
MODEL
 48
25.4
100
AcDbEllipse
 10
272.8459488990784
 20
279.3013447857802
 30
0.0
 11
0.4903559999999698
 21
0.09772999999982382
 31
0.0
210
0.0
220
0.0
230
1.0
 40
0.812396137
 41
0.1407575585734031
 42
0.7419149172762287
  0
LINE
  5
4CCD
330
A
100
AcDbEntity
  8
MODEL
 48
25.4
100
AcDbLine
 10
267.3947858990783
 20
284.1419827857803
 30
0.0
 11
273.1537798990785
 21
279.6425627857802
 31
0.0
  0
ARC
  5
4CCE
330
A
100
AcDbEntity
  8
MODEL
 48
25.4
100
AcDbCircle
 10
216.0457668990783
 20
262.9979937857803
 30
0.0
 40
57.78150039122494
100
AcDbArc
 50
352.4047164387998
 51
7.595282578299996
  0
LINE
  5
4CCF
330
A
100
AcDbEntity
  8
MODEL
 48
25.4
100
AcDbLine
 10
273.0400164066783
 20
255.4789146217803
 30
0.0
 11
267.2810224066784
 21
256.6845306217803
 31
0.0
  0
ARC
  5
4CD0
330
A
100
AcDbEntity
  8
MODEL
 48
25.4
100
AcDbCircle
 10
291.0153508990786
 20
265.4127247857803
 30
0.0
 40
25.49642358971296
100
AcDbArc
 50
159.9099427486998
 51
200.0900572513
  0
LINE
  5
4CD1
330
A
100
AcDbEntity
  8
MODEL
 48
25.4
100
AcDbLine
 10
273.1537798990785
 20
270.8647207857803
 30
0.0
 11
267.3947858990783
 21
274.1585247857803
 31
0.0
  0
ARC
  5
4CD2
330
A
100
AcDbEntity
  8
MODEL
 48
25.4
100
AcDbCircle
 10
196.6162648990785
 20
246.5419917857803
 30
0.0
 40
77.2093378846997
100
AcDbArc
 50
353.4414409606999
 51
6.558558302100013
  0
LINE
  5
4CD3
330
A
100
AcDbEntity
  8
MODEL
 48
25.4
100
AcDbLine
 10
267.3947858990783
 20
284.1947697857802
 30
0.0
 11
266.3625908990783
 21
285.0012087857803
 31
0.0
  0
ARC
  5
4CD4
330
A
100
AcDbEntity
  8
MODEL
 48
25.4
100
AcDbCircle
 10
272.8512418990786
 20
279.3084617857804
 30
0.0
 40
0.491132874873078
100
AcDbArc
 50
17.23689125249622
 51
51.97536592371344
  0
SPLINE
  5
4CD5
330
A
100
AcDbEntity
  8
MODEL
 48
25.4
100
AcDbSpline
210
0.0
220
0.0
230
1.0
 70
     8
 71
     3
 72
    20
 73
    16
 74
     0
 42
0.000000001
 43
0.0000000001
 40
0.0
 40
0.0
 40
0.0
 40
0.0
 40
0.098118
 40
0.392077
 40
0.563213
 40
0.710674
 40
0.831195
 40
0.901948
 40
0.954361
 40
0.987144
 40
0.995886
 40
0.998405
 40
0.999279
 40
0.99965
 40
1.0
 40
1.0
 40
1.0
 40
1.0
 10
273.5599578990184
 20
213.7095207858609
 30
0.0
 10
273.5729318990186
 20
213.7199727858609
 30
0.0
 10
273.6170168990186
 20
213.7556107858609
 30
0.0
 10
273.6714318990183
 20
213.8034697858609
 30
0.0
 10
273.7224978990182
 20
213.8535507858607
 30
0.0
 10
273.7550028990186
 20
213.8905277858609
 30
0.0
 10
273.7781138990183
 20
213.9222787858609
 30
0.0
 10
273.7945708990183
 20
213.9499457858609
 30
0.0
 10
273.8060718990182
 20
213.9731917858607
 30
0.0
 10
273.8143608990184
 20
213.9927157858609
 30
0.0
 10
273.8205748990184
 20
214.0097227858609
 30
0.0
 10
273.8235348990186
 20
214.0185097858609
 30
0.0
 10
273.8249028990185
 20
214.0227317858608
 30
0.0
 10
273.8255988990184
 20
214.0249267858606
 30
0.0
 10
273.8259058990186
 20
214.0258967858607
 30
0.0
 10
273.8260808990185
 20
214.0264497858609
 30
0.0
  0
ARC
  5
4CD6
330
A
100
AcDbEntity
  8
MODEL
 48
25.4
100
AcDbCircle
 10
267.3411718990785
 20
277.4938677857803
 30
0.0
 40
8.125482405073612
100
AcDbArc
 50
102.8603619132001
 51
111.7290870184009
  0
ARC
  5
4CD7
330
A
100
AcDbEntity
  8
MODEL
 48
25.4
100
AcDbCircle
 10
171.0397408990784
 20
246.5437887857803
 30
0.0
 40
107.8072768153095
100
AcDbArc
 50
342.4325808353997
 51
350.7397314256999
  0
ELLIPSE
  5
4CD8
330
A
100
AcDbEntity
  8
MODEL
 48
25.4
100
AcDbEllipse
 10
267.0869548990784
 20
209.2832187857803
 30
0.0
 11
0.3078305000001475
 21
-0.3940054999998777
 31
0.0
210
0.0
220
0.0
230
1.0
 40
0.1627661208
 41
0.0
 42
0.410784078327974
  0
ELLIPSE
  5
4CD9
330
A
100
AcDbEntity
  8
MODEL
 48
25.4
100
AcDbEllipse
 10
267.0869548990784
 20
209.2832187857803
 30
0.0
 11
-0.3078305000001058
 21
0.3940054999998776
 31
0.0
210
0.0
220
0.0
230
1.0
 40
0.9230335141999999
 41
2.404181931357955
 42
3.141592653589793
  0
ARC
  5
4CDA
330
A
100
AcDbEntity
  8
MODEL
 48
25.4
100
AcDbCircle
 10
267.0376438990786
 20
209.3182817857803
 30
0.0
 40
0.5187859353606472
100
AcDbArc
 50
273.6074321597921
 51
313.5051043205838
  0
SPLINE
  5
4CDB
330
A
100
AcDbEntity
  8
MODEL
 48
25.4
100
AcDbSpline
210
0.0
220
0.0
230
1.0
 70
     8
 71
     3
 72
    26
 73
    22
 74
     0
 42
0.000000001
 43
0.0000000001
 40
0.0
 40
0.0
 40
0.0
 40
0.0
 40
0.019589
 40
0.019589
 40
0.106213
 40
0.106213
 40
0.214495
 40
0.214495
 40
0.322776
 40
0.322776
 40
0.501566
 40
0.501566
 40
0.680357
 40
0.680357
 40
0.782766
 40
0.782766
 40
0.885175
 40
0.885175
 40
0.967102
 40
0.967102
 40
1.0
 40
1.0
 40
1.0
 40
1.0
 10
267.0702858990185
 20
218.9133197858609
 30
0.0
 10
267.0270948990185
 20
218.8230907858607
 30
0.0
 10
266.9850758990183
 20
218.7334417858609
 30
0.0
 10
266.7633638990185
 20
218.2506067858609
 30
0.0
 10
266.6029348990181
 20
217.8648927858609
 30
0.0
 10
266.2829688990182
 20
217.0156467858609
 30
0.0
 10
266.1336888990186
 20
216.5567447858609
 30
0.0
 10
265.8864968990184
 20
215.6668287858609
 30
0.0
 10
265.7886638990183
 20
215.2363517858609
 30
0.0
 10
265.5910938990181
 20
214.1289707858609
 30
0.0
 10
265.5317098990183
 20
213.4754367858609
 30
0.0
 10
265.5338348990184
 20
212.2453927858609
 30
0.0
 10
265.5953468990185
 20
211.6683907858607
 30
0.0
 10
265.7923958990184
 20
210.8316937858609
 30
0.0
 10
265.8850498990183
 20
210.5421597858609
 30
0.0
 10
266.1163578990186
 20
209.9960897858609
 30
0.0
 10
266.2549448990183
 20
209.7399367858609
 30
0.0
 10
266.5498408990184
 20
209.3167767858609
 30
0.0
 10
266.6970608990182
 20
209.1421757858609
 30
0.0
 10
266.9284808990185
 20
208.9200617858607
 30
0.0
 10
266.9977528990185
 20
208.8589127858609
 30
0.0
 10
267.0702858990185
 20
208.8005237858609
 30
0.0
  0
LINE
  5
4CDC
330
A
100
AcDbEntity
  8
MODEL
 48
25.4
100
AcDbLine
 10
267.3947858990783
 20
208.8892127857803
 30
0.0
 11
266.3433048990785
 21
208.0677067857803
 31
0.0
  0
LINE
  5
4CDD
330
A
100
AcDbEntity
  8
MODEL
 48
25.4
100
AcDbLine
 10
273.1537798990785
 20
213.4414197857803
 30
0.0
 11
267.3947858990783
 21
208.9419997857803
 31
0.0
  0
ARC
  5
4CDE
330
A
100
AcDbEntity
  8
MODEL
 48
25.4
100
AcDbCircle
 10
89.56244589867845
 20
448.2684907863803
 30
0.0
 40
298.083780268239
100
AcDbArc
 50
306.1810281720001
 51
306.5480325751
  0
LINE
  5
4CDF
330
A
100
AcDbEntity
  8
MODEL
 48
25.4
100
AcDbLine
 10
273.3203168990784
 20
279.4539957857804
 30
0.0
 11
273.8255268990786
 21
279.0592817857803
 31
0.0
  0
ELLIPSE
  5
4CE0
330
A
100
AcDbEntity
  8
MODEL
 48
25.4
100
AcDbEllipse
 10
267.0869548990784
 20
283.8007637857804
 30
0.0
 11
-0.32287599999975
 21
0.3817740000001956
 31
0.0
210
0.0
220
0.0
230
1.0
 40
0.917798973
 41
4.836215174195714
 42
5.573624371753128
  0
LINE
  5
4CE1
330
A
100
AcDbEntity
  8
MODEL
 48
25.4
100
AcDbLine
 10
306.3329688990784
 20
259.0745957857803
 30
0.0
 11
306.3329688990784
 21
234.0093867857803
 31
0.0
  0
LINE
  5
4CE2
330
A
100
AcDbEntity
  8
MODEL
 48
25.4
100
AcDbLine
 10
349.5047288990784
 20
269.0047397857802
 30
0.0
 11
349.0047288990784
 21
269.0047397857802
 31
0.0
  0
LINE
  5
4CE3
330
A
100
AcDbEntity
  8
MODEL
 48
25.4
100
AcDbLine
 10
349.5047289172785
 20
224.0792447857803
 30
0.0
 11
349.0047289172785
 21
224.0792447857803
 31
0.0
  0
DIMENSION
  5
4CE4
330
A
100
AcDbEntity
  8
DIM
 48
0.05
100
AcDbDimension
  2
*D6
 10
53.74321943355977
 20
207.6684297857804
 30
0.0
 11
53.74321943355977
 21
246.5419912857804
 31
0.0
 70
   160
 71
     5
 42
77.74712299999996
 73
     0
 74
     0
 75
     0
  3
tfrom線あり
100
AcDbAlignedDimension
 13
105.0351914471871
 23
285.4155527857803
 33
0.0
 14
102.0514320723894
 24
207.6684297857804
 34
0.0
 50
90.0
100
AcDbRotatedDimension
1001
ACAD
1000
DSTYLE
1002
{
1070
     3
1000
φ<>
1002
}
  0
LINE
  5
4CE5
330
A
100
AcDbEntity
  8
MODEL
100
AcDbLine
 10
99.98207386706758
 20
269.7082478462805
 30
0.0
 11
95.25947539706772
 21
265.4797692872805
 31
0.0
  0
LINE
  5
4CE6
330
A
100
AcDbEntity
  8
MODEL
100
AcDbLine
 10
92.63125078256758
 20
270.0319878532792
 30
0.0
 11
99.98207386706758
 21
269.7082478462805
 31
0.0
  0
LINE
  5
4CE7
330
A
100
AcDbEntity
  8
MODEL
100
AcDbLine
 10
89.23620631056633
 20
263.5041183197803
 30
0.0
 11
92.63125078256758
 21
270.0319878532792
 31
0.0
  0
LINE
  5
4CE8
330
A
100
AcDbEntity
  8
MODEL
100
AcDbLine
 10
95.25947539706772
 20
265.4797692872805
 30
0.0
 11
89.23620631056633
 21
263.5041183197803
 31
0.0
  0
LINE
  5
4CE9
330
A
100
AcDbEntity
  8
MODEL
100
AcDbLine
 10
85.45550539556712
 20
267.9776027257794
 30
0.0
 11
89.96685033856716
 21
272.4889476692803
 31
0.0
  0
LINE
  5
4CEA
330
A
100
AcDbEntity
  8
MODEL
100
AcDbLine
 10
92.62909444056709
 20
270.0357227467792
 30
0.0
 11
85.45550539556712
 21
267.9776027257794
 31
0.0
  0
LINE
  5
4CEB
330
A
100
AcDbEntity
  8
MODEL
100
AcDbLine
 10
97.99827318506664
 20
275.2191730857793
 30
0.0
 11
92.62909444056709
 21
270.0357227467792
 31
0.0
  0
LINE
  5
4CEC
330
A
100
AcDbEntity
  8
MODEL
100
AcDbLine
 10
91.83566138756737
 20
273.5679062312803
 30
0.0
 11
97.99827318506664
 21
275.2191730857793
 31
0.0
  0
LINE
  5
4CED
330
A
100
AcDbEntity
  8
MODEL
100
AcDbLine
 10
91.83566138756737
 20
273.5679062312803
 30
0.0
 11
89.96685033856716
 21
272.4889476692803
 31
0.0
  0
LINE
  5
4CEE
330
A
100
AcDbEntity
  8
MODEL
100
AcDbLine
 10
98.9516362640677
 20
275.4746259527794
 30
0.0
 11
97.99827318506664
 21
275.2191730857793
 31
0.0
  0
LINE
  5
4CEF
330
A
100
AcDbEntity
  8
MODEL
100
AcDbLine
 10
98.9516362640677
 20
275.4746259527794
 30
0.0
 11
105.114248061567
 21
277.1258928072792
 31
0.0
  0
LINE
  5
4CF0
330
A
100
AcDbEntity
  8
MODEL
100
AcDbLine
 10
92.62909444056709
 20
270.0357227467792
 30
0.0
 11
92.63125078256758
 21
270.0319878532792
 31
0.0
  0
LINE
  5
4CF1
330
A
100
AcDbEntity
  8
MODEL
100
AcDbLine
 10
85.45550539556712
 20
267.9776027257794
 30
0.0
 11
84.75759518356767
 21
267.2796925142803
 31
0.0
  0
LINE
  5
4CF2
330
A
100
AcDbEntity
  8
MODEL
100
AcDbLine
 10
82.69947516256684
 20
260.1061034687792
 30
0.0
 11
84.75759518356767
 21
267.2796925142803
 31
0.0
  0
LINE
  5
4CF3
330
A
100
AcDbEntity
  8
MODEL
100
AcDbLine
 10
82.69947516256684
 20
260.1061034687792
 30
0.0
 11
82.70321005656638
 21
260.1039471272795
 31
0.0
  0
LINE
  5
4CF4
330
A
100
AcDbEntity
  8
MODEL
100
AcDbLine
 10
89.23107958956712
 20
263.4989915992793
 30
0.0
 11
82.70321005656638
 21
260.1039471272795
 31
0.0
  0
LINE
  5
4CF5
330
A
100
AcDbEntity
  8
MODEL
100
AcDbLine
 10
89.23620631056633
 20
263.5041183197803
 30
0.0
 11
89.23107958956712
 21
263.4989915992793
 31
0.0
  0
LINE
  5
4CF6
330
A
100
AcDbEntity
  8
MODEL
100
AcDbLine
 10
99.9890770975669
 20
269.7101243562794
 30
0.0
 11
99.98207386706758
 21
269.7082478462805
 31
0.0
  0
LINE
  5
4CF7
330
A
100
AcDbEntity
  8
MODEL
100
AcDbLine
 10
99.9890770975669
 20
269.7101243562794
 30
0.0
 11
106.1932066240668
 21
273.6659029687793
 31
0.0
  0
LINE
  5
4CF8
330
A
100
AcDbEntity
  8
MODEL
100
AcDbLine
 10
106.1932066240668
 20
273.6702156522803
 30
0.0
 11
106.1932066240668
 21
273.6659029687793
 31
0.0
  0
LINE
  5
4CF9
330
A
100
AcDbEntity
  8
MODEL
100
AcDbLine
 10
106.1932066240668
 20
273.6702156522803
 30
0.0
 11
98.9516362640677
 21
275.4746259527794
 31
0.0
  0
LINE
  5
4CFA
330
A
100
AcDbEntity
  8
MODEL
100
AcDbLine
 10
107.2721651860672
 20
277.1258928072792
 30
0.0
 11
113.4347769835674
 21
275.4746259527794
 31
0.0
  0
LINE
  5
4CFB
330
A
100
AcDbEntity
  8
MODEL
100
AcDbLine
 10
107.2721651860672
 20
277.1258928072792
 30
0.0
 11
105.114248061567
 21
277.1258928072792
 31
0.0
  0
LINE
  5
4CFC
330
A
100
AcDbEntity
  8
MODEL
100
AcDbLine
 10
113.4347769835674
 20
275.4746259527794
 30
0.0
 11
106.1932066240668
 21
273.6702156522803
 31
0.0
  0
LINE
  5
4CFD
330
A
100
AcDbEntity
  8
MODEL
100
AcDbLine
 10
106.1932066240668
 20
273.6659029687793
 30
0.0
 11
112.3973361500665
 21
269.7101243562794
 31
0.0
  0
LINE
  5
4CFE
330
A
100
AcDbEntity
  8
MODEL
100
AcDbLine
 10
106.1932066240668
 20
268.4094537397804
 30
0.0
 11
99.9890770975669
 21
269.7101243562794
 31
0.0
  0
LINE
  5
4CFF
330
A
100
AcDbEntity
  8
MODEL
100
AcDbLine
 10
112.3973361500665
 20
269.7101243562794
 30
0.0
 11
106.1932066240668
 21
268.4094537397804
 31
0.0
  0
LINE
  5
4D00
330
A
100
AcDbEntity
  8
MODEL
100
AcDbLine
 10
95.25947539706772
 20
265.4797692872805
 30
0.0
 11
104.0579818540671
 21
250.2403090727805
 31
0.0
  0
LINE
  5
4D01
330
A
100
AcDbEntity
  8
MODEL
100
AcDbLine
 10
106.1932066240668
 20
250.8124408257803
 30
0.0
 11
104.0579818540671
 21
250.2403090727805
 31
0.0
  0
LINE
  5
4D02
330
A
100
AcDbEntity
  8
MODEL
100
AcDbLine
 10
106.1932066240668
 20
268.4094537397804
 30
0.0
 11
106.1932066240668
 21
250.8124408257803
 31
0.0
  0
LINE
  5
4D03
330
A
100
AcDbEntity
  8
MODEL
100
AcDbLine
 10
122.4195629090671
 20
272.4889476692803
 30
0.0
 11
120.5507518600677
 21
273.5679062312803
 31
0.0
  0
LINE
  5
4D04
330
A
100
AcDbEntity
  8
MODEL
100
AcDbLine
 10
123.1502069375672
 20
263.5041183197803
 30
0.0
 11
117.1269378510667
 21
265.4797692872805
 31
0.0
  0
LINE
  5
4D05
330
A
100
AcDbEntity
  8
MODEL
100
AcDbLine
 10
119.7551624655669
 20
270.0319878532792
 30
0.0
 11
123.1502069375672
 21
263.5041183197803
 31
0.0
  0
LINE
  5
4D06
330
A
100
AcDbEntity
  8
MODEL
100
AcDbLine
 10
112.4043393810678
 20
269.7082478462805
 30
0.0
 11
119.7551624655669
 21
270.0319878532792
 31
0.0
  0
LINE
  5
4D07
330
A
100
AcDbEntity
  8
MODEL
100
AcDbLine
 10
117.1269378510667
 20
265.4797692872805
 30
0.0
 11
112.4043393810678
 21
269.7082478462805
 31
0.0
  0
LINE
  5
4D08
330
A
100
AcDbEntity
  8
MODEL
100
AcDbLine
 10
114.3881400625667
 20
275.2191730857793
 30
0.0
 11
120.5507518600677
 21
273.5679062312803
 31
0.0
  0
LINE
  5
4D09
330
A
100
AcDbEntity
  8
MODEL
100
AcDbLine
 10
119.7573188070671
 20
270.0357227467792
 30
0.0
 11
114.3881400625667
 21
275.2191730857793
 31
0.0
  0
LINE
  5
4D0A
330
A
100
AcDbEntity
  8
MODEL
100
AcDbLine
 10
126.9309078525665
 20
267.9776027257794
 30
0.0
 11
119.7573188070671
 21
270.0357227467792
 31
0.0
  0
LINE
  5
4D0B
330
A
100
AcDbEntity
  8
MODEL
100
AcDbLine
 10
122.4195629090671
 20
272.4889476692803
 30
0.0
 11
126.9309078525665
 21
267.9776027257794
 31
0.0
  0
LINE
  5
4D0C
330
A
100
AcDbEntity
  8
MODEL
100
AcDbLine
 10
112.4043393810678
 20
269.7082478462805
 30
0.0
 11
112.3973361500665
 21
269.7101243562794
 31
0.0
  0
LINE
  5
4D0D
330
A
100
AcDbEntity
  8
MODEL
100
AcDbLine
 10
119.7573188070671
 20
270.0357227467792
 30
0.0
 11
119.7551624655669
 21
270.0319878532792
 31
0.0
  0
LINE
  5
4D0E
330
A
100
AcDbEntity
  8
MODEL
100
AcDbLine
 10
114.3881400625667
 20
275.2191730857793
 30
0.0
 11
113.4347769835674
 21
275.4746259527794
 31
0.0
  0
LINE
  5
4D0F
330
A
100
AcDbEntity
  8
MODEL
100
AcDbLine
 10
123.1553336580672
 20
263.4989915992793
 30
0.0
 11
123.1502069375672
 21
263.5041183197803
 31
0.0
  0
LINE
  5
4D10
330
A
100
AcDbEntity
  8
MODEL
100
AcDbLine
 10
123.1553336580672
 20
263.4989915992793
 30
0.0
 11
129.6832031915671
 21
260.1039471272795
 31
0.0
  0
LINE
  5
4D11
330
A
100
AcDbEntity
  8
MODEL
100
AcDbLine
 10
129.6869380850674
 20
260.1061034687792
 30
0.0
 11
129.6832031915671
 21
260.1039471272795
 31
0.0
  0
LINE
  5
4D12
330
A
100
AcDbEntity
  8
MODEL
100
AcDbLine
 10
129.6869380850674
 20
260.1061034687792
 30
0.0
 11
127.6288180640674
 21
267.2796925142803
 31
0.0
  0
LINE
  5
4D13
330
A
100
AcDbEntity
  8
MODEL
100
AcDbLine
 10
127.6288180640674
 20
267.2796925142803
 30
0.0
 11
126.9309078525665
 21
267.9776027257794
 31
0.0
  0
LINE
  5
4D14
330
A
100
AcDbEntity
  8
MODEL
100
AcDbLine
 10
133.2191215695673
 20
260.8995365222803
 30
0.0
 11
134.8703884240674
 21
254.7369247242804
 31
0.0
  0
LINE
  5
4D15
330
A
100
AcDbEntity
  8
MODEL
100
AcDbLine
 10
133.2191215695673
 20
260.8995365222803
 30
0.0
 11
132.1401630075669
 21
262.7683475707803
 31
0.0
  0
LINE
  5
4D16
330
A
100
AcDbEntity
  8
MODEL
100
AcDbLine
 10
127.6288180640674
 20
267.2796925142803
 30
0.0
 11
132.1401630075669
 21
262.7683475707803
 31
0.0
  0
LINE
  5
4D17
330
A
100
AcDbEntity
  8
MODEL
100
AcDbLine
 10
134.8703884240674
 20
254.7369247242804
 30
0.0
 11
129.6869380850674
 21
260.1061034687792
 31
0.0
  0
LINE
  5
4D18
330
A
100
AcDbEntity
  8
MODEL
100
AcDbLine
 10
129.6832031915671
 20
260.1039471272795
 30
0.0
 11
129.359463184566
 21
252.7531240427804
 31
0.0
  0
LINE
  5
4D19
330
A
100
AcDbEntity
  8
MODEL
100
AcDbLine
 10
125.130984625567
 20
257.4757225127793
 30
0.0
 11
123.1553336580672
 21
263.4989915992793
 31
0.0
  0
LINE
  5
4D1A
330
A
100
AcDbEntity
  8
MODEL
100
AcDbLine
 10
129.359463184566
 20
252.7531240427804
 30
0.0
 11
125.130984625567
 21
257.4757225127793
 31
0.0
  0
LINE
  5
4D1B
330
A
100
AcDbEntity
  8
MODEL
100
AcDbLine
 10
117.1269378510667
 20
265.4797692872805
 30
0.0
 11
108.3284313940665
 21
250.2403090727805
 31
0.0
  0
LINE
  5
4D1C
330
A
100
AcDbEntity
  8
MODEL
100
AcDbLine
 10
109.8915244110675
 20
248.6772160557793
 30
0.0
 11
108.3284313940665
 21
250.2403090727805
 31
0.0
  0
LINE
  5
4D1D
330
A
100
AcDbEntity
  8
MODEL
100
AcDbLine
 10
125.130984625567
 20
257.4757225127793
 30
0.0
 11
109.8915244110675
 21
248.6772160557793
 31
0.0
  0
LINE
  5
4D1E
330
A
100
AcDbEntity
  8
MODEL
100
AcDbLine
 10
135.1258412910663
 20
253.7835616452793
 30
0.0
 11
134.8703884240674
 21
254.7369247242804
 31
0.0
  0
LINE
  5
4D1F
330
A
100
AcDbEntity
  8
MODEL
100
AcDbLine
 10
135.1258412910663
 20
253.7835616452793
 30
0.0
 11
136.7771081455664
 21
247.6209498477803
 31
0.0
  0
LINE
  5
4D20
330
A
100
AcDbEntity
  8
MODEL
100
AcDbLine
 10
136.7771081455664
 20
245.4630327237805
 30
0.0
 11
135.1258412910663
 21
239.3004209257803
 31
0.0
  0
LINE
  5
4D21
330
A
100
AcDbEntity
  8
MODEL
100
AcDbLine
 10
136.7771081455664
 20
245.4630327237805
 30
0.0
 11
136.7771081455664
 21
247.6209498477803
 31
0.0
  0
LINE
  5
4D22
330
A
100
AcDbEntity
  8
MODEL
100
AcDbLine
 10
133.3214309905669
 20
246.5419912857803
 30
0.0
 11
135.1258412910663
 21
253.7835616452793
 31
0.0
  0
LINE
  5
4D23
330
A
100
AcDbEntity
  8
MODEL
100
AcDbLine
 10
135.1258412910663
 20
239.3004209257803
 30
0.0
 11
133.3214309905669
 21
246.5419912857803
 31
0.0
  0
LINE
  5
4D24
330
A
100
AcDbEntity
  8
MODEL
100
AcDbLine
 10
129.3613396945673
 20
240.3378617592804
 30
0.0
 11
128.0606690780676
 21
246.5419912857803
 31
0.0
  0
LINE
  5
4D25
330
A
100
AcDbEntity
  8
MODEL
100
AcDbLine
 10
133.3171183070669
 20
246.5419912857803
 30
0.0
 11
129.3613396945673
 21
240.3378617592804
 31
0.0
  0
LINE
  5
4D26
330
A
100
AcDbEntity
  8
MODEL
100
AcDbLine
 10
129.3613396945673
 20
252.7461208117804
 30
0.0
 11
133.3171183070669
 21
246.5419912857803
 31
0.0
  0
LINE
  5
4D27
330
A
100
AcDbEntity
  8
MODEL
100
AcDbLine
 10
128.0606690780676
 20
246.5419912857803
 30
0.0
 11
129.3613396945673
 21
252.7461208117804
 31
0.0
  0
LINE
  5
4D28
330
A
100
AcDbEntity
  8
MODEL
100
AcDbLine
 10
134.8703884240674
 20
238.3470578467804
 30
0.0
 11
135.1258412910663
 21
239.3004209257803
 31
0.0
  0
LINE
  5
4D29
330
A
100
AcDbEntity
  8
MODEL
100
AcDbLine
 10
134.8703884240674
 20
238.3470578467804
 30
0.0
 11
133.2191215695673
 21
232.1844460492793
 31
0.0
  0
LINE
  5
4D2A
330
A
100
AcDbEntity
  8
MODEL
100
AcDbLine
 10
129.359463184566
 20
240.3308585287804
 30
0.0
 11
129.3613396945673
 21
240.3378617592804
 31
0.0
  0
LINE
  5
4D2B
330
A
100
AcDbEntity
  8
MODEL
100
AcDbLine
 10
129.359463184566
 20
240.3308585287804
 30
0.0
 11
129.6832031915671
 21
232.9800354442804
 31
0.0
  0
LINE
  5
4D2C
330
A
100
AcDbEntity
  8
MODEL
100
AcDbLine
 10
129.6869380850674
 20
232.9778791022804
 30
0.0
 11
129.6832031915671
 21
232.9800354442804
 31
0.0
  0
LINE
  5
4D2D
330
A
100
AcDbEntity
  8
MODEL
100
AcDbLine
 10
129.6869380850674
 20
232.9778791022804
 30
0.0
 11
134.8703884240674
 21
238.3470578467804
 31
0.0
  0
LINE
  5
4D2E
330
A
100
AcDbEntity
  8
MODEL
100
AcDbLine
 10
133.3214309905669
 20
246.5419912857803
 30
0.0
 11
133.3171183070669
 21
246.5419912857803
 31
0.0
  0
LINE
  5
4D2F
330
A
100
AcDbEntity
  8
MODEL
100
AcDbLine
 10
129.3613396945673
 20
252.7461208117804
 30
0.0
 11
129.359463184566
 21
252.7531240427804
 31
0.0
  0
LINE
  5
4D30
330
A
100
AcDbEntity
  8
MODEL
100
AcDbLine
 10
132.1401630075669
 20
230.3156350002793
 30
0.0
 11
127.6288180640674
 21
225.8042900572793
 31
0.0
  0
LINE
  5
4D31
330
A
100
AcDbEntity
  8
MODEL
100
AcDbLine
 10
132.1401630075669
 20
230.3156350002793
 30
0.0
 11
133.2191215695673
 21
232.1844460492793
 31
0.0
  0
LINE
  5
4D32
330
A
100
AcDbEntity
  8
MODEL
100
AcDbLine
 10
127.6288180640674
 20
225.8042900572793
 30
0.0
 11
129.6869380850674
 21
232.9778791022804
 31
0.0
  0
LINE
  5
4D33
330
A
100
AcDbEntity
  8
MODEL
100
AcDbLine
 10
129.6832031915671
 20
232.9800354442804
 30
0.0
 11
123.1553336580672
 21
229.5849909722803
 31
0.0
  0
LINE
  5
4D34
330
A
100
AcDbEntity
  8
MODEL
100
AcDbLine
 10
125.130984625567
 20
235.6082600587794
 30
0.0
 11
129.359463184566
 21
240.3308585287804
 31
0.0
  0
LINE
  5
4D35
330
A
100
AcDbEntity
  8
MODEL
100
AcDbLine
 10
123.1553336580672
 20
229.5849909722803
 30
0.0
 11
125.130984625567
 21
235.6082600587794
 31
0.0
  0
LINE
  5
4D36
330
A
100
AcDbEntity
  8
MODEL
100
AcDbLine
 10
128.0606690780676
 20
246.5419912857803
 30
0.0
 11
110.4636561640671
 21
246.5419912857803
 31
0.0
  0
LINE
  5
4D37
330
A
100
AcDbEntity
  8
MODEL
100
AcDbLine
 10
109.8915244110675
 20
244.4067665157794
 30
0.0
 11
110.4636561640671
 21
246.5419912857803
 31
0.0
  0
LINE
  5
4D38
330
A
100
AcDbEntity
  8
MODEL
100
AcDbLine
 10
125.130984625567
 20
235.6082600587794
 30
0.0
 11
109.8915244110675
 21
244.4067665157794
 31
0.0
  0
LINE
  5
4D39
330
A
100
AcDbEntity
  8
MODEL
100
AcDbLine
 10
120.5507518600677
 20
219.5160763402805
 30
0.0
 11
114.3881400625667
 21
217.8648094857794
 31
0.0
  0
LINE
  5
4D3A
330
A
100
AcDbEntity
  8
MODEL
100
AcDbLine
 10
120.5507518600677
 20
219.5160763402805
 30
0.0
 11
122.4195629090671
 21
220.5950349022805
 31
0.0
  0
LINE
  5
4D3B
330
A
100
AcDbEntity
  8
MODEL
100
AcDbLine
 10
126.9309078525665
 20
225.1063798452803
 30
0.0
 11
122.4195629090671
 21
220.5950349022805
 31
0.0
  0
LINE
  5
4D3C
330
A
100
AcDbEntity
  8
MODEL
100
AcDbLine
 10
119.7573188070671
 20
223.0482598247804
 30
0.0
 11
126.9309078525665
 21
225.1063798452803
 31
0.0
  0
LINE
  5
4D3D
330
A
100
AcDbEntity
  8
MODEL
100
AcDbLine
 10
114.3881400625667
 20
217.8648094857794
 30
0.0
 11
119.7573188070671
 21
223.0482598247804
 31
0.0
  0
LINE
  5
4D3E
330
A
100
AcDbEntity
  8
MODEL
100
AcDbLine
 10
112.4043393810678
 20
223.3757347252794
 30
0.0
 11
117.1269378510667
 21
227.6042132842794
 31
0.0
  0
LINE
  5
4D3F
330
A
100
AcDbEntity
  8
MODEL
100
AcDbLine
 10
119.7551624655669
 20
223.0519947182804
 30
0.0
 11
112.4043393810678
 21
223.3757347252794
 31
0.0
  0
LINE
  5
4D40
330
A
100
AcDbEntity
  8
MODEL
100
AcDbLine
 10
123.1502069375672
 20
229.5798642512804
 30
0.0
 11
119.7551624655669
 21
223.0519947182804
 31
0.0
  0
LINE
  5
4D41
330
A
100
AcDbEntity
  8
MODEL
100
AcDbLine
 10
117.1269378510667
 20
227.6042132842794
 30
0.0
 11
123.1502069375672
 21
229.5798642512804
 31
0.0
  0
LINE
  5
4D42
330
A
100
AcDbEntity
  8
MODEL
100
AcDbLine
 10
113.4347769835674
 20
217.6093566187803
 30
0.0
 11
114.3881400625667
 21
217.8648094857794
 31
0.0
  0
LINE
  5
4D43
330
A
100
AcDbEntity
  8
MODEL
100
AcDbLine
 10
113.4347769835674
 20
217.6093566187803
 30
0.0
 11
107.2721651860672
 21
215.9580897642795
 31
0.0
  0
LINE
  5
4D44
330
A
100
AcDbEntity
  8
MODEL
100
AcDbLine
 10
112.3973361500665
 20
223.3738582152805
 30
0.0
 11
112.4043393810678
 21
223.3757347252794
 31
0.0
  0
LINE
  5
4D45
330
A
100
AcDbEntity
  8
MODEL
100
AcDbLine
 10
112.3973361500665
 20
223.3738582152805
 30
0.0
 11
106.1932066240668
 21
219.4180796027794
 31
0.0
  0
LINE
  5
4D46
330
A
100
AcDbEntity
  8
MODEL
100
AcDbLine
 10
106.1932066240668
 20
219.4137669187805
 30
0.0
 11
106.1932066240668
 21
219.4180796027794
 31
0.0
  0
LINE
  5
4D47
330
A
100
AcDbEntity
  8
MODEL
100
AcDbLine
 10
106.1932066240668
 20
219.4137669187805
 30
0.0
 11
113.4347769835674
 21
217.6093566187803
 31
0.0
  0
LINE
  5
4D48
330
A
100
AcDbEntity
  8
MODEL
100
AcDbLine
 10
119.7573188070671
 20
223.0482598247804
 30
0.0
 11
119.7551624655669
 21
223.0519947182804
 31
0.0
  0
LINE
  5
4D49
330
A
100
AcDbEntity
  8
MODEL
100
AcDbLine
 10
123.1502069375672
 20
229.5798642512804
 30
0.0
 11
123.1553336580672
 21
229.5849909722803
 31
0.0
  0
LINE
  5
4D4A
330
A
100
AcDbEntity
  8
MODEL
100
AcDbLine
 10
126.9309078525665
 20
225.1063798452803
 30
0.0
 11
127.6288180640674
 21
225.8042900572793
 31
0.0
  0
LINE
  5
4D4B
330
A
100
AcDbEntity
  8
MODEL
100
AcDbLine
 10
105.114248061567
 20
215.9580897642795
 30
0.0
 11
98.9516362640677
 21
217.6093566187803
 31
0.0
  0
LINE
  5
4D4C
330
A
100
AcDbEntity
  8
MODEL
100
AcDbLine
 10
105.114248061567
 20
215.9580897642795
 30
0.0
 11
107.2721651860672
 21
215.9580897642795
 31
0.0
  0
LINE
  5
4D4D
330
A
100
AcDbEntity
  8
MODEL
100
AcDbLine
 10
98.9516362640677
 20
217.6093566187803
 30
0.0
 11
106.1932066240668
 21
219.4137669187805
 31
0.0
  0
LINE
  5
4D4E
330
A
100
AcDbEntity
  8
MODEL
100
AcDbLine
 10
106.1932066240668
 20
219.4180796027794
 30
0.0
 11
99.9890770975669
 21
223.3738582152805
 31
0.0
  0
LINE
  5
4D4F
330
A
100
AcDbEntity
  8
MODEL
100
AcDbLine
 10
106.1932066240668
 20
224.6745288312804
 30
0.0
 11
112.3973361500665
 21
223.3738582152805
 31
0.0
  0
LINE
  5
4D50
330
A
100
AcDbEntity
  8
MODEL
100
AcDbLine
 10
99.9890770975669
 20
223.3738582152805
 30
0.0
 11
106.1932066240668
 21
224.6745288312804
 31
0.0
  0
LINE
  5
4D51
330
A
100
AcDbEntity
  8
MODEL
100
AcDbLine
 10
117.1269378510667
 20
227.6042132842794
 30
0.0
 11
108.3284313940665
 21
242.8436734982804
 31
0.0
  0
LINE
  5
4D52
330
A
100
AcDbEntity
  8
MODEL
100
AcDbLine
 10
106.1932066240668
 20
242.2715417457793
 30
0.0
 11
108.3284313940665
 21
242.8436734982804
 31
0.0
  0
LINE
  5
4D53
330
A
100
AcDbEntity
  8
MODEL
100
AcDbLine
 10
106.1932066240668
 20
224.6745288312804
 30
0.0
 11
106.1932066240668
 21
242.2715417457793
 31
0.0
  0
LINE
  5
4D54
330
A
100
AcDbEntity
  8
MODEL
100
AcDbLine
 10
89.96685033856716
 20
220.5950349022805
 30
0.0
 11
91.83566138756737
 21
219.5160763402805
 31
0.0
  0
LINE
  5
4D55
330
A
100
AcDbEntity
  8
MODEL
100
AcDbLine
 10
89.23620631056633
 20
229.5798642512804
 30
0.0
 11
95.25947539706772
 21
227.6042132842794
 31
0.0
  0
LINE
  5
4D56
330
A
100
AcDbEntity
  8
MODEL
100
AcDbLine
 10
92.63125078256758
 20
223.0519947182804
 30
0.0
 11
89.23620631056633
 21
229.5798642512804
 31
0.0
  0
LINE
  5
4D57
330
A
100
AcDbEntity
  8
MODEL
100
AcDbLine
 10
99.98207386706758
 20
223.3757347252794
 30
0.0
 11
92.63125078256758
 21
223.0519947182804
 31
0.0
  0
LINE
  5
4D58
330
A
100
AcDbEntity
  8
MODEL
100
AcDbLine
 10
95.25947539706772
 20
227.6042132842794
 30
0.0
 11
99.98207386706758
 21
223.3757347252794
 31
0.0
  0
LINE
  5
4D59
330
A
100
AcDbEntity
  8
MODEL
100
AcDbLine
 10
97.99827318506664
 20
217.8648094857794
 30
0.0
 11
91.83566138756737
 21
219.5160763402805
 31
0.0
  0
LINE
  5
4D5A
330
A
100
AcDbEntity
  8
MODEL
100
AcDbLine
 10
92.62909444056709
 20
223.0482598247804
 30
0.0
 11
97.99827318506664
 21
217.8648094857794
 31
0.0
  0
LINE
  5
4D5B
330
A
100
AcDbEntity
  8
MODEL
100
AcDbLine
 10
85.45550539556712
 20
225.1063798452803
 30
0.0
 11
92.62909444056709
 21
223.0482598247804
 31
0.0
  0
LINE
  5
4D5C
330
A
100
AcDbEntity
  8
MODEL
100
AcDbLine
 10
89.96685033856716
 20
220.5950349022805
 30
0.0
 11
85.45550539556712
 21
225.1063798452803
 31
0.0
  0
LINE
  5
4D5D
330
A
100
AcDbEntity
  8
MODEL
100
AcDbLine
 10
99.98207386706758
 20
223.3757347252794
 30
0.0
 11
99.9890770975669
 21
223.3738582152805
 31
0.0
  0
LINE
  5
4D5E
330
A
100
AcDbEntity
  8
MODEL
100
AcDbLine
 10
92.62909444056709
 20
223.0482598247804
 30
0.0
 11
92.63125078256758
 21
223.0519947182804
 31
0.0
  0
LINE
  5
4D5F
330
A
100
AcDbEntity
  8
MODEL
100
AcDbLine
 10
97.99827318506664
 20
217.8648094857794
 30
0.0
 11
98.9516362640677
 21
217.6093566187803
 31
0.0
  0
LINE
  5
4D60
330
A
100
AcDbEntity
  8
MODEL
100
AcDbLine
 10
89.23107958956712
 20
229.5849909722803
 30
0.0
 11
89.23620631056633
 21
229.5798642512804
 31
0.0
  0
LINE
  5
4D61
330
A
100
AcDbEntity
  8
MODEL
100
AcDbLine
 10
89.23107958956712
 20
229.5849909722803
 30
0.0
 11
82.70321005656638
 21
232.9800354442804
 31
0.0
  0
LINE
  5
4D62
330
A
100
AcDbEntity
  8
MODEL
100
AcDbLine
 10
82.69947516256684
 20
232.9778791022804
 30
0.0
 11
82.70321005656638
 21
232.9800354442804
 31
0.0
  0
LINE
  5
4D63
330
A
100
AcDbEntity
  8
MODEL
100
AcDbLine
 10
82.69947516256684
 20
232.9778791022804
 30
0.0
 11
84.75759518356767
 21
225.8042900572793
 31
0.0
  0
LINE
  5
4D64
330
A
100
AcDbEntity
  8
MODEL
100
AcDbLine
 10
84.75759518356767
 20
225.8042900572793
 30
0.0
 11
85.45550539556712
 21
225.1063798452803
 31
0.0
  0
LINE
  5
4D65
330
A
100
AcDbEntity
  8
MODEL
100
AcDbLine
 10
79.16729167856715
 20
232.1844460492793
 30
0.0
 11
77.51602482406702
 21
238.3470578467804
 31
0.0
  0
LINE
  5
4D66
330
A
100
AcDbEntity
  8
MODEL
100
AcDbLine
 10
79.16729167856715
 20
232.1844460492793
 30
0.0
 11
80.24625024056672
 21
230.3156350002793
 31
0.0
  0
LINE
  5
4D67
330
A
100
AcDbEntity
  8
MODEL
100
AcDbLine
 10
84.75759518356767
 20
225.8042900572793
 30
0.0
 11
80.24625024056672
 21
230.3156350002793
 31
0.0
  0
LINE
  5
4D68
330
A
100
AcDbEntity
  8
MODEL
100
AcDbLine
 10
77.51602482406702
 20
238.3470578467804
 30
0.0
 11
82.69947516256684
 21
232.9778791022804
 31
0.0
  0
LINE
  5
4D69
330
A
100
AcDbEntity
  8
MODEL
100
AcDbLine
 10
82.70321005656638
 20
232.9800354442804
 30
0.0
 11
83.02695006356748
 21
240.3308585287804
 31
0.0
  0
LINE
  5
4D6A
330
A
100
AcDbEntity
  8
MODEL
100
AcDbLine
 10
87.25542862206635
 20
235.6082600587794
 30
0.0
 11
89.23107958956712
 21
229.5849909722803
 31
0.0
  0
LINE
  5
4D6B
330
A
100
AcDbEntity
  8
MODEL
100
AcDbLine
 10
83.02695006356748
 20
240.3308585287804
 30
0.0
 11
87.25542862206635
 21
235.6082600587794
 31
0.0
  0
LINE
  5
4D6C
330
A
100
AcDbEntity
  8
MODEL
100
AcDbLine
 10
95.25947539706772
 20
227.6042132842794
 30
0.0
 11
104.0579818540671
 21
242.8436734982804
 31
0.0
  0
LINE
  5
4D6D
330
A
100
AcDbEntity
  8
MODEL
100
AcDbLine
 10
102.4948888365668
 20
244.4067665157794
 30
0.0
 11
104.0579818540671
 21
242.8436734982804
 31
0.0
  0
LINE
  5
4D6E
330
A
100
AcDbEntity
  8
MODEL
100
AcDbLine
 10
87.25542862206635
 20
235.6082600587794
 30
0.0
 11
102.4948888365668
 21
244.4067665157794
 31
0.0
  0
LINE
  5
4D6F
330
A
100
AcDbEntity
  8
MODEL
100
AcDbLine
 10
77.26057195656699
 20
239.3004209257803
 30
0.0
 11
77.51602482406702
 21
238.3470578467804
 31
0.0
  0
LINE
  5
4D70
330
A
100
AcDbEntity
  8
MODEL
100
AcDbLine
 10
77.26057195656699
 20
239.3004209257803
 30
0.0
 11
75.60930510256708
 21
245.4630327237805
 31
0.0
  0
LINE
  5
4D71
330
A
100
AcDbEntity
  8
MODEL
100
AcDbLine
 10
83.02507355356715
 20
252.7461208117804
 30
0.0
 11
84.32574416956754
 21
246.5419912857803
 31
0.0
  0
LINE
  5
4D72
330
A
100
AcDbEntity
  8
MODEL
100
AcDbLine
 10
79.06929494106748
 20
246.5419912857803
 30
0.0
 11
83.02507355356715
 21
252.7461208117804
 31
0.0
  0
LINE
  5
4D73
330
A
100
AcDbEntity
  8
MODEL
100
AcDbLine
 10
83.02507355356715
 20
240.3378617592804
 30
0.0
 11
79.06929494106748
 21
246.5419912857803
 31
0.0
  0
LINE
  5
4D74
330
A
100
AcDbEntity
  8
MODEL
100
AcDbLine
 10
84.32574416956754
 20
246.5419912857803
 30
0.0
 11
83.02507355356715
 21
240.3378617592804
 31
0.0
  0
LINE
  5
4D75
330
A
100
AcDbEntity
  8
MODEL
100
AcDbLine
 10
79.06498225706741
 20
246.5419912857803
 30
0.0
 11
77.26057195656699
 21
239.3004209257803
 31
0.0
  0
LINE
  5
4D76
330
A
100
AcDbEntity
  8
MODEL
100
AcDbLine
 10
77.26057195656699
 20
253.7835616452793
 30
0.0
 11
79.06498225706741
 21
246.5419912857803
 31
0.0
  0
LINE
  5
4D77
330
A
100
AcDbEntity
  8
MODEL
100
AcDbLine
 10
75.60930510256708
 20
247.6209498477803
 30
0.0
 11
77.26057195656699
 21
253.7835616452793
 31
0.0
  0
LINE
  5
4D78
330
A
100
AcDbEntity
  8
MODEL
100
AcDbLine
 10
83.02507355356715
 20
240.3378617592804
 30
0.0
 11
83.02695006356748
 21
240.3308585287804
 31
0.0
  0
LINE
  5
4D79
330
A
100
AcDbEntity
  8
MODEL
100
AcDbLine
 10
79.06929494106748
 20
246.5419912857803
 30
0.0
 11
79.06498225706741
 21
246.5419912857803
 31
0.0
  0
LINE
  5
4D7A
330
A
100
AcDbEntity
  8
MODEL
100
AcDbLine
 10
83.02695006356748
 20
252.7531240427804
 30
0.0
 11
83.02507355356715
 21
252.7461208117804
 31
0.0
  0
LINE
  5
4D7B
330
A
100
AcDbEntity
  8
MODEL
100
AcDbLine
 10
82.70321005656638
 20
260.1039471272795
 30
0.0
 11
83.02695006356748
 21
252.7531240427804
 31
0.0
  0
LINE
  5
4D7C
330
A
100
AcDbEntity
  8
MODEL
100
AcDbLine
 10
77.51602482406702
 20
254.7369247242804
 30
0.0
 11
82.69947516256684
 21
260.1061034687792
 31
0.0
  0
LINE
  5
4D7D
330
A
100
AcDbEntity
  8
MODEL
100
AcDbLine
 10
77.51602482406702
 20
254.7369247242804
 30
0.0
 11
77.26057195656699
 21
253.7835616452793
 31
0.0
  0
LINE
  5
4D7E
330
A
100
AcDbEntity
  8
MODEL
100
AcDbLine
 10
101.9227570840665
 20
246.5419912857803
 30
0.0
 11
84.32574416956754
 21
246.5419912857803
 31
0.0
  0
LINE
  5
4D7F
330
A
100
AcDbEntity
  8
MODEL
100
AcDbLine
 10
102.4948888365668
 20
248.6772160557793
 30
0.0
 11
101.9227570840665
 21
246.5419912857803
 31
0.0
  0
LINE
  5
4D80
330
A
100
AcDbEntity
  8
MODEL
100
AcDbLine
 10
87.25542862206635
 20
257.4757225127793
 30
0.0
 11
102.4948888365668
 21
248.6772160557793
 31
0.0
  0
LINE
  5
4D81
330
A
100
AcDbEntity
  8
MODEL
100
AcDbLine
 10
83.02695006356748
 20
252.7531240427804
 30
0.0
 11
87.25542862206635
 21
257.4757225127793
 31
0.0
  0
LINE
  5
4D82
330
A
100
AcDbEntity
  8
MODEL
100
AcDbLine
 10
79.16729167856715
 20
260.8995365222803
 30
0.0
 11
77.51602482406702
 21
254.7369247242804
 31
0.0
  0
LINE
  5
4D83
330
A
100
AcDbEntity
  8
MODEL
100
AcDbLine
 10
87.25542862206635
 20
257.4757225127793
 30
0.0
 11
89.23107958956712
 21
263.4989915992793
 31
0.0
  0
LINE
  5
4D84
330
A
100
AcDbEntity
  8
MODEL
100
AcDbLine
 10
104.0579818540671
 20
250.2403090727805
 30
0.0
 11
102.4948888365668
 21
248.6772160557793
 31
0.0
  0
LINE
  5
4D85
330
A
100
AcDbEntity
  8
MODEL
100
AcDbLine
 10
101.9227570840665
 20
246.5419912857803
 30
0.0
 11
102.4948888365668
 21
244.4067665157794
 31
0.0
  0
LINE
  5
4D86
330
A
100
AcDbEntity
  8
MODEL
100
AcDbLine
 10
104.0579818540671
 20
242.8436734982804
 30
0.0
 11
106.1932066240668
 21
242.2715417457793
 31
0.0
  0
LINE
  5
4D87
330
A
100
AcDbEntity
  8
MODEL
100
AcDbLine
 10
108.3284313940665
 20
242.8436734982804
 30
0.0
 11
109.8915244110675
 21
244.4067665157794
 31
0.0
  0
LINE
  5
4D88
330
A
100
AcDbEntity
  8
MODEL
100
AcDbLine
 10
110.4636561640671
 20
246.5419912857803
 30
0.0
 11
109.8915244110675
 21
248.6772160557793
 31
0.0
  0
LINE
  5
4D89
330
A
100
AcDbEntity
  8
MODEL
100
AcDbLine
 10
108.3284313940665
 20
250.2403090727805
 30
0.0
 11
106.1932066240668
 21
250.8124408257803
 31
0.0
  0
LINE
  5
4D8A
330
A
100
AcDbEntity
  8
MODEL
100
AcDbLine
 10
84.75759518356767
 20
267.2796925142803
 30
0.0
 11
80.24625024056672
 21
262.7683475707803
 31
0.0
  0
LINE
  5
4D8B
330
A
100
AcDbEntity
  8
MODEL
100
AcDbLine
 10
80.24625024056672
 20
262.7683475707803
 30
0.0
 11
79.16729167856715
 21
260.8995365222803
 31
0.0
  0
ARC
  5
4D8C
330
A
100
AcDbEntity
  8
MODEL
100
AcDbCircle
 10
297.441251538067
 20
356.3775782930293
 30
0.0
 40
187.699578102881
100
AcDbArc
 50
207.1646404965994
 51
212.5736886365997
  0
SPLINE
  5
4D8D
330
A
100
AcDbEntity
  8
MODEL
100
AcDbSpline
210
0.0
220
0.0
230
1.0
 70
    12
 71
     2
 72
     6
 73
     3
 74
     0
 42
0.000000001
 43
0.0000000001
 40
0.0
 40
0.0
 40
0.0
 40
1.0
 40
1.0
 40
1.0
 10
130.5485178902325
 20
270.7287695147735
 30
0.0
 41
1.0
 10
130.5075205774457
 20
270.7131380773055
 30
0.0
 41
0.9427901709181338
 10
130.4452565140725
 20
270.6835337749725
 30
0.0
 41
1.0
  0
ARC
  5
4D8E
330
A
100
AcDbEntity
  8
MODEL
100
AcDbCircle
 10
216.9011331810668
 20
437.2865166470296
 30
0.0
 40
187.6996870327136
100
AcDbArc
 50
237.1646420672998
 51
242.5736870658995
  0
SPLINE
  5
4D8F
330
A
100
AcDbEntity
  8
MODEL
100
AcDbSpline
210
0.0
220
0.0
230
1.0
 70
    12
 71
     2
 72
     6
 73
     3
 74
     0
 42
0.000000001
 43
0.0000000001
 40
0.0
 40
0.0
 40
0.0
 40
1.0
 40
1.0
 40
1.0
 10
115.1921357829941
 20
279.6660113007214
 30
0.0
 41
1.0
 10
115.1644467873674
 20
279.6319754223816
 30
0.0
 41
0.9427901713498691
 10
115.1253266779094
 20
279.5752053128145
 30
0.0
 41
1.0
  0
ARC
  5
4D90
330
A
100
AcDbEntity
  8
MODEL
100
AcDbCircle
 10
106.6955605620668
 20
466.5336989830295
 30
0.0
 40
187.1484419178562
100
AcDbArc
 50
267.1566699572998
 51
272.5816591759
  0
SPLINE
  5
4D91
330
A
100
AcDbEntity
  8
MODEL
100
AcDbSpline
210
0.0
220
0.0
230
1.0
 70
    12
 71
     2
 72
     6
 73
     3
 74
     0
 42
0.000000001
 43
0.0000000001
 40
0.0
 40
0.0
 40
0.0
 40
1.0
 40
1.0
 40
1.0
 10
97.4244978749299
 20
279.7276986734975
 30
0.0
 41
1.0
 10
97.4175364404815
 20
279.6843782404016
 30
0.0
 41
0.94279017082789
 10
97.41204248667668
 20
279.6156538286115
 30
0.0
 41
1.0
  0
ARC
  5
4D92
330
A
100
AcDbEntity
  8
MODEL
100
AcDbCircle
 10
-3.642380380432996
 20
437.7900361945305
 30
0.0
 40
187.6995780971613
100
AcDbArc
 50
297.1646404964998
 51
302.5736886366
  0
SPLINE
  5
4D93
330
A
100
AcDbEntity
  8
MODEL
100
AcDbSpline
210
0.0
220
0.0
230
1.0
 70
    12
 71
     2
 72
     6
 73
     3
 74
     0
 42
0.000000001
 43
0.0000000001
 40
0.0
 40
0.0
 40
0.0
 40
1.0
 40
1.0
 40
1.0
 10
82.0064283949157
 20
270.8973025513825
 30
0.0
 41
1.0
 10
82.02205983238474
 20
270.8563052385936
 30
0.0
 41
0.9427901713721256
 10
82.05166413471648
 20
270.7940411752206
 30
0.0
 41
1.0
  0
ARC
  5
4D94
330
A
100
AcDbEntity
  8
MODEL
100
AcDbCircle
 10
-84.55131873343294
 20
357.2499178400305
 30
0.0
 40
187.6996870283045
100
AcDbArc
 50
327.1646420671999
 51
332.5736870659
  0
SPLINE
  5
4D95
330
A
100
AcDbEntity
  8
MODEL
100
AcDbSpline
210
0.0
220
0.0
230
1.0
 70
    12
 71
     2
 72
     6
 73
     3
 74
     0
 42
0.000000001
 43
0.0000000001
 40
0.0
 40
0.0
 40
0.0
 40
1.0
 40
1.0
 40
1.0
 10
73.06918660896702
 20
255.5409204441434
 30
0.0
 41
1.0
 10
73.10322248730856
 20
255.5132314485144
 30
0.0
 41
0.9427901709913128
 10
73.15999259687476
 20
255.4741113390584
 30
0.0
 41
1.0
  0
ARC
  5
4D96
330
A
100
AcDbEntity
  8
MODEL
100
AcDbCircle
 10
-114.3502971394329
 20
247.0456052565304
 30
0.0
 40
187.6996229931305
100
AcDbArc
 50
357.1646411438999
 51
2.573687989299876
  0
SPLINE
  5
4D97
330
A
100
AcDbEntity
  8
MODEL
100
AcDbSpline
210
0.0
220
0.0
230
1.0
 70
    12
 71
     2
 72
     6
 73
     3
 74
     0
 42
0.000000001
 43
0.0000000001
 40
0.0
 40
0.0
 40
0.0
 40
1.0
 40
1.0
 40
1.0
 10
73.00749923619128
 20
237.7732825360794
 30
0.0
 41
1.0
 10
73.05081966928618
 20
237.7663211016316
 30
0.0
 41
0.9427901709331554
 10
73.1195440810767
 20
237.7608271478266
 30
0.0
 41
1.0
  0
ARC
  5
4D98
330
A
100
AcDbEntity
  8
MODEL
100
AcDbCircle
 10
-85.05483827093326
 20
136.7064042885301
 30
0.0
 40
187.6995780812064
100
AcDbArc
 50
27.16464049629998
 51
32.57368863689994
  0
SPLINE
  5
4D99
330
A
100
AcDbEntity
  8
MODEL
100
AcDbSpline
210
0.0
220
0.0
230
1.0
 70
    12
 71
     2
 72
     6
 73
     3
 74
     0
 42
0.000000001
 43
0.0000000001
 40
0.0
 40
0.0
 40
0.0
 40
1.0
 40
1.0
 40
1.0
 10
81.8378953583067
 20
222.3552130560644
 30
0.0
 41
1.0
 10
81.87889267109459
 20
222.3708444935332
 30
0.0
 41
0.9427901708937786
 10
81.94115673446765
 20
222.4004487958654
 30
0.0
 41
1.0
  0
SPLINE
  5
4D9A
330
A
100
AcDbEntity
  8
MODEL
100
AcDbSpline
210
0.0
220
0.0
230
1.0
 70
    12
 71
     2
 72
     6
 73
     3
 74
     0
 42
0.000000001
 43
0.0000000001
 40
0.0
 40
0.0
 40
0.0
 40
1.0
 40
1.0
 40
1.0
 10
130.3799848536253
 20
222.1866800194554
 30
0.0
 41
1.0
 10
130.3643534161552
 20
222.2276773322425
 30
0.0
 41
0.9427901709526357
 10
130.3347491138236
 20
222.2899413956156
 30
0.0
 41
1.0
  0
ARC
  5
4D9B
330
A
100
AcDbEntity
  8
MODEL
100
AcDbCircle
 10
296.9377319875662
 20
135.8340647275301
 30
0.0
 40
187.699687034294
100
AcDbArc
 50
147.1646420672998
 51
152.5736870657998
  0
ARC
  5
4D9C
330
A
100
AcDbEntity
  8
MODEL
100
AcDbCircle
 10
326.7367103670674
 20
246.0383773140294
 30
0.0
 40
187.6996229721055
100
AcDbArc
 50
177.1646411436
 51
182.5736879895996
  0
SPLINE
  5
4D9D
330
A
100
AcDbEntity
  8
MODEL
100
AcDbSpline
210
0.0
220
0.0
230
1.0
 70
    12
 71
     2
 72
     6
 73
     3
 74
     0
 42
0.000000001
 43
0.0000000001
 40
0.0
 40
0.0
 40
0.0
 40
1.0
 40
1.0
 40
1.0
 10
139.3789140123498
 20
255.3107000347585
 30
0.0
 41
1.0
 10
139.3355935792541
 20
255.3176614692066
 30
0.0
 41
0.9427901709525393
 10
139.2668691674625
 20
255.3231554230114
 30
0.0
 41
1.0
  0
LINE
  5
4D9E
330
A
100
AcDbEntity
  8
MODEL
100
AcDbLine
 10
68.69198423658077
 20
236.6274993769542
 30
0.0
 11
73.00749923606668
 21
237.7732825360306
 31
0.0
  0
LINE
  5
4D9F
330
A
100
AcDbEntity
  8
MODEL
100
AcDbLine
 10
78.67344131805635
 20
219.2051782333595
 30
0.0
 11
81.83789535806659
 21
222.3552130560294
 31
0.0
  0
LINE
  5
4DA0
330
A
100
AcDbEntity
  8
MODEL
100
AcDbLine
 10
133.6474841570669
 20
218.9042238070305
 30
0.0
 11
130.3799848535671
 21
222.1866800195296
 31
0.0
  0
SPLINE
  5
4DA1
330
A
100
AcDbEntity
  8
MODEL
100
AcDbSpline
210
0.0
220
0.0
230
1.0
 70
    12
 71
     2
 72
     6
 73
     3
 74
     0
 42
0.000000001
 43
0.0000000001
 40
0.0
 40
0.0
 40
0.0
 40
1.0
 40
1.0
 40
1.0
 10
133.6474841571196
 20
218.9042238069796
 30
0.0
 41
1.0
 10
133.6810544220857
 20
218.9283184455605
 30
0.0
 41
0.9789808496497083
 10
133.7053021248655
 20
218.9617783201586
 30
0.0
 41
1.0
  0
LINE
  5
4DA2
330
A
100
AcDbEntity
  8
MODEL
100
AcDbLine
 10
143.7881921495662
 20
236.3341213115295
 30
0.0
 11
139.2264206518416
 21
237.6098712315359
 31
0.0
  0
LINE
  5
4DA3
330
A
100
AcDbEntity
  8
MODEL
100
AcDbLine
 10
143.6944290113657
 20
256.4564831934232
 30
0.0
 11
139.3789140125662
 21
255.3107000345305
 31
0.0
  0
SPLINE
  5
4DA4
330
A
100
AcDbEntity
  8
MODEL
100
AcDbSpline
210
0.0
220
0.0
230
1.0
 70
    12
 71
     2
 72
     6
 73
     3
 74
     0
 42
0.000000001
 43
0.0000000001
 40
0.0
 40
0.0
 40
0.0
 40
1.0
 40
1.0
 40
1.0
 10
133.7099862428294
 20
218.8992541900274
 30
0.0
 41
1.0
 10
133.7286703899226
 20
218.9137779058165
 30
0.0
 41
0.9318364080797753
 10
133.7053021248655
 20
218.9617783201586
 30
0.0
 41
1.0
  0
SPLINE
  5
4DA5
330
A
100
AcDbEntity
  8
MODEL
100
AcDbSpline
210
0.0
220
0.0
230
1.0
 70
    12
 71
     2
 72
     6
 73
     3
 74
     0
 42
0.000000001
 43
0.0000000001
 40
0.0
 40
0.0
 40
0.0
 40
1.0
 40
1.0
 40
1.0
 10
133.6474841571196
 20
218.9042238069805
 30
0.0
 41
1.0
 10
133.6953773480069
 20
218.8806365676685
 30
0.0
 41
0.9318364081156102
 10
133.7099862428294
 20
218.8992541900286
 30
0.0
 41
1.0
  0
LINE
  5
4DA6
330
A
100
AcDbEntity
  8
MODEL
100
AcDbLine
 10
68.75894940912917
 20
256.7064006208909
 30
0.0
 11
73.06918660906626
 21
255.5409204440295
 31
0.0
  0
LINE
  5
4DA7
330
A
100
AcDbEntity
  8
MODEL
100
AcDbLine
 10
78.85639357214109
 20
274.0617565922792
 30
0.0
 11
82.00642839506668
 21
270.8973025515294
 31
0.0
  0
LINE
  5
4DA8
330
A
100
AcDbEntity
  8
MODEL
100
AcDbLine
 10
96.27871471592516
 20
284.0432136732624
 30
0.0
 11
97.42449787506655
 21
279.7276986735304
 31
0.0
  0
LINE
  5
4DA9
330
A
100
AcDbEntity
  8
MODEL
100
AcDbLine
 10
116.3576159598599
 20
283.9762485002145
 30
0.0
 11
115.1921357830668
 21
279.6660113005304
 31
0.0
  0
LINE
  5
4DAA
330
A
100
AcDbEntity
  8
MODEL
100
AcDbLine
 10
133.7129719305644
 20
273.8788043372062
 30
0.0
 11
130.548517890067
 21
270.7287695145304
 31
0.0
  0
ARC
  5
4DAB
330
A
100
AcDbEntity
  8
MODEL
100
AcDbCircle
 10
133.5689949570676
 20
219.0408908600304
 30
0.0
 40
0.199999999994887
100
AcDbArc
 50
314.1643236233621
 51
315.5740057500565
  0
CIRCLE
  5
4DAC
330
A
100
AcDbEntity
  8
MODEL
 48
0.05
100
AcDbCircle
 10
106.1932066240668
 20
246.5419912857803
 30
0.0
 40
32.31219144889855
  0
CIRCLE
  5
4DAD
330
A
100
AcDbEntity
  8
MODEL
 48
0.05
100
AcDbCircle
 10
106.1932066238172
 20
246.5419912857794
 30
0.0
 40
38.78967427482622
  0
LINE
  5
4DAE
330
A
100
AcDbEntity
  8
MODEL
100
AcDbLine
 10
116.3576159598599
 20
209.1077340713462
 30
0.0
 11
115.1921357830668
 21
213.4179712710301
 31
0.0
  0
LINE
  5
4DAF
330
A
100
AcDbEntity
  8
MODEL
100
AcDbLine
 10
96.27871471592516
 20
209.0407688982982
 30
0.0
 11
97.42449787506655
 21
213.3562838980301
 31
0.0
  0
ARC
  5
4DB0
330
A
100
AcDbEntity
  8
MODEL
100
AcDbCircle
 10
-3.642380380432996
 20
55.29394637703007
 30
0.0
 40
187.6995780971613
100
AcDbArc
 50
57.42631136340001
 51
62.8353595035002
  0
ARC
  5
4DB1
330
A
100
AcDbEntity
  8
MODEL
100
AcDbCircle
 10
106.6955605620668
 20
26.55028358853104
 30
0.0
 40
187.1484419178562
100
AcDbArc
 50
87.4183408241001
 51
92.84333004270025
  0
ARC
  5
4DB2
330
A
100
AcDbEntity
  8
MODEL
100
AcDbCircle
 10
216.9011331810668
 20
55.79746592453097
 30
0.0
 40
187.6996870327136
100
AcDbArc
 50
117.4263129341003
 51
122.8353579327002
  0
DIMENSION
  5
4DB3
330
A
100
AcDbEntity
  8
DIM
 48
0.05
100
AcDbDimension
  2
*D7
 10
264.3329688990784
 20
142.132657934809
 30
0.0
 11
315.1215708990784
 21
149.632657934809
 31
0.0
 70
    32
  1
110～75
 71
     5
 42
101.5772039999999
 73
     0
 74
     0
 75
     0
  3
tfrom線あり
100
AcDbAlignedDimension
 13
365.9101728990784
 23
243.0354156041032
 33
0.0
 14
264.3329688990784
 24
172.5419917857802
 34
0.0
100
AcDbRotatedDimension
  0
DIMENSION
  5
4DB4
330
A
100
AcDbEntity
  8
DIM
 48
0.05
100
AcDbDimension
  2
*D8
 10
264.3329688990784
 20
160.8174181796959
 30
0.0
 11
270.8874946888784
 21
160.8174181796959
 31
0.0
 70
   160
 71
     5
 42
13.1090549999999
 73
     0
 74
     0
 75
     0
  3
tfrom線あり
100
AcDbAlignedDimension
 13
277.4420238990783
 23
229.528166434346
 33
0.0
 14
264.3329688990784
 24
172.5419917857802
 34
0.0
100
AcDbRotatedDimension
  0
ARC
  5
4DB8
330
A
100
AcDbEntity
  8
MODEL
 48
25.4
100
AcDbCircle
 10
118.7258106238172
 20
428.0456778626704
 30
0.0
 40
0.4999996643598758
100
AcDbArc
 50
349.7101381358777
 51
90.0
  0
ARC
  5
4DB9
330
A
100
AcDbEntity
  8
MODEL
 48
25.4
100
AcDbCircle
 10
93.66060162381712
 20
428.0456778626704
 30
0.0
 40
0.4999999999999866
100
AcDbArc
 50
90.0
 51
190.2898618641002
  0
ARC
  5
4DBA
330
A
100
AcDbEntity
  8
MODEL
 48
25.4
100
AcDbCircle
 10
119.8396666238172
 20
420.6379388626705
 30
0.0
 40
0.7500003139312674
100
AcDbArc
 50
298.2366541048932
 51
30.97181397640512
  0
ARC
  5
4DBB
330
A
100
AcDbEntity
  8
MODEL
 48
25.4
100
AcDbCircle
 10
92.54674562381717
 20
420.6379388626705
 30
0.0
 40
0.749999506445838
100
AcDbArc
 50
149.0281860236126
 51
241.7633458951153
  0
ARC
  5
4DBC
330
A
100
AcDbEntity
  8
MODEL
 48
25.4
100
AcDbCircle
 10
99.74320662381717
 20
417.4744538626704
 30
0.0
 40
0.2999994613225328
100
AcDbArc
 50
257.2801755101909
 51
270.0
  0
ARC
  5
4DBD
330
A
100
AcDbEntity
  8
MODEL
 48
25.4
100
AcDbCircle
 10
112.6432066238172
 20
417.4744538626704
 30
0.0
 40
0.2999999999998004
100
AcDbArc
 50
270.0
 51
282.7196381905095
  0
LINE
  5
4DBE
330
A
100
AcDbEntity
  8
MODEL
 48
25.4
100
AcDbLine
 10
99.74320662381717
 20
417.1744538626705
 30
0.0
 11
112.6432066238172
 21
417.1744538626705
 31
0.0
  0
LINE
  5
4DBF
330
A
100
AcDbEntity
  8
MODEL
 48
25.4
100
AcDbLine
 10
118.7258106238172
 20
428.5456778626704
 30
0.0
 11
93.66060162381712
 21
428.5456778626704
 31
0.0
  0
ARC
  5
4DC0
330
A
100
AcDbEntity
  8
MODEL
 48
25.4
100
AcDbCircle
 10
106.1932066238172
 20
446.0494348626702
 30
0.0
 40
29.59389094578806
100
AcDbArc
 50
241.7633480697995
 51
257.2802511457998
  0
ARC
  5
4DC1
330
A
100
AcDbEntity
  8
MODEL
 48
25.4
100
AcDbCircle
 10
129.056933623817
 20
426.1700708626702
 30
0.0
 40
10.00000052895364
100
AcDbArc
 50
169.710069966699
 51
210.9718572058996
  0
LINE
  5
4DC2
330
A
100
AcDbEntity
  8
MODEL
 48
25.4
100
AcDbLine
 10
119.509901119217
 20
420.5362944502705
 30
0.0
 11
92.87651112861715
 21
420.5362944502705
 31
0.0
  0
LINE
  5
4DC3
330
A
100
AcDbEntity
  8
MODEL
 48
25.4
100
AcDbLine
 10
112.7092606238172
 20
417.1818168626704
 30
0.0
 11
99.67715162381717
 21
417.1818168626704
 31
0.0
  0
ARC
  5
4DC4
330
A
100
AcDbEntity
  8
MODEL
 48
25.4
100
AcDbCircle
 10
106.1932066238172
 20
446.0494348626702
 30
0.0
 40
29.59389005732086
100
AcDbArc
 50
282.7197469656
 51
298.2366502245003
  0
ARC
  5
4DC5
330
A
100
AcDbEntity
  8
MODEL
 48
25.4
100
AcDbCircle
 10
83.32947962381718
 20
426.1700708626702
 30
0.0
 40
9.999999422864922
100
AcDbArc
 50
329.0281398456002
 51
10.28993105680057
  0
LINE
  5
4DC6
330
A
100
AcDbEntity
  8
MODEL
 48
25.4
100
AcDbLine
 10
112.1932066238172
 20
394.5526468626702
 30
0.0
 11
112.1932066238172
 21
417.1744538626705
 31
0.0
  0
LINE
  5
4DC7
330
A
100
AcDbEntity
  8
MODEL
 48
25.4
100
AcDbLine
 10
100.1932066238172
 20
417.1744538626705
 30
0.0
 11
100.1932066238172
 21
394.5526468626702
 31
0.0
  0
LINE
  5
4DC8
330
A
100
AcDbEntity
  8
MODEL
 48
25.4
100
AcDbLine
 10
78.8672456238171
 20
382.9226748626705
 30
0.0
 11
77.25321062381715
 21
380.6634608626704
 31
0.0
  0
LINE
  5
4DC9
330
A
100
AcDbEntity
  8
MODEL
 48
25.4
100
AcDbLine
 10
105.1142486238172
 20
376.3944378626703
 30
0.0
 11
105.1142486238172
 21
378.3624358626703
 31
0.0
  0
LINE
  5
4DCA
330
A
100
AcDbEntity
  8
MODEL
 48
25.4
100
AcDbLine
 10
128.8543326238172
 20
386.0993378626703
 30
0.0
 11
128.737093623817
 21
387.0142508626703
 31
0.0
  0
LINE
  5
4DCB
330
A
100
AcDbEntity
  8
MODEL
 48
25.4
100
AcDbLine
 10
77.52338662381715
 20
380.6634608626704
 30
0.0
 11
82.52823062381708
 21
382.9226748626705
 31
0.0
  0
LINE
  5
4DCC
330
A
100
AcDbEntity
  8
MODEL
 48
25.4
100
AcDbLine
 10
109.2565396238172
 20
385.3739178626705
 30
0.0
 11
106.1932066238172
 21
383.4938148626703
 31
0.0
  0
LINE
  5
4DCD
330
A
100
AcDbEntity
  8
MODEL
 48
25.4
100
AcDbLine
 10
97.51782762381708
 20
385.3739178626705
 30
0.0
 11
103.1298736238172
 21
385.3739178626705
 31
0.0
  0
LINE
  5
4DCE
330
A
100
AcDbEntity
  8
MODEL
 48
25.4
100
AcDbLine
 10
120.5507526238172
 20
378.3624358626703
 30
0.0
 11
114.4156146238172
 21
380.6634608626704
 31
0.0
  0
LINE
  5
4DCF
330
A
100
AcDbEntity
  8
MODEL
 48
25.4
100
AcDbLine
 10
84.32574462381717
 20
371.2304788626703
 30
0.0
 11
101.9227576238172
 21
368.9684738626705
 31
0.0
  0
LINE
  5
4DD0
330
A
100
AcDbEntity
  8
MODEL
 48
25.4
100
AcDbLine
 10
132.1401636238172
 20
378.3624358626703
 30
0.0
 11
127.648930623817
 21
380.6634608626704
 31
0.0
  0
LINE
  5
4DD1
330
A
100
AcDbEntity
  8
MODEL
 48
25.4
100
AcDbLine
 10
107.2721656238172
 20
376.3944378626703
 30
0.0
 11
113.4347776238171
 21
374.6634608626704
 31
0.0
  0
LINE
  5
4DD2
330
A
100
AcDbEntity
  8
MODEL
 48
25.4
100
AcDbLine
 10
107.2721656238172
 20
376.3944378626703
 30
0.0
 11
105.1142486238172
 21
376.3944378626703
 31
0.0
  0
LINE
  5
4DD3
330
A
100
AcDbEntity
  8
MODEL
 48
25.4
100
AcDbLine
 10
106.1932066238172
 20
383.4938148626703
 30
0.0
 11
103.1298736238172
 21
385.3739178626705
 31
0.0
  0
LINE
  5
4DD4
330
A
100
AcDbEntity
  8
MODEL
 48
25.4
100
AcDbLine
 10
119.4078336238172
 20
383.4938148626703
 30
0.0
 11
114.8685866238171
 21
385.3739178626705
 31
0.0
  0
LINE
  5
4DD5
330
A
100
AcDbEntity
  8
MODEL
 48
25.4
100
AcDbLine
 10
135.1258416238172
 20
374.6634608626704
 30
0.0
 11
134.8703886238172
 21
374.6634608626704
 31
0.0
  0
LINE
  5
4DD6
330
A
100
AcDbEntity
  8
MODEL
 48
25.4
100
AcDbLine
 10
103.1298736238172
 20
385.3739178626705
 30
0.0
 11
109.2565396238172
 21
385.3739178626705
 31
0.0
  0
LINE
  5
4DD7
330
A
100
AcDbEntity
  8
MODEL
 48
25.4
100
AcDbLine
 10
132.1401636238172
 20
376.3944378626703
 30
0.0
 11
132.1401636238172
 21
378.3624358626703
 31
0.0
  0
LINE
  5
4DD8
330
A
100
AcDbEntity
  8
MODEL
 48
25.4
100
AcDbLine
 10
85.47561862381713
 20
380.6634608626704
 30
0.0
 11
84.73748262381719
 21
380.6634608626704
 31
0.0
  0
LINE
  5
4DD9
330
A
100
AcDbEntity
  8
MODEL
 48
25.4
100
AcDbLine
 10
135.1332036238172
 20
380.6634608626704
 30
0.0
 11
134.8630276238172
 21
380.6634608626704
 31
0.0
  0
LINE
  5
4DDA
330
A
100
AcDbEntity
  8
MODEL
 48
25.4
100
AcDbLine
 10
102.4948896238171
 20
368.9684738626705
 30
0.0
 11
101.9227576238172
 21
368.9684738626705
 31
0.0
  0
LINE
  5
4DDB
330
A
100
AcDbEntity
  8
MODEL
 48
25.4
100
AcDbLine
 10
135.1332036238172
 20
380.6634608626704
 30
0.0
 11
133.5191686238172
 21
382.9226748626705
 31
0.0
  0
LINE
  5
4DDC
330
A
100
AcDbEntity
  8
MODEL
 48
25.4
100
AcDbLine
 10
95.25947562381714
 20
371.2304788626703
 30
0.0
 11
104.0579826238172
 21
368.9684738626705
 31
0.0
  0
LINE
  5
4DDD
330
A
100
AcDbEntity
  8
MODEL
 48
25.4
100
AcDbLine
 10
79.16729162381716
 20
378.3624358626703
 30
0.0
 11
77.52338662381715
 21
380.6634608626704
 31
0.0
  0
ARC
  5
4DDE
330
A
100
AcDbEntity
  8
MODEL
 48
25.4
100
AcDbCircle
 10
84.4924266238171
 20
386.9062138626704
 30
0.0
 40
0.8500003193150985
100
AcDbArc
 50
127.2161279074875
 51
172.6978183114988
  0
LINE
  5
4DDF
330
A
100
AcDbEntity
  8
MODEL
 48
25.4
100
AcDbLine
 10
122.4195636238171
 20
378.3624358626703
 30
0.0
 11
120.5507526238172
 21
378.3624358626703
 31
0.0
  0
LINE
  5
4DE0
330
A
100
AcDbEntity
  8
MODEL
 48
25.4
100
AcDbLine
 10
77.52338662381715
 20
380.6634608626704
 30
0.0
 11
77.25321062381715
 21
380.6634608626704
 31
0.0
  0
LINE
  5
4DE1
330
A
100
AcDbEntity
  8
MODEL
 48
25.4
100
AcDbLine
 10
98.95163662381708
 20
374.6634608626704
 30
0.0
 11
97.99827362381711
 21
374.6634608626704
 31
0.0
  0
LINE
  5
4DE2
330
A
100
AcDbEntity
  8
MODEL
 48
25.4
100
AcDbLine
 10
110.4636566238172
 20
368.9684738626705
 30
0.0
 11
128.060669623817
 21
371.2304788626703
 31
0.0
  0
LINE
  5
4DE3
330
A
100
AcDbEntity
  8
MODEL
 48
25.4
100
AcDbLine
 10
127.6288186238172
 20
374.6634608626704
 30
0.0
 11
132.1401636238172
 21
376.3944378626703
 31
0.0
  0
LINE
  5
4DE4
330
A
100
AcDbEntity
  8
MODEL
 48
25.4
100
AcDbLine
 10
129.3613396238172
 20
371.6113648626704
 30
0.0
 11
133.3171186238171
 21
372.7697688626703
 31
0.0
  0
LINE
  5
4DE5
330
A
100
AcDbEntity
  8
MODEL
 48
25.4
100
AcDbLine
 10
85.04034262381708
 20
385.3739178626705
 30
0.0
 11
88.10367562381714
 21
385.3739178626705
 31
0.0
  0
LINE
  5
4DE6
330
A
100
AcDbEntity
  8
MODEL
 48
25.4
100
AcDbLine
 10
89.23620662381711
 20
371.6113648626704
 30
0.0
 11
92.63125162381709
 21
372.7697688626703
 31
0.0
  0
LINE
  5
4DE7
330
A
100
AcDbEntity
  8
MODEL
 48
25.4
100
AcDbLine
 10
99.98207462381708
 20
371.6113648626704
 30
0.0
 11
95.25947562381714
 21
371.2304788626703
 31
0.0
  0
LINE
  5
4DE8
330
A
100
AcDbEntity
  8
MODEL
 48
25.4
100
AcDbLine
 10
125.1309846238172
 20
371.2304788626703
 30
0.0
 11
123.1553336238171
 21
371.6113648626704
 31
0.0
  0
LINE
  5
4DE9
330
A
100
AcDbEntity
  8
MODEL
 48
25.4
100
AcDbLine
 10
119.7573196238171
 20
372.7719468626705
 30
0.0
 11
119.7551626238171
 21
372.7697688626703
 31
0.0
  0
LINE
  5
4DEA
330
A
100
AcDbEntity
  8
MODEL
 48
25.4
100
AcDbLine
 10
77.51602562381709
 20
374.6634608626704
 30
0.0
 11
77.2605726238171
 21
374.6634608626704
 31
0.0
  0
LINE
  5
4DEB
330
A
100
AcDbEntity
  8
MODEL
 48
25.4
100
AcDbLine
 10
134.8703886238172
 20
374.6634608626704
 30
0.0
 11
129.6869386238172
 21
372.7719468626705
 31
0.0
  0
LINE
  5
4DEC
330
A
100
AcDbEntity
  8
MODEL
 48
25.4
100
AcDbLine
 10
117.1269386238172
 20
371.2304788626703
 30
0.0
 11
108.3284316238172
 21
368.9684738626705
 31
0.0
  0
LINE
  5
4DED
330
A
100
AcDbEntity
  8
MODEL
 48
25.4
100
AcDbLine
 10
129.081611623817
 20
383.4938148626703
 30
0.0
 11
129.8581836238172
 21
382.9226748626705
 31
0.0
  0
ARC
  5
4DEE
330
A
100
AcDbEntity
  8
MODEL
 48
25.4
100
AcDbCircle
 10
83.73045962381718
 20
386.0739178626703
 30
0.0
 40
0.2000000182099704
100
AcDbArc
 50
172.6979563154611
 51
270.0
  0
LINE
  5
4DEF
330
A
100
AcDbEntity
  8
MODEL
 48
25.4
100
AcDbLine
 10
127.648930623817
 20
380.6634608626704
 30
0.0
 11
129.8581836238172
 21
382.9226748626705
 31
0.0
  0
LINE
  5
4DF0
330
A
100
AcDbEntity
  8
MODEL
 48
25.4
100
AcDbLine
 10
106.1932066238172
 20
372.7719468626705
 30
0.0
 11
106.1932066238172
 21
372.7697688626703
 31
0.0
  0
LINE
  5
4DF1
330
A
100
AcDbEntity
  8
MODEL
 48
25.4
100
AcDbLine
 10
87.25542862381712
 20
371.2304788626703
 30
0.0
 11
83.02695062381713
 21
371.6113648626704
 31
0.0
  0
LINE
  5
4DF2
330
A
100
AcDbEntity
  8
MODEL
 48
25.4
100
AcDbLine
 10
92.21197862381712
 20
385.3739178626705
 30
0.0
 11
97.51782762381708
 21
385.3739178626705
 31
0.0
  0
LINE
  5
4DF3
330
A
100
AcDbEntity
  8
MODEL
 48
25.4
100
AcDbLine
 10
106.1932066238172
 20
382.9226748626705
 30
0.0
 11
113.407303623817
 21
380.6634608626704
 31
0.0
  0
LINE
  5
4DF4
330
A
100
AcDbEntity
  8
MODEL
 48
25.4
100
AcDbLine
 10
83.30480262381718
 20
383.4938148626703
 30
0.0
 11
82.52823062381708
 21
382.9226748626705
 31
0.0
  0
LINE
  5
4DF5
330
A
100
AcDbEntity
  8
MODEL
 48
25.4
100
AcDbLine
 10
85.45550562381709
 20
374.6634608626704
 30
0.0
 11
84.75759562381711
 21
374.6634608626704
 31
0.0
  0
LINE
  5
4DF6
330
A
100
AcDbEntity
  8
MODEL
 48
25.4
100
AcDbLine
 10
120.5507526238172
 20
376.3944378626703
 30
0.0
 11
120.5507526238172
 21
378.3624358626703
 31
0.0
  0
LINE
  5
4DF7
330
A
100
AcDbEntity
  8
MODEL
 48
25.4
100
AcDbLine
 10
98.97911062381718
 20
380.6634608626704
 30
0.0
 11
106.1932066238172
 21
382.9226748626705
 31
0.0
  0
LINE
  5
4DF8
330
A
100
AcDbEntity
  8
MODEL
 48
25.4
100
AcDbLine
 10
113.407303623817
 20
380.6634608626704
 30
0.0
 11
107.2721656238172
 21
378.3624358626703
 31
0.0
  0
LINE
  5
4DF9
330
A
100
AcDbEntity
  8
MODEL
 48
25.4
100
AcDbLine
 10
79.06498262381717
 20
372.7719468626705
 30
0.0
 11
79.06929562381708
 21
372.7697688626703
 31
0.0
  0
LINE
  5
4DFA
330
A
100
AcDbEntity
  8
MODEL
 48
25.4
100
AcDbLine
 10
136.7771086238172
 20
376.3944378626703
 30
0.0
 11
136.7771086238172
 21
378.3624358626703
 31
0.0
  0
LINE
  5
4DFB
330
A
100
AcDbEntity
  8
MODEL
 48
25.4
100
AcDbLine
 10
133.2191216238172
 20
378.3624358626703
 30
0.0
 11
133.2191216238172
 21
376.3944378626703
 31
0.0
  0
LINE
  5
4DFC
330
A
100
AcDbEntity
  8
MODEL
 48
25.4
100
AcDbLine
 10
88.10367562381714
 20
385.3739178626705
 30
0.0
 11
83.30480262381718
 21
383.4938148626703
 31
0.0
  0
LINE
  5
4DFD
330
A
100
AcDbEntity
  8
MODEL
 48
25.4
100
AcDbLine
 10
129.6869386238172
 20
372.7719468626705
 30
0.0
 11
129.6832036238172
 21
372.7697688626703
 31
0.0
  0
LINE
  5
4DFE
330
A
100
AcDbEntity
  8
MODEL
 48
25.4
100
AcDbLine
 10
125.1309846238172
 20
371.2304788626703
 30
0.0
 11
109.8915246238172
 21
368.9684738626705
 31
0.0
  0
LINE
  5
4DFF
330
A
100
AcDbEntity
  8
MODEL
 48
25.4
100
AcDbLine
 10
133.2191216238172
 20
378.3624358626703
 30
0.0
 11
132.1401636238172
 21
378.3624358626703
 31
0.0
  0
LINE
  5
4E00
330
A
100
AcDbEntity
  8
MODEL
 48
25.4
100
AcDbLine
 10
114.8685866238171
 20
385.3739178626705
 30
0.0
 11
120.1744346238172
 21
385.3739178626705
 31
0.0
  0
LINE
  5
4E01
330
A
100
AcDbEntity
  8
MODEL
 48
25.4
100
AcDbLine
 10
129.3613396238172
 20
371.6113648626704
 30
0.0
 11
129.3594636238172
 21
371.6113648626704
 31
0.0
  0
LINE
  5
4E02
330
A
100
AcDbEntity
  8
MODEL
 48
25.4
100
AcDbLine
 10
119.8561876238172
 20
382.9226748626705
 30
0.0
 11
126.9107956238172
 21
380.6634608626704
 31
0.0
  0
LINE
  5
4E03
330
A
100
AcDbEntity
  8
MODEL
 48
25.4
100
AcDbLine
 10
132.6224596238171
 20
383.4938148626703
 30
0.0
 11
128.8498146238171
 21
385.3739178626705
 31
0.0
  0
LINE
  5
4E04
330
A
100
AcDbEntity
  8
MODEL
 48
25.4
100
AcDbLine
 10
79.06929562381708
 20
372.7697688626703
 30
0.0
 11
83.0250736238171
 21
371.6113648626704
 31
0.0
  0
LINE
  5
4E05
330
A
100
AcDbEntity
  8
MODEL
 48
25.4
100
AcDbLine
 10
133.2191216238172
 20
376.3944378626703
 30
0.0
 11
134.8703886238172
 21
374.6634608626704
 31
0.0
  0
LINE
  5
4E06
330
A
100
AcDbEntity
  8
MODEL
 48
25.4
100
AcDbLine
 10
128.8498146238171
 20
385.3739178626705
 30
0.0
 11
127.3460716238171
 21
385.3739178626705
 31
0.0
  0
LINE
  5
4E07
330
A
100
AcDbEntity
  8
MODEL
 48
25.4
100
AcDbLine
 10
89.9668506238171
 20
378.3624358626703
 30
0.0
 11
85.47561862381713
 21
380.6634608626704
 31
0.0
  0
LINE
  5
4E08
330
A
100
AcDbEntity
  8
MODEL
 48
25.4
100
AcDbLine
 10
120.1744346238172
 20
385.3739178626705
 30
0.0
 11
119.4078336238172
 21
383.4938148626703
 31
0.0
  0
LINE
  5
4E09
330
A
100
AcDbEntity
  8
MODEL
 48
25.4
100
AcDbLine
 10
98.95163662381708
 20
374.6634608626704
 30
0.0
 11
105.1142486238172
 21
376.3944378626703
 31
0.0
  0
LINE
  5
4E0A
330
A
100
AcDbEntity
  8
MODEL
 48
25.4
100
AcDbLine
 10
85.45550562381709
 20
374.6634608626704
 30
0.0
 11
89.9668506238171
 21
376.3944378626703
 31
0.0
  0
LINE
  5
4E0B
330
A
100
AcDbEntity
  8
MODEL
 48
25.4
100
AcDbLine
 10
123.1553336238171
 20
371.6113648626704
 30
0.0
 11
129.6832036238172
 21
372.7697688626703
 31
0.0
  0
LINE
  5
4E0C
330
A
100
AcDbEntity
  8
MODEL
 48
25.4
100
AcDbLine
 10
106.1932066238172
 20
371.2304788626703
 30
0.0
 11
99.98907762381714
 21
371.6113648626704
 31
0.0
  0
LINE
  5
4E0D
330
A
100
AcDbEntity
  8
MODEL
 48
25.4
100
AcDbLine
 10
129.3594636238172
 20
371.6113648626704
 30
0.0
 11
125.1309846238172
 21
371.2304788626703
 31
0.0
  0
LINE
  5
4E0E
330
A
100
AcDbEntity
  8
MODEL
 48
25.4
100
AcDbLine
 10
127.6288186238172
 20
374.6634608626704
 30
0.0
 11
126.9309086238172
 21
374.6634608626704
 31
0.0
  0
LINE
  5
4E0F
330
A
100
AcDbEntity
  8
MODEL
 48
25.4
100
AcDbLine
 10
126.9309086238172
 20
374.6634608626704
 30
0.0
 11
119.7573196238171
 21
372.7719468626705
 31
0.0
  0
LINE
  5
4E10
330
A
100
AcDbEntity
  8
MODEL
 48
25.4
100
AcDbLine
 10
92.97858062381715
 20
383.4938148626703
 30
0.0
 11
92.53022662381716
 21
382.9226748626705
 31
0.0
  0
LINE
  5
4E11
330
A
100
AcDbEntity
  8
MODEL
 48
25.4
100
AcDbLine
 10
80.2462506238171
 20
376.3944378626703
 30
0.0
 11
79.16729162381716
 21
376.3944378626703
 31
0.0
  0
LINE
  5
4E12
330
A
100
AcDbEntity
  8
MODEL
 48
25.4
100
AcDbLine
 10
114.4156146238172
 20
380.6634608626704
 30
0.0
 11
113.407303623817
 21
380.6634608626704
 31
0.0
  0
LINE
  5
4E13
330
A
100
AcDbEntity
  8
MODEL
 48
25.4
100
AcDbLine
 10
75.60930562381714
 20
376.3944378626703
 30
0.0
 11
77.2605726238171
 21
374.6634608626704
 31
0.0
  0
LINE
  5
4E14
330
A
100
AcDbEntity
  8
MODEL
 48
25.4
100
AcDbLine
 10
100.0932066238171
 20
394.5526468626702
 30
0.0
 11
112.2932066238171
 21
394.5526468626702
 31
0.0
  0
LINE
  5
4E15
330
A
100
AcDbEntity
  8
MODEL
 48
25.4
100
AcDbLine
 10
127.648930623817
 20
380.6634608626704
 30
0.0
 11
126.9107956238172
 21
380.6634608626704
 31
0.0
  0
LINE
  5
4E16
330
A
100
AcDbEntity
  8
MODEL
 48
25.4
100
AcDbLine
 10
114.4156146238172
 20
380.6634608626704
 30
0.0
 11
119.8561876238172
 21
382.9226748626705
 31
0.0
  0
LINE
  5
4E17
330
A
100
AcDbEntity
  8
MODEL
 48
25.4
100
AcDbLine
 10
79.76395462381709
 20
383.4938148626703
 30
0.0
 11
78.8672456238171
 21
382.9226748626705
 31
0.0
  0
LINE
  5
4E18
330
A
100
AcDbEntity
  8
MODEL
 48
25.4
100
AcDbLine
 10
88.10367562381714
 20
385.3739178626705
 30
0.0
 11
92.21197862381712
 21
385.3739178626705
 31
0.0
  0
LINE
  5
4E19
330
A
100
AcDbEntity
  8
MODEL
 48
25.4
100
AcDbLine
 10
129.8581836238172
 20
382.9226748626705
 30
0.0
 11
134.8630276238172
 21
380.6634608626704
 31
0.0
  0
LINE
  5
4E1A
330
A
100
AcDbEntity
  8
MODEL
 48
25.4
100
AcDbLine
 10
83.73045962381718
 20
385.8739178626705
 30
0.0
 11
128.655954623817
 21
385.8739178626705
 31
0.0
  0
LINE
  5
4E1B
330
A
100
AcDbEntity
  8
MODEL
 48
25.4
100
AcDbLine
 10
112.4043396238171
 20
371.6113648626704
 30
0.0
 11
119.7551626238171
 21
372.7697688626703
 31
0.0
  0
ARC
  5
4E1C
330
A
100
AcDbEntity
  8
MODEL
 48
25.4
100
AcDbCircle
 10
106.1932066238172
 20
358.3331758626704
 30
0.0
 40
36.72955321699194
100
AcDbArc
 50
99.55990968610014
 51
127.2161083640003
  0
LINE
  5
4E1D
330
A
100
AcDbEntity
  8
MODEL
 48
25.4
100
AcDbLine
 10
83.5365996238171
 20
385.3739178626705
 30
0.0
 11
85.04034262381708
 21
385.3739178626705
 31
0.0
  0
LINE
  5
4E1E
330
A
100
AcDbEntity
  8
MODEL
 48
25.4
100
AcDbLine
 10
129.081611623817
 20
383.4938148626703
 30
0.0
 11
124.2827386238172
 21
385.3739178626705
 31
0.0
  0
LINE
  5
4E1F
330
A
100
AcDbEntity
  8
MODEL
 48
25.4
100
AcDbLine
 10
95.25947562381714
 20
371.2304788626703
 30
0.0
 11
89.23620662381711
 21
371.6113648626704
 31
0.0
  0
LINE
  5
4E20
330
A
100
AcDbEntity
  8
MODEL
 48
25.4
100
AcDbLine
 10
104.0579826238172
 20
368.9684738626705
 30
0.0
 11
102.4948896238171
 21
368.9684738626705
 31
0.0
  0
LINE
  5
4E21
330
A
100
AcDbEntity
  8
MODEL
 48
25.4
100
AcDbLine
 10
99.98907762381714
 20
371.6113648626704
 30
0.0
 11
106.1932066238172
 21
372.7697688626703
 31
0.0
  0
LINE
  5
4E22
330
A
100
AcDbEntity
  8
MODEL
 48
25.4
100
AcDbLine
 10
106.1932066238172
 20
372.7697688626703
 30
0.0
 11
112.3973366238172
 21
371.6113648626704
 31
0.0
  0
LINE
  5
4E23
330
A
100
AcDbEntity
  8
MODEL
 48
25.4
100
AcDbLine
 10
92.62909462381708
 20
372.7719468626705
 30
0.0
 11
92.63125162381709
 21
372.7697688626703
 31
0.0
  0
LINE
  5
4E24
330
A
100
AcDbEntity
  8
MODEL
 48
25.4
100
AcDbLine
 10
106.1932066238172
 20
372.7719468626705
 30
0.0
 11
98.95163662381708
 21
374.6634608626704
 31
0.0
  0
LINE
  5
4E25
330
A
100
AcDbEntity
  8
MODEL
 48
25.4
100
AcDbLine
 10
91.83566162381715
 20
378.3624358626703
 30
0.0
 11
91.83566162381715
 21
376.3944378626703
 31
0.0
  0
LINE
  5
4E26
330
A
100
AcDbEntity
  8
MODEL
 48
25.4
100
AcDbLine
 10
91.83566162381715
 20
376.3944378626703
 30
0.0
 11
97.99827362381711
 21
374.6634608626704
 31
0.0
  0
LINE
  5
4E27
330
A
100
AcDbEntity
  8
MODEL
 48
25.4
100
AcDbLine
 10
83.5365996238171
 20
385.3739178626705
 30
0.0
 11
79.76395462381709
 21
383.4938148626703
 31
0.0
  0
LINE
  5
4E28
330
A
100
AcDbEntity
  8
MODEL
 48
25.4
100
AcDbLine
 10
109.2565396238172
 20
385.3739178626705
 30
0.0
 11
114.8685866238171
 21
385.3739178626705
 31
0.0
  0
LINE
  5
4E29
330
A
100
AcDbEntity
  8
MODEL
 48
25.4
100
AcDbLine
 10
122.4195636238171
 20
376.3944378626703
 30
0.0
 11
126.9309086238172
 21
374.6634608626704
 31
0.0
  0
LINE
  5
4E2A
330
A
100
AcDbEntity
  8
MODEL
 48
25.4
100
AcDbLine
 10
119.4078336238172
 20
383.4938148626703
 30
0.0
 11
119.8561876238172
 21
382.9226748626705
 31
0.0
  0
LINE
  5
4E2B
330
A
100
AcDbEntity
  8
MODEL
 48
25.4
100
AcDbLine
 10
108.3284316238172
 20
368.9684738626705
 30
0.0
 11
106.1932066238172
 21
368.9684738626705
 31
0.0
  0
ARC
  5
4E2C
330
A
100
AcDbEntity
  8
MODEL
 48
25.4
100
AcDbCircle
 10
128.655954623817
 20
386.0739178626703
 30
0.0
 40
0.2000000000000058
100
AcDbArc
 50
270.0
 51
7.302043684619221
  0
LINE
  5
4E2D
330
A
100
AcDbEntity
  8
MODEL
 48
25.4
100
AcDbLine
 10
77.2605726238171
 20
374.6634608626704
 30
0.0
 11
79.06498262381717
 21
372.7719468626705
 31
0.0
  0
LINE
  5
4E2E
330
A
100
AcDbEntity
  8
MODEL
 48
25.4
100
AcDbLine
 10
129.6869386238172
 20
372.7719468626705
 30
0.0
 11
127.6288186238172
 21
374.6634608626704
 31
0.0
  0
LINE
  5
4E2F
330
A
100
AcDbEntity
  8
MODEL
 48
25.4
100
AcDbLine
 10
83.64932062381718
 20
387.0142508626703
 30
0.0
 11
83.53208162381713
 21
386.0993378626703
 31
0.0
  0
LINE
  5
4E30
330
A
100
AcDbEntity
  8
MODEL
 48
25.4
100
AcDbLine
 10
136.7771086238172
 20
378.3624358626703
 30
0.0
 11
135.1332036238172
 21
380.6634608626704
 31
0.0
  0
LINE
  5
4E31
330
A
100
AcDbEntity
  8
MODEL
 48
25.4
100
AcDbLine
 10
83.02695062381713
 20
371.6113648626704
 30
0.0
 11
82.70321062381709
 21
372.7697688626703
 31
0.0
  0
LINE
  5
4E32
330
A
100
AcDbEntity
  8
MODEL
 48
25.4
100
AcDbLine
 10
133.2191216238172
 20
376.3944378626703
 30
0.0
 11
132.1401636238172
 21
376.3944378626703
 31
0.0
  0
ARC
  5
4E33
330
A
100
AcDbEntity
  8
MODEL
 48
25.4
100
AcDbCircle
 10
106.1932066238172
 20
358.3331758626704
 30
0.0
 40
36.72955373289406
100
AcDbArc
 50
52.78389163599997
 51
80.44009031390019
  0
LINE
  5
4E34
330
A
100
AcDbEntity
  8
MODEL
 48
25.4
100
AcDbLine
 10
97.97079962381713
 20
380.6634608626704
 30
0.0
 11
91.83566162381715
 21
378.3624358626703
 31
0.0
  0
LINE
  5
4E35
330
A
100
AcDbEntity
  8
MODEL
 48
25.4
100
AcDbLine
 10
113.4347776238171
 20
374.6634608626704
 30
0.0
 11
106.1932066238172
 21
372.7719468626705
 31
0.0
  0
LINE
  5
4E36
330
A
100
AcDbEntity
  8
MODEL
 48
25.4
100
AcDbLine
 10
107.2721656238172
 20
378.3624358626703
 30
0.0
 11
105.1142486238172
 21
378.3624358626703
 31
0.0
  0
LINE
  5
4E37
330
A
100
AcDbEntity
  8
MODEL
 48
25.4
100
AcDbLine
 10
129.6832036238172
 20
372.7697688626703
 30
0.0
 11
129.3594636238172
 21
371.6113648626704
 31
0.0
  0
LINE
  5
4E38
330
A
100
AcDbEntity
  8
MODEL
 48
25.4
100
AcDbLine
 10
84.75759562381711
 20
374.6634608626704
 30
0.0
 11
82.69947562381708
 21
372.7719468626705
 31
0.0
  0
LINE
  5
4E39
330
A
100
AcDbEntity
  8
MODEL
 48
25.4
100
AcDbLine
 10
82.69947562381708
 20
372.7719468626705
 30
0.0
 11
82.70321062381709
 21
372.7697688626703
 31
0.0
  0
LINE
  5
4E3A
330
A
100
AcDbEntity
  8
MODEL
 48
25.4
100
AcDbLine
 10
110.4636566238172
 20
368.9684738626705
 30
0.0
 11
109.8915246238172
 21
368.9684738626705
 31
0.0
  0
LINE
  5
4E3B
330
A
100
AcDbEntity
  8
MODEL
 48
25.4
100
AcDbLine
 10
92.62909462381708
 20
372.7719468626705
 30
0.0
 11
85.45550562381709
 21
374.6634608626704
 31
0.0
  0
LINE
  5
4E3C
330
A
100
AcDbEntity
  8
MODEL
 48
25.4
100
AcDbLine
 10
128.060669623817
 20
371.2304788626703
 30
0.0
 11
129.3613396238172
 21
371.6113648626704
 31
0.0
  0
LINE
  5
4E3D
330
A
100
AcDbEntity
  8
MODEL
 48
25.4
100
AcDbLine
 10
80.2462506238171
 20
378.3624358626703
 30
0.0
 11
80.2462506238171
 21
376.3944378626703
 31
0.0
  0
LINE
  5
4E3E
330
A
100
AcDbEntity
  8
MODEL
 48
25.4
100
AcDbLine
 10
82.70321062381709
 20
372.7697688626703
 30
0.0
 11
89.2310796238171
 21
371.6113648626704
 31
0.0
  0
LINE
  5
4E3F
330
A
100
AcDbEntity
  8
MODEL
 48
25.4
100
AcDbLine
 10
135.1258416238172
 20
374.6634608626704
 30
0.0
 11
136.7771086238172
 21
376.3944378626703
 31
0.0
  0
LINE
  5
4E40
330
A
100
AcDbEntity
  8
MODEL
 48
25.4
100
AcDbLine
 10
106.1932066238172
 20
371.2304788626703
 30
0.0
 11
106.1932066238172
 21
368.9684738626705
 31
0.0
  0
LINE
  5
4E41
330
A
100
AcDbEntity
  8
MODEL
 48
25.4
100
AcDbLine
 10
77.51602562381709
 20
374.6634608626704
 30
0.0
 11
79.16729162381716
 21
376.3944378626703
 31
0.0
  0
LINE
  5
4E42
330
A
100
AcDbEntity
  8
MODEL
 48
25.4
100
AcDbLine
 10
83.30480262381718
 20
383.4938148626703
 30
0.0
 11
85.04034262381708
 21
385.3739178626705
 31
0.0
  0
LINE
  5
4E43
330
A
100
AcDbEntity
  8
MODEL
 48
25.4
100
AcDbLine
 10
97.99827362381711
 20
374.6634608626704
 30
0.0
 11
92.62909462381708
 21
372.7719468626705
 31
0.0
  0
LINE
  5
4E44
330
A
100
AcDbEntity
  8
MODEL
 48
25.4
100
AcDbLine
 10
75.60930562381714
 20
378.3624358626703
 30
0.0
 11
75.60930562381714
 21
376.3944378626703
 31
0.0
  0
LINE
  5
4E45
330
A
100
AcDbEntity
  8
MODEL
 48
25.4
100
AcDbLine
 10
114.3881406238172
 20
374.6634608626704
 30
0.0
 11
113.4347776238171
 21
374.6634608626704
 31
0.0
  0
LINE
  5
4E46
330
A
100
AcDbEntity
  8
MODEL
 48
25.4
100
AcDbLine
 10
124.2827386238172
 20
385.3739178626705
 30
0.0
 11
127.3460716238171
 21
385.3739178626705
 31
0.0
  0
LINE
  5
4E47
330
A
100
AcDbEntity
  8
MODEL
 48
25.4
100
AcDbLine
 10
83.0250736238171
 20
371.6113648626704
 30
0.0
 11
84.32574462381717
 21
371.2304788626703
 31
0.0
  0
LINE
  5
4E48
330
A
100
AcDbEntity
  8
MODEL
 48
25.4
100
AcDbLine
 10
92.53022662381716
 20
382.9226748626705
 30
0.0
 11
97.97079962381713
 21
380.6634608626704
 31
0.0
  0
LINE
  5
4E49
330
A
100
AcDbEntity
  8
MODEL
 48
25.4
100
AcDbLine
 10
120.1744346238172
 20
385.3739178626705
 30
0.0
 11
124.2827386238172
 21
385.3739178626705
 31
0.0
  0
LINE
  5
4E4A
330
A
100
AcDbEntity
  8
MODEL
 48
25.4
100
AcDbLine
 10
133.321431623817
 20
372.7719468626705
 30
0.0
 11
135.1258416238172
 21
374.6634608626704
 31
0.0
  0
LINE
  5
4E4B
330
A
100
AcDbEntity
  8
MODEL
 48
25.4
100
AcDbLine
 10
82.52823062381708
 20
382.9226748626705
 30
0.0
 11
84.73748262381719
 21
380.6634608626704
 31
0.0
  0
LINE
  5
4E4C
330
A
100
AcDbEntity
  8
MODEL
 48
25.4
100
AcDbLine
 10
119.7573196238171
 20
372.7719468626705
 30
0.0
 11
114.3881406238172
 21
374.6634608626704
 31
0.0
  0
LINE
  5
4E4D
330
A
100
AcDbEntity
  8
MODEL
 48
25.4
100
AcDbLine
 10
89.9668506238171
 20
376.3944378626703
 30
0.0
 11
89.9668506238171
 21
378.3624358626703
 31
0.0
  0
LINE
  5
4E4E
330
A
100
AcDbEntity
  8
MODEL
 48
25.4
100
AcDbLine
 10
85.47561862381713
 20
380.6634608626704
 30
0.0
 11
92.53022662381716
 21
382.9226748626705
 31
0.0
  0
LINE
  5
4E4F
330
A
100
AcDbEntity
  8
MODEL
 48
25.4
100
AcDbLine
 10
123.1502076238172
 20
371.6113648626704
 30
0.0
 11
117.1269386238172
 21
371.2304788626703
 31
0.0
  0
ARC
  5
4E50
330
A
100
AcDbEntity
  8
MODEL
 48
25.4
100
AcDbCircle
 10
127.8939876238171
 20
386.9062138626704
 30
0.0
 40
0.8499998356500774
100
AcDbArc
 50
7.302181688498075
 51
52.78392577260463
  0
LINE
  5
4E51
330
A
100
AcDbEntity
  8
MODEL
 48
25.4
100
AcDbLine
 10
91.83566162381715
 20
378.3624358626703
 30
0.0
 11
89.9668506238171
 21
378.3624358626703
 31
0.0
  0
LINE
  5
4E52
330
A
100
AcDbEntity
  8
MODEL
 48
25.4
100
AcDbLine
 10
112.3973366238172
 20
371.6113648626704
 30
0.0
 11
106.1932066238172
 21
371.2304788626703
 31
0.0
  0
LINE
  5
4E53
330
A
100
AcDbEntity
  8
MODEL
 48
25.4
100
AcDbLine
 10
91.83566162381715
 20
376.3944378626703
 30
0.0
 11
89.9668506238171
 21
376.3944378626703
 31
0.0
  0
LINE
  5
4E54
330
A
100
AcDbEntity
  8
MODEL
 48
25.4
100
AcDbLine
 10
99.98907762381714
 20
371.6113648626704
 30
0.0
 11
99.98207462381708
 21
371.6113648626704
 31
0.0
  0
LINE
  5
4E55
330
A
100
AcDbEntity
  8
MODEL
 48
25.4
100
AcDbLine
 10
107.2721656238172
 20
378.3624358626703
 30
0.0
 11
107.2721656238172
 21
376.3944378626703
 31
0.0
  0
LINE
  5
4E56
330
A
100
AcDbEntity
  8
MODEL
 48
25.4
100
AcDbLine
 10
127.3460716238171
 20
385.3739178626705
 30
0.0
 11
129.081611623817
 21
383.4938148626703
 31
0.0
  0
LINE
  5
4E57
330
A
100
AcDbEntity
  8
MODEL
 48
25.4
100
AcDbLine
 10
89.2310796238171
 20
371.6113648626704
 30
0.0
 11
87.25542862381712
 21
371.2304788626703
 31
0.0
  0
LINE
  5
4E58
330
A
100
AcDbEntity
  8
MODEL
 48
25.4
100
AcDbLine
 10
106.1932066238172
 20
368.9684738626705
 30
0.0
 11
104.0579826238172
 21
368.9684738626705
 31
0.0
  0
LINE
  5
4E59
330
A
100
AcDbEntity
  8
MODEL
 48
25.4
100
AcDbLine
 10
89.23620662381711
 20
371.6113648626704
 30
0.0
 11
89.2310796238171
 21
371.6113648626704
 31
0.0
  0
LINE
  5
4E5A
330
A
100
AcDbEntity
  8
MODEL
 48
25.4
100
AcDbLine
 10
83.02695062381713
 20
371.6113648626704
 30
0.0
 11
83.0250736238171
 21
371.6113648626704
 31
0.0
  0
LINE
  5
4E5B
330
A
100
AcDbEntity
  8
MODEL
 48
25.4
100
AcDbLine
 10
123.1553336238171
 20
371.6113648626704
 30
0.0
 11
123.1502076238172
 21
371.6113648626704
 31
0.0
  0
LINE
  5
4E5C
330
A
100
AcDbEntity
  8
MODEL
 48
25.4
100
AcDbLine
 10
80.2462506238171
 20
378.3624358626703
 30
0.0
 11
79.16729162381716
 21
378.3624358626703
 31
0.0
  0
LINE
  5
4E5D
330
A
100
AcDbEntity
  8
MODEL
 48
25.4
100
AcDbLine
 10
133.5191686238172
 20
382.9226748626705
 30
0.0
 11
132.6224596238171
 21
383.4938148626703
 31
0.0
  0
LINE
  5
4E5E
330
A
100
AcDbEntity
  8
MODEL
 48
25.4
100
AcDbLine
 10
105.1142486238172
 20
378.3624358626703
 30
0.0
 11
98.97911062381718
 21
380.6634608626704
 31
0.0
  0
LINE
  5
4E5F
330
A
100
AcDbEntity
  8
MODEL
 48
25.4
100
AcDbLine
 10
84.73748262381719
 20
380.6634608626704
 30
0.0
 11
80.2462506238171
 21
378.3624358626703
 31
0.0
  0
LINE
  5
4E60
330
A
100
AcDbEntity
  8
MODEL
 48
25.4
100
AcDbLine
 10
98.97911062381718
 20
380.6634608626704
 30
0.0
 11
97.97079962381713
 21
380.6634608626704
 31
0.0
  0
LINE
  5
4E61
330
A
100
AcDbEntity
  8
MODEL
 48
25.4
100
AcDbLine
 10
79.16729162381716
 20
376.3944378626703
 30
0.0
 11
79.16729162381716
 21
378.3624358626703
 31
0.0
  0
LINE
  5
4E62
330
A
100
AcDbEntity
  8
MODEL
 48
25.4
100
AcDbLine
 10
119.7551626238171
 20
372.7697688626703
 30
0.0
 11
123.1502076238172
 21
371.6113648626704
 31
0.0
  0
LINE
  5
4E63
330
A
100
AcDbEntity
  8
MODEL
 48
25.4
100
AcDbLine
 10
77.25321062381715
 20
380.6634608626704
 30
0.0
 11
75.60930562381714
 21
378.3624358626703
 31
0.0
  0
LINE
  5
4E64
330
A
100
AcDbEntity
  8
MODEL
 48
25.4
100
AcDbLine
 10
134.8630276238172
 20
380.6634608626704
 30
0.0
 11
133.2191216238172
 21
378.3624358626703
 31
0.0
  0
LINE
  5
4E65
330
A
100
AcDbEntity
  8
MODEL
 48
25.4
100
AcDbLine
 10
133.3171186238171
 20
372.7697688626703
 30
0.0
 11
133.321431623817
 21
372.7719468626705
 31
0.0
  0
LINE
  5
4E66
330
A
100
AcDbEntity
  8
MODEL
 48
25.4
100
AcDbLine
 10
82.69947562381708
 20
372.7719468626705
 30
0.0
 11
77.51602562381709
 21
374.6634608626704
 31
0.0
  0
LINE
  5
4E67
330
A
100
AcDbEntity
  8
MODEL
 48
25.4
100
AcDbLine
 10
126.9107956238172
 20
380.6634608626704
 30
0.0
 11
122.4195636238171
 21
378.3624358626703
 31
0.0
  0
LINE
  5
4E68
330
A
100
AcDbEntity
  8
MODEL
 48
25.4
100
AcDbLine
 10
109.8915246238172
 20
368.9684738626705
 30
0.0
 11
108.3284316238172
 21
368.9684738626705
 31
0.0
  0
LINE
  5
4E69
330
A
100
AcDbEntity
  8
MODEL
 48
25.4
100
AcDbLine
 10
87.25542862381712
 20
371.2304788626703
 30
0.0
 11
102.4948896238171
 21
368.9684738626705
 31
0.0
  0
LINE
  5
4E6A
330
A
100
AcDbEntity
  8
MODEL
 48
25.4
100
AcDbLine
 10
92.63125162381709
 20
372.7697688626703
 30
0.0
 11
99.98207462381708
 21
371.6113648626704
 31
0.0
  0
LINE
  5
4E6B
330
A
100
AcDbEntity
  8
MODEL
 48
25.4
100
AcDbLine
 10
112.4043396238171
 20
371.6113648626704
 30
0.0
 11
112.3973366238172
 21
371.6113648626704
 31
0.0
  0
LINE
  5
4E6C
330
A
100
AcDbEntity
  8
MODEL
 48
25.4
100
AcDbLine
 10
122.4195636238171
 20
378.3624358626703
 30
0.0
 11
122.4195636238171
 21
376.3944378626703
 31
0.0
  0
LINE
  5
4E6D
330
A
100
AcDbEntity
  8
MODEL
 48
25.4
100
AcDbLine
 10
117.1269386238172
 20
371.2304788626703
 30
0.0
 11
112.4043396238171
 21
371.6113648626704
 31
0.0
  0
LINE
  5
4E6E
330
A
100
AcDbEntity
  8
MODEL
 48
25.4
100
AcDbLine
 10
92.97858062381715
 20
383.4938148626703
 30
0.0
 11
92.21197862381712
 21
385.3739178626705
 31
0.0
  0
LINE
  5
4E6F
330
A
100
AcDbEntity
  8
MODEL
 48
25.4
100
AcDbLine
 10
122.4195636238171
 20
376.3944378626703
 30
0.0
 11
120.5507526238172
 21
376.3944378626703
 31
0.0
  0
LINE
  5
4E70
330
A
100
AcDbEntity
  8
MODEL
 48
25.4
100
AcDbLine
 10
97.51782762381708
 20
385.3739178626705
 30
0.0
 11
92.97858062381715
 21
383.4938148626703
 31
0.0
  0
LINE
  5
4E71
330
A
100
AcDbEntity
  8
MODEL
 48
25.4
100
AcDbLine
 10
106.1932066238172
 20
383.4938148626703
 30
0.0
 11
106.1932066238172
 21
382.9226748626705
 31
0.0
  0
LINE
  5
4E72
330
A
100
AcDbEntity
  8
MODEL
 48
25.4
100
AcDbLine
 10
114.3881406238172
 20
374.6634608626704
 30
0.0
 11
120.5507526238172
 21
376.3944378626703
 31
0.0
  0
LINE
  5
4E73
330
A
100
AcDbEntity
  8
MODEL
 48
25.4
100
AcDbLine
 10
80.2462506238171
 20
376.3944378626703
 30
0.0
 11
84.75759562381711
 21
374.6634608626704
 31
0.0
  0
LINE
  5
4E74
330
A
100
AcDbEntity
  8
MODEL
 48
25.4
100
AcDbLine
 10
93.1932066238171
 20
457.4366228626703
 30
0.0
 11
93.1932066238171
 21
429.0456778626704
 31
0.0
  0
ARC
  5
4E75
330
A
100
AcDbEntity
  8
MODEL
 48
25.4
100
AcDbCircle
 10
118.6932066238172
 20
429.0456778626704
 30
0.0
 40
0.5000000000000004
100
AcDbArc
 50
270.0
 51
0.0
  0
ARC
  5
4E76
330
A
100
AcDbEntity
  8
MODEL
 48
25.4
100
AcDbCircle
 10
93.6932066238171
 20
429.0456778626704
 30
0.0
 40
0.5000000000000004
100
AcDbArc
 50
180.0
 51
270.0
  0
LINE
  5
4E77
330
A
100
AcDbEntity
  8
MODEL
 48
25.4
100
AcDbLine
 10
119.1932066238172
 20
429.0456778626704
 30
0.0
 11
119.1932066238172
 21
457.4366228626703
 31
0.0
  0
ELLIPSE
  5
4E78
330
A
100
AcDbEntity
  8
MODEL
 48
25.4
100
AcDbEllipse
 10
138.952559623817
 20
462.0326978626704
 30
0.0
 11
-0.394005499999933
 21
0.3078305000000642
 31
0.0
210
0.0
220
0.0
230
1.0
 40
0.1627661208
 41
2.730808575261783
 42
3.141592653589793
  0
LINE
  5
4E79
330
A
100
AcDbEntity
  8
MODEL
 48
25.4
100
AcDbLine
 10
82.01469262381715
 20
461.7248668626702
 30
0.0
 11
78.72088862381713
 21
467.4838608626704
 31
0.0
  0
ARC
  5
4E7A
330
A
100
AcDbEntity
  8
MODEL
 48
25.4
100
AcDbCircle
 10
106.1914086238173
 20
563.8389058626703
 30
0.0
 40
107.8072767680488
100
AcDbArc
 50
279.2602685742999
 51
287.567502199
  0
ARC
  5
4E7B
330
A
100
AcDbEntity
  8
MODEL
 48
25.4
100
AcDbCircle
 10
89.7372036238171
 20
519.0595638626703
 30
0.0
 40
58.00620316834064
100
AcDbArc
 50
262.4343123758001
 51
277.5656886033
  0
ARC
  5
4E7C
330
A
100
AcDbEntity
  8
MODEL
 48
25.4
100
AcDbCircle
 10
106.1932066238172
 20
435.5102318626703
 30
0.0
 40
33.84431650384848
100
AcDbArc
 50
72.61425653699995
 51
107.3857450786002
  0
ELLIPSE
  5
4E7D
330
A
100
AcDbEntity
  8
MODEL
 48
25.4
100
AcDbEllipse
 10
73.43385262381719
 20
462.0326978626704
 30
0.0
 11
-0.3940054999998778
 21
-0.3078305000001474
 31
0.0
210
0.0
220
0.0
230
1.0
 40
0.1627661208
 41
0.0
 42
0.410784078327974
  0
ARC
  5
4E7E
330
A
100
AcDbEntity
  8
MODEL
 48
25.4
100
AcDbCircle
 10
143.4951936238172
 20
467.7541058626703
 30
0.0
 40
0.4428167631266314
100
AcDbArc
 50
322.3897934462053
 51
7.037710885208622
  0
SPLINE
  5
4E7F
330
A
100
AcDbEntity
  8
MODEL
 48
25.4
100
AcDbSpline
210
0.0
220
0.0
230
1.0
 70
     8
 71
     3
 72
    26
 73
    22
 74
     0
 42
0.000000001
 43
0.0000000001
 40
0.0
 40
0.0
 40
0.0
 40
0.0
 40
0.019589
 40
0.019589
 40
0.106213
 40
0.106213
 40
0.214495
 40
0.214495
 40
0.322776
 40
0.322776
 40
0.501566
 40
0.501566
 40
0.680357
 40
0.680357
 40
0.782766
 40
0.782766
 40
0.885175
 40
0.885175
 40
0.967102
 40
0.967102
 40
1.0
 40
1.0
 40
1.0
 40
1.0
 10
143.9346736238978
 20
467.8083608627302
 30
0.0
 10
143.8998876238977
 20
467.8515518627303
 30
0.0
 10
143.8641476238976
 20
467.8935708627304
 30
0.0
 10
143.6656236238978
 20
468.1152828627302
 30
0.0
 10
143.4851336238978
 20
468.2757118627306
 30
0.0
 10
143.0445496238976
 20
468.5956778627306
 30
0.0
 10
142.7758066238978
 20
468.7449578627301
 30
0.0
 10
142.2003586238977
 20
468.9921498627303
 30
0.0
 10
141.8940886238978
 20
469.0899828627304
 30
0.0
 10
141.0373616238978
 20
469.2875528627306
 30
0.0
 10
140.4589636238977
 20
469.3469368627305
 30
0.0
 10
139.2262286238978
 20
469.3448118627303
 30
0.0
 10
138.5713946238977
 20
469.2832998627303
 30
0.0
 10
137.4846906238978
 20
469.0862508627304
 30
0.0
 10
137.0775176238976
 20
468.9935968627304
 30
0.0
 10
136.2372116238978
 20
468.7622888627301
 30
0.0
 10
135.8045486238976
 20
468.6237018627306
 30
0.0
 10
135.0048806238976
 20
468.3288058627305
 30
0.0
 10
134.6420396238976
 20
468.1815858627306
 30
0.0
 10
134.1233626238977
 20
467.9501658627303
 30
0.0
 10
133.9733746238978
 20
467.8808938627304
 30
0.0
 10
133.8218776238978
 20
467.8083608627302
 30
0.0
  0
SPLINE
  5
4E80
330
A
100
AcDbEntity
  8
MODEL
 48
25.4
100
AcDbSpline
210
0.0
220
0.0
230
1.0
 70
     8
 71
     3
 72
    18
 73
    14
 74
     0
 42
0.000000001
 43
0.0000000001
 40
0.0
 40
0.0
 40
0.0
 40
0.0
 40
0.0031000992031744
 40
0.0031000992031744
 40
0.3606935421933502
 40
0.3606935421933502
 40
0.5655180965790905
 40
0.5655180965790905
 40
0.770342650964831
 40
0.770342650964831
 40
0.9342018944606229
 40
0.9342018944606229
 40
1.0
 40
1.0
 40
1.0
 40
1.0
 10
145.0667676238977
 20
469.3458888627304
 30
0.0
 10
145.0667676238977
 20
469.3458888627304
 30
0.0
 10
145.0667646238978
 20
469.3458838627303
 30
0.0
 10
145.0659806238978
 20
469.3448118627303
 30
0.0
 10
145.0210446238978
 20
469.2832998627303
 30
0.0
 10
144.8767026238978
 20
469.0862508627304
 30
0.0
 10
144.8087836238976
 20
468.9935968627304
 30
0.0
 10
144.6389066238976
 20
468.7622888627301
 30
0.0
 10
144.5369986238977
 20
468.6237018627306
 30
0.0
 10
144.3196216238978
 20
468.3288058627305
 30
0.0
 10
144.2109416238977
 20
468.1815858627306
 30
0.0
 10
144.0397206238978
 20
467.9501658627303
 30
0.0
 10
143.9884296238978
 20
467.8808938627304
 30
0.0
 10
143.9346736238978
 20
467.8083608627302
 30
0.0
  0
ELLIPSE
  5
4E81
330
A
100
AcDbEntity
  8
MODEL
 48
25.4
100
AcDbEllipse
 10
73.43385262381719
 20
462.0326978626704
 30
0.0
 11
-0.09772999999976842
 21
-0.4903559999999559
 31
0.0
210
0.0
220
0.0
230
1.0
 40
0.8123961370000007
 41
5.541270389903245
 42
6.142427748605811
  0
LINE
  5
4E82
330
A
100
AcDbEntity
  8
MODEL
 48
25.4
100
AcDbLine
 10
97.41536362381714
 20
461.7248668626702
 30
0.0
 11
96.20974762381718
 21
467.4838608626704
 31
0.0
  0
ARC
  5
4E83
330
A
100
AcDbEntity
  8
MODEL
 48
25.4
100
AcDbCircle
 10
77.69057462381716
 20
480.6354788626701
 30
0.0
 40
19.58009663462699
100
AcDbArc
 50
256.9855553478997
 51
283.014441801
  0
LINE
  5
4E84
330
A
100
AcDbEntity
  8
MODEL
 48
25.4
100
AcDbLine
 10
73.03984762381708
 20
461.7248668626702
 30
0.0
 11
73.32970662381717
 21
461.3538638626704
 31
0.0
  0
ELLIPSE
  5
4E85
330
A
100
AcDbEntity
  8
MODEL
 48
25.4
100
AcDbEllipse
 10
73.43385262381719
 20
462.0326978626704
 30
0.0
 11
-0.3940054999991007
 21
-0.3078305000010911
 31
0.0
210
0.0
220
0.0
230
1.0
 40
0.9894850765000001
 41
0.0
 42
0.6011601317188905
  0
LINE
  5
4E86
330
A
100
AcDbEntity
  8
MODEL
 48
25.4
100
AcDbLine
 10
68.5404276238171
 20
467.4838608626704
 30
0.0
 11
73.03984762381708
 21
461.7248668626702
 31
0.0
  0
ELLIPSE
  5
4E87
330
A
100
AcDbEntity
  8
MODEL
 48
25.4
100
AcDbEllipse
 10
143.4519786238172
 20
467.7916918626705
 30
0.0
 11
-0.394005499999933
 21
0.3078305000000642
 31
0.0
210
0.0
220
0.0
230
1.0
 40
0.1627661208
 41
2.730808575261783
 42
3.141592653589793
  0
ARC
  5
4E88
330
A
100
AcDbEntity
  8
MODEL
 48
25.4
100
AcDbCircle
 10
87.32247262381713
 20
443.8649528626705
 30
0.0
 40
25.49486741809634
100
AcDbArc
 50
69.90866361779987
 51
110.0913363822001
  0
LINE
  5
4E89
330
A
100
AcDbEntity
  8
MODEL
 48
25.4
100
AcDbLine
 10
139.3465646238171
 20
461.7248668626702
 30
0.0
 11
139.0081156238172
 21
461.2916718626703
 31
0.0
  0
LINE
  5
4E8A
330
A
100
AcDbEntity
  8
MODEL
 48
25.4
100
AcDbLine
 10
123.5396966238171
 20
457.4366228626703
 30
0.0
 11
88.84671562381709
 21
457.4366228626703
 31
0.0
  0
ARC
  5
4E8B
330
A
100
AcDbEntity
  8
MODEL
 48
25.4
100
AcDbCircle
 10
134.6958376238172
 20
480.4125018626702
 30
0.0
 40
19.36291205474953
100
AcDbArc
 50
256.8369733838001
 51
283.1630294975002
  0
SPLINE
  5
4E8C
330
A
100
AcDbEntity
  8
MODEL
 48
25.4
100
AcDbSpline
210
0.0
220
0.0
230
1.0
 70
     8
 71
     3
 72
    19
 73
    15
 74
     0
 42
0.000000001
 43
0.0000000001
 40
0.0
 40
0.0
 40
0.0
 40
0.0
 40
0.000923
 40
0.001984
 40
0.004836
 40
0.014243
 40
0.048722
 40
0.103264
 40
0.176311
 40
0.29961
 40
0.448842
 40
0.62
 40
0.909047
 40
1.0
 40
1.0
 40
1.0
 40
1.0
 10
67.31964462389772
 20
469.3458888627305
 30
0.0
 10
67.31923762389772
 20
469.3440808627304
 30
0.0
 10
67.31848362389769
 20
469.3407298627304
 30
0.0
 10
67.31689862389771
 20
469.3332138627302
 30
0.0
 10
67.31417662389777
 20
469.3190398627306
 30
0.0
 10
67.30992862389758
 20
469.2907978627302
 30
0.0
 10
67.30792462389752
 20
469.2581438627307
 30
0.0
 10
67.30969162389772
 20
469.2172308627303
 30
0.0
 10
67.31942062389771
 20
469.1651908627303
 30
0.0
 10
67.34301462389772
 20
469.0985038627305
 30
0.0
 10
67.38811962389752
 20
469.0102488627305
 30
0.0
 10
67.47300262389774
 20
468.8752738627302
 30
0.0
 10
67.5716306238977
 20
468.7356328627305
 30
0.0
 10
67.66290262389748
 20
468.6159768627306
 30
0.0
 10
67.6886166238977
 20
468.5823518627307
 30
0.0
  0
ARC
  5
4E8D
330
A
100
AcDbEntity
  8
MODEL
 48
25.4
100
AcDbCircle
 10
75.24132962381714
 20
467.5374748626703
 30
0.0
 40
8.1254812849655
100
AcDbArc
 50
158.2709103709995
 51
167.1403600639005
  0
ARC
  5
4E8E
330
A
100
AcDbEntity
  8
MODEL
 48
25.4
100
AcDbCircle
 10
138.5267796238172
 20
461.5759358626704
 30
0.0
 40
0.554155669415171
100
AcDbArc
 50
289.3614223077801
 51
325.7998072809848
  0
SPLINE
  5
4E8F
330
A
100
AcDbEntity
  8
MODEL
 48
25.4
100
AcDbSpline
210
0.0
220
0.0
230
1.0
 70
     8
 71
     3
 72
    19
 73
    15
 74
     0
 42
0.000000001
 43
0.0000000001
 40
0.0
 40
0.0
 40
0.0
 40
0.0
 40
0.113399
 40
0.395477
 40
0.562431
 40
0.707951
 40
0.828151
 40
0.899347
 40
0.952501
 40
0.986101
 40
0.995274
 40
0.998058
 40
0.999096
 40
1.0
 40
1.0
 40
1.0
 40
1.0
 10
144.6787156238976
 20
468.5568458627305
 30
0.0
 10
144.7117386238978
 20
468.5999438627303
 30
0.0
 10
144.8092026238978
 20
468.7275478627303
 30
0.0
 10
144.9133626238978
 20
468.8744738627303
 30
0.0
 10
144.9981246238978
 20
469.0092828627302
 30
0.0
 10
145.0433226238978
 20
469.0976698627306
 30
0.0
 10
145.0669616238978
 20
469.1645128627304
 30
0.0
 10
145.0767276238978
 20
469.2167378627304
 30
0.0
 10
145.0785106238977
 20
469.2578188627306
 30
0.0
 10
145.0765086238978
 20
469.2906098627303
 30
0.0
 10
145.0722506238977
 20
469.3189618627305
 30
0.0
 10
145.0695206238976
 20
469.3331818627304
 30
0.0
 10
145.0679306238978
 20
469.3407178627304
 30
0.0
 10
145.0671766238976
 20
469.3440758627306
 30
0.0
 10
145.0667676238977
 20
469.3458888627304
 30
0.0
  0
LINE
  5
4E90
330
A
100
AcDbEntity
  8
MODEL
 48
25.4
100
AcDbLine
 10
139.3465646238171
 20
461.7248668626702
 30
0.0
 11
143.8459846238172
 21
467.4838608626704
 31
0.0
  0
ELLIPSE
  5
4E91
330
A
100
AcDbEntity
  8
MODEL
 48
25.4
100
AcDbEllipse
 10
138.952559623817
 20
462.0326978626704
 30
0.0
 11
0.09772999999982374
 21
-0.4903559999999698
 31
0.0
210
0.0
220
0.0
230
1.0
 40
0.812396137
 41
0.1407575585734031
 42
0.7419149172762287
  0
LINE
  5
4E92
330
A
100
AcDbEntity
  8
MODEL
 48
25.4
100
AcDbLine
 10
143.7931976238172
 20
467.4838608626704
 30
0.0
 11
139.2937776238172
 21
461.7248668626702
 31
0.0
  0
ARC
  5
4E93
330
A
100
AcDbEntity
  8
MODEL
 48
25.4
100
AcDbCircle
 10
122.6492086238172
 20
518.8328798626703
 30
0.0
 40
57.78150039122494
100
AcDbArc
 50
262.4047164387998
 51
277.5952825782999
  0
LINE
  5
4E94
330
A
100
AcDbEntity
  8
MODEL
 48
25.4
100
AcDbLine
 10
115.1301294598172
 20
461.8386303550704
 30
0.0
 11
116.3357454598172
 21
467.5976243550704
 31
0.0
  0
ARC
  5
4E95
330
A
100
AcDbEntity
  8
MODEL
 48
25.4
100
AcDbCircle
 10
125.0639396238172
 20
443.8632958626702
 30
0.0
 40
25.49642358971296
100
AcDbArc
 50
69.90994274870006
 51
110.0900572513
  0
LINE
  5
4E96
330
A
100
AcDbEntity
  8
MODEL
 48
25.4
100
AcDbLine
 10
130.5159356238172
 20
461.7248668626702
 30
0.0
 11
133.8097396238172
 21
467.4838608626704
 31
0.0
  0
ARC
  5
4E97
330
A
100
AcDbEntity
  8
MODEL
 48
25.4
100
AcDbCircle
 10
106.1932066238173
 20
538.2623818626704
 30
0.0
 40
77.2093378846997
100
AcDbArc
 50
263.4414409606998
 51
276.5585583020998
  0
LINE
  5
4E98
330
A
100
AcDbEntity
  8
MODEL
 48
25.4
100
AcDbLine
 10
143.8459846238172
 20
467.4838608626704
 30
0.0
 11
144.6524236238172
 21
468.5160558626704
 31
0.0
  0
ARC
  5
4E99
330
A
100
AcDbEntity
  8
MODEL
 48
25.4
100
AcDbCircle
 10
138.9596766238171
 20
462.0274048626703
 30
0.0
 40
0.491132874873078
100
AcDbArc
 50
287.2368912524963
 51
321.9753659237207
  0
SPLINE
  5
4E9A
330
A
100
AcDbEntity
  8
MODEL
 48
25.4
100
AcDbSpline
210
0.0
220
0.0
230
1.0
 70
     8
 71
     3
 72
    20
 73
    16
 74
     0
 42
0.000000001
 43
0.0000000001
 40
0.0
 40
0.0
 40
0.0
 40
0.0
 40
0.098118
 40
0.392077
 40
0.563213
 40
0.710674
 40
0.831195
 40
0.901948
 40
0.954361
 40
0.987144
 40
0.995886
 40
0.998405
 40
0.999279
 40
0.99965
 40
1.0
 40
1.0
 40
1.0
 40
1.0
 10
73.36073562389777
 20
461.3186888627304
 30
0.0
 10
73.37118762389775
 20
461.3057148627302
 30
0.0
 10
73.4068256238977
 20
461.2616298627302
 30
0.0
 10
73.45468462389772
 20
461.2072148627304
 30
0.0
 10
73.50476562389758
 20
461.1561488627306
 30
0.0
 10
73.54174262389779
 20
461.1236438627303
 30
0.0
 10
73.57349362389778
 20
461.1005328627305
 30
0.0
 10
73.60116062389773
 20
461.0840758627306
 30
0.0
 10
73.62440662389758
 20
461.0725748627306
 30
0.0
 10
73.64393062389775
 20
461.0642858627303
 30
0.0
 10
73.66093762389778
 20
461.0580718627303
 30
0.0
 10
73.66972462389776
 20
461.0551118627301
 30
0.0
 10
73.67394662389768
 20
461.0537438627303
 30
0.0
 10
73.67614162389748
 20
461.0530478627305
 30
0.0
 10
73.67711162389753
 20
461.0527408627302
 30
0.0
 10
73.67766462389773
 20
461.0525658627303
 30
0.0
  0
ARC
  5
4E9B
330
A
100
AcDbEntity
  8
MODEL
 48
25.4
100
AcDbCircle
 10
137.1450826238172
 20
467.5374748626703
 30
0.0
 40
8.125482405073612
100
AcDbArc
 50
12.86036191320007
 51
21.72908701840087
  0
ARC
  5
4E9C
330
A
100
AcDbEntity
  8
MODEL
 48
25.4
100
AcDbCircle
 10
106.1950036238172
 20
563.8389058626703
 30
0.0
 40
107.8072768153095
100
AcDbArc
 50
252.4325808353998
 51
260.7397314256999
  0
ELLIPSE
  5
4E9D
330
A
100
AcDbEntity
  8
MODEL
 48
25.4
100
AcDbEllipse
 10
68.93443362381709
 20
467.7916918626705
 30
0.0
 11
-0.3940054999998778
 21
-0.3078305000001474
 31
0.0
210
0.0
220
0.0
230
1.0
 40
0.1627661208
 41
0.0
 42
0.410784078327974
  0
ELLIPSE
  5
4E9E
330
A
100
AcDbEntity
  8
MODEL
 48
25.4
100
AcDbEllipse
 10
68.93443362381709
 20
467.7916918626705
 30
0.0
 11
0.3940054999998777
 21
0.3078305000001058
 31
0.0
210
0.0
220
0.0
230
1.0
 40
0.9230335141999999
 41
2.404181931357955
 42
3.141592653589793
  0
ARC
  5
4E9F
330
A
100
AcDbEntity
  8
MODEL
 48
25.4
100
AcDbCircle
 10
68.96949662381712
 20
467.8410028626703
 30
0.0
 40
0.5187859353606472
100
AcDbArc
 50
183.607432159792
 51
223.5051043205848
  0
SPLINE
  5
4EA0
330
A
100
AcDbEntity
  8
MODEL
 48
25.4
100
AcDbSpline
210
0.0
220
0.0
230
1.0
 70
     8
 71
     3
 72
    26
 73
    22
 74
     0
 42
0.000000001
 43
0.0000000001
 40
0.0
 40
0.0
 40
0.0
 40
0.0
 40
0.019589
 40
0.019589
 40
0.106213
 40
0.106213
 40
0.214495
 40
0.214495
 40
0.322776
 40
0.322776
 40
0.501566
 40
0.501566
 40
0.680357
 40
0.680357
 40
0.782766
 40
0.782766
 40
0.885175
 40
0.885175
 40
0.967102
 40
0.967102
 40
1.0
 40
1.0
 40
1.0
 40
1.0
 10
78.56453462389777
 20
467.8083608627302
 30
0.0
 10
78.47430562389752
 20
467.8515518627303
 30
0.0
 10
78.38465662389774
 20
467.8935708627304
 30
0.0
 10
77.90182162389772
 20
468.1152828627302
 30
0.0
 10
77.51610762389771
 20
468.2757118627306
 30
0.0
 10
76.66686162389772
 20
468.5956778627306
 30
0.0
 10
76.20795962389775
 20
468.7449578627301
 30
0.0
 10
75.31804362389778
 20
468.9921498627303
 30
0.0
 10
74.88756662389778
 20
469.0899828627304
 30
0.0
 10
73.78018562389775
 20
469.2875528627306
 30
0.0
 10
73.12665162389771
 20
469.3469368627305
 30
0.0
 10
71.8966076238977
 20
469.3448118627303
 30
0.0
 10
71.31960562389759
 20
469.2832998627304
 30
0.0
 10
70.48290862389774
 20
469.0862508627305
 30
0.0
 10
70.19337462389774
 20
468.9935968627304
 30
0.0
 10
69.64730462389775
 20
468.7622888627303
 30
0.0
 10
69.39115162389771
 20
468.6237018627306
 30
0.0
 10
68.96799162389777
 20
468.3288058627305
 30
0.0
 10
68.79339062389772
 20
468.1815858627306
 30
0.0
 10
68.57127662389757
 20
467.9501658627303
 30
0.0
 10
68.51012762389769
 20
467.8808938627304
 30
0.0
 10
68.45173862389777
 20
467.8083608627304
 30
0.0
  0
LINE
  5
4EA1
330
A
100
AcDbEntity
  8
MODEL
 48
25.4
100
AcDbLine
 10
68.5404276238171
 20
467.4838608626704
 30
0.0
 11
67.7189216238171
 21
468.5353418626704
 31
0.0
  0
LINE
  5
4EA2
330
A
100
AcDbEntity
  8
MODEL
 48
25.4
100
AcDbLine
 10
73.09263462381716
 20
461.7248668626702
 30
0.0
 11
68.59321462381718
 21
467.4838608626704
 31
0.0
  0
ARC
  5
4EA3
330
A
100
AcDbEntity
  8
MODEL
 48
25.4
100
AcDbCircle
 10
307.9197056244172
 20
645.3162008630704
 30
0.0
 40
298.083780268239
100
AcDbArc
 50
216.181028172
 51
216.5480325750999
  0
LINE
  5
4EA4
330
A
100
AcDbEntity
  8
MODEL
 48
25.4
100
AcDbLine
 10
139.1052106238171
 20
461.5583298626703
 30
0.0
 11
138.7104966238171
 21
461.0531198626701
 31
0.0
  0
ELLIPSE
  5
4EA5
330
A
100
AcDbEntity
  8
MODEL
 48
25.4
100
AcDbEllipse
 10
143.4519786238172
 20
467.7916918626705
 30
0.0
 11
0.3817740000001957
 21
0.3228759999997499
 31
0.0
210
0.0
220
0.0
230
1.0
 40
0.917798973
 41
4.836215174195714
 42
5.573624371753128
  0
LINE
  5
4EA6
330
A
100
AcDbEntity
  8
MODEL
 48
25.4
100
AcDbLine
 10
118.7258106238172
 20
428.5456778626704
 30
0.0
 11
93.66060162381712
 21
428.5456778626704
 31
0.0
  0
LINE
  5
4EA7
330
A
100
AcDbEntity
  8
MODEL
 48
25.4
100
AcDbLine
 10
128.655954623817
 20
385.3739178626705
 30
0.0
 11
128.655954623817
 21
385.8739178626705
 31
0.0
  0
LINE
  5
4EA8
330
A
100
AcDbEntity
  8
MODEL
 48
25.4
100
AcDbLine
 10
83.73045962381718
 20
385.3739178444703
 30
0.0
 11
83.73045962381718
 21
385.8739178444703
 31
0.0
  0
LINE
  5
4EA9
330
A
100
AcDbEntity
  8
MODEL
 48
25.4
100
AcDbLine
 10
144.6932066238171
 20
470.5456778626704
 30
0.0
 11
67.6932066238171
 21
470.5456778626704
 31
0.0
  0
LINE
  5
4EAA
330
A
100
AcDbEntity
  8
MODEL
 48
25.4
100
AcDbLine
 10
119.1932066238172
 20
470.5456778626704
 30
0.0
 11
119.1932066238172
 21
480.5456778626704
 31
0.0
  0
LINE
  5
4EAB
330
A
100
AcDbEntity
  8
MODEL
 48
25.4
100
AcDbLine
 10
119.1932066238172
 20
480.5456778626704
 30
0.0
 11
93.1932066238171
 21
480.5456778626704
 31
0.0
  0
LINE
  5
4EAC
330
A
100
AcDbEntity
  8
MODEL
 48
25.4
100
AcDbLine
 10
93.1932066238171
 20
480.5456778626704
 30
0.0
 11
93.1932066238171
 21
470.5456778626704
 31
0.0
  0
MTEXT
  5
4EE9
330
A
100
AcDbEntity
  8
TEMPLATE
390
1D
100
AcDbMText
 10
26.44042890954615
 20
46.13718967839256
 30
0.0
 40
4.8865234375
 41
0.0
 46
4.9598212890625
 71
     1
 72
     1
  1
{クローム}
  7
ＭＳ ゴシック
 73
     1
 44
0.7828267384257843
1001
ACAD
1000
ACAD_MTEXT_DEFINED_HEIGHT_BEGIN
1070
    46
1040
4.9598212890625
1000
ACAD_MTEXT_DEFINED_HEIGHT_END
  0
LINE
  5
4EF0
330
A
100
AcDbEntity
  8
MODEL
100
AcDbLine
 10
230.8329688990785
 20
284.0419917857802
 30
0.0
 11
198.8329688990784
 21
284.0419917857802
 31
0.0
  0
LINE
  5
4EF1
330
A
100
AcDbEntity
  8
MODEL
100
AcDbLine
 10
233.3081688990785
 20
282.6119917857804
 30
0.0
 11
233.3081688990785
 21
268.2059917857804
 31
0.0
  0
LINE
  5
4EF2
330
A
100
AcDbEntity
  8
MODEL
100
AcDbLine
 10
230.8329688990785
 20
284.0419917857802
 30
0.0
 11
233.3081688990785
 21
282.6119917857804
 31
0.0
  0
LINE
  5
4EF3
330
A
100
AcDbEntity
  8
MODEL
100
AcDbLine
 10
198.8329688990784
 20
284.0419917857802
 30
0.0
 11
196.3577688990783
 21
282.6119917857804
 31
0.0
  0
LINE
  5
4EF4
330
A
100
AcDbEntity
  8
MODEL
100
AcDbLine
 10
196.3577688990783
 20
282.6119917857804
 30
0.0
 11
196.3577688990783
 21
265.7519917857802
 31
0.0
  0
LINE
  5
4EF5
330
A
100
AcDbEntity
  8
MODEL
100
AcDbLine
 10
233.3081688990785
 20
210.47199178578
 30
0.0
 11
233.3081688990785
 21
220.0419917857802
 31
0.0
  0
LINE
  5
4EF6
330
A
100
AcDbEntity
  8
MODEL
100
AcDbLine
 10
230.8329688990785
 20
209.0419917857802
 30
0.0
 11
233.3081688990785
 21
210.47199178578
 31
0.0
  0
LINE
  5
4EF7
330
A
100
AcDbEntity
  8
MODEL
100
AcDbLine
 10
230.8329688990785
 20
209.0419917857802
 30
0.0
 11
198.8329688990784
 21
209.0419917857802
 31
0.0
  0
LINE
  5
4EF8
330
A
100
AcDbEntity
  8
MODEL
100
AcDbLine
 10
198.8329688990784
 20
209.0419917857802
 30
0.0
 11
196.3577688990783
 21
210.47199178578
 31
0.0
  0
LINE
  5
4EF9
330
A
100
AcDbEntity
  8
MODEL
100
AcDbLine
 10
196.3577688990783
 20
210.47199178578
 30
0.0
 11
196.3577688990783
 21
226.0419917857802
 31
0.0
  0
LINE
  5
4EFA
330
A
100
AcDbEntity
  8
MODEL
100
AcDbLine
 10
233.3081688990785
 20
210.47199178578
 30
0.0
 11
233.3081688990785
 21
224.8779917857804
 31
0.0
  0
LINE
  5
4EFB
330
A
100
AcDbEntity
  8
MODEL
100
AcDbLine
 10
205.5953688990784
 20
282.6119917857804
 30
0.0
 11
205.5953688990784
 21
265.7519917857802
 31
0.0
  0
LINE
  5
4EFC
330
A
100
AcDbEntity
  8
MODEL
100
AcDbLine
 10
224.0705688990782
 20
282.6119917857804
 30
0.0
 11
224.0705688990782
 21
265.7519917857802
 31
0.0
  0
LINE
  5
4EFD
330
A
100
AcDbEntity
  8
MODEL
100
AcDbLine
 10
224.0705688990782
 20
210.47199178578
 30
0.0
 11
224.0705688990782
 21
227.3319917857802
 31
0.0
  0
LINE
  5
4EFE
330
A
100
AcDbEntity
  8
MODEL
100
AcDbLine
 10
205.5953688990784
 20
210.47199178578
 30
0.0
 11
205.5953688990784
 21
227.3319917857802
 31
0.0
  0
LINE
  5
4EFF
330
A
100
AcDbEntity
  8
MODEL
100
AcDbLine
 10
216.8329688990784
 20
239.0419917857802
 30
0.0
 11
216.8329688990784
 21
245.2919917857802
 31
0.0
  0
LINE
  5
4F00
330
A
100
AcDbEntity
  8
MODEL
100
AcDbLine
 10
212.8329688990784
 20
239.0419917857802
 30
0.0
 11
212.8329688990784
 21
245.2919917857802
 31
0.0
  0
LINE
  5
4F01
330
A
100
AcDbEntity
  8
MODEL
100
AcDbLine
 10
214.8329688990784
 20
254.0419917857802
 30
0.0
 11
216.8329688990784
 21
250.5779917857802
 31
0.0
  0
LINE
  5
4F02
330
A
100
AcDbEntity
  8
MODEL
100
AcDbLine
 10
214.8329688990784
 20
254.0419917857802
 30
0.0
 11
212.8329688990784
 21
250.5779917857802
 31
0.0
  0
LINE
  5
4F03
330
A
100
AcDbEntity
  8
MODEL
100
AcDbLine
 10
215.5829688990784
 20
246.5419917857802
 30
0.0
 11
215.5829688990784
 21
250.5779917857802
 31
0.0
  0
LINE
  5
4F04
330
A
100
AcDbEntity
  8
MODEL
100
AcDbLine
 10
214.0829688990784
 20
246.5419917857802
 30
0.0
 11
214.0829688990784
 21
250.5779917857802
 31
0.0
  0
LINE
  5
4F05
330
A
100
AcDbEntity
  8
MODEL
100
AcDbLine
 10
215.5829688990784
 20
246.5419917857802
 30
0.0
 11
216.8329688990784
 21
245.2919917857802
 31
0.0
  0
LINE
  5
4F06
330
A
100
AcDbEntity
  8
MODEL
100
AcDbLine
 10
214.0829688990784
 20
246.5419917857802
 30
0.0
 11
212.8329688990784
 21
245.2919917857802
 31
0.0
  0
LINE
  5
4F07
330
A
100
AcDbEntity
  8
MODEL
100
AcDbLine
 10
214.8329688990784
 20
241.0419917857802
 30
0.0
 11
212.8329688990784
 21
239.0419917857802
 31
0.0
  0
LINE
  5
4F08
330
A
100
AcDbEntity
  8
MODEL
100
AcDbLine
 10
214.8329688990784
 20
241.0419917857802
 30
0.0
 11
216.8329688990784
 21
239.0419917857802
 31
0.0
  0
LINE
  5
4F09
330
A
100
AcDbEntity
  8
MODEL
100
AcDbLine
 10
216.8329688990784
 20
250.5779917857802
 30
0.0
 11
215.5829688990784
 21
250.5779917857802
 31
0.0
  0
LINE
  5
4F0A
330
A
100
AcDbEntity
  8
MODEL
100
AcDbLine
 10
214.0829688990784
 20
250.5779917857802
 30
0.0
 11
212.8329688990784
 21
250.5779917857802
 31
0.0
  0
LINE
  5
4F0B
330
A
100
AcDbEntity
  8
MODEL
100
AcDbLine
 10
195.3329688990784
 20
261.5419917857802
 30
0.0
 11
195.3329688990784
 21
231.5419917857802
 31
0.0
  0
LINE
  5
4F0C
330
A
100
AcDbEntity
  8
MODEL
100
AcDbLine
 10
196.0579688990783
 20
261.5419917857802
 30
0.0
 11
195.3329688990784
 21
261.5419917857802
 31
0.0
  0
LINE
  5
4F0D
330
A
100
AcDbEntity
  8
MODEL
100
AcDbLine
 10
196.0579688990783
 20
231.5419917857802
 30
0.0
 11
195.3329688990784
 21
231.5419917857802
 31
0.0
  0
LINE
  5
4F0E
330
A
100
AcDbEntity
  8
MODEL
100
AcDbLine
 10
228.7811688990786
 20
263.3579917857804
 30
0.0
 11
204.4341688990784
 21
263.3579917857804
 31
0.0
  0
LINE
  5
4F0F
330
A
100
AcDbEntity
  8
MODEL
100
AcDbLine
 10
224.0705688990782
 20
265.7519917857802
 30
0.0
 11
196.2021688990783
 21
265.7519917857802
 31
0.0
  0
LINE
  5
4F10
330
A
100
AcDbEntity
  8
MODEL
100
AcDbLine
 10
247.8329688990785
 20
263.0419917857802
 30
0.0
 11
247.8329688990785
 21
230.0419917857802
 31
0.0
  0
LINE
  5
4F11
330
A
100
AcDbEntity
  8
MODEL
100
AcDbLine
 10
247.8329688990785
 20
230.5419917857802
 30
0.0
 11
247.3329688990785
 21
230.0419917857802
 31
0.0
  0
LINE
  5
4F12
330
A
100
AcDbEntity
  8
MODEL
100
AcDbLine
 10
251.3329688990785
 20
263.0419917857802
 30
0.0
 11
247.8329688990785
 21
263.0419917857802
 31
0.0
  0
LINE
  5
4F13
330
A
100
AcDbEntity
  8
MODEL
100
AcDbLine
 10
238.8329688990785
 20
263.8919917857803
 30
0.0
 11
238.8329688990785
 21
229.1919917857803
 31
0.0
  0
LINE
  5
4F14
330
A
100
AcDbEntity
  8
MODEL
100
AcDbLine
 10
251.3329688990785
 20
230.0419917857802
 30
0.0
 11
247.8329688990785
 21
230.0419917857802
 31
0.0
  0
LINE
  5
4F15
330
A
100
AcDbEntity
  8
MODEL
100
AcDbLine
 10
247.8329688990785
 20
262.5419917857802
 30
0.0
 11
247.3329688990785
 21
263.0419917857802
 31
0.0
  0
LINE
  5
4F16
330
A
100
AcDbEntity
  8
MODEL
100
AcDbLine
 10
247.3329688990785
 20
263.0419917857802
 30
0.0
 11
247.3329688990785
 21
230.0419917857802
 31
0.0
  0
LINE
  5
4F17
330
A
100
AcDbEntity
  8
MODEL
100
AcDbLine
 10
224.0705688990782
 20
227.3319917857802
 30
0.0
 11
196.2021688990783
 21
227.3319917857802
 31
0.0
  0
LINE
  5
4F18
330
A
100
AcDbEntity
  8
MODEL
100
AcDbLine
 10
228.7811688990786
 20
229.7259917857804
 30
0.0
 11
204.4341688990784
 21
229.7259917857804
 31
0.0
  0
LINE
  5
4F19
330
A
100
AcDbEntity
  8
MODEL
100
AcDbLine
 10
251.3329688990785
 20
263.0419917857802
 30
0.0
 11
251.3329688990785
 21
230.0419917857802
 31
0.0
  0
LINE
  5
4F1A
330
A
100
AcDbEntity
  8
MODEL
100
AcDbLine
 10
254.3329688990784
 20
258.8919917857803
 30
0.0
 11
251.3329688990785
 21
258.8919917857803
 31
0.0
  0
LINE
  5
4F1B
330
A
100
AcDbEntity
  8
MODEL
100
AcDbLine
 10
254.3329688990784
 20
234.1919917857803
 30
0.0
 11
251.3329688990785
 21
234.1919917857803
 31
0.0
  0
LINE
  5
4F1C
330
A
100
AcDbEntity
  8
MODEL
100
AcDbLine
 10
247.3329688990785
 20
263.0419917857802
 30
0.0
 11
238.8329688990785
 21
263.0419917857802
 31
0.0
  0
LINE
  5
4F1D
330
A
100
AcDbEntity
  8
MODEL
100
AcDbLine
 10
247.3329688990785
 20
230.0419917857802
 30
0.0
 11
238.8329688990785
 21
230.0419917857802
 31
0.0
  0
ARC
  5
4F1E
330
A
100
AcDbEntity
  8
MODEL
100
AcDbCircle
 10
200.9765548990783
 20
275.8634037857804
 30
0.0
 40
8.178624
100
AcDbArc
 50
55.61582200000024
 51
115.6158740000001
  0
ARC
  5
4F1F
330
A
100
AcDbEntity
  8
MODEL
100
AcDbCircle
 10
228.6893828990785
 20
275.8634037857804
 30
0.0
 40
8.178624
100
AcDbArc
 50
64.38442599999861
 51
124.3844790000012
  0
ARC
  5
4F20
330
A
100
AcDbEntity
  8
MODEL
100
AcDbCircle
 10
214.8329688990784
 20
253.4711297857802
 30
0.0
 40
30.570878
100
AcDbArc
 50
72.41214600000013
 51
107.588155
  0
ARC
  5
4F21
330
A
100
AcDbEntity
  8
MODEL
100
AcDbCircle
 10
228.6893828990785
 20
217.2205797857804
 30
0.0
 40
8.178624
100
AcDbArc
 50
235.615668000002
 51
295.6157209999989
  0
ARC
  5
4F22
330
A
100
AcDbEntity
  8
MODEL
100
AcDbCircle
 10
214.8329688990784
 20
239.6128537857802
 30
0.0
 40
30.570878
100
AcDbArc
 50
252.4119949999996
 51
287.5880049999999
  0
ARC
  5
4F23
330
A
100
AcDbEntity
  8
MODEL
100
AcDbCircle
 10
200.9765548990783
 20
217.2205797857804
 30
0.0
 40
8.178624
100
AcDbArc
 50
244.3842790000012
 51
304.3843319999979
  0
ARC
  5
4F24
330
A
100
AcDbEntity
  8
MODEL
100
AcDbCircle
 10
695.8329688990784
 20
246.5419917857801
 30
0.0
 40
500.0
100
AcDbArc
 50
177.7981469999999
 51
182.3497129999996
  0
ARC
  5
4F25
330
A
100
AcDbEntity
  8
MODEL
100
AcDbCircle
 10
220.8329688990784
 20
246.5419917857802
 30
0.0
 40
25.0
100
AcDbArc
 50
299.9344389999997
 51
316.0545189999995
  0
ARC
  5
4F26
330
A
100
AcDbEntity
  8
MODEL
100
AcDbCircle
 10
233.3081728990785
 20
249.6035757857802
 30
0.0
 40
18.603326
100
AcDbArc
 50
90.00014300000001
 51
119.772608
  0
ARC
  5
4F27
330
A
100
AcDbEntity
  8
MODEL
100
AcDbCircle
 10
220.8329688990784
 20
246.5419917857802
 30
0.0
 40
25.0
100
AcDbArc
 50
43.94562800000038
 51
60.06570800000069
  0
ARC
  5
4F28
330
A
100
AcDbEntity
  8
MODEL
100
AcDbCircle
 10
233.3081728990785
 20
243.4804077857801
 30
0.0
 40
18.603326
100
AcDbArc
 50
240.2275349999989
 51
270.0
  0
ARC
  5
4F29
330
A
100
AcDbEntity
  8
MODEL
100
AcDbCircle
 10
217.2707748990783
 20
246.5419917857802
 30
0.0
 40
20.377374
100
AcDbArc
 50
289.4931609999993
 51
70.50698600000032
  0
ARC
  5
4F2A
330
A
100
AcDbEntity
  8
MODEL
100
AcDbCircle
 10
204.4341188990783
 20
278.7063597857804
 30
0.0
 40
15.349218
100
AcDbArc
 50
237.5668530000002
 51
270.0
  0
ARC
  5
4F2B
330
A
100
AcDbEntity
  8
MODEL
100
AcDbCircle
 10
204.4341188990783
 20
214.3776237857804
 30
0.0
 40
15.349218
100
AcDbArc
 50
89.99985699999979
 51
122.432996
  0
DIMENSION
  5
4F2F
330
A
100
AcDbEntity
  8
DIM
 48
0.05
100
AcDbDimension
  2
*D9
 10
182.188993444076
 20
209.0419917857802
 30
0.0
 11
182.188993444076
 21
246.5419917857802
 31
0.0
 70
   160
 71
     5
 42
75.0
 73
     0
 74
     0
 75
     0
  3
tfrom線あり
100
AcDbAlignedDimension
 13
198.8329688990784
 23
284.0419917857802
 33
0.0
 14
198.8329688990784
 24
209.0419917857802
 34
0.0
 50
90.0
100
AcDbRotatedDimension
  0
LINE
  5
4F52
330
A
100
AcDbEntity
  8
MODEL
100
AcDbLine
 10
106.193206623817
 20
501.5704778626706
 30
0.0
 11
122.193206623817
 21
510.8080778626705
 31
0.0
  0
LINE
  5
4F53
330
A
100
AcDbEntity
  8
MODEL
100
AcDbLine
 10
122.193206623817
 20
510.8080778626705
 30
0.0
 11
122.193206623817
 21
529.2832778626705
 31
0.0
  0
LINE
  5
4F54
330
A
100
AcDbEntity
  8
MODEL
100
AcDbLine
 10
122.193206623817
 20
529.2832778626705
 30
0.0
 11
106.193206623817
 21
538.5208778626705
 31
0.0
  0
LINE
  5
4F55
330
A
100
AcDbEntity
  8
MODEL
100
AcDbLine
 10
106.193206623817
 20
538.5208778626705
 30
0.0
 11
90.19320662381699
 21
529.2832778626705
 31
0.0
  0
LINE
  5
4F56
330
A
100
AcDbEntity
  8
MODEL
100
AcDbLine
 10
90.19320662381699
 20
529.2832778626705
 30
0.0
 11
90.19320662381699
 21
510.8080778626705
 31
0.0
  0
LINE
  5
4F57
330
A
100
AcDbEntity
  8
MODEL
100
AcDbLine
 10
90.19320662381699
 20
510.8080778626705
 30
0.0
 11
106.193206623817
 21
501.5704778626706
 31
0.0
  0
LINE
  5
4F58
330
A
100
AcDbEntity
  8
MODEL
100
AcDbLine
 10
108.693206623817
 20
538.8206778626705
 30
0.0
 11
108.693206623817
 21
539.5456778626705
 31
0.0
  0
LINE
  5
4F59
330
A
100
AcDbEntity
  8
MODEL
100
AcDbLine
 10
103.693206623817
 20
538.8206778626705
 30
0.0
 11
103.693206623817
 21
539.5456778626705
 31
0.0
  0
LINE
  5
4F5A
330
A
100
AcDbEntity
  8
MODEL
100
AcDbLine
 10
108.693206623817
 20
539.5456778626705
 30
0.0
 11
103.693206623817
 21
539.5456778626705
 31
0.0
  0
LINE
  5
4F5B
330
A
100
AcDbEntity
  8
MODEL
100
AcDbLine
 10
124.693206623817
 20
497.2304778626704
 30
0.0
 11
124.693206623817
 21
530.4444778626704
 31
0.0
  0
LINE
  5
4F5C
330
A
100
AcDbEntity
  8
MODEL
100
AcDbLine
 10
87.69320662381699
 20
497.2304778626704
 30
0.0
 11
87.69320662381699
 21
530.4444778626704
 31
0.0
  0
LINE
  5
4F5D
330
A
100
AcDbEntity
  8
MODEL
100
AcDbLine
 10
108.693206623817
 20
538.8206778626705
 30
0.0
 11
103.693206623817
 21
538.8206778626705
 31
0.0
  0
LINE
  5
4F5E
330
A
100
AcDbEntity
  8
MODEL
100
AcDbLine
 10
122.693206623817
 20
487.0456778626704
 30
0.0
 11
89.69320662381699
 21
487.0456778626704
 31
0.0
  0
LINE
  5
4F5F
330
A
100
AcDbEntity
  8
MODEL
100
AcDbLine
 10
122.693206623817
 20
483.5456778626704
 30
0.0
 11
122.693206623817
 21
487.0456778626704
 31
0.0
  0
LINE
  5
4F60
330
A
100
AcDbEntity
  8
MODEL
100
AcDbLine
 10
89.69320662381699
 20
483.5456778626704
 30
0.0
 11
89.69320662381699
 21
487.0456778626704
 31
0.0
  0
LINE
  5
4F61
330
A
100
AcDbEntity
  8
MODEL
100
AcDbLine
 10
123.5432066238171
 20
496.0456778626704
 30
0.0
 11
88.84380662381716
 21
496.0456778626704
 31
0.0
  0
LINE
  5
4F62
330
A
100
AcDbEntity
  8
MODEL
100
AcDbLine
 10
122.193206623817
 20
487.0456778626704
 30
0.0
 11
122.693206623817
 21
487.5456778626704
 31
0.0
  0
LINE
  5
4F63
330
A
100
AcDbEntity
  8
MODEL
100
AcDbLine
 10
90.19320662381699
 20
487.0456778626704
 30
0.0
 11
89.69320662381699
 21
487.5456778626704
 31
0.0
  0
LINE
  5
4F64
330
A
100
AcDbEntity
  8
MODEL
100
AcDbLine
 10
122.693206623817
 20
487.5456778626704
 30
0.0
 11
89.69320662381699
 21
487.5456778626704
 31
0.0
  0
LINE
  5
4F65
330
A
100
AcDbEntity
  8
MODEL
100
AcDbLine
 10
122.693206623817
 20
483.5456778626704
 30
0.0
 11
89.69320662381699
 21
483.5456778626704
 31
0.0
  0
LINE
  5
4F66
330
A
100
AcDbEntity
  8
MODEL
100
AcDbLine
 10
118.5432066238171
 20
480.5456778626704
 30
0.0
 11
118.5432066238171
 21
483.5456778626704
 31
0.0
  0
LINE
  5
4F67
330
A
100
AcDbEntity
  8
MODEL
100
AcDbLine
 10
93.84320662381708
 20
480.5456778626704
 30
0.0
 11
93.84320662381708
 21
483.5456778626704
 31
0.0
  0
LINE
  5
4F68
330
A
100
AcDbEntity
  8
MODEL
100
AcDbLine
 10
122.693206623817
 20
487.5456778626704
 30
0.0
 11
122.693206623817
 21
496.0456778626704
 31
0.0
  0
LINE
  5
4F69
330
A
100
AcDbEntity
  8
MODEL
100
AcDbLine
 10
89.69320662381699
 20
487.5456778626704
 30
0.0
 11
89.69320662381699
 21
496.0456778626704
 31
0.0
  0
CIRCLE
  5
4F6A
330
A
100
AcDbEntity
  8
MODEL
100
AcDbCircle
 10
106.193206623817
 20
520.0456778626703
 30
0.0
 40
16.0
  0
CIRCLE
  5
4F6B
330
A
100
AcDbEntity
  8
MODEL
100
AcDbCircle
 10
106.193206623817
 20
520.0456778626703
 30
0.0
 40
13.2205
  0
CIRCLE
  5
4F6C
330
A
100
AcDbEntity
  8
MODEL
100
AcDbCircle
 10
106.193206623817
 20
520.0456778626703
 30
0.0
 40
12.0585
  0
ARC
  5
4F6D
330
A
100
AcDbEntity
  8
MODEL
100
AcDbCircle
 10
106.193206623817
 20
439.0456778626704
 30
0.0
 40
100.0
100
AcDbArc
 50
83.44644499999998
 51
88.56737699999998
  0
ARC
  5
4F6E
330
A
100
AcDbEntity
  8
MODEL
100
AcDbCircle
 10
116.693206623817
 20
530.4445278626705
 30
0.0
 40
8.0
100
AcDbArc
 50
0.0001429999995732
 51
83.446738999999
  0
ARC
  5
4F6F
330
A
100
AcDbEntity
  8
MODEL
100
AcDbCircle
 10
95.69320662381699
 20
530.4445278626705
 30
0.0
 40
8.0
100
AcDbArc
 50
96.5534049999976
 51
180.0
  0
ARC
  5
4F70
330
A
100
AcDbEntity
  8
MODEL
100
AcDbCircle
 10
106.193206623817
 20
439.0456778626704
 30
0.0
 40
100.0
100
AcDbArc
 50
91.43246599999986
 51
96.55340499999978
  0
ARC
  5
4F71
330
A
100
AcDbEntity
  8
MODEL
100
AcDbCircle
 10
106.193206623817
 20
514.0456778626703
 30
0.0
 40
25.0
100
AcDbArc
 50
313.945628000001
 51
317.7315370000002
  0
ARC
  5
4F72
330
A
100
AcDbEntity
  8
MODEL
100
AcDbCircle
 10
106.193206623817
 20
514.0456778626703
 30
0.0
 40
25.0
100
AcDbArc
 50
222.2686199999999
 51
226.0545189999998
  0
ARC
  5
4F73
330
A
100
AcDbEntity
  8
MODEL
100
AcDbCircle
 10
84.505432623817
 20
510.8080678626705
 30
0.0
 40
5.687782
100
AcDbArc
 50
304.0878120000023
 51
0.0001570000005354
  0
ARC
  5
4F74
330
A
100
AcDbEntity
  8
MODEL
100
AcDbCircle
 10
127.880980623817
 20
510.8080678626705
 30
0.0
 40
5.687782
100
AcDbArc
 50
180.0
 51
235.9123339999999
  0
LINE
  5
4F78
330
A
100
AcDbEntity
  8
MODEL
100
AcDbLine
 10
122.2682057649621
 20
284.0419917857802
 30
0.0
 11
116.1123191268114
 21
284.0419917857802
 31
0.0
  0
LINE
  5
4F79
330
A
100
AcDbEntity
  8
MODEL
100
AcDbLine
 10
124.7434057649621
 20
282.6119917857804
 30
0.0
 11
124.7434057649621
 21
280.6085282710819
 31
0.0
  0
LINE
  5
4F7A
330
A
100
AcDbEntity
  8
MODEL
100
AcDbLine
 10
122.2682057649621
 20
284.0419917857802
 30
0.0
 11
124.7434057649621
 21
282.6119917857804
 31
0.0
  0
ARC
  5
4F7C
330
A
100
AcDbEntity
  8
MODEL
100
AcDbCircle
 10
120.1246197649621
 20
275.8634037857804
 30
0.0
 40
8.178624
100
AcDbArc
 50
64.38442599999854
 51
108.2827092024231
  0
LINE
  5
4F7E
330
A
100
AcDbEntity
  8
MODEL
100
AcDbLine
 10
90.26820576496198
 20
284.0419917857802
 30
0.0
 11
87.79300576496189
 21
282.6119917857804
 31
0.0
  0
LINE
  5
4F7F
330
A
100
AcDbEntity
  8
MODEL
100
AcDbLine
 10
87.79300576496189
 20
282.6119917857804
 30
0.0
 11
87.79300576496189
 21
280.6897794821018
 31
0.0
  0
ARC
  5
4F81
330
A
100
AcDbEntity
  8
MODEL
100
AcDbCircle
 10
92.41179176496189
 20
275.8634037857804
 30
0.0
 40
8.178624
100
AcDbArc
 50
72.25235850537798
 51
115.6158740000001
  0
LINE
  5
4F82
330
A
100
AcDbEntity
  8
MODEL
100
AcDbLine
 10
124.7434057649621
 20
210.47199178578
 30
0.0
 11
124.7434057649621
 21
212.4754543004769
 31
0.0
  0
LINE
  5
4F83
330
A
100
AcDbEntity
  8
MODEL
100
AcDbLine
 10
122.2682057649621
 20
209.0419917857802
 30
0.0
 11
124.7434057649621
 21
210.47199178578
 31
0.0
  0
LINE
  5
4F84
330
A
100
AcDbEntity
  8
MODEL
100
AcDbLine
 10
122.2682057649621
 20
209.0419917857802
 30
0.0
 11
116.1123229073968
 21
209.0419917857802
 31
0.0
  0
LINE
  5
4F85
330
A
100
AcDbEntity
  8
MODEL
100
AcDbLine
 10
90.26820576496198
 20
209.0419917857802
 30
0.0
 11
87.79300576496189
 21
210.47199178578
 31
0.0
  0
LINE
  5
4F86
330
A
100
AcDbEntity
  8
MODEL
100
AcDbLine
 10
87.79300576496189
 20
210.47199178578
 30
0.0
 11
87.79300576496189
 21
212.394203089457
 31
0.0
  0
LINE
  5
4F87
330
A
100
AcDbEntity
  8
MODEL
100
AcDbLine
 10
124.7434057649621
 20
210.47199178578
 30
0.0
 11
124.7434057649621
 21
212.4754543004769
 31
0.0
  0
ARC
  5
4F8A
330
A
100
AcDbEntity
  8
MODEL
100
AcDbCircle
 10
120.1246197649621
 20
217.2205797857804
 30
0.0
 40
8.178624
100
AcDbArc
 50
251.7173023828543
 51
295.6157209999989
  0
ARC
  5
4F8C
330
A
100
AcDbEntity
  8
MODEL
100
AcDbCircle
 10
92.41179176496189
 20
217.2205797857804
 30
0.0
 40
8.178624
100
AcDbArc
 50
244.3842790000012
 51
287.7476297112251
  0
LINE
  5
4F8F
330
A
100
AcDbEntity
  8
MODEL
100
AcDbLine
 10
96.27409034023765
 20
209.0419917857802
 30
0.0
 11
90.26820576496198
 21
209.0419917857802
 31
0.0
  0
LINE
  5
4F90
330
A
100
AcDbEntity
  8
MODEL
100
AcDbLine
 10
96.27409412082307
 20
284.0419917857802
 30
0.0
 11
90.26820576496198
 21
284.0419917857802
 31
0.0
  0
LINE
  5
4FF7
330
A
100
AcDbEntity
  8
MODEL
100
AcDbLine
 10
75.60930510206799
 20
245.4630327237805
 30
0.0
 11
75.60930510206799
 21
247.6209498477803
 31
0.0
  0
DIMENSION
  5
5085
330
A
100
AcDbEntity
  8
DIM
 48
0.05
100
AcDbDimension
  2
*D15
 10
228.0329988102983
 20
298.4254546837139
 30
0.0
 11
214.8328885979257
 21
298.4254546837139
 31
0.0
 70
   160
  1
G3/4"
 71
     5
 42
26.40005982243991
 73
     0
 74
     0
 75
     0
  3
tfrom線あり
100
AcDbAlignedDimension
 13
201.6329389878584
 23
283.9752099344923
 33
0.0
 14
228.0329988102983
 24
283.9752099344923
 34
0.0
100
AcDbRotatedDimension
  0
LINE
  5
5086
330
A
100
AcDbEntity
  8
MODEL
  6
HIDDEN
 48
0.009
100
AcDbLine
 10
228.0329988102983
 20
283.9752099344923
 30
0.0
 11
228.0329988102983
 21
272.6128267381939
 31
0.0
  0
LINE
  5
5087
330
A
100
AcDbEntity
  8
MODEL
  6
HIDDEN
 48
0.009
100
AcDbLine
 10
201.6329389878584
 20
283.9752099344923
 30
0.0
 11
201.6329389878584
 21
272.6128267381939
 31
0.0
  0
DIMENSION
  5
5088
330
A
100
AcDbEntity
  8
DIM
 48
0.05
100
AcDbDimension
  2
*D16
 10
228.0329988102983
 20
187.2948907225462
 30
0.0
 11
214.8328885979257
 21
187.2948907225462
 31
0.0
 70
   160
  1
G3/4"
 71
     5
 42
26.40005982243991
 73
     0
 74
     0
 75
     0
 52
-90.0
  3
tfrom線あり
100
AcDbAlignedDimension
 13
201.6329389878584
 23
209.1087736370682
 33
0.0
 14
228.0329988102983
 24
209.1087736370682
 34
0.0
100
AcDbRotatedDimension
  0
LINE
  5
5089
330
A
100
AcDbEntity
  8
MODEL
  6
HIDDEN
 48
0.009
100
AcDbLine
 10
228.0329988102983
 20
209.1087736370682
 30
0.0
 11
228.0329988102983
 21
220.4711568333666
 31
0.0
  0
LINE
  5
508A
330
A
100
AcDbEntity
  8
MODEL
  6
HIDDEN
 48
0.009
100
AcDbLine
 10
201.6329389878584
 20
209.1087736370682
 30
0.0
 11
201.6329389878584
 21
220.4711568333666
 31
0.0
  0
DIMENSION
  5
50BB
102
{ACAD_REACTORS
330
50BD
102
}
102
{ACAD_XDICTIONARY
360
50BC
102
}
330
A
100
AcDbEntity
  8
DIM
 48
0.05
100
AcDbDimension
  2
*D17
 10
214.8329688990783
 20
142.132657934809
 30
0.0
 11
239.5829688990784
 21
149.632657934809
 31
0.0
 70
    32
  1
42-77
 71
     5
 42
49.50000000000009
 73
     0
 74
     0
 75
     0
  3
tfrom線あり
100
AcDbAlignedDimension
 13
264.3329688990784
 23
172.5419917857802
 33
0.0
 14
214.8329688990783
 24
187.2948907225462
 34
0.0
100
AcDbRotatedDimension
  0
VIEWPORT
  5
349
330
B
100
AcDbEntity
 67
     1
  8
0
100
AcDbViewport
 10
202.5
 20
128.5
 30
0.0
 40
486.0
 41
308.4
 68
     1
 69
     1
 12
202.5
 22
128.5
 13
0.0
 23
0.0
 14
0.5
 24
0.5
 15
0.0
 25
0.0
 16
0.0
 26
0.0
 36
1.0
 17
0.0
 27
0.0
 37
0.0
 42
50.0
 43
0.0
 44
0.0
 45
308.4
 50
0.0
 51
0.0
 72
   100
 90
   557152
  1

281
     0
 71
     1
 74
     0
110
0.0
120
0.0
130
0.0
111
1.0
121
0.0
131
0.0
112
0.0
122
1.0
132
0.0
 79
     0
146
0.0
170
     0
 61
     5
348
26C
292
     1
282
     1
141
0.0
142
0.0
 63
   256
  0
VIEWPORT
  5
34A
330
B
100
AcDbEntity
 67
     1
  8
0
100
AcDbViewport
 10
202.5
 20
128.5
 30
0.0
 40
324.0
 41
205.6
 68
     2
 69
     2
 12
986.6781359294573
 22
1427.077061889956
 13
0.0
 23
0.0
 14
0.5
 24
0.5
 15
0.0
 25
0.0
 16
0.0
 26
0.0
 36
1.0
 17
0.0
 27
0.0
 37
0.0
 42
50.0
 43
0.0
 44
0.0
 45
2890.021615685494
 50
0.0
 51
0.0
 72
   100
 90
   557152
  1

281
     0
 71
     1
 74
     0
110
0.0
120
0.0
130
0.0
111
1.0
121
0.0
131
0.0
112
0.0
122
1.0
132
0.0
 79
     0
146
0.0
170
     0
 61
     5
348
26C
292
     1
282
     1
141
0.0
142
0.0
 63
   256
  0
ENDSEC
  0
SECTION
  2
OBJECTS
  0
DICTIONARY
  5
19
330
0
100
AcDbDictionary
281
     1
  3
ACAD_COLOR
350
674
  3
ACAD_DETAILVIEWSTYLE
350
BBF
  3
ACAD_FIELDLIST
350
44C1
  3
ACAD_GROUP
350
1A
  3
ACAD_IMAGE_VARS
350
27B
  3
ACAD_LAYOUT
350
1E
  3
ACAD_MATERIAL
350
263
  3
ACAD_MLEADERSTYLE
350
336
  3
ACAD_MLINESTYLE
350
1B
  3
ACAD_PLOTSETTINGS
350
22
  3
ACAD_PLOTSTYLENAME
350
1F
  3
ACAD_SCALELIST
350
241
  3
ACAD_SECTIONVIEWSTYLE
350
BC0
  3
ACAD_TABLESTYLE
350
278
  3
ACAD_VISUALSTYLE
350
267
  3
ACDB_RECOMPOSE_DATA
350
50EA
  3
AcDbVariableDictionary
350
330
  3
APPDATA
350
27A
  3
DimOffsetDictionary
350
E38
  0
SUN
  5
904
330
15
100
AcDbSun
 90
        1
290
     0
 63
     7
421
 16777215
 40
1.0
291
     1
 91
  2455826
 92
 54000000
292
     0
 70
     2
 71
   256
280
     1
  0
DICTIONARY
  5
2E1
330
2
100
AcDbDictionary
280
     1
281
     1
  3
ACAD_LAYERSTATES
360
2E2
  3
ACLYDICTIONARY
360
DDE
  0
DICTIONARY
  5
4532
330
4530
100
AcDbDictionary
280
     1
281
     1
  3
ACAD_FIELD
360
4539
  0
DICTIONARY
  5
50BC
330
50BB
100
AcDbDictionary
280
     1
281
     1
  3
ACAD_DIMASSOC
360
50BD
  0
DICTIONARY
  5
674
102
{ACAD_REACTORS
330
19
102
}
330
19
100
AcDbDictionary
281
     1
  0
DICTIONARY
  5
BBF
102
{ACAD_REACTORS
330
19
102
}
330
19
100
AcDbDictionary
281
     1
  0
FIELDLIST
  5
44C1
102
{ACAD_REACTORS
330
19
102
}
330
19
100
AcDbIdSet
 90
        2
330
4534
330
4531
100
AcDbFieldList
  0
DICTIONARY
  5
1A
102
{ACAD_REACTORS
330
19
102
}
330
19
100
AcDbDictionary
281
     1
  0
RASTERVARIABLES
  5
27B
102
{ACAD_REACTORS
330
19
102
}
330
19
100
AcDbRasterVariables
 90
        0
 70
     1
 71
     1
 72
     1
  0
DICTIONARY
  5
1E
102
{ACAD_REACTORS
330
19
102
}
330
19
100
AcDbDictionary
281
     1
  3
Layout1
350
21
  3
Model
350
20
  0
DICTIONARY
  5
263
102
{ACAD_REACTORS
330
19
102
}
330
19
100
AcDbDictionary
281
     1
  3
ByBlock
350
5007
  3
ByLayer
350
264
  3
Global
350
266
  0
DICTIONARY
  5
336
102
{ACAD_REACTORS
330
19
102
}
330
19
100
AcDbDictionary
281
     1
  3
Standard
350
D59
  0
DICTIONARY
  5
1B
102
{ACAD_REACTORS
330
19
102
}
330
19
100
AcDbDictionary
281
     1
  3
Standard
350
1C
  0
DICTIONARY
  5
22
102
{ACAD_REACTORS
330
19
102
}
330
19
100
AcDbDictionary
281
     1
  0
ACDBDICTIONARYWDFLT
  5
1F
102
{ACAD_REACTORS
330
19
102
}
330
19
100
AcDbDictionary
281
     1
  3
Normal
350
1D
100
AcDbDictionaryWithDefault
340
1D
  0
DICTIONARY
  5
241
102
{ACAD_REACTORS
330
19
102
}
330
19
100
AcDbDictionary
281
     1
  3
A0
350
242
  3
A1
350
243
  3
A2
350
244
  3
A3
350
245
  3
A4
350
246
  3
A5
350
247
  3
A6
350
248
  3
A7
350
249
  3
A8
350
24A
  3
A9
350
24B
  3
B0
350
24C
  3
B1
350
24D
  3
B2
350
24E
  3
B3
350
24F
  3
B4
350
250
  3
B5
350
251
  3
B6
350
252
  3
B7
350
253
  3
B8
350
254
  3
B9
350
255
  3
C0
350
256
  3
C1
350
257
  3
C2
350
258
  3
C3
350
259
  3
C4
350
25A
  3
C5
350
25B
  3
C6
350
25C
  3
C7
350
25D
  3
C8
350
25E
  3
C9
350
25F
  3
D0
350
260
  3
D1
350
261
  3
D2
350
262
  0
DICTIONARY
  5
BC0
102
{ACAD_REACTORS
330
19
102
}
330
19
100
AcDbDictionary
281
     1
  0
DICTIONARY
  5
278
102
{ACAD_REACTORS
330
19
102
}
330
19
100
AcDbDictionary
281
     1
  3
Standard
350
279
  0
DICTIONARY
  5
267
102
{ACAD_REACTORS
330
19
102
}
330
19
100
AcDbDictionary
281
     1
  3
2dWireframe
350
26C
  3
3D Hidden
350
26E
  3
3dWireframe
350
26D
  3
Basic
350
26F
  3
Brighten
350
273
  3
ColorChange
350
277
  3
Conceptual
350
271
  3
Dim
350
272
  3
EdgeColorOff
350
8FE
  3
Facepattern
350
276
  3
Flat
350
268
  3
FlatWithEdges
350
269
  3
Gouraud
350
26A
  3
GouraudWithEdges
350
26B
  3
Hidden
350
8FB
  3
JitterOff
350
8FC
  3
Linepattern
350
275
  3
OverhangOff
350
8FD
  3
Realistic
350
270
  3
Shaded
350
903
  3
Shaded with edges
350
902
  3
Shades of Gray
350
8FF
  3
Sketchy
350
900
  3
Thicken
350
274
  3
Wireframe
350
8FA
  3
X-Ray
350
901
  0
XRECORD
  5
50EA
102
{ACAD_REACTORS
330
19
102
}
330
19
100
AcDbXrecord
280
     1
 90
        1
330
279
  0
DICTIONARY
  5
330
102
{ACAD_REACTORS
330
19
102
}
330
19
100
AcDbDictionary
281
     1
  3
CANNOSCALE
350
331
  3
CMLEADERSTYLE
350
D5E
  3
CTABLESTYLE
350
335
  3
HPTRANSPARENCY
350
D52
  3
XCLIPFRAME
350
896
  0
DICTIONARY
  5
27A
102
{ACAD_REACTORS
330
19
102
}
330
19
100
AcDbDictionary
281
     1
  0
DICTIONARY
  5
E38
102
{ACAD_REACTORS
330
19
102
}
330
19
100
AcDbDictionary
281
     1
  3
DIMRAILANGLE
350
38B2
  3
DIMRAILFIRSTOFFSET
350
38B0
  3
DIMRAILOFFSET
350
38B1
  3
DIMRAILSENABLED
350
38B3
  0
DICTIONARY
  5
2E2
102
{ACAD_REACTORS
330
2E1
102
}
330
2E1
100
AcDbDictionary
281
     1
  3
ARGON_LAYERP_9
350
7AA
  0
DICTIONARY
  5
DDE
102
{ACAD_REACTORS
330
2E1
102
}
330
2E1
100
AcDbDictionary
281
     1
1001
ACAD
1000
<All
  0
DICTIONARY
  5
4539
102
{ACAD_REACTORS
330
4532
102
}
330
4532
100
AcDbDictionary
280
     1
281
     1
  3
TEXT
360
4531
  0
DIMASSOC
  5
50BD
102
{ACAD_REACTORS
330
50BC
102
}
330
50BC
100
AcDbDimAssoc
330
50BB
 90
        1
 70
     0
 71
     1
  1
AcDbOsnapPointRef
 72
    13
331
4B44
 73
     0
 91
        0
 40
0.0
 10
0.0
 20
0.0
 30
0.0
 75
     0
  0
LAYOUT
  5
21
102
{ACAD_REACTORS
330
1E
102
}
330
1E
100
AcDbPlotSettings
  1

  2
none_device
  4
ISO_A3_(420.00_x_297.00_MM)
  6

 40
7.5
 41
20.0
 42
7.5
 43
20.0
 44
420.0
 45
297.0
 46
0.0
 47
0.0
 48
0.0
 49
0.0
140
0.0
141
0.0
142
1.0
143
1.0
 70
     0
 72
     1
 73
     0
 74
     0
  7

 75
     0
 76
     0
 77
     2
 78
   300
147
1.0
148
0.0
149
0.0
100
AcDbLayout
  1
Layout1
 70
     0
 71
     0
 10
-7.5
 20
-20.0
 11
412.5
 21
277.0
 12
0.0
 22
0.0
 32
0.0
 14
0.0
 24
0.0
 34
0.0
 15
0.0
 25
0.0
 35
0.0
146
0.0
 13
0.0
 23
0.0
 33
0.0
 16
0.0
 26
0.0
 36
0.0
 17
0.0
 27
0.0
 37
0.0
 76
     0
330
B
331
349
  0
LAYOUT
  5
20
102
{ACAD_REACTORS
330
1E
102
}
330
1E
100
AcDbPlotSettings
  1

  2
none_device
  4
ISO_A3_(420.00_x_297.00_MM)
  6

 40
7.5
 41
20.0
 42
7.5
 43
20.0
 44
420.0
 45
297.0
 46
0.0
 47
0.0
 48
0.0
 49
0.0
140
0.0
141
0.0
142
1.0
143
1.0
 70
  1024
 72
     1
 73
     0
 74
     0
  7

 75
     0
 76
     0
 77
     2
 78
   300
147
1.0
148
0.0
149
0.0
100
AcDbLayout
  1
Model
 70
     0
 71
     1
 10
0.0
 20
0.0
 11
420.0
 21
594.0
 12
0.0
 22
0.0
 32
0.0
 14
0.0
 24
0.0
 34
-0.0000000000000142
 15
420.0
 25
594.0
 35
0.0000000000000142
146
0.0
 13
0.0
 23
0.0
 33
0.0
 16
0.0
 26
0.0
 36
0.0
 17
0.0
 27
0.0
 37
0.0
 76
     0
330
A
331
15
  0
MATERIAL
  5
5007
102
{ACAD_REACTORS
330
263
102
}
330
263
100
AcDbMaterial
  1
ByBlock
 72
     1
 94
      127
  0
MATERIAL
  5
264
102
{ACAD_REACTORS
330
263
102
}
330
263
100
AcDbMaterial
  1
ByLayer
 72
     1
 94
      127
  0
MATERIAL
  5
266
102
{ACAD_REACTORS
330
263
102
}
330
263
100
AcDbMaterial
  1
Global
 72
     1
 94
      127
  0
MLEADERSTYLE
  5
D59
102
{ACAD_REACTORS
330
336
102
}
330
336
100
AcDbMLeaderStyle
170
     2
171
     1
172
     0
 90
        2
 40
0.0
 41
0.0
173
     1
 91
-1056964608
340
11
 92
       -2
290
     1
 42
2.0
291
     1
 43
8.0
  3
Standard
341
0
 44
4.0
300

342
17
174
     1
178
     6
175
     1
176
     0
 93
-1056964608
 45
4.0
292
     0
297
     0
 46
4.0
343
0
 94
-1056964608
 47
1.0
 49
1.0
140
1.0
293
     1
141
0.0
294
     1
177
     0
142
1.0
295
     0
296
     0
143
3.75
1001
ACAD_MLEADERVER
1070
     2
  0
MLINESTYLE
  5
1C
102
{ACAD_REACTORS
330
1B
102
}
330
1B
100
AcDbMlineStyle
  2
Standard
 70
     0
  3

 62
     0
 51
90.0
 52
90.0
 71
     2
 49
0.5
 62
   256
  6
BYLAYER
 49
-0.5
 62
   256
  6
BYLAYER
  0
ACDBPLACEHOLDER
  5
1D
102
{ACAD_REACTORS
330
1F
102
}
330
1F
  0
SCALE
  5
242
102
{ACAD_REACTORS
330
241
102
}
330
241
100
AcDbScale
 70
     0
300
1:1
140
1.0
141
1.0
290
     1
  0
SCALE
  5
243
102
{ACAD_REACTORS
330
241
102
}
330
241
100
AcDbScale
 70
     0
300
1:2
140
1.0
141
2.0
290
     0
  0
SCALE
  5
244
102
{ACAD_REACTORS
330
241
102
}
330
241
100
AcDbScale
 70
     0
300
1:4
140
1.0
141
4.0
290
     0
  0
SCALE
  5
245
102
{ACAD_REACTORS
330
241
102
}
330
241
100
AcDbScale
 70
     0
300
1:5
140
1.0
141
5.0
290
     0
  0
SCALE
  5
246
102
{ACAD_REACTORS
330
241
102
}
330
241
100
AcDbScale
 70
     0
300
1:8
140
1.0
141
8.0
290
     0
  0
SCALE
  5
247
102
{ACAD_REACTORS
330
241
102
}
330
241
100
AcDbScale
 70
     0
300
1:10
140
1.0
141
10.0
290
     0
  0
SCALE
  5
248
102
{ACAD_REACTORS
330
241
102
}
330
241
100
AcDbScale
 70
     0
300
1:16
140
1.0
141
16.0
290
     0
  0
SCALE
  5
249
102
{ACAD_REACTORS
330
241
102
}
330
241
100
AcDbScale
 70
     0
300
1:20
140
1.0
141
20.0
290
     0
  0
SCALE
  5
24A
102
{ACAD_REACTORS
330
241
102
}
330
241
100
AcDbScale
 70
     0
300
1:30
140
1.0
141
30.0
290
     0
  0
SCALE
  5
24B
102
{ACAD_REACTORS
330
241
102
}
330
241
100
AcDbScale
 70
     0
300
1:40
140
1.0
141
40.0
290
     0
  0
SCALE
  5
24C
102
{ACAD_REACTORS
330
241
102
}
330
241
100
AcDbScale
 70
     0
300
1:50
140
1.0
141
50.0
290
     0
  0
SCALE
  5
24D
102
{ACAD_REACTORS
330
241
102
}
330
241
100
AcDbScale
 70
     0
300
1:100
140
1.0
141
100.0
290
     0
  0
SCALE
  5
24E
102
{ACAD_REACTORS
330
241
102
}
330
241
100
AcDbScale
 70
     0
300
2:1
140
2.0
141
1.0
290
     0
  0
SCALE
  5
24F
102
{ACAD_REACTORS
330
241
102
}
330
241
100
AcDbScale
 70
     0
300
4:1
140
4.0
141
1.0
290
     0
  0
SCALE
  5
250
102
{ACAD_REACTORS
330
241
102
}
330
241
100
AcDbScale
 70
     0
300
8:1
140
8.0
141
1.0
290
     0
  0
SCALE
  5
251
102
{ACAD_REACTORS
330
241
102
}
330
241
100
AcDbScale
 70
     0
300
10:1
140
10.0
141
1.0
290
     0
  0
SCALE
  5
252
102
{ACAD_REACTORS
330
241
102
}
330
241
100
AcDbScale
 70
     0
300
100:1
140
100.0
141
1.0
290
     0
  0
SCALE
  5
253
102
{ACAD_REACTORS
330
241
102
}
330
241
100
AcDbScale
 70
     0
300
1/128" = 1'-0"
140
0.0078125
141
12.0
290
     0
  0
SCALE
  5
254
102
{ACAD_REACTORS
330
241
102
}
330
241
100
AcDbScale
 70
     0
300
1/64" = 1'-0"
140
0.015625
141
12.0
290
     0
  0
SCALE
  5
255
102
{ACAD_REACTORS
330
241
102
}
330
241
100
AcDbScale
 70
     0
300
1/32" = 1'-0"
140
0.03125
141
12.0
290
     0
  0
SCALE
  5
256
102
{ACAD_REACTORS
330
241
102
}
330
241
100
AcDbScale
 70
     0
300
1/16" = 1'-0"
140
0.0625
141
12.0
290
     0
  0
SCALE
  5
257
102
{ACAD_REACTORS
330
241
102
}
330
241
100
AcDbScale
 70
     0
300
3/32" = 1'-0"
140
0.09375
141
12.0
290
     0
  0
SCALE
  5
258
102
{ACAD_REACTORS
330
241
102
}
330
241
100
AcDbScale
 70
     0
300
1/8" = 1'-0"
140
0.125
141
12.0
290
     0
  0
SCALE
  5
259
102
{ACAD_REACTORS
330
241
102
}
330
241
100
AcDbScale
 70
     0
300
3/16" = 1'-0"
140
0.1875
141
12.0
290
     0
  0
SCALE
  5
25A
102
{ACAD_REACTORS
330
241
102
}
330
241
100
AcDbScale
 70
     0
300
1/4" = 1'-0"
140
0.25
141
12.0
290
     0
  0
SCALE
  5
25B
102
{ACAD_REACTORS
330
241
102
}
330
241
100
AcDbScale
 70
     0
300
3/8" = 1'-0"
140
0.375
141
12.0
290
     0
  0
SCALE
  5
25C
102
{ACAD_REACTORS
330
241
102
}
330
241
100
AcDbScale
 70
     0
300
1/2" = 1'-0"
140
0.5
141
12.0
290
     0
  0
SCALE
  5
25D
102
{ACAD_REACTORS
330
241
102
}
330
241
100
AcDbScale
 70
     0
300
3/4" = 1'-0"
140
0.75
141
12.0
290
     0
  0
SCALE
  5
25E
102
{ACAD_REACTORS
330
241
102
}
330
241
100
AcDbScale
 70
     0
300
1" = 1'-0"
140
1.0
141
12.0
290
     0
  0
SCALE
  5
25F
102
{ACAD_REACTORS
330
241
102
}
330
241
100
AcDbScale
 70
     0
300
1-1/2" = 1'-0"
140
1.5
141
12.0
290
     0
  0
SCALE
  5
260
102
{ACAD_REACTORS
330
241
102
}
330
241
100
AcDbScale
 70
     0
300
3" = 1'-0"
140
3.0
141
12.0
290
     0
  0
SCALE
  5
261
102
{ACAD_REACTORS
330
241
102
}
330
241
100
AcDbScale
 70
     0
300
6" = 1'-0"
140
6.0
141
12.0
290
     0
  0
SCALE
  5
262
102
{ACAD_REACTORS
330
241
102
}
330
241
100
AcDbScale
 70
     0
300
1'-0" = 1'-0"
140
12.0
141
12.0
290
     0
  0
TABLESTYLE
  5
279
102
{ACAD_REACTORS
330
278
102
}
102
{ACAD_XDICTIONARY
360
50E8
102
}
330
278
100
AcDbTableStyle
  3
Standard
 70
     0
 71
     0
 40
0.06
 41
0.06
280
     0
281
     0
  7
Standard
140
4.5
170
     2
 62
     0
 63
   257
283
     0
 90
        4
 91
        0
  1

274
    -2
284
     1
 64
     0
275
    -2
285
     1
 65
     0
276
    -2
286
     1
 66
     0
277
    -2
287
     1
 67
     0
278
    -2
288
     1
 68
     0
279
    -2
289
     1
 69
     0
  7
Standard
140
6.0
170
     5
 62
     0
 63
   257
283
     0
 90
        4
 91
        0
  1

274
    -2
284
     1
 64
     0
275
    -2
285
     1
 65
     0
276
    -2
286
     1
 66
     0
277
    -2
287
     1
 67
     0
278
    -2
288
     1
 68
     0
279
    -2
289
     1
 69
     0
  7
Standard
140
4.5
170
     5
 62
     0
 63
   257
283
     0
 90
        4
 91
        0
  1

274
    -2
284
     1
 64
     0
275
    -2
285
     1
 65
     0
276
    -2
286
     1
 66
     0
277
    -2
287
     1
 67
     0
278
    -2
288
     1
 68
     0
279
    -2
289
     1
 69
     0
  0
VISUALSTYLE
  5
26C
102
{ACAD_REACTORS
330
267
102
}
330
267
100
AcDbVisualStyle
  2
2dWireframe
 70
     4
 71
     0
 72
     2
 73
     0
 90
        0
 40
-0.6
 41
-30.0
 62
     5
 63
     7
421
 16777215
 74
     1
 91
        4
 64
     7
 65
   257
 75
     1
175
     1
 42
1.0
 92
        0
 66
   257
 43
1.0
 76
     1
 77
     6
 78
     2
 67
     7
 79
     5
170
     0
171
     0
290
     0
174
     0
 93
        1
 44
0.0
173
     0
291
     0
 45
0.0
  0
VISUALSTYLE
  5
26E
102
{ACAD_REACTORS
330
267
102
}
330
267
100
AcDbVisualStyle
  2
3D Hidden
 70
     6
 71
     1
 72
     2
 73
     2
 90
        0
 40
-0.6
 41
-30.0
 62
     5
 63
     7
421
 16777215
 74
     2
 91
        2
 64
     7
 65
   257
 75
     2
175
     1
 42
40.0
 92
        0
 66
   257
 43
1.0
 76
     1
 77
     6
 78
     2
 67
     7
 79
     3
170
     0
171
     0
290
     0
174
     0
 93
        1
 44
0.0
173
     0
291
     0
 45
0.0
  0
VISUALSTYLE
  5
26D
102
{ACAD_REACTORS
330
267
102
}
330
267
100
AcDbVisualStyle
  2
3dWireframe
 70
     5
 71
     0
 72
     2
 73
     0
 90
        0
 40
-0.6
 41
-30.0
 62
     5
 63
     7
421
 16777215
 74
     1
 91
        4
 64
     7
 65
   257
 75
     1
175
     1
 42
1.0
 92
        0
 66
   257
 43
1.0
 76
     1
 77
     6
 78
     2
 67
     7
 79
     5
170
     0
171
     0
290
     0
174
     0
 93
        1
 44
0.0
173
     0
291
     0
 45
0.0
  0
VISUALSTYLE
  5
26F
102
{ACAD_REACTORS
330
267
102
}
330
267
100
AcDbVisualStyle
  2
Basic
 70
     7
 71
     1
 72
     0
 73
     1
 90
        0
 40
-0.6
 41
-30.0
 62
     5
 63
     7
421
 16777215
 74
     0
 91
        4
 64
     7
 65
   257
 75
     1
175
     1
 42
1.0
 92
        8
 66
     7
 43
1.0
 76
     1
 77
     6
 78
     2
 67
     7
 79
     5
170
     0
171
     0
290
     0
174
     0
 93
        1
 44
0.0
173
     0
291
     1
 45
0.0
  0
VISUALSTYLE
  5
273
102
{ACAD_REACTORS
330
267
102
}
330
267
100
AcDbVisualStyle
  2
Brighten
 70
    12
 71
     2
 72
     2
 73
     0
 90
        0
 40
-0.6
 41
-30.0
 62
     5
 63
     7
421
 16777215
 74
     1
 91
        4
 64
     7
 65
   257
 75
     1
175
     1
 42
1.0
 92
        8
 66
     7
 43
1.0
 76
     1
 77
     6
 78
     2
 67
     7
 79
     5
170
     0
171
     0
290
     0
174
     0
 93
        1
 44
50.0
173
     0
291
     1
 45
0.0
  0
VISUALSTYLE
  5
277
102
{ACAD_REACTORS
330
267
102
}
330
267
100
AcDbVisualStyle
  2
ColorChange
 70
    16
 71
     2
 72
     2
 73
     3
 90
        0
 40
-0.6
 41
-30.0
 62
     5
 63
     8
421
  8421504
 74
     1
 91
        4
 64
     7
 65
   257
 75
     1
175
     1
 42
1.0
 92
        8
 66
     8
424
  8421504
 43
1.0
 76
     1
 77
     6
 78
     2
 67
     7
 79
     5
170
     0
171
     0
290
     0
174
     0
 93
        1
 44
0.0
173
     0
291
     1
 45
0.0
  0
VISUALSTYLE
  5
271
102
{ACAD_REACTORS
330
267
102
}
330
267
100
AcDbVisualStyle
  2
Conceptual
 70
     9
 71
     3
 72
     2
 73
     0
 90
        0
 40
-0.6
 41
-30.0
 62
     5
 63
     7
421
 16777215
 74
     2
 91
        2
 64
     7
 65
   257
 75
     1
175
     1
 42
40.0
 92
        8
 66
     7
 43
1.0
 76
     1
 77
     6
 78
     2
 67
     7
 79
     3
170
     0
171
     0
290
     0
174
     0
 93
        1
 44
0.0
173
     0
291
     0
 45
0.0
  0
VISUALSTYLE
  5
272
102
{ACAD_REACTORS
330
267
102
}
330
267
100
AcDbVisualStyle
  2
Dim
 70
    11
 71
     2
 72
     2
 73
     0
 90
        0
 40
-0.6
 41
-30.0
 62
     5
 63
     7
421
 16777215
 74
     1
 91
        4
 64
     7
 65
   257
 75
     1
175
     1
 42
1.0
 92
        8
 66
     7
 43
1.0
 76
     1
 77
     6
 78
     2
 67
     7
 79
     5
170
     0
171
     0
290
     0
174
     0
 93
        1
 44
-50.0
173
     0
291
     1
 45
0.0
  0
VISUALSTYLE
  5
8FE
102
{ACAD_REACTORS
330
267
102
}
330
267
100
AcDbVisualStyle
  2
EdgeColorOff
 70
    22
 71
     2
 72
     2
 73
     0
 90
        0
 40
0.6
 41
30.0
 62
     5
 63
     7
421
 16777215
 74
     1
 91
        4
 64
     7
 65
   257
 75
     1
175
     1
 42
1.0
 92
        8
 66
     7
 43
1.0
 76
     1
 77
     6
 78
     2
 67
     7
 79
     5
170
     0
171
     0
290
     0
174
     0
 93
        1
 44
0.0
173
     0
291
     1
 45
0.0
  0
VISUALSTYLE
  5
276
102
{ACAD_REACTORS
330
267
102
}
330
267
100
AcDbVisualStyle
  2
Facepattern
 70
    15
 71
     2
 72
     2
 73
     0
 90
        0
 40
-0.6
 41
-30.0
 62
     5
 63
     7
421
 16777215
 74
     1
 91
        4
 64
     7
 65
   257
 75
     1
175
     1
 42
1.0
 92
        8
 66
     7
 43
1.0
 76
     1
 77
     6
 78
     2
 67
     7
 79
     5
170
     0
171
     0
290
     0
174
     0
 93
        1
 44
0.0
173
     0
291
     1
 45
0.0
  0
VISUALSTYLE
  5
268
102
{ACAD_REACTORS
330
267
102
}
330
267
100
AcDbVisualStyle
  2
Flat
 70
     0
 71
     2
 72
     1
 73
     1
 90
        2
 40
-0.6
 41
30.0
 62
     5
 63
     7
421
 16777215
 74
     0
 91
        4
 64
     7
 65
   257
 75
     1
175
     1
 42
1.0
 92
        8
 66
     7
 43
1.0
 76
     1
 77
     6
 78
     2
 67
     7
 79
     5
170
     0
171
     0
290
     0
174
     0
 93
       13
 44
0.0
173
     0
291
     1
 45
0.0
  0
VISUALSTYLE
  5
269
102
{ACAD_REACTORS
330
267
102
}
330
267
100
AcDbVisualStyle
  2
FlatWithEdges
 70
     1
 71
     2
 72
     1
 73
     1
 90
        2
 40
-0.6
 41
30.0
 62
     5
 63
     7
421
 16777215
 74
     1
 91
        4
 64
     7
 65
   257
 75
     1
175
     1
 42
1.0
 92
        0
 66
   257
 43
1.0
 76
     1
 77
     6
 78
     2
 67
     7
 79
     5
170
     0
171
     0
290
     0
174
     0
 93
       13
 44
0.0
173
     0
291
     1
 45
0.0
  0
VISUALSTYLE
  5
26A
102
{ACAD_REACTORS
330
267
102
}
330
267
100
AcDbVisualStyle
  2
Gouraud
 70
     2
 71
     2
 72
     2
 73
     1
 90
        2
 40
-0.6
 41
30.0
 62
     5
 63
     7
421
 16777215
 74
     0
 91
        4
 64
     7
 65
   257
 75
     1
175
     1
 42
1.0
 92
        0
 66
     7
 43
1.0
 76
     1
 77
     6
 78
     2
 67
     7
 79
     5
170
     0
171
     0
290
     0
174
     0
 93
       13
 44
0.0
173
     0
291
     1
 45
0.0
  0
VISUALSTYLE
  5
26B
102
{ACAD_REACTORS
330
267
102
}
330
267
100
AcDbVisualStyle
  2
GouraudWithEdges
 70
     3
 71
     2
 72
     2
 73
     1
 90
        2
 40
-0.6
 41
30.0
 62
     5
 63
     7
421
 16777215
 74
     1
 91
        4
 64
     7
 65
   257
 75
     1
175
     1
 42
1.0
 92
        0
 66
   257
 43
1.0
 76
     1
 77
     6
 78
     2
 67
     7
 79
     5
170
     0
171
     0
290
     0
174
     0
 93
       13
 44
0.0
173
     0
291
     1
 45
0.0
  0
VISUALSTYLE
  5
8FB
102
{ACAD_REACTORS
330
267
102
}
330
267
100
AcDbVisualStyle
  2
Hidden
 70
     6
 71
     1
 72
     2
 73
     2
 90
        0
 40
0.6
 41
30.0
 62
     5
 63
     7
421
 16777215
 74
     2
 91
        2
 64
     7
 65
   257
 75
     2
175
     1
 42
40.0
 92
        0
 66
   257
 43
1.0
 76
     1
 77
     6
 78
     2
 67
     7
 79
     3
170
     0
171
     0
290
     0
174
     0
 93
        1
 44
0.0
173
     0
291
     0
 45
0.0
  0
VISUALSTYLE
  5
8FC
102
{ACAD_REACTORS
330
267
102
}
330
267
100
AcDbVisualStyle
  2
JitterOff
 70
    20
 71
     2
 72
     2
 73
     0
 90
        0
 40
0.6
 41
30.0
 62
     5
 63
     7
421
 16777215
 74
     1
 91
        4
 64
     7
 65
   257
 75
     1
175
     1
 42
1.0
 92
       10
 66
     7
 43
1.0
 76
     1
 77
     6
 78
     2
 67
     7
 79
     5
170
     0
171
     0
290
     0
174
     0
 93
        1
 44
0.0
173
     0
291
     1
 45
0.0
  0
VISUALSTYLE
  5
275
102
{ACAD_REACTORS
330
267
102
}
330
267
100
AcDbVisualStyle
  2
Linepattern
 70
    14
 71
     2
 72
     2
 73
     0
 90
        0
 40
-0.6
 41
-30.0
 62
     5
 63
     7
421
 16777215
 74
     1
 91
        4
 64
     7
 65
   257
 75
     7
175
     7
 42
1.0
 92
        8
 66
     7
 43
1.0
 76
     1
 77
     6
 78
     2
 67
     7
 79
     5
170
     0
171
     0
290
     0
174
     0
 93
        1
 44
0.0
173
     0
291
     1
 45
0.0
  0
VISUALSTYLE
  5
8FD
102
{ACAD_REACTORS
330
267
102
}
330
267
100
AcDbVisualStyle
  2
OverhangOff
 70
    21
 71
     2
 72
     2
 73
     0
 90
        0
 40
0.6
 41
30.0
 62
     5
 63
     7
421
 16777215
 74
     1
 91
        4
 64
     7
 65
   257
 75
     1
175
     1
 42
1.0
 92
        9
 66
     7
 43
1.0
 76
     1
 77
     6
 78
     2
 67
     7
 79
     5
170
     0
171
     0
290
     0
174
     0
 93
        1
 44
0.0
173
     0
291
     1
 45
0.0
  0
VISUALSTYLE
  5
270
102
{ACAD_REACTORS
330
267
102
}
330
267
100
AcDbVisualStyle
  2
Realistic
 70
     8
 71
     2
 72
     2
 73
     0
 90
        0
 40
-0.6
 41
-30.0
 62
     5
 63
     7
421
 16777215
 74
     1
 91
        0
 64
     7
 65
   257
 75
     1
175
     1
 42
1.0
 92
        8
 66
     8
424
  7895160
 43
1.0
 76
     1
 77
     6
 78
     2
 67
     7
 79
     5
170
     0
171
     0
290
     0
174
     0
 93
       13
 44
0.0
173
     0
291
     0
 45
0.0
  0
VISUALSTYLE
  5
903
102
{ACAD_REACTORS
330
267
102
}
330
267
100
AcDbVisualStyle
  2
Shaded
 70
    27
 71
     2
 72
     2
 73
     1
 90
        2
 40
0.6
 41
30.0
 62
     5
 63
     7
421
 16777215
 74
     0
 91
        4
 64
     7
 65
   257
 75
     1
175
     1
 42
1.0
 92
        8
 66
   257
 43
1.0
 76
     1
 77
     6
 78
     2
 67
     8
425
  7895160
 79
     3
170
     0
171
     0
290
     0
174
     0
 93
        5
 44
0.0
173
     0
291
     0
 45
0.0
  0
VISUALSTYLE
  5
902
102
{ACAD_REACTORS
330
267
102
}
330
267
100
AcDbVisualStyle
  2
Shaded with edges
 70
    26
 71
     2
 72
     2
 73
     1
 90
        2
 40
0.6
 41
30.0
 62
     5
 63
     7
421
 16777215
 74
     1
 91
       10
 64
     7
 65
   257
 75
     2
175
     1
 42
1.0
 92
        8
 66
   257
 43
1.0
 76
     1
 77
     6
 78
     2
 67
     7
 79
     3
170
     0
171
     0
290
     0
174
     0
 93
        5
 44
0.0
173
     0
291
     0
 45
0.0
  0
VISUALSTYLE
  5
8FF
102
{ACAD_REACTORS
330
267
102
}
330
267
100
AcDbVisualStyle
  2
Shades of Gray
 70
    23
 71
     2
 72
     2
 73
     3
 90
        0
 40
0.6
 41
30.0
 62
     5
 63
     7
421
 16777215
 74
     2
 91
        2
 64
     7
 65
     7
 75
     1
175
     1
 42
40.0
 92
        8
 66
     7
 43
1.0
 76
     1
 77
     6
 78
     2
 67
     7
 79
     3
170
     0
171
     0
290
     0
174
     0
 93
        1
 44
0.0
173
     0
291
     0
 45
0.0
  0
VISUALSTYLE
  5
900
102
{ACAD_REACTORS
330
267
102
}
330
267
100
AcDbVisualStyle
  2
Sketchy
 70
    24
 71
     1
 72
     2
 73
     2
 90
        0
 40
0.6
 41
30.0
 62
     5
 63
     7
421
 16777215
 74
     2
 91
        2
 64
     7
 65
     7
 75
     1
175
     1
 42
40.0
 92
       11
 66
     7
 43
1.0
 76
     1
 77
     6
 78
     2
 67
     7
 79
     6
170
     0
171
     0
290
     0
174
     0
 93
        1
 44
0.0
173
     0
291
     0
 45
0.0
  0
VISUALSTYLE
  5
274
102
{ACAD_REACTORS
330
267
102
}
330
267
100
AcDbVisualStyle
  2
Thicken
 70
    13
 71
     2
 72
     2
 73
     0
 90
        0
 40
-0.6
 41
-30.0
 62
     5
 63
     7
421
 16777215
 74
     1
 91
        4
 64
     7
 65
   257
 75
     1
175
     1
 42
1.0
 92
       12
 66
     7
 43
1.0
 76
     1
 77
     6
 78
     2
 67
     7
 79
     5
170
     0
171
     0
290
     0
174
     0
 93
        1
 44
0.0
173
     0
291
     1
 45
0.0
  0
VISUALSTYLE
  5
8FA
102
{ACAD_REACTORS
330
267
102
}
330
267
100
AcDbVisualStyle
  2
Wireframe
 70
     5
 71
     0
 72
     2
 73
     0
 90
        0
 40
0.6
 41
30.0
 62
     5
 63
     7
421
 16777215
 74
     1
 91
        4
 64
     7
 65
   257
 75
     1
175
     1
 42
1.0
 92
        0
 66
   257
 43
1.0
 76
     1
 77
     6
 78
     2
 67
     7
 79
     3
170
     0
171
     0
290
     0
174
     0
 93
        1
 44
0.0
173
     0
291
     0
 45
0.0
  0
VISUALSTYLE
  5
901
102
{ACAD_REACTORS
330
267
102
}
330
267
100
AcDbVisualStyle
  2
X-Ray
 70
    25
 71
     2
 72
     2
 73
     1
 90
        1
 40
0.5
 41
30.0
 62
     5
 63
     7
421
 16777215
 74
     1
 91
        0
 64
     7
 65
   257
 75
     1
175
     1
 42
1.0
 92
        8
 66
     7
 43
1.0
 76
     1
 77
     6
 78
     2
 67
     7
 79
     3
170
     0
171
     0
290
     0
174
     0
 93
       13
 44
0.0
173
     0
291
     0
 45
0.0
  0
DICTIONARYVAR
  5
331
102
{ACAD_REACTORS
330
330
102
}
330
330
100
DictionaryVariables
280
     0
  1
1:1
  0
DICTIONARYVAR
  5
D5E
102
{ACAD_REACTORS
330
330
102
}
330
330
100
DictionaryVariables
280
     0
  1
Standard
  0
DICTIONARYVAR
  5
335
102
{ACAD_REACTORS
330
330
102
}
330
330
100
DictionaryVariables
280
     0
  1
Standard
  0
DICTIONARYVAR
  5
D52
102
{ACAD_REACTORS
330
330
102
}
330
330
100
DictionaryVariables
280
     0
  1
ByLayer
  0
DICTIONARYVAR
  5
896
102
{ACAD_REACTORS
330
330
102
}
330
330
100
DictionaryVariables
280
     0
  1
0
  0
DICTIONARYVAR
  5
38B2
102
{ACAD_REACTORS
330
E38
102
}
330
E38
100
DictionaryVariables
280
     0
  1
0.261799
  0
DICTIONARYVAR
  5
38B0
102
{ACAD_REACTORS
330
E38
102
}
330
E38
100
DictionaryVariables
280
     0
  1
0.400000
  0
DICTIONARYVAR
  5
38B1
102
{ACAD_REACTORS
330
E38
102
}
330
E38
100
DictionaryVariables
280
     0
  1
0.250000
  0
DICTIONARYVAR
  5
38B3
102
{ACAD_REACTORS
330
E38
102
}
330
E38
100
DictionaryVariables
280
     0
  1
1
  0
XRECORD
  5
7AA
102
{ACAD_REACTORS
330
2E2
102
}
330
2E2
100
AcDbXrecord
280
     1
 91
    34815
301

290
     0
302
HIDDEN
330
14
 90
        8
 62
     7
370
    -3
331
13
  1
Color_7
440
 33554687
330
4B
 90
        8
 62
     7
370
    20
331
13
  1
Color_7
440
 33554687
330
4C
 90
        8
 62
     3
370
    13
331
13
  1
Color_3
440
 33554687
330
4D
 90
        8
 62
     7
370
    20
331
13
  1
Color_7
440
 33554687
330
667
 90
        8
 62
     7
370
    -3
331
13
  1
Color_7
440
 33554687
330
0
 90
        8
 62
     8
370
    20
331
0
  1
Color_8
440
 33554687
330
D6B
 90
        0
 62
     4
370
    20
331
D6C
  1
Color_4
440
 33554687
330
D8C
 90
        0
 62
     7
370
    -3
331
13
  1
Color_7
440
 33554687
  0
FIELD
  5
4531
102
{ACAD_REACTORS
330
4539
102
}
330
4539
100
AcDbField
  1
_text
  2
{%<\_FldIdx 0>%N}
 90
        1
360
4534
 97
        0
 91
       63
 92
        0
 94
        8
 95
        2
 96
        0
300

 93
        1
  6
ACFD_FIELDTEXT_CHECKSUM
 93
        2
 90
        2
140
4538.0
 94
        0
300

302

304
ACVALUE_END
  7
ACFD_FIELD_VALUE
 93
        6
 90
        4
  1
{20160725N}
 94
        0
300

302

304
ACVALUE_END
301
{20160725N}
 98
       11
  0
DICTIONARY
  5
50E8
330
279
100
AcDbDictionary
280
     1
281
     1
  3
ACAD_ROUNDTRIP_2008_TABLESTYLE_CELLSTYLEMAP
360
50E9
  0
FIELD
  5
4534
330
4531
100
AcDbField
  1
AcVar
  2
\AcVar CreateDate \f "yyyyMMdd"
 90
        0
 97
        0
 91
       63
 92
        0
 94
        8
 95
        2
 96
        0
300

 93
        1
  6
Variable
 93
        2
 90
        4
  1
CreateDate
 94
        0
300

302

304
ACVALUE_END
  7
ACFD_FIELD_VALUE
 93
        6
 90
        8
 92
       16
310
E0070700000019000700280012000000
 94
        0
300
yyyyMMdd
302

304
ACVALUE_END
301
20160725
 98
        8
  0
CELLSTYLEMAP
  5
50E9
102
{ACAD_REACTORS
330
50E8
102
}
330
50E8
100
AcDbCellStyleMap
 90
        3
300
CELLSTYLE
  1
TABLEFORMAT_BEGIN
 90
        5
170
     1
 91
        0
 92
    32768
 62
   257
 93
        1
300
CONTENTFORMAT
  1
CONTENTFORMAT_BEGIN
 90
        0
 91
        0
 92
        4
 93
        0
300

 40
0.0
140
1.0
 94
        5
 62
     0
340
17
144
6.0
309
CONTENTFORMAT_END
171
     1
301
MARGIN
  1
CELLMARGIN_BEGIN
 40
0.06
 40
0.06
 40
0.06
 40
0.06
 40
0.18
 40
0.18
309
CELLMARGIN_END
 94
        6
 95
        1
302
GRIDFORMAT
  1
GRIDFORMAT_BEGIN
 90
        0
 91
        1
 62
     0
 92
       -2
340
0
 93
        0
 40
0.045
309
GRIDFORMAT_END
 95
        2
302
GRIDFORMAT
  1
GRIDFORMAT_BEGIN
 90
        0
 91
        1
 62
     0
 92
       -2
340
0
 93
        0
 40
0.045
309
GRIDFORMAT_END
 95
        4
302
GRIDFORMAT
  1
GRIDFORMAT_BEGIN
 90
        0
 91
        1
 62
     0
 92
       -2
340
0
 93
        0
 40
0.045
309
GRIDFORMAT_END
 95
        8
302
GRIDFORMAT
  1
GRIDFORMAT_BEGIN
 90
        0
 91
        1
 62
     0
 92
       -2
340
0
 93
        0
 40
0.045
309
GRIDFORMAT_END
 95
       16
302
GRIDFORMAT
  1
GRIDFORMAT_BEGIN
 90
        0
 91
        1
 62
     0
 92
       -2
340
0
 93
        0
 40
0.045
309
GRIDFORMAT_END
 95
       32
302
GRIDFORMAT
  1
GRIDFORMAT_BEGIN
 90
        0
 91
        1
 62
     0
 92
       -2
340
0
 93
        0
 40
0.045
309
GRIDFORMAT_END
309
TABLEFORMAT_END
  1
CELLSTYLE_BEGIN
 90
        1
 91
        1
300
_TITLE
309
CELLSTYLE_END
300
CELLSTYLE
  1
TABLEFORMAT_BEGIN
 90
        5
170
     1
 91
        0
 92
        0
 62
   257
 93
        1
300
CONTENTFORMAT
  1
CONTENTFORMAT_BEGIN
 90
        0
 91
        0
 92
        4
 93
        0
300

 40
0.0
140
1.0
 94
        5
 62
     0
340
17
144
4.5
309
CONTENTFORMAT_END
171
     1
301
MARGIN
  1
CELLMARGIN_BEGIN
 40
0.06
 40
0.06
 40
0.06
 40
0.06
 40
0.18
 40
0.18
309
CELLMARGIN_END
 94
        6
 95
        1
302
GRIDFORMAT
  1
GRIDFORMAT_BEGIN
 90
        0
 91
        1
 62
     0
 92
       -2
340
0
 93
        0
 40
0.045
309
GRIDFORMAT_END
 95
        2
302
GRIDFORMAT
  1
GRIDFORMAT_BEGIN
 90
        0
 91
        1
 62
     0
 92
       -2
340
0
 93
        0
 40
0.045
309
GRIDFORMAT_END
 95
        4
302
GRIDFORMAT
  1
GRIDFORMAT_BEGIN
 90
        0
 91
        1
 62
     0
 92
       -2
340
0
 93
        0
 40
0.045
309
GRIDFORMAT_END
 95
        8
302
GRIDFORMAT
  1
GRIDFORMAT_BEGIN
 90
        0
 91
        1
 62
     0
 92
       -2
340
0
 93
        0
 40
0.045
309
GRIDFORMAT_END
 95
       16
302
GRIDFORMAT
  1
GRIDFORMAT_BEGIN
 90
        0
 91
        1
 62
     0
 92
       -2
340
0
 93
        0
 40
0.045
309
GRIDFORMAT_END
 95
       32
302
GRIDFORMAT
  1
GRIDFORMAT_BEGIN
 90
        0
 91
        1
 62
     0
 92
       -2
340
0
 93
        0
 40
0.045
309
GRIDFORMAT_END
309
TABLEFORMAT_END
  1
CELLSTYLE_BEGIN
 90
        2
 91
        1
300
_HEADER
309
CELLSTYLE_END
300
CELLSTYLE
  1
TABLEFORMAT_BEGIN
 90
        5
170
     1
 91
        0
 92
        0
 62
   257
 93
        1
300
CONTENTFORMAT
  1
CONTENTFORMAT_BEGIN
 90
        0
 91
        0
 92
        4
 93
        0
300

 40
0.0
140
1.0
 94
        2
 62
     0
340
17
144
4.5
309
CONTENTFORMAT_END
171
     1
301
MARGIN
  1
CELLMARGIN_BEGIN
 40
0.06
 40
0.06
 40
0.06
 40
0.06
 40
0.18
 40
0.18
309
CELLMARGIN_END
 94
        6
 95
        1
302
GRIDFORMAT
  1
GRIDFORMAT_BEGIN
 90
        0
 91
        1
 62
     0
 92
       -2
340
0
 93
        0
 40
0.045
309
GRIDFORMAT_END
 95
        2
302
GRIDFORMAT
  1
GRIDFORMAT_BEGIN
 90
        0
 91
        1
 62
     0
 92
       -2
340
0
 93
        0
 40
0.045
309
GRIDFORMAT_END
 95
        4
302
GRIDFORMAT
  1
GRIDFORMAT_BEGIN
 90
        0
 91
        1
 62
     0
 92
       -2
340
0
 93
        0
 40
0.045
309
GRIDFORMAT_END
 95
        8
302
GRIDFORMAT
  1
GRIDFORMAT_BEGIN
 90
        0
 91
        1
 62
     0
 92
       -2
340
0
 93
        0
 40
0.045
309
GRIDFORMAT_END
 95
       16
302
GRIDFORMAT
  1
GRIDFORMAT_BEGIN
 90
        0
 91
        1
 62
     0
 92
       -2
340
0
 93
        0
 40
0.045
309
GRIDFORMAT_END
 95
       32
302
GRIDFORMAT
  1
GRIDFORMAT_BEGIN
 90
        0
 91
        1
 62
     0
 92
       -2
340
0
 93
        0
 40
0.045
309
GRIDFORMAT_END
309
TABLEFORMAT_END
  1
CELLSTYLE_BEGIN
 90
        3
 91
        2
300
_DATA
309
CELLSTYLE_END
  0
ENDSEC
  0
EOF
