  0
SECTION
  2
HEADER
  9
$ACADVER
  1
AC1021
  9
$ACADMAINTVER
 70
    25
  9
$DWGCODEPAGE
  3
ANSI_932
  9
$LASTSAVEDBY
  1
howeNelson
  9
$INSBASE
 10
0.0
 20
0.0
 30
0.0
  9
$EXTMIN
 10
0.0
 20
0.0
 30
-0.0000000000000142
  9
$EXTMAX
 10
420.0
 20
594.0
 30
0.0000000000000142
  9
$LIMMIN
 10
0.0
 20
0.0
  9
$LIMMAX
 10
420.0
 20
594.0
  9
$ORTHOMODE
 70
     0
  9
$REGENMODE
 70
     1
  9
$FILLMODE
 70
     1
  9
$QTEXTMODE
 70
     0
  9
$MIRRTEXT
 70
     1
  9
$LTSCALE
 40
50.0
  9
$ATTMODE
 70
     1
  9
$TEXTSIZE
 40
2.5
  9
$TRACEWID
 40
1.0
  9
$TEXTSTYLE
  7
ＭＳ ゴシック
  9
$CLAYER
  8
DIM
  9
$CELTYPE
  6
ByLayer
  9
$CECOLOR
 62
     6
  9
$CELTSCALE
 40
0.05
  9
$DISPSILH
 70
     0
  9
$DIMSCALE
 40
1.0
  9
$DIMASZ
 40
1.0
  9
$DIMEXO
 40
5.0
  9
$DIMDLI
 40
0.9999999999999999
  9
$DIMRND
 40
0.0
  9
$DIMDLE
 40
0.0
  9
$DIMEXE
 40
0.0
  9
$DIMTP
 40
0.0
  9
$DIMTM
 40
0.0
  9
$DIMTXT
 40
5.0
  9
$DIMCEN
 40
0.0
  9
$DIMTSZ
 40
0.0
  9
$DIMTOL
 70
     0
  9
$DIMLIM
 70
     0
  9
$DIMTIH
 70
     0
  9
$DIMTOH
 70
     0
  9
$DIMSE1
 70
     0
  9
$DIMSE2
 70
     0
  9
$DIMTAD
 70
     1
  9
$DIMZIN
 70
    11
  9
$DIMBLK
  1
DOT
  9
$DIMASO
 70
     1
  9
$DIMSHO
 70
     1
  9
$DIMPOST
  1
<>
  9
$DIMAPOST
  1
[]
  9
$DIMALT
 70
     0
  9
$DIMALTD
 70
     1
  9
$DIMALTF
 40
1.0
  9
$DIMLFAC
 40
1.0
  9
$DIMTOFL
 70
     0
  9
$DIMTVP
 40
0.0
  9
$DIMTIX
 70
     1
  9
$DIMSOXD
 70
     0
  9
$DIMSAH
 70
     0
  9
$DIMBLK1
  1

  9
$DIMBLK2
  1

  9
$DIMSTYLE
  2
tfrom線あり
  9
$DIMCLRD
 70
     0
  9
$DIMCLRE
 70
     0
  9
$DIMCLRT
 70
     0
  9
$DIMTFAC
 40
1.0
  9
$DIMGAP
 40
5.0
  9
$DIMJUST
 70
     0
  9
$DIMSD1
 70
     0
  9
$DIMSD2
 70
     0
  9
$DIMTOLJ
 70
     1
  9
$DIMTZIN
 70
    11
  9
$DIMALTZ
 70
    11
  9
$DIMALTTZ
 70
    11
  9
$DIMUPT
 70
     0
  9
$DIMDEC
 70
     0
  9
$DIMTDEC
 70
     1
  9
$DIMALTU
 70
     2
  9
$DIMALTTD
 70
     2
  9
$DIMTXSTY
  7
ＭＳ ゴシック
  9
$DIMAUNIT
 70
     0
  9
$DIMADEC
 70
     2
  9
$DIMALTRND
 40
0.0
  9
$DIMAZIN
 70
     0
  9
$DIMDSEP
 70
    46
  9
$DIMATFIT
 70
     0
  9
$DIMFRAC
 70
     2
  9
$DIMLDRBLK
  1
DOT
  9
$DIMLUNIT
 70
     2
  9
$DIMLWD
 70
    -2
  9
$DIMLWE
 70
    -2
  9
$DIMTMOVE
 70
     0
  9
$DIMFXL
 40
1.0
  9
$DIMFXLON
 70
     0
  9
$DIMJOGANG
 40
0.7853981633974483
  9
$DIMTFILL
 70
     0
  9
$DIMTFILLCLR
 70
     0
  9
$DIMARCSYM
 70
     0
  9
$DIMLTYPE
  6

  9
$DIMLTEX1
  6

  9
$DIMLTEX2
  6

  9
$LUNITS
 70
     2
  9
$LUPREC
 70
     0
  9
$SKETCHINC
 40
0.1
  9
$FILLETRAD
 40
0.0
  9
$AUNITS
 70
     0
  9
$AUPREC
 70
     0
  9
$MENU
  1
acad
  9
$ELEVATION
 40
0.0
  9
$PELEVATION
 40
0.0
  9
$THICKNESS
 40
0.0
  9
$LIMCHECK
 70
     0
  9
$CHAMFERA
 40
0.0
  9
$CHAMFERB
 40
0.0
  9
$CHAMFERC
 40
0.0
  9
$CHAMFERD
 40
0.0
  9
$SKPOLY
 70
     0
  9
$TDCREATE
 40
2447893.375
  9
$TDUCREATE
 40
0.0
  9
$TDUPDATE
 40
2457596.69015294
  9
$TDUUPDATE
 40
2457596.31515294
  9
$TDINDWG
 40
0.2869922222
  9
$TDUSRTIMER
 40
2457596.315139456
  9
$USRTIMER
 70
     1
  9
$ANGBASE
 50
0.0
  9
$ANGDIR
 70
     0
  9
$PDMODE
 70
     1
  9
$PDSIZE
 40
-2.0
  9
$PLINEWID
 40
0.0
  9
$SPLFRAME
 70
     0
  9
$SPLINETYPE
 70
     6
  9
$SPLINESEGS
 70
     8
  9
$HANDSEED
  5
5927
  9
$SURFTAB1
 70
     6
  9
$SURFTAB2
 70
     6
  9
$SURFTYPE
 70
     6
  9
$SURFU
 70
     6
  9
$SURFV
 70
     6
  9
$UCSBASE
  2

  9
$UCSNAME
  2

  9
$UCSORG
 10
0.0
 20
0.0
 30
0.0
  9
$UCSXDIR
 10
1.0
 20
0.0
 30
0.0
  9
$UCSYDIR
 10
0.0
 20
1.0
 30
0.0
  9
$UCSORTHOREF
  2

  9
$UCSORTHOVIEW
 70
     0
  9
$UCSORGTOP
 10
0.0
 20
0.0
 30
0.0
  9
$UCSORGBOTTOM
 10
0.0
 20
0.0
 30
0.0
  9
$UCSORGLEFT
 10
0.0
 20
0.0
 30
0.0
  9
$UCSORGRIGHT
 10
0.0
 20
0.0
 30
0.0
  9
$UCSORGFRONT
 10
0.0
 20
0.0
 30
0.0
  9
$UCSORGBACK
 10
0.0
 20
0.0
 30
0.0
  9
$PUCSBASE
  2

  9
$PUCSNAME
  2

  9
$PUCSORG
 10
0.0
 20
0.0
 30
0.0
  9
$PUCSXDIR
 10
1.0
 20
0.0
 30
0.0
  9
$PUCSYDIR
 10
0.0
 20
1.0
 30
0.0
  9
$PUCSORTHOREF
  2

  9
$PUCSORTHOVIEW
 70
     0
  9
$PUCSORGTOP
 10
0.0
 20
0.0
 30
0.0
  9
$PUCSORGBOTTOM
 10
0.0
 20
0.0
 30
0.0
  9
$PUCSORGLEFT
 10
0.0
 20
0.0
 30
0.0
  9
$PUCSORGRIGHT
 10
0.0
 20
0.0
 30
0.0
  9
$PUCSORGFRONT
 10
0.0
 20
0.0
 30
0.0
  9
$PUCSORGBACK
 10
0.0
 20
0.0
 30
0.0
  9
$USERI1
 70
     0
  9
$USERI2
 70
     0
  9
$USERI3
 70
     0
  9
$USERI4
 70
     0
  9
$USERI5
 70
     0
  9
$USERR1
 40
0.0
  9
$USERR2
 40
0.0
  9
$USERR3
 40
0.0
  9
$USERR4
 40
0.0
  9
$USERR5
 40
0.0
  9
$WORLDVIEW
 70
     1
  9
$SHADEDGE
 70
     3
  9
$SHADEDIF
 70
    70
  9
$TILEMODE
 70
     1
  9
$MAXACTVP
 70
    64
  9
$PINSBASE
 10
0.0
 20
0.0
 30
0.0
  9
$PLIMCHECK
 70
     0
  9
$PEXTMIN
 10
0.0
 20
0.0
 30
0.0
  9
$PEXTMAX
 10
0.0
 20
0.0
 30
0.0
  9
$PLIMMIN
 10
-95.87226993865028
 20
-25.69999999999999
  9
$PLIMMAX
 10
201.1277300613497
 20
184.3
  9
$UNITMODE
 70
     0
  9
$VISRETAIN
 70
     0
  9
$PLINEGEN
 70
     1
  9
$PSLTSCALE
 70
     0
  9
$TREEDEPTH
 70
  3020
  9
$CMLSTYLE
  2
Standard
  9
$CMLJUST
 70
     0
  9
$CMLSCALE
 40
1.0
  9
$PROXYGRAPHICS
 70
     0
  9
$MEASUREMENT
 70
     1
  9
$CELWEIGHT
370
    -1
  9
$ENDCAPS
280
     0
  9
$JOINSTYLE
280
     0
  9
$LWDISPLAY
290
     1
  9
$INSUNITS
 70
     4
  9
$HYPERLINKBASE
  1

  9
$STYLESHEET
  1

  9
$XEDIT
290
     1
  9
$CEPSNTYPE
380
     0
  9
$PSTYLEMODE
290
     1
  9
$FINGERPRINTGUID
  2

  9
$VERSIONGUID
  2

  9
$EXTNAMES
290
     1
  9
$PSVPSCALE
 40
0.0
  9
$OLESTARTUP
290
     0
  9
$SORTENTS
280
   127
  9
$INDEXCTL
280
     0
  9
$HIDETEXT
280
     1
  9
$XCLIPFRAME
290
     0
  9
$HALOGAP
280
     0
  9
$OBSCOLOR
 70
   257
  9
$OBSLTYPE
280
     0
  9
$INTERSECTIONDISPLAY
280
     0
  9
$INTERSECTIONCOLOR
 70
   257
  9
$DIMASSOC
280
     2
  9
$PROJECTNAME
  1

  9
$CAMERADISPLAY
290
     0
  9
$LENSLENGTH
 40
50.0
  9
$CAMERAHEIGHT
 40
0.0
  9
$STEPSPERSEC
 40
2.0
  9
$STEPSIZE
 40
6.0
  9
$3DDWFPREC
 40
2.0
  9
$PSOLWIDTH
 40
0.25
  9
$PSOLHEIGHT
 40
4.0
  9
$LOFTANG1
 40
1.570796326794897
  9
$LOFTANG2
 40
1.570796326794897
  9
$LOFTMAG1
 40
0.0
  9
$LOFTMAG2
 40
0.0
  9
$LOFTPARAM
 70
     7
  9
$LOFTNORMALS
280
     1
  9
$LATITUDE
 40
37.795
  9
$LONGITUDE
 40
-122.394
  9
$NORTHDIRECTION
 40
0.0
  9
$TIMEZONE
 70
 -8000
  9
$LIGHTGLYPHDISPLAY
280
     1
  9
$TILEMODELIGHTSYNCH
280
     1
  9
$SOLIDHIST
280
     1
  9
$SHOWHIST
280
     1
  9
$DWFFRAME
280
     2
  9
$DGNFRAME
280
     2
  9
$REALWORLDSCALE
290
     1
  9
$INTERFERECOLOR
 62
   256
  9
$CSHADOW
280
     0
  9
$SHADOWPLANELOCATION
 40
0.0
  0
ENDSEC
  0
SECTION
  2
CLASSES
  0
CLASS
  1
LWPOLYLINE
  2
AcDbPolyline
  3
ObjectDBX Classes
 90
        0
 91
        1
280
     0
281
     1
  0
CLASS
  1
IMAGE
  2
AcDbRasterImage
  3
ISM
 90
      127
 91
        6
280
     0
281
     1
  0
CLASS
  1
OLE2FRAME
  2
AcDbOle2Frame
  3
ObjectDBX Classes
 90
        0
 91
        1
280
     0
281
     1
  0
CLASS
  1
HATCH
  2
AcDbHatch
  3
ObjectDBX Classes
 90
        0
 91
        1
280
     0
281
     1
  0
CLASS
  1
DICTIONARYVAR
  2
AcDbDictionaryVar
  3
ObjectDBX Classes
 90
        0
 91
        5
280
     0
281
     0
  0
CLASS
  1
RASTERVARIABLES
  2
AcDbRasterVariables
  3
ISM
 90
        0
 91
        5
280
     0
281
     0
  0
CLASS
  1
IMAGEDEF
  2
AcDbRasterImageDef
  3
ISM
 90
        0
 91
        5
280
     0
281
     0
  0
CLASS
  1
IMAGEDEF_REACTOR
  2
AcDbRasterImageDefReactor
  3
ISM
 90
        1
 91
        5
280
     0
281
     0
  0
CLASS
  1
IDBUFFER
  2
AcDbIdBuffer
  3
ObjectDBX Classes
 90
        0
 91
        5
280
     0
281
     0
  0
CLASS
  1
SPATIAL_FILTER
  2
AcDbSpatialFilter
  3
ObjectDBX Classes
 90
        0
 91
        5
280
     0
281
     0
  0
CLASS
  1
XRECORD
  2
AcDbXrecord
  3
ObjectDBX Classes
 90
        0
 91
        1
280
     0
281
     0
  0
CLASS
  1
SORTENTSTABLE
  2
AcDbSortentsTable
  3
ObjectDBX Classes
 90
        0
 91
        5
280
     0
281
     0
  0
CLASS
  1
LAYER_INDEX
  2
AcDbLayerIndex
  3
ObjectDBX Classes
 90
        0
 91
        5
280
     0
281
     0
  0
CLASS
  1
SPATIAL_INDEX
  2
AcDbSpatialIndex
  3
AutoCAD 2000
 90
        0
 91
        5
280
     0
281
     0
  0
CLASS
  1
OBJECT_PTR
  2
CAseDLPNTableRecord
  3
ASE-LPNTableRecord
 90
        1
 91
        5
280
     0
281
     0
  0
CLASS
  1
LAYOUT
  2
AcDbLayout
  3
ObjectDBX Classes
 90
        0
 91
        1
280
     0
281
     0
  0
CLASS
  1
PLOTSETTINGS
  2
AcDbPlotSettings
  3
ObjectDBX Classes
 90
        0
 91
        5
280
     0
281
     0
  0
CLASS
  1
ACDBDICTIONARYWDFLT
  2
AcDbDictionaryWithDefault
  3
ObjectDBX Classes
 90
        0
 91
        5
280
     0
281
     0
  0
CLASS
  1
ACDBPLACEHOLDER
  2
AcDbPlaceHolder
  3
ObjectDBX Classes
 90
        0
 91
        1
280
     0
281
     0
  0
CLASS
  1
SCALE
  2
AcDbScale
  3
ObjectDBX Classes
 90
     1153
 91
        5
280
     0
281
     0
  0
CLASS
  1
MATERIAL
  2
AcDbMaterial
  3
ObjectDBX Classes
 90
     1153
 91
        5
280
     0
281
     0
  0
CLASS
  1
VISUALSTYLE
  2
AcDbVisualStyle
  3
ObjectDBX Classes
 90
     4095
 91
        5
280
     0
281
     0
  0
CLASS
  1
TABLESTYLE
  2
AcDbTableStyle
  3
ObjectDBX Classes
 90
     4095
 91
        5
280
     0
281
     0
  0
CLASS
  1
DIMASSOC
  2
AcDbDimAssoc
  3
"AcDbDimAssoc|Product Desc:     AcDim ARX App For Dimension|Company:          Autodesk, Inc.|WEB Address:      www.autodesk.com"
 90
        0
 91
        5
280
     0
281
     0
  0
CLASS
  1
CELLSTYLEMAP
  2
AcDbCellStyleMap
  3
ObjectDBX Classes
 90
     1152
 91
        5
280
     0
281
     0
  0
CLASS
  1
SUN
  2
AcDbSun
  3
SCENEOE
 90
     1153
 91
        5
280
     0
281
     0
  0
CLASS
  1
MLEADERSTYLE
  2
AcDbMLeaderStyle
  3
ACDB_MLEADERSTYLE_CLASS
 90
     4095
 91
        5
280
     0
281
     0
  0
CLASS
  1
FIELD
  2
AcDbField
  3
ObjectDBX Classes
 90
     1152
 91
        5
280
     0
281
     0
  0
CLASS
  1
FIELDLIST
  2
AcDbFieldList
  3
ObjectDBX Classes
 90
     1152
 91
        5
280
     0
281
     0
  0
ENDSEC
  0
SECTION
  2
TABLES
  0
TABLE
  2
VPORT
  5
7
330
0
100
AcDbSymbolTable
 70
     1
  0
VPORT
  5
15
330
7
100
AcDbSymbolTableRecord
100
AcDbViewportTableRecord
  2
*ACTIVE
 70
     0
 10
0.0
 20
0.0
 11
1.0
 21
1.0
 12
301.0201356709088
 22
223.401285469834
 13
0.0
 23
0.0
 14
1.0
 24
1.0
 15
0.0
 25
0.0
 16
0.0
 26
0.0
 36
1.0
 17
-91.02013567090876
 27
73.59871453016603
 37
-46.86809886248109
 40
605.8800000000005
 41
2.479940564635958
 42
50.0
 43
0.0
 44
0.0
 50
0.0
 51
0.0
 71
    16
 72
  2000
 73
     1
 74
     1
 75
     0
 76
     0
 77
     0
 78
     0
281
     0
 65
     1
110
0.0
120
0.0
130
0.0
111
1.0
121
0.0
131
0.0
112
0.0
122
1.0
132
0.0
 79
     0
146
0.0
348
26C
 60
     3
 61
     5
292
     1
282
     1
141
0.0
142
0.0
 63
   256
361
904
  0
ENDTAB
  0
TABLE
  2
LTYPE
  5
4
330
0
100
AcDbSymbolTable
 70
     4
  0
LTYPE
  5
11
330
4
100
AcDbSymbolTableRecord
100
AcDbLinetypeTableRecord
  2
ByBlock
 70
     0
  3

 72
    65
 73
     0
 40
0.0
  0
LTYPE
  5
12
330
4
100
AcDbSymbolTableRecord
100
AcDbLinetypeTableRecord
  2
ByLayer
 70
     0
  3

 72
    65
 73
     0
 40
0.0
  0
LTYPE
  5
13
330
4
100
AcDbSymbolTableRecord
100
AcDbLinetypeTableRecord
  2
Continuous
 70
     0
  3
Solid line
 72
    65
 73
     0
 40
0.0
  0
LTYPE
  5
D6C
330
4
100
AcDbSymbolTableRecord
100
AcDbLinetypeTableRecord
  2
BORDER
 70
     0
  3
Border __  __  . __  __  . __  __  . __  __  . 
 72
    65
 73
     6
 40
44.45
 49
12.7
 74
     0
 49
-6.35
 74
     0
 49
12.7
 74
     0
 49
-6.35
 74
     0
 49
0.0
 74
     0
 49
-6.35
 74
     0
  0
LTYPE
  5
1638
330
4
100
AcDbSymbolTableRecord
100
AcDbLinetypeTableRecord
  2
HIDDEN2
 70
     0
  3
Hidden (.5x) _ _ _ _ _ _ _ _ _ _ _ _ _ _ _ _ _ 
 72
    65
 73
     2
 40
4.7625
 49
3.175
 74
     4
 75
     0
340
0
 46
0.0
 50
0.0
 44
0.0
 45
0.0
 49
-1.5875
 74
     4
 75
     0
340
0
 46
0.0
 50
0.0
 44
0.0
 45
0.0
  0
LTYPE
  5
58E6
330
4
100
AcDbSymbolTableRecord
100
AcDbLinetypeTableRecord
  2
HIDDEN
 70
     0
  3
Hidden _ _ _ _ _ _ _ _ _ _ _ _ _ _ _ _ _ _ _ _ 
 72
    65
 73
     2
 40
9.524999999999999
 49
6.35
 74
     0
 49
-3.175
 74
     0
  0
ENDTAB
  0
TABLE
  2
LAYER
  5
2
102
{ACAD_XDICTIONARY
360
2E1
102
}
330
0
100
AcDbSymbolTable
 70
     9
  0
LAYER
  5
14
330
2
100
AcDbSymbolTableRecord
100
AcDbLayerTableRecord
  2
0
 70
     0
 62
     7
  6
Continuous
370
    -3
390
1D
347
266
  0
LAYER
  5
4B
330
2
100
AcDbSymbolTableRecord
100
AcDbLayerTableRecord
  2
TEMPLATE
 70
     0
 62
     7
  6
Continuous
370
    20
390
1D
347
266
  0
LAYER
  5
4C
330
2
100
AcDbSymbolTableRecord
100
AcDbLayerTableRecord
  2
DIM
 70
     0
 62
     3
  6
Continuous
370
    13
390
1D
347
266
  0
LAYER
  5
4D
330
2
100
AcDbSymbolTableRecord
100
AcDbLayerTableRecord
  2
MODEL
 70
     0
 62
     7
  6
Continuous
370
    20
390
1D
347
266
  0
LAYER
  5
667
330
2
100
AcDbSymbolTableRecord
100
AcDbLayerTableRecord
  2
LOGO
 70
     0
 62
     7
  6
Continuous
370
    -3
390
1D
347
266
  0
LAYER
  5
D6B
330
2
100
AcDbSymbolTableRecord
100
AcDbLayerTableRecord
  2
BORDER
 70
     0
 62
     4
  6
BORDER
290
     0
370
    20
390
1D
347
266
1001
AcAecLayerStandard
1000

1000

  0
LAYER
  5
D8C
330
2
100
AcDbSymbolTableRecord
100
AcDbLayerTableRecord
  2
Defpoints
 70
     0
 62
     7
  6
Continuous
290
     0
370
    -3
390
1D
347
266
  0
LAYER
  5
1635
330
2
100
AcDbSymbolTableRecord
100
AcDbLayerTableRecord
  2
Standard
 70
     0
 62
     7
  6
Continuous
370
    -3
390
1D
347
266
  0
LAYER
  5
3445
330
2
100
AcDbSymbolTableRecord
100
AcDbLayerTableRecord
  2
Layer50
 70
     0
 62
     7
  6
Continuous
370
    -3
390
1D
347
266
  0
ENDTAB
  0
TABLE
  2
STYLE
  5
3
330
0
100
AcDbSymbolTable
 70
     2
  0
STYLE
  5
17
330
3
100
AcDbSymbolTableRecord
100
AcDbTextStyleTableRecord
  2
Standard
 70
     0
 40
0.0
 41
1.0
 50
0.0
 71
     0
 42
2.5
  3
txt
  4
BIGFONT.SHX
  0
STYLE
  5
39
330
3
100
AcDbSymbolTableRecord
100
AcDbTextStyleTableRecord
  2
ＭＳ ゴシック
 70
     0
 40
0.0
 41
1.0
 50
0.0
 71
     0
 42
2.5
  3
msgothic.ttc
  4
ＭＳ ゴシック
1001
ACAD
1000
ＭＳ ゴシック
1071
        0
  0
ENDTAB
  0
TABLE
  2
VIEW
  5
5
330
0
100
AcDbSymbolTable
 70
     0
  0
ENDTAB
  0
TABLE
  2
UCS
  5
6
330
0
100
AcDbSymbolTable
 70
     0
  0
ENDTAB
  0
TABLE
  2
APPID
  5
8
330
0
100
AcDbSymbolTable
 70
     3
  0
APPID
  5
16
330
8
100
AcDbSymbolTableRecord
100
AcDbRegAppTableRecord
  2
ACAD
 70
     0
  0
APPID
  5
7AC
330
8
100
AcDbSymbolTableRecord
100
AcDbRegAppTableRecord
  2
AcAecLayerStandard
 70
     0
  0
APPID
  5
E29
330
8
100
AcDbSymbolTableRecord
100
AcDbRegAppTableRecord
  2
ACAD_MLEADERVER
 70
     0
  0
ENDTAB
  0
TABLE
  2
DIMSTYLE
  5
9
330
0
100
AcDbSymbolTable
 70
     2
100
AcDbDimStyleTable
  0
DIMSTYLE
105
18
330
9
100
AcDbSymbolTableRecord
100
AcDbDimStyleTableRecord
  2
Standard
 70
     0
178
     0
340
17
  0
DIMSTYLE
105
57
102
{ACAD_REACTORS
330
534F
330
5350
330
5354
102
}
330
9
100
AcDbSymbolTableRecord
100
AcDbDimStyleTableRecord
  2
tfrom線あり
 70
     0
  3
<>
  4
[]
 41
1.0
 42
5.0
 43
0.9999999999999999
 44
0.0
 73
     0
 74
     0
 77
     1
 78
    11
140
5.0
141
0.0
143
1.0
147
5.0
171
     1
174
     1
178
     0
179
     2
271
     0
272
     1
276
     2
284
    11
285
    11
286
    11
289
     0
340
39
341
4E
342
4E
  0
ENDTAB
  0
TABLE
  2
BLOCK_RECORD
  5
1
330
0
100
AcDbSymbolTable
 70
     9
  0
BLOCK_RECORD
  5
A
330
1
100
AcDbSymbolTableRecord
100
AcDbBlockTableRecord
  2
*MODEL_SPACE
340
20
 70
     0
280
     1
281
     0
  0
BLOCK_RECORD
  5
B
330
1
100
AcDbSymbolTableRecord
100
AcDbBlockTableRecord
  2
*PAPER_SPACE
340
21
 70
     0
280
     1
281
     0
  0
BLOCK_RECORD
  5
4E
330
1
100
AcDbSymbolTableRecord
100
AcDbBlockTableRecord
  2
_DOT
340
0
102
{BLKREFS
331
535B
331
535C
331
5367
331
5368
331
5373
331
5374
102
}
 70
     0
280
     1
281
     0
  0
BLOCK_RECORD
  5
68A
330
1
100
AcDbSymbolTableRecord
100
AcDbBlockTableRecord
  2
名称未設定-1
340
0
102
{BLKREFS
331
6B5
102
}
 70
     1
280
     1
281
     0
  0
BLOCK_RECORD
  5
68D
330
1
100
AcDbSymbolTableRecord
100
AcDbBlockTableRecord
  2
block 2
340
0
102
{BLKREFS
331
68C
331
1343
102
}
 70
     0
280
     1
281
     0
  0
BLOCK_RECORD
  5
690
330
1
100
AcDbSymbolTableRecord
100
AcDbBlockTableRecord
  2
block 3
340
0
102
{BLKREFS
331
68F
102
}
 70
     0
280
     1
281
     0
  0
BLOCK_RECORD
  5
693
330
1
100
AcDbSymbolTableRecord
100
AcDbBlockTableRecord
  2
block 4
340
0
102
{BLKREFS
331
692
102
}
 70
     0
280
     1
281
     0
  0
BLOCK_RECORD
  5
6A2
330
1
100
AcDbSymbolTableRecord
100
AcDbBlockTableRecord
  2
block 5
340
0
102
{BLKREFS
331
6A1
102
}
 70
     0
280
     1
281
     0
  0
BLOCK_RECORD
  5
5355
330
1
100
AcDbSymbolTableRecord
100
AcDbBlockTableRecord
  2
*D6
340
0
 70
     0
280
     1
281
     0
  0
BLOCK_RECORD
  5
5361
330
1
100
AcDbSymbolTableRecord
100
AcDbBlockTableRecord
  2
*D7
340
0
 70
     0
280
     1
281
     0
  0
BLOCK_RECORD
  5
536D
330
1
100
AcDbSymbolTableRecord
100
AcDbBlockTableRecord
  2
*D8
340
0
 70
     0
280
     1
281
     0
  0
ENDTAB
  0
ENDSEC
  0
SECTION
  2
BLOCKS
  0
BLOCK
  5
D
330
A
100
AcDbEntity
  8
0
390
1D
100
AcDbBlockBegin
  2
*MODEL_SPACE
 70
     0
 10
0.0
 20
0.0
 30
0.0
  3
*MODEL_SPACE
  1
*MODEL_SPACE
  0
ENDBLK
  5
E
330
A
100
AcDbEntity
  8
0
390
1D
100
AcDbBlockEnd
  0
BLOCK
  5
F
330
B
100
AcDbEntity
 67
     1
  8
0
390
1D
100
AcDbBlockBegin
  2
*PAPER_SPACE
 70
     0
 10
0.0
 20
0.0
 30
0.0
  3
*PAPER_SPACE
  1
*PAPER_SPACE
  0
ENDBLK
  5
10
330
B
100
AcDbEntity
 67
     1
  8
0
390
1D
100
AcDbBlockEnd
  0
BLOCK
  5
38A8
330
4E
100
AcDbEntity
  8
0
390
1D
100
AcDbBlockBegin
  2
_DOT
 70
     0
 10
0.0
 20
0.0
 30
0.0
  3
_DOT
  1
_DOT
  0
POLYLINE
  5
38AA
330
4E
100
AcDbEntity
  8
0
  6
ByBlock
 62
     0
370
    -2
390
1D
100
AcDb2dPolyline
 66
     1
 10
0.0
 20
0.0
 30
0.0
 70
     1
 40
0.5
 41
0.5
  0
VERTEX
  5
38AB
330
38AA
100
AcDbEntity
  8
0
  6
ByBlock
 62
     0
370
    -2
390
1D
100
AcDbVertex
100
AcDb2dVertex
 10
-0.25
 20
0.0
 30
0.0
 42
1.0
  0
VERTEX
  5
38AC
330
38AA
100
AcDbEntity
  8
0
  6
ByBlock
 62
     0
370
    -2
390
1D
100
AcDbVertex
100
AcDb2dVertex
 10
0.25
 20
0.0
 30
0.0
 42
1.0
  0
SEQEND
  5
38AD
330
38AA
100
AcDbEntity
  8
0
390
1D
  0
LINE
  5
38AE
330
4E
100
AcDbEntity
  8
0
  6
ByBlock
 62
     0
370
    -2
390
1D
100
AcDbLine
 10
-0.5
 20
0.0
 30
0.0
 11
-1.0
 21
0.0
 31
0.0
  0
ENDBLK
  5
38AF
330
4E
100
AcDbEntity
  8
0
390
1D
100
AcDbBlockEnd
  0
BLOCK
  5
68B
330
68A
100
AcDbEntity
  8
0
100
AcDbBlockBegin
  2
名称未設定-1
 70
     0
 10
0.0
 20
0.0
 30
0.0
  3
名称未設定-1
  1
名称未設定-1
  0
INSERT
  5
68F
330
68A
100
AcDbEntity
  8
LOGO
100
AcDbBlockReference
  2
block 3
 10
0.0
 20
0.0
 30
0.0
  0
ENDBLK
  5
6B1
330
68A
100
AcDbEntity
  8
0
100
AcDbBlockEnd
  0
BLOCK
  5
68E
330
68D
100
AcDbEntity
  8
0
100
AcDbBlockBegin
  2
block 2
 70
     0
 10
0.0
 20
0.0
 30
0.0
  3
block 2
  1
block 2
  0
ENDBLK
  5
6B0
330
68D
100
AcDbEntity
  8
0
100
AcDbBlockEnd
  0
BLOCK
  5
691
330
690
100
AcDbEntity
  8
0
100
AcDbBlockBegin
  2
block 3
 70
     0
 10
0.0
 20
0.0
 30
0.0
  3
block 3
  1
block 3
  0
INSERT
  5
692
330
690
100
AcDbEntity
  8
LOGO
100
AcDbBlockReference
  2
block 4
 10
0.0
 20
0.0
 30
0.0
  0
INSERT
  5
6A1
330
690
100
AcDbEntity
  8
LOGO
100
AcDbBlockReference
  2
block 5
 10
0.0
 20
0.0
 30
0.0
  0
ENDBLK
  5
6AF
330
690
100
AcDbEntity
  8
0
100
AcDbBlockEnd
  0
BLOCK
  5
694
330
693
100
AcDbEntity
  8
0
100
AcDbBlockBegin
  2
block 4
 70
     0
 10
0.0
 20
0.0
 30
0.0
  3
block 4
  1
block 4
  0
POLYLINE
  5
695
330
693
100
AcDbEntity
  8
LOGO
370
     0
100
AcDb2dPolyline
 66
     1
 10
0.0
 20
0.0
 30
0.0
  0
VERTEX
  5
696
330
695
100
AcDbEntity
  8
LOGO
370
     0
100
AcDbVertex
100
AcDb2dVertex
 10
83.79545727667795
 20
167.6444858234922
 30
0.0
  0
VERTEX
  5
697
330
695
100
AcDbEntity
  8
LOGO
370
     0
100
AcDbVertex
100
AcDb2dVertex
 10
83.79545727667795
 20
159.7968976406313
 30
0.0
  0
VERTEX
  5
698
330
695
100
AcDbEntity
  8
LOGO
370
     0
100
AcDbVertex
100
AcDb2dVertex
 10
71.3631329975216
 20
159.7968976406313
 30
0.0
  0
VERTEX
  5
699
330
695
100
AcDbEntity
  8
LOGO
370
     0
100
AcDbVertex
100
AcDb2dVertex
 10
71.3631329975216
 20
127.8027915271048
 30
0.0
  0
VERTEX
  5
69A
330
695
100
AcDbEntity
  8
LOGO
370
     0
100
AcDbVertex
100
AcDb2dVertex
 10
60.43011526263018
 20
127.8027915271048
 30
0.0
  0
VERTEX
  5
69B
330
695
100
AcDbEntity
  8
LOGO
370
     0
100
AcDbVertex
100
AcDb2dVertex
 10
60.43011526263018
 20
159.7968976406313
 30
0.0
  0
VERTEX
  5
69C
330
695
100
AcDbEntity
  8
LOGO
370
     0
100
AcDbVertex
100
AcDb2dVertex
 10
48.21793273020759
 20
159.7968976406313
 30
0.0
  0
VERTEX
  5
69D
330
695
100
AcDbEntity
  8
LOGO
370
     0
100
AcDbVertex
100
AcDb2dVertex
 10
48.21793273020759
 20
167.6444858234922
 30
0.0
  0
VERTEX
  5
69E
330
695
100
AcDbEntity
  8
LOGO
370
     0
100
AcDbVertex
100
AcDb2dVertex
 10
83.79545727667795
 20
167.6444858234922
 30
0.0
  0
SEQEND
  5
69F
330
695
100
AcDbEntity
  8
LOGO
370
     0
  0
HATCH
  5
6A0
330
693
100
AcDbEntity
  8
LOGO
 62
   250
420
  2234388
100
AcDbHatch
 10
0.0
 20
0.0
 30
0.0
210
0.0
220
0.0
230
1.0
  2
SOLID
 70
     1
 71
     0
 91
        1
 92
        1
 93
        8
 72
     1
 10
83.79545727667795
 20
167.6444858234922
 11
83.79545727667795
 21
159.7968976406313
 72
     1
 10
83.79545727667795
 20
159.7968976406313
 11
71.3631329975216
 21
159.7968976406313
 72
     1
 10
71.3631329975216
 20
159.7968976406313
 11
71.3631329975216
 21
127.8027915271048
 72
     1
 10
71.3631329975216
 20
127.8027915271048
 11
60.43011526263018
 21
127.8027915271048
 72
     1
 10
60.43011526263018
 20
127.8027915271048
 11
60.43011526263018
 21
159.7968976406313
 72
     1
 10
60.43011526263018
 20
159.7968976406313
 11
48.21793273020759
 21
159.7968976406313
 72
     1
 10
48.21793273020759
 20
159.7968976406313
 11
48.21793273020759
 21
167.6444858234922
 72
     1
 10
48.21793273020759
 20
167.6444858234922
 11
83.79545727667795
 21
167.6444858234922
 97
        0
 75
     2
 76
     1
 98
        0
  0
ENDBLK
  5
6AE
330
693
100
AcDbEntity
  8
0
100
AcDbBlockEnd
  0
BLOCK
  5
6A3
330
6A2
100
AcDbEntity
  8
0
100
AcDbBlockBegin
  2
block 5
 70
     0
 10
0.0
 20
0.0
 30
0.0
  3
block 5
  1
block 5
  0
SPLINE
  5
6A4
330
6A2
100
AcDbEntity
  8
LOGO
370
     0
100
AcDbSpline
210
0.0
220
0.0
230
1.0
 70
    11
 71
     3
 72
    56
 73
    52
 74
     0
 42
0.000000001
 43
0.0000000001
 40
0.0
 40
0.0
 40
0.0
 40
0.0
 40
1.0
 40
1.0
 40
1.0
 40
2.0
 40
2.0
 40
2.0
 40
3.0
 40
3.0
 40
3.0
 40
4.0
 40
4.0
 40
4.0
 40
5.0
 40
5.0
 40
5.0
 40
6.0
 40
6.0
 40
6.0
 40
7.0
 40
7.0
 40
7.0
 40
8.0
 40
8.0
 40
8.0
 40
9.0
 40
9.0
 40
9.0
 40
10.0
 40
10.0
 40
10.0
 40
11.0
 40
11.0
 40
11.0
 40
12.0
 40
12.0
 40
12.0
 40
13.0
 40
13.0
 40
13.0
 40
14.0
 40
14.0
 40
14.0
 40
15.0
 40
15.0
 40
15.0
 40
16.0
 40
16.0
 40
16.0
 40
17.0
 40
17.0
 40
17.0
 40
17.0
 10
100.4504378777679
 20
166.69157178364
 30
0.0
 10
101.9848844191641
 20
167.1313385124438
 30
0.0
 10
103.9637485713373
 20
166.7649523658846
 30
0.0
 10
103.9637485713373
 20
166.7649523658846
 30
0.0
 10
103.9637485713373
 20
166.7649523658846
 30
0.0
 10
103.0132460999156
 20
163.911205638077
 30
0.0
 10
103.0132460999156
 20
163.911205638077
 30
0.0
 10
103.0132460999156
 20
163.911205638077
 30
0.0
 10
101.0674548862189
 20
164.3601018759394
 30
0.0
 10
99.57090442016032
 20
163.1805004036133
 30
0.0
 10
98.40508333886608
 20
162.258247733807
 30
0.0
 10
97.65301849830304
 20
159.804132345923
 30
0.0
 10
97.3598406791005
 20
158.8699940888517
 30
0.0
 10
97.3598406791005
 20
158.8699940888517
 30
0.0
 10
96.07137411762282
 20
154.9119212747295
 30
0.0
 10
96.07137411762282
 20
154.9119212747295
 30
0.0
 10
96.07137411762282
 20
154.9119212747295
 30
0.0
 10
100.3012651448482
 20
154.9119212747295
 30
0.0
 10
100.3012651448482
 20
154.9119212747295
 30
0.0
 10
100.3012651448482
 20
154.9119212747295
 30
0.0
 10
99.64152892419852
 20
152.4199098115079
 30
0.0
 10
99.64152892419852
 20
152.4199098115079
 30
0.0
 10
99.64152892419852
 20
152.4199098115079
 30
0.0
 10
95.38097652692731
 20
152.4199098115079
 30
0.0
 10
95.38097652692731
 20
152.4199098115079
 30
0.0
 10
95.38097652692731
 20
152.4199098115079
 30
0.0
 10
87.75353009080013
 20
127.8027915271048
 30
0.0
 10
87.75353009080013
 20
127.8027915271048
 30
0.0
 10
87.75353009080013
 20
127.8027915271048
 30
0.0
 10
85.36538832498108
 20
127.8027915271048
 30
0.0
 10
85.36538832498108
 20
127.8027915271048
 30
0.0
 10
85.36538832498108
 20
127.8027915271048
 30
0.0
 10
93.00006946639998
 20
152.4199098115079
 30
0.0
 10
93.00006946639998
 20
152.4199098115079
 30
0.0
 10
93.00006946639998
 20
152.4199098115079
 30
0.0
 10
89.85297266450198
 20
152.4199098115079
 30
0.0
 10
89.85297266450198
 20
152.4199098115079
 30
0.0
 10
89.85297266450198
 20
152.4199098115079
 30
0.0
 10
90.51270888515164
 20
154.9119212747295
 30
0.0
 10
90.51270888515164
 20
154.9119212747295
 30
0.0
 10
90.51270888515164
 20
154.9119212747295
 30
0.0
 10
93.6904670570955
 20
154.9119212747295
 30
0.0
 10
93.6904670570955
 20
154.9119212747295
 30
0.0
 10
93.6904670570955
 20
154.9119212747295
 30
0.0
 10
94.81598049462158
 20
158.3616699146644
 30
0.0
 10
94.81598049462158
 20
158.3616699146644
 30
0.0
 10
95.7237637538445
 20
161.2605474231013
 30
0.0
 10
96.4968436907311
 20
162.8139420021662
 30
0.0
 10
97.15657991138076
 20
163.9844139654337
 30
0.0
 10
97.81183750494507
 20
165.1523021053827
 30
0.0
 10
99.1047826935081
 20
166.3084769129547
 30
0.0
 10
100.4504378777679
 20
166.69157178364
 30
0.0
  0
HATCH
  5
6A5
330
6A2
100
AcDbEntity
  8
LOGO
 62
   250
420
  2234388
100
AcDbHatch
 10
0.0
 20
0.0
 30
0.0
210
0.0
220
0.0
230
1.0
  2
SOLID
 70
     1
 71
     0
 91
        1
 92
        1
 93
        1
 72
     4
 94
        3
 73
     0
 74
     1
 95
       56
 96
       52
 40
0.0
 40
0.0
 40
0.0
 40
0.0
 40
1.0
 40
1.0
 40
1.0
 40
2.0
 40
2.0
 40
2.0
 40
3.0
 40
3.0
 40
3.0
 40
4.0
 40
4.0
 40
4.0
 40
5.0
 40
5.0
 40
5.0
 40
6.0
 40
6.0
 40
6.0
 40
7.0
 40
7.0
 40
7.0
 40
8.0
 40
8.0
 40
8.0
 40
9.0
 40
9.0
 40
9.0
 40
10.0
 40
10.0
 40
10.0
 40
11.0
 40
11.0
 40
11.0
 40
12.0
 40
12.0
 40
12.0
 40
13.0
 40
13.0
 40
13.0
 40
14.0
 40
14.0
 40
14.0
 40
15.0
 40
15.0
 40
15.0
 40
16.0
 40
16.0
 40
16.0
 40
17.0
 40
17.0
 40
17.0
 40
17.0
 10
100.4504378777679
 20
166.69157178364
 10
101.9848844191641
 20
167.1313385124438
 10
103.9637485713373
 20
166.7649523658846
 10
103.9637485713373
 20
166.7649523658846
 10
103.9637485713373
 20
166.7649523658846
 10
103.0132460999156
 20
163.911205638077
 10
103.0132460999156
 20
163.911205638077
 10
103.0132460999156
 20
163.911205638077
 10
101.0674548862189
 20
164.3601018759394
 10
99.57090442016032
 20
163.1805004036133
 10
98.40508333886608
 20
162.258247733807
 10
97.65301849830304
 20
159.804132345923
 10
97.3598406791005
 20
158.8699940888517
 10
97.3598406791005
 20
158.8699940888517
 10
96.07137411762282
 20
154.9119212747295
 10
96.07137411762282
 20
154.9119212747295
 10
96.07137411762282
 20
154.9119212747295
 10
100.3012651448482
 20
154.9119212747295
 10
100.3012651448482
 20
154.9119212747295
 10
100.3012651448482
 20
154.9119212747295
 10
99.64152892419852
 20
152.4199098115079
 10
99.64152892419852
 20
152.4199098115079
 10
99.64152892419852
 20
152.4199098115079
 10
95.38097652692731
 20
152.4199098115079
 10
95.38097652692731
 20
152.4199098115079
 10
95.38097652692731
 20
152.4199098115079
 10
87.75353009080013
 20
127.8027915271048
 10
87.75353009080013
 20
127.8027915271048
 10
87.75353009080013
 20
127.8027915271048
 10
85.36538832498108
 20
127.8027915271048
 10
85.36538832498108
 20
127.8027915271048
 10
85.36538832498108
 20
127.8027915271048
 10
93.00006946639998
 20
152.4199098115079
 10
93.00006946639998
 20
152.4199098115079
 10
93.00006946639998
 20
152.4199098115079
 10
89.85297266450198
 20
152.4199098115079
 10
89.85297266450198
 20
152.4199098115079
 10
89.85297266450198
 20
152.4199098115079
 10
90.51270888515164
 20
154.9119212747295
 10
90.51270888515164
 20
154.9119212747295
 10
90.51270888515164
 20
154.9119212747295
 10
93.6904670570955
 20
154.9119212747295
 10
93.6904670570955
 20
154.9119212747295
 10
93.6904670570955
 20
154.9119212747295
 10
94.81598049462158
 20
158.3616699146644
 10
94.81598049462158
 20
158.3616699146644
 10
95.7237637538445
 20
161.2605474231013
 10
96.4968436907311
 20
162.8139420021662
 10
97.15657991138076
 20
163.9844139654337
 10
97.81183750494507
 20
165.1523021053827
 10
99.1047826935081
 20
166.3084769129547
 10
100.4504378777679
 20
166.69157178364
 97
        0
 75
     2
 76
     1
 98
        0
  0
SPLINE
  5
6A6
330
6A2
100
AcDbEntity
  8
LOGO
370
     0
100
AcDbSpline
210
0.0
220
0.0
230
1.0
 70
    11
 71
     3
 72
    38
 73
    34
 74
     0
 42
0.000000001
 43
0.0000000001
 40
0.0
 40
0.0
 40
0.0
 40
0.0
 40
1.0
 40
1.0
 40
1.0
 40
2.0
 40
2.0
 40
2.0
 40
3.0
 40
3.0
 40
3.0
 40
4.0
 40
4.0
 40
4.0
 40
5.0
 40
5.0
 40
5.0
 40
6.0
 40
6.0
 40
6.0
 40
7.0
 40
7.0
 40
7.0
 40
8.0
 40
8.0
 40
8.0
 40
9.0
 40
9.0
 40
9.0
 40
10.0
 40
10.0
 40
10.0
 40
11.0
 40
11.0
 40
11.0
 40
11.0
 10
126.377554584636
 20
154.8151140277308
 30
0.0
 10
126.377554584636
 20
154.8151140277308
 30
0.0
 10
128.8311532078563
 20
154.8151140277308
 30
0.0
 10
128.8311532078563
 20
154.8151140277308
 30
0.0
 10
128.8311532078563
 20
154.8151140277308
 30
0.0
 10
127.7345785914971
 20
151.3062819612468
 30
0.0
 10
127.7345785914971
 20
151.3062819612468
 30
0.0
 10
128.571392836906
 20
152.2922689395754
 30
0.0
 10
129.8860421413442
 20
153.604506675583
 30
0.0
 10
131.0163787157314
 20
154.2664822097754
 30
0.0
 10
132.7044766171327
 20
155.2500576196734
 30
0.0
 10
133.6642808525008
 20
155.3847609420097
 30
0.0
 10
134.7284715499351
 20
155.3565111403944
 30
0.0
 10
134.7284715499351
 20
155.3565111403944
 30
0.0
 10
133.6877075172549
 20
152.0345756272799
 30
0.0
 10
133.6877075172549
 20
152.0345756272799
 30
0.0
 10
133.011434827367
 20
152.3184516825359
 30
0.0
 10
130.930940291334
 20
151.7768823149844
 30
0.0
 10
129.739280976855
 20
150.9162968950455
 30
0.0
 10
128.66613302525
 20
150.1454562717016
 30
0.0
 10
127.9192358313239
 20
149.4857200510519
 30
0.0
 10
127.0393578639405
 20
147.8282835196966
 30
0.0
 10
126.164647543194
 20
146.1699857139017
 30
0.0
 10
125.4742499524985
 20
143.5262176944419
 30
0.0
 10
124.2822461282437
 20
139.6959580071401
 30
0.0
 10
124.2822461282437
 20
139.6959580071401
 30
0.0
 10
120.5753209406769
 20
127.8027915271048
 30
0.0
 10
120.5753209406769
 20
127.8027915271048
 30
0.0
 10
120.5753209406769
 20
127.8027915271048
 30
0.0
 10
118.1964809388044
 20
127.8027915271048
 30
0.0
 10
118.1964809388044
 20
127.8027915271048
 30
0.0
 10
118.1964809388044
 20
127.8027915271048
 30
0.0
 10
126.377554584636
 20
154.8151140277308
 30
0.0
 10
126.377554584636
 20
154.8151140277308
 30
0.0
  0
HATCH
  5
6A7
330
6A2
100
AcDbEntity
  8
LOGO
 62
   250
420
  2234388
100
AcDbHatch
 10
0.0
 20
0.0
 30
0.0
210
0.0
220
0.0
230
1.0
  2
SOLID
 70
     1
 71
     0
 91
        1
 92
        1
 93
        1
 72
     4
 94
        3
 73
     0
 74
     1
 95
       38
 96
       34
 40
0.0
 40
0.0
 40
0.0
 40
0.0
 40
1.0
 40
1.0
 40
1.0
 40
2.0
 40
2.0
 40
2.0
 40
3.0
 40
3.0
 40
3.0
 40
4.0
 40
4.0
 40
4.0
 40
5.0
 40
5.0
 40
5.0
 40
6.0
 40
6.0
 40
6.0
 40
7.0
 40
7.0
 40
7.0
 40
8.0
 40
8.0
 40
8.0
 40
9.0
 40
9.0
 40
9.0
 40
10.0
 40
10.0
 40
10.0
 40
11.0
 40
11.0
 40
11.0
 40
11.0
 10
126.377554584636
 20
154.8151140277308
 10
126.377554584636
 20
154.8151140277308
 10
128.8311532078563
 20
154.8151140277308
 10
128.8311532078563
 20
154.8151140277308
 10
128.8311532078563
 20
154.8151140277308
 10
127.7345785914971
 20
151.3062819612468
 10
127.7345785914971
 20
151.3062819612468
 10
128.571392836906
 20
152.2922689395754
 10
129.8860421413442
 20
153.604506675583
 10
131.0163787157314
 20
154.2664822097754
 10
132.7044766171327
 20
155.2500576196734
 10
133.6642808525008
 20
155.3847609420097
 10
134.7284715499351
 20
155.3565111403944
 10
134.7284715499351
 20
155.3565111403944
 10
133.6877075172549
 20
152.0345756272799
 10
133.6877075172549
 20
152.0345756272799
 10
133.011434827367
 20
152.3184516825359
 10
130.930940291334
 20
151.7768823149844
 10
129.739280976855
 20
150.9162968950455
 10
128.66613302525
 20
150.1454562717016
 10
127.9192358313239
 20
149.4857200510519
 10
127.0393578639405
 20
147.8282835196966
 10
126.164647543194
 20
146.1699857139017
 10
125.4742499524985
 20
143.5262176944419
 10
124.2822461282437
 20
139.6959580071401
 10
124.2822461282437
 20
139.6959580071401
 10
120.5753209406769
 20
127.8027915271048
 10
120.5753209406769
 20
127.8027915271048
 10
120.5753209406769
 20
127.8027915271048
 10
118.1964809388044
 20
127.8027915271048
 10
118.1964809388044
 20
127.8027915271048
 10
118.1964809388044
 20
127.8027915271048
 10
126.377554584636
 20
154.8151140277308
 10
126.377554584636
 20
154.8151140277308
 97
        0
 75
     2
 76
     1
 98
        0
  0
SPLINE
  5
6A8
330
6A2
100
AcDbEntity
  8
LOGO
370
     0
100
AcDbSpline
210
0.0
220
0.0
230
1.0
 70
    11
 71
     3
 72
   104
 73
   100
 74
     0
 42
0.000000001
 43
0.0000000001
 40
0.0
 40
0.0
 40
0.0
 40
0.0
 40
1.0
 40
1.0
 40
1.0
 40
2.0
 40
2.0
 40
2.0
 40
3.0
 40
3.0
 40
3.0
 40
4.0
 40
4.0
 40
4.0
 40
5.0
 40
5.0
 40
5.0
 40
6.0
 40
6.0
 40
6.0
 40
7.0
 40
7.0
 40
7.0
 40
8.0
 40
8.0
 40
8.0
 40
9.0
 40
9.0
 40
9.0
 40
10.0
 40
10.0
 40
10.0
 40
11.0
 40
11.0
 40
11.0
 40
12.0
 40
12.0
 40
12.0
 40
13.0
 40
13.0
 40
13.0
 40
14.0
 40
14.0
 40
14.0
 40
15.0
 40
15.0
 40
15.0
 40
16.0
 40
16.0
 40
16.0
 40
17.0
 40
17.0
 40
17.0
 40
18.0
 40
18.0
 40
18.0
 40
19.0
 40
19.0
 40
19.0
 40
20.0
 40
20.0
 40
20.0
 40
21.0
 40
21.0
 40
21.0
 40
22.0
 40
22.0
 40
22.0
 40
23.0
 40
23.0
 40
23.0
 40
24.0
 40
24.0
 40
24.0
 40
25.0
 40
25.0
 40
25.0
 40
26.0
 40
26.0
 40
26.0
 40
27.0
 40
27.0
 40
27.0
 40
28.0
 40
28.0
 40
28.0
 40
29.0
 40
29.0
 40
29.0
 40
30.0
 40
30.0
 40
30.0
 40
31.0
 40
31.0
 40
31.0
 40
32.0
 40
32.0
 40
32.0
 40
33.0
 40
33.0
 40
33.0
 40
33.0
 10
139.8926730891197
 20
154.8294111834263
 30
0.0
 10
139.8926730891197
 20
154.8294111834263
 30
0.0
 10
142.0344903652445
 20
154.8294111834263
 30
0.0
 10
142.0344903652445
 20
154.8294111834263
 30
0.0
 10
142.0344903652445
 20
154.8294111834263
 30
0.0
 10
140.9516961399171
 20
151.3157559800812
 30
0.0
 10
140.9516961399171
 20
151.3157559800812
 30
0.0
 10
141.8928968473923
 20
152.7887075264977
 30
0.0
 10
142.7341897198865
 20
153.4484437471474
 30
0.0
 10
143.8552245303272
 20
154.2926649527359
 30
0.0
 10
144.9803934580775
 20
155.1296514530327
 30
0.0
 10
146.3139908001845
 20
155.3044901642492
 30
0.0
 10
147.241066606852
 20
155.3044901642492
 30
0.0
 10
148.3855280820469
 20
155.3044901642492
 30
0.0
 10
149.4969166187653
 20
155.0752189084569
 30
0.0
 10
150.0784491203092
 20
153.8172414621372
 30
0.0
 10
150.5228667310863
 20
152.833838307127
 30
0.0
 10
150.5414702589793
 20
152.7201500811143
 30
0.0
 10
150.4140016419347
 20
150.7765981809602
 30
0.0
 10
151.5818897818837
 20
152.7699317437168
 30
0.0
 10
152.4424752018226
 20
153.6256940267945
 30
0.0
 10
153.9038856707499
 20
154.4507949398263
 30
0.0
 10
155.4455669174378
 20
155.3044901642492
 30
0.0
 10
156.339225275853
 20
155.3659851592288
 30
0.0
 10
157.3748216618963
 20
155.2147453676543
 30
0.0
 10
158.911679771723
 20
154.9877134254046
 30
0.0
 10
159.8859534176746
 20
154.4390816074493
 30
0.0
 10
160.3965169054045
 20
152.7816450760939
 30
0.0
 10
160.9070803931344
 20
151.1219692311958
 30
0.0
 10
160.6328506116007
 20
150.2303779314354
 30
0.0
 10
159.9992971339115
 20
147.597634224801
 30
0.0
 10
159.7105979417943
 20
146.4014962832367
 30
0.0
 10
159.2947746424084
 20
144.9400858143094
 30
0.0
 10
158.7463150793409
 20
143.2092687007094
 30
0.0
 10
158.7463150793409
 20
143.2092687007094
 30
0.0
 10
153.9038856707499
 20
127.8027915271048
 30
0.0
 10
153.9038856707499
 20
127.8027915271048
 30
0.0
 10
153.9038856707499
 20
127.8027915271048
 30
0.0
 10
151.3882752878863
 20
127.8027915271048
 30
0.0
 10
151.3882752878863
 20
127.8027915271048
 30
0.0
 10
151.3882752878863
 20
127.8027915271048
 30
0.0
 10
155.6250565106276
 20
141.2751908193897
 30
0.0
 10
155.6250565106276
 20
141.2751908193897
 30
0.0
 10
156.5094131050963
 20
144.0936252951782
 30
0.0
 10
157.109893644309
 20
146.1506931664571
 30
0.0
 10
157.4220195011804
 20
147.4415712963654
 30
0.0
 10
157.8095929989511
 20
149.0530157726519
 30
0.0
 10
157.9656559273867
 20
149.5826995529385
 30
0.0
 10
157.7816877071116
 20
150.7529992613181
 30
0.0
 10
157.6111553680925
 20
151.8430281919372
 30
0.0
 10
157.0582171779396
 20
152.5547853887321
 30
0.0
 10
156.1170164704645
 20
152.5547853887321
 30
0.0
 10
155.1096698860365
 20
152.5547853887321
 30
0.0
 10
154.2962823053817
 20
152.4412694176073
 30
0.0
 10
153.156643967048
 20
151.2945686288697
 30
0.0
 10
152.0170056287143
 20
150.1476955852443
 30
0.0
 10
151.076149431015
 20
148.7930831468137
 30
0.0
 10
150.3337308641742
 20
147.2290087646991
 30
0.0
 10
149.5957909244188
 20
145.6683794803425
 30
0.0
 10
148.8530278478023
 20
143.6822806228776
 30
0.0
 10
148.0964843801539
 20
141.2751908193897
 30
0.0
 10
148.0964843801539
 20
141.2751908193897
 30
0.0
 10
143.8552245303272
 20
127.8027915271048
 30
0.0
 10
143.8552245303272
 20
127.8027915271048
 30
0.0
 10
143.8552245303272
 20
127.8027915271048
 30
0.0
 10
141.486030802177
 20
127.8027915271048
 30
0.0
 10
141.486030802177
 20
127.8027915271048
 30
0.0
 10
141.486030802177
 20
127.8027915271048
 30
0.0
 10
146.3329388378533
 20
143.2092687007094
 30
0.0
 10
146.3329388378533
 20
143.2092687007094
 30
0.0
 10
146.8483254624444
 20
144.8408669988801
 30
0.0
 10
147.2314203331297
 20
146.1837661049335
 30
0.0
 10
147.4867020769946
 20
147.224185627838
 30
0.0
 10
147.9169947869641
 20
149.0197705792876
 30
0.0
 10
148.0306830129768
 20
150.2400242051577
 30
0.0
 10
147.709255392159
 20
151.3157559800812
 30
0.0
 10
147.3874832615654
 20
152.3916600098926
 30
0.0
 10
146.8245542879144
 20
152.6683013598569
 30
0.0
 10
145.8840425999909
 20
152.6683013598569
 30
0.0
 10
145.0989048209514
 20
152.6683013598569
 30
0.0
 10
144.3282364524954
 20
152.3275811915945
 30
0.0
 10
143.4531816219731
 20
151.6538923250251
 30
0.0
 10
142.34627171234
 20
150.8074318058939
 30
0.0
 10
141.901854101563
 20
150.1097995099067
 30
0.0
 10
141.3578731655808
 20
149.289521733736
 30
0.0
 10
140.6299240093235
 20
148.192602607601
 30
0.0
 10
140.2850697237515
 20
147.455696197173
 30
0.0
 10
139.6652966370942
 20
145.8385673095858
 30
0.0
 10
139.0506911970739
 20
144.2214384219986
 30
0.0
 10
138.463991048893
 20
142.3252566160164
 30
0.0
 10
138.0571250036777
 20
141.0154304484394
 30
0.0
 10
138.0571250036777
 20
141.0154304484394
 30
0.0
 10
133.9009590684727
 20
127.8027915271048
 30
0.0
 10
133.9009590684727
 20
127.8027915271048
 30
0.0
 10
133.9009590684727
 20
127.8027915271048
 30
0.0
 10
131.4180771143097
 20
127.8027915271048
 30
0.0
 10
131.4180771143097
 20
127.8027915271048
 30
0.0
 10
131.4180771143097
 20
127.8027915271048
 30
0.0
 10
139.8926730891197
 20
154.8294111834263
 30
0.0
 10
139.8926730891197
 20
154.8294111834263
 30
0.0
  0
HATCH
  5
6A9
330
6A2
100
AcDbEntity
  8
LOGO
 62
   250
420
  2234388
100
AcDbHatch
 10
0.0
 20
0.0
 30
0.0
210
0.0
220
0.0
230
1.0
  2
SOLID
 70
     1
 71
     0
 91
        1
 92
        1
 93
        1
 72
     4
 94
        3
 73
     0
 74
     1
 95
      104
 96
      100
 40
0.0
 40
0.0
 40
0.0
 40
0.0
 40
1.0
 40
1.0
 40
1.0
 40
2.0
 40
2.0
 40
2.0
 40
3.0
 40
3.0
 40
3.0
 40
4.0
 40
4.0
 40
4.0
 40
5.0
 40
5.0
 40
5.0
 40
6.0
 40
6.0
 40
6.0
 40
7.0
 40
7.0
 40
7.0
 40
8.0
 40
8.0
 40
8.0
 40
9.0
 40
9.0
 40
9.0
 40
10.0
 40
10.0
 40
10.0
 40
11.0
 40
11.0
 40
11.0
 40
12.0
 40
12.0
 40
12.0
 40
13.0
 40
13.0
 40
13.0
 40
14.0
 40
14.0
 40
14.0
 40
15.0
 40
15.0
 40
15.0
 40
16.0
 40
16.0
 40
16.0
 40
17.0
 40
17.0
 40
17.0
 40
18.0
 40
18.0
 40
18.0
 40
19.0
 40
19.0
 40
19.0
 40
20.0
 40
20.0
 40
20.0
 40
21.0
 40
21.0
 40
21.0
 40
22.0
 40
22.0
 40
22.0
 40
23.0
 40
23.0
 40
23.0
 40
24.0
 40
24.0
 40
24.0
 40
25.0
 40
25.0
 40
25.0
 40
26.0
 40
26.0
 40
26.0
 40
27.0
 40
27.0
 40
27.0
 40
28.0
 40
28.0
 40
28.0
 40
29.0
 40
29.0
 40
29.0
 40
30.0
 40
30.0
 40
30.0
 40
31.0
 40
31.0
 40
31.0
 40
32.0
 40
32.0
 40
32.0
 40
33.0
 40
33.0
 40
33.0
 40
33.0
 10
139.8926730891197
 20
154.8294111834263
 10
139.8926730891197
 20
154.8294111834263
 10
142.0344903652445
 20
154.8294111834263
 10
142.0344903652445
 20
154.8294111834263
 10
142.0344903652445
 20
154.8294111834263
 10
140.9516961399171
 20
151.3157559800812
 10
140.9516961399171
 20
151.3157559800812
 10
141.8928968473923
 20
152.7887075264977
 10
142.7341897198865
 20
153.4484437471474
 10
143.8552245303272
 20
154.2926649527359
 10
144.9803934580775
 20
155.1296514530327
 10
146.3139908001845
 20
155.3044901642492
 10
147.241066606852
 20
155.3044901642492
 10
148.3855280820469
 20
155.3044901642492
 10
149.4969166187653
 20
155.0752189084569
 10
150.0784491203092
 20
153.8172414621372
 10
150.5228667310863
 20
152.833838307127
 10
150.5414702589793
 20
152.7201500811143
 10
150.4140016419347
 20
150.7765981809602
 10
151.5818897818837
 20
152.7699317437168
 10
152.4424752018226
 20
153.6256940267945
 10
153.9038856707499
 20
154.4507949398263
 10
155.4455669174378
 20
155.3044901642492
 10
156.339225275853
 20
155.3659851592288
 10
157.3748216618963
 20
155.2147453676543
 10
158.911679771723
 20
154.9877134254046
 10
159.8859534176746
 20
154.4390816074493
 10
160.3965169054045
 20
152.7816450760939
 10
160.9070803931344
 20
151.1219692311958
 10
160.6328506116007
 20
150.2303779314354
 10
159.9992971339115
 20
147.597634224801
 10
159.7105979417943
 20
146.4014962832367
 10
159.2947746424084
 20
144.9400858143094
 10
158.7463150793409
 20
143.2092687007094
 10
158.7463150793409
 20
143.2092687007094
 10
153.9038856707499
 20
127.8027915271048
 10
153.9038856707499
 20
127.8027915271048
 10
153.9038856707499
 20
127.8027915271048
 10
151.3882752878863
 20
127.8027915271048
 10
151.3882752878863
 20
127.8027915271048
 10
151.3882752878863
 20
127.8027915271048
 10
155.6250565106276
 20
141.2751908193897
 10
155.6250565106276
 20
141.2751908193897
 10
156.5094131050963
 20
144.0936252951782
 10
157.109893644309
 20
146.1506931664571
 10
157.4220195011804
 20
147.4415712963654
 10
157.8095929989511
 20
149.0530157726519
 10
157.9656559273867
 20
149.5826995529385
 10
157.7816877071116
 20
150.7529992613181
 10
157.6111553680925
 20
151.8430281919372
 10
157.0582171779396
 20
152.5547853887321
 10
156.1170164704645
 20
152.5547853887321
 10
155.1096698860365
 20
152.5547853887321
 10
154.2962823053817
 20
152.4412694176073
 10
153.156643967048
 20
151.2945686288697
 10
152.0170056287143
 20
150.1476955852443
 10
151.076149431015
 20
148.7930831468137
 10
150.3337308641742
 20
147.2290087646991
 10
149.5957909244188
 20
145.6683794803425
 10
148.8530278478023
 20
143.6822806228776
 10
148.0964843801539
 20
141.2751908193897
 10
148.0964843801539
 20
141.2751908193897
 10
143.8552245303272
 20
127.8027915271048
 10
143.8552245303272
 20
127.8027915271048
 10
143.8552245303272
 20
127.8027915271048
 10
141.486030802177
 20
127.8027915271048
 10
141.486030802177
 20
127.8027915271048
 10
141.486030802177
 20
127.8027915271048
 10
146.3329388378533
 20
143.2092687007094
 10
146.3329388378533
 20
143.2092687007094
 10
146.8483254624444
 20
144.8408669988801
 10
147.2314203331297
 20
146.1837661049335
 10
147.4867020769946
 20
147.224185627838
 10
147.9169947869641
 20
149.0197705792876
 10
148.0306830129768
 20
150.2400242051577
 10
147.709255392159
 20
151.3157559800812
 10
147.3874832615654
 20
152.3916600098926
 10
146.8245542879144
 20
152.6683013598569
 10
145.8840425999909
 20
152.6683013598569
 10
145.0989048209514
 20
152.6683013598569
 10
144.3282364524954
 20
152.3275811915945
 10
143.4531816219731
 20
151.6538923250251
 10
142.34627171234
 20
150.8074318058939
 10
141.901854101563
 20
150.1097995099067
 10
141.3578731655808
 20
149.289521733736
 10
140.6299240093235
 20
148.192602607601
 10
140.2850697237515
 20
147.455696197173
 10
139.6652966370942
 20
145.8385673095858
 10
139.0506911970739
 20
144.2214384219986
 10
138.463991048893
 20
142.3252566160164
 10
138.0571250036777
 20
141.0154304484394
 10
138.0571250036777
 20
141.0154304484394
 10
133.9009590684727
 20
127.8027915271048
 10
133.9009590684727
 20
127.8027915271048
 10
133.9009590684727
 20
127.8027915271048
 10
131.4180771143097
 20
127.8027915271048
 10
131.4180771143097
 20
127.8027915271048
 10
131.4180771143097
 20
127.8027915271048
 10
139.8926730891197
 20
154.8294111834263
 10
139.8926730891197
 20
154.8294111834263
 97
        0
 75
     2
 76
     1
 98
        0
  0
SPLINE
  5
6AA
330
6A2
100
AcDbEntity
  8
LOGO
370
     0
100
AcDbSpline
210
0.0
220
0.0
230
1.0
 70
    11
 71
     3
 72
    29
 73
    25
 74
     0
 42
0.000000001
 43
0.0000000001
 40
0.0
 40
0.0
 40
0.0
 40
0.0
 40
1.0
 40
1.0
 40
1.0
 40
2.0
 40
2.0
 40
2.0
 40
3.0
 40
3.0
 40
3.0
 40
4.0
 40
4.0
 40
4.0
 40
5.0
 40
5.0
 40
5.0
 40
6.0
 40
6.0
 40
6.0
 40
7.0
 40
7.0
 40
7.0
 40
8.0
 40
8.0
 40
8.0
 40
8.0
 10
101.6420971922469
 20
132.8388354296931
 30
0.0
 10
101.630039350094
 20
134.7164137077823
 30
0.0
 10
102.2236296937908
 20
138.0598810818841
 30
0.0
 10
103.7487744712405
 20
142.5378191476827
 30
0.0
 10
105.819967243327
 20
148.5896501242061
 30
0.0
 10
107.0602024361932
 20
150.8074318058939
 30
0.0
 10
108.1522984254671
 20
151.8833358357054
 30
0.0
 10
109.741177511439
 20
153.4532668840085
 30
0.0
 10
111.8740375333931
 20
153.5290590346837
 30
0.0
 10
112.5075910110823
 20
153.4532668840085
 30
0.0
 10
113.4012493694975
 20
153.3490526768302
 30
0.0
 10
114.6683563248758
 20
152.7580461564518
 30
0.0
 10
114.7493161221879
 20
150.7838328862519
 30
0.0
 10
114.8106388622796
 20
149.0909118479895
 30
0.0
 10
114.3186789024427
 20
145.9191825971221
 30
0.0
 10
112.6164561002338
 20
140.9489400617108
 30
0.0
 10
110.6444821435766
 20
135.1746117095912
 30
0.0
 10
109.4669477299053
 20
132.8960240524753
 30
0.0
 10
108.5212683953448
 20
131.9072809959403
 30
0.0
 10
106.7346406980658
 20
130.0538184021569
 30
0.0
 10
104.8222669326213
 20
130.2336525051225
 30
0.0
 10
104.5408024457958
 20
130.2336525051225
 30
0.0
 10
104.1721769856939
 20
130.2336525051225
 30
0.0
 10
101.6465758193322
 20
130.6305277668397
 30
0.0
 10
101.6420971922469
 20
132.8388354296931
 30
0.0
  0
SPLINE
  5
6AB
330
6A2
100
AcDbEntity
  8
LOGO
370
     0
100
AcDbSpline
210
0.0
220
0.0
230
1.0
 70
    11
 71
     3
 72
    32
 73
    28
 74
     0
 42
0.000000001
 43
0.0000000001
 40
0.0
 40
0.0
 40
0.0
 40
0.0
 40
1.0
 40
1.0
 40
1.0
 40
2.0
 40
2.0
 40
2.0
 40
3.0
 40
3.0
 40
3.0
 40
4.0
 40
4.0
 40
4.0
 40
5.0
 40
5.0
 40
5.0
 40
6.0
 40
6.0
 40
6.0
 40
7.0
 40
7.0
 40
7.0
 40
8.0
 40
8.0
 40
8.0
 40
9.0
 40
9.0
 40
9.0
 40
9.0
 10
106.2595617172429
 20
153.4105476718098
 30
0.0
 10
104.8222669326213
 20
151.5474388043041
 30
0.0
 10
103.7177685914188
 20
149.8758773721411
 30
0.0
 10
101.9232171692965
 20
144.6141795664062
 30
0.0
 10
100.2754269116635
 20
139.7999999594306
 30
0.0
 10
99.22777268346732
 20
136.3052927937542
 30
0.0
 10
99.06964269637689
 20
132.039572749846
 30
0.0
 10
98.94665270641765
 20
128.8673267343149
 30
0.0
 10
100.8807305877373
 20
127.8027915271048
 30
0.0
 10
103.7129454545577
 20
127.8027915271048
 30
0.0
 10
104.9352661390825
 20
127.8027915271048
 30
0.0
 10
108.0151835347002
 20
127.8827177950895
 30
0.0
 10
110.2045431598849
 20
130.5926316915021
 30
0.0
 10
111.7417457794874
 20
132.4984597712065
 30
0.0
 10
113.155269389579
 20
134.475256864725
 30
0.0
 10
115.0562743324223
 20
140.9489400617108
 30
0.0
 10
116.6361961642235
 20
146.3680788349845
 30
0.0
 10
117.7282921534974
 20
149.8639917848761
 30
0.0
 10
117.6480213757369
 20
151.8595646611754
 30
0.0
 10
117.6480213757369
 20
151.8595646611754
 30
0.0
 10
117.6480213757369
 20
151.8595646611754
 30
0.0
 10
117.6480213757369
 20
151.8595646611754
 30
0.0
 10
117.13229024137
 20
155.18150017429
 30
0.0
 10
114.7162431837115
 20
155.886194920681
 30
0.0
 10
113.3351034925446
 20
155.886194920681
 30
0.0
 10
111.9829026225447
 20
155.886194920681
 30
0.0
 10
108.3414342923792
 20
156.1251124501957
 30
0.0
 10
106.2595617172429
 20
153.4105476718098
 30
0.0
  0
HATCH
  5
6AC
330
6A2
100
AcDbEntity
  8
LOGO
 62
   250
420
  2234388
100
AcDbHatch
 10
0.0
 20
0.0
 30
0.0
210
0.0
220
0.0
230
1.0
  2
SOLID
 70
     1
 71
     0
 91
        2
 92
        1
 93
        1
 72
     4
 94
        3
 73
     0
 74
     1
 95
       29
 96
       25
 40
0.0
 40
0.0
 40
0.0
 40
0.0
 40
1.0
 40
1.0
 40
1.0
 40
2.0
 40
2.0
 40
2.0
 40
3.0
 40
3.0
 40
3.0
 40
4.0
 40
4.0
 40
4.0
 40
5.0
 40
5.0
 40
5.0
 40
6.0
 40
6.0
 40
6.0
 40
7.0
 40
7.0
 40
7.0
 40
8.0
 40
8.0
 40
8.0
 40
8.0
 10
101.6420971922469
 20
132.8388354296931
 10
101.630039350094
 20
134.7164137077823
 10
102.2236296937908
 20
138.0598810818841
 10
103.7487744712405
 20
142.5378191476827
 10
105.819967243327
 20
148.5896501242061
 10
107.0602024361932
 20
150.8074318058939
 10
108.1522984254671
 20
151.8833358357054
 10
109.741177511439
 20
153.4532668840085
 10
111.8740375333931
 20
153.5290590346837
 10
112.5075910110823
 20
153.4532668840085
 10
113.4012493694975
 20
153.3490526768302
 10
114.6683563248758
 20
152.7580461564518
 10
114.7493161221879
 20
150.7838328862519
 10
114.8106388622796
 20
149.0909118479895
 10
114.3186789024427
 20
145.9191825971221
 10
112.6164561002338
 20
140.9489400617108
 10
110.6444821435766
 20
135.1746117095912
 10
109.4669477299053
 20
132.8960240524753
 10
108.5212683953448
 20
131.9072809959403
 10
106.7346406980658
 20
130.0538184021569
 10
104.8222669326213
 20
130.2336525051225
 10
104.5408024457958
 20
130.2336525051225
 10
104.1721769856939
 20
130.2336525051225
 10
101.6465758193322
 20
130.6305277668397
 10
101.6420971922469
 20
132.8388354296931
 97
        0
 92
        1
 93
        1
 72
     4
 94
        3
 73
     0
 74
     1
 95
       32
 96
       28
 40
0.0
 40
0.0
 40
0.0
 40
0.0
 40
1.0
 40
1.0
 40
1.0
 40
2.0
 40
2.0
 40
2.0
 40
3.0
 40
3.0
 40
3.0
 40
4.0
 40
4.0
 40
4.0
 40
5.0
 40
5.0
 40
5.0
 40
6.0
 40
6.0
 40
6.0
 40
7.0
 40
7.0
 40
7.0
 40
8.0
 40
8.0
 40
8.0
 40
9.0
 40
9.0
 40
9.0
 40
9.0
 10
106.2595617172429
 20
153.4105476718098
 10
104.8222669326213
 20
151.5474388043041
 10
103.7177685914188
 20
149.8758773721411
 10
101.9232171692965
 20
144.6141795664062
 10
100.2754269116635
 20
139.7999999594306
 10
99.22777268346732
 20
136.3052927937542
 10
99.06964269637689
 20
132.039572749846
 10
98.94665270641765
 20
128.8673267343149
 10
100.8807305877373
 20
127.8027915271048
 10
103.7129454545577
 20
127.8027915271048
 10
104.9352661390825
 20
127.8027915271048
 10
108.0151835347002
 20
127.8827177950895
 10
110.2045431598849
 20
130.5926316915021
 10
111.7417457794874
 20
132.4984597712065
 10
113.155269389579
 20
134.475256864725
 10
115.0562743324223
 20
140.9489400617108
 10
116.6361961642235
 20
146.3680788349845
 10
117.7282921534974
 20
149.8639917848761
 10
117.6480213757369
 20
151.8595646611754
 10
117.6480213757369
 20
151.8595646611754
 10
117.6480213757369
 20
151.8595646611754
 10
117.6480213757369
 20
151.8595646611754
 10
117.13229024137
 20
155.18150017429
 10
114.7162431837115
 20
155.886194920681
 10
113.3351034925446
 20
155.886194920681
 10
111.9829026225447
 20
155.886194920681
 10
108.3414342923792
 20
156.1251124501957
 10
106.2595617172429
 20
153.4105476718098
 97
        0
 75
     2
 76
     1
 98
        0
  0
ENDBLK
  5
6AD
330
6A2
100
AcDbEntity
  8
0
100
AcDbBlockEnd
  0
BLOCK
  5
5356
330
5355
100
AcDbEntity
  8
0
100
AcDbBlockBegin
  2
*D6
 70
     1
 10
0.0
 20
0.0
 30
0.0
  3
*D6
  1
*D24
  0
LINE
  5
5358
330
5355
100
AcDbEntity
  8
DIM
 62
     0
 48
0.05
370
    -2
100
AcDbLine
 10
204.9081113181621
 20
154.3233402214166
 30
0.0
 11
204.9081113181621
 21
134.3788651601342
 31
0.0
  0
LINE
  5
5359
330
5355
100
AcDbEntity
  8
DIM
 62
     0
 48
0.05
370
    -2
100
AcDbLine
 10
360.9081113181621
 20
183.3722183742047
 30
0.0
 11
360.9081113181621
 21
134.3788651601342
 31
0.0
  0
LINE
  5
535A
330
5355
100
AcDbEntity
  8
DIM
 62
     0
 48
0.05
370
    -2
100
AcDbLine
 10
205.9081113181621
 20
134.3788651601342
 30
0.0
 11
359.9081113181621
 21
134.3788651601342
 31
0.0
  0
INSERT
  5
535B
330
5355
100
AcDbEntity
  8
DIM
 62
     0
370
    -2
100
AcDbBlockReference
  2
_DOT
 10
204.9081113181621
 20
134.3788651601342
 30
0.0
 50
180.0
  0
INSERT
  5
535C
330
5355
100
AcDbEntity
  8
DIM
 62
     0
370
    -2
100
AcDbBlockReference
  2
_DOT
 10
360.9081113181621
 20
134.3788651601342
 30
0.0
  0
MTEXT
  5
535D
330
5355
100
AcDbEntity
  8
DIM
 62
     0
 48
0.05
100
AcDbMText
 10
282.9081113181621
 20
141.8788651601342
 30
0.0
 40
5.0
 41
0.0
 46
0.0
 71
     5
 72
     1
  1
\A1;156
  7
ＭＳ ゴシック
 73
     1
 44
1.0
  0
POINT
  5
535E
330
5355
100
AcDbEntity
  8
Defpoints
 62
     0
100
AcDbPoint
 10
204.9081113181621
 20
159.3233402214166
 30
0.0
  0
POINT
  5
535F
330
5355
100
AcDbEntity
  8
Defpoints
 62
     0
100
AcDbPoint
 10
360.9081113181621
 20
188.3722183742047
 30
0.0
  0
POINT
  5
5360
330
5355
100
AcDbEntity
  8
Defpoints
 62
     0
100
AcDbPoint
 10
360.9081113181621
 20
134.3788651601342
 30
0.0
  0
ENDBLK
  5
5357
330
5355
100
AcDbEntity
  8
0
100
AcDbBlockEnd
  0
BLOCK
  5
5362
330
5361
100
AcDbEntity
  8
0
100
AcDbBlockBegin
  2
*D7
 70
     1
 10
0.0
 20
0.0
 30
0.0
  3
*D7
  1
*D25
  0
LINE
  5
5364
330
5361
100
AcDbEntity
  8
DIM
 62
     0
 48
0.05
370
    -2
100
AcDbLine
 10
234.057455073341
 20
202.6315987276284
 30
0.0
 11
397.2090588901922
 21
202.6315987276284
 31
0.0
  0
LINE
  5
5365
330
5361
100
AcDbEntity
  8
DIM
 62
     0
 48
0.05
370
    -2
100
AcDbLine
 10
373.4951171983881
 20
197.3313987276284
 30
0.0
 11
397.2090588901922
 21
197.3313987276284
 31
0.0
  0
LINE
  5
5366
330
5361
100
AcDbEntity
  8
DIM
 62
     0
 48
0.05
370
    -2
100
AcDbLine
 10
397.2090588901922
 20
201.6315987276284
 30
0.0
 11
397.2090588901922
 21
198.3313987276284
 31
0.0
  0
INSERT
  5
5367
330
5361
100
AcDbEntity
  8
DIM
 62
     0
370
    -2
100
AcDbBlockReference
  2
_DOT
 10
397.2090588901922
 20
202.6315987276284
 30
0.0
 50
90.0
  0
INSERT
  5
5368
330
5361
100
AcDbEntity
  8
DIM
 62
     0
370
    -2
100
AcDbBlockReference
  2
_DOT
 10
397.2090588901922
 20
197.3313987276284
 30
0.0
 50
270.0
  0
MTEXT
  5
5369
330
5361
100
AcDbEntity
  8
DIM
 62
     0
 48
0.05
100
AcDbMText
 10
389.7090588901922
 20
199.9814987276284
 30
0.0
 40
5.0
 41
0.0
 46
0.0
 71
     5
 72
     1
  1
\A1;5
  7
ＭＳ ゴシック
 11
0.0
 21
1.0
 31
0.0
 73
     1
 44
1.0
  0
POINT
  5
536A
330
5361
100
AcDbEntity
  8
Defpoints
 62
     0
100
AcDbPoint
 10
229.057455073341
 20
202.6315987276284
 30
0.0
  0
POINT
  5
536B
330
5361
100
AcDbEntity
  8
Defpoints
 62
     0
100
AcDbPoint
 10
368.4951171983881
 20
197.3313987276284
 30
0.0
  0
POINT
  5
536C
330
5361
100
AcDbEntity
  8
Defpoints
 62
     0
100
AcDbPoint
 10
397.2090588901922
 20
197.3313987276284
 30
0.0
  0
ENDBLK
  5
5363
330
5361
100
AcDbEntity
  8
0
100
AcDbBlockEnd
  0
BLOCK
  5
536E
330
536D
100
AcDbEntity
  8
0
100
AcDbBlockBegin
  2
*D8
 70
     1
 10
0.0
 20
0.0
 30
0.0
  3
*D8
  1
*D26
  0
LINE
  5
5370
330
536D
100
AcDbEntity
  8
DIM
 62
     0
 48
0.05
370
    -2
100
AcDbLine
 10
90.38571553685767
 20
236.6103852304283
 30
0.0
 11
43.61462109621698
 21
236.6103852304283
 31
0.0
  0
LINE
  5
5371
330
536D
100
AcDbEntity
  8
DIM
 62
     0
 48
0.05
370
    -2
100
AcDbLine
 10
90.28748650812543
 20
158.8632622304284
 30
0.0
 11
43.61462109621697
 21
158.8632622304284
 31
0.0
  0
LINE
  5
5372
330
536D
100
AcDbEntity
  8
DIM
 62
     0
 48
0.05
370
    -2
100
AcDbLine
 10
43.61462109621698
 20
235.6103852304283
 30
0.0
 11
43.61462109621697
 21
159.8632622304284
 31
0.0
  0
INSERT
  5
5373
330
536D
100
AcDbEntity
  8
DIM
 62
     0
370
    -2
100
AcDbBlockReference
  2
_DOT
 10
43.61462109621698
 20
236.6103852304283
 30
0.0
 50
90.0
  0
INSERT
  5
5374
330
536D
100
AcDbEntity
  8
DIM
 62
     0
370
    -2
100
AcDbBlockReference
  2
_DOT
 10
43.61462109621697
 20
158.8632622304284
 30
0.0
 50
270.0
  0
MTEXT
  5
5375
330
536D
100
AcDbEntity
  8
DIM
 62
     0
 48
0.05
100
AcDbMText
 10
35.70962109621698
 20
197.7368237304284
 30
0.0
 40
5.0
 41
0.0
 46
0.0
 71
     5
 72
     1
  1
\A1;φ78
  7
ＭＳ ゴシック
 11
9.139151499665150E-17
 21
1.0
 31
0.0
 73
     1
 44
1.0
  0
POINT
  5
5376
330
536D
100
AcDbEntity
  8
Defpoints
 62
     0
100
AcDbPoint
 10
95.38571553685767
 20
236.6103852304283
 30
0.0
  0
POINT
  5
5377
330
536D
100
AcDbEntity
  8
Defpoints
 62
     0
100
AcDbPoint
 10
95.28748650812543
 20
158.8632622304284
 30
0.0
  0
POINT
  5
5378
330
536D
100
AcDbEntity
  8
Defpoints
 62
     0
100
AcDbPoint
 10
43.61462109621698
 20
158.8632622304284
 30
0.0
  0
ENDBLK
  5
536F
330
536D
100
AcDbEntity
  8
0
100
AcDbBlockEnd
  0
ENDSEC
  0
SECTION
  2
ENTITIES
  0
MTEXT
  5
177
330
A
100
AcDbEntity
  8
TEMPLATE
390
1D
100
AcDbMText
 10
15.84042890954615
 20
68.74635032628565
 30
0.0
 40
3.257682291666665
 41
0.0
 46
0.0
 71
     1
 72
     1
  1
品名
  7
ＭＳ ゴシック
 73
     1
 44
0.7828267384257843
  0
MTEXT
  5
178
330
A
100
AcDbEntity
  8
TEMPLATE
390
1D
100
AcDbMText
 10
15.84042890954615
 20
51.7463503262856
 30
0.0
 40
3.257682291666665
 41
0.0
 46
0.0
 71
     1
 72
     1
  1
仕様
  7
ＭＳ ゴシック
 73
     1
 44
0.7828267384257843
  0
LINE
  5
179
330
A
100
AcDbEntity
  8
TEMPLATE
390
1D
100
AcDbLine
 10
404.4404289094496
 20
53.42933470128568
 30
0.0
 11
14.44042890944975
 21
53.42933470128568
 31
0.0
  0
LWPOLYLINE
  5
17A
330
A
100
AcDbEntity
  8
TEMPLATE
390
1D
100
AcDbPolyline
 90
        5
 70
   128
 43
0.0
 10
404.4404289094496
 20
579.4293347012853
 10
14.44042890944975
 20
579.4293347012853
 10
14.44042890944975
 20
19.42933470128565
 10
404.4404289094496
 20
19.42933470128565
 10
404.4404289094496
 20
579.4293347012853
  0
LINE
  5
17B
330
A
100
AcDbEntity
  8
TEMPLATE
390
1D
100
AcDbLine
 10
404.4404289094496
 20
70.42933470128564
 30
0.0
 11
14.44042890944975
 21
70.42933470128564
 31
0.0
  0
LINE
  5
17C
330
A
100
AcDbEntity
  8
TEMPLATE
390
1D
100
AcDbLine
 10
404.4404289095464
 20
36.42933470128565
 30
0.0
 11
253.840428909546
 21
36.42933470128565
 31
0.0
  0
MTEXT
  5
17E
330
A
100
AcDbEntity
  8
TEMPLATE
390
1D
100
AcDbMText
 10
259.8147101599982
 20
30.44725580662403
 30
0.0
 40
4.8865234375
 41
0.0
 46
0.0
 71
     1
 72
     1
  1
大洋金物株式会社 ティーフォルム事業部
  7
ＭＳ ゴシック
 73
     1
 44
0.7828267384257843
  0
MTEXT
  5
180
330
A
100
AcDbEntity
  8
TEMPLATE
390
1D
100
AcDbMText
 10
366.240428909598
 20
46.02985813878564
 30
0.0
 40
4.8865234375
 41
0.0
 46
4.8865234375
 71
     1
 72
     1
  1
{1:2}
  7
ＭＳ ゴシック
 73
     1
 44
0.7828267384257843
1001
ACAD
1000
ACAD_MTEXT_DEFINED_HEIGHT_BEGIN
1070
    46
1040
4.8865234375
1000
ACAD_MTEXT_DEFINED_HEIGHT_END
  0
MTEXT
  5
181
330
A
100
AcDbEntity
  8
TEMPLATE
390
1D
100
AcDbMText
 10
355.640428909598
 20
51.7463503262856
 30
0.0
 40
3.257682291666665
 41
0.0
 46
0.0
 71
     1
 72
     1
  1
縮尺
  7
ＭＳ ゴシック
 73
     1
 44
0.7828267384257843
  0
LINE
  5
182
330
A
100
AcDbEntity
  8
TEMPLATE
390
1D
100
AcDbLine
 10
354.240428909598
 20
36.42933470128565
 30
0.0
 11
354.240428909598
 21
53.42933470128568
 31
0.0
  0
MTEXT
  5
183
330
A
100
AcDbEntity
  8
TEMPLATE
390
1D
100
AcDbMText
 10
305.440428909598
 20
51.7463503262856
 30
0.0
 40
3.257682291666665
 41
0.0
 46
0.0
 71
     1
 72
     1
  1
容量
  7
ＭＳ ゴシック
 73
     1
 44
0.7828267384257843
  0
LINE
  5
184
330
A
100
AcDbEntity
  8
TEMPLATE
390
1D
100
AcDbLine
 10
304.040428909598
 20
36.42933470128565
 30
0.0
 11
304.040428909598
 21
53.42933470128568
 31
0.0
  0
MTEXT
  5
185
330
A
100
AcDbEntity
  8
TEMPLATE
390
1D
100
AcDbMText
 10
255.240428909598
 20
68.74635032628565
 30
0.0
 40
3.257682291666665
 41
0.0
 46
0.0
 71
     1
 72
     1
  1
品番
  7
ＭＳ ゴシック
 73
     1
 44
0.7828267384257843
  0
MTEXT
  5
186
330
A
100
AcDbEntity
  8
TEMPLATE
390
1D
100
AcDbMText
 10
255.240428909598
 20
51.7463503262856
 30
0.0
 40
3.257682291666665
 41
0.0
 46
0.0
 71
     1
 72
     1
  1
重量
  7
ＭＳ ゴシック
 73
     1
 44
0.7828267384257843
  0
MTEXT
  5
187
330
A
100
AcDbEntity
  8
TEMPLATE
390
1D
100
AcDbMText
 10
265.840428909598
 20
63.02985813878564
 30
0.0
 40
4.8865234375
 41
0.0
 46
4.8865234375
 71
     1
 72
     1
  1
{FHT73-2606}
  7
ＭＳ ゴシック
 73
     1
 44
0.7828267384257843
1001
ACAD
1000
ACAD_MTEXT_DEFINED_HEIGHT_BEGIN
1070
    46
1040
4.8865234375
1000
ACAD_MTEXT_DEFINED_HEIGHT_END
  0
LINE
  5
188
330
A
100
AcDbEntity
  8
TEMPLATE
390
1D
100
AcDbLine
 10
253.840428909598
 20
19.42933470128565
 30
0.0
 11
253.840428909598
 21
70.42933470128564
 31
0.0
  0
MTEXT
  5
189
330
A
100
AcDbEntity
  8
TEMPLATE
390
1D
100
AcDbMText
 10
26.44042890954615
 20
63.02985813878564
 30
0.0
 40
4.8865234375
 41
0.0
 46
5.678140234375
 71
     1
 72
     1
  1
{吐水口　-GROHE, Kensington-}
  7
ＭＳ ゴシック
 73
     1
 44
0.7828267384257843
1001
ACAD
1000
ACAD_MTEXT_DEFINED_HEIGHT_BEGIN
1070
    46
1040
5.678140234375
1000
ACAD_MTEXT_DEFINED_HEIGHT_END
  0
INSERT
  5
6B5
330
A
100
AcDbEntity
  8
TEMPLATE
100
AcDbBlockReference
  2
名称未設定-1
 10
374.15014961769
 20
5.189353151330764
 30
0.0
 41
0.1524
 42
0.1524
 43
0.1524
  0
INSERT
  5
68C
330
A
100
AcDbEntity
  8
TEMPLATE
100
AcDbBlockReference
  2
block 2
 10
919.2743017702577
 20
8.373076514336368
 30
0.0
 41
0.3809999999999999
 42
0.3809999999999999
 43
0.3809999999999999
  0
LWPOLYLINE
  5
D69
330
A
100
AcDbEntity
  8
BORDER
 48
0.025
100
AcDbPolyline
 90
        4
 70
     1
 43
0.0
 10
0.0
 20
0.0
 10
0.0
 20
594.0
 10
420.0
 20
594.0
 10
420.0
 20
0.0
  0
INSERT
  5
1343
330
A
100
AcDbEntity
  8
TEMPLATE
100
AcDbBlockReference
  2
block 2
 10
2096.743470866468
 20
24.43532141229569
 30
0.0
 41
0.3809999999999999
 42
0.3809999999999999
 43
0.3809999999999999
  0
POINT
  5
3697
330
A
100
AcDbEntity
  8
Layer50
  6
HIDDEN2
 62
     7
100
AcDbPoint
 10
396.8678405503807
 20
449.3605456225488
 30
0.0
  0
POINT
  5
36AA
330
A
100
AcDbEntity
  8
Layer50
  6
HIDDEN2
 62
     7
100
AcDbPoint
 10
396.8678405503807
 20
469.8605456225488
 30
0.0
  0
POINT
  5
36B6
330
A
100
AcDbEntity
  8
Layer50
  6
HIDDEN2
 62
     7
100
AcDbPoint
 10
405.6628405503807
 20
460.6105456225488
 30
0.0
  0
POINT
  5
36BC
330
A
100
AcDbEntity
  8
Layer50
  6
HIDDEN2
 62
     7
100
AcDbPoint
 10
403.6628405503807
 20
460.6105456225488
 30
0.0
  0
MTEXT
  5
4530
102
{ACAD_XDICTIONARY
360
4532
102
}
330
A
100
AcDbEntity
  8
MODEL
 48
0.05
100
AcDbMText
 10
14.6329326238789
 20
17.30781899803597
 30
0.0
 40
4.0
 41
0.0
 46
4.0
 71
     1
 72
     1
  1
{20160726N}
  7
ＭＳ ゴシック
 73
     1
 44
1.0
1001
ACAD
1000
ACAD_MTEXT_DEFINED_HEIGHT_BEGIN
1070
    46
1040
4.0
1000
ACAD_MTEXT_DEFINED_HEIGHT_END
  0
MTEXT
  5
5062
330
A
100
AcDbEntity
  8
TEMPLATE
390
1D
100
AcDbMText
 10
26.44042890954615
 20
46.10276168560644
 30
0.0
 40
4.8865234375
 41
0.0
 46
4.9598212890625
 71
     1
 72
     1
  1
{クローム}
  7
ＭＳ ゴシック
 73
     1
 44
0.7828267384257843
1001
ACAD
1000
ACAD_MTEXT_DEFINED_HEIGHT_BEGIN
1070
    46
1040
4.9598212890625
1000
ACAD_MTEXT_DEFINED_HEIGHT_END
  0
CIRCLE
  5
5251
330
A
100
AcDbEntity
  8
MODEL
 48
25.4
100
AcDbCircle
 10
95.24338329587363
 20
534.2038009446705
 30
0.0
 40
17.5
  0
LINE
  5
5301
330
A
100
AcDbEntity
  8
DIM
 48
0.05
100
AcDbLine
 10
97.7353909458235
 20
516.882141154899
 30
0.0
 11
112.5731563208619
 21
504.6094121977478
 31
0.0
  0
LINE
  5
5302
330
A
100
AcDbEntity
  8
DIM
 48
0.05
100
AcDbLine
 10
112.5731563208619
 20
504.6094121977478
 30
0.0
 11
151.5598923207482
 21
504.6094121977478
 31
0.0
  0
LWPOLYLINE
  5
5306
330
A
100
AcDbEntity
  8
MODEL
 48
25.4
100
AcDbPolyline
 90
       11
 70
     0
 43
0.0
 10
323.9081113181644
 20
215.5985987276284
 10
325.4610093181643
 20
215.9198987276284
 10
327.2802123181643
 20
216.2732977276283
 10
329.2599103181644
 20
216.6172977276284
 10
331.2256123181644
 20
216.9009987276285
 10
333.0253103181644
 20
217.1008987276284
 10
334.5925103181644
 20
217.2142977276284
 10
335.9685093181645
 20
217.2295987276284
 10
337.2894093181644
 20
217.0859987276284
 10
338.7395093181644
 20
216.6197987276283
 10
340.4547113181645
 20
215.4884987276283
  0
LWPOLYLINE
  5
5307
330
A
100
AcDbEntity
  8
MODEL
 48
25.4
100
AcDbPolyline
 90
        4
 70
     0
 43
0.0
 10
303.9081103181645
 20
209.7764987276283
 10
310.8305103181644
 20
212.0510977276284
 10
317.5129103181644
 20
214.0104977276284
 10
323.9081113181644
 20
215.5985987276284
  0
LWPOLYLINE
  5
5308
330
A
100
AcDbEntity
  8
MODEL
 48
25.4
100
AcDbPolyline
 90
        4
 70
     0
 43
0.0
 10
273.9081113181644
 20
198.0953987276283
 10
284.0565103181643
 20
202.3044987276284
 10
294.1289103181643
 20
206.2418987276284
 10
303.9081103181645
 20
209.7764987276283
  0
LWPOLYLINE
  5
5309
330
A
100
AcDbEntity
  8
MODEL
 48
25.4
100
AcDbPolyline
 90
        4
 70
     0
 43
0.0
 10
239.7197113181644
 20
181.7703987276284
 10
249.7006113181644
 20
187.0375987276284
 10
261.2454103181644
 20
192.5204987276285
 10
273.9081113181644
 20
198.0953987276283
  0
LWPOLYLINE
  5
530A
330
A
100
AcDbEntity
  8
MODEL
 48
25.4
100
AcDbPolyline
 90
        4
 70
     0
 43
0.0
 10
217.3453133181645
 20
165.6071987276284
 10
224.7294083181644
 20
171.8400987276284
 10
231.8811113181644
 20
176.9945987276284
 10
239.7197113181644
 20
181.7703987276284
  0
LWPOLYLINE
  5
530B
330
A
100
AcDbEntity
  8
MODEL
 48
25.4
100
AcDbPolyline
 90
        4
 70
     0
 43
0.0
 10
213.9081113181644
 20
166.2813987276284
 10
214.2860103181645
 20
165.6797977276284
 10
214.8207093181643
 20
165.2508007276284
 10
215.4455103181645
 20
165.0206987276284
  0
LINE
  5
530C
330
A
100
AcDbEntity
  8
MODEL
 48
25.4
100
AcDbLine
 10
215.4455103181645
 20
165.0206987276284
 30
0.0
 11
216.1485133181643
 21
165.0027997276284
 31
0.0
  0
LINE
  5
530D
330
A
100
AcDbEntity
  8
MODEL
 48
25.4
100
AcDbLine
 10
216.1485133181643
 20
165.0027997276284
 30
0.0
 11
216.7989113181645
 21
165.2080987276284
 31
0.0
  0
LINE
  5
530E
330
A
100
AcDbEntity
  8
MODEL
 48
25.4
100
AcDbLine
 10
216.7989113181645
 20
165.2080987276284
 30
0.0
 11
217.3453133181645
 21
165.6071987276284
 31
0.0
  0
ARC
  5
530F
330
A
100
AcDbEntity
  8
MODEL
 48
25.4
100
AcDbCircle
 10
215.8497463181643
 20
228.1813887276284
 30
0.0
 40
2.10001800000001
100
AcDbArc
 50
79.27359799999718
 51
157.6064909999949
  0
LINE
  5
5310
330
A
100
AcDbEntity
  8
MODEL
 48
25.4
100
AcDbLine
 10
368.5730133181644
 20
197.3313987276284
 30
0.0
 11
368.5730133181644
 21
197.7087540052283
 31
0.0
  0
LINE
  5
5311
330
A
100
AcDbEntity
  8
MODEL
 48
25.4
100
AcDbLine
 10
352.5730093181644
 20
197.3313987276284
 30
0.0
 11
352.5730093181644
 21
197.7087540052283
 31
0.0
  0
LINE
  5
5312
330
A
100
AcDbEntity
  8
MODEL
 48
25.4
100
AcDbLine
 10
368.5730133181644
 20
197.3313987276284
 30
0.0
 11
352.5730093181644
 21
197.3313987276284
 31
0.0
  0
LWPOLYLINE
  5
5313
330
A
100
AcDbEntity
  8
MODEL
 48
25.4
100
AcDbPolyline
 90
        4
 70
     0
 43
0.0
 10
340.4547113181645
 20
215.4884987276283
 10
341.8069113181643
 20
213.8041987276284
 10
342.8114123181645
 20
211.2639977276284
 10
343.3665296703643
 20
207.4484580544284
  0
SPLINE
  5
5314
330
A
100
AcDbEntity
  8
MODEL
 48
25.4
100
AcDbSpline
210
0.0
220
0.0
230
1.0
 70
     8
 71
     3
 72
    23
 73
    19
 74
     0
 42
0.000000001
 43
0.0000000001
 40
0.0
 40
0.0
 40
0.0
 40
0.0
 40
0.0509426487914513
 40
0.1161443410609112
 40
0.1729264833825319
 40
0.2286637740849329
 40
0.265987768597117
 40
0.4005334987266668
 40
0.5555910809290819
 40
0.6084902917003076
 40
0.6631565354204824
 40
0.7197266063095825
 40
0.7562533114376223
 40
0.8015604351067981
 40
0.8483345700127786
 40
0.8797333181479258
 40
0.9431185342339125
 40
1.0
 40
1.0
 40
1.0
 40
1.0
 10
216.2406003777114
 20
230.2447134002592
 30
0.0
 10
219.7573480635303
 20
229.7994619788338
 30
0.0
 10
226.5444764425085
 20
229.0248180203308
 30
0.0
 10
237.7828437157286
 20
228.9260734156795
 30
0.0
 10
248.8288921381384
 20
230.8344309587463
 30
0.0
 10
258.1110903080537
 20
232.8003090886467
 30
0.0
 10
272.1886881823373
 20
235.8092249169459
 30
0.0
 10
292.4047932660947
 20
240.185514626387
 30
0.0
 10
313.7096876514724
 20
244.1320338769586
 30
0.0
 10
330.1495105970873
 20
246.6002973037728
 30
0.0
 10
340.533300744411
 20
247.1434361399557
 30
0.0
 10
349.9032606407161
 20
246.647709012816
 30
0.0
 10
358.5125366766824
 20
245.0817749519875
 30
0.0
 10
366.3136399452321
 20
242.2325460200628
 30
0.0
 10
371.8639198934045
 20
236.3060331766384
 30
0.0
 10
375.5795156672013
 20
228.1304620134866
 30
0.0
 10
377.1904095179505
 20
218.3448803478994
 30
0.0
 10
377.5507444934769
 20
211.3074815855824
 30
0.0
 10
377.6559971902623
 20
207.3508092628475
 30
0.0
  0
ELLIPSE
  5
5315
330
A
100
AcDbEntity
  8
MODEL
 48
25.4
100
AcDbEllipse
 10
213.4339313181645
 20
230.6597132214284
 30
0.0
 11
-0.1231787999996514
 21
-0.1575657999995927
 31
0.0
210
0.0
220
0.0
230
1.0
 40
0.1613785767
 41
2.732632954193273
 42
3.141592653589399
  0
ELLIPSE
  5
5316
330
A
100
AcDbEntity
  8
MODEL
 48
25.4
100
AcDbEllipse
 10
207.7078383181645
 20
235.1361532214283
 30
0.0
 11
-0.1224434000013652
 21
-0.1581379999987531
 31
0.0
210
0.0
220
0.0
230
1.0
 40
0.9245253449
 41
3.137120514004288
 42
3.879578766527643
  0
ARC
  5
5317
330
A
100
AcDbEntity
  8
MODEL
 48
25.4
100
AcDbCircle
 10
203.4596553181643
 20
229.3851642214285
 30
0.0
 40
10.46337927473894
100
AcDbArc
 50
3.060450393299766
 51
5.999961996599461
  0
LINE
  5
5318
330
A
100
AcDbEntity
  8
MODEL
 48
25.4
100
AcDbLine
 10
213.5570643181643
 20
173.3870112214284
 30
0.0
 11
207.8309703181644
 21
170.1195122214284
 31
0.0
  0
LINE
  5
5319
330
A
100
AcDbEntity
  8
MODEL
 48
25.4
100
AcDbLine
 10
204.9081113181644
 20
235.9398752214285
 30
0.0
 11
204.9081113181644
 21
159.3233402214284
 31
0.0
  0
SPLINE
  5
531A
330
A
100
AcDbEntity
  8
MODEL
 48
25.4
100
AcDbSpline
210
0.0
220
0.0
230
1.0
 70
     8
 71
     3
 72
    14
 73
    10
 74
     0
 42
0.000000001
 43
0.0000000001
 40
0.0
 40
0.0
 40
0.0
 40
0.0
 40
0.1084804212893993
 40
0.2197164931281964
 40
0.3337988268497371
 40
0.4986688129115821
 40
0.6672645237974678
 40
0.8326888380162514
 40
1.0
 40
1.0
 40
1.0
 40
1.0
 10
207.7000593181565
 20
159.9339052213724
 30
0.0
 10
207.6164783181564
 20
159.8708332213722
 30
0.0
 10
207.4472033181564
 20
159.7430882213722
 30
0.0
 10
207.2250133181565
 20
159.5758972213722
 30
0.0
 10
206.9934873181564
 20
159.4020032213722
 30
0.0
 10
206.7692133181563
 20
159.2343792213724
 30
0.0
 10
206.5696133181564
 20
159.0857212213724
 30
0.0
 10
206.4164853181564
 20
158.972693221372
 30
0.0
 10
206.3449343181564
 20
158.9204682213724
 30
0.0
 10
206.3162863181565
 20
158.8997482213722
 30
0.0
  0
SPLINE
  5
531B
330
A
100
AcDbEntity
  8
MODEL
 48
25.4
100
AcDbSpline
210
0.0
220
0.0
230
1.0
 70
     8
 71
     3
 72
    16
 73
    12
 74
     0
 42
0.000000001
 43
0.0000000001
 40
0.0
 40
0.0
 40
0.0
 40
0.0
 40
0.051600518964196
 40
0.051600518964196
 40
0.1701504540936715
 40
0.1701504540936715
 40
0.3598303503008323
 40
0.3598303503008323
 40
0.6633181842322896
 40
0.6633181842322896
 40
1.0
 40
1.0
 40
1.0
 40
1.0
 10
213.7895853181565
 20
164.6466632213722
 30
0.0
 10
213.7898503181566
 20
164.6472372213722
 30
0.0
 10
213.7899793181566
 20
164.6477042213722
 30
0.0
 10
213.7899793181566
 20
164.6489122213722
 30
0.0
 10
213.7892743181562
 20
164.6492042213722
 30
0.0
 10
213.7854983181562
 20
164.648443221372
 30
0.0
 10
213.7812913181565
 20
164.6465052213722
 30
0.0
 10
213.7637703181565
 20
164.6363192213722
 30
0.0
 10
213.7467713181563
 20
164.6251932213722
 30
0.0
 10
213.6846763181566
 20
164.5812242213724
 30
0.0
 10
213.6371533181564
 20
164.5464852213724
 30
0.0
 10
213.5570643181566
 20
164.4862932213722
 30
0.0
  0
ELLIPSE
  5
531C
330
A
100
AcDbEntity
  8
MODEL
 48
25.4
100
AcDbEllipse
 10
207.7078383181645
 20
160.1729292214284
 30
0.0
 11
0.1230851999994287
 21
-0.1576388000008588
 31
0.0
210
0.0
220
0.0
230
1.0
 40
0.164152816
 41
0.0
 42
0.4126158101425403
  0
SPLINE
  5
531D
330
A
100
AcDbEntity
  8
MODEL
 48
25.4
100
AcDbSpline
210
0.0
220
0.0
230
1.0
 70
     8
 71
     3
 72
    13
 73
     9
 74
     0
 42
0.000000001
 43
0.0000000001
 40
0.0
 40
0.0
 40
0.0
 40
0.0
 40
0.2848828145299588
 40
0.5800172908212194
 40
0.7289640152499374
 40
0.8754021533213966
 40
0.9507211595243605
 40
0.9999999999999999
 40
0.9999999999999999
 40
0.9999999999999999
 40
0.9999999999999999
 10
213.8657423181564
 20
230.4786252213722
 30
0.0
 10
213.8655573181563
 20
230.4804362213723
 30
0.0
 10
213.8598283181564
 20
230.4892342213724
 30
0.0
 10
213.8357943181566
 20
230.5153682213721
 30
0.0
 10
213.7990003181565
 20
230.5516532213722
 30
0.0
 10
213.7662863181563
 20
230.5823932213724
 30
0.0
 10
213.7355603181566
 20
230.6103362213724
 30
0.0
 10
213.7193283181564
 20
230.6249382213724
 30
0.0
 10
213.7125773181565
 20
230.6309882213724
 30
0.0
  0
LINE
  5
531E
330
A
100
AcDbEntity
  8
MODEL
 48
25.4
100
AcDbLine
 10
213.5570643181643
 20
188.7840502214284
 30
0.0
 11
207.8309703181644
 21
187.5955402214285
 31
0.0
  0
SPLINE
  5
531F
330
A
100
AcDbEntity
  8
MODEL
 48
25.4
100
AcDbSpline
210
0.0
220
0.0
230
1.0
 70
     8
 71
     3
 72
    16
 73
    12
 74
     0
 42
0.000000001
 43
0.0000000001
 40
0.0
 40
0.0
 40
0.0
 40
0.0
 40
0.0464875461738405
 40
0.0464875461738405
 40
0.4576077898153428
 40
0.4576077898153428
 40
0.6586501696298654
 40
0.6586501696298654
 40
0.8596925494443882
 40
0.8596925494443882
 40
1.0
 40
1.0
 40
1.0
 40
1.0
 10
206.4069783181565
 20
236.3822212213722
 30
0.0
 10
206.4049133181563
 20
236.3842152213724
 30
0.0
 10
206.4038863181565
 20
236.3853982213724
 30
0.0
 10
206.4038863181565
 20
236.3891442213725
 30
0.0
 10
206.4842443181565
 20
236.3297312213724
 30
0.0
 10
206.7339123181566
 20
236.1396282213724
 30
0.0
 10
206.8372313181565
 20
236.0605302213725
 30
0.0
 10
207.0909043181566
 20
235.8655572213723
 30
0.0
 10
207.2411833181563
 20
235.7497392213724
 30
0.0
 10
207.5417213181565
 20
235.5175922213722
 30
0.0
 10
207.6782653181565
 20
235.4119922213722
 30
0.0
 10
207.8309703181565
 20
235.2937552213724
 30
0.0
  0
ARC
  5
5320
330
A
100
AcDbEntity
  8
MODEL
 48
25.4
100
AcDbCircle
 10
207.9746193181643
 20
165.6815942214284
 30
0.0
 40
7.059098047395508
100
AcDbArc
 50
244.2525562313005
 51
255.7183785452011
  0
SPLINE
  5
5321
330
A
100
AcDbEntity
  8
MODEL
 48
25.4
100
AcDbSpline
210
0.0
220
0.0
230
1.0
 70
     8
 71
     3
 72
    15
 73
    11
 74
     0
 42
0.000000001
 43
0.0000000001
 40
0.0
 40
0.0
 40
0.0
 40
0.0
 40
0.2506801378229328
 40
0.2506801378229328
 40
0.5371717239062845
 40
0.5371717239062845
 40
0.6772603796693218
 40
0.6772603796693218
 40
0.6772603796693218
 40
0.9999999999999999
 40
0.9999999999999999
 40
0.9999999999999999
 40
0.9999999999999999
 10
213.5570643181566
 20
164.4459002213722
 30
0.0
 10
213.6360253181563
 20
164.5099392213724
 30
0.0
 10
213.6832933181565
 20
164.5492232213722
 30
0.0
 10
213.7532643181564
 20
164.6089422213722
 30
0.0
 10
213.7712523181565
 20
164.6256912213722
 30
0.0
 10
213.7859123181563
 20
164.6411582213724
 30
0.0
 10
213.7886303181563
 20
164.6445992213722
 30
0.0
 10
213.7895853181565
 20
164.6466632213722
 30
0.0
 10
213.8101074932727
 20
164.691016906641
 30
0.0
 10
213.8306296683888
 20
164.73537059191
 30
0.0
 10
213.851151843505
 20
164.7797242771788
 30
0.0
  0
SPLINE
  5
5322
330
A
100
AcDbEntity
  8
MODEL
 48
25.4
100
AcDbSpline
210
0.0
220
0.0
230
1.0
 70
     8
 71
     3
 72
    24
 73
    20
 74
     0
 42
0.000000001
 43
0.0000000001
 40
0.0
 40
0.0
 40
0.0
 40
0.0
 40
0.010006
 40
0.010006
 40
0.103721
 40
0.103721
 40
0.266979
 40
0.266979
 40
0.419398
 40
0.419398
 40
0.571818
 40
0.571818
 40
0.761855
 40
0.761855
 40
0.935486
 40
0.935486
 40
0.986142
 40
0.986142
 40
1.0
 40
1.0
 40
1.0
 40
1.0
 10
207.8309703181565
 20
235.2728202213722
 30
0.0
 10
207.8101883181564
 20
235.2551682213724
 30
0.0
 10
207.7897043181563
 20
235.2372602213724
 30
0.0
 10
207.5803563181566
 20
235.0491162213724
 30
0.0
 10
207.4168363181564
 20
234.8586372213724
 30
0.0
 10
207.0220253181565
 20
234.2860702213721
 30
0.0
 10
206.8323753181564
 20
233.8682772213722
 30
0.0
 10
206.5655323181566
 20
232.9867932213724
 30
0.0
 10
206.4813903181564
 20
232.5267972213725
 30
0.0
 10
206.3948763181563
 20
231.5488262213722
 30
0.0
 10
206.3925513181564
 20
231.0306662213724
 30
0.0
 10
206.4790843181565
 20
229.8071372213724
 30
0.0
 10
206.5900783181564
 20
229.0876772213725
 30
0.0
 10
206.9389993181564
 20
227.6306202213724
 30
0.0
 10
207.1652503181565
 20
226.8998502213724
 30
0.0
 10
207.5517353181563
 20
225.9139822213724
 30
0.0
 10
207.6452003181564
 20
225.6887022213724
 30
0.0
 10
207.7739713181566
 20
225.3959982213725
 30
0.0
 10
207.8021883181564
 20
225.3328272213724
 30
0.0
 10
207.8309703181565
 20
225.2693752213723
 30
0.0
  0
ELLIPSE
  5
5323
330
A
100
AcDbEntity
  8
MODEL
 48
25.4
100
AcDbEllipse
 10
213.4339313181645
 20
230.6597132214284
 30
0.0
 11
0.1980773999997466
 21
0.0276644000013482
 31
0.0
210
0.0
220
0.0
230
1.0
 40
0.8333214354000001
 41
0.1096450604987799
 42
0.7894090161809891
  0
LINE
  5
5324
330
A
100
AcDbEntity
  8
MODEL
 48
25.4
100
AcDbLine
 10
207.8309703181644
 20
235.2937552214283
 30
0.0
 11
213.5570643181643
 21
230.8173152214284
 31
0.0
  0
LINE
  5
5325
330
A
100
AcDbEntity
  8
MODEL
 48
25.4
100
AcDbLine
 10
213.5570643181643
 20
221.9293642214284
 30
0.0
 11
207.8309703181644
 21
225.2118202214284
 31
0.0
  0
ELLIPSE
  5
5326
330
A
100
AcDbEntity
  8
MODEL
 48
25.4
100
AcDbEllipse
 10
207.7078383181645
 20
235.1361532214283
 30
0.0
 11
-0.1231787999996514
 21
-0.1575657999995927
 31
0.0
210
0.0
220
0.0
230
1.0
 40
0.1613785767
 41
2.732632954195402
 42
3.141592653589399
  0
LINE
  5
5327
330
A
100
AcDbEntity
  8
MODEL
 48
25.4
100
AcDbLine
 10
207.8309703181644
 20
159.9694602214284
 30
0.0
 11
213.5570643181643
 21
164.4459002214284
 31
0.0
  0
SPLINE
  5
5328
330
A
100
AcDbEntity
  8
MODEL
 48
25.4
100
AcDbSpline
210
0.0
220
0.0
230
1.0
 70
     8
 71
     3
 72
    18
 73
    14
 74
     0
 42
0.000000001
 43
0.0000000001
 40
0.0
 40
0.0
 40
0.0
 40
0.0
 40
0.2109609262304389
 40
0.3430110059256206
 40
0.4734924152896993
 40
0.6065455187756802
 40
0.7366126814169341
 40
0.7819085629213435
 40
0.8266345923349636
 40
0.8707970779835225
 40
0.9144065337432342
 40
0.957469267939827
 40
0.9999999999999999
 40
0.9999999999999999
 40
0.9999999999999999
 40
0.9999999999999999
 10
206.2345923181565
 20
158.8448382213724
 30
0.0
 10
206.2434413181566
 20
158.8531322213722
 30
0.0
 10
206.2874523181565
 20
158.8890922213722
 30
0.0
 10
206.4165003181563
 20
158.9903242213724
 30
0.0
 10
206.5696493181565
 20
159.1092282213724
 30
0.0
 10
206.7691833181564
 20
159.2636012213724
 30
0.0
 10
206.9652233181564
 20
159.4146162213724
 30
0.0
 10
207.1252523181565
 20
159.5378452213722
 30
0.0
 10
207.2293453181562
 20
159.6179882213722
 30
0.0
 10
207.3386793181564
 20
159.7021202213722
 30
0.0
 10
207.4534253181564
 20
159.7903732213722
 30
0.0
 10
207.5729293181564
 20
159.8822532213724
 30
0.0
 10
207.6578553181564
 20
159.9475592213722
 30
0.0
 10
207.7000593181565
 20
159.9800092213722
 30
0.0
  0
ARC
  5
5329
330
A
100
AcDbEntity
  8
MODEL
 48
25.4
100
AcDbCircle
 10
90.18198431816438
 20
181.1144392214284
 30
0.0
 40
123.613240725088
100
AcDbArc
 50
356.442786279
 51
3.55721418360004
  0
SPLINE
  5
532A
330
A
100
AcDbEntity
  8
MODEL
 48
25.4
100
AcDbSpline
210
0.0
220
0.0
230
1.0
 70
     8
 71
     3
 72
    10
 73
     6
 74
     0
 42
0.000000001
 43
0.0000000001
 40
0.0
 40
0.0
 40
0.0
 40
0.0
 40
0.1465513668826233
 40
0.5758588774847707
 40
0.9999999999999999
 40
0.9999999999999999
 40
0.9999999999999999
 40
0.9999999999999999
 10
213.7125773181565
 20
230.6309882213724
 30
0.0
 10
213.7091443181564
 20
230.6340642213723
 30
0.0
 10
213.6953173181566
 20
230.6464292213724
 30
0.0
 10
213.6690033181565
 20
230.6697962213724
 30
0.0
 10
213.6418113181564
 20
230.6934932213723
 30
0.0
 10
213.6282983181566
 20
230.7052702213724
 30
0.0
  0
LINE
  5
532B
330
A
100
AcDbEntity
  8
MODEL
 48
25.4
100
AcDbLine
 10
213.9081113181644
 20
229.9437992214283
 30
0.0
 11
213.9081113181644
 21
165.3194162214284
 31
0.0
  0
ARC
  5
532C
330
A
100
AcDbEntity
  8
MODEL
 48
25.4
100
AcDbCircle
 10
49.2574443181644
 20
197.7073412214285
 30
0.0
 40
164.5375011553178
100
AcDbArc
 50
356.9186747794001
 51
3.081325568300004
  0
SPLINE
  5
532D
330
A
100
AcDbEntity
  8
MODEL
 48
25.4
100
AcDbSpline
210
0.0
220
0.0
230
1.0
 70
     8
 71
     3
 72
    16
 73
    12
 74
     0
 42
0.000000001
 43
0.0000000001
 40
0.0
 40
0.0
 40
0.0
 40
0.0
 40
0.0296036791161374
 40
0.0296036791161374
 40
0.2183896927551104
 40
0.2183896927551104
 40
0.4543737869283712
 40
0.4543737869283712
 40
0.6577765908455281
 40
0.6577765908455281
 40
1.0
 40
1.0
 40
1.0
 40
1.0
 10
207.8309703181565
 20
160.0153272213722
 30
0.0
 10
207.8017293181563
 20
159.9922772213724
 30
0.0
 10
207.7730763181564
 20
159.9696862213724
 30
0.0
 10
207.5659123181565
 20
159.8063162213722
 30
0.0
 10
207.4101123181565
 20
159.6832672213724
 30
0.0
 10
207.0998893181566
 20
159.4378672213722
 30
0.0
 10
206.9565733181564
 20
159.3241872213724
 30
0.0
 10
206.7374313181565
 20
159.1497682213724
 30
0.0
 10
206.6551453181564
 20
159.0839872213724
 30
0.0
 10
206.4810733181564
 20
158.943967221372
 30
0.0
 10
206.4208363181565
 20
158.8943652213722
 30
0.0
 10
206.4069913181565
 20
158.8810082213722
 30
0.0
  0
ARC
  5
532E
330
A
100
AcDbEntity
  8
MODEL
 48
25.4
100
AcDbCircle
 10
207.9746193181643
 20
229.5816212214285
 30
0.0
 40
7.059098515050832
100
AcDbArc
 50
104.2740994995986
 51
115.7474437686989
  0
ELLIPSE
  5
532F
330
A
100
AcDbEntity
  8
MODEL
 48
25.4
100
AcDbEllipse
 10
213.4339313181645
 20
230.6597132214284
 30
0.0
 11
-0.1259788000270157
 21
-0.1553361999770964
 31
0.0
210
0.0
220
0.0
230
1.0
 40
0.9951421685
 41
2.480081799516146
 42
3.159758805684724
  0
ARC
  5
5330
330
A
100
AcDbEntity
  8
MODEL
 48
25.4
100
AcDbCircle
 10
203.4596553181643
 20
165.8780512214284
 30
0.0
 40
10.46337879825398
100
AcDbArc
 50
353.9404462496999
 51
356.9395496066999
  0
SPLINE
  5
5331
330
A
100
AcDbEntity
  8
MODEL
 48
25.4
100
AcDbSpline
210
0.0
220
0.0
230
1.0
 70
     8
 71
     3
 72
     9
 73
     5
 74
     0
 42
0.000000001
 43
0.0000000001
 40
0.0
 40
0.0
 40
0.0
 40
0.0
 40
0.1523842552453621
 40
1.0
 40
1.0
 40
1.0
 40
1.0
 10
206.2314663181564
 20
158.8411052213722
 30
0.0
 10
206.2313963181564
 20
158.8411212213722
 30
0.0
 10
206.2311693181564
 20
158.8414022213724
 30
0.0
 10
206.2324363181563
 20
158.8428182213722
 30
0.0
 10
206.2345923181565
 20
158.8448382213724
 30
0.0
  0
ARC
  5
5332
330
A
100
AcDbEntity
  8
MODEL
 48
25.4
100
AcDbCircle
 10
90.57315431816437
 20
214.2799502214284
 30
0.0
 40
123.2215713182318
100
AcDbArc
 50
356.4408742094
 51
3.559126254600026
  0
ELLIPSE
  5
5333
330
A
100
AcDbEntity
  8
MODEL
 48
25.4
100
AcDbEllipse
 10
207.7078383181645
 20
160.1729292214284
 30
0.0
 11
0.1238138000001776
 21
-0.1570671999999718
 31
0.0
210
0.0
220
0.0
230
1.0
 40
0.9234501012
 41
5.535787286563612
 42
6.278713167409033
  0
SPLINE
  5
5334
330
A
100
AcDbEntity
  8
MODEL
 48
25.4
100
AcDbSpline
210
0.0
220
0.0
230
1.0
 70
     8
 71
     3
 72
    15
 73
    11
 74
     0
 42
0.000000001
 43
0.0000000001
 40
0.0
 40
0.0
 40
0.0
 40
0.0
 40
0.0786498945860611
 40
0.1589581673105827
 40
0.2409853429231436
 40
0.3247939636649753
 40
0.4104405193023514
 40
0.6128736142354211
 40
0.8199408874945779
 40
1.0
 40
1.0
 40
1.0
 40
1.0
 10
207.7000593181565
 20
235.3293102213722
 30
0.0
 10
207.6198733181564
 20
235.3897952213724
 30
0.0
 10
207.4578093181565
 20
235.5120402213723
 30
0.0
 10
207.2439193181565
 20
235.6727612213722
 30
0.0
 10
207.0481073181563
 20
235.8197782213724
 30
0.0
 10
206.8727563181565
 20
235.9512582213722
 30
0.0
 10
206.6473893181565
 20
236.1195492213724
 30
0.0
 10
206.4207633181563
 20
236.2870732213725
 30
0.0
 10
206.2670673181565
 20
236.3998062213724
 30
0.0
 10
206.2326583181566
 20
236.4224092213724
 30
0.0
 10
206.2311283181566
 20
236.4220252213722
 30
0.0
  0
SPLINE
  5
5335
330
A
100
AcDbEntity
  8
MODEL
 48
25.4
100
AcDbSpline
210
0.0
220
0.0
230
1.0
 70
     8
 71
     3
 72
    24
 73
    20
 74
     0
 42
0.000000001
 43
0.0000000001
 40
0.0
 40
0.0
 40
0.0
 40
0.0
 40
0.085751
 40
0.085751
 40
0.209739
 40
0.209739
 40
0.324437
 40
0.324437
 40
0.439134
 40
0.439134
 40
0.601185
 40
0.601185
 40
0.769676
 40
0.769676
 40
0.938168
 40
0.938168
 40
0.988345
 40
0.988345
 40
1.0
 40
1.0
 40
1.0
 40
1.0
 10
207.8309703181565
 20
170.1195122213722
 30
0.0
 10
207.6529033181564
 20
169.7251452213724
 30
0.0
 10
207.4969193181566
 20
169.3428812213724
 30
0.0
 10
207.1569953181563
 20
168.4258672213722
 30
0.0
 10
206.9923223181563
 20
167.9003152213724
 30
0.0
 10
206.7357903181564
 20
166.9223252213724
 30
0.0
 10
206.6395833181564
 20
166.4680812213722
 30
0.0
 10
206.4956143181564
 20
165.5885772213722
 30
0.0
 10
206.4479413181564
 20
165.1635192213722
 30
0.0
 10
206.3887243181564
 20
164.1742982213724
 30
0.0
 10
206.4000513181566
 20
163.6250062213724
 30
0.0
 10
206.5180823181565
 20
162.5727292213722
 30
0.0
 10
206.6283323181565
 20
162.0724742213722
 30
0.0
 10
206.9622503181565
 20
161.1590302213724
 30
0.0
 10
207.1858053181566
 20
160.7460732213722
 30
0.0
 10
207.5654883181564
 20
160.2918172213722
 30
0.0
 10
207.6587503181565
 20
160.1932032213722
 30
0.0
 10
207.7829573181564
 20
160.0787672213724
 30
0.0
 10
207.8067643181564
 20
160.0575222213724
 30
0.0
 10
207.8309703181565
 20
160.0366222213724
 30
0.0
  0
LINE
  5
5336
330
A
100
AcDbEntity
  8
MODEL
 48
25.4
100
AcDbLine
 10
213.5570643181643
 20
230.7963802214284
 30
0.0
 11
207.8309703181644
 21
235.2728202214283
 31
0.0
  0
ARC
  5
5337
330
A
100
AcDbEntity
  8
MODEL
 48
25.4
100
AcDbCircle
 10
242.1381413181643
 20
197.7175572214284
 30
0.0
 40
35.74698876128584
100
AcDbArc
 50
163.6830021273999
 51
196.3169978725999
  0
SPLINE
  5
5338
330
A
100
AcDbEntity
  8
MODEL
 48
25.4
100
AcDbSpline
210
0.0
220
0.0
230
1.0
 70
     8
 71
     3
 72
    18
 73
    14
 74
     0
 42
0.000000001
 43
0.0000000001
 40
0.0
 40
0.0
 40
0.0
 40
0.0
 40
0.0585602849455907
 40
0.0585602849455907
 40
0.4221519264907493
 40
0.4221519264907493
 40
0.6187880278615162
 40
0.6187880278615162
 40
0.8154241292322829
 40
0.8154241292322829
 40
0.9727352984358884
 40
0.9727352984358884
 40
1.0
 40
1.0
 40
1.0
 40
1.0
 10
206.4069913181565
 20
158.8810082213722
 30
0.0
 10
206.4043783181564
 20
158.8784872213722
 30
0.0
 10
206.4034183181564
 20
158.8772572213722
 30
0.0
 10
206.4082793181565
 20
158.8775982213724
 30
0.0
 10
206.4755263181564
 20
158.9271592213722
 30
0.0
 10
206.6833613181564
 20
159.0849892213722
 30
0.0
 10
206.7762783181565
 20
159.1559932213724
 30
0.0
 10
207.0063173181563
 20
159.3325602213724
 30
0.0
 10
207.1433193181563
 20
159.4380322213724
 30
0.0
 10
207.4344973181564
 20
159.6627472213722
 30
0.0
 10
207.5792073181565
 20
159.7745922213724
 30
0.0
 10
207.7721753181565
 20
159.9239402213722
 30
0.0
 10
207.8012703181564
 20
159.9464632213724
 30
0.0
 10
207.8309703181565
 20
159.9694602213724
 30
0.0
  0
SPLINE
  5
5339
330
A
100
AcDbEntity
  8
MODEL
 48
25.4
100
AcDbSpline
210
0.0
220
0.0
230
1.0
 70
     8
 71
     3
 72
    12
 73
     8
 74
     0
 42
0.000000001
 43
0.0000000001
 40
0.0
 40
0.0
 40
0.0
 40
0.0
 40
0.3707925638081032
 40
0.3707925638081032
 40
0.794555493874507
 40
0.794555493874507
 40
1.0
 40
1.0
 40
1.0
 40
1.0
 10
213.5570643181566
 20
230.8173152213724
 30
0.0
 10
213.6360253181563
 20
230.7532762213724
 30
0.0
 10
213.6832933181565
 20
230.7139922213725
 30
0.0
 10
213.7532643181564
 20
230.6542732213724
 30
0.0
 10
213.7712523181565
 20
230.6375242213722
 30
0.0
 10
213.7858713181565
 20
230.6221002213724
 30
0.0
 10
213.7885843181564
 20
230.6186752213724
 30
0.0
 10
213.7895603181564
 20
230.6166052213722
 30
0.0
  0
ARC
  5
533A
330
A
100
AcDbEntity
  8
MODEL
 48
25.4
100
AcDbCircle
 10
172.4222323181643
 20
168.9472992214284
 30
0.0
 40
41.37372893891884
100
AcDbArc
 50
353.8398713199
 51
6.160128680100019
  0
LINE
  5
533B
330
A
100
AcDbEntity
  8
MODEL
 48
25.4
100
AcDbLine
 10
213.5570643181643
 20
206.5517842214284
 30
0.0
 11
207.8309703181644
 21
207.7607252214284
 31
0.0
  0
ARC
  5
533C
330
A
100
AcDbEntity
  8
MODEL
 48
25.4
100
AcDbCircle
 10
172.8134763181645
 20
226.3916492214283
 30
0.0
 40
40.98099083095108
100
AcDbArc
 50
353.8298001854
 51
6.170201204600063
  0
ELLIPSE
  5
533D
330
A
100
AcDbEntity
  8
MODEL
 48
25.4
100
AcDbEllipse
 10
207.7078383181645
 20
160.1729292214284
 30
0.0
 11
-0.1307063999999858
 21
-0.1513798000001288
 31
0.0
210
0.0
220
0.0
230
1.0
 40
0.9173266569
 41
0.714341197053432
 42
1.457051213967836
  0
ARC
  5
533E
330
A
100
AcDbEntity
  8
MODEL
 48
25.4
100
AcDbCircle
 10
233.0964723181644
 20
216.5256492214284
 30
0.0
 40
26.71694514635314
100
AcDbArc
 50
161.0272504036999
 51
198.9727516243
  0
LINE
  5
533F
330
A
100
AcDbEntity
  8
MODEL
 48
25.4
100
AcDbLine
 10
213.5570643181643
 20
164.4862932214284
 30
0.0
 11
207.8309703181644
 21
160.0153272214284
 31
0.0
  0
ELLIPSE
  5
5340
330
A
100
AcDbEntity
  8
MODEL
 48
25.4
100
AcDbEllipse
 10
213.4339313181645
 20
164.6438952214284
 30
0.0
 11
0.1230852000001226
 21
-0.1576388000005258
 31
0.0
210
0.0
220
0.0
230
1.0
 40
0.164152816
 41
0.0
 42
0.4126158101454185
  0
ELLIPSE
  5
5341
330
A
100
AcDbEntity
  8
MODEL
 48
25.4
100
AcDbEllipse
 10
207.7078383181645
 20
235.1361532214283
 30
0.0
 11
-0.1294873999989621
 21
0.1524238000008005
 31
0.0
210
0.0
220
0.0
230
1.0
 40
0.9185054076
 41
4.834875023622519
 42
5.577589016733752
  0
ARC
  5
5342
330
A
100
AcDbEntity
  8
MODEL
 48
25.4
100
AcDbCircle
 10
233.4710553181644
 20
178.8864352214284
 30
0.0
 40
27.07881955898808
100
AcDbArc
 50
161.2390424181
 51
198.7609575819
  0
LINE
  5
5344
330
A
100
AcDbEntity
  8
DIM
  6
HIDDEN
 48
0.01
100
AcDbLine
 10
205.2174550733411
 20
215.8520987276285
 30
0.0
 11
205.2174550733411
 21
189.4110987276284
 31
0.0
  0
LINE
  5
5347
330
A
100
AcDbEntity
  8
DIM
  6
HIDDEN
 48
0.01
100
AcDbLine
 10
229.057455073341
 20
215.8520987276285
 30
0.0
 11
205.2174550733411
 21
215.8520987276285
 31
0.0
  0
LINE
  5
534A
330
A
100
AcDbEntity
  8
DIM
  6
HIDDEN
 48
0.01
100
AcDbLine
 10
205.2174550733411
 20
189.4110987276284
 30
0.0
 11
229.057455073341
 21
189.4110987276284
 31
0.0
  0
LINE
  5
534B
330
A
100
AcDbEntity
  8
DIM
  6
HIDDEN
 48
0.01
100
AcDbLine
 10
205.2174550733411
 20
214.6900987276284
 30
0.0
 11
227.057455073341
 21
214.6900987276284
 31
0.0
  0
LINE
  5
534C
330
A
100
AcDbEntity
  8
DIM
  6
HIDDEN
 48
0.01
100
AcDbLine
 10
205.2174550733411
 20
190.5730987276285
 30
0.0
 11
227.057455073341
 21
190.5730987276285
 31
0.0
  0
LINE
  5
534D
330
A
100
AcDbEntity
  8
DIM
  6
HIDDEN
 48
0.01
100
AcDbLine
 10
227.057455073341
 20
215.8520987276285
 30
0.0
 11
227.057455073341
 21
189.4110987276284
 31
0.0
  0
DIMENSION
  5
534F
330
A
100
AcDbEntity
  8
DIM
 48
0.05
100
AcDbDimension
  2
*D6
 10
360.9081113181621
 20
134.3788651601342
 30
0.0
 11
282.9081113181621
 21
141.8788651601342
 31
0.0
 70
    32
 71
     5
 42
156.0
 73
     0
 74
     0
 75
     0
  3
tfrom線あり
100
AcDbAlignedDimension
 13
204.9081113181621
 23
159.3233402214166
 33
0.0
 14
360.9081113181621
 24
188.3722183742047
 34
0.0
100
AcDbRotatedDimension
  0
DIMENSION
  5
5350
330
A
100
AcDbEntity
  8
DIM
 48
0.05
100
AcDbDimension
  2
*D7
 10
397.2090588901922
 20
197.3313987276284
 30
0.0
 11
397.2090588901922
 21
199.9814987276284
 31
0.0
 70
   160
 71
     5
 42
5.300200000000038
 73
     0
 74
     0
 75
     0
  3
tfrom線あり
100
AcDbAlignedDimension
 13
229.057455073341
 23
202.6315987276284
 33
0.0
 14
368.4951171983881
 24
197.3313987276284
 34
0.0
 50
90.0
100
AcDbRotatedDimension
  0
MTEXT
  5
5352
330
A
100
AcDbEntity
  8
DIM
390
1D
100
AcDbMText
 10
196.2181415860082
 20
199.7121319480669
 30
0.0
 40
4.8865234375
 41
0.0
 46
5.033119140625
 71
     1
 72
     1
  1
{\fＭＳ ゴシック|b0|i0|c1|p0;▼}
  7
ＭＳ ゴシック
 11
6.123233995736766E-17
 21
1.0
 31
0.0
 73
     1
 44
0.7828267384257843
1001
ACAD
1000
ACAD_MTEXT_DEFINED_HEIGHT_BEGIN
1070
    46
1040
5.033119140625
1000
ACAD_MTEXT_DEFINED_HEIGHT_END
  0
MTEXT
  5
5353
330
A
100
AcDbEntity
  8
DIM
390
1D
100
AcDbMText
 10
180.4121045492152
 20
204.9514195386558
 30
0.0
 40
4.8865234375
 41
0.0
 46
5.580409765625
 71
     1
 72
     1
  1
{\fＭＳ ゴシック|b0|i0|c1|p0;3/4"}
  7
ＭＳ ゴシック
 73
     1
 44
0.7828267384257843
1001
ACAD
1000
ACAD_MTEXT_DEFINED_HEIGHT_BEGIN
1070
    46
1040
5.580409765625
1000
ACAD_MTEXT_DEFINED_HEIGHT_END
  0
DIMENSION
  5
5354
330
A
100
AcDbEntity
  8
DIM
 48
0.05
100
AcDbDimension
  2
*D8
 10
43.61462109621697
 20
158.8632622304284
 30
0.0
 11
43.61462109621698
 21
197.7368237304284
 31
0.0
 70
   160
 71
     5
 42
77.74712299999993
 73
     0
 74
     0
 75
     0
  3
tfrom線あり
100
AcDbAlignedDimension
 13
95.38571553685767
 23
236.6103852304283
 33
0.0
 14
95.28748650812543
 24
158.8632622304284
 34
0.0
 50
90.0
100
AcDbRotatedDimension
1001
ACAD
1000
DSTYLE
1002
{
1070
     3
1000
φ<>
1002
}
  0
ARC
  5
5422
330
A
100
AcDbEntity
  8
MODEL
100
AcDbCircle
 10
286.733622548829
 20
307.4671947286774
 30
0.0
 40
187.699578102881
100
AcDbArc
 50
207.1646404965994
 51
212.5736886365997
  0
SPLINE
  5
5423
330
A
100
AcDbEntity
  8
MODEL
100
AcDbSpline
210
0.0
220
0.0
230
1.0
 70
    12
 71
     2
 72
     6
 73
     3
 74
     0
 42
0.000000001
 43
0.0000000001
 40
0.0
 40
0.0
 40
0.0
 40
1.0
 40
1.0
 40
1.0
 10
119.8408889009945
 20
221.8183859504215
 30
0.0
 41
1.0
 10
119.7998915882076
 20
221.8027545129536
 30
0.0
 41
0.9427901709181338
 10
119.7376275248345
 20
221.7731502106205
 30
0.0
 41
1.0
  0
ARC
  5
5424
330
A
100
AcDbEntity
  8
MODEL
100
AcDbCircle
 10
206.1935041918288
 20
388.3761330826777
 30
0.0
 40
187.6996870327136
100
AcDbArc
 50
241.0175920563121
 51
242.5736870658996
  0
ARC
  5
5428
330
A
100
AcDbEntity
  8
MODEL
100
AcDbCircle
 10
-14.35000936967094
 20
388.8796526301786
 30
0.0
 40
187.6995780971613
100
AcDbArc
 50
297.1646404964998
 51
298.7394559104986
  0
SPLINE
  5
5429
330
A
100
AcDbEntity
  8
MODEL
100
AcDbSpline
210
0.0
220
0.0
230
1.0
 70
    12
 71
     2
 72
     6
 73
     3
 74
     0
 42
0.000000001
 43
0.0000000001
 40
0.0
 40
0.0
 40
0.0
 40
1.0
 40
1.0
 40
1.0
 10
71.29879940567776
 20
221.9869189870305
 30
0.0
 41
1.0
 10
71.3144308431467
 20
221.9459216742417
 30
0.0
 41
0.9427901713721256
 10
71.34403514547853
 20
221.8836576108687
 30
0.0
 41
1.0
  0
ARC
  5
542A
330
A
100
AcDbEntity
  8
MODEL
100
AcDbCircle
 10
-95.25894772267088
 20
308.3395342756786
 30
0.0
 40
187.6996870283045
100
AcDbArc
 50
327.1646420671999
 51
332.5736870658999
  0
SPLINE
  5
542B
330
A
100
AcDbEntity
  8
MODEL
100
AcDbSpline
210
0.0
220
0.0
230
1.0
 70
    12
 71
     2
 72
     6
 73
     3
 74
     0
 42
0.000000001
 43
0.0000000001
 40
0.0
 40
0.0
 40
0.0
 40
1.0
 40
1.0
 40
1.0
 10
62.36155761972907
 20
206.6305368797915
 30
0.0
 41
1.0
 10
62.39559349807055
 20
206.6028478841626
 30
0.0
 41
0.9427901709913128
 10
62.45236360763681
 20
206.5637277747065
 30
0.0
 41
1.0
  0
ARC
  5
542C
330
A
100
AcDbEntity
  8
MODEL
100
AcDbCircle
 10
-125.0579261286709
 20
198.1352216921785
 30
0.0
 40
187.6996229931305
100
AcDbArc
 50
357.1646411438999
 51
2.573687989299876
  0
SPLINE
  5
542D
330
A
100
AcDbEntity
  8
MODEL
100
AcDbSpline
210
0.0
220
0.0
230
1.0
 70
    12
 71
     2
 72
     6
 73
     3
 74
     0
 42
0.000000001
 43
0.0000000001
 40
0.0
 40
0.0
 40
0.0
 40
1.0
 40
1.0
 40
1.0
 10
62.29987024695333
 20
188.8628989717275
 30
0.0
 41
1.0
 10
62.34319068004798
 20
188.8559375372797
 30
0.0
 41
0.9427901709331554
 10
62.41191509183875
 20
188.8504435834747
 30
0.0
 41
1.0
  0
ARC
  5
542E
330
A
100
AcDbEntity
  8
MODEL
100
AcDbCircle
 10
-95.7624672601712
 20
87.79602072417819
 30
0.0
 40
187.6995780812064
100
AcDbArc
 50
27.1646404963
 51
32.57368863689994
  0
SPLINE
  5
542F
330
A
100
AcDbEntity
  8
MODEL
100
AcDbSpline
210
0.0
220
0.0
230
1.0
 70
    12
 71
     2
 72
     6
 73
     3
 74
     0
 42
0.000000001
 43
0.0000000001
 40
0.0
 40
0.0
 40
0.0
 40
1.0
 40
1.0
 40
1.0
 10
71.13026636906875
 20
173.4448294917125
 30
0.0
 41
1.0
 10
71.17126368185662
 20
173.4604609291813
 30
0.0
 41
0.9427901708937786
 10
71.23352774522971
 20
173.4900652315135
 30
0.0
 41
1.0
  0
SPLINE
  5
5430
330
A
100
AcDbEntity
  8
MODEL
100
AcDbSpline
210
0.0
220
0.0
230
1.0
 70
    12
 71
     2
 72
     6
 73
     3
 74
     0
 42
0.000000001
 43
0.0000000001
 40
0.0
 40
0.0
 40
0.0
 40
1.0
 40
1.0
 40
1.0
 10
119.6723558643873
 20
173.2762964551035
 30
0.0
 41
1.0
 10
119.6567244269171
 20
173.3172937678906
 30
0.0
 41
0.9427901709526357
 10
119.6271201245856
 20
173.3795578312637
 30
0.0
 41
1.0
  0
ARC
  5
5431
330
A
100
AcDbEntity
  8
MODEL
100
AcDbCircle
 10
286.2301029983282
 20
86.9236811631782
 30
0.0
 40
187.699687034294
100
AcDbArc
 50
147.1646420672998
 51
152.5736870657998
  0
ARC
  5
5432
330
A
100
AcDbEntity
  8
MODEL
100
AcDbCircle
 10
316.0290813778295
 20
197.1279937496775
 30
0.0
 40
187.6996229721055
100
AcDbArc
 50
177.1646411436
 51
182.5736879895997
  0
SPLINE
  5
5433
330
A
100
AcDbEntity
  8
MODEL
100
AcDbSpline
210
0.0
220
0.0
230
1.0
 70
    12
 71
     2
 72
     6
 73
     3
 74
     0
 42
0.000000001
 43
0.0000000001
 40
0.0
 40
0.0
 40
0.0
 40
1.0
 40
1.0
 40
1.0
 10
128.6712850231117
 20
206.4003164704066
 30
0.0
 41
1.0
 10
128.6279645900162
 20
206.4072779048547
 30
0.0
 41
0.9427901709525393
 10
128.5592401782245
 20
206.4127718586595
 30
0.0
 41
1.0
  0
LINE
  5
5434
330
A
100
AcDbEntity
  8
MODEL
100
AcDbLine
 10
57.98435524734282
 20
187.7171158126023
 30
0.0
 11
62.29987024682873
 21
188.8628989716787
 31
0.0
  0
LINE
  5
5435
330
A
100
AcDbEntity
  8
MODEL
100
AcDbLine
 10
67.9658123288184
 20
170.2947946690076
 30
0.0
 11
71.13026636882864
 21
173.4448294916775
 31
0.0
  0
LINE
  5
5436
330
A
100
AcDbEntity
  8
MODEL
100
AcDbLine
 10
122.9398551678289
 20
169.9938402426786
 30
0.0
 11
119.6723558643291
 21
173.2762964551777
 31
0.0
  0
SPLINE
  5
5437
330
A
100
AcDbEntity
  8
MODEL
100
AcDbSpline
210
0.0
220
0.0
230
1.0
 70
    12
 71
     2
 72
     6
 73
     3
 74
     0
 42
0.000000001
 43
0.0000000001
 40
0.0
 40
0.0
 40
0.0
 40
1.0
 40
1.0
 40
1.0
 10
122.9398551678817
 20
169.9938402426277
 30
0.0
 41
1.0
 10
122.9734254328477
 20
170.0179348812086
 30
0.0
 41
0.9789808496497083
 10
122.9976731356276
 20
170.0513947558067
 30
0.0
 41
1.0
  0
LINE
  5
5438
330
A
100
AcDbEntity
  8
MODEL
100
AcDbLine
 10
133.0805631603282
 20
187.4237377471776
 30
0.0
 11
128.5187916626036
 21
188.699487667184
 31
0.0
  0
LINE
  5
5439
330
A
100
AcDbEntity
  8
MODEL
100
AcDbLine
 10
132.9868000221278
 20
207.5460996290713
 30
0.0
 11
128.6712850233282
 21
206.4003164701786
 31
0.0
  0
SPLINE
  5
543A
330
A
100
AcDbEntity
  8
MODEL
100
AcDbSpline
210
0.0
220
0.0
230
1.0
 70
    12
 71
     2
 72
     6
 73
     3
 74
     0
 42
0.000000001
 43
0.0000000001
 40
0.0
 40
0.0
 40
0.0
 40
1.0
 40
1.0
 40
1.0
 10
123.0023572535914
 20
169.9888706256755
 30
0.0
 41
1.0
 10
123.0210414006847
 20
170.0033943414646
 30
0.0
 41
0.9318364080797753
 10
122.9976731356276
 20
170.0513947558067
 30
0.0
 41
1.0
  0
SPLINE
  5
543B
330
A
100
AcDbEntity
  8
MODEL
100
AcDbSpline
210
0.0
220
0.0
230
1.0
 70
    12
 71
     2
 72
     6
 73
     3
 74
     0
 42
0.000000001
 43
0.0000000001
 40
0.0
 40
0.0
 40
0.0
 40
1.0
 40
1.0
 40
1.0
 10
122.9398551678817
 20
169.9938402426286
 30
0.0
 41
1.0
 10
122.987748358769
 20
169.9702530033166
 30
0.0
 41
0.9318364081156102
 10
123.0023572535914
 20
169.9888706256767
 30
0.0
 41
1.0
  0
LINE
  5
543C
330
A
100
AcDbEntity
  8
MODEL
100
AcDbLine
 10
58.05132041989123
 20
207.796017056539
 30
0.0
 11
62.36155761982832
 21
206.6305368796776
 31
0.0
  0
LINE
  5
543D
330
A
100
AcDbEntity
  8
MODEL
100
AcDbLine
 10
68.14876458290314
 20
225.1513730279273
 30
0.0
 11
71.29879940582873
 21
221.9869189871775
 31
0.0
  0
LINE
  5
5440
330
A
100
AcDbEntity
  8
MODEL
100
AcDbLine
 10
123.0053429413264
 20
224.9684207728544
 30
0.0
 11
119.8408889008291
 21
221.8183859501786
 31
0.0
  0
ARC
  5
5441
330
A
100
AcDbEntity
  8
MODEL
100
AcDbCircle
 10
122.8613659678296
 20
170.1305072956785
 30
0.0
 40
0.199999999994887
100
AcDbArc
 50
314.1643236234025
 51
315.5740057500508
  0
ARC
  5
5443
330
A
100
AcDbEntity
  8
MODEL
 48
0.05
100
AcDbCircle
 10
95.48557763457916
 20
197.6316077214275
 30
0.0
 40
38.78967427482622
100
AcDbArc
 50
117.1418848321902
 51
62.56663196584938
  0
LINE
  5
5444
330
A
100
AcDbEntity
  8
MODEL
100
AcDbLine
 10
105.649986970622
 20
160.1973505069943
 30
0.0
 11
104.4845067938288
 21
164.5075877066782
 31
0.0
  0
LINE
  5
5445
330
A
100
AcDbEntity
  8
MODEL
100
AcDbLine
 10
85.57108572668722
 20
160.1303853339463
 30
0.0
 11
86.7168688858286
 21
164.4459003336782
 31
0.0
  0
ARC
  5
5446
330
A
100
AcDbEntity
  8
MODEL
100
AcDbCircle
 10
-14.35000936967094
 20
6.383562812678178
 30
0.0
 40
187.6995780971613
100
AcDbArc
 50
57.42631136340001
 51
62.8353595035002
  0
ARC
  5
5447
330
A
100
AcDbEntity
  8
MODEL
100
AcDbCircle
 10
95.98793157282876
 20
-22.36009997582084
 30
0.0
 40
187.1484419178562
100
AcDbArc
 50
87.41834082410007
 51
92.84333004270023
  0
ARC
  5
5448
330
A
100
AcDbEntity
  8
MODEL
100
AcDbCircle
 10
206.1935041918288
 20
6.887082360179079
 30
0.0
 40
187.6996870327136
100
AcDbArc
 50
117.4263129341003
 51
122.8353579327002
  0
LINE
  5
5610
102
{ACAD_REACTORS
330
5706
102
}
330
A
100
AcDbEntity
  8
MODEL
100
AcDbLine
 10
80.58911499772398
 20
197.7795389195999
 30
0.0
 11
110.532038553524
 21
197.7795389195999
 31
0.0
  0
SPLINE
  5
5611
102
{ACAD_REACTORS
330
5706
102
}
330
A
100
AcDbEntity
  8
MODEL
100
AcDbSpline
210
0.0
220
0.0
230
1.0
 70
    12
 71
     2
 72
     6
 73
     3
 74
     0
 42
0.000000001
 43
0.0000000001
 40
0.0
 40
0.0
 40
0.0
 40
1.0
 40
1.0
 40
1.0
 10
114.2048138283174
 20
199.8695440078048
 30
0.0
 41
1.0
 10
114.2647656645581
 20
200.0448999243955
 30
0.0
 41
0.9215316601243263
 10
114.1810586021768
 20
200.2367866023137
 30
0.0
 41
1.0
  0
SPLINE
  5
5612
102
{ACAD_REACTORS
330
5706
102
}
330
A
100
AcDbEntity
  8
MODEL
100
AcDbSpline
210
0.0
220
0.0
230
1.0
 70
    12
 71
     2
 72
     6
 73
     3
 74
     0
 42
0.000000001
 43
0.0000000001
 40
0.0
 40
0.0
 40
0.0
 40
1.0
 40
1.0
 40
1.0
 10
114.2048138283174
 20
199.8695440078047
 30
0.0
 41
1.0
 10
114.3154873351512
 20
200.0448999245309
 30
0.0
 41
0.921531660065965
 10
114.2672063771645
 20
200.2367866025257
 30
0.0
 41
1.0
  0
SPLINE
  5
5613
102
{ACAD_REACTORS
330
5706
102
}
330
A
100
AcDbEntity
  8
MODEL
100
AcDbSpline
210
0.0
220
0.0
230
1.0
 70
    12
 71
     2
 72
     6
 73
     3
 74
     0
 42
0.000000001
 43
0.0000000001
 40
0.0
 40
0.0
 40
0.0
 40
1.0
 40
1.0
 40
1.0
 10
114.2672063771627
 20
200.2367866025293
 30
0.0
 41
1.0
 10
114.2529117974072
 20
200.2458392916248
 30
0.0
 41
0.9685282161205608
 10
114.181058602305
 20
200.2367866023969
 30
0.0
 41
1.0
  0
SPLINE
  5
5614
102
{ACAD_REACTORS
330
5706
102
}
330
A
100
AcDbEntity
  8
MODEL
100
AcDbSpline
210
0.0
220
0.0
230
1.0
 70
    12
 71
     2
 72
     6
 73
     3
 74
     0
 42
0.000000001
 43
0.0000000001
 40
0.0
 40
0.0
 40
0.0
 40
1.0
 40
1.0
 40
1.0
 10
112.3936915757465
 20
207.0034439455295
 30
0.0
 41
1.0
 10
112.3793969959922
 20
207.012496634679
 30
0.0
 41
0.9685282160867975
 10
112.3075438008534
 20
207.0034439455006
 30
0.0
 41
1.0
  0
ARC
  5
5615
102
{ACAD_REACTORS
330
5706
102
}
330
A
100
AcDbEntity
  8
MODEL
100
AcDbCircle
 10
111.9119906591238
 20
206.8548778595999
 30
0.0
 40
0.5040909194011794
100
AcDbArc
 50
17.14079689539646
 51
62.16986263705967
  0
ARC
  5
5616
102
{ACAD_REACTORS
330
5706
102
}
330
A
100
AcDbEntity
  8
MODEL
100
AcDbCircle
 10
111.8848243543241
 20
206.9673679121998
 30
0.0
 40
0.4242560673386562
100
AcDbArc
 50
4.877958694105598
 51
51.77618185094785
  0
SPLINE
  5
5617
102
{ACAD_REACTORS
330
5706
102
}
330
A
100
AcDbEntity
  8
MODEL
100
AcDbSpline
210
0.0
220
0.0
230
1.0
 70
    12
 71
     2
 72
     6
 73
     3
 74
     0
 42
0.000000001
 43
0.0000000001
 40
0.0
 40
0.0
 40
0.0
 40
1.0
 40
1.0
 40
1.0
 10
115.208516704811
 20
200.1013256085496
 30
0.0
 41
1.0
 10
115.2082941640414
 20
200.1705241561496
 30
0.0
 41
0.9895790679000029
 10
115.1873476901062
 20
200.2367866023135
 30
0.0
 41
1.0
  0
SPLINE
  5
5618
102
{ACAD_REACTORS
330
5706
102
}
330
A
100
AcDbEntity
  8
MODEL
100
AcDbSpline
210
0.0
220
0.0
230
1.0
 70
    12
 71
     2
 72
     6
 73
     3
 74
     0
 42
0.000000001
 43
0.0000000001
 40
0.0
 40
0.0
 40
0.0
 40
1.0
 40
1.0
 40
1.0
 10
115.2068450928102
 20
200.0609879382804
 30
0.0
 41
1.0
 10
115.2085816749893
 20
200.0811232788984
 30
0.0
 41
0.9990989303689866
 10
115.208516704811
 20
200.1013256085496
 30
0.0
 41
1.0
  0
SPLINE
  5
5619
102
{ACAD_REACTORS
330
5706
102
}
330
A
100
AcDbEntity
  8
MODEL
100
AcDbSpline
210
0.0
220
0.0
230
1.0
 70
    12
 71
     2
 72
     6
 73
     3
 74
     0
 42
0.000000001
 43
0.0000000001
 40
0.0
 40
0.0
 40
0.0
 40
1.0
 40
1.0
 40
1.0
 10
115.1873476901062
 20
200.2367866023969
 30
0.0
 41
1.0
 10
115.1889197975475
 20
200.2383411178074
 30
0.0
 41
0.9990276794881096
 10
115.1886243999404
 20
200.2393567493893
 30
0.0
 41
1.0
  0
SPLINE
  5
561A
102
{ACAD_REACTORS
330
5706
102
}
330
A
100
AcDbEntity
  8
MODEL
100
AcDbSpline
210
0.0
220
0.0
230
1.0
 70
    12
 71
     2
 72
     6
 73
     3
 74
     0
 42
0.000000001
 43
0.0000000001
 40
0.0
 40
0.0
 40
0.0
 40
1.0
 40
1.0
 40
1.0
 10
113.2192576647965
 20
207.0034439465805
 30
0.0
 41
1.0
 10
113.220829772471
 20
207.0049984619865
 30
0.0
 41
0.9990276794126783
 10
113.220534374884
 20
207.0060140935029
 30
0.0
 41
1.0
  0
ARC
  5
561B
102
{ACAD_REACTORS
330
5706
102
}
330
A
100
AcDbEntity
  8
MODEL
100
AcDbCircle
 10
112.7586989795238
 20
206.8810910625999
 30
0.0
 40
0.4765338715371114
100
AcDbArc
 50
14.87765553939413
 51
38.2905569804731
  0
SPLINE
  5
561C
102
{ACAD_REACTORS
330
5706
102
}
330
A
100
AcDbEntity
  8
MODEL
100
AcDbSpline
210
0.0
220
0.0
230
1.0
 70
    12
 71
     2
 72
     6
 73
     3
 74
     0
 42
0.000000001
 43
0.0000000001
 40
0.0
 40
0.0
 40
0.0
 40
1.0
 40
1.0
 40
1.0
 10
88.79217567121464
 20
200.2367866025305
 30
0.0
 41
1.0
 10
88.66479864423002
 20
200.245839291637
 30
0.0
 41
0.9685282160383399
 10
88.55865553167018
 20
200.236786602377
 30
0.0
 41
1.0
  0
SPLINE
  5
561D
102
{ACAD_REACTORS
330
5706
102
}
330
A
100
AcDbEntity
  8
MODEL
100
AcDbSpline
210
0.0
220
0.0
230
1.0
 70
    12
 71
     2
 72
     6
 73
     3
 74
     0
 42
0.000000001
 43
0.0000000001
 40
0.0
 40
0.0
 40
0.0
 40
1.0
 40
1.0
 40
1.0
 10
88.558655531677
 20
200.2367866024418
 30
0.0
 41
1.0
 10
88.58232436121277
 20
200.0448999244811
 30
0.0
 41
0.9215316600689876
 10
88.68254243739125
 20
199.8695440078059
 30
0.0
 41
1.0
  0
SPLINE
  5
561E
102
{ACAD_REACTORS
330
5706
102
}
330
A
100
AcDbEntity
  8
MODEL
100
AcDbSpline
210
0.0
220
0.0
230
1.0
 70
    12
 71
     2
 72
     6
 73
     3
 74
     0
 42
0.000000001
 43
0.0000000001
 40
0.0
 40
0.0
 40
0.0
 40
1.0
 40
1.0
 40
1.0
 10
88.7921756712251
 20
200.2367866025268
 30
0.0
 41
1.0
 10
88.71981522013644
 20
200.0448999245299
 30
0.0
 41
0.9215316600595665
 10
88.68254243739125
 20
199.8695440078059
 30
0.0
 41
1.0
  0
ARC
  5
561F
102
{ACAD_REACTORS
330
5706
102
}
330
A
100
AcDbEntity
  8
MODEL
100
AcDbCircle
 10
94.67778651492404
 20
207.8848905873999
 30
0.0
 40
5.26870919512374
100
AcDbArc
 50
186.3664044248997
 51
189.6307795679986
  0
ARC
  5
5620
102
{ACAD_REACTORS
330
5706
102
}
330
A
100
AcDbEntity
  8
MODEL
100
AcDbCircle
 10
89.8330871025239
 20
206.8376017335998
 30
0.0
 40
0.60639310837801
100
AcDbArc
 50
130.2144913838649
 51
164.1279752858964
  0
SPLINE
  5
5621
102
{ACAD_REACTORS
330
5706
102
}
330
A
100
AcDbEntity
  8
MODEL
100
AcDbSpline
210
0.0
220
0.0
230
1.0
 70
    12
 71
     2
 72
     6
 73
     3
 74
     0
 42
0.000000001
 43
0.0000000001
 40
0.0
 40
0.0
 40
0.0
 40
1.0
 40
1.0
 40
1.0
 10
89.48333289595416
 20
207.0034439455292
 30
0.0
 41
1.0
 10
89.35595586909183
 20
207.0124966346783
 30
0.0
 41
0.9685282161162971
 10
89.24981275659434
 20
207.0034439455001
 30
0.0
 41
1.0
  0
SPLINE
  5
5622
102
{ACAD_REACTORS
330
5706
102
}
330
A
100
AcDbEntity
  8
MODEL
100
AcDbSpline
210
0.0
220
0.0
230
1.0
 70
    12
 71
     2
 72
     6
 73
     3
 74
     0
 42
0.000000001
 43
0.0000000001
 40
0.0
 40
0.0
 40
0.0
 40
1.0
 40
1.0
 40
1.0
 10
80.34565467545758
 20
200.2367866025273
 30
0.0
 41
1.0
 10
80.25884820759124
 20
200.0448999245301
 30
0.0
 41
0.9215316600715794
 10
80.28190578428189
 20
199.8695440078063
 30
0.0
 41
1.0
  0
SPLINE
  5
5623
102
{ACAD_REACTORS
330
5706
102
}
330
A
100
AcDbEntity
  8
MODEL
100
AcDbSpline
210
0.0
220
0.0
230
1.0
 70
    12
 71
     2
 72
     6
 73
     3
 74
     0
 42
0.000000001
 43
0.0000000001
 40
0.0
 40
0.0
 40
0.0
 40
1.0
 40
1.0
 40
1.0
 10
80.3456546754494
 20
200.2367866025307
 30
0.0
 41
1.0
 10
80.24249022423523
 20
200.2458392916263
 30
0.0
 41
0.9685282161213066
 10
80.18649418994869
 20
200.2367866023981
 30
0.0
 41
1.0
  0
SPLINE
  5
5624
102
{ACAD_REACTORS
330
5706
102
}
330
A
100
AcDbEntity
  8
MODEL
100
AcDbSpline
210
0.0
220
0.0
230
1.0
 70
    12
 71
     2
 72
     6
 73
     3
 74
     0
 42
0.000000001
 43
0.0000000001
 40
0.0
 40
0.0
 40
0.0
 40
1.0
 40
1.0
 40
1.0
 10
80.18649418982045
 20
200.2367866023151
 30
0.0
 41
1.0
 10
80.16513846626945
 20
200.0448999243966
 30
0.0
 41
0.9215316601210773
 10
80.28190578428189
 20
199.869544007806
 30
0.0
 41
1.0
  0
SPLINE
  5
5625
330
A
100
AcDbEntity
  8
MODEL
100
AcDbSpline
210
0.0
220
0.0
230
1.0
 70
    12
 71
     2
 72
     6
 73
     3
 74
     0
 42
0.000000001
 43
0.0000000001
 40
0.0
 40
0.0
 40
0.0
 40
1.0
 40
1.0
 40
1.0
 10
76.29315324918844
 20
200.2367864585789
 30
0.0
 41
1.0
 10
76.21516048750722
 20
200.0448997805817
 30
0.0
 41
0.9215316600682444
 10
76.29237016458
 20
199.869543863858
 30
0.0
 41
1.0
  0
SPLINE
  5
5626
330
A
100
AcDbEntity
  8
MODEL
100
AcDbSpline
210
0.0
220
0.0
230
1.0
 70
    12
 71
     2
 72
     6
 73
     3
 74
     0
 42
0.000000001
 43
0.0000000001
 40
0.0
 40
0.0
 40
0.0
 40
1.0
 40
1.0
 40
1.0
 10
76.2931532491848
 20
200.2367864585823
 30
0.0
 41
1.0
 10
76.2511314975027
 20
200.2442005482248
 30
0.0
 41
0.978560008705011
 10
76.24972263120662
 20
200.2393566054425
 30
0.0
 41
1.0
  0
SPLINE
  5
5627
330
A
100
AcDbEntity
  8
MODEL
100
AcDbSpline
210
0.0
220
0.0
230
1.0
 70
    12
 71
     2
 72
     6
 73
     3
 74
     0
 42
0.000000001
 43
0.0000000001
 40
0.0
 40
0.0
 40
0.0
 40
1.0
 40
1.0
 40
1.0
 10
76.22983032633601
 20
200.1013254646037
 30
0.0
 41
1.0
 10
76.22978978438576
 20
200.0887190369615
 30
0.0
 41
0.9996488453744683
 10
76.23045148117762
 20
200.0761280552202
 30
0.0
 41
1.0
  0
SPLINE
  5
5628
330
A
100
AcDbEntity
  8
MODEL
100
AcDbSpline
210
0.0
220
0.0
230
1.0
 70
    12
 71
     2
 72
     6
 73
     3
 74
     0
 42
0.000000001
 43
0.0000000001
 40
0.0
 40
0.0
 40
0.0
 40
1.0
 40
1.0
 40
1.0
 10
76.23045148117762
 20
200.0761280552202
 30
0.0
 41
1.0
 10
76.236238154072
 20
199.9660173615926
 30
0.0
 41
0.9741667262942831
 10
76.29237016458
 20
199.8695438638579
 30
0.0
 41
1.0
  0
ARC
  5
5629
102
{ACAD_REACTORS
330
5706
102
}
330
A
100
AcDbEntity
  8
MODEL
100
AcDbCircle
 10
82.3584972595238
 20
207.0249905301999
 30
0.0
 40
0.4780113267096112
100
AcDbArc
 50
144.7806842460709
 51
182.5835094674997
  0
ARC
  5
562A
102
{ACAD_REACTORS
330
5706
102
}
330
A
100
AcDbEntity
  8
MODEL
100
AcDbCircle
 10
82.22786046832402
 20
206.8348623493999
 30
0.0
 40
0.5333905803007564
100
AcDbArc
 50
119.1575625990004
 51
161.5753903415118
  0
SPLINE
  5
562B
102
{ACAD_REACTORS
330
5706
102
}
330
A
100
AcDbEntity
  8
MODEL
100
AcDbSpline
210
0.0
220
0.0
230
1.0
 70
    12
 71
     2
 72
     6
 73
     3
 74
     0
 42
0.000000001
 43
0.0000000001
 40
0.0
 40
0.0
 40
0.0
 40
1.0
 40
1.0
 40
1.0
 10
81.88097179101601
 20
207.0034439456343
 30
0.0
 41
1.0
 10
81.77780733860075
 20
207.0124966354412
 30
0.0
 41
0.9685282153866588
 10
81.72181130436934
 20
207.0034439465684
 30
0.0
 41
1.0
  0
SPLINE
  5
562C
102
{ACAD_REACTORS
330
5706
102
}
330
A
100
AcDbEntity
  8
MODEL
100
AcDbSpline
210
0.0
220
0.0
230
1.0
 70
    12
 71
     2
 72
     6
 73
     3
 74
     0
 42
0.000000001
 43
0.0000000001
 40
0.0
 40
0.0
 40
0.0
 40
1.0
 40
1.0
 40
1.0
 10
77.94404979409842
 20
207.0034439455289
 30
0.0
 41
1.0
 10
77.90202804253543
 20
207.0108580356973
 30
0.0
 41
0.9785600087278475
 10
77.90061917641219
 20
207.0060140935023
 30
0.0
 41
1.0
  0
ARC
  5
562D
102
{ACAD_REACTORS
330
5706
102
}
330
A
100
AcDbEntity
  8
MODEL
100
AcDbCircle
 10
78.3745764967241
 20
206.9355716441999
 30
0.0
 40
0.435843883684443
100
AcDbArc
 50
123.1055002413814
 51
171.0410855115117
  0
ARC
  5
562E
102
{ACAD_REACTORS
330
5706
102
}
330
A
100
AcDbEntity
  8
MODEL
100
AcDbCircle
 10
78.36245157572398
 20
206.8810934275999
 30
0.0
 40
0.4765303688125916
100
AcDbArc
 50
118.3010785922905
 51
140.7034511199133
  0
ARC
  5
562F
102
{ACAD_REACTORS
330
5706
102
}
330
A
100
AcDbEntity
  8
MODEL
100
AcDbCircle
 10
80.052255952324
 20
202.4541740753999
 30
0.0
 40
5.211379741199758
100
AcDbArc
 50
68.43200757670056
 51
111.5679924232995
  0
ARC
  5
5630
102
{ACAD_REACTORS
330
5706
102
}
330
A
100
AcDbEntity
  8
MODEL
100
AcDbCircle
 10
79.83293054972387
 20
201.7904164765999
 30
0.0
 40
5.54468447268761
100
AcDbArc
 50
70.08259637029819
 51
109.9174036437963
  0
LINE
  5
5631
102
{ACAD_REACTORS
330
5706
102
}
330
A
100
AcDbEntity
  8
MODEL
100
AcDbLine
 10
75.97595976932394
 20
200.2367866025998
 30
0.0
 11
77.94404979412388
 21
207.0034439455999
 31
0.0
  0
SPLINE
  5
5632
102
{ACAD_REACTORS
330
5706
102
}
330
A
100
AcDbEntity
  8
MODEL
100
AcDbSpline
210
0.0
220
0.0
230
1.0
 70
     8
 71
     3
 72
    12
 73
     8
 74
     0
 42
0.000000001
 43
0.0000000001
 40
0.0
 40
0.0
 40
0.0
 40
0.0
 40
0.2124273002347457
 40
0.2124273002347457
 40
0.6278776505686527
 40
0.6278776505686527
 40
1.0
 40
1.0
 40
1.0
 40
1.0
 10
78.13652624820793
 20
207.3006633726243
 30
0.0
 10
78.17165753242557
 20
207.3407966425357
 30
0.0
 10
78.20531525049432
 20
207.3761205291204
 30
0.0
 10
78.3008896377712
 20
207.4690579130234
 30
0.0
 10
78.358970492646
 20
207.5155762365243
 30
0.0
 10
78.4611340844042
 20
207.5837737681695
 30
0.0
 10
78.50617070688509
 20
207.6079067642721
 30
0.0
 10
78.54822175882623
 20
207.6250725511855
 30
0.0
  0
LINE
  5
5633
102
{ACAD_REACTORS
330
5706
102
}
330
A
100
AcDbEntity
  8
MODEL
100
AcDbLine
 10
81.72181130532385
 20
207.0034439461999
 30
0.0
 11
80.18649418992413
 21
200.2367866023999
 31
0.0
  0
LINE
  5
5634
102
{ACAD_REACTORS
330
5706
102
}
330
A
100
AcDbEntity
  8
MODEL
100
AcDbLine
 10
80.34565467552397
 20
200.2367866025998
 30
0.0
 11
81.88097179072406
 21
207.0034439455999
 31
0.0
  0
ARC
  5
5635
102
{ACAD_REACTORS
330
5706
102
}
330
A
100
AcDbEntity
  8
MODEL
100
AcDbCircle
 10
85.70477726692411
 20
188.3094307577999
 30
0.0
 40
19.35537464816311
100
AcDbArc
 50
78.86845390280052
 51
101.1315460972008
  0
ARC
  5
5636
102
{ACAD_REACTORS
330
5706
102
}
330
A
100
AcDbEntity
  8
MODEL
100
AcDbCircle
 10
85.56539227352391
 20
186.7219423491999
 30
0.0
 40
20.61344855422742
100
AcDbArc
 50
79.70370018359979
 51
100.2962998142998
  0
SPLINE
  5
5637
330
A
100
AcDbEntity
  8
MODEL
100
AcDbSpline
210
0.0
220
0.0
230
1.0
 70
     8
 71
     3
 72
     8
 73
     4
 74
     0
 42
0.000000001
 43
0.0000000001
 40
0.0
 40
0.0
 40
0.0
 40
0.0
 40
1.0
 40
1.0
 40
1.0
 40
1.0
 10
76.44250750820311
 20
199.1606668034125
 30
0.0
 10
76.43614918146159
 20
199.1694750738094
 30
0.0
 10
76.42994979189052
 20
199.1789871893249
 30
0.0
 10
76.42391341038592
 20
199.18921325448
 30
0.0
  0
SPLINE
  5
5638
330
A
100
AcDbEntity
  8
MODEL
100
AcDbSpline
210
0.0
220
0.0
230
1.0
 70
     8
 71
     3
 72
    12
 73
     8
 74
     0
 42
0.000000001
 43
0.0000000001
 40
0.0
 40
0.0
 40
0.0
 40
0.0
 40
0.2080774378187717
 40
0.2080774378187717
 40
0.6513023645181724
 40
0.6513023645181724
 40
1.0
 40
1.0
 40
1.0
 40
1.0
 10
76.42391341038592
 20
199.18921325448
 30
0.0
 10
76.40930652062798
 20
199.2139583780727
 30
0.0
 10
76.39565412055617
 20
199.2428840160518
 30
0.0
 10
76.35608898878036
 20
199.3469575955363
 30
0.0
 10
76.33391605884026
 20
199.4374857349061
 30
0.0
 10
76.30518894981697
 20
199.6418046655689
 30
0.0
 10
76.29629017769139
 20
199.7469200736192
 30
0.0
 10
76.29237016458
 20
199.8695438638579
 30
0.0
  0
SPLINE
  5
5639
102
{ACAD_REACTORS
330
5706
102
}
330
A
100
AcDbEntity
  8
MODEL
100
AcDbSpline
210
0.0
220
0.0
230
1.0
 70
     8
 71
     3
 72
    18
 73
    14
 74
     0
 42
0.000000001
 43
0.0000000001
 40
0.0
 40
0.0
 40
0.0
 40
0.0
 40
0.1151704422045967
 40
0.1151704422045967
 40
0.2398169710763308
 40
0.2398169710763308
 40
0.499958363256217
 40
0.499958363256217
 40
0.7600997554360979
 40
0.7600997554360979
 40
0.8943676414511175
 40
0.8943676414511175
 40
1.0
 40
1.0
 40
1.0
 40
1.0
 10
75.9751766847296
 20
199.8695440078063
 30
0.0
 10
76.10710085484811
 20
199.7362745597191
 30
0.0
 10
76.2467458134422
 20
199.6234182441701
 30
0.0
 10
76.54801016839224
 20
199.4246205855861
 30
0.0
 10
76.71002924645177
 20
199.3418563619478
 30
0.0
 10
77.22404853241028
 20
199.1389878580721
 30
0.0
 10
77.59030750542684
 20
199.0753345551229
 30
0.0
 10
78.34617534082804
 20
199.0753345551184
 30
0.0
 10
78.73636224117558
 20
199.1389128818753
 30
0.0
 10
79.3457561298494
 20
199.3469577394845
 30
0.0
 10
79.5559020742287
 20
199.4374858788536
 30
0.0
 10
79.93795526110875
 20
199.6418048095165
 30
0.0
 10
80.1090521393669
 20
199.746920217567
 30
0.0
 10
80.28190578428189
 20
199.8695440078063
 30
0.0
  0
SPLINE
  5
563A
102
{ACAD_REACTORS
330
5706
102
}
330
A
100
AcDbEntity
  8
MODEL
100
AcDbSpline
210
0.0
220
0.0
230
1.0
 70
     8
 71
     3
 72
    17
 73
    13
 74
     0
 42
0.000000001
 43
0.0000000001
 40
0.0
 40
0.0
 40
0.0
 40
0.0
 40
0.172598158968946
 40
0.172598158968946
 40
0.172598158968946
 40
0.4813532183011031
 40
0.4813532183011031
 40
0.4813532183011031
 40
0.7801773089324131
 40
0.7801773089324131
 40
0.7801773089324131
 40
1.0
 40
1.0
 40
1.0
 40
1.0
 10
80.18649418994869
 20
200.2367866023982
 30
0.0
 10
79.9050261979562
 20
200.0543827003947
 30
0.0
 10
79.62958604704204
 20
199.9147879993389
 30
0.0
 10
79.36053563280325
 20
199.8075028906165
 30
0.0
 10
78.87924036807976
 20
199.6155841569121
 30
0.0
 10
78.41595290918235
 20
199.5246500206004
 30
0.0
 10
77.97402224176062
 20
199.5145114884825
 30
0.0
 10
77.54630607704416
 20
199.5046990577256
 30
0.0
 10
77.13734192783954
 20
199.5708096981757
 30
0.0
 10
76.7577196638324
 20
199.7264571432416
 30
0.0
 10
76.47845975715359
 20
199.8409554092948
 30
0.0
 10
76.2134292316407
 20
200.0051898093917
 30
0.0
 10
75.9759597693344
 20
200.2367866025307
 30
0.0
  0
ARC
  5
563B
102
{ACAD_REACTORS
330
5706
102
}
330
A
100
AcDbEntity
  8
MODEL
100
AcDbCircle
 10
84.48222411092388
 20
210.4869181793999
 30
0.0
 40
11.418025588705
100
AcDbArc
 50
248.4158514173016
 51
291.5841485827008
  0
ARC
  5
563C
102
{ACAD_REACTORS
330
5706
102
}
330
A
100
AcDbEntity
  8
MODEL
100
AcDbCircle
 10
84.45215510372395
 20
211.4249795815999
 30
0.0
 40
11.91801191068769
100
AcDbArc
 50
249.8449062641997
 51
290.1550937346009
  0
LINE
  5
563D
102
{ACAD_REACTORS
330
5706
102
}
330
A
100
AcDbEntity
  8
MODEL
100
AcDbLine
 10
89.24981275652385
 20
207.0034439455999
 30
0.0
 11
88.55865553192393
 21
200.2367866023999
 31
0.0
  0
LINE
  5
563E
102
{ACAD_REACTORS
330
5706
102
}
330
A
100
AcDbEntity
  8
MODEL
100
AcDbLine
 10
88.79217567112414
 20
200.2367866025998
 30
0.0
 11
89.48333289592415
 21
207.0034439455999
 31
0.0
  0
ARC
  5
563F
102
{ACAD_REACTORS
330
5706
102
}
330
A
100
AcDbEntity
  8
MODEL
100
AcDbCircle
 10
93.96965619592379
 20
179.6086318173998
 30
0.0
 40
28.05979662097532
100
AcDbArc
 50
79.9662317086994
 51
99.28658611699981
  0
ARC
  5
5640
102
{ACAD_REACTORS
330
5706
102
}
330
A
100
AcDbEntity
  8
MODEL
100
AcDbCircle
 10
93.97605561312389
 20
176.7458846339999
 30
0.0
 40
30.58928657068484
100
AcDbArc
 50
81.55427771559991
 51
98.44572228399966
  0
ARC
  5
5641
102
{ACAD_REACTORS
330
5706
102
}
330
A
100
AcDbEntity
  8
MODEL
100
AcDbCircle
 10
99.99923329012404
 20
205.2140184943999
 30
0.0
 40
2.354641337607088
100
AcDbArc
 50
123.3372535890984
 51
130.5396195499962
  0
LINE
  5
5642
102
{ACAD_REACTORS
330
5706
102
}
330
A
100
AcDbEntity
  8
MODEL
100
AcDbLine
 10
98.70520213452414
 20
207.1812040973999
 30
0.0
 11
98.85847419772404
 21
207.2392605645999
 31
0.0
  0
ARC
  5
5643
102
{ACAD_REACTORS
330
5706
102
}
330
A
100
AcDbEntity
  8
MODEL
100
AcDbCircle
 10
93.799575843924
 20
217.0556526849999
 30
0.0
 40
17.54845613688448
100
AcDbArc
 50
253.4204055173995
 51
286.5795944826996
  0
ARC
  5
5644
102
{ACAD_REACTORS
330
5706
102
}
330
A
100
AcDbEntity
  8
MODEL
100
AcDbCircle
 10
93.79136855152387
 20
215.6873537923998
 30
0.0
 40
16.62237078904794
100
AcDbArc
 50
252.1006141556002
 51
289.0713678852
  0
ARC
  5
5645
102
{ACAD_REACTORS
330
5706
102
}
330
A
100
AcDbEntity
  8
MODEL
100
AcDbCircle
 10
99.3986635999238
 20
200.5238820459999
 30
0.0
 40
0.574177553206466
100
AcDbArc
 50
233.9976229375054
 51
252.1492232857219
  0
ARC
  5
5646
102
{ACAD_REACTORS
330
5706
102
}
330
A
100
AcDbEntity
  8
MODEL
100
AcDbCircle
 10
96.22160049612398
 20
196.2619360909999
 30
0.0
 40
4.741687797647998
100
AcDbArc
 50
53.21255655799974
 51
56.958679440998
  0
LINE
  5
5647
102
{ACAD_REACTORS
330
5706
102
}
330
A
100
AcDbEntity
  8
MODEL
100
AcDbLine
 10
99.06115123032419
 20
200.0593766499999
 30
0.0
 11
98.70520213452414
 21
207.1812040973999
 31
0.0
  0
LINE
  5
5648
102
{ACAD_REACTORS
330
5706
102
}
330
A
100
AcDbEntity
  8
MODEL
100
AcDbLine
 10
98.46877833052417
 20
207.0034439455999
 30
0.0
 11
98.80697601652423
 21
200.2367866025998
 31
0.0
  0
LINE
  5
5649
102
{ACAD_REACTORS
330
5706
102
}
330
A
100
AcDbEntity
  8
MODEL
100
AcDbLine
 10
113.2192576649238
 20
207.0034439467998
 30
0.0
 11
115.1873476901239
 21
200.2367866023999
 31
0.0
  0
SPLINE
  5
564A
102
{ACAD_REACTORS
330
5706
102
}
330
A
100
AcDbEntity
  8
MODEL
100
AcDbSpline
210
0.0
220
0.0
230
1.0
 70
     8
 71
     3
 72
    14
 73
    10
 74
     0
 42
0.000000001
 43
0.0000000001
 40
0.0
 40
0.0
 40
0.0
 40
0.0
 40
0.292126543311578
 40
0.292126543311578
 40
0.7068203332877557
 40
0.7068203332877557
 40
0.9007173415182459
 40
0.9007173415182459
 40
1.0
 40
1.0
 40
1.0
 40
1.0
 10
112.6108722310403
 20
207.6080625915745
 30
0.0
 10
112.5371743426192
 20
207.6439896287608
 30
0.0
 10
112.4721245562112
 20
207.6592849660558
 30
0.0
 10
112.3327888490451
 20
207.6592849660231
 30
0.0
 10
112.265977846843
 20
207.6284638589089
 30
0.0
 10
112.1950577452196
 20
207.5155875158119
 30
0.0
 10
112.1765831699061
 20
207.4691141281815
 30
0.0
 10
112.15654712947
 20
207.3761973024361
 30
0.0
 10
112.151134997747
 20
207.3408405925168
 30
0.0
 10
112.1473264434223
 20
207.3006633726248
 30
0.0
  0
SPLINE
  5
564B
102
{ACAD_REACTORS
330
5706
102
}
330
A
100
AcDbEntity
  8
MODEL
100
AcDbSpline
210
0.0
220
0.0
230
1.0
 70
     8
 71
     3
 72
    17
 73
    13
 74
     0
 42
0.000000001
 43
0.0000000001
 40
0.0
 40
0.0
 40
0.0
 40
0.0
 40
0.265964559086952
 40
0.265964559086952
 40
0.265964559086952
 40
0.6059663923429985
 40
0.6059663923429985
 40
0.6059663923429985
 40
0.9072279027876636
 40
0.9072279027876636
 40
0.9072279027876636
 40
1.0
 40
1.0
 40
1.0
 40
1.0
 10
112.3936915757511
 20
207.0034439455135
 30
0.0
 10
112.4267413025152
 20
207.1420773427663
 30
0.0
 10
112.4777526624728
 20
207.2206183842987
 30
0.0
 10
112.5373326444249
 20
207.2689804377339
 30
0.0
 10
112.6134980672111
 20
207.3308051668801
 30
0.0
 10
112.7037164640481
 20
207.343994207503
 30
0.0
 10
112.8049575653129
 20
207.3179561914915
 30
0.0
 10
112.8946631024685
 20
207.294884986382
 30
0.0
 10
112.9930342934706
 20
207.2409267420529
 30
0.0
 10
113.1079106793366
 20
207.1275394069981
 30
0.0
 10
113.1432863342659
 20
207.0926222984208
 30
0.0
 10
113.1802787899544
 20
207.0517975020553
 30
0.0
 10
113.2192576647965
 20
207.0034439465803
 30
0.0
  0
SPLINE
  5
564C
102
{ACAD_REACTORS
330
5706
102
}
330
A
100
AcDbEntity
  8
MODEL
100
AcDbSpline
210
0.0
220
0.0
230
1.0
 70
     8
 71
     3
 72
    14
 73
    10
 74
     0
 42
0.000000001
 43
0.0000000001
 40
0.0
 40
0.0
 40
0.0
 40
0.0
 40
0.171628508576223
 40
0.171628508576223
 40
0.3573784062045454
 40
0.3573784062045454
 40
0.7450445322000225
 40
0.7450445322000225
 40
1.0
 40
1.0
 40
1.0
 40
1.0
 10
114.2048138283174
 20
199.8695440078047
 30
0.0
 10
114.2704334718962
 20
199.7362745597171
 30
0.0
 10
114.3314893092681
 20
199.6234182441679
 30
0.0
 10
114.4504798826622
 20
199.4246205855843
 30
0.0
 10
114.5075904599319
 20
199.3418563619462
 30
0.0
 10
114.6726565432693
 20
199.1389878580706
 30
0.0
 10
114.7685784445928
 20
199.0753345551216
 30
0.0
 10
114.9054870158591
 20
199.075334555118
 30
0.0
 10
114.9541016217543
 20
199.1028338808987
 30
0.0
 10
114.995859995721
 20
199.1606953117503
 30
0.0
  0
SPLINE
  5
564D
102
{ACAD_REACTORS
330
5706
102
}
330
A
100
AcDbEntity
  8
MODEL
100
AcDbSpline
210
0.0
220
0.0
230
1.0
 70
     8
 71
     3
 72
     8
 73
     4
 74
     0
 42
0.000000001
 43
0.0000000001
 40
0.0
 40
0.0
 40
0.0
 40
0.0
 40
1.0
 40
1.0
 40
1.0
 40
1.0
 10
114.995859995721
 20
199.1606953117503
 30
0.0
 10
115.0022111572073
 20
199.1694956374395
 30
0.0
 10
115.0084037181566
 20
199.1789983089953
 30
0.0
 10
115.0144336207675
 20
199.1892133984384
 30
0.0
  0
SPLINE
  5
564E
102
{ACAD_REACTORS
330
5706
102
}
330
A
100
AcDbEntity
  8
MODEL
100
AcDbSpline
210
0.0
220
0.0
230
1.0
 70
     8
 71
     3
 72
    17
 73
    13
 74
     0
 42
0.000000001
 43
0.0000000001
 40
0.0
 40
0.0
 40
0.0
 40
0.0
 40
0.1725981589707699
 40
0.1725981589707699
 40
0.1725981589707699
 40
0.4813532183036354
 40
0.4813532183036354
 40
0.4813532183036354
 40
0.780177308936452
 40
0.780177308936452
 40
0.780177308936452
 40
1.0
 40
1.0
 40
1.0
 40
1.0
 10
115.1873476901062
 20
200.2367866023969
 30
0.0
 10
115.1879342970371
 20
200.0543827003913
 30
0.0
 10
115.1752644322344
 20
199.9147879993346
 30
0.0
 10
115.1529916172306
 20
199.8075028906119
 30
0.0
 10
115.113148525282
 20
199.6155841569083
 30
0.0
 10
115.042862033785
 20
199.5246500205977
 30
0.0
 10
114.9497370490942
 20
199.5145114884811
 30
0.0
 10
114.8596073879787
 20
199.5046990577256
 30
0.0
 10
114.7477287850704
 20
199.5708096981775
 30
0.0
 10
114.6117808851052
 20
199.7264571432466
 30
0.0
 10
114.5117741113834
 20
199.8409554092994
 30
0.0
 10
114.3979450030567
 20
200.0051898093944
 30
0.0
 10
114.2672063771622
 20
200.2367866025293
 30
0.0
  0
LINE
  5
564F
102
{ACAD_REACTORS
330
5706
102
}
330
A
100
AcDbEntity
  8
MODEL
100
AcDbLine
 10
112.3075438009239
 20
207.0034439455999
 30
0.0
 11
114.1810586023241
 21
200.2367866023999
 31
0.0
  0
LINE
  5
5650
102
{ACAD_REACTORS
330
5706
102
}
330
A
100
AcDbEntity
  8
MODEL
100
AcDbLine
 10
114.267206377124
 20
200.2367866025998
 30
0.0
 11
112.3936915757238
 21
207.0034439455999
 31
0.0
  0
ARC
  5
5651
102
{ACAD_REACTORS
330
5706
102
}
330
A
100
AcDbEntity
  8
MODEL
100
AcDbCircle
 10
109.7037018391241
 20
196.9491307699998
 30
0.0
 40
10.38601012858913
100
AcDbArc
 50
75.48066709239951
 51
104.5193329076005
  0
ARC
  5
5652
102
{ACAD_REACTORS
330
5706
102
}
330
A
100
AcDbEntity
  8
MODEL
100
AcDbCircle
 10
109.5297547061239
 20
198.2179418085998
 30
0.0
 40
9.452381330146393
100
AcDbArc
 50
73.9234182017996
 51
107.3700711139
  0
LINE
  5
5653
102
{ACAD_REACTORS
330
5706
102
}
330
A
100
AcDbEntity
  8
MODEL
100
AcDbLine
 10
106.7078190737241
 20
207.2392605645999
 30
0.0
 11
106.8749486097238
 21
207.1812040973999
 31
0.0
  0
ARC
  5
5654
102
{ACAD_REACTORS
330
5706
102
}
330
A
100
AcDbEntity
  8
MODEL
100
AcDbCircle
 10
106.4420823343241
 20
206.4023547527998
 30
0.0
 40
0.8910552810395436
100
AcDbArc
 50
42.4216409375064
 51
60.93571694751726
  0
ARC
  5
5655
102
{ACAD_REACTORS
330
5706
102
}
330
A
100
AcDbEntity
  8
MODEL
100
AcDbCircle
 10
111.2306580611241
 20
205.0257358683999
 30
0.0
 40
5.952471506100556
100
AcDbArc
 50
238.0073981616985
 51
299.9768844353973
  0
ARC
  5
5656
102
{ACAD_REACTORS
330
5706
102
}
330
A
100
AcDbEntity
  8
MODEL
100
AcDbCircle
 10
111.278925640124
 20
205.6638195015999
 30
0.0
 40
6.15427183498222
100
AcDbArc
 50
241.8641337181991
 51
298.135866279002
  0
ARC
  5
5657
102
{ACAD_REACTORS
330
5706
102
}
330
A
100
AcDbEntity
  8
MODEL
100
AcDbCircle
 10
107.5356660179239
 20
200.8263919597999
 30
0.0
 40
1.027194496998034
100
AcDbArc
 50
311.693905674905
 51
324.970660193716
  0
ARC
  5
5658
102
{ACAD_REACTORS
330
5706
102
}
330
A
100
AcDbEntity
  8
MODEL
100
AcDbCircle
 10
107.9489315591238
 20
200.3626820107998
 30
0.0
 40
0.4060542022735518
100
AcDbArc
 50
288.3819177650128
 51
311.6724625822137
  0
LINE
  5
5659
102
{ACAD_REACTORS
330
5706
102
}
330
A
100
AcDbEntity
  8
MODEL
100
AcDbLine
 10
108.3767926775238
 20
200.2367866025998
 30
0.0
 11
107.0998598775238
 21
207.0034439455999
 31
0.0
  0
LINE
  5
565A
102
{ACAD_REACTORS
330
5706
102
}
330
A
100
AcDbEntity
  8
MODEL
100
AcDbLine
 10
106.8749486097238
 20
207.1812040973999
 30
0.0
 11
108.218905397124
 21
200.0593766499999
 31
0.0
  0
ARC
  5
565B
102
{ACAD_REACTORS
330
5706
102
}
330
A
100
AcDbEntity
  8
MODEL
100
AcDbCircle
 10
102.7831466357241
 20
183.6511216587999
 30
0.0
 40
23.91240997427398
100
AcDbArc
 50
80.55347531960032
 51
99.4465246803997
  0
LINE
  5
565C
102
{ACAD_REACTORS
330
5706
102
}
330
A
100
AcDbEntity
  8
MODEL
100
AcDbLine
 10
76.48674065092405
 20
198.7131041565999
 30
0.0
 11
114.6344129003239
 21
198.7131041565999
 31
0.0
  0
ARC
  5
565D
102
{ACAD_REACTORS
330
5706
102
}
330
A
100
AcDbEntity
  8
MODEL
100
AcDbCircle
 10
103.6498181855238
 20
213.6879582655999
 30
0.0
 40
14.40765914783445
100
AcDbArc
 50
252.1047097158016
 51
287.8952902842003
  0
LINE
  5
565E
102
{ACAD_REACTORS
330
5706
102
}
330
A
100
AcDbEntity
  8
MODEL
100
AcDbLine
 10
114.430245851124
 20
198.5758554293998
 30
0.0
 11
76.69090770032403
 21
198.5758554293998
 31
0.0
  0
ARC
  5
565F
102
{ACAD_REACTORS
330
5706
102
}
330
A
100
AcDbEntity
  8
MODEL
100
AcDbCircle
 10
114.7085192903239
 20
200.0997176295999
 30
0.0
 40
0.5
100
AcDbArc
 50
0.1842611346988256
 51
16.21713252898358
  0
ARC
  5
5660
102
{ACAD_REACTORS
330
5706
102
}
330
A
100
AcDbEntity
  8
MODEL
100
AcDbCircle
 10
112.7404292653239
 20
206.8663749737999
 30
0.0
 40
0.500000000000001
100
AcDbArc
 50
16.21713252438016
 51
41.01906462767829
  0
ARC
  5
5661
330
A
100
AcDbEntity
  8
MODEL
100
AcDbCircle
 10
76.72982774077445
 20
200.0997174856515
 30
0.0
 40
0.4999999999874822
100
AcDbArc
 50
163.782867470993
 51
179.8157388652966
  0
ARC
  5
5662
102
{ACAD_REACTORS
330
5706
102
}
330
A
100
AcDbEntity
  8
MODEL
100
AcDbCircle
 10
78.38072428592409
 20
206.8663749737999
 30
0.0
 40
0.4999999999999992
100
AcDbArc
 50
140.7414304275142
 51
163.7828674756011
  0
LINE
  5
5663
102
{ACAD_REACTORS
330
5706
102
}
330
A
100
AcDbEntity
  8
MODEL
100
AcDbLine
 10
77.90061917632397
 20
207.0060140935998
 30
0.0
 11
75.93252915132393
 21
200.2393567493999
 31
0.0
  0
ARC
  5
5664
102
{ACAD_REACTORS
330
5706
102
}
330
A
100
AcDbEntity
  8
MODEL
100
AcDbCircle
 10
79.11342053332396
 20
206.3348936945999
 30
0.0
 40
1.405344774635273
100
AcDbArc
 50
115.8811376558022
 51
143.6824878678928
  0
ARC
  5
5665
330
A
100
AcDbEntity
  8
MODEL
100
AcDbCircle
 10
77.85447518537421
 20
199.9682162714515
 30
0.0
 40
1.625561927244026
100
AcDbArc
 50
177.7235272872044
 51
208.1981163764987
  0
LINE
  5
5666
102
{ACAD_REACTORS
330
5706
102
}
330
A
100
AcDbEntity
  8
MODEL
100
AcDbLine
 10
115.188624399924
 20
200.2393567493999
 30
0.0
 11
113.220534374924
 21
207.0060140935998
 31
0.0
  0
LINE
  5
5667
102
{ACAD_REACTORS
330
5706
102
}
330
A
100
AcDbEntity
  8
MODEL
100
AcDbLine
 10
112.6211739119242
 20
207.5992845381998
 30
0.0
 11
112.5943107935238
 21
207.6158553405999
 31
0.0
  0
ARC
  5
5668
102
{ACAD_REACTORS
330
5706
102
}
330
A
100
AcDbEntity
  8
MODEL
100
AcDbCircle
 10
112.0077330181241
 20
206.3348936945999
 30
0.0
 40
1.405344774586639
100
AcDbArc
 50
36.31751213189991
 51
61.6280977683025
  0
ARC
  5
5669
102
{ACAD_REACTORS
330
5706
102
}
330
A
100
AcDbEntity
  8
MODEL
100
AcDbCircle
 10
113.5838718457242
 20
199.9682164153999
 30
0.0
 40
1.625561927207107
100
AcDbArc
 50
333.8121817977951
 51
3.806830197797558
  0
LINE
  5
566A
102
{ACAD_REACTORS
330
5706
102
}
330
A
100
AcDbEntity
  8
MODEL
100
AcDbLine
 10
115.0079889423239
 20
199.1786642289999
 30
0.0
 11
115.016510436524
 21
199.2001029815999
 31
0.0
  0
ARC
  5
566B
102
{ACAD_REACTORS
330
5706
102
}
330
A
100
AcDbEntity
  8
MODEL
100
AcDbCircle
 10
80.65219666432381
 20
202.4437282367999
 30
0.0
 40
5.591831527161066
100
AcDbArc
 50
106.898050266998
 51
112.196784154798
  0
ARC
  5
566C
102
{ACAD_REACTORS
330
5706
102
}
330
A
100
AcDbEntity
  8
MODEL
100
AcDbCircle
 10
110.4689568869242
 20
202.4437282367999
 30
0.0
 40
5.59183152716106
100
AcDbArc
 50
67.80177168120049
 51
73.1019497330019
  0
ARC
  5
566D
330
A
100
AcDbEntity
  8
MODEL
100
AcDbCircle
 10
80.96939014417421
 20
202.4437280928515
 30
0.0
 40
5.59183152716106
100
AcDbArc
 50
215.9394129974015
 51
221.8479429066006
  0
ARC
  5
566E
102
{ACAD_REACTORS
330
5706
102
}
330
A
100
AcDbEntity
  8
MODEL
100
AcDbCircle
 10
110.4689568869242
 20
202.4437282367999
 30
0.0
 40
5.591831527161068
100
AcDbArc
 50
318.1520570933998
 51
324.0553319607972
  0
ARC
  5
566F
330
A
100
AcDbEntity
  8
MODEL
100
AcDbCircle
 10
77.17639313577456
 20
199.0466820238515
 30
0.0
 40
0.500000000000013
100
AcDbArc
 50
221.84794290659
 51
250.3311164148064
  0
ARC
  5
5670
102
{ACAD_REACTORS
330
5706
102
}
330
A
100
AcDbEntity
  8
MODEL
100
AcDbCircle
 10
114.2619538953238
 20
199.0466821677999
 30
0.0
 40
0.5000000000000028
100
AcDbArc
 50
289.6688835852504
 51
318.15205709341
  0
ARC
  5
5671
102
{ACAD_REACTORS
330
5706
102
}
330
A
100
AcDbEntity
  8
MODEL
100
AcDbCircle
 10
81.42942091852387
 20
211.8326906449998
 30
0.0
 40
14.0782522869237
100
AcDbArc
 50
250.3311164148
 51
266.578082572201
  0
ARC
  5
5672
102
{ACAD_REACTORS
330
5706
102
}
330
A
100
AcDbEntity
  8
MODEL
100
AcDbCircle
 10
109.6917326327241
 20
211.8326906449998
 30
0.0
 40
14.07825228692371
100
AcDbArc
 50
273.421917427799
 51
289.6688835852
  0
ARC
  5
5673
102
{ACAD_REACTORS
330
5706
102
}
330
A
100
AcDbEntity
  8
MODEL
100
AcDbCircle
 10
95.56057677572403
 20
202.9308704517999
 30
0.0
 40
26.06719995999116
100
AcDbArc
 50
142.9454452046999
 51
270.0
  0
ARC
  5
5674
102
{ACAD_REACTORS
330
5706
102
}
330
A
100
AcDbEntity
  8
MODEL
100
AcDbCircle
 10
95.56057677572403
 20
202.9308704517999
 30
0.0
 40
26.06719995999116
100
AcDbArc
 50
270.0
 51
37.1073969054997
  0
ARC
  5
5675
102
{ACAD_REACTORS
330
5706
102
}
330
A
100
AcDbEntity
  8
MODEL
100
AcDbCircle
 10
95.56108420612395
 20
197.9052743561999
 30
0.0
 40
32.47333505127978
100
AcDbArc
 50
127.6812381507996
 51
269.9991046925033
  0
LINE
  5
5676
102
{ACAD_REACTORS
330
5706
102
}
330
A
100
AcDbEntity
  8
MODEL
100
AcDbLine
 10
78.42413977572392
 20
207.7941239149998
 30
0.0
 11
112.6970137757241
 21
207.7941239149998
 31
0.0
  0
SPLINE
  5
5677
102
{ACAD_REACTORS
330
5706
102
}
330
A
100
AcDbEntity
  8
MODEL
100
AcDbSpline
210
0.0
220
0.0
230
1.0
 70
    12
 71
     2
 72
     8
 73
     5
 74
     0
 42
0.000000001
 43
0.0000000001
 40
0.0
 40
0.0
 40
0.0
 40
0.5
 40
0.5
 40
1.0
 40
1.0
 40
1.0
 10
110.3724557340263
 20
238.3201496853065
 30
0.0
 41
1.0
 10
105.7711508092591
 20
246.3345328474748
 30
0.0
 41
0.8517320629276978
 10
95.56316877310314
 20
246.3359353205042
 30
0.0
 41
1.0
 10
85.35518673694723
 20
246.3373377935338
 30
0.0
 41
0.8517320629276837
 10
80.75103525472855
 20
238.3242193675583
 30
0.0
 41
1.0
  0
SPLINE
  5
5678
102
{ACAD_REACTORS
330
5706
102
}
330
A
100
AcDbEntity
  8
MODEL
100
AcDbSpline
210
0.0
220
0.0
230
1.0
 70
     8
 71
     3
 72
   112
 73
   108
 74
     0
 42
0.000000001
 43
0.0000000001
 40
0.0
 40
0.0
 40
0.0
 40
0.0
 40
0.001555751392763
 40
0.0088932107813571
 40
0.0179829954182642
 40
0.0283416892547161
 40
0.0399458766366309
 40
0.0508986123155389
 40
0.0586349646021133
 40
0.0655809709275368
 40
0.0734992981071659
 40
0.0829314549005127
 40
0.0924609570692708
 40
0.10209097045879
 40
0.1121055860254217
 40
0.1205927654400534
 40
0.1285568818624138
 40
0.136317570721641
 40
0.1446432632293526
 40
0.1539597377571585
 40
0.1675817306399937
 40
0.1852429752979119
 40
0.2022716516595952
 40
0.219306893485858
 40
0.2375302950595343
 40
0.2553090499757955
 40
0.2696576680553068
 40
0.2828850257423965
 40
0.2948682332978187
 40
0.3059721953635141
 40
0.3187397527819613
 40
0.3309445820386683
 40
0.3410751701596338
 40
0.3503465022348651
 40
0.3605310167994726
 40
0.3705175308247556
 40
0.3760513463081138
 40
0.3818180026632204
 40
0.3869919641713928
 40
0.3908997385189401
 40
0.3933663697879477
 40
0.395269620850473
 40
0.3977252303354286
 40
0.4013497690409815
 40
0.4069109565425575
 40
0.4150549971762485
 40
0.4242026835371055
 40
0.4349965143754895
 40
0.4469721185600979
 40
0.4586735142627903
 40
0.470036427837274
 40
0.4809820361703451
 40
0.4916260240981663
 40
0.5020803547275685
 40
0.5129481231482205
 40
0.5245610907986928
 40
0.5367708422319927
 40
0.5489264027039611
 40
0.5586581805292499
 40
0.5676862600064793
 40
0.5766134028587527
 40
0.5853804155437776
 40
0.5910663249361533
 40
0.5939283725607735
 40
0.5963111680884127
 40
0.5983730599953526
 40
0.6031855984195893
 40
0.6091605370435841
 40
0.6163307898838195
 40
0.6230592048370083
 40
0.630314365777084
 40
0.6368577258787815
 40
0.6433080719172323
 40
0.6509269906596425
 40
0.6596694197892181
 40
0.6693094210711201
 40
0.6775302277258325
 40
0.6842005634925432
 40
0.6899608349908313
 40
0.6950288888440189
 40
0.7009297563594463
 40
0.7086870058816038
 40
0.7184699988777169
 40
0.7287927039319682
 40
0.7386578810488661
 40
0.7488798712900729
 40
0.7572620566688762
 40
0.7643658456171173
 40
0.7865780317433371
 40
0.8005567748082246
 40
0.816003269856541
 40
0.8312909191343328
 40
0.8460983895300398
 40
0.8622308263215883
 40
0.8796092398308565
 40
0.8958037764592522
 40
0.9097849165676103
 40
0.9223100537239066
 40
0.9327482654864604
 40
0.9435925800497276
 40
0.9553051257645478
 40
0.9652721525404849
 40
0.974799729761689
 40
0.9845666147706685
 40
0.9925502769326356
 40
0.9978100588610523
 40
0.9999999999999999
 40
0.9999999999999999
 40
0.9999999999999999
 40
0.9999999999999999
 10
116.863091602326
 20
215.8045077637219
 30
0.0
 10
116.8631562467606
 20
215.8044982966028
 30
0.0
 10
116.860444137498
 20
215.8197410778994
 30
0.0
 10
116.8118232438626
 20
216.0752578180141
 30
0.0
 10
116.7205930617704
 20
216.5958618597345
 30
0.0
 10
116.6010085004389
 20
217.2535083749861
 30
0.0
 10
116.460769705194
 20
218.0178676413137
 30
0.0
 10
116.3318833666069
 20
218.7083229471935
 30
0.0
 10
116.2227214852221
 20
219.2872590944586
 30
0.0
 10
116.1261139386154
 20
219.7942009565059
 30
0.0
 10
116.0224333825361
 20
220.3332697592323
 30
0.0
 10
115.9081513795188
 20
220.9204335001871
 30
0.0
 10
115.7869343152754
 20
221.5353862010552
 30
0.0
 10
115.663554500524
 20
222.1530376944191
 30
0.0
 10
115.5448413461174
 20
222.7392127324627
 30
0.0
 10
115.4332222569171
 20
223.2830696347995
 30
0.0
 10
115.3313503628881
 20
223.7735083649189
 30
0.0
 10
115.230298011387
 20
224.2543357619207
 30
0.0
 10
115.1237676323165
 20
224.755104596734
 30
0.0
 10
114.9925412029613
 20
225.3636037423053
 30
0.0
 10
114.8224902420518
 20
226.1379421599323
 30
0.0
 10
114.6207477346986
 20
227.0333311130855
 30
0.0
 10
114.4051649229734
 20
227.9621166461052
 30
0.0
 10
114.1869480914272
 20
228.8738322938627
 30
0.0
 10
113.9648429753668
 20
229.7711302158439
 30
0.0
 10
113.7537768622294
 20
230.5934114160287
 30
0.0
 10
113.5626040583886
 20
231.3130505887041
 30
0.0
 10
113.3949019643312
 20
231.9250237464865
 30
0.0
 10
113.2393600145599
 20
232.4758937439745
 30
0.0
 10
113.0845413557624
 20
233.0086661804474
 30
0.0
 10
112.9281760684728
 20
233.5302227074083
 30
0.0
 10
112.7759179245165
 20
234.0217799270322
 30
0.0
 10
112.63773943817
 20
234.4547795369502
 30
0.0
 10
112.5086587783992
 20
234.8489885094614
 30
0.0
 10
112.3721546120162
 20
235.2548743300829
 30
0.0
 10
112.2481013887852
 20
235.6123566771504
 30
0.0
 10
112.1428626201148
 20
235.9084495822988
 30
0.0
 10
112.0617164461139
 20
236.1319842012945
 30
0.0
 10
111.978785776151
 20
236.3574399525529
 30
0.0
 10
111.8834043824211
 20
236.6071579348115
 30
0.0
 10
111.7907042512632
 20
236.8447309068345
 30
0.0
 10
111.628838500955
 20
237.2271332913601
 30
0.0
 10
111.4218902489604
 20
237.6769571939554
 30
0.0
 10
111.1040520537715
 20
238.3079801851257
 30
0.0
 10
110.5773170265004
 20
239.2251462510023
 30
0.0
 10
109.788659687669
 20
240.3754811373429
 30
0.0
 10
108.6689616128704
 20
241.7041307494168
 30
0.0
 10
107.2045043759142
 20
243.0854941774197
 30
0.0
 10
105.4078018517482
 20
244.3880706262905
 30
0.0
 10
103.3841532870908
 20
245.4799704589612
 30
0.0
 10
101.2689819575255
 20
246.294523286817
 30
0.0
 10
99.11438940907851
 20
246.8345714943685
 30
0.0
 10
96.96036224675004
 20
247.1140696316971
 30
0.0
 10
94.79063947104783
 20
247.1496420776703
 30
0.0
 10
92.5687877265675
 20
246.9324508477549
 30
0.0
 10
90.2841869607098
 20
246.4268606712035
 30
0.0
 10
88.02235150565616
 20
245.6101631881984
 30
0.0
 10
86.02514338128299
 20
244.5696611589493
 30
0.0
 10
84.36908042656546
 20
243.4302117733901
 30
0.0
 10
83.00814485639899
 20
242.2646951178232
 30
0.0
 10
81.81879902659398
 20
241.0086946214461
 30
0.0
 10
80.89619895150804
 20
239.7987588545757
 30
0.0
 10
80.2906437928516
 20
238.8307865705481
 30
0.0
 10
79.93860276824194
 20
238.1893199909642
 30
0.0
 10
79.71886126251388
 20
237.7482502536532
 30
0.0
 10
79.51055072208305
 20
237.2914326963681
 30
0.0
 10
79.33472722815782
 20
236.8645890479475
 30
0.0
 10
79.19017245039163
 20
236.4858249223617
 30
0.0
 10
79.08493920016303
 20
236.2024144671145
 30
0.0
 10
78.96917011716391
 20
235.8841307800913
 30
0.0
 10
78.86525566065916
 20
235.5900103722963
 30
0.0
 10
78.77293745708698
 20
235.3235372318532
 30
0.0
 10
78.68391307165598
 20
235.0617175496957
 30
0.0
 10
78.58342880901205
 20
234.7607126415339
 30
0.0
 10
78.47016604348414
 20
234.4136214797908
 30
0.0
 10
78.35353857412451
 20
234.0474508033686
 30
0.0
 10
78.24633337724595
 20
233.7026261127676
 30
0.0
 10
78.1560690819831
 20
233.4065547872345
 30
0.0
 10
78.079893999354
 20
233.1525332437859
 30
0.0
 10
78.00736703060079
 20
232.9072276595764
 30
0.0
 10
77.92725635585089
 20
232.6323995685189
 30
0.0
 10
77.82749389902551
 20
232.2842753207247
 30
0.0
 10
77.70931573078883
 20
231.8630083294582
 30
0.0
 10
77.58217540096507
 20
231.3989776626077
 30
0.0
 10
77.4531447902043
 20
230.9171055979791
 30
0.0
 10
77.33249131700427
 20
230.4564446664172
 30
0.0
 10
77.22393636452784
 20
230.0336735724684
 30
0.0
 10
77.06601943132023
 20
229.4087909429389
 30
0.0
 10
76.88502116950008
 20
228.6713871260711
 30
0.0
 10
76.6695668875243
 20
227.7633744630726
 30
0.0
 10
76.48265822734515
 20
226.9546789942886
 30
0.0
 10
76.29247822228194
 20
226.1098691808609
 30
0.0
 10
76.09962549858096
 20
225.2318790501006
 30
0.0
 10
75.89731890878215
 20
224.2881805950869
 30
0.0
 10
75.68834938647683
 20
223.2883423784145
 30
0.0
 10
75.48743834369202
 20
222.3031412118951
 30
0.0
 10
75.30684088965131
 20
221.3984600032769
 30
0.0
 10
75.15012390531206
 20
220.5989973649117
 30
0.0
 10
75.00580455893328
 20
219.8513594358542
 30
0.0
 10
74.86444534719817
 20
219.1086351573269
 30
0.0
 10
74.72538079089168
 20
218.3671909679032
 30
0.0
 10
74.59868242958487
 20
217.682233474368
 30
0.0
 10
74.48342045633103
 20
217.051022559964
 30
0.0
 10
74.37639456723605
 20
216.4567416520117
 30
0.0
 10
74.30293501286656
 20
216.0383654644655
 30
0.0
 10
74.26531495278573
 20
215.841818041484
 30
0.0
 10
74.26181576675049
 20
215.8230267963002
 30
0.0
 10
74.26186862615191
 20
215.8226794453831
 30
0.0
  0
SPLINE
  5
5679
102
{ACAD_REACTORS
330
5706
102
}
330
A
100
AcDbEntity
  8
MODEL
100
AcDbSpline
210
0.0
220
0.0
230
1.0
 70
     8
 71
     3
 72
    31
 73
    27
 74
     0
 42
0.000000001
 43
0.0000000001
 40
0.0
 40
0.0
 40
0.0
 40
0.0
 40
0.0166444045553279
 40
0.0601062226058404
 40
0.1038007916415706
 40
0.1470129745610818
 40
0.1904835446755875
 40
0.233675192442216
 40
0.2770873995620955
 40
0.3204611313617896
 40
0.3640340819158446
 40
0.4077493404697082
 40
0.4515240960389196
 40
0.4956418814628503
 40
0.5394920459928958
 40
0.583484031491767
 40
0.627195486013739
 40
0.6709092294066324
 40
0.7143764308062686
 40
0.7577028313686357
 40
0.8010916445366738
 40
0.8443103408944981
 40
0.8877095699385099
 40
0.9310092404578884
 40
0.9745513745516448
 40
0.9999999999999999
 40
0.9999999999999999
 40
0.9999999999999999
 40
0.9999999999999999
 10
75.75394628213485
 20
223.6375941112983
 30
0.0
 10
75.03123744903974
 20
223.0952300195307
 30
0.0
 10
72.50257637435038
 20
221.0287983705653
 30
0.0
 10
68.67537749964663
 20
216.8339350999798
 30
0.0
 10
65.13848770423124
 20
210.6448704094623
 30
0.0
 10
63.02045790611169
 20
203.8405241339106
 30
0.0
 10
62.43402831034405
 20
196.7618538939631
 30
0.0
 10
63.40140103692124
 20
189.7170120158128
 30
0.0
 10
65.87649171396129
 20
183.0549072141025
 30
0.0
 10
69.74594695759811
 20
177.0692417815829
 30
0.0
 10
74.83118208466863
 20
172.0533435276621
 30
0.0
 10
80.89468615318788
 20
168.2337943170092
 30
0.0
 10
87.6625872185416
 20
165.7975633023121
 30
0.0
 10
94.80504705964927
 20
164.8616462984895
 30
0.0
 10
101.9907723161825
 20
165.4761398354524
 30
0.0
 10
108.861810223623
 20
167.603813447955
 30
0.0
 10
115.1044123699778
 20
171.1591155606305
 30
0.0
 10
120.4207813191103
 20
175.9485342555452
 30
0.0
 10
124.556852595869
 20
181.7645284361736
 30
0.0
 10
127.3325458186666
 20
188.3172244932815
 30
0.0
 10
128.6173955691304
 20
195.304018137403
 30
0.0
 10
128.3383064261291
 20
202.413020157306
 30
0.0
 10
126.5633496368603
 20
209.2705399434084
 30
0.0
 10
123.2507585966121
 20
215.6293477412126
 30
0.0
 10
119.4134355018166
 20
220.3022971773535
 30
0.0
 10
116.4792527949583
 20
222.7807591100771
 30
0.0
 10
115.3618447596039
 20
223.6176672984471
 30
0.0
  0
SPLINE
  5
567A
102
{ACAD_REACTORS
330
5706
102
}
330
A
100
AcDbEntity
  8
MODEL
100
AcDbSpline
210
0.0
220
0.0
230
1.0
 70
     8
 71
     3
 72
    44
 73
    40
 74
     0
 42
0.000000001
 43
0.0000000001
 40
0.0
 40
0.0
 40
0.0
 40
0.0
 40
0.0292478380743037
 40
0.0540207298548275
 40
0.0744383749910411
 40
0.0906238152686919
 40
0.1049932229597357
 40
0.1345075466074817
 40
0.1642565123071883
 40
0.1838791822475881
 40
0.2035290930953655
 40
0.225828789974299
 40
0.2499954061835123
 40
0.2706673680684836
 40
0.2867469986429863
 40
0.3044231980810468
 40
0.3247498019613934
 40
0.3540149545660641
 40
0.3830058222957333
 40
0.4156591406339125
 40
0.4511820211683426
 40
0.4803653616303102
 40
0.5080000725472252
 40
0.5464714553804758
 40
0.5876309430311307
 40
0.6284339162145385
 40
0.6717090791201648
 40
0.7160067123671796
 40
0.7611471640528574
 40
0.7923235776336126
 40
0.8250421040457493
 40
0.859245550333283
 40
0.8912490710851008
 40
0.9062657167865752
 40
0.9200725325927862
 40
0.9329192863448617
 40
0.9496091359004295
 40
0.9719675704851735
 40
1.0
 40
1.0
 40
1.0
 40
1.0
 10
80.75506346050474
 20
238.3312254215246
 30
0.0
 10
80.6284660536869
 20
238.1069746606175
 30
0.0
 10
80.43180846985638
 20
237.7566092073212
 30
0.0
 10
80.13522171892305
 20
237.1803221658641
 30
0.0
 10
79.89722722723423
 20
236.6903061224396
 30
0.0
 10
79.69372694094614
 20
236.2498107874987
 30
0.0
 10
79.4612709113178
 20
235.7230723882142
 30
0.0
 10
79.21356925339956
 20
235.1250312014227
 30
0.0
 10
78.9767376413995
 20
234.5121331116029
 30
0.0
 10
78.77752268981453
 20
233.9672173250099
 30
0.0
 10
78.60903503032
 20
233.4862309037924
 30
0.0
 10
78.43524347856214
 20
232.9682824494385
 30
0.0
 10
78.26470977908843
 20
232.4365073947673
 30
0.0
 10
78.11353630544659
 20
231.9443749601539
 30
0.0
 10
77.9867518518738
 20
231.5187213332625
 30
0.0
 10
77.84401244681862
 20
231.0239912901874
 30
0.0
 10
77.65750532009838
 20
230.3637269094223
 30
0.0
 10
77.45374029938034
 20
229.518539086405
 30
0.0
 10
77.26374597580002
 20
228.4964598026781
 30
0.0
 10
77.11767842147151
 20
227.4034703152167
 30
0.0
 10
77.03114183578123
 20
226.3019138077901
 30
0.0
 10
76.99924422520712
 20
225.2525563447651
 30
0.0
 10
77.00923819748482
 20
224.1722143209909
 30
0.0
 10
77.07477120733688
 20
222.9534646451373
 30
0.0
 10
77.21637830945951
 20
221.5801118154292
 30
0.0
 10
77.44215810644778
 20
220.1723983916668
 30
0.0
 10
77.69713943178044
 20
218.8008676848213
 30
0.0
 10
77.88788238493748
 20
217.420865398135
 30
0.0
 10
78.04324129386464
 20
216.0963785021868
 30
0.0
 10
78.16257910016543
 20
214.8861783524727
 30
0.0
 10
78.25567247815866
 20
213.7849717169728
 30
0.0
 10
78.33328789166376
 20
212.6651036734209
 30
0.0
 10
78.38378971391899
 20
211.7397458725807
 30
0.0
 10
78.41391644742885
 20
211.0440748267583
 30
0.0
 10
78.43034709056269
 20
210.5666586703995
 30
0.0
 10
78.44280564622954
 20
210.0687412933729
 30
0.0
 10
78.45049563041925
 20
209.4736312626797
 30
0.0
 10
78.4478042432554
 20
208.6863126091654
 30
0.0
 10
78.43390585127895
 20
208.1496419795047
 30
0.0
 10
78.42413977564888
 20
207.7941239150887
 30
0.0
  0
SPLINE
  5
567B
102
{ACAD_REACTORS
330
5706
102
}
330
A
100
AcDbEntity
  8
MODEL
100
AcDbSpline
210
0.0
220
0.0
230
1.0
 70
     8
 71
     3
 72
    57
 73
    53
 74
     0
 42
0.000000001
 43
0.0000000001
 40
0.0
 40
0.0
 40
0.0
 40
0.0
 40
0.0229558041569086
 40
0.0404155034486434
 40
0.0524919985433521
 40
0.0631326909119461
 40
0.0742949908916992
 40
0.0859759121705265
 40
0.1154966127349903
 40
0.1475799907198789
 40
0.1783352417146739
 40
0.2108069744090159
 40
0.2406597500253332
 40
0.2662797422807431
 40
0.282241970042882
 40
0.296540019569862
 40
0.3126878386572012
 40
0.3313234077830322
 40
0.3524491895566773
 40
0.3725662941673704
 40
0.3889130143765404
 40
0.4012296842236133
 40
0.4157433438539881
 40
0.4340923181798065
 40
0.453276977698021
 40
0.4713260936894994
 40
0.4842470199352485
 40
0.4957080563932894
 40
0.5132563824450084
 40
0.5324485047581587
 40
0.5494710055612161
 40
0.565458261310701
 40
0.5817255035693814
 40
0.5982898206685535
 40
0.6279092561788953
 40
0.6564396934593508
 40
0.6702347354384887
 40
0.6840865077231941
 40
0.6983647332452224
 40
0.7140425101582035
 40
0.7459550702048543
 40
0.7749326142178234
 40
0.7974502920769212
 40
0.822696668316986
 40
0.8489991559478015
 40
0.8627829716467047
 40
0.8758536645295129
 40
0.8904628716299433
 40
0.9099816679601571
 40
0.9346178451287986
 40
0.9645570208174427
 40
1.0
 40
1.0
 40
1.0
 40
1.0
 10
112.6970137756487
 20
207.7941239150887
 30
0.0
 10
112.6887974782196
 20
208.0853449298855
 30
0.0
 10
112.6771614839888
 20
208.5155581127781
 30
0.0
 10
112.6714985759256
 20
209.1317459473915
 30
0.0
 10
112.6725626396976
 20
209.5926115544178
 30
0.0
 10
112.677268296811
 20
209.9824112800655
 30
0.0
 10
112.6854361139938
 20
210.3668857808623
 30
0.0
 10
112.7033297356327
 20
210.967546034578
 30
0.0
 10
112.7398421263608
 20
211.8060140816814
 30
0.0
 10
112.8002101494974
 20
212.8564081529583
 30
0.0
 10
112.877303462504
 20
213.9326708144247
 30
0.0
 10
112.9668872041605
 20
214.9756387233833
 30
0.0
 10
113.0643239081462
 20
215.9512902662191
 30
0.0
 10
113.1524776143822
 20
216.7336633101141
 30
0.0
 10
113.2269107818504
 20
217.3374102684139
 30
0.0
 10
113.2915987861659
 20
217.8299644122102
 30
0.0
 10
113.3654600872585
 20
218.3541976047165
 30
0.0
 10
113.4577345669597
 20
218.9510977846267
 30
0.0
 10
113.5639775431566
 20
219.5859753072141
 30
0.0
 10
113.6799273421254
 20
220.2013483823594
 30
0.0
 10
113.7701182943213
 20
220.7335162040743
 30
0.0
 10
113.8439425389804
 20
221.2215951890594
 30
0.0
 10
113.913115136146
 20
221.7355998019828
 30
0.0
 10
113.9807033755658
 20
222.3270246148964
 30
0.0
 10
114.038126910719
 20
222.9585704830893
 30
0.0
 10
114.0763724968235
 20
223.5299007655463
 30
0.0
 10
114.0988259913622
 20
224.0099914766084
 30
0.0
 10
114.1134467738582
 20
224.4866694963271
 30
0.0
 10
114.119518322693
 20
225.0351766677279
 30
0.0
 10
114.1107986908426
 20
225.6439586075033
 30
0.0
 10
114.0870571406765
 20
226.2347130587964
 30
0.0
 10
114.0509355646984
 20
226.7927330341623
 30
0.0
 10
114.0014591689412
 20
227.344724557481
 30
0.0
 10
113.9196247884177
 20
228.0494908740998
 30
0.0
 10
113.7901978676175
 20
228.8888332946216
 30
0.0
 10
113.625734937785
 20
229.6909089835604
 30
0.0
 10
113.4790205243992
 20
230.2927631140269
 30
0.0
 10
113.36475134029
 20
230.7128907372285
 30
0.0
 10
113.2499753966392
 20
231.1185192695107
 30
0.0
 10
113.0914954753605
 20
231.6667332534149
 30
0.0
 10
112.9026522813813
 20
232.2912589973417
 30
0.0
 10
112.6954423246686
 20
232.9400921292341
 30
0.0
 10
112.4927243149907
 20
233.5438674782859
 30
0.0
 10
112.285169532893
 20
234.1318280573328
 30
0.0
 10
112.0949936629952
 20
234.6407937144299
 30
0.0
 10
111.9347210515941
 20
235.0503866430977
 30
0.0
 10
111.8080508194009
 20
235.3642279033568
 30
0.0
 10
111.6530826492215
 20
235.7359442506051
 30
0.0
 10
111.4416260042829
 20
236.2214041658567
 30
0.0
 10
111.1615622108327
 20
236.8266011421527
 30
0.0
 10
110.7933496068961
 20
237.5664961748291
 30
0.0
 10
110.5343379284311
 20
238.031216717303
 30
0.0
 10
110.3665762196908
 20
238.3303804185578
 30
0.0
  0
LINE
  5
567C
330
A
100
AcDbEntity
  8
MODEL
100
AcDbLine
 10
133.5516507381736
 20
458.4964418748067
 30
0.0
 11
56.93511585357362
 21
458.4964418748067
 31
0.0
  0
SPLINE
  5
567D
330
A
100
AcDbEntity
  8
MODEL
100
AcDbSpline
210
0.0
220
0.0
230
1.0
 70
     8
 71
     3
 72
    14
 73
    10
 74
     0
 42
0.000000001
 43
0.0000000001
 40
0.0
 40
0.0
 40
0.0
 40
0.0
 40
0.341860670301488
 40
0.341860670301488
 40
0.7325585792174738
 40
0.7325585792174738
 40
0.9767447722899646
 40
0.9767447722899646
 40
1.0
 40
1.0
 40
1.0
 40
1.0
 10
62.01370797687071
 20
449.9287049066269
 30
0.0
 10
62.07155405887659
 20
449.8547583184967
 30
0.0
 10
62.10551231943111
 20
449.8113870323231
 30
0.0
 10
62.15531550386629
 20
449.7478419744224
 30
0.0
 10
62.16769271966461
 20
449.7321066925284
 30
0.0
 10
62.17873481154618
 20
449.718146932336
 30
0.0
 10
62.18061621460913
 20
449.7158055721769
 30
0.0
 10
62.18067285312702
 20
449.7158061582878
 30
0.0
 10
62.18066057040903
 20
449.7158282340912
 30
0.0
 10
62.18063085006759
 20
449.7158726290307
 30
0.0
  0
SPLINE
  5
567E
330
A
100
AcDbEntity
  8
MODEL
100
AcDbSpline
210
0.0
220
0.0
230
1.0
 70
     8
 71
     3
 72
    14
 73
    10
 74
     0
 42
0.000000001
 43
0.0000000001
 40
0.0
 40
0.0
 40
0.0
 40
0.0
 40
0.1036591008134807
 40
0.1036591008134807
 40
0.3085370206275425
 40
0.3085370206275425
 40
0.6363416923300419
 40
0.6363416923300419
 40
0.9999999999999999
 40
0.9999999999999999
 40
0.9999999999999999
 40
0.9999999999999999
 10
62.18063085006759
 20
449.7158726290307
 30
0.0
 10
62.1805045345892
 20
449.7160613135387
 30
0.0
 10
62.18006323195266
 20
449.7166531631484
 30
0.0
 10
62.17775962432972
 20
449.7196820336427
 30
0.0
 10
62.17495443496261
 20
449.7233258907155
 30
0.0
 10
62.16304344897515
 20
449.738710030993
 30
0.0
 10
62.15137153553985
 20
449.7537348148163
 30
0.0
 10
62.10745979436422
 20
449.810119388232
 30
0.0
 10
62.07348332934191
 20
449.8537019386664
 30
0.0
 10
62.01495830261831
 20
449.9287049066269
 30
0.0
  0
LINE
  5
567F
330
A
100
AcDbEntity
  8
MODEL
100
AcDbLine
 10
86.25061426097375
 20
449.9287049066066
 30
0.0
 11
85.08495077217356
 21
455.4983316558067
 31
0.0
  0
LINE
  5
5680
330
A
100
AcDbEntity
  8
MODEL
100
AcDbLine
 10
85.28195721117356
 20
455.4983316556066
 30
0.0
 11
86.44762069977367
 21
449.9287049066066
 31
0.0
  0
LINE
  5
5681
330
A
100
AcDbEntity
  8
MODEL
100
AcDbLine
 10
67.82592150757375
 20
455.4983316556066
 30
0.0
 11
71.01119178257352
 21
449.9287049066066
 31
0.0
  0
ARC
  5
5682
330
A
100
AcDbEntity
  8
MODEL
100
AcDbCircle
 10
76.45543613997359
 20
429.8253350044066
 30
0.0
 40
27.08452103785514
100
AcDbArc
 50
71.42085810069987
 51
108.5791418997
  0
LINE
  5
5683
330
A
100
AcDbEntity
  8
MODEL
100
AcDbLine
 10
70.86696555817355
 20
449.9287049066066
 30
0.0
 11
67.68169528337364
 21
455.4983316558067
 31
0.0
  0
SPLINE
  5
5684
330
A
100
AcDbEntity
  8
MODEL
100
AcDbSpline
210
0.0
220
0.0
230
1.0
 70
     8
 71
     3
 72
    26
 73
    22
 74
     0
 42
0.000000001
 43
0.0000000001
 40
0.0
 40
0.0
 40
0.0
 40
0.0
 40
0.0019796120786148
 40
0.0019796120786148
 40
0.0820082007424247
 40
0.0820082007424247
 40
0.1820439365721887
 40
0.1820439365721887
 40
0.2820796724019548
 40
0.2820796724019548
 40
0.4771439766293252
 40
0.4771439766293252
 40
0.6722082808566955
 40
0.6722082808566955
 40
0.7851046046573373
 40
0.7851046046573373
 40
0.8980009284579816
 40
0.8980009284579816
 40
0.9872237169420106
 40
0.9872237169420106
 40
1.0
 40
1.0
 40
1.0
 40
1.0
 10
67.68169528328588
 20
455.4983316557181
 30
0.0
 10
67.67272455711793
 20
455.5023263589711
 30
0.0
 10
67.6637595988683
 20
455.5063096920713
 30
0.0
 10
67.29260935383002
 20
455.6708606811027
 30
0.0
 10
66.94113190658311
 20
455.8126476441386
 30
0.0
 10
66.16412262589085
 20
456.0991207542392
 30
0.0
 10
65.74312413164228
 20
456.2350843961859
 30
0.0
 10
64.92313792291782
 20
456.4660662658656
 30
0.0
 10
64.52421837788995
 20
456.5610326241682
 30
0.0
 10
63.38213074151679
 20
456.7860694077018
 30
0.0
 10
62.6677110152167
 20
456.865171630188
 30
0.0
 10
61.32504476427164
 20
456.895475630415
 30
0.0
 10
60.69634004601915
 20
456.8467176381183
 30
0.0
 10
59.78300832023308
 20
456.6631222119444
 30
0.0
 10
59.46531122719909
 20
456.5731205713436
 30
0.0
 10
58.86862298028939
 20
456.3424306644396
 30
0.0
 10
58.59009996979955
 20
456.2018705702322
 30
0.0
 10
58.13661551984171
 20
455.898856121349
 30
0.0
 10
57.95267590709784
 20
455.7478038715852
 30
0.0
 10
57.7627909865231
 20
455.549424436298
 30
0.0
 10
57.73938149984622
 20
455.5241149881957
 30
0.0
 10
57.71637254883092
 20
455.4983316556467
 30
0.0
  0
LINE
  5
5685
330
A
100
AcDbEntity
  8
MODEL
100
AcDbLine
 10
62.01495830257375
 20
449.9287049066066
 30
0.0
 11
57.66357183937373
 21
455.4983316558067
 31
0.0
  0
LINE
  5
5686
330
A
100
AcDbEntity
  8
MODEL
100
AcDbLine
 10
57.66215581397375
 20
455.4983316556066
 30
0.0
 11
62.01370797677362
 21
449.9287049066066
 31
0.0
  0
SPLINE
  5
5687
330
A
100
AcDbEntity
  8
MODEL
100
AcDbSpline
210
0.0
220
0.0
230
1.0
 70
     8
 71
     3
 72
    18
 73
    14
 74
     0
 42
0.000000001
 43
0.0000000001
 40
0.0
 40
0.0
 40
0.0
 40
0.0
 40
0.0040789714691542
 40
0.0040789714691542
 40
0.1616033668608983
 40
0.1616033668608983
 40
0.3585088611005786
 40
0.3585088611005786
 40
0.5554143553402584
 40
0.5554143553402584
 40
0.9393105555694271
 40
0.9393105555694271
 40
1.0
 40
1.0
 40
1.0
 40
1.0
 10
57.66357183933644
 20
455.4983316557178
 30
0.0
 10
57.66030352299288
 20
455.5025137164392
 30
0.0
 10
57.65704494237696
 20
455.5066833156137
 30
0.0
 10
57.52832441855742
 20
455.6713907606044
 30
0.0
 10
57.41753365702414
 20
455.8131499869447
 30
0.0
 10
57.19367940709128
 20
456.0995642830763
 30
0.0
 10
57.08743226257445
 20
456.2354945825117
 30
0.0
 10
56.90692917488298
 20
456.4664072761706
 30
0.0
 10
56.83271418962829
 20
456.561337253121
 30
0.0
 10
56.65685797137814
 20
456.7862429247517
 30
0.0
 10
56.59502452617301
 20
456.8652659328903
 30
0.0
 10
56.58126967270812
 20
456.8827321109724
 30
0.0
 10
56.5806397420223
 20
456.8835193765048
 30
0.0
 10
56.58126872357809
 20
456.8826953087445
 30
0.0
  0
SPLINE
  5
5688
330
A
100
AcDbEntity
  8
MODEL
100
AcDbSpline
210
0.0
220
0.0
230
1.0
 70
     8
 71
     3
 72
    16
 73
    12
 74
     0
 42
0.000000001
 43
0.0000000001
 40
0.0
 40
0.0
 40
0.0
 40
0.0
 40
0.3338289256411365
 40
0.3338289256411365
 40
0.56312238038347
 40
0.56312238038347
 40
0.7924158351258089
 40
0.7924158351258089
 40
0.9738194041280759
 40
0.9738194041280759
 40
1.0
 40
1.0
 40
1.0
 40
1.0
 10
56.58126872357809
 20
456.8826953087445
 30
0.0
 10
56.58461841791097
 20
456.8783066663731
 30
0.0
 10
56.62367319080533
 20
456.8282176329147
 30
0.0
 10
56.75263540888943
 20
456.6629837843249
 30
0.0
 10
56.8228483308277
 20
456.5730465496639
 30
0.0
 10
57.00280324596895
 20
456.3425779770686
 30
0.0
 10
57.11244536538322
 20
456.2021745725036
 30
0.0
 10
57.34890457721838
 20
455.8994008681701
 30
0.0
 10
57.4668590646271
 20
455.748373958255
 30
0.0
 10
57.6219324282082
 20
455.5498300894563
 30
0.0
 10
57.64185602004738
 20
455.5243216235637
 30
0.0
 10
57.66215581403446
 20
455.4983316556464
 30
0.0
  0
ARC
  5
5689
330
A
100
AcDbEntity
  8
MODEL
100
AcDbCircle
 10
95.24605363177363
 20
420.7129120900066
 30
0.0
 40
36.18436999361758
100
AcDbArc
 50
74.01592441330013
 51
105.9840755870002
  0
ARC
  5
568A
330
A
100
AcDbEntity
  8
MODEL
100
AcDbCircle
 10
114.0359556091736
 20
429.6522594604065
 30
0.0
 40
27.24840823976536
100
AcDbArc
 50
71.53822246029958
 51
108.4617775399998
  0
LINE
  5
568B
330
A
100
AcDbEntity
  8
MODEL
100
AcDbLine
 10
104.0438681643737
 20
449.9287049066066
 30
0.0
 11
105.2101500523737
 21
455.4983316556066
 31
0.0
  0
LINE
  5
568C
330
A
100
AcDbEntity
  8
MODEL
100
AcDbLine
 10
105.4071489895736
 20
455.4983316556066
 30
0.0
 11
104.2408671015736
 21
449.9287049066066
 31
0.0
  0
SPLINE
  5
568D
330
A
100
AcDbEntity
  8
MODEL
100
AcDbSpline
210
0.0
220
0.0
230
1.0
 70
     8
 71
     3
 72
    24
 73
    20
 74
     0
 42
0.000000001
 43
0.0000000001
 40
0.0
 40
0.0
 40
0.0
 40
0.0
 40
0.0232328524062207
 40
0.0232328524062207
 40
0.0751898087328641
 40
0.0751898087328641
 40
0.2702436983718002
 40
0.2702436983718002
 40
0.4682544085557138
 40
0.4682544085557138
 40
0.6662651187396273
 40
0.6662651187396273
 40
0.7809924980111133
 40
0.7809924980111133
 40
0.8957198772825994
 40
0.8957198772825994
 40
0.9854287691752684
 40
0.9854287691752684
 40
1.0
 40
1.0
 40
1.0
 40
1.0
 10
132.7718380649195
 20
455.4983316556924
 30
0.0
 10
132.7300170859454
 20
455.5452142747882
 30
0.0
 10
132.6868767696025
 20
455.5905416742138
 30
0.0
 10
132.5434350469037
 20
455.7323481412835
 30
0.0
 10
132.4385068832509
 20
455.8227813828311
 30
0.0
 10
131.9116580448339
 20
456.2236446721707
 30
0.0
 10
131.416422275374
 20
456.4520384743499
 30
0.0
 10
130.3140042569945
 20
456.7692555067428
 30
0.0
 10
129.7029183061737
 20
456.8564780347482
 30
0.0
 10
128.3901214191975
 20
456.8992195306179
 30
0.0
 10
127.6883503767887
 20
456.8546983821931
 30
0.0
 10
126.5128264735409
 20
456.6749123429926
 30
0.0
 10
126.0676218883922
 20
456.5856217949744
 30
0.0
 10
125.1463372449554
 20
456.3549357141225
 30
0.0
 10
124.6708844677829
 20
456.2136568871559
 30
0.0
 10
123.7986184951011
 20
455.9092760002108
 30
0.0
 10
123.4086304332806
 20
455.7582828962826
 30
0.0
 10
122.9407007333085
 20
455.5565272383668
 30
0.0
 10
122.8749908905367
 20
455.5277375735819
 30
0.0
 10
122.8089679582578
 20
455.4983316556496
 30
0.0
  0
LINE
  5
568E
330
A
100
AcDbEntity
  8
MODEL
100
AcDbLine
 10
119.4790392543736
 20
449.9287049066066
 30
0.0
 11
122.6647622287736
 21
455.4983316556066
 31
0.0
  0
LINE
  5
568F
330
A
100
AcDbEntity
  8
MODEL
100
AcDbLine
 10
122.8089679581736
 20
455.4983316556066
 30
0.0
 11
119.6232449835735
 21
449.9287049066066
 31
0.0
  0
LINE
  5
5690
330
A
100
AcDbEntity
  8
MODEL
100
AcDbLine
 10
62.93119184717364
 20
449.4964418748067
 30
0.0
 11
74.00610179557373
 21
449.4964418748067
 31
0.0
  0
LINE
  5
5691
330
A
100
AcDbEntity
  8
MODEL
100
AcDbLine
 10
116.4806647975737
 20
449.4964418748067
 30
0.0
 11
127.5555747445736
 21
449.4964418748067
 31
0.0
  0
LINE
  5
5692
330
A
100
AcDbEntity
  8
MODEL
100
AcDbLine
 10
74.00610179557373
 20
449.4964418748067
 30
0.0
 11
116.4806647975737
 21
449.4964418748067
 31
0.0
  0
ARC
  5
5693
330
A
100
AcDbEntity
  8
MODEL
100
AcDbCircle
 10
121.4829047539735
 20
795.0258431528066
 30
0.0
 40
345.565608173183
100
AcDbArc
 50
268.7716840722999
 51
269.1705851477
  0
ARC
  5
5694
330
A
100
AcDbEntity
  8
MODEL
100
AcDbCircle
 10
62.57642005637365
 20
450.0264013668067
 30
0.0
 40
0.5029154816831858
100
AcDbArc
 50
225.1490536209754
 51
264.560599737501
  0
ARC
  5
5695
330
A
100
AcDbEntity
  8
MODEL
100
AcDbCircle
 10
56.99398741037351
 20
457.1941968876066
 30
0.0
 40
0.5174225108251838
100
AcDbArc
 50
165.3481541319915
 51
211.2881673172134
  0
ARC
  5
5696
330
A
100
AcDbEntity
  8
MODEL
100
AcDbCircle
 10
63.2933696131737
 20
455.4299340266067
 30
0.0
 40
7.059097764824462
100
AcDbArc
 50
154.2525564926003
 51
164.4305652471012
  0
ARC
  5
5697
330
A
100
AcDbEntity
  8
MODEL
100
AcDbCircle
 10
63.48982680517349
 20
459.9448980344067
 30
0.0
 40
10.46337943180494
100
AcDbArc
 50
264.728881974901
 51
266.9395498828
  0
SPLINE
  5
5698
330
A
100
AcDbEntity
  8
MODEL
100
AcDbSpline
210
0.0
220
0.0
230
1.0
 70
    12
 71
     2
 72
     6
 73
     3
 74
     0
 42
0.000000001
 43
0.0000000001
 40
0.0
 40
0.0
 40
0.0
 40
1.0
 40
1.0
 40
1.0
 10
113.8638651224459
 20
296.4325542678192
 30
0.0
 41
1.0
 10
113.8977915458504
 20
296.4421472305732
 30
0.0
 41
0.9857285457396093
 10
113.9075385352591
 20
296.4669255476862
 30
0.0
 41
1.0
  0
SPLINE
  5
5699
330
A
100
AcDbEntity
  8
MODEL
100
AcDbSpline
210
0.0
220
0.0
230
1.0
 70
    12
 71
     2
 72
     6
 73
     3
 74
     0
 42
0.000000001
 43
0.0000000001
 40
0.0
 40
0.0
 40
0.0
 40
1.0
 40
1.0
 40
1.0
 10
113.9605641540235
 20
296.6106293292686
 30
0.0
 41
1.0
 10
113.9699604079089
 20
296.6361783382505
 30
0.0
 41
0.9851823285535084
 10
113.9500128974329
 20
296.6660744073521
 30
0.0
 41
1.0
  0
SPLINE
  5
569A
330
A
100
AcDbEntity
  8
MODEL
100
AcDbSpline
210
0.0
220
0.0
230
1.0
 70
    12
 71
     2
 72
     6
 73
     3
 74
     0
 42
0.000000001
 43
0.0000000001
 40
0.0
 40
0.0
 40
0.0
 40
1.0
 40
1.0
 40
1.0
 10
113.8638651225737
 20
296.4325542680411
 30
0.0
 41
1.0
 10
113.9357183176759
 20
296.5386973805128
 30
0.0
 41
0.9685282161271087
 10
113.9500128974313
 20
296.6660744073412
 30
0.0
 41
1.0
  0
SPLINE
  5
569B
330
A
100
AcDbEntity
  8
MODEL
100
AcDbSpline
210
0.0
220
0.0
230
1.0
 70
    12
 71
     2
 72
     6
 73
     3
 74
     0
 42
0.000000001
 43
0.0000000001
 40
0.0
 40
0.0
 40
0.0
 40
1.0
 40
1.0
 40
1.0
 10
114.8701542103751
 20
306.680874752475
 30
0.0
 41
1.0
 10
114.8947681514933
 20
306.7061758089021
 30
0.0
 41
0.985695259979547
 10
114.8907816797745
 20
306.7325387984741
 30
0.0
 41
1.0
  0
SPLINE
  5
569C
330
A
100
AcDbEntity
  8
MODEL
100
AcDbSpline
210
0.0
220
0.0
230
1.0
 70
    12
 71
     2
 72
     6
 73
     3
 74
     0
 42
0.000000001
 43
0.0000000001
 40
0.0
 40
0.0
 40
0.0
 40
1.0
 40
1.0
 40
1.0
 10
114.864860497518
 20
306.8834417952597
 30
0.0
 41
1.0
 10
114.8602233875919
 20
306.9102660130222
 30
0.0
 41
0.9851823285640673
 10
114.8280003022272
 20
306.9261830130994
 30
0.0
 41
1.0
  0
SPLINE
  5
569D
330
A
100
AcDbEntity
  8
MODEL
100
AcDbSpline
210
0.0
220
0.0
230
1.0
 70
    12
 71
     2
 72
     6
 73
     3
 74
     0
 42
0.000000001
 43
0.0000000001
 40
0.0
 40
0.0
 40
0.0
 40
1.0
 40
1.0
 40
1.0
 10
114.8701542103748
 20
306.6808747527313
 30
0.0
 41
1.0
 10
114.8793093464407
 20
306.8087239821199
 30
0.0
 41
0.968528216121611
 10
114.8280003022309
 20
306.9261830130894
 30
0.0
 41
1.0
  0
SPLINE
  5
569E
330
A
100
AcDbEntity
  8
MODEL
100
AcDbSpline
210
0.0
220
0.0
230
1.0
 70
    12
 71
     2
 72
     6
 73
     3
 74
     0
 42
0.000000001
 43
0.0000000001
 40
0.0
 40
0.0
 40
0.0
 40
1.0
 40
1.0
 40
1.0
 10
88.24146205193858
 20
284.8139936852832
 30
0.0
 41
1.0
 10
88.34760516449873
 20
284.7421404900331
 30
0.0
 41
0.9685282160478336
 10
88.47498219148349
 20
284.7278459102603
 30
0.0
 41
1.0
  0
SPLINE
  5
569F
330
A
100
AcDbEntity
  8
MODEL
100
AcDbSpline
210
0.0
220
0.0
230
1.0
 70
    12
 71
     2
 72
     6
 73
     3
 74
     0
 42
0.000000001
 43
0.0000000001
 40
0.0
 40
0.0
 40
0.0
 40
1.0
 40
1.0
 40
1.0
 10
88.24146205194563
 20
284.8139936853014
 30
0.0
 41
1.0
 10
88.25106565977866
 20
284.7800296145513
 30
0.0
 41
0.9856975314568717
 10
88.27588677996516
 20
284.7702992837338
 30
0.0
 41
1.0
  0
SPLINE
  5
56A0
330
A
100
AcDbEntity
  8
MODEL
100
AcDbSpline
210
0.0
220
0.0
230
1.0
 70
    12
 71
     2
 72
     6
 73
     3
 74
     0
 42
0.000000001
 43
0.0000000001
 40
0.0
 40
0.0
 40
0.0
 40
1.0
 40
1.0
 40
1.0
 10
88.4195408465215
 20
284.7172932808991
 30
0.0
 41
1.0
 10
88.44508837270656
 20
284.7078999012543
 30
0.0
 41
0.9851845098382812
 10
88.47498219149395
 20
284.7278459102587
 30
0.0
 41
1.0
  0
SPLINE
  5
56A1
330
A
100
AcDbEntity
  8
MODEL
100
AcDbSpline
210
0.0
220
0.0
230
1.0
 70
    12
 71
     2
 72
     6
 73
     3
 74
     0
 42
0.000000001
 43
0.0000000001
 40
0.0
 40
0.0
 40
0.0
 40
1.0
 40
1.0
 40
1.0
 10
76.6229014693887
 20
310.4363967557302
 30
0.0
 41
1.0
 10
76.58893464287897
 20
310.4267923686809
 30
0.0
 41
0.9856952599820636
 10
76.57920553387305
 20
310.4019681141316
 30
0.0
 41
1.0
  0
SPLINE
  5
56A2
330
A
100
AcDbEntity
  8
MODEL
100
AcDbSpline
210
0.0
220
0.0
230
1.0
 70
    12
 71
     2
 72
     6
 73
     3
 74
     0
 42
0.000000001
 43
0.0000000001
 40
0.0
 40
0.0
 40
0.0
 40
1.0
 40
1.0
 40
1.0
 10
76.5262024378111
 20
310.2583216942816
 30
0.0
 41
1.0
 10
76.51680618392486
 20
310.2327726852994
 30
0.0
 41
0.9851823285789989
 10
76.536753694401
 20
310.2028766161972
 30
0.0
 41
1.0
  0
SPLINE
  5
56A3
330
A
100
AcDbEntity
  8
MODEL
100
AcDbSpline
210
0.0
220
0.0
230
1.0
 70
    12
 71
     2
 72
     6
 73
     3
 74
     0
 42
0.000000001
 43
0.0000000001
 40
0.0
 40
0.0
 40
0.0
 40
1.0
 40
1.0
 40
1.0
 10
76.62290146926068
 20
310.4363967555083
 30
0.0
 41
1.0
 10
76.55104827415842
 20
310.3302536430363
 30
0.0
 41
0.9685282161236214
 10
76.53675369440305
 20
310.2028766162081
 30
0.0
 41
1.0
  0
SPLINE
  5
56A4
330
A
100
AcDbEntity
  8
MODEL
100
AcDbSpline
210
0.0
220
0.0
230
1.0
 70
    12
 71
     2
 72
     6
 73
     3
 74
     0
 42
0.000000001
 43
0.0000000001
 40
0.0
 40
0.0
 40
0.0
 40
1.0
 40
1.0
 40
1.0
 10
79.97517124642366
 20
290.6368414630127
 30
0.0
 41
1.0
 10
79.99259936199347
 20
290.615932767303
 30
0.0
 41
0.9851844914753933
 10
80.02846119572621
 20
290.6182596098869
 30
0.0
 41
1.0
  0
SPLINE
  5
56A5
330
A
100
AcDbEntity
  8
MODEL
100
AcDbSpline
210
0.0
220
0.0
230
1.0
 70
    12
 71
     2
 72
     6
 73
     3
 74
     0
 42
0.000000001
 43
0.0000000001
 40
0.0
 40
0.0
 40
0.0
 40
1.0
 40
1.0
 40
1.0
 10
79.86930071021754
 20
290.8096258410502
 30
0.0
 41
1.0
 10
79.92529674450374
 20
290.6943275925122
 30
0.0
 41
0.968528216126481
 10
80.0284611957178
 20
290.6182596098937
 30
0.0
 41
1.0
  0
SPLINE
  5
56A6
330
A
100
AcDbEntity
  8
MODEL
100
AcDbSpline
210
0.0
220
0.0
230
1.0
 70
    12
 71
     2
 72
     6
 73
     3
 74
     0
 42
0.000000001
 43
0.0000000001
 40
0.0
 40
0.0
 40
0.0
 40
1.0
 40
1.0
 40
1.0
 10
79.86930071008908
 20
290.8096258412719
 30
0.0
 41
1.0
 10
79.86063494000658
 20
290.7754075131035
 30
0.0
 41
0.9856952599901535
 10
79.87726882057416
 20
290.7545697302729
 30
0.0
 41
1.0
  0
SPLINE
  5
56A7
330
A
100
AcDbEntity
  8
MODEL
100
AcDbSpline
210
0.0
220
0.0
230
1.0
 70
    12
 71
     2
 72
     6
 73
     3
 74
     0
 42
0.000000001
 43
0.0000000001
 40
0.0
 40
0.0
 40
0.0
 40
1.0
 40
1.0
 40
1.0
 10
75.62190676640978
 20
299.9855053413643
 30
0.0
 41
1.0
 10
75.62654560964259
 20
299.958683822346
 30
0.0
 41
0.9851844917907089
 10
75.65876628960666
 20
299.942768010449
 30
0.0
 41
1.0
  0
SPLINE
  5
56A8
330
A
100
AcDbEntity
  8
MODEL
100
AcDbSpline
210
0.0
220
0.0
230
1.0
 70
    12
 71
     2
 72
     6
 73
     3
 74
     0
 42
0.000000001
 43
0.0000000001
 40
0.0
 40
0.0
 40
0.0
 40
1.0
 40
1.0
 40
1.0
 10
75.61661238145928
 20
300.1880762708178
 30
0.0
 41
1.0
 10
75.60745724539343
 20
300.0602270414294
 30
0.0
 41
0.9685282161223467
 10
75.65876628960325
 20
299.9427680104594
 30
0.0
 41
1.0
  0
SPLINE
  5
56A9
330
A
100
AcDbEntity
  8
MODEL
100
AcDbSpline
210
0.0
220
0.0
230
1.0
 70
    12
 71
     2
 72
     6
 73
     3
 74
     0
 42
0.000000001
 43
0.0000000001
 40
0.0
 40
0.0
 40
0.0
 40
1.0
 40
1.0
 40
1.0
 10
75.61661238145905
 20
300.1880762710738
 30
0.0
 41
1.0
 10
75.59199844034022
 20
300.1627752146464
 30
0.0
 41
0.9856952599699914
 10
75.59598491205986
 20
300.1364122250735
 30
0.0
 41
1.0
  0
ARC
  5
56AA
330
A
100
AcDbEntity
  8
MODEL
100
AcDbCircle
 10
17.7658463267735
 20
267.7160086156067
 30
0.0
 40
68.39080048254066
100
AcDbArc
 50
20.9141938511998
 51
22.85061907939996
  0
ARC
  5
56AB
330
A
100
AcDbEntity
  8
MODEL
100
AcDbCircle
 10
-18.14216201662657
 20
251.1618039064068
 30
0.0
 40
107.6308363204536
100
AcDbArc
 50
22.34809233129995
 51
27.15292390739979
  0
LINE
  5
56AC
330
A
100
AcDbEntity
  8
MODEL
100
AcDbLine
 10
77.58470240657368
 20
300.5262739570065
 30
0.0
 11
75.61661238137356
 21
300.1880762708066
 31
0.0
  0
LINE
  5
56AD
330
A
100
AcDbEntity
  8
MODEL
100
AcDbLine
 10
75.65876628957369
 20
299.9427680104067
 30
0.0
 11
77.62685631437364
 21
300.2809656966066
 31
0.0
  0
LINE
  5
56AE
330
A
100
AcDbEntity
  8
MODEL
100
AcDbLine
 10
81.4046178257737
 20
292.0865586412066
 30
0.0
 11
79.86930071017366
 21
290.8096258410066
 31
0.0
  0
LINE
  5
56AF
330
A
100
AcDbEntity
  8
MODEL
100
AcDbLine
 10
80.02846119577373
 20
290.6182596098066
 30
0.0
 11
81.56377831097359
 21
291.8951924100066
 31
0.0
  0
ARC
  5
56B0
330
A
100
AcDbEntity
  8
MODEL
100
AcDbCircle
 10
46.00505810857339
 20
233.7625459038067
 30
0.0
 40
68.39087550832014
100
AcDbArc
 50
50.91419806599981
 51
52.9034011612998
  0
ARC
  5
56B1
330
A
100
AcDbEntity
  8
MODEL
100
AcDbCircle
 10
46.00505810857339
 20
233.7625459038067
 30
0.0
 40
68.39087550832014
100
AcDbArc
 50
56.61559930029995
 51
58.5868181709998
  0
ARC
  5
56B2
330
A
100
AcDbEntity
  8
MODEL
100
AcDbCircle
 10
23.35374599197348
 20
201.7110775142067
 30
0.0
 40
107.3386344338128
100
AcDbArc
 50
52.34154851799988
 51
57.15946771849993
  0
ARC
  5
56B3
330
A
100
AcDbEntity
  8
MODEL
100
AcDbCircle
 10
136.2485362109736
 20
299.6669979844067
 30
0.0
 40
60.63416289400096
100
AcDbArc
 50
169.9934111617002
 51
179.5076050748001
  0
ARC
  5
56B4
330
A
100
AcDbEntity
  8
MODEL
100
AcDbCircle
 10
132.6386261701738
 20
320.6743207226067
 30
0.0
 40
60.6341628940842
100
AcDbArc
 50
199.9934111617
 51
209.5076050747996
  0
LINE
  5
56B5
330
A
100
AcDbEntity
  8
MODEL
100
AcDbLine
 10
76.89214983877366
 20
310.3370685006067
 30
0.0
 11
76.6229014691736
 21
310.4363967556066
 31
0.0
  0
LINE
  5
56B6
330
A
100
AcDbEntity
  8
MODEL
100
AcDbLine
 10
76.53675369437372
 20
310.2028766162067
 30
0.0
 11
76.85700336597358
 21
310.0847335014067
 31
0.0
  0
ARC
  5
56B7
330
A
100
AcDbEntity
  8
MODEL
100
AcDbCircle
 10
119.0994940623738
 20
337.1907266378067
 30
0.0
 40
60.79095569512404
100
AcDbArc
 50
230.0057088881
 51
239.4953073484998
  0
LINE
  5
56B8
330
A
100
AcDbEntity
  8
MODEL
100
AcDbLine
 10
88.93261927677361
 20
286.6875084866066
 30
0.0
 11
88.24146205217369
 21
284.8139936852066
 31
0.0
  0
LINE
  5
56B9
330
A
100
AcDbEntity
  8
MODEL
100
AcDbLine
 10
88.47498219157353
 20
284.7278459102066
 30
0.0
 11
89.16613941617368
 21
286.6013607116066
 31
0.0
  0
ARC
  5
56BA
330
A
100
AcDbEntity
  8
MODEL
100
AcDbCircle
 10
87.50347408857363
 20
219.3726214150068
 30
0.0
 40
67.49457043911958
100
AcDbArc
 50
80.58778918729998
 51
82.85183495570011
  0
ARC
  5
56BB
330
A
100
AcDbEntity
  8
MODEL
100
AcDbCircle
 10
87.50347408857363
 20
219.3726214150068
 30
0.0
 40
67.49457043911958
100
AcDbArc
 50
86.60531887959999
 51
88.62389325979998
  0
ARC
  5
56BC
330
A
100
AcDbEntity
  8
MODEL
100
AcDbCircle
 10
83.82007217437354
 20
179.1033770592065
 30
0.0
 40
107.6308363076527
100
AcDbArc
 50
82.34809232929996
 51
87.1529239075
  0
ARC
  5
56BD
330
A
100
AcDbEntity
  8
MODEL
100
AcDbCircle
 10
128.8711486427736
 20
279.6691678074064
 30
0.0
 40
60.63416289398426
100
AcDbArc
 50
148.8174761098996
 51
149.5076050747998
  0
ARC
  5
56BE
330
A
100
AcDbEntity
  8
MODEL
100
AcDbCircle
 10
99.02525569217357
 20
344.5963019060067
 30
0.0
 40
60.79095569456332
100
AcDbArc
 50
260.0057088881
 51
269.4953073488998
  0
ARC
  5
56BF
330
A
100
AcDbEntity
  8
MODEL
100
AcDbCircle
 10
98.40397113377355
 20
285.2176952446067
 30
0.0
 40
1.459585981389697
100
AcDbArc
 50
283.469846792001
 51
290.0954149951991
  0
ARC
  5
56C0
330
A
100
AcDbEntity
  8
MODEL
100
AcDbCircle
 10
98.63565835037355
 20
284.3085402356068
 30
0.0
 40
0.521647476186574
100
AcDbArc
 50
253.7610154060099
 51
281.9823476422158
  0
LINE
  5
56C1
330
A
100
AcDbEntity
  8
MODEL
100
AcDbLine
 10
98.74395775057349
 20
283.7982586178067
 30
0.0
 11
98.38800865477367
 21
285.8696502736067
 31
0.0
  0
LINE
  5
56C2
330
A
100
AcDbEntity
  8
MODEL
100
AcDbLine
 10
98.1515848507737
 20
285.7757946220066
 30
0.0
 11
98.48978253677353
 21
283.8077045974068
 31
0.0
  0
LINE
  5
56C3
330
A
100
AcDbEntity
  8
MODEL
100
AcDbLine
 10
113.7854422177735
 20
306.4944772398065
 30
0.0
 11
114.8701542103737
 21
306.6808747528065
 31
0.0
  0
LINE
  5
56C4
330
A
100
AcDbEntity
  8
MODEL
100
AcDbLine
 10
114.8280003021736
 20
306.9261830130066
 30
0.0
 11
113.7905917737736
 21
306.7479141536068
 31
0.0
  0
ARC
  5
56C5
330
A
100
AcDbEntity
  8
MODEL
100
AcDbCircle
 10
180.2001319819736
 20
295.6288067436066
 30
0.0
 40
68.39080048260897
100
AcDbArc
 50
177.4328875355999
 51
178.5868223858
  0
ARC
  5
56C6
330
A
100
AcDbEntity
  8
MODEL
100
AcDbCircle
 10
219.3010144593737
 20
292.0362900608067
 30
0.0
 40
107.3564591840929
100
AcDbArc
 50
176.089208536
 51
177.1590675167001
  0
ARC
  5
56C7
330
A
100
AcDbEntity
  8
MODEL
100
AcDbCircle
 10
57.84814042197365
 20
286.1946303012068
 30
0.0
 40
60.63416289370786
100
AcDbArc
 50
19.99341116169978
 51
23.02962209359986
  0
ARC
  5
56C8
330
A
100
AcDbEntity
  8
MODEL
100
AcDbCircle
 10
54.23823038077364
 20
307.2019530390065
 30
0.0
 40
60.6341628940176
100
AcDbArc
 50
349.9934111617
 51
359.5076050748
  0
LINE
  5
56C9
330
A
100
AcDbEntity
  8
MODEL
100
AcDbLine
 10
111.9903503211737
 20
297.1237114928066
 30
0.0
 11
113.8638651225737
 21
296.4325542680066
 31
0.0
  0
LINE
  5
56CA
330
A
100
AcDbEntity
  8
MODEL
100
AcDbLine
 10
113.9500128973735
 20
296.6660744074067
 30
0.0
 11
112.0764980959735
 21
297.3572316320066
 31
0.0
  0
ARC
  5
56CB
330
A
100
AcDbEntity
  8
MODEL
100
AcDbCircle
 10
197.2058379211736
 20
231.3758928662068
 30
0.0
 40
107.6311060105033
100
AcDbArc
 50
142.3480983529
 51
147.1529178839999
  0
ARC
  5
56CC
330
A
100
AcDbEntity
  8
MODEL
100
AcDbCircle
 10
164.1921482527736
 20
254.7272964466068
 30
0.0
 40
67.49468844669632
100
AcDbArc
 50
140.8771300138998
 51
142.8015004009999
  0
ARC
  5
56CD
330
A
100
AcDbEntity
  8
MODEL
100
AcDbCircle
 10
164.1921482527736
 20
254.7272964466068
 30
0.0
 40
67.49468844669632
100
AcDbArc
 50
146.7572441042002
 51
148.9132200128998
  0
ARC
  5
56CE
330
A
100
AcDbEntity
  8
MODEL
100
AcDbCircle
 10
61.61561794917372
 20
327.1997832162066
 30
0.0
 40
60.63416289391816
100
AcDbArc
 50
319.9934111617
 51
329.5076050748
  0
ARC
  5
56CF
330
A
100
AcDbEntity
  8
MODEL
100
AcDbCircle
 10
107.5840182265737
 20
288.4338868656067
 30
0.0
 40
0.521647476509896
100
AcDbArc
 50
307.5186686036891
 51
335.7400008219827
  0
ARC
  5
56D0
330
A
100
AcDbEntity
  8
MODEL
100
AcDbCircle
 10
107.1088564287735
 20
289.0982211094066
 30
0.0
 40
1.338237493751844
100
AcDbArc
 50
299.1048228569006
 51
306.3319478296996
  0
LINE
  5
56D1
330
A
100
AcDbEntity
  8
MODEL
100
AcDbLine
 10
108.0595991977735
 20
288.2195534116066
 30
0.0
 11
106.7826663977736
 21
289.7548705268067
 31
0.0
  0
LINE
  5
56D2
330
A
100
AcDbEntity
  8
MODEL
100
AcDbLine
 10
106.5577551299735
 20
289.6360428364068
 30
0.0
 11
107.9017119173737
 21
288.0201395894068
 31
0.0
  0
ARC
  5
56D3
330
A
100
AcDbEntity
  8
MODEL
100
AcDbCircle
 10
144.5928163889735
 20
196.3897768134069
 30
0.0
 40
100.713982882073
100
AcDbArc
 50
112.2911764821999
 51
117.2098397547998
  0
ARC
  5
56D4
330
A
100
AcDbEntity
  8
MODEL
100
AcDbCircle
 10
78.34982307457369
 20
340.0785856970066
 30
0.0
 40
59.8709388959965
100
AcDbArc
 50
290.080038676
 51
299.4209775609
  0
ARC
  5
56D5
330
A
100
AcDbEntity
  8
MODEL
100
AcDbCircle
 10
113.4711844979737
 20
296.7100682744066
 30
0.0
 40
0.5000000000000036
100
AcDbArc
 50
330.0598128855058
 51
349.4412032621062
  0
ARC
  5
56D6
330
A
100
AcDbEntity
  8
MODEL
100
AcDbCircle
 10
114.3913258107735
 20
306.7248686198067
 30
0.0
 40
0.5000000000000004
100
AcDbArc
 50
0.0598128854982344
 51
19.44120326208891
  0
ARC
  5
56D7
330
A
100
AcDbEntity
  8
MODEL
100
AcDbCircle
 10
88.51897605817351
 20
285.2066743100066
 30
0.0
 40
0.499999999999986
100
AcDbArc
 50
240.0598129239006
 51
259.4412032895113
  0
ARC
  5
56D8
330
A
100
AcDbEntity
  8
MODEL
100
AcDbCircle
 10
77.01558209397365
 20
310.1588827492066
 30
0.0
 40
0.4999999999999928
100
AcDbArc
 50
150.0598128855049
 51
169.4412032620794
  0
ARC
  5
56D9
330
A
100
AcDbEntity
  8
MODEL
100
AcDbCircle
 10
80.30597520197364
 20
291.0109402344066
 30
0.0
 40
0.5000000000000056
100
AcDbArc
 50
210.059812885494
 51
229.441203262497
  0
ARC
  5
56DA
330
A
100
AcDbEntity
  8
MODEL
100
AcDbCircle
 10
76.09544078117358
 20
300.1440824038067
 30
0.0
 40
0.5000000000000004
100
AcDbArc
 50
180.0598128854982
 51
199.4412032625035
  0
ARC
  5
56DB
330
A
100
AcDbEntity
  8
MODEL
100
AcDbCircle
 10
137.9546903765737
 20
299.5159441280067
 30
0.0
 40
62.36071944924208
100
AcDbArc
 50
170.0807052666
 51
179.4298366624001
  0
ARC
  5
56DC
330
A
100
AcDbEntity
  8
MODEL
100
AcDbCircle
 10
134.1917259485737
 20
321.3965813282067
 30
0.0
 40
62.36071944925678
100
AcDbArc
 50
200.0807052666
 51
209.4298366623999
  0
ARC
  5
56DD
330
A
100
AcDbEntity
  8
MODEL
100
AcDbCircle
 10
119.9925852687735
 20
338.4642876412066
 30
0.0
 40
62.3607205645277
100
AcDbArc
 50
230.0807053123998
 51
239.4298397402001
  0
ARC
  5
56DE
330
A
100
AcDbEntity
  8
MODEL
100
AcDbCircle
 10
130.2731945647735
 20
278.6852742476065
 30
0.0
 40
62.36071944924852
100
AcDbArc
 50
148.6627411631996
 51
149.4298366623999
  0
ARC
  5
56DF
330
A
100
AcDbEntity
  8
MODEL
100
AcDbCircle
 10
99.09717005857362
 20
345.6901191558067
 30
0.0
 40
61.90071634328618
100
AcDbArc
 50
260.0670838903001
 51
269.5900647384
  0
ARC
  5
56E0
330
A
100
AcDbEntity
  8
MODEL
100
AcDbCircle
 10
56.29504064337368
 20
285.4723696952066
 30
0.0
 40
62.3607194492543
100
AcDbArc
 50
20.08070526660016
 51
23.13830380109998
  0
ARC
  5
56E1
330
A
100
AcDbEntity
  8
MODEL
100
AcDbCircle
 10
52.53207621517356
 20
307.3530068954066
 30
0.0
 40
62.36071944927
100
AcDbArc
 50
350.0807052666
 51
359.4298366623999
  0
ARC
  5
56E2
330
A
100
AcDbEntity
  8
MODEL
100
AcDbCircle
 10
60.68359531157364
 20
327.8819691888067
 30
0.0
 40
61.80252315576102
100
AcDbArc
 50
319.9096595167
 51
329.4489910624001
  0
ARC
  5
56E3
330
A
100
AcDbEntity
  8
MODEL
100
AcDbCircle
 10
95.24338329597356
 20
303.4344755118067
 30
0.0
 40
17.13643699999996
100
AcDbArc
 50
200.3637644944999
 51
340.0542664156001
  0
SPLINE
  5
56E4
330
A
100
AcDbEntity
  8
MODEL
100
AcDbSpline
210
0.0
220
0.0
230
1.0
 70
    12
 71
     2
 72
     6
 73
     3
 74
     0
 42
0.000000001
 43
0.0000000001
 40
0.0
 40
0.0
 40
0.0
 40
1.0
 40
1.0
 40
1.0
 10
111.8365854019329
 20
319.3911237190704
 30
0.0
 41
1.0
 10
111.8365854019329
 20
319.4099116461017
 30
0.0
 41
0.9999971693144967
 10
111.8363975030951
 20
319.4286993603761
 30
0.0
 41
1.0
  0
ARC
  5
56E5
330
A
100
AcDbEntity
  8
MODEL
100
AcDbCircle
 10
-511.6862973376265
 20
177.147641035207
 30
0.0
 40
634.333411143971
100
AcDbArc
 50
23.69390845380003
 51
25.14059732509998
  0
ARC
  5
56E6
330
A
100
AcDbEntity
  8
MODEL
100
AcDbCircle
 10
699.1653613001733
 20
178.5097059032066
 30
0.0
 40
631.031896675438
100
AcDbArc
 50
154.8549842087999
 51
156.3095966244
  0
SPLINE
  5
56E7
330
A
100
AcDbEntity
  8
MODEL
100
AcDbSpline
210
0.0
220
0.0
230
1.0
 70
     8
 71
     3
 72
    44
 73
    40
 74
     0
 42
0.000000001
 43
0.0000000001
 40
0.0
 40
0.0
 40
0.0
 40
0.0
 40
0.0165023067662801
 40
0.0313821500140711
 40
0.0450408349788952
 40
0.0575874710220058
 40
0.0699769249544262
 40
0.0824916328706161
 40
0.1124873500189926
 40
0.1432682957276266
 40
0.180966160089501
 40
0.2198397308464712
 40
0.260014864082095
 40
0.3045908181299219
 40
0.3507426303766247
 40
0.3984684209022263
 40
0.4476235687392787
 40
0.496793980245823
 40
0.5364468910872303
 40
0.5758640033906895
 40
0.6150409330031987
 40
0.6539734505921506
 40
0.6926572253061117
 40
0.7303946208021179
 40
0.7665417731936965
 40
0.7968678520453788
 40
0.825982220559059
 40
0.8538882662380967
 40
0.8811441317943508
 40
0.8993132583425262
 40
0.9174861874410971
 40
0.9356646798307808
 40
0.9492910565090393
 40
0.9629057301883335
 40
0.9699340857564019
 40
0.9782956401395773
 40
0.9847653571525035
 40
0.9919915452717547
 40
1.0
 40
1.0
 40
1.0
 40
1.0
 10
69.17618333592611
 20
432.0547908748146
 30
0.0
 10
69.35756541779449
 20
431.4041593321177
 30
0.0
 10
69.64662726865333
 20
430.3627899431509
 30
0.0
 10
70.07198251801844
 20
428.7102074861886
 30
0.0
 10
70.43123643989327
 20
427.2315520151927
 30
0.0
 10
70.75312355281346
 20
425.8281573102107
 30
0.0
 10
71.04839407444967
 20
424.464480629939
 30
0.0
 10
71.45710746553038
 20
422.459622051878
 30
0.0
 10
71.94680824251839
 20
419.7716884605985
 30
0.0
 10
72.49953003103144
 20
416.1482808299182
 30
0.0
 10
72.99459625936618
 20
412.1992764887792
 30
0.0
 10
73.41857538483248
 20
407.9108407057371
 30
0.0
 10
73.72272190083834
 20
403.3939730481512
 30
0.0
 10
74.03896034583283
 20
398.588701316642
 30
0.0
 10
74.37085436303721
 20
393.4796563416811
 30
0.0
 10
74.70958072366636
 20
388.174585853539
 30
0.0
 10
75.0512011950533
 20
382.7301820538311
 30
0.0
 10
75.3696944191064
 20
377.560136251216
 30
0.0
 10
75.66198589765816
 20
372.7339072959688
 30
0.0
 10
75.92838698121966
 20
368.2672315127812
 30
0.0
 10
76.19004085704421
 20
363.8122087719977
 30
0.0
 10
76.44692346064733
 20
359.3703512172855
 30
0.0
 10
76.69751313314384
 20
354.9696508589919
 30
0.0
 10
76.93897941988155
 20
350.6626815062617
 30
0.0
 10
77.15981844561645
 20
346.6647648382253
 30
0.0
 10
77.35978012931798
 20
342.9892822098803
 30
0.0
 10
77.54002218238804
 20
339.6243731627734
 30
0.0
 10
77.71051619449474
 20
336.3714873872121
 30
0.0
 10
77.85790032443094
 20
333.538370057311
 30
0.0
 10
77.97807777391711
 20
331.0813103671779
 30
0.0
 10
78.07416518936213
 20
328.9688257238007
 30
0.0
 10
78.18193906217027
 20
327.0243733214296
 30
0.0
 10
78.30112255047663
 20
325.2510679433452
 30
0.0
 10
78.4032748442761
 20
323.9116847212291
 30
0.0
 10
78.49666829755654
 20
322.7780846963536
 30
0.0
 10
78.57178679971332
 20
321.9271032323112
 30
0.0
 10
78.62061227782749
 20
321.087653917543
 30
0.0
 10
78.65041357241796
 20
320.2577218898458
 30
0.0
 10
78.6507731917485
 20
319.7456010012485
 30
0.0
 10
78.65035061220772
 20
319.4268041235952
 30
0.0
  0
SPLINE
  5
56E8
330
A
100
AcDbEntity
  8
MODEL
100
AcDbSpline
210
0.0
220
0.0
230
1.0
 70
     8
 71
     3
 72
    44
 73
    40
 74
     0
 42
0.000000001
 43
0.0000000001
 40
0.0
 40
0.0
 40
0.0
 40
0.0
 40
0.0112856686899822
 40
0.0217618645919088
 40
0.0316520245564518
 40
0.0464800680453368
 40
0.0606392006647862
 40
0.07483907670981
 40
0.0891262889304939
 40
0.1034960727705107
 40
0.1321702330889727
 40
0.1615696214703178
 40
0.1975179716550994
 40
0.234529917016281
 40
0.2727241019068097
 40
0.3149743883645528
 40
0.3585951073953309
 40
0.4035817011426319
 40
0.4497472906633169
 40
0.4958354420929742
 40
0.5537691802756085
 40
0.6111777089011553
 40
0.6680539140179867
 40
0.7012732835204928
 40
0.7335530927323807
 40
0.7646484930692725
 40
0.79455807943256
 40
0.8232902423039169
 40
0.8508451606816957
 40
0.8776535724706997
 40
0.9043557514397216
 40
0.9277543357109566
 40
0.9512783552270632
 40
0.9574887240883801
 40
0.9637192394535199
 40
0.9705711563438167
 40
0.9789004291741403
 40
0.9887110685200824
 40
1.0
 40
1.0
 40
1.0
 40
1.0
 10
111.8364159481197
 20
319.4268074411538
 30
0.0
 10
111.8372169385444
 20
319.8733103159349
 30
0.0
 10
111.8410265504311
 20
320.6038701335843
 30
0.0
 10
111.9056886506147
 20
321.8416251520965
 30
0.0
 10
112.0280305410628
 20
323.2046594466791
 30
0.0
 10
112.1474942677529
 20
324.7293675956099
 30
0.0
 10
112.2653781931846
 20
326.4119958168102
 30
0.0
 10
112.3648514930654
 20
328.0726772799977
 30
0.0
 10
112.4478934231214
 20
329.7374740494303
 30
0.0
 10
112.5494244931257
 20
331.9590466531275
 30
0.0
 10
112.6924859729276
 20
334.7593447679116
 30
0.0
 10
112.8812960939655
 20
338.3890625858213
 30
0.0
 10
113.0913602206718
 20
342.3335964840429
 30
0.0
 10
113.3237147462975
 20
346.6082352486111
 30
0.0
 10
113.572792049899
 20
351.1136378425255
 30
0.0
 10
113.839411882518
 20
355.8588657742281
 30
0.0
 10
114.1246296340377
 20
360.8474385419753
 30
0.0
 10
114.4225259425986
 20
365.9667425924919
 30
0.0
 10
114.7301423723467
 20
371.1591291411058
 30
0.0
 10
115.0714326748281
 20
376.8176421296354
 30
0.0
 10
115.4438515769824
 20
382.8694865500746
 30
0.0
 10
115.8473034082514
 20
389.2875410097419
 30
0.0
 10
116.19815957003
 20
394.7504342912174
 30
0.0
 10
116.4916049790448
 20
399.2585795239978
 30
0.0
 10
116.7269141701485
 20
402.8040044191688
 30
0.0
 10
116.9485646489881
 20
406.2124013477127
 30
0.0
 10
117.2199052342168
 20
409.4979834188936
 30
0.0
 10
117.5534437876576
 20
412.6647882806293
 30
0.0
 10
117.9355933755747
 20
415.7234697539578
 30
0.0
 10
118.3718604490676
 20
418.709614373255
 30
0.0
 10
118.8534480503914
 20
421.5346796020589
 30
0.0
 10
119.3817122342481
 20
424.2284356970735
 30
0.0
 10
119.8068716035006
 20
426.1618156401129
 30
0.0
 10
120.1133423163316
 20
427.4645762221172
 30
0.0
 10
120.2818574907848
 20
428.1618347769958
 30
0.0
 10
120.4740614141771
 20
428.935327563113
 30
0.0
 10
120.7039180830715
 20
429.8316357448419
 30
0.0
 10
120.9903610936864
 20
430.9098266189061
 30
0.0
 10
121.1858521111845
 20
431.6095937182287
 30
0.0
 10
121.3105832559087
 20
432.0547908748146
 30
0.0
  0
ARC
  5
56E9
330
A
100
AcDbEntity
  8
MODEL
100
AcDbCircle
 10
64.36312679237369
 20
447.4964414916066
 30
0.0
 40
2.00000038314328
100
AcDbArc
 50
89.99961465610119
 51
205.401531301198
  0
SPLINE
  5
56EA
330
A
100
AcDbEntity
  8
MODEL
100
AcDbSpline
210
0.0
220
0.0
230
1.0
 70
     8
 71
     3
 72
    42
 73
    38
 74
     0
 42
0.000000001
 43
0.0000000001
 40
0.0
 40
0.0
 40
0.0
 40
0.0
 40
0.0362976495311349
 40
0.0792019242132931
 40
0.1187088298576718
 40
0.1558931705983487
 40
0.1894369701330464
 40
0.2168162449316769
 40
0.2380284544478631
 40
0.2638082165666683
 40
0.2911938690656897
 40
0.3195197793330478
 40
0.3758955997619807
 40
0.4266543962683974
 40
0.4545363230959442
 40
0.4839266775535844
 40
0.512193992026732
 40
0.5385787669650731
 40
0.5626504307675727
 40
0.5859505389928439
 40
0.6112195125670074
 40
0.6340403641585927
 40
0.6592275537585481
 40
0.6804060469612684
 40
0.6974621010699169
 40
0.7136814982757343
 40
0.7343239639030165
 40
0.7551105610864393
 40
0.7757643285208145
 40
0.796497563891177
 40
0.8182807370219596
 40
0.8416944696416662
 40
0.8669778967996216
 40
0.8943363670467448
 40
0.9343002816465314
 40
0.9763635850567958
 40
0.9999999999999999
 40
0.9999999999999999
 40
0.9999999999999999
 40
0.9999999999999999
 10
78.64851816461407
 20
319.7146438053832
 30
0.0
 10
78.58851819788163
 20
319.3769748927069
 30
0.0
 10
78.46911255628527
 20
318.707749304626
 30
0.0
 10
78.27463568600695
 20
317.6439454231787
 30
0.0
 10
78.08394392366597
 20
316.6242687148309
 30
0.0
 10
77.9085900984411
 20
315.7083855915047
 30
0.0
 10
77.7533744265478
 20
314.9184189328329
 30
0.0
 10
77.62634693564485
 20
314.2875263397704
 30
0.0
 10
77.50750067407955
 20
313.7110915238585
 30
0.0
 10
77.38729880398239
 20
313.1387641823279
 30
0.0
 10
77.23688616355605
 20
312.4557034195328
 30
0.0
 10
77.04204207270607
 20
311.4395234611799
 30
0.0
 10
76.85261623284089
 20
310.1815435719351
 30
0.0
 10
76.73688879813665
 20
308.9160196967269
 30
0.0
 10
76.69093411731512
 20
307.8961276005817
 30
0.0
 10
76.68278777391004
 20
307.0871150164795
 30
0.0
 10
76.70399131121633
 20
306.2900996849547
 30
0.0
 10
76.75104028940734
 20
305.5417379677584
 30
0.0
 10
76.81973759366213
 20
304.8393179104957
 30
0.0
 10
76.91038537552947
 20
304.1513684456512
 30
0.0
 10
77.02333233270144
 20
303.4771389610809
 30
0.0
 10
77.16512097347243
 20
302.7828288022228
 30
0.0
 10
77.32275391857968
 20
302.1323117529515
 30
0.0
 10
77.48796702431775
 20
301.5423667949173
 30
0.0
 10
77.645248467025
 20
301.0386347035163
 30
0.0
 10
77.81153782825106
 20
300.5508612557234
 30
0.0
 10
77.99574687787037
 20
300.0594649974843
 30
0.0
 10
78.19790329051932
 20
299.5721832360092
 30
0.0
 10
78.401520054446
 20
299.1317767222225
 30
0.0
 10
78.59455439346209
 20
298.7249594205267
 30
0.0
 10
78.77153152635321
 20
298.3629086748059
 30
0.0
 10
78.93081315102756
 20
298.0419155073772
 30
0.0
 10
79.07060345832781
 20
297.7614563096244
 30
0.0
 10
79.20388655604017
 20
297.493006922543
 30
0.0
 10
79.31552413789734
 20
297.2665386759487
 30
0.0
 10
79.38202969267456
 20
297.1302412266831
 30
0.0
 10
79.39475082190859
 20
297.1054134472303
 30
0.0
 10
79.39527985097732
 20
297.1053552492837
 30
0.0
  0
SPLINE
  5
56EB
330
A
100
AcDbEntity
  8
MODEL
100
AcDbSpline
210
0.0
220
0.0
230
1.0
 70
     8
 71
     3
 72
    48
 73
    44
 74
     0
 42
0.000000001
 43
0.0000000001
 40
0.0
 40
0.0
 40
0.0
 40
0.0
 40
0.0324367756512361
 40
0.0675685128746815
 40
0.1032858255993584
 40
0.1304317337098692
 40
0.1578634116457853
 40
0.1855958371743262
 40
0.210742127033422
 40
0.2313706237185287
 40
0.2477782663925963
 40
0.2607014658086558
 40
0.2758717882802081
 40
0.2923760116192364
 40
0.3127900699294677
 40
0.3341902826796664
 40
0.3520033506827558
 40
0.3665011091512924
 40
0.3886655558718085
 40
0.4154385356940568
 40
0.4494257194093097
 40
0.4836915289652701
 40
0.5142765679883815
 40
0.5426467126862871
 40
0.5711911439724118
 40
0.6054247012049255
 40
0.6366535997338731
 40
0.6643386301432432
 40
0.6805050287009029
 40
0.7003906451461664
 40
0.7243178202247204
 40
0.747281777822828
 40
0.7656050282483162
 40
0.7881622750570411
 40
0.8166238169258894
 40
0.8479380620566124
 40
0.8757962925767745
 40
0.8890318342876897
 40
0.9048257191448694
 40
0.9250054406075601
 40
0.949569575134177
 40
0.9785036121062212
 40
1.0
 40
1.0
 40
1.0
 40
1.0
 10
111.0888991948997
 20
297.1062049997562
 30
0.0
 10
111.0894882732601
 20
297.1047424629752
 30
0.0
 10
111.1147684155895
 20
297.154346160862
 30
0.0
 10
111.1722135380047
 20
297.2697858376506
 30
0.0
 10
111.2570022310732
 20
297.4422258021276
 30
0.0
 10
111.3567558752335
 20
297.6442505546864
 30
0.0
 10
111.4656937617648
 20
297.8640782094629
 30
0.0
 10
111.5881067353786
 20
298.1088510137298
 30
0.0
 10
111.7215665698228
 20
298.3742043638184
 30
0.0
 10
111.8622937433594
 20
298.6565471199127
 30
0.0
 10
112.0008154402811
 20
298.9395670315802
 30
0.0
 10
112.1595343173909
 20
299.2748308728945
 30
0.0
 10
112.3298988089133
 20
299.6655899368237
 30
0.0
 10
112.5178852499035
 20
300.1290928632487
 30
0.0
 10
112.7161266406678
 20
300.6642124245344
 30
0.0
 10
112.9012112819529
 20
301.2216646770752
 30
0.0
 10
113.0532623826197
 20
301.7327909382853
 30
0.0
 10
113.1952545193591
 20
302.2590918466993
 30
0.0
 10
113.3424652371683
 20
302.8751258639608
 30
0.0
 10
113.5037475753385
 20
303.6848807702532
 30
0.0
 10
113.6450839728001
 20
304.6172400809625
 30
0.0
 10
113.7429318790979
 20
305.5926642769781
 30
0.0
 10
113.7925564632641
 20
306.5105676121278
 30
0.0
 10
113.804640098809
 20
307.3695193812222
 30
0.0
 10
113.7843160282929
 20
308.2592235784972
 30
0.0
 10
113.7276290553158
 20
309.1752082570232
 30
0.0
 10
113.6364882204244
 20
310.0785024573605
 30
0.0
 10
113.5387386945414
 20
310.8048046165715
 30
0.0
 10
113.4423238515548
 20
311.4139333838333
 30
0.0
 10
113.3451466117693
 20
311.9641698949971
 30
0.0
 10
113.2240374677159
 20
312.5698915554307
 30
0.0
 10
113.0966822937793
 20
313.1537368032658
 30
0.0
 10
112.982043890585
 20
313.6982186239869
 30
0.0
 10
112.8753521489986
 20
314.2141182637992
 30
0.0
 10
112.7411651014271
 20
314.8791328378683
 30
0.0
 10
112.5987529882358
 20
315.6034435958921
 30
0.0
 10
112.4798666045211
 20
316.2216290104546
 30
0.0
 10
112.3859998671329
 20
316.7165175614529
 30
0.0
 10
112.3045252723783
 20
317.1500099043209
 30
0.0
 10
112.2039375714229
 20
317.6910886649422
 30
0.0
 10
112.0820185997731
 20
318.3555226162456
 30
0.0
 10
111.9548966624935
 20
319.0583604912109
 30
0.0
 10
111.8758299327197
 20
319.5024066876039
 30
0.0
 10
111.8399340548607
 20
319.7046520424907
 30
0.0
  0
SPLINE
  5
56F7
330
A
100
AcDbEntity
  8
MODEL
100
AcDbSpline
210
0.0
220
0.0
230
1.0
 70
     8
 71
     3
 72
    14
 73
    10
 74
     0
 42
0.000000001
 43
0.0000000001
 40
0.0
 40
0.0
 40
0.0
 40
0.0
 40
0.3418606703019799
 40
0.3418606703019799
 40
0.7325585792185284
 40
0.7325585792185284
 40
0.9767447722913715
 40
0.9767447722913715
 40
1.0
 40
1.0
 40
1.0
 40
1.0
 10
128.4730586149645
 20
449.9287049066269
 30
0.0
 10
128.4152125329584
 20
449.8547583184967
 30
0.0
 10
128.3812542724037
 20
449.8113870323231
 30
0.0
 10
128.3314510879687
 20
449.7478419744222
 30
0.0
 10
128.3190738721702
 20
449.7321066925282
 30
0.0
 10
128.3080317802888
 20
449.718146932336
 30
0.0
 10
128.3061503772257
 20
449.7158055721767
 30
0.0
 10
128.306093738708
 20
449.7158061582878
 30
0.0
 10
128.306106021426
 20
449.7158282340912
 30
0.0
 10
128.3061357417674
 20
449.7158726290305
 30
0.0
  0
SPLINE
  5
56F8
330
A
100
AcDbEntity
  8
MODEL
100
AcDbSpline
210
0.0
220
0.0
230
1.0
 70
     8
 71
     3
 72
    16
 73
    12
 74
     0
 42
0.000000001
 43
0.0000000001
 40
0.0
 40
0.0
 40
0.0
 40
0.0
 40
0.3338289256415081
 40
0.3338289256415081
 40
0.5631223803807212
 40
0.5631223803807212
 40
0.7924158351199334
 40
0.7924158351199334
 40
0.9738194041210315
 40
0.9738194041210315
 40
1.0
 40
1.0
 40
1.0
 40
1.0
 10
133.9054978682572
 20
456.8826953087447
 30
0.0
 10
133.9021481739243
 20
456.8783066663735
 30
0.0
 10
133.8630934010299
 20
456.828217632915
 30
0.0
 10
133.7341311829465
 20
456.662983784326
 30
0.0
 10
133.6639182610094
 20
456.5730465496666
 30
0.0
 10
133.4839633458715
 20
456.3425779770754
 30
0.0
 10
133.3743212264595
 20
456.2021745725134
 30
0.0
 10
133.1378620146289
 20
455.8994008681858
 30
0.0
 10
133.0199075272216
 20
455.7483739582727
 30
0.0
 10
132.8648341636377
 20
455.5498300894704
 30
0.0
 10
132.8449105717933
 20
455.5243216235712
 30
0.0
 10
132.8246107778031
 20
455.4983316556494
 30
0.0
  0
LINE
  5
56F9
330
A
100
AcDbEntity
  8
MODEL
100
AcDbLine
 10
132.8246107777737
 20
455.4983316556066
 30
0.0
 11
128.4730586149736
 21
449.9287049066066
 31
0.0
  0
ARC
  5
56FA
330
A
100
AcDbEntity
  8
MODEL
100
AcDbCircle
 10
127.9102917517736
 20
450.0265180776067
 30
0.0
 40
0.503036861856679
100
AcDbArc
 50
275.4443518861059
 51
314.8459947553944
  0
ARC
  5
56FB
330
A
100
AcDbEntity
  8
MODEL
100
AcDbCircle
 10
133.4931197103737
 20
457.1941470996065
 30
0.0
 40
0.5171056667913064
100
AcDbArc
 50
328.6969516768099
 51
14.66672687411475
  0
ARC
  5
56FC
330
A
100
AcDbEntity
  8
MODEL
100
AcDbCircle
 10
127.1933969787736
 20
455.4299340266067
 30
0.0
 40
7.059097764824462
100
AcDbArc
 50
15.57322374529953
 51
25.74744350739974
  0
ARC
  5
56FD
330
A
100
AcDbEntity
  8
MODEL
100
AcDbCircle
 10
126.9969397865735
 20
459.9448980344067
 30
0.0
 40
10.46337943180494
100
AcDbArc
 50
273.0604501172
 51
275.2709834906008
  0
ARC
  5
56FE
330
A
100
AcDbEntity
  8
MODEL
100
AcDbCircle
 10
126.1236392393736
 20
447.4964414622067
 30
0.0
 40
2.000000412683476
100
AcDbArc
 50
334.752034949198
 51
90.00041745959653
  0
ARC
  5
5705
102
{ACAD_REACTORS
330
5706
102
}
330
A
100
AcDbEntity
  8
MODEL
100
AcDbCircle
 10
95.56006934532411
 20
197.9052743561999
 30
0.0
 40
32.47333505127978
100
AcDbArc
 50
270.0008953074966
 51
52.3187618492004
  0
MTEXT
  5
576A
330
A
100
AcDbEntity
  8
DIM
390
1D
100
AcDbMText
 10
118.2794992941588
 20
520.5004592000666
 30
0.0
 40
4.8865234375
 41
0.0
 46
5.678140234375
 71
     1
 72
     1
  1
{φ35}
  7
ＭＳ ゴシック
 73
     1
 44
0.7828267384257843
1001
ACAD
1000
ACAD_MTEXT_DEFINED_HEIGHT_BEGIN
1070
    46
1040
5.678140234375
1000
ACAD_MTEXT_DEFINED_HEIGHT_END
  0
MTEXT
  5
576B
330
A
100
AcDbEntity
  8
DIM
390
1D
100
AcDbMText
 10
118.2794992941588
 20
513.5230526620783
 30
0.0
 40
4.8865234375
 41
0.0
 46
5.678140234375
 71
     1
 72
     1
  1
{φ28～φ45}
  7
ＭＳ ゴシック
 73
     1
 44
0.7828267384257843
1001
ACAD
1000
ACAD_MTEXT_DEFINED_HEIGHT_BEGIN
1070
    46
1040
5.678140234375
1000
ACAD_MTEXT_DEFINED_HEIGHT_END
  0
ARC
  5
5793
330
A
100
AcDbEntity
  8
MODEL
 48
25.4
100
AcDbCircle
 10
346.4418588181643
 20
211.7619050052284
 30
0.0
 40
14.07825201040234
100
AcDbArc
 50
250.3311169560999
 51
266.5780820746
  0
ARC
  5
5794
330
A
100
AcDbEntity
  8
MODEL
 48
25.4
100
AcDbCircle
 10
341.8716378181643
 20
198.9758970052284
 30
0.0
 40
0.4999999887648876
100
AcDbArc
 50
221.8479423286972
 51
250.3311217130978
  0
ARC
  5
5795
330
A
100
AcDbEntity
  8
MODEL
 48
25.4
100
AcDbCircle
 10
374.7041708181644
 20
211.7619050052284
 30
0.0
 40
14.07825156766402
100
AcDbArc
 50
273.4219179253999
 51
289.6688830439002
  0
ARC
  5
5796
330
A
100
AcDbEntity
  8
MODEL
 48
25.4
100
AcDbCircle
 10
379.2743918181644
 20
198.9758970052284
 30
0.0
 40
0.5000002611929628
100
AcDbArc
 50
289.6688782868987
 51
318.1520576713
  0
ARC
  5
5797
330
A
100
AcDbEntity
  8
MODEL
 48
25.4
100
AcDbCircle
 10
345.6646348181644
 20
202.3729430052284
 30
0.0
 40
5.591831944738812
100
AcDbArc
 50
106.8980530139
 51
112.1103213926997
  0
ARC
  5
5798
330
A
100
AcDbEntity
  8
MODEL
 48
25.4
100
AcDbCircle
 10
375.4813948181643
 20
202.3729430052284
 30
0.0
 40
5.591831744657016
100
AcDbArc
 50
67.90418878130015
 51
73.10194698609983
  0
ARC
  5
5799
330
A
100
AcDbEntity
  8
MODEL
 48
25.4
100
AcDbCircle
 10
344.1425618181643
 20
206.2556300052284
 30
0.0
 40
1.423047662363037
100
AcDbArc
 50
114.2035748803998
 51
143.1501612447994
  0
ARC
  5
579A
330
A
100
AcDbEntity
  8
MODEL
 48
25.4
100
AcDbCircle
 10
342.4269838181643
 20
199.8756650052284
 30
0.0
 40
1.509766424846578
100
AcDbArc
 50
174.1059410570996
 51
211.3907628248999
  0
LINE
  5
579B
330
A
100
AcDbEntity
  8
MODEL
 48
25.4
100
AcDbLine
 10
380.2104678181643
 20
200.1362350052284
 30
0.0
 11
378.2235078181644
 21
206.9677710052284
 31
0.0
  0
LINE
  5
579C
330
A
100
AcDbEntity
  8
MODEL
 48
25.4
100
AcDbLine
 10
342.9130568181644
 20
206.9352290052284
 30
0.0
 11
340.9449668181643
 21
200.1685710052284
 31
0.0
  0
ARC
  5
579D
330
A
100
AcDbEntity
  8
MODEL
 48
25.4
100
AcDbCircle
 10
378.6553478181643
 20
199.8956890052284
 30
0.0
 40
1.574660972781128
100
AcDbArc
 50
329.1975394795994
 51
6.250972204999086
  0
ARC
  5
579E
330
A
100
AcDbEntity
  8
MODEL
 48
25.4
100
AcDbCircle
 10
376.9867768181643
 20
206.2299560052284
 30
0.0
 40
1.453286956498307
100
AcDbArc
 50
35.64783625289991
 51
65.72178101469905
  0
ARC
  5
579F
330
A
100
AcDbEntity
  8
MODEL
 48
25.4
100
AcDbCircle
 10
343.3931628181643
 20
206.7955900052284
 30
0.0
 40
0.5000003425058294
100
AcDbArc
 50
141.2577797966014
 51
163.7829091530976
  0
ARC
  5
57A0
330
A
100
AcDbEntity
  8
MODEL
 48
25.4
100
AcDbCircle
 10
341.4250718181643
 20
200.0289320052284
 30
0.0
 40
0.4999998613458714
100
AcDbArc
 50
163.7828771501963
 51
179.8157363027973
  0
SPLINE
  5
57A1
330
A
100
AcDbEntity
  8
MODEL
 48
25.4
100
AcDbSpline
210
0.0
220
0.0
230
1.0
 70
     8
 71
     3
 72
    14
 73
    10
 74
     0
 42
0.000000001
 43
0.0000000001
 40
0.0
 40
0.0
 40
0.0
 40
0.0
 40
0.1716528665597446
 40
0.1716528665597446
 40
0.3574301873182262
 40
0.3574301873182262
 40
0.7451520569705249
 40
0.7451520569705249
 40
1.0
 40
1.0
 40
1.0
 40
1.0
 10
379.2172518181563
 20
199.7987590051774
 30
0.0
 10
379.2828718181564
 20
199.6654890051774
 30
0.0
 10
379.3439278181564
 20
199.5526330051774
 30
0.0
 10
379.4629178181564
 20
199.3538350051774
 30
0.0
 10
379.5200288181563
 20
199.2710710051774
 30
0.0
 10
379.6850948181564
 20
199.0682030051774
 30
0.0
 10
379.7810168181563
 20
199.0045490051774
 30
0.0
 10
379.9178938181564
 20
199.0045490051774
 30
0.0
 10
379.9664848181563
 20
199.0320170051774
 30
0.0
 10
380.0082268181563
 20
199.0898120051774
 30
0.0
  0
SPLINE
  5
57A2
330
A
100
AcDbEntity
  8
MODEL
 48
25.4
100
AcDbSpline
210
0.0
220
0.0
230
1.0
 70
     8
 71
     3
 72
    18
 73
    14
 74
     0
 42
0.000000001
 43
0.0000000001
 40
0.0
 40
0.0
 40
0.0
 40
0.0
 40
0.11517
 40
0.11517
 40
0.239817
 40
0.239817
 40
0.499958
 40
0.499958
 40
0.7601
 40
0.7601
 40
0.894368
 40
0.894368
 40
1.0
 40
1.0
 40
1.0
 40
1.0
 10
340.9876148181564
 20
199.7987590051774
 30
0.0
 10
341.1195388181563
 20
199.6654890051774
 30
0.0
 10
341.2591838181564
 20
199.5526330051774
 30
0.0
 10
341.5604478181563
 20
199.3538350051774
 30
0.0
 10
341.7224668181564
 20
199.2710710051774
 30
0.0
 10
342.2364868181563
 20
199.0682030051774
 30
0.0
 10
342.6027458181563
 20
199.0045490051774
 30
0.0
 10
343.3586138181564
 20
199.0045490051774
 30
0.0
 10
343.7487998181563
 20
199.0681280051774
 30
0.0
 10
344.3581938181563
 20
199.2761720051774
 30
0.0
 10
344.5683398181563
 20
199.3667010051774
 30
0.0
 10
344.9503928181563
 20
199.5710200051774
 30
0.0
 10
345.1214898181564
 20
199.6761350051774
 30
0.0
 10
345.2943438181563
 20
199.7987590051774
 30
0.0
  0
ELLIPSE
  5
57A3
330
A
100
AcDbEntity
  8
MODEL
 48
25.4
100
AcDbEllipse
 10
341.4250718181643
 20
200.0289320052284
 30
0.0
 11
-0.4999975000000156
 21
0.001608000000340171
 31
0.0
210
0.0
220
0.0
230
1.0
 40
0.9511430075000001
 41
0.0
 42
0.5085940451644545
  0
ELLIPSE
  5
57A4
330
A
100
AcDbEntity
  8
MODEL
 48
25.4
100
AcDbEllipse
 10
341.4250718181643
 20
200.0289320052284
 30
0.0
 11
-0.3490995000000192
 21
-0.3579519999999878
 31
0.0
210
0.0
220
0.0
230
1.0
 40
0.8969127514
 41
5.138701299611358
 42
5.936281834487818
  0
LINE
  5
57A5
330
A
100
AcDbEntity
  8
MODEL
 48
25.4
100
AcDbLine
 10
341.1375931579643
 20
199.0901021184284
 30
0.0
 11
341.1361008181643
 21
199.0921900052284
 31
0.0
  0
SPLINE
  5
57A6
330
A
100
AcDbEntity
  8
MODEL
 48
25.4
100
AcDbSpline
210
0.0
220
0.0
230
1.0
 70
     8
 71
     3
 72
    12
 73
     8
 74
     0
 42
0.000000001
 43
0.0000000001
 40
0.0
 40
0.0
 40
0.0
 40
0.0
 40
0.265738867481016
 40
0.265738867481016
 40
0.6766924887442881
 40
0.6766924887442881
 40
0.9999999999999999
 40
0.9999999999999999
 40
0.9999999999999999
 40
0.9999999999999999
 10
341.1361008181564
 20
199.0921900051774
 30
0.0
 10
341.1150008181563
 20
199.1219560051774
 30
0.0
 10
341.0956688181564
 20
199.1595500051774
 30
0.0
 10
341.0513338181564
 20
199.2761720051774
 30
0.0
 10
341.0291608181564
 20
199.3667010051774
 30
0.0
 10
341.0004338181564
 20
199.5710200051774
 30
0.0
 10
340.9915348181564
 20
199.6761350051774
 30
0.0
 10
340.9876148181564
 20
199.7987590051774
 30
0.0
  0
LINE
  5
57A7
330
A
100
AcDbEntity
  8
MODEL
 48
25.4
100
AcDbLine
 10
340.9883978181643
 20
200.1660010052284
 30
0.0
 11
342.9564878181644
 21
206.9326590052284
 31
0.0
  0
SPLINE
  5
57A8
330
A
100
AcDbEntity
  8
MODEL
 48
25.4
100
AcDbSpline
210
0.0
220
0.0
230
1.0
 70
     8
 71
     3
 72
    12
 73
     8
 74
     0
 42
0.000000001
 43
0.0000000001
 40
0.0
 40
0.0
 40
0.0
 40
0.0
 40
0.212341555379085
 40
0.212341555379085
 40
0.6276225577856853
 40
0.6276225577856853
 40
1.0
 40
1.0
 40
1.0
 40
1.0
 10
343.1489638181563
 20
207.2298780051774
 30
0.0
 10
343.1840958181563
 20
207.2700110051774
 30
0.0
 10
343.2177528181563
 20
207.3053350051774
 30
0.0
 10
343.3133278181563
 20
207.3982730051774
 30
0.0
 10
343.3714088181563
 20
207.4447910051774
 30
0.0
 10
343.4736258181563
 20
207.5130240051774
 30
0.0
 10
343.5187078181564
 20
207.5371750051774
 30
0.0
 10
343.5607988181563
 20
207.5543440051774
 30
0.0
  0
ARC
  5
57A9
330
A
100
AcDbEntity
  8
MODEL
 48
25.4
100
AcDbCircle
 10
376.2488158181644
 20
204.9187030052284
 30
0.0
 40
5.918228866169422
100
AcDbArc
 50
239.8957512197999
 51
300.1042571555001
  0
ARC
  5
57AA
330
A
100
AcDbEntity
  8
MODEL
 48
25.4
100
AcDbCircle
 10
343.3748928181644
 20
206.8103060052284
 30
0.0
 40
0.4765339192807674
100
AcDbArc
 50
118.3013502270994
 51
141.2607254515974
  0
ELLIPSE
  5
57AB
330
A
100
AcDbEntity
  8
MODEL
 48
25.4
100
AcDbEllipse
 10
378.8008158181643
 20
200.0289320052284
 30
0.0
 11
0.435413499999933
 21
0.245795000000111
 31
0.0
210
0.0
220
0.0
230
1.0
 40
0.9350382302
 41
5.234814977013738
 42
6.032392606400344
  0
ELLIPSE
  5
57AC
330
A
100
AcDbEntity
  8
MODEL
 48
25.4
100
AcDbEllipse
 10
345.6356068181643
 20
200.0289320052284
 30
0.0
 11
-0.2719170000000034
 21
0.419596500000001
 31
0.0
210
0.0
220
0.0
230
1.0
 40
0.8232175995
 41
0.7883562605095145
 42
1.585934905022706
  0
ARC
  5
57AD
330
A
100
AcDbEntity
  8
MODEL
 48
25.4
100
AcDbCircle
 10
343.3913108181644
 20
206.8620040052284
 30
0.0
 40
0.4405262174774462
100
AcDbArc
 50
123.3759805589971
 51
170.7705935699983
  0
ARC
  5
57AE
330
A
100
AcDbEntity
  8
MODEL
 48
25.4
100
AcDbCircle
 10
344.8453688181643
 20
201.6991600052284
 30
0.0
 40
5.563935946356834
100
AcDbArc
 50
70.15440956790009
 51
109.8455904320999
  0
ARC
  5
57AF
330
A
100
AcDbEntity
  8
MODEL
 48
25.4
100
AcDbCircle
 10
345.0646938181644
 20
202.3833890052284
 30
0.0
 40
5.211379573589042
100
AcDbArc
 50
68.43200334920012
 51
111.5679966507999
  0
LINE
  5
57B0
330
A
100
AcDbEntity
  8
MODEL
 48
25.4
100
AcDbLine
 10
353.8046138181643
 20
200.1660010052284
 30
0.0
 11
354.4957708181643
 21
206.9326590052284
 31
0.0
  0
ARC
  5
57B1
330
A
100
AcDbEntity
  8
MODEL
 48
25.4
100
AcDbCircle
 10
359.7222738181644
 20
207.8186090052284
 30
0.0
 40
5.30106040086575
100
AcDbArc
 50
186.3763716636002
 51
189.6208151118001
  0
ARC
  5
57B2
330
A
100
AcDbEntity
  8
MODEL
 48
25.4
100
AcDbCircle
 10
358.9884938181643
 20
176.7431920052284
 30
0.0
 40
30.52193437020028
100
AcDbArc
 50
81.53550353150001
 51
98.4644964685
  0
ARC
  5
57B3
330
A
100
AcDbEntity
  8
MODEL
 48
25.4
100
AcDbCircle
 10
371.3233988181643
 20
206.9981660052284
 30
0.0
 40
0.6011130119520212
100
AcDbArc
 50
353.7436997723019
 51
22.67301469370149
  0
ARC
  5
57B4
330
A
100
AcDbEntity
  8
MODEL
 48
25.4
100
AcDbCircle
 10
363.0557668181643
 20
206.7643650052284
 30
0.0
 40
0.691548382255304
100
AcDbArc
 50
14.08483179550088
 51
42.31032158110195
  0
ARC
  5
57B5
330
A
100
AcDbEntity
  8
MODEL
 48
25.4
100
AcDbCircle
 10
365.1773628181643
 20
206.6031660052284
 30
0.0
 40
1.727853161198372
100
AcDbArc
 50
158.7331953461005
 51
169.0066528675006
  0
ARC
  5
57B6
330
A
100
AcDbEntity
  8
MODEL
 48
25.4
100
AcDbCircle
 10
367.7226158181643
 20
183.6984780052284
 30
0.0
 40
23.89549087537982
100
AcDbArc
 50
79.98530944110001
 51
100.0146905589
  0
ELLIPSE
  5
57B7
330
A
100
AcDbEntity
  8
MODEL
 48
25.4
100
AcDbEllipse
 10
372.9965498181643
 20
200.0289320052284
 30
0.0
 11
-0.2233284999999808
 21
-0.4473524999999979
 31
0.0
210
0.0
220
0.0
230
1.0
 40
0.7226209776
 41
1.411801289224721
 42
2.20938147825822
  0
ELLIPSE
  5
57B8
330
A
100
AcDbEntity
  8
MODEL
 48
25.4
100
AcDbEllipse
 10
372.9965498181643
 20
200.0289320052284
 30
0.0
 11
0.175583
 21
-0.468156500000004
 31
0.0
210
0.0
220
0.0
230
1.0
 40
0.4764314267
 41
0.888764008030625
 42
1.686343268257636
  0
ARC
  5
57B9
330
A
100
AcDbEntity
  8
MODEL
 48
25.4
100
AcDbCircle
 10
376.9286118181644
 20
206.7875600052284
 30
0.0
 40
0.4990763069160858
100
AcDbArc
 50
16.90197050709968
 51
62.40867453460375
  0
ARC
  5
57BA
330
A
100
AcDbEntity
  8
MODEL
 48
25.4
100
AcDbCircle
 10
347.2409178181643
 20
206.7635640052284
 30
0.0
 40
0.534140309873742
100
AcDbArc
 50
119.1887556539013
 51
161.544121974899
  0
ELLIPSE
  5
57BB
330
A
100
AcDbEntity
  8
MODEL
 48
25.4
100
AcDbEllipse
 10
353.8486078181643
 20
200.0289320052284
 30
0.0
 11
-0.1753975000000005
 21
0.4682259999999952
 31
0.0
210
0.0
220
0.0
230
1.0
 40
0.4747116203
 41
1.102442496167638
 42
1.900021592740226
  0
ELLIPSE
  5
57BC
330
A
100
AcDbEntity
  8
MODEL
 48
25.4
100
AcDbEllipse
 10
363.8634078181643
 20
200.0289320052284
 30
0.0
 11
-0.1627449999999989
 21
-0.4727724999999892
 31
0.0
210
0.0
220
0.0
230
1.0
 40
0.316578004
 41
1.174131808161216
 42
1.971712467242579
  0
ELLIPSE
  5
57BD
330
A
100
AcDbEntity
  8
MODEL
 48
25.4
100
AcDbEllipse
 10
363.8634078181643
 20
200.0289320052284
 30
0.0
 11
0.1543744999999984
 21
-0.4755720000000142
 31
0.0
210
0.0
220
0.0
230
1.0
 40
0.0009929288
 41
1.06526085753556
 42
1.862840037651616
  0
ARC
  5
57BE
330
A
100
AcDbEntity
  8
MODEL
 48
25.4
100
AcDbCircle
 10
354.8476098181644
 20
206.7654710052284
 30
0.0
 40
0.6087669367319818
100
AcDbArc
 50
130.2825732911009
 51
164.0598011840012
  0
ARC
  5
57BF
330
A
100
AcDbEntity
  8
MODEL
 48
25.4
100
AcDbCircle
 10
358.8167808181643
 20
215.7788370052284
 30
0.0
 40
16.78081428674082
100
AcDbArc
 50
252.2287437889999
 51
287.771256211
  0
ARC
  5
57C0
330
A
100
AcDbEntity
  8
MODEL
 48
25.4
100
AcDbCircle
 10
374.7161398181643
 20
196.9432470052284
 30
0.0
 40
10.32319452818299
100
AcDbArc
 50
75.39035869550008
 51
104.6096413044999
  0
ARC
  5
57C1
330
A
100
AcDbEntity
  8
MODEL
 48
25.4
100
AcDbCircle
 10
374.5189108181643
 20
197.8431580052284
 30
0.0
 40
9.751134406196808
100
AcDbArc
 50
74.2866164927
 51
105.713377851
  0
ELLIPSE
  5
57C2
330
A
100
AcDbEntity
  8
MODEL
 48
25.4
100
AcDbEllipse
 10
353.8486078181643
 20
200.0289320052284
 30
0.0
 11
0.1567739999999984
 21
0.474785999999984
 31
0.0
210
0.0
220
0.0
230
1.0
 40
0.1742917716
 41
1.335916616875188
 42
2.133496506776142
  0
ARC
  5
57C3
330
A
100
AcDbEntity
  8
MODEL
 48
25.4
100
AcDbCircle
 10
376.8975538181643
 20
206.8967400052284
 30
0.0
 40
0.4239523437192134
100
AcDbArc
 50
4.860162342802144
 51
51.79392031409671
  0
LINE
  5
57C4
330
A
100
AcDbEntity
  8
MODEL
 48
25.4
100
AcDbLine
 10
373.3892308181643
 20
200.1660010052284
 30
0.0
 11
372.1122978181643
 21
206.9326590052284
 31
0.0
  0
ARC
  5
57C5
330
A
100
AcDbEntity
  8
MODEL
 48
25.4
100
AcDbCircle
 10
359.0105898181644
 20
178.8961900052284
 30
0.0
 40
28.69774091161896
100
AcDbArc
 50
80.86399740510004
 51
99.13600062369996
  0
ARC
  5
57C6
330
A
100
AcDbEntity
  8
MODEL
 48
25.4
100
AcDbCircle
 10
371.5887078181643
 20
206.7609270052284
 30
0.0
 40
0.551033908143611
100
AcDbArc
 50
18.15894509199719
 51
58.32477413760304
  0
ARC
  5
57C7
330
A
100
AcDbEntity
  8
MODEL
 48
25.4
100
AcDbCircle
 10
377.9105308181643
 20
206.8767440052284
 30
0.0
 40
0.3259960804212508
100
AcDbArc
 50
9.87623400080246
 51
37.89133875360213
  0
LINE
  5
57C8
330
A
100
AcDbEntity
  8
MODEL
 48
25.4
100
AcDbLine
 10
346.7342498181644
 20
206.9326590052284
 30
0.0
 11
345.1989318181643
 21
200.1660010052284
 31
0.0
  0
ELLIPSE
  5
57C9
330
A
100
AcDbEntity
  8
MODEL
 48
25.4
100
AcDbEllipse
 10
345.6356068181643
 20
200.0289320052284
 30
0.0
 11
0.1964509999999899
 21
0.4597899999999948
 31
0.0
210
0.0
220
0.0
230
1.0
 40
0.618460206
 41
1.536769761141262
 42
2.334348726509391
  0
ARC
  5
57CA
330
A
100
AcDbEntity
  8
MODEL
 48
25.4
100
AcDbCircle
 10
349.4946618181643
 20
210.4161330052284
 30
0.0
 40
11.41802530900157
100
AcDbArc
 50
248.4158526243
 51
291.5841520419
  0
LINE
  5
57CB
330
A
100
AcDbEntity
  8
MODEL
 48
25.4
100
AcDbLine
 10
363.4812168181643
 20
206.9326590052284
 30
0.0
 11
363.8194138181643
 21
200.1660010052284
 31
0.0
  0
ELLIPSE
  5
57CC
330
A
100
AcDbEntity
  8
MODEL
 48
25.4
100
AcDbEllipse
 10
343.3931628181643
 20
206.7955900052284
 30
0.0
 11
0.4801049999998696
 21
-0.139638999999997
 31
0.0
210
0.0
220
0.0
230
1.0
 40
0.0479361523
 41
2.726701001723497
 42
3.141592653593047
  0
ARC
  5
57CD
330
A
100
AcDbEntity
  8
MODEL
 48
25.4
100
AcDbCircle
 10
347.3669568181643
 20
206.9553700052284
 30
0.0
 40
0.4740911327508536
100
AcDbArc
 50
144.6183925722002
 51
182.745763693701
  0
ARC
  5
57CE
330
A
100
AcDbEntity
  8
MODEL
 48
25.4
100
AcDbCircle
 10
350.7172158181643
 20
188.2386460052284
 30
0.0
 40
19.35537392703922
100
AcDbArc
 50
78.8684553255
 51
101.131547579
  0
LINE
  5
57CF
330
A
100
AcDbEntity
  8
MODEL
 48
25.4
100
AcDbLine
 10
377.5842235661643
 20
207.5581936302284
 30
0.0
 11
377.5836188181643
 21
207.5584220052284
 31
0.0
  0
SPLINE
  5
57D0
330
A
100
AcDbEntity
  8
MODEL
 48
25.4
100
AcDbSpline
210
0.0
220
0.0
230
1.0
 70
     8
 71
     3
 72
    10
 73
     6
 74
     0
 42
0.000000001
 43
0.0000000001
 40
0.0
 40
0.0
 40
0.0
 40
0.0
 40
0.2276310362565439
 40
0.2276310362565439
 40
1.0
 40
1.0
 40
1.0
 40
1.0
 10
377.5836188181564
 20
207.5584220051774
 30
0.0
 10
377.5318068181563
 20
207.5778790051774
 30
0.0
 10
377.4846678181564
 20
207.5863200051774
 30
0.0
 10
377.2939188181563
 20
207.5945490051774
 30
0.0
 10
377.1877188181563
 20
207.5257990051774
 30
0.0
 10
377.1597648181564
 20
207.2298780051774
 30
0.0
  0
ARC
  5
57D1
330
A
100
AcDbEntity
  8
MODEL
 48
25.4
100
AcDbCircle
 10
368.6094808181643
 20
213.0301220052284
 30
0.0
 40
14.03161692919843
100
AcDbArc
 50
250.5560869939
 51
289.4439130061
  0
LINE
  5
57D2
330
A
100
AcDbEntity
  8
MODEL
 48
25.4
100
AcDbLine
 10
341.7033458181643
 20
198.5050700052284
 30
0.0
 11
379.4426838181644
 21
198.5050700052284
 31
0.0
  0
LINE
  5
57D3
330
A
100
AcDbEntity
  8
MODEL
 48
25.4
100
AcDbLine
 10
379.6468508181644
 20
198.6423190052284
 30
0.0
 11
341.4991788181644
 21
198.6423190052284
 31
0.0
  0
ELLIPSE
  5
57D4
330
A
100
AcDbEntity
  8
MODEL
 48
25.4
100
AcDbEllipse
 10
378.8008158181643
 20
200.0289320052284
 30
0.0
 11
0.4818709999999602
 21
0.1334180000000171
 31
0.0
210
0.0
220
0.0
230
1.0
 40
0.0979646604
 41
0.0885274930747665
 42
0.5916240958297485
  0
ELLIPSE
  5
57D5
330
A
100
AcDbEntity
  8
MODEL
 48
25.4
100
AcDbEllipse
 10
347.1709238181643
 20
206.7955900052284
 30
0.0
 11
-0.4876065000000464
 21
0.1106350000000256
 31
0.0
210
0.0
220
0.0
230
1.0
 40
0.1809925172
 41
5.358302273503719
 42
5.86140120208044
  0
LINE
  5
57D6
330
A
100
AcDbEntity
  8
MODEL
 48
25.4
100
AcDbLine
 10
377.3199818181644
 20
206.9326590052284
 30
0.0
 11
379.1934968181644
 21
200.1660010052284
 31
0.0
  0
ELLIPSE
  5
57D7
330
A
100
AcDbEntity
  8
MODEL
 48
25.4
100
AcDbEllipse
 10
378.8008158181643
 20
200.0289320052284
 30
0.0
 11
0.2726100000000621
 21
-0.4191464999999743
 31
0.0
210
0.0
220
0.0
230
1.0
 40
0.8242104739000001
 41
0.5735057322834157
 42
1.371085411744824
  0
ARC
  5
57D8
330
A
100
AcDbEntity
  8
MODEL
 48
25.4
100
AcDbCircle
 10
376.2913638181644
 20
205.5847480052284
 30
0.0
 40
6.146966324919804
100
AcDbArc
 50
241.8277132296997
 51
298.1722867703003
  0
ARC
  5
57D9
330
A
100
AcDbEntity
  8
MODEL
 48
25.4
100
AcDbCircle
 10
350.5778308181643
 20
186.6370030052284
 30
0.0
 40
20.6273750925012
100
AcDbArc
 50
79.71072880859991
 51
100.2892739244
  0
SPLINE
  5
57DA
330
A
100
AcDbEntity
  8
MODEL
 48
25.4
100
AcDbSpline
210
0.0
220
0.0
230
1.0
 70
     8
 71
     3
 72
    18
 73
    14
 74
     0
 42
0.000000001
 43
0.0000000001
 40
0.0
 40
0.0
 40
0.0
 40
0.0
 40
0.070129
 40
0.070129
 40
0.207089
 40
0.207089
 40
0.50001
 40
0.50001
 40
0.792931
 40
0.792931
 40
0.929943
 40
0.929943
 40
1.0
 40
1.0
 40
1.0
 40
1.0
 10
377.4061298181563
 20
206.9326590051774
 30
0.0
 10
377.4148308181564
 20
206.9692580051774
 30
0.0
 10
377.4248688181564
 20
207.0014530051774
 30
0.0
 10
377.4576118181564
 20
207.0860620051774
 30
0.0
 10
377.4832478181564
 20
207.1283790051774
 30
0.0
 10
377.5723768181563
 20
207.2311620051774
 30
0.0
 10
377.6453338181564
 20
207.2592270051774
 30
0.0
 10
377.8070898181563
 20
207.2592270051774
 30
0.0
 10
377.8959818181564
 20
207.2311610051774
 30
0.0
 10
378.0434768181564
 20
207.1283690051774
 30
0.0
 10
378.0931808181563
 20
207.0860110051774
 30
0.0
 10
378.1739618181563
 20
207.0013840051774
 30
0.0
 10
378.2022488181564
 20
206.9692180051774
 30
0.0
 10
378.2316958181564
 20
206.9326590051774
 30
0.0
  0
ELLIPSE
  5
57DB
330
A
100
AcDbEntity
  8
MODEL
 48
25.4
100
AcDbEllipse
 10
376.9273008181643
 20
206.7955900052284
 30
0.0
 11
0.4818709999999741
 21
0.133418000000024
 31
0.0
210
0.0
220
0.0
230
1.0
 40
0.0979646608
 41
0.0885274930737518
 42
0.591624095829238
  0
LINE
  5
57DC
330
A
100
AcDbEntity
  8
MODEL
 48
25.4
100
AcDbLine
 10
379.2796448181643
 20
200.1660010052284
 30
0.0
 11
377.4061298181643
 21
206.9326590052284
 31
0.0
  0
LINE
  5
57DD
330
A
100
AcDbEntity
  8
MODEL
 48
25.4
100
AcDbLine
 10
345.3580928181643
 20
200.1660010052284
 30
0.0
 11
346.8934098181643
 21
206.9326590052284
 31
0.0
  0
LINE
  5
57DE
330
A
100
AcDbEntity
  8
MODEL
 48
25.4
100
AcDbLine
 10
354.2622508181643
 20
206.9326590052284
 30
0.0
 11
353.5710938181643
 21
200.1660010052284
 31
0.0
  0
ELLIPSE
  5
57DF
330
A
100
AcDbEntity
  8
MODEL
 48
25.4
100
AcDbEllipse
 10
371.7196168181644
 20
206.7955900052284
 30
0.0
 11
0.491328000000027
 21
0.09271850000000526
 31
0.0
210
0.0
220
0.0
230
1.0
 40
0.2176159293
 41
0.6048700523199071
 42
1.107968734482152
  0
ELLIPSE
  5
57E0
330
A
100
AcDbEntity
  8
MODEL
 48
25.4
100
AcDbEllipse
 10
354.5397648181644
 20
206.7955900052284
 30
0.0
 11
-0.4974119999999894
 21
0.05080650000000025
 31
0.0
210
0.0
220
0.0
230
1.0
 40
0.2655520841999999
 41
4.828034580275194
 42
5.331132401992759
  0
ARC
  5
57E1
330
A
100
AcDbEntity
  8
MODEL
 48
25.4
100
AcDbCircle
 10
367.8237278181643
 20
181.7957890052284
 30
0.0
 40
25.46859466116094
100
AcDbArc
 50
80.74244003570001
 51
99.25755774390004
  0
LINE
  5
57E2
330
A
100
AcDbEntity
  8
MODEL
 48
25.4
100
AcDbLine
 10
371.9209318181643
 20
206.9326590052284
 30
0.0
 11
373.1978648181644
 21
200.1660010052284
 31
0.0
  0
ELLIPSE
  5
57E3
330
A
100
AcDbEntity
  8
MODEL
 48
25.4
100
AcDbEllipse
 10
363.5252098181643
 20
206.7955900052284
 30
0.0
 11
0.4993764999999956
 21
0.02495899999999108
 31
0.0
210
0.0
220
0.0
230
1.0
 40
0.2789571808
 41
1.141960859124567
 42
1.64505856586731
  0
LINE
  5
57E4
330
A
100
AcDbEntity
  8
MODEL
 48
25.4
100
AcDbLine
 10
378.2316958181643
 20
206.9326590052284
 30
0.0
 11
380.1997858181643
 21
200.1660010052284
 31
0.0
  0
SPLINE
  5
57E5
330
A
100
AcDbEntity
  8
MODEL
 48
25.4
100
AcDbSpline
210
0.0
220
0.0
230
1.0
 70
     8
 71
     3
 72
    18
 73
    14
 74
     0
 42
0.000000001
 43
0.0000000001
 40
0.0
 40
0.0
 40
0.0
 40
0.0
 40
0.105632
 40
0.105632
 40
0.2399
 40
0.2399
 40
0.500041
 40
0.500041
 40
0.760183
 40
0.760183
 40
0.88483
 40
0.88483
 40
1.0
 40
1.0
 40
1.0
 40
1.0
 10
380.1997858181563
 20
200.1660010051774
 30
0.0
 10
380.2001518181564
 20
200.0543400051774
 30
0.0
 10
380.1954718181564
 20
199.9586240051774
 30
0.0
 10
380.1756688181563
 20
199.7725750051774
 30
0.0
 10
380.1580508181564
 20
199.6901420051774
 30
0.0
 10
380.0903868181563
 20
199.5006990051774
 30
0.0
 10
380.0258928181564
 20
199.4428060051774
 30
0.0
 10
379.8641138181563
 20
199.4428060051774
 30
0.0
 10
379.7666878181564
 20
199.5007680051774
 30
0.0
 10
379.5958338181563
 20
199.6854960051774
 30
0.0
 10
379.5363178181564
 20
199.7608600051774
 30
0.0
 10
379.4120338181563
 20
199.9418820051774
 30
0.0
 10
379.3481458181564
 20
200.0446470051774
 30
0.0
 10
379.2796448181563
 20
200.1660010051774
 30
0.0
  0
ARC
  5
57E6
330
A
100
AcDbEntity
  8
MODEL
 48
25.4
100
AcDbCircle
 10
379.9640818181643
 20
200.0644950052284
 30
0.0
 40
0.2566314284184278
100
AcDbArc
 50
0.6282689366030425
 51
23.29914295760387
  0
LINE
  5
57E7
330
A
100
AcDbEntity
  8
MODEL
 48
25.4
100
AcDbLine
 10
364.0647228181643
 20
200.1660010052284
 30
0.0
 11
363.7265248181644
 21
206.9326590052284
 31
0.0
  0
ARC
  5
57E8
330
A
100
AcDbEntity
  8
MODEL
 48
25.4
100
AcDbCircle
 10
345.6646348181644
 20
202.3729430052284
 30
0.0
 40
5.591831941198054
100
AcDbArc
 50
215.9517560579998
 51
221.8479423870998
  0
ARC
  5
57E9
330
A
100
AcDbEntity
  8
MODEL
 48
25.4
100
AcDbCircle
 10
375.4813948181643
 20
202.3729430052284
 30
0.0
 40
5.591831463600678
100
AcDbArc
 50
318.1520576129001
 51
324.0523021192002
  0
LINE
  5
57EA
330
A
100
AcDbEntity
  8
MODEL
 48
25.4
100
AcDbLine
 10
375.5444768181644
 20
197.7087540052284
 30
0.0
 11
345.6015528181644
 21
197.7087540052284
 31
0.0
  0
ELLIPSE
  5
57EB
330
A
100
AcDbEntity
  8
MODEL
 48
25.4
100
AcDbEllipse
 10
341.4250718181643
 20
200.0289320052284
 30
0.0
 11
0.4801049999998802
 21
-0.1396390000000941
 31
0.0
210
0.0
220
0.0
230
1.0
 40
0.0479361582
 41
2.726701001724644
 42
3.141592653587707
  0
ELLIPSE
  5
57EC
330
A
100
AcDbEntity
  8
MODEL
 48
25.4
100
AcDbEllipse
 10
345.6356068181643
 20
200.0289320052284
 30
0.0
 11
-0.4876065000000014
 21
0.1106350000000048
 31
0.0
210
0.0
220
0.0
230
1.0
 40
0.1809925217
 41
5.358302273503954
 42
5.861401202080368
  0
SPLINE
  5
57ED
330
A
100
AcDbEntity
  8
MODEL
 48
25.4
100
AcDbSpline
210
0.0
220
0.0
230
1.0
 70
     8
 71
     3
 72
    17
 73
    13
 74
     0
 42
0.000000001
 43
0.0000000001
 40
0.0
 40
0.0
 40
0.0
 40
0.0
 40
0.172598
 40
0.172598
 40
0.172598
 40
0.481353
 40
0.481353
 40
0.481353
 40
0.780177
 40
0.780177
 40
0.780177
 40
1.0
 40
1.0
 40
1.0
 40
1.0
 10
345.1989318181563
 20
200.1660010051774
 30
0.0
 10
344.9174638181564
 20
199.9835970051774
 30
0.0
 10
344.6420238181564
 20
199.8440030051774
 30
0.0
 10
344.3729738181564
 20
199.7367180051774
 30
0.0
 10
343.8916788181563
 20
199.5447990051774
 30
0.0
 10
343.4283908181563
 20
199.4538650051774
 30
0.0
 10
342.9864598181563
 20
199.4437260051774
 30
0.0
 10
342.5587438181564
 20
199.4339140051774
 30
0.0
 10
342.1497798181563
 20
199.5000240051774
 30
0.0
 10
341.7701578181563
 20
199.6556720051774
 30
0.0
 10
341.4908978181563
 20
199.7701700051774
 30
0.0
 10
341.2258668181564
 20
199.9344050051774
 30
0.0
 10
340.9883978181563
 20
200.1660010051774
 30
0.0
  0
ELLIPSE
  5
57EE
330
A
100
AcDbEntity
  8
MODEL
 48
25.4
100
AcDbEllipse
 10
372.9965498181643
 20
200.0289320052284
 30
0.0
 11
0.491328000000027
 21
0.09271849999999832
 31
0.0
210
0.0
220
0.0
230
1.0
 40
0.2176159267
 41
0.6048700523198345
 42
1.107968734482058
  0
ARC
  5
57EF
330
A
100
AcDbEntity
  8
MODEL
 48
25.4
100
AcDbCircle
 10
349.4645928181644
 20
211.3173600052284
 30
0.0
 40
11.88344014992635
100
AcDbArc
 50
249.7837158392002
 51
290.2162886852
  0
ELLIPSE
  5
57F0
330
A
100
AcDbEntity
  8
MODEL
 48
25.4
100
AcDbEllipse
 10
353.8486078181643
 20
200.0289320052284
 30
0.0
 11
-0.4974120000000026
 21
0.05080649999999326
 31
0.0
210
0.0
220
0.0
230
1.0
 40
0.2655520866
 41
4.828034580275229
 42
5.331132401992658
  0
ARC
  5
57F1
330
A
100
AcDbEntity
  8
MODEL
 48
25.4
100
AcDbCircle
 10
368.6312938181644
 20
214.0828590052284
 30
0.0
 40
14.64692825442264
100
AcDbArc
 50
251.8336644711999
 51
288.1663355288001
  0
ELLIPSE
  5
57F2
330
A
100
AcDbEntity
  8
MODEL
 48
25.4
100
AcDbEllipse
 10
363.8634078181643
 20
200.0289320052284
 30
0.0
 11
0.4993764999999886
 21
0.02495900000002578
 31
0.0
210
0.0
220
0.0
230
1.0
 40
0.2789571835
 41
1.141960859124215
 42
1.645058565867607
  0
ARC
  5
57F3
330
A
100
AcDbEntity
  8
MODEL
 48
25.4
100
AcDbCircle
 10
358.8120138181644
 20
216.9450220052284
 30
0.0
 40
17.51027128511836
100
AcDbArc
 50
253.383203064
 51
286.616796936
  0
LINE
  5
57F4
330
A
100
AcDbEntity
  8
MODEL
 48
25.4
100
AcDbLine
 10
344.0392588181643
 20
207.7233390052284
 30
0.0
 11
377.1067708181644
 21
207.7233390052284
 31
0.0
  0
LINE
  5
58EA
330
A
100
AcDbEntity
  8
DIM
  6
HIDDEN
 48
0.01
100
AcDbLine
 10
229.057455073341
 20
215.8520987276285
 30
0.0
 11
229.057455073341
 21
189.4110987276284
 31
0.0
  0
VIEWPORT
  5
349
330
B
100
AcDbEntity
 67
     1
  8
0
100
AcDbViewport
 10
202.5
 20
128.5
 30
0.0
 40
486.0
 41
308.4
 68
     1
 69
     1
 12
202.5
 22
128.5
 13
0.0
 23
0.0
 14
0.5
 24
0.5
 15
0.0
 25
0.0
 16
0.0
 26
0.0
 36
1.0
 17
0.0
 27
0.0
 37
0.0
 42
50.0
 43
0.0
 44
0.0
 45
308.4
 50
0.0
 51
0.0
 72
   100
 90
   557152
  1

281
     0
 71
     1
 74
     0
110
0.0
120
0.0
130
0.0
111
1.0
121
0.0
131
0.0
112
0.0
122
1.0
132
0.0
 79
     0
146
0.0
170
     0
 61
     5
348
26C
292
     1
282
     1
141
0.0
142
0.0
 63
   256
  0
VIEWPORT
  5
34A
330
B
100
AcDbEntity
 67
     1
  8
0
100
AcDbViewport
 10
202.5
 20
128.5
 30
0.0
 40
324.0
 41
205.6
 68
     2
 69
     2
 12
986.6781359294573
 22
1427.077061889956
 13
0.0
 23
0.0
 14
0.5
 24
0.5
 15
0.0
 25
0.0
 16
0.0
 26
0.0
 36
1.0
 17
0.0
 27
0.0
 37
0.0
 42
50.0
 43
0.0
 44
0.0
 45
2890.021615685494
 50
0.0
 51
0.0
 72
   100
 90
   557152
  1

281
     0
 71
     1
 74
     0
110
0.0
120
0.0
130
0.0
111
1.0
121
0.0
131
0.0
112
0.0
122
1.0
132
0.0
 79
     0
146
0.0
170
     0
 61
     5
348
26C
292
     1
282
     1
141
0.0
142
0.0
 63
   256
  0
ENDSEC
  0
SECTION
  2
OBJECTS
  0
DICTIONARY
  5
19
330
0
100
AcDbDictionary
281
     1
  3
ACAD_COLOR
350
674
  3
ACAD_DETAILVIEWSTYLE
350
BBF
  3
ACAD_FIELDLIST
350
44C1
  3
ACAD_GROUP
350
1A
  3
ACAD_IMAGE_VARS
350
27B
  3
ACAD_LAYOUT
350
1E
  3
ACAD_MATERIAL
350
263
  3
ACAD_MLEADERSTYLE
350
336
  3
ACAD_MLINESTYLE
350
1B
  3
ACAD_PLOTSETTINGS
350
22
  3
ACAD_PLOTSTYLENAME
350
1F
  3
ACAD_SCALELIST
350
241
  3
ACAD_SECTIONVIEWSTYLE
350
BC0
  3
ACAD_TABLESTYLE
350
278
  3
ACAD_VISUALSTYLE
350
267
  3
ACDB_RECOMPOSE_DATA
350
5926
  3
AcDbVariableDictionary
350
330
  3
APPDATA
350
27A
  3
DimOffsetDictionary
350
E38
  0
SUN
  5
904
330
15
100
AcDbSun
 90
        1
290
     0
 63
     7
421
 16777215
 40
1.0
291
     1
 91
  2455826
 92
 54000000
292
     0
 70
     2
 71
   256
280
     1
  0
DICTIONARY
  5
2E1
330
2
100
AcDbDictionary
280
     1
281
     1
  3
ACAD_LAYERSTATES
360
2E2
  3
ACLYDICTIONARY
360
DDE
  0
DICTIONARY
  5
4532
330
4530
100
AcDbDictionary
280
     1
281
     1
  3
ACAD_FIELD
360
4539
  0
DICTIONARY
  5
674
102
{ACAD_REACTORS
330
19
102
}
330
19
100
AcDbDictionary
281
     1
  0
DICTIONARY
  5
BBF
102
{ACAD_REACTORS
330
19
102
}
330
19
100
AcDbDictionary
281
     1
  0
FIELDLIST
  5
44C1
102
{ACAD_REACTORS
330
19
102
}
330
19
100
AcDbIdSet
 90
        2
330
4534
330
4531
100
AcDbFieldList
  0
DICTIONARY
  5
1A
102
{ACAD_REACTORS
330
19
102
}
330
19
100
AcDbDictionary
281
     1
  3
*A6
350
5706
  0
RASTERVARIABLES
  5
27B
102
{ACAD_REACTORS
330
19
102
}
330
19
100
AcDbRasterVariables
 90
        0
 70
     1
 71
     1
 72
     1
  0
DICTIONARY
  5
1E
102
{ACAD_REACTORS
330
19
102
}
330
19
100
AcDbDictionary
281
     1
  3
Layout1
350
21
  3
Model
350
20
  0
DICTIONARY
  5
263
102
{ACAD_REACTORS
330
19
102
}
330
19
100
AcDbDictionary
281
     1
  3
ByBlock
350
58B6
  3
ByLayer
350
264
  3
Global
350
266
  0
DICTIONARY
  5
336
102
{ACAD_REACTORS
330
19
102
}
330
19
100
AcDbDictionary
281
     1
  3
Standard
350
D59
  0
DICTIONARY
  5
1B
102
{ACAD_REACTORS
330
19
102
}
330
19
100
AcDbDictionary
281
     1
  3
Standard
350
1C
  0
DICTIONARY
  5
22
102
{ACAD_REACTORS
330
19
102
}
330
19
100
AcDbDictionary
281
     1
  0
ACDBDICTIONARYWDFLT
  5
1F
102
{ACAD_REACTORS
330
19
102
}
330
19
100
AcDbDictionary
281
     1
  3
Normal
350
1D
100
AcDbDictionaryWithDefault
340
1D
  0
DICTIONARY
  5
241
102
{ACAD_REACTORS
330
19
102
}
330
19
100
AcDbDictionary
281
     1
  3
A0
350
242
  3
A1
350
243
  3
A2
350
244
  3
A3
350
245
  3
A4
350
246
  3
A5
350
247
  3
A6
350
248
  3
A7
350
249
  3
A8
350
24A
  3
A9
350
24B
  3
B0
350
24C
  3
B1
350
24D
  3
B2
350
24E
  3
B3
350
24F
  3
B4
350
250
  3
B5
350
251
  3
B6
350
252
  3
B7
350
253
  3
B8
350
254
  3
B9
350
255
  3
C0
350
256
  3
C1
350
257
  3
C2
350
258
  3
C3
350
259
  3
C4
350
25A
  3
C5
350
25B
  3
C6
350
25C
  3
C7
350
25D
  3
C8
350
25E
  3
C9
350
25F
  3
D0
350
260
  3
D1
350
261
  3
D2
350
262
  0
DICTIONARY
  5
BC0
102
{ACAD_REACTORS
330
19
102
}
330
19
100
AcDbDictionary
281
     1
  0
DICTIONARY
  5
278
102
{ACAD_REACTORS
330
19
102
}
330
19
100
AcDbDictionary
281
     1
  3
Standard
350
279
  0
DICTIONARY
  5
267
102
{ACAD_REACTORS
330
19
102
}
330
19
100
AcDbDictionary
281
     1
  3
2dWireframe
350
26C
  3
3D Hidden
350
26E
  3
3dWireframe
350
26D
  3
Basic
350
26F
  3
Brighten
350
273
  3
ColorChange
350
277
  3
Conceptual
350
271
  3
Dim
350
272
  3
EdgeColorOff
350
8FE
  3
Facepattern
350
276
  3
Flat
350
268
  3
FlatWithEdges
350
269
  3
Gouraud
350
26A
  3
GouraudWithEdges
350
26B
  3
Hidden
350
8FB
  3
JitterOff
350
8FC
  3
Linepattern
350
275
  3
OverhangOff
350
8FD
  3
Realistic
350
270
  3
Shaded
350
903
  3
Shaded with edges
350
902
  3
Shades of Gray
350
8FF
  3
Sketchy
350
900
  3
Thicken
350
274
  3
Wireframe
350
8FA
  3
X-Ray
350
901
  0
XRECORD
  5
5926
102
{ACAD_REACTORS
330
19
102
}
330
19
100
AcDbXrecord
280
     1
 90
        1
330
279
  0
DICTIONARY
  5
330
102
{ACAD_REACTORS
330
19
102
}
330
19
100
AcDbDictionary
281
     1
  3
CANNOSCALE
350
331
  3
CMLEADERSTYLE
350
D5E
  3
CTABLESTYLE
350
335
  3
HPTRANSPARENCY
350
D52
  3
XCLIPFRAME
350
896
  0
DICTIONARY
  5
27A
102
{ACAD_REACTORS
330
19
102
}
330
19
100
AcDbDictionary
281
     1
  0
DICTIONARY
  5
E38
102
{ACAD_REACTORS
330
19
102
}
330
19
100
AcDbDictionary
281
     1
  3
DIMRAILANGLE
350
38B2
  3
DIMRAILFIRSTOFFSET
350
38B0
  3
DIMRAILOFFSET
350
38B1
  3
DIMRAILSENABLED
350
38B3
  0
DICTIONARY
  5
2E2
102
{ACAD_REACTORS
330
2E1
102
}
330
2E1
100
AcDbDictionary
281
     1
  3
ARGON_LAYERP_9
350
7AA
  0
DICTIONARY
  5
DDE
102
{ACAD_REACTORS
330
2E1
102
}
330
2E1
100
AcDbDictionary
281
     1
1001
ACAD
1000
<All
  0
DICTIONARY
  5
4539
102
{ACAD_REACTORS
330
4532
102
}
330
4532
100
AcDbDictionary
280
     1
281
     1
  3
TEXT
360
4531
  0
GROUP
  5
5706
102
{ACAD_REACTORS
330
1A
102
}
330
1A
100
AcDbGroup
300

 70
     1
 71
     1
340
5677
340
5678
340
5610
340
5611
340
5612
340
5613
340
5614
340
5615
340
5616
340
5617
340
5618
340
5619
340
561A
340
561B
340
561C
340
561D
340
561E
340
561F
340
5620
340
5621
340
5622
340
5623
340
5624
340
5629
340
562A
340
562B
340
562C
340
562D
340
562E
340
562F
340
5630
340
5631
340
5632
340
5633
340
5634
340
5635
340
5636
340
5639
340
563A
340
563B
340
563C
340
563D
340
563E
340
563F
340
5640
340
5641
340
5642
340
5643
340
5644
340
5645
340
5646
340
5647
340
5648
340
5649
340
564A
340
564B
340
564C
340
564D
340
564E
340
564F
340
5650
340
5651
340
5652
340
5653
340
5654
340
5655
340
5656
340
5657
340
5658
340
5659
340
565A
340
565B
340
565C
340
565D
340
565E
340
565F
340
5660
340
5662
340
5663
340
5664
340
5666
340
5667
340
5668
340
5669
340
566A
340
566B
340
566C
340
566E
340
5670
340
5671
340
5672
340
5676
340
567A
340
567B
340
5673
340
5674
340
5679
340
5675
340
5705
  0
LAYOUT
  5
21
102
{ACAD_REACTORS
330
1E
102
}
330
1E
100
AcDbPlotSettings
  1

  2
none_device
  4
ISO_A3_(420.00_x_297.00_MM)
  6

 40
7.5
 41
20.0
 42
7.5
 43
20.0
 44
420.0
 45
297.0
 46
0.0
 47
0.0
 48
0.0
 49
0.0
140
0.0
141
0.0
142
1.0
143
1.0
 70
     0
 72
     1
 73
     0
 74
     0
  7

 75
     0
 76
     0
 77
     2
 78
   300
147
1.0
148
0.0
149
0.0
100
AcDbLayout
  1
Layout1
 70
     0
 71
     0
 10
-7.5
 20
-20.0
 11
412.5
 21
277.0
 12
0.0
 22
0.0
 32
0.0
 14
0.0
 24
0.0
 34
0.0
 15
0.0
 25
0.0
 35
0.0
146
0.0
 13
0.0
 23
0.0
 33
0.0
 16
0.0
 26
0.0
 36
0.0
 17
0.0
 27
0.0
 37
0.0
 76
     0
330
B
331
349
  0
LAYOUT
  5
20
102
{ACAD_REACTORS
330
1E
102
}
330
1E
100
AcDbPlotSettings
  1

  2
none_device
  4
ISO_A3_(420.00_x_297.00_MM)
  6

 40
7.5
 41
20.0
 42
7.5
 43
20.0
 44
420.0
 45
297.0
 46
0.0
 47
0.0
 48
0.0
 49
0.0
140
0.0
141
0.0
142
1.0
143
1.0
 70
  1024
 72
     1
 73
     0
 74
     0
  7

 75
     0
 76
     0
 77
     2
 78
   300
147
1.0
148
0.0
149
0.0
100
AcDbLayout
  1
Model
 70
     0
 71
     1
 10
0.0
 20
0.0
 11
420.0
 21
594.0
 12
0.0
 22
0.0
 32
0.0
 14
0.0
 24
0.0
 34
-0.0000000000000142
 15
420.0
 25
594.0
 35
0.0000000000000142
146
0.0
 13
0.0
 23
0.0
 33
0.0
 16
0.0
 26
0.0
 36
0.0
 17
0.0
 27
0.0
 37
0.0
 76
     0
330
A
331
15
  0
MATERIAL
  5
58B6
102
{ACAD_REACTORS
330
263
102
}
330
263
100
AcDbMaterial
  1
ByBlock
 72
     1
 94
      127
  0
MATERIAL
  5
264
102
{ACAD_REACTORS
330
263
102
}
330
263
100
AcDbMaterial
  1
ByLayer
 72
     1
 94
      127
  0
MATERIAL
  5
266
102
{ACAD_REACTORS
330
263
102
}
330
263
100
AcDbMaterial
  1
Global
 72
     1
 94
      127
  0
MLEADERSTYLE
  5
D59
102
{ACAD_REACTORS
330
336
102
}
330
336
100
AcDbMLeaderStyle
170
     2
171
     1
172
     0
 90
        2
 40
0.0
 41
0.0
173
     1
 91
-1056964608
340
11
 92
       -2
290
     1
 42
2.0
291
     1
 43
8.0
  3
Standard
341
0
 44
4.0
300

342
17
174
     1
178
     6
175
     1
176
     0
 93
-1056964608
 45
4.0
292
     0
297
     0
 46
4.0
343
0
 94
-1056964608
 47
1.0
 49
1.0
140
1.0
293
     1
141
0.0
294
     1
177
     0
142
1.0
295
     0
296
     0
143
3.75
1001
ACAD_MLEADERVER
1070
     2
  0
MLINESTYLE
  5
1C
102
{ACAD_REACTORS
330
1B
102
}
330
1B
100
AcDbMlineStyle
  2
Standard
 70
     0
  3

 62
     0
 51
90.0
 52
90.0
 71
     2
 49
0.5
 62
   256
  6
BYLAYER
 49
-0.5
 62
   256
  6
BYLAYER
  0
ACDBPLACEHOLDER
  5
1D
102
{ACAD_REACTORS
330
1F
102
}
330
1F
  0
SCALE
  5
242
102
{ACAD_REACTORS
330
241
102
}
330
241
100
AcDbScale
 70
     0
300
1:1
140
1.0
141
1.0
290
     1
  0
SCALE
  5
243
102
{ACAD_REACTORS
330
241
102
}
330
241
100
AcDbScale
 70
     0
300
1:2
140
1.0
141
2.0
290
     0
  0
SCALE
  5
244
102
{ACAD_REACTORS
330
241
102
}
330
241
100
AcDbScale
 70
     0
300
1:4
140
1.0
141
4.0
290
     0
  0
SCALE
  5
245
102
{ACAD_REACTORS
330
241
102
}
330
241
100
AcDbScale
 70
     0
300
1:5
140
1.0
141
5.0
290
     0
  0
SCALE
  5
246
102
{ACAD_REACTORS
330
241
102
}
330
241
100
AcDbScale
 70
     0
300
1:8
140
1.0
141
8.0
290
     0
  0
SCALE
  5
247
102
{ACAD_REACTORS
330
241
102
}
330
241
100
AcDbScale
 70
     0
300
1:10
140
1.0
141
10.0
290
     0
  0
SCALE
  5
248
102
{ACAD_REACTORS
330
241
102
}
330
241
100
AcDbScale
 70
     0
300
1:16
140
1.0
141
16.0
290
     0
  0
SCALE
  5
249
102
{ACAD_REACTORS
330
241
102
}
330
241
100
AcDbScale
 70
     0
300
1:20
140
1.0
141
20.0
290
     0
  0
SCALE
  5
24A
102
{ACAD_REACTORS
330
241
102
}
330
241
100
AcDbScale
 70
     0
300
1:30
140
1.0
141
30.0
290
     0
  0
SCALE
  5
24B
102
{ACAD_REACTORS
330
241
102
}
330
241
100
AcDbScale
 70
     0
300
1:40
140
1.0
141
40.0
290
     0
  0
SCALE
  5
24C
102
{ACAD_REACTORS
330
241
102
}
330
241
100
AcDbScale
 70
     0
300
1:50
140
1.0
141
50.0
290
     0
  0
SCALE
  5
24D
102
{ACAD_REACTORS
330
241
102
}
330
241
100
AcDbScale
 70
     0
300
1:100
140
1.0
141
100.0
290
     0
  0
SCALE
  5
24E
102
{ACAD_REACTORS
330
241
102
}
330
241
100
AcDbScale
 70
     0
300
2:1
140
2.0
141
1.0
290
     0
  0
SCALE
  5
24F
102
{ACAD_REACTORS
330
241
102
}
330
241
100
AcDbScale
 70
     0
300
4:1
140
4.0
141
1.0
290
     0
  0
SCALE
  5
250
102
{ACAD_REACTORS
330
241
102
}
330
241
100
AcDbScale
 70
     0
300
8:1
140
8.0
141
1.0
290
     0
  0
SCALE
  5
251
102
{ACAD_REACTORS
330
241
102
}
330
241
100
AcDbScale
 70
     0
300
10:1
140
10.0
141
1.0
290
     0
  0
SCALE
  5
252
102
{ACAD_REACTORS
330
241
102
}
330
241
100
AcDbScale
 70
     0
300
100:1
140
100.0
141
1.0
290
     0
  0
SCALE
  5
253
102
{ACAD_REACTORS
330
241
102
}
330
241
100
AcDbScale
 70
     0
300
1/128" = 1'-0"
140
0.0078125
141
12.0
290
     0
  0
SCALE
  5
254
102
{ACAD_REACTORS
330
241
102
}
330
241
100
AcDbScale
 70
     0
300
1/64" = 1'-0"
140
0.015625
141
12.0
290
     0
  0
SCALE
  5
255
102
{ACAD_REACTORS
330
241
102
}
330
241
100
AcDbScale
 70
     0
300
1/32" = 1'-0"
140
0.03125
141
12.0
290
     0
  0
SCALE
  5
256
102
{ACAD_REACTORS
330
241
102
}
330
241
100
AcDbScale
 70
     0
300
1/16" = 1'-0"
140
0.0625
141
12.0
290
     0
  0
SCALE
  5
257
102
{ACAD_REACTORS
330
241
102
}
330
241
100
AcDbScale
 70
     0
300
3/32" = 1'-0"
140
0.09375
141
12.0
290
     0
  0
SCALE
  5
258
102
{ACAD_REACTORS
330
241
102
}
330
241
100
AcDbScale
 70
     0
300
1/8" = 1'-0"
140
0.125
141
12.0
290
     0
  0
SCALE
  5
259
102
{ACAD_REACTORS
330
241
102
}
330
241
100
AcDbScale
 70
     0
300
3/16" = 1'-0"
140
0.1875
141
12.0
290
     0
  0
SCALE
  5
25A
102
{ACAD_REACTORS
330
241
102
}
330
241
100
AcDbScale
 70
     0
300
1/4" = 1'-0"
140
0.25
141
12.0
290
     0
  0
SCALE
  5
25B
102
{ACAD_REACTORS
330
241
102
}
330
241
100
AcDbScale
 70
     0
300
3/8" = 1'-0"
140
0.375
141
12.0
290
     0
  0
SCALE
  5
25C
102
{ACAD_REACTORS
330
241
102
}
330
241
100
AcDbScale
 70
     0
300
1/2" = 1'-0"
140
0.5
141
12.0
290
     0
  0
SCALE
  5
25D
102
{ACAD_REACTORS
330
241
102
}
330
241
100
AcDbScale
 70
     0
300
3/4" = 1'-0"
140
0.75
141
12.0
290
     0
  0
SCALE
  5
25E
102
{ACAD_REACTORS
330
241
102
}
330
241
100
AcDbScale
 70
     0
300
1" = 1'-0"
140
1.0
141
12.0
290
     0
  0
SCALE
  5
25F
102
{ACAD_REACTORS
330
241
102
}
330
241
100
AcDbScale
 70
     0
300
1-1/2" = 1'-0"
140
1.5
141
12.0
290
     0
  0
SCALE
  5
260
102
{ACAD_REACTORS
330
241
102
}
330
241
100
AcDbScale
 70
     0
300
3" = 1'-0"
140
3.0
141
12.0
290
     0
  0
SCALE
  5
261
102
{ACAD_REACTORS
330
241
102
}
330
241
100
AcDbScale
 70
     0
300
6" = 1'-0"
140
6.0
141
12.0
290
     0
  0
SCALE
  5
262
102
{ACAD_REACTORS
330
241
102
}
330
241
100
AcDbScale
 70
     0
300
1'-0" = 1'-0"
140
12.0
141
12.0
290
     0
  0
TABLESTYLE
  5
279
102
{ACAD_REACTORS
330
278
102
}
102
{ACAD_XDICTIONARY
360
5924
102
}
330
278
100
AcDbTableStyle
  3
Standard
 70
     0
 71
     0
 40
0.06
 41
0.06
280
     0
281
     0
  7
Standard
140
4.5
170
     2
 62
     0
 63
   257
283
     0
 90
        4
 91
        0
  1

274
    -2
284
     1
 64
     0
275
    -2
285
     1
 65
     0
276
    -2
286
     1
 66
     0
277
    -2
287
     1
 67
     0
278
    -2
288
     1
 68
     0
279
    -2
289
     1
 69
     0
  7
Standard
140
6.0
170
     5
 62
     0
 63
   257
283
     0
 90
        4
 91
        0
  1

274
    -2
284
     1
 64
     0
275
    -2
285
     1
 65
     0
276
    -2
286
     1
 66
     0
277
    -2
287
     1
 67
     0
278
    -2
288
     1
 68
     0
279
    -2
289
     1
 69
     0
  7
Standard
140
4.5
170
     5
 62
     0
 63
   257
283
     0
 90
        4
 91
        0
  1

274
    -2
284
     1
 64
     0
275
    -2
285
     1
 65
     0
276
    -2
286
     1
 66
     0
277
    -2
287
     1
 67
     0
278
    -2
288
     1
 68
     0
279
    -2
289
     1
 69
     0
  0
VISUALSTYLE
  5
26C
102
{ACAD_REACTORS
330
267
102
}
330
267
100
AcDbVisualStyle
  2
2dWireframe
 70
     4
 71
     0
 72
     2
 73
     0
 90
        0
 40
-0.6
 41
-30.0
 62
     5
 63
     7
421
 16777215
 74
     1
 91
        4
 64
     7
 65
   257
 75
     1
175
     1
 42
1.0
 92
        0
 66
   257
 43
1.0
 76
     1
 77
     6
 78
     2
 67
     7
 79
     5
170
     0
171
     0
290
     0
174
     0
 93
        1
 44
0.0
173
     0
291
     0
 45
0.0
  0
VISUALSTYLE
  5
26E
102
{ACAD_REACTORS
330
267
102
}
330
267
100
AcDbVisualStyle
  2
3D Hidden
 70
     6
 71
     1
 72
     2
 73
     2
 90
        0
 40
-0.6
 41
-30.0
 62
     5
 63
     7
421
 16777215
 74
     2
 91
        2
 64
     7
 65
   257
 75
     2
175
     1
 42
40.0
 92
        0
 66
   257
 43
1.0
 76
     1
 77
     6
 78
     2
 67
     7
 79
     3
170
     0
171
     0
290
     0
174
     0
 93
        1
 44
0.0
173
     0
291
     0
 45
0.0
  0
VISUALSTYLE
  5
26D
102
{ACAD_REACTORS
330
267
102
}
330
267
100
AcDbVisualStyle
  2
3dWireframe
 70
     5
 71
     0
 72
     2
 73
     0
 90
        0
 40
-0.6
 41
-30.0
 62
     5
 63
     7
421
 16777215
 74
     1
 91
        4
 64
     7
 65
   257
 75
     1
175
     1
 42
1.0
 92
        0
 66
   257
 43
1.0
 76
     1
 77
     6
 78
     2
 67
     7
 79
     5
170
     0
171
     0
290
     0
174
     0
 93
        1
 44
0.0
173
     0
291
     0
 45
0.0
  0
VISUALSTYLE
  5
26F
102
{ACAD_REACTORS
330
267
102
}
330
267
100
AcDbVisualStyle
  2
Basic
 70
     7
 71
     1
 72
     0
 73
     1
 90
        0
 40
-0.6
 41
-30.0
 62
     5
 63
     7
421
 16777215
 74
     0
 91
        4
 64
     7
 65
   257
 75
     1
175
     1
 42
1.0
 92
        8
 66
     7
 43
1.0
 76
     1
 77
     6
 78
     2
 67
     7
 79
     5
170
     0
171
     0
290
     0
174
     0
 93
        1
 44
0.0
173
     0
291
     1
 45
0.0
  0
VISUALSTYLE
  5
273
102
{ACAD_REACTORS
330
267
102
}
330
267
100
AcDbVisualStyle
  2
Brighten
 70
    12
 71
     2
 72
     2
 73
     0
 90
        0
 40
-0.6
 41
-30.0
 62
     5
 63
     7
421
 16777215
 74
     1
 91
        4
 64
     7
 65
   257
 75
     1
175
     1
 42
1.0
 92
        8
 66
     7
 43
1.0
 76
     1
 77
     6
 78
     2
 67
     7
 79
     5
170
     0
171
     0
290
     0
174
     0
 93
        1
 44
50.0
173
     0
291
     1
 45
0.0
  0
VISUALSTYLE
  5
277
102
{ACAD_REACTORS
330
267
102
}
330
267
100
AcDbVisualStyle
  2
ColorChange
 70
    16
 71
     2
 72
     2
 73
     3
 90
        0
 40
-0.6
 41
-30.0
 62
     5
 63
     8
421
  8421504
 74
     1
 91
        4
 64
     7
 65
   257
 75
     1
175
     1
 42
1.0
 92
        8
 66
     8
424
  8421504
 43
1.0
 76
     1
 77
     6
 78
     2
 67
     7
 79
     5
170
     0
171
     0
290
     0
174
     0
 93
        1
 44
0.0
173
     0
291
     1
 45
0.0
  0
VISUALSTYLE
  5
271
102
{ACAD_REACTORS
330
267
102
}
330
267
100
AcDbVisualStyle
  2
Conceptual
 70
     9
 71
     3
 72
     2
 73
     0
 90
        0
 40
-0.6
 41
-30.0
 62
     5
 63
     7
421
 16777215
 74
     2
 91
        2
 64
     7
 65
   257
 75
     1
175
     1
 42
40.0
 92
        8
 66
     7
 43
1.0
 76
     1
 77
     6
 78
     2
 67
     7
 79
     3
170
     0
171
     0
290
     0
174
     0
 93
        1
 44
0.0
173
     0
291
     0
 45
0.0
  0
VISUALSTYLE
  5
272
102
{ACAD_REACTORS
330
267
102
}
330
267
100
AcDbVisualStyle
  2
Dim
 70
    11
 71
     2
 72
     2
 73
     0
 90
        0
 40
-0.6
 41
-30.0
 62
     5
 63
     7
421
 16777215
 74
     1
 91
        4
 64
     7
 65
   257
 75
     1
175
     1
 42
1.0
 92
        8
 66
     7
 43
1.0
 76
     1
 77
     6
 78
     2
 67
     7
 79
     5
170
     0
171
     0
290
     0
174
     0
 93
        1
 44
-50.0
173
     0
291
     1
 45
0.0
  0
VISUALSTYLE
  5
8FE
102
{ACAD_REACTORS
330
267
102
}
330
267
100
AcDbVisualStyle
  2
EdgeColorOff
 70
    22
 71
     2
 72
     2
 73
     0
 90
        0
 40
0.6
 41
30.0
 62
     5
 63
     7
421
 16777215
 74
     1
 91
        4
 64
     7
 65
   257
 75
     1
175
     1
 42
1.0
 92
        8
 66
     7
 43
1.0
 76
     1
 77
     6
 78
     2
 67
     7
 79
     5
170
     0
171
     0
290
     0
174
     0
 93
        1
 44
0.0
173
     0
291
     1
 45
0.0
  0
VISUALSTYLE
  5
276
102
{ACAD_REACTORS
330
267
102
}
330
267
100
AcDbVisualStyle
  2
Facepattern
 70
    15
 71
     2
 72
     2
 73
     0
 90
        0
 40
-0.6
 41
-30.0
 62
     5
 63
     7
421
 16777215
 74
     1
 91
        4
 64
     7
 65
   257
 75
     1
175
     1
 42
1.0
 92
        8
 66
     7
 43
1.0
 76
     1
 77
     6
 78
     2
 67
     7
 79
     5
170
     0
171
     0
290
     0
174
     0
 93
        1
 44
0.0
173
     0
291
     1
 45
0.0
  0
VISUALSTYLE
  5
268
102
{ACAD_REACTORS
330
267
102
}
330
267
100
AcDbVisualStyle
  2
Flat
 70
     0
 71
     2
 72
     1
 73
     1
 90
        2
 40
-0.6
 41
30.0
 62
     5
 63
     7
421
 16777215
 74
     0
 91
        4
 64
     7
 65
   257
 75
     1
175
     1
 42
1.0
 92
        8
 66
     7
 43
1.0
 76
     1
 77
     6
 78
     2
 67
     7
 79
     5
170
     0
171
     0
290
     0
174
     0
 93
       13
 44
0.0
173
     0
291
     1
 45
0.0
  0
VISUALSTYLE
  5
269
102
{ACAD_REACTORS
330
267
102
}
330
267
100
AcDbVisualStyle
  2
FlatWithEdges
 70
     1
 71
     2
 72
     1
 73
     1
 90
        2
 40
-0.6
 41
30.0
 62
     5
 63
     7
421
 16777215
 74
     1
 91
        4
 64
     7
 65
   257
 75
     1
175
     1
 42
1.0
 92
        0
 66
   257
 43
1.0
 76
     1
 77
     6
 78
     2
 67
     7
 79
     5
170
     0
171
     0
290
     0
174
     0
 93
       13
 44
0.0
173
     0
291
     1
 45
0.0
  0
VISUALSTYLE
  5
26A
102
{ACAD_REACTORS
330
267
102
}
330
267
100
AcDbVisualStyle
  2
Gouraud
 70
     2
 71
     2
 72
     2
 73
     1
 90
        2
 40
-0.6
 41
30.0
 62
     5
 63
     7
421
 16777215
 74
     0
 91
        4
 64
     7
 65
   257
 75
     1
175
     1
 42
1.0
 92
        0
 66
     7
 43
1.0
 76
     1
 77
     6
 78
     2
 67
     7
 79
     5
170
     0
171
     0
290
     0
174
     0
 93
       13
 44
0.0
173
     0
291
     1
 45
0.0
  0
VISUALSTYLE
  5
26B
102
{ACAD_REACTORS
330
267
102
}
330
267
100
AcDbVisualStyle
  2
GouraudWithEdges
 70
     3
 71
     2
 72
     2
 73
     1
 90
        2
 40
-0.6
 41
30.0
 62
     5
 63
     7
421
 16777215
 74
     1
 91
        4
 64
     7
 65
   257
 75
     1
175
     1
 42
1.0
 92
        0
 66
   257
 43
1.0
 76
     1
 77
     6
 78
     2
 67
     7
 79
     5
170
     0
171
     0
290
     0
174
     0
 93
       13
 44
0.0
173
     0
291
     1
 45
0.0
  0
VISUALSTYLE
  5
8FB
102
{ACAD_REACTORS
330
267
102
}
330
267
100
AcDbVisualStyle
  2
Hidden
 70
     6
 71
     1
 72
     2
 73
     2
 90
        0
 40
0.6
 41
30.0
 62
     5
 63
     7
421
 16777215
 74
     2
 91
        2
 64
     7
 65
   257
 75
     2
175
     1
 42
40.0
 92
        0
 66
   257
 43
1.0
 76
     1
 77
     6
 78
     2
 67
     7
 79
     3
170
     0
171
     0
290
     0
174
     0
 93
        1
 44
0.0
173
     0
291
     0
 45
0.0
  0
VISUALSTYLE
  5
8FC
102
{ACAD_REACTORS
330
267
102
}
330
267
100
AcDbVisualStyle
  2
JitterOff
 70
    20
 71
     2
 72
     2
 73
     0
 90
        0
 40
0.6
 41
30.0
 62
     5
 63
     7
421
 16777215
 74
     1
 91
        4
 64
     7
 65
   257
 75
     1
175
     1
 42
1.0
 92
       10
 66
     7
 43
1.0
 76
     1
 77
     6
 78
     2
 67
     7
 79
     5
170
     0
171
     0
290
     0
174
     0
 93
        1
 44
0.0
173
     0
291
     1
 45
0.0
  0
VISUALSTYLE
  5
275
102
{ACAD_REACTORS
330
267
102
}
330
267
100
AcDbVisualStyle
  2
Linepattern
 70
    14
 71
     2
 72
     2
 73
     0
 90
        0
 40
-0.6
 41
-30.0
 62
     5
 63
     7
421
 16777215
 74
     1
 91
        4
 64
     7
 65
   257
 75
     7
175
     7
 42
1.0
 92
        8
 66
     7
 43
1.0
 76
     1
 77
     6
 78
     2
 67
     7
 79
     5
170
     0
171
     0
290
     0
174
     0
 93
        1
 44
0.0
173
     0
291
     1
 45
0.0
  0
VISUALSTYLE
  5
8FD
102
{ACAD_REACTORS
330
267
102
}
330
267
100
AcDbVisualStyle
  2
OverhangOff
 70
    21
 71
     2
 72
     2
 73
     0
 90
        0
 40
0.6
 41
30.0
 62
     5
 63
     7
421
 16777215
 74
     1
 91
        4
 64
     7
 65
   257
 75
     1
175
     1
 42
1.0
 92
        9
 66
     7
 43
1.0
 76
     1
 77
     6
 78
     2
 67
     7
 79
     5
170
     0
171
     0
290
     0
174
     0
 93
        1
 44
0.0
173
     0
291
     1
 45
0.0
  0
VISUALSTYLE
  5
270
102
{ACAD_REACTORS
330
267
102
}
330
267
100
AcDbVisualStyle
  2
Realistic
 70
     8
 71
     2
 72
     2
 73
     0
 90
        0
 40
-0.6
 41
-30.0
 62
     5
 63
     7
421
 16777215
 74
     1
 91
        0
 64
     7
 65
   257
 75
     1
175
     1
 42
1.0
 92
        8
 66
     8
424
  7895160
 43
1.0
 76
     1
 77
     6
 78
     2
 67
     7
 79
     5
170
     0
171
     0
290
     0
174
     0
 93
       13
 44
0.0
173
     0
291
     0
 45
0.0
  0
VISUALSTYLE
  5
903
102
{ACAD_REACTORS
330
267
102
}
330
267
100
AcDbVisualStyle
  2
Shaded
 70
    27
 71
     2
 72
     2
 73
     1
 90
        2
 40
0.6
 41
30.0
 62
     5
 63
     7
421
 16777215
 74
     0
 91
        4
 64
     7
 65
   257
 75
     1
175
     1
 42
1.0
 92
        8
 66
   257
 43
1.0
 76
     1
 77
     6
 78
     2
 67
     8
425
  7895160
 79
     3
170
     0
171
     0
290
     0
174
     0
 93
        5
 44
0.0
173
     0
291
     0
 45
0.0
  0
VISUALSTYLE
  5
902
102
{ACAD_REACTORS
330
267
102
}
330
267
100
AcDbVisualStyle
  2
Shaded with edges
 70
    26
 71
     2
 72
     2
 73
     1
 90
        2
 40
0.6
 41
30.0
 62
     5
 63
     7
421
 16777215
 74
     1
 91
       10
 64
     7
 65
   257
 75
     2
175
     1
 42
1.0
 92
        8
 66
   257
 43
1.0
 76
     1
 77
     6
 78
     2
 67
     7
 79
     3
170
     0
171
     0
290
     0
174
     0
 93
        5
 44
0.0
173
     0
291
     0
 45
0.0
  0
VISUALSTYLE
  5
8FF
102
{ACAD_REACTORS
330
267
102
}
330
267
100
AcDbVisualStyle
  2
Shades of Gray
 70
    23
 71
     2
 72
     2
 73
     3
 90
        0
 40
0.6
 41
30.0
 62
     5
 63
     7
421
 16777215
 74
     2
 91
        2
 64
     7
 65
     7
 75
     1
175
     1
 42
40.0
 92
        8
 66
     7
 43
1.0
 76
     1
 77
     6
 78
     2
 67
     7
 79
     3
170
     0
171
     0
290
     0
174
     0
 93
        1
 44
0.0
173
     0
291
     0
 45
0.0
  0
VISUALSTYLE
  5
900
102
{ACAD_REACTORS
330
267
102
}
330
267
100
AcDbVisualStyle
  2
Sketchy
 70
    24
 71
     1
 72
     2
 73
     2
 90
        0
 40
0.6
 41
30.0
 62
     5
 63
     7
421
 16777215
 74
     2
 91
        2
 64
     7
 65
     7
 75
     1
175
     1
 42
40.0
 92
       11
 66
     7
 43
1.0
 76
     1
 77
     6
 78
     2
 67
     7
 79
     6
170
     0
171
     0
290
     0
174
     0
 93
        1
 44
0.0
173
     0
291
     0
 45
0.0
  0
VISUALSTYLE
  5
274
102
{ACAD_REACTORS
330
267
102
}
330
267
100
AcDbVisualStyle
  2
Thicken
 70
    13
 71
     2
 72
     2
 73
     0
 90
        0
 40
-0.6
 41
-30.0
 62
     5
 63
     7
421
 16777215
 74
     1
 91
        4
 64
     7
 65
   257
 75
     1
175
     1
 42
1.0
 92
       12
 66
     7
 43
1.0
 76
     1
 77
     6
 78
     2
 67
     7
 79
     5
170
     0
171
     0
290
     0
174
     0
 93
        1
 44
0.0
173
     0
291
     1
 45
0.0
  0
VISUALSTYLE
  5
8FA
102
{ACAD_REACTORS
330
267
102
}
330
267
100
AcDbVisualStyle
  2
Wireframe
 70
     5
 71
     0
 72
     2
 73
     0
 90
        0
 40
0.6
 41
30.0
 62
     5
 63
     7
421
 16777215
 74
     1
 91
        4
 64
     7
 65
   257
 75
     1
175
     1
 42
1.0
 92
        0
 66
   257
 43
1.0
 76
     1
 77
     6
 78
     2
 67
     7
 79
     3
170
     0
171
     0
290
     0
174
     0
 93
        1
 44
0.0
173
     0
291
     0
 45
0.0
  0
VISUALSTYLE
  5
901
102
{ACAD_REACTORS
330
267
102
}
330
267
100
AcDbVisualStyle
  2
X-Ray
 70
    25
 71
     2
 72
     2
 73
     1
 90
        1
 40
0.5
 41
30.0
 62
     5
 63
     7
421
 16777215
 74
     1
 91
        0
 64
     7
 65
   257
 75
     1
175
     1
 42
1.0
 92
        8
 66
     7
 43
1.0
 76
     1
 77
     6
 78
     2
 67
     7
 79
     3
170
     0
171
     0
290
     0
174
     0
 93
       13
 44
0.0
173
     0
291
     0
 45
0.0
  0
DICTIONARYVAR
  5
331
102
{ACAD_REACTORS
330
330
102
}
330
330
100
DictionaryVariables
280
     0
  1
1:1
  0
DICTIONARYVAR
  5
D5E
102
{ACAD_REACTORS
330
330
102
}
330
330
100
DictionaryVariables
280
     0
  1
Standard
  0
DICTIONARYVAR
  5
335
102
{ACAD_REACTORS
330
330
102
}
330
330
100
DictionaryVariables
280
     0
  1
Standard
  0
DICTIONARYVAR
  5
D52
102
{ACAD_REACTORS
330
330
102
}
330
330
100
DictionaryVariables
280
     0
  1
ByLayer
  0
DICTIONARYVAR
  5
896
102
{ACAD_REACTORS
330
330
102
}
330
330
100
DictionaryVariables
280
     0
  1
0
  0
DICTIONARYVAR
  5
38B2
102
{ACAD_REACTORS
330
E38
102
}
330
E38
100
DictionaryVariables
280
     0
  1
0.261799
  0
DICTIONARYVAR
  5
38B0
102
{ACAD_REACTORS
330
E38
102
}
330
E38
100
DictionaryVariables
280
     0
  1
0.400000
  0
DICTIONARYVAR
  5
38B1
102
{ACAD_REACTORS
330
E38
102
}
330
E38
100
DictionaryVariables
280
     0
  1
0.250000
  0
DICTIONARYVAR
  5
38B3
102
{ACAD_REACTORS
330
E38
102
}
330
E38
100
DictionaryVariables
280
     0
  1
1
  0
XRECORD
  5
7AA
102
{ACAD_REACTORS
330
2E2
102
}
330
2E2
100
AcDbXrecord
280
     1
 91
    34815
301

290
     0
302
HIDDEN
330
14
 90
        8
 62
     7
370
    -3
331
13
  1
Color_7
440
 33554687
330
4B
 90
        8
 62
     7
370
    20
331
13
  1
Color_7
440
 33554687
330
4C
 90
        8
 62
     3
370
    13
331
13
  1
Color_3
440
 33554687
330
4D
 90
        8
 62
     7
370
    20
331
13
  1
Color_7
440
 33554687
330
667
 90
        8
 62
     7
370
    -3
331
13
  1
Color_7
440
 33554687
330
0
 90
        8
 62
     8
370
    20
331
0
  1
Color_8
440
 33554687
330
D6B
 90
        0
 62
     4
370
    20
331
D6C
  1
Color_4
440
 33554687
330
D8C
 90
        0
 62
     7
370
    -3
331
13
  1
Color_7
440
 33554687
  0
FIELD
  5
4531
102
{ACAD_REACTORS
330
4539
102
}
330
4539
100
AcDbField
  1
_text
  2
{%<\_FldIdx 0>%N}
 90
        1
360
4534
 97
        0
 91
       63
 92
        0
 94
        8
 95
        2
 96
        0
300

 93
        1
  6
ACFD_FIELDTEXT_CHECKSUM
 93
        2
 90
        2
140
4547.0
 94
        0
300

302

304
ACVALUE_END
  7
ACFD_FIELD_VALUE
 93
        6
 90
        4
  1
{20160726N}
 94
        0
300

302

304
ACVALUE_END
301
{20160726N}
 98
       11
  0
DICTIONARY
  5
5924
330
279
100
AcDbDictionary
280
     1
281
     1
  3
ACAD_ROUNDTRIP_2008_TABLESTYLE_CELLSTYLEMAP
360
5925
  0
FIELD
  5
4534
330
4531
100
AcDbField
  1
AcVar
  2
\AcVar CreateDate \f "yyyyMMdd"
 90
        0
 97
        0
 91
       63
 92
        0
 94
        8
 95
        2
 96
        0
300

 93
        1
  6
Variable
 93
        2
 90
        4
  1
CreateDate
 94
        0
300

302

304
ACVALUE_END
  7
ACFD_FIELD_VALUE
 93
        6
 90
        8
 92
       16
310
E007070000001A0007001D001B000000
 94
        0
300
yyyyMMdd
302

304
ACVALUE_END
301
20160726
 98
        8
  0
CELLSTYLEMAP
  5
5925
102
{ACAD_REACTORS
330
5924
102
}
330
5924
100
AcDbCellStyleMap
 90
        3
300
CELLSTYLE
  1
TABLEFORMAT_BEGIN
 90
        5
170
     1
 91
        0
 92
    32768
 62
   257
 93
        1
300
CONTENTFORMAT
  1
CONTENTFORMAT_BEGIN
 90
        0
 91
        0
 92
        4
 93
        0
300

 40
0.0
140
1.0
 94
        5
 62
     0
340
17
144
6.0
309
CONTENTFORMAT_END
171
     1
301
MARGIN
  1
CELLMARGIN_BEGIN
 40
0.06
 40
0.06
 40
0.06
 40
0.06
 40
0.18
 40
0.18
309
CELLMARGIN_END
 94
        6
 95
        1
302
GRIDFORMAT
  1
GRIDFORMAT_BEGIN
 90
        0
 91
        1
 62
     0
 92
       -2
340
0
 93
        0
 40
0.045
309
GRIDFORMAT_END
 95
        2
302
GRIDFORMAT
  1
GRIDFORMAT_BEGIN
 90
        0
 91
        1
 62
     0
 92
       -2
340
0
 93
        0
 40
0.045
309
GRIDFORMAT_END
 95
        4
302
GRIDFORMAT
  1
GRIDFORMAT_BEGIN
 90
        0
 91
        1
 62
     0
 92
       -2
340
0
 93
        0
 40
0.045
309
GRIDFORMAT_END
 95
        8
302
GRIDFORMAT
  1
GRIDFORMAT_BEGIN
 90
        0
 91
        1
 62
     0
 92
       -2
340
0
 93
        0
 40
0.045
309
GRIDFORMAT_END
 95
       16
302
GRIDFORMAT
  1
GRIDFORMAT_BEGIN
 90
        0
 91
        1
 62
     0
 92
       -2
340
0
 93
        0
 40
0.045
309
GRIDFORMAT_END
 95
       32
302
GRIDFORMAT
  1
GRIDFORMAT_BEGIN
 90
        0
 91
        1
 62
     0
 92
       -2
340
0
 93
        0
 40
0.045
309
GRIDFORMAT_END
309
TABLEFORMAT_END
  1
CELLSTYLE_BEGIN
 90
        1
 91
        1
300
_TITLE
309
CELLSTYLE_END
300
CELLSTYLE
  1
TABLEFORMAT_BEGIN
 90
        5
170
     1
 91
        0
 92
        0
 62
   257
 93
        1
300
CONTENTFORMAT
  1
CONTENTFORMAT_BEGIN
 90
        0
 91
        0
 92
        4
 93
        0
300

 40
0.0
140
1.0
 94
        5
 62
     0
340
17
144
4.5
309
CONTENTFORMAT_END
171
     1
301
MARGIN
  1
CELLMARGIN_BEGIN
 40
0.06
 40
0.06
 40
0.06
 40
0.06
 40
0.18
 40
0.18
309
CELLMARGIN_END
 94
        6
 95
        1
302
GRIDFORMAT
  1
GRIDFORMAT_BEGIN
 90
        0
 91
        1
 62
     0
 92
       -2
340
0
 93
        0
 40
0.045
309
GRIDFORMAT_END
 95
        2
302
GRIDFORMAT
  1
GRIDFORMAT_BEGIN
 90
        0
 91
        1
 62
     0
 92
       -2
340
0
 93
        0
 40
0.045
309
GRIDFORMAT_END
 95
        4
302
GRIDFORMAT
  1
GRIDFORMAT_BEGIN
 90
        0
 91
        1
 62
     0
 92
       -2
340
0
 93
        0
 40
0.045
309
GRIDFORMAT_END
 95
        8
302
GRIDFORMAT
  1
GRIDFORMAT_BEGIN
 90
        0
 91
        1
 62
     0
 92
       -2
340
0
 93
        0
 40
0.045
309
GRIDFORMAT_END
 95
       16
302
GRIDFORMAT
  1
GRIDFORMAT_BEGIN
 90
        0
 91
        1
 62
     0
 92
       -2
340
0
 93
        0
 40
0.045
309
GRIDFORMAT_END
 95
       32
302
GRIDFORMAT
  1
GRIDFORMAT_BEGIN
 90
        0
 91
        1
 62
     0
 92
       -2
340
0
 93
        0
 40
0.045
309
GRIDFORMAT_END
309
TABLEFORMAT_END
  1
CELLSTYLE_BEGIN
 90
        2
 91
        1
300
_HEADER
309
CELLSTYLE_END
300
CELLSTYLE
  1
TABLEFORMAT_BEGIN
 90
        5
170
     1
 91
        0
 92
        0
 62
   257
 93
        1
300
CONTENTFORMAT
  1
CONTENTFORMAT_BEGIN
 90
        0
 91
        0
 92
        4
 93
        0
300

 40
0.0
140
1.0
 94
        2
 62
     0
340
17
144
4.5
309
CONTENTFORMAT_END
171
     1
301
MARGIN
  1
CELLMARGIN_BEGIN
 40
0.06
 40
0.06
 40
0.06
 40
0.06
 40
0.18
 40
0.18
309
CELLMARGIN_END
 94
        6
 95
        1
302
GRIDFORMAT
  1
GRIDFORMAT_BEGIN
 90
        0
 91
        1
 62
     0
 92
       -2
340
0
 93
        0
 40
0.045
309
GRIDFORMAT_END
 95
        2
302
GRIDFORMAT
  1
GRIDFORMAT_BEGIN
 90
        0
 91
        1
 62
     0
 92
       -2
340
0
 93
        0
 40
0.045
309
GRIDFORMAT_END
 95
        4
302
GRIDFORMAT
  1
GRIDFORMAT_BEGIN
 90
        0
 91
        1
 62
     0
 92
       -2
340
0
 93
        0
 40
0.045
309
GRIDFORMAT_END
 95
        8
302
GRIDFORMAT
  1
GRIDFORMAT_BEGIN
 90
        0
 91
        1
 62
     0
 92
       -2
340
0
 93
        0
 40
0.045
309
GRIDFORMAT_END
 95
       16
302
GRIDFORMAT
  1
GRIDFORMAT_BEGIN
 90
        0
 91
        1
 62
     0
 92
       -2
340
0
 93
        0
 40
0.045
309
GRIDFORMAT_END
 95
       32
302
GRIDFORMAT
  1
GRIDFORMAT_BEGIN
 90
        0
 91
        1
 62
     0
 92
       -2
340
0
 93
        0
 40
0.045
309
GRIDFORMAT_END
309
TABLEFORMAT_END
  1
CELLSTYLE_BEGIN
 90
        3
 91
        2
300
_DATA
309
CELLSTYLE_END
  0
ENDSEC
  0
EOF
