  0
SECTION
  2
HEADER
  9
$ACADVER
  1
AC1021
  9
$ACADMAINTVER
 70
    25
  9
$DWGCODEPAGE
  3
ANSI_932
  9
$LASTSAVEDBY
  1
Shimosaki
  9
$INSBASE
 10
0.0
 20
0.0
 30
0.0
  9
$EXTMIN
 10
36.10107227362437
 20
31.89607416228557
 30
0.0
  9
$EXTMAX
 10
1011.101072273866
 20
1448.573336753213
 30
0.0
  9
$LIMMIN
 10
0.0
 20
0.0
  9
$LIMMAX
 10
1050.0
 20
1485.0
  9
$ORTHOMODE
 70
     1
  9
$REGENMODE
 70
     1
  9
$FILLMODE
 70
     1
  9
$QTEXTMODE
 70
     0
  9
$MIRRTEXT
 70
     1
  9
$LTSCALE
 40
50.8
  9
$ATTMODE
 70
     1
  9
$TEXTSIZE
 40
2.5
  9
$TRACEWID
 40
1.0
  9
$TEXTSTYLE
  7
ＭＳ ゴシック
  9
$CLAYER
  8
MODEL
  9
$CELTYPE
  6
Continuous
  9
$CECOLOR
 62
   256
  9
$CELTSCALE
 40
1.0
  9
$DISPSILH
 70
     0
  9
$DIMSCALE
 40
1.0
  9
$DIMASZ
 40
6.0
  9
$DIMEXO
 40
5.0
  9
$DIMDLI
 40
0.9999999999999999
  9
$DIMRND
 40
0.0
  9
$DIMDLE
 40
0.0
  9
$DIMEXE
 40
0.0
  9
$DIMTP
 40
0.0
  9
$DIMTM
 40
0.0
  9
$DIMTXT
 40
12.0
  9
$DIMCEN
 40
0.0
  9
$DIMTSZ
 40
0.0
  9
$DIMTOL
 70
     0
  9
$DIMLIM
 70
     0
  9
$DIMTIH
 70
     0
  9
$DIMTOH
 70
     0
  9
$DIMSE1
 70
     0
  9
$DIMSE2
 70
     0
  9
$DIMTAD
 70
     1
  9
$DIMZIN
 70
    11
  9
$DIMBLK
  1
DOT
  9
$DIMASO
 70
     1
  9
$DIMSHO
 70
     1
  9
$DIMPOST
  1
<>
  9
$DIMAPOST
  1
[]
  9
$DIMALT
 70
     0
  9
$DIMALTD
 70
     1
  9
$DIMALTF
 40
1.0
  9
$DIMLFAC
 40
1.0
  9
$DIMTOFL
 70
     0
  9
$DIMTVP
 40
0.0
  9
$DIMTIX
 70
     1
  9
$DIMSOXD
 70
     0
  9
$DIMSAH
 70
     0
  9
$DIMBLK1
  1

  9
$DIMBLK2
  1

  9
$DIMSTYLE
  2
tfrom線あり
  9
$DIMCLRD
 70
     0
  9
$DIMCLRE
 70
     0
  9
$DIMCLRT
 70
     0
  9
$DIMTFAC
 40
1.0
  9
$DIMGAP
 40
10.0
  9
$DIMJUST
 70
     0
  9
$DIMSD1
 70
     0
  9
$DIMSD2
 70
     0
  9
$DIMTOLJ
 70
     1
  9
$DIMTZIN
 70
    11
  9
$DIMALTZ
 70
    11
  9
$DIMALTTZ
 70
    11
  9
$DIMUPT
 70
     0
  9
$DIMDEC
 70
     0
  9
$DIMTDEC
 70
     1
  9
$DIMALTU
 70
     2
  9
$DIMALTTD
 70
     2
  9
$DIMTXSTY
  7
ＭＳ ゴシック
  9
$DIMAUNIT
 70
     0
  9
$DIMADEC
 70
     2
  9
$DIMALTRND
 40
0.0
  9
$DIMAZIN
 70
     0
  9
$DIMDSEP
 70
    46
  9
$DIMATFIT
 70
     0
  9
$DIMFRAC
 70
     2
  9
$DIMLDRBLK
  1
DOT
  9
$DIMLUNIT
 70
     2
  9
$DIMLWD
 70
    -2
  9
$DIMLWE
 70
    -2
  9
$DIMTMOVE
 70
     0
  9
$DIMFXL
 40
1.0
  9
$DIMFXLON
 70
     0
  9
$DIMJOGANG
 40
0.7853981633974483
  9
$DIMTFILL
 70
     0
  9
$DIMTFILLCLR
 70
     0
  9
$DIMARCSYM
 70
     0
  9
$DIMLTYPE
  6

  9
$DIMLTEX1
  6

  9
$DIMLTEX2
  6

  9
$LUNITS
 70
     2
  9
$LUPREC
 70
     0
  9
$SKETCHINC
 40
0.1
  9
$FILLETRAD
 40
0.0
  9
$AUNITS
 70
     0
  9
$AUPREC
 70
     0
  9
$MENU
  1
acad
  9
$ELEVATION
 40
0.0
  9
$PELEVATION
 40
0.0
  9
$THICKNESS
 40
0.0
  9
$LIMCHECK
 70
     0
  9
$CHAMFERA
 40
0.0
  9
$CHAMFERB
 40
0.0
  9
$CHAMFERC
 40
0.0
  9
$CHAMFERD
 40
0.0
  9
$SKPOLY
 70
     0
  9
$TDCREATE
 40
2447893.375
  9
$TDUCREATE
 40
0.0
  9
$TDUPDATE
 40
2457457.64828066
  9
$TDUUPDATE
 40
2457457.27328066
  9
$TDINDWG
 40
0.1107595139
  9
$TDUSRTIMER
 40
2457457.273135486
  9
$USRTIMER
 70
     1
  9
$ANGBASE
 50
0.0
  9
$ANGDIR
 70
     0
  9
$PDMODE
 70
     1
  9
$PDSIZE
 40
-2.0
  9
$PLINEWID
 40
0.0
  9
$SPLFRAME
 70
     0
  9
$SPLINETYPE
 70
     6
  9
$SPLINESEGS
 70
     8
  9
$HANDSEED
  5
1330
  9
$SURFTAB1
 70
     6
  9
$SURFTAB2
 70
     6
  9
$SURFTYPE
 70
     6
  9
$SURFU
 70
     6
  9
$SURFV
 70
     6
  9
$UCSBASE
  2

  9
$UCSNAME
  2

  9
$UCSORG
 10
0.0
 20
0.0
 30
0.0
  9
$UCSXDIR
 10
1.0
 20
0.0
 30
0.0
  9
$UCSYDIR
 10
0.0
 20
1.0
 30
0.0
  9
$UCSORTHOREF
  2

  9
$UCSORTHOVIEW
 70
     0
  9
$UCSORGTOP
 10
0.0
 20
0.0
 30
0.0
  9
$UCSORGBOTTOM
 10
0.0
 20
0.0
 30
0.0
  9
$UCSORGLEFT
 10
0.0
 20
0.0
 30
0.0
  9
$UCSORGRIGHT
 10
0.0
 20
0.0
 30
0.0
  9
$UCSORGFRONT
 10
0.0
 20
0.0
 30
0.0
  9
$UCSORGBACK
 10
0.0
 20
0.0
 30
0.0
  9
$PUCSBASE
  2

  9
$PUCSNAME
  2

  9
$PUCSORG
 10
0.0
 20
0.0
 30
0.0
  9
$PUCSXDIR
 10
1.0
 20
0.0
 30
0.0
  9
$PUCSYDIR
 10
0.0
 20
1.0
 30
0.0
  9
$PUCSORTHOREF
  2

  9
$PUCSORTHOVIEW
 70
     0
  9
$PUCSORGTOP
 10
0.0
 20
0.0
 30
0.0
  9
$PUCSORGBOTTOM
 10
0.0
 20
0.0
 30
0.0
  9
$PUCSORGLEFT
 10
0.0
 20
0.0
 30
0.0
  9
$PUCSORGRIGHT
 10
0.0
 20
0.0
 30
0.0
  9
$PUCSORGFRONT
 10
0.0
 20
0.0
 30
0.0
  9
$PUCSORGBACK
 10
0.0
 20
0.0
 30
0.0
  9
$USERI1
 70
     0
  9
$USERI2
 70
     0
  9
$USERI3
 70
     0
  9
$USERI4
 70
     0
  9
$USERI5
 70
     0
  9
$USERR1
 40
0.0
  9
$USERR2
 40
0.0
  9
$USERR3
 40
0.0
  9
$USERR4
 40
0.0
  9
$USERR5
 40
0.0
  9
$WORLDVIEW
 70
     1
  9
$SHADEDGE
 70
     3
  9
$SHADEDIF
 70
    70
  9
$TILEMODE
 70
     1
  9
$MAXACTVP
 70
    64
  9
$PINSBASE
 10
0.0
 20
0.0
 30
0.0
  9
$PLIMCHECK
 70
     0
  9
$PEXTMIN
 10
0.0
 20
0.0
 30
0.0
  9
$PEXTMAX
 10
0.0
 20
0.0
 30
0.0
  9
$PLIMMIN
 10
-7.5
 20
-20.0
  9
$PLIMMAX
 10
412.5
 20
277.0
  9
$UNITMODE
 70
     0
  9
$VISRETAIN
 70
     0
  9
$PLINEGEN
 70
     1
  9
$PSLTSCALE
 70
     0
  9
$TREEDEPTH
 70
  3020
  9
$CMLSTYLE
  2
Standard
  9
$CMLJUST
 70
     0
  9
$CMLSCALE
 40
1.0
  9
$PROXYGRAPHICS
 70
     0
  9
$MEASUREMENT
 70
     1
  9
$CELWEIGHT
370
    -1
  9
$ENDCAPS
280
     0
  9
$JOINSTYLE
280
     0
  9
$LWDISPLAY
290
     1
  9
$INSUNITS
 70
     4
  9
$HYPERLINKBASE
  1

  9
$STYLESHEET
  1

  9
$XEDIT
290
     1
  9
$CEPSNTYPE
380
     0
  9
$PSTYLEMODE
290
     1
  9
$FINGERPRINTGUID
  2

  9
$VERSIONGUID
  2

  9
$EXTNAMES
290
     1
  9
$PSVPSCALE
 40
0.0
  9
$OLESTARTUP
290
     0
  9
$SORTENTS
280
   127
  9
$INDEXCTL
280
     0
  9
$HIDETEXT
280
     1
  9
$XCLIPFRAME
290
     0
  9
$HALOGAP
280
     0
  9
$OBSCOLOR
 70
   257
  9
$OBSLTYPE
280
     0
  9
$INTERSECTIONDISPLAY
280
     0
  9
$INTERSECTIONCOLOR
 70
   257
  9
$DIMASSOC
280
     2
  9
$PROJECTNAME
  1

  9
$CAMERADISPLAY
290
     0
  9
$LENSLENGTH
 40
50.0
  9
$CAMERAHEIGHT
 40
0.0
  9
$STEPSPERSEC
 40
2.0
  9
$STEPSIZE
 40
6.0
  9
$3DDWFPREC
 40
2.0
  9
$PSOLWIDTH
 40
0.25
  9
$PSOLHEIGHT
 40
4.0
  9
$LOFTANG1
 40
1.570796326794897
  9
$LOFTANG2
 40
1.570796326794897
  9
$LOFTMAG1
 40
0.0
  9
$LOFTMAG2
 40
0.0
  9
$LOFTPARAM
 70
     7
  9
$LOFTNORMALS
280
     1
  9
$LATITUDE
 40
37.795
  9
$LONGITUDE
 40
-122.394
  9
$NORTHDIRECTION
 40
0.0
  9
$TIMEZONE
 70
 -8000
  9
$LIGHTGLYPHDISPLAY
280
     1
  9
$TILEMODELIGHTSYNCH
280
     1
  9
$SOLIDHIST
280
     1
  9
$SHOWHIST
280
     1
  9
$DWFFRAME
280
     2
  9
$DGNFRAME
280
     2
  9
$REALWORLDSCALE
290
     1
  9
$INTERFERECOLOR
 62
   256
  9
$CSHADOW
280
     0
  9
$SHADOWPLANELOCATION
 40
0.0
  0
ENDSEC
  0
SECTION
  2
CLASSES
  0
CLASS
  1
LWPOLYLINE
  2
AcDbPolyline
  3
ObjectDBX Classes
 90
        0
 91
        1
280
     0
281
     1
  0
CLASS
  1
IMAGE
  2
AcDbRasterImage
  3
ISM
 90
      127
 91
        5
280
     0
281
     1
  0
CLASS
  1
OLE2FRAME
  2
AcDbOle2Frame
  3
ObjectDBX Classes
 90
        0
 91
        1
280
     0
281
     1
  0
CLASS
  1
HATCH
  2
AcDbHatch
  3
ObjectDBX Classes
 90
        0
 91
        1
280
     0
281
     1
  0
CLASS
  1
DICTIONARYVAR
  2
AcDbDictionaryVar
  3
ObjectDBX Classes
 90
        0
 91
        4
280
     0
281
     0
  0
CLASS
  1
RASTERVARIABLES
  2
AcDbRasterVariables
  3
ISM
 90
        0
 91
        5
280
     0
281
     0
  0
CLASS
  1
IMAGEDEF
  2
AcDbRasterImageDef
  3
ISM
 90
        0
 91
        4
280
     0
281
     0
  0
CLASS
  1
IMAGEDEF_REACTOR
  2
AcDbRasterImageDefReactor
  3
ISM
 90
        1
 91
        4
280
     0
281
     0
  0
CLASS
  1
IDBUFFER
  2
AcDbIdBuffer
  3
ObjectDBX Classes
 90
        0
 91
        4
280
     0
281
     0
  0
CLASS
  1
SPATIAL_FILTER
  2
AcDbSpatialFilter
  3
ObjectDBX Classes
 90
        0
 91
        4
280
     0
281
     0
  0
CLASS
  1
XRECORD
  2
AcDbXrecord
  3
ObjectDBX Classes
 90
        0
 91
        1
280
     0
281
     0
  0
CLASS
  1
SORTENTSTABLE
  2
AcDbSortentsTable
  3
ObjectDBX Classes
 90
        0
 91
        4
280
     0
281
     0
  0
CLASS
  1
LAYER_INDEX
  2
AcDbLayerIndex
  3
ObjectDBX Classes
 90
        0
 91
        4
280
     0
281
     0
  0
CLASS
  1
SPATIAL_INDEX
  2
AcDbSpatialIndex
  3
AutoCAD 2000
 90
        0
 91
        4
280
     0
281
     0
  0
CLASS
  1
OBJECT_PTR
  2
CAseDLPNTableRecord
  3
ASE-LPNTableRecord
 90
        1
 91
        4
280
     0
281
     0
  0
CLASS
  1
LAYOUT
  2
AcDbLayout
  3
ObjectDBX Classes
 90
        0
 91
        1
280
     0
281
     0
  0
CLASS
  1
PLOTSETTINGS
  2
AcDbPlotSettings
  3
ObjectDBX Classes
 90
        0
 91
        4
280
     0
281
     0
  0
CLASS
  1
ACDBDICTIONARYWDFLT
  2
AcDbDictionaryWithDefault
  3
ObjectDBX Classes
 90
        0
 91
        5
280
     0
281
     0
  0
CLASS
  1
ACDBPLACEHOLDER
  2
AcDbPlaceHolder
  3
ObjectDBX Classes
 90
        0
 91
        1
280
     0
281
     0
  0
CLASS
  1
SCALE
  2
AcDbScale
  3
ObjectDBX Classes
 90
     1153
 91
        5
280
     0
281
     0
  0
CLASS
  1
MATERIAL
  2
AcDbMaterial
  3
ObjectDBX Classes
 90
     1153
 91
        5
280
     0
281
     0
  0
CLASS
  1
VISUALSTYLE
  2
AcDbVisualStyle
  3
ObjectDBX Classes
 90
     4095
 91
        5
280
     0
281
     0
  0
CLASS
  1
TABLESTYLE
  2
AcDbTableStyle
  3
ObjectDBX Classes
 90
     4095
 91
        5
280
     0
281
     0
  0
CLASS
  1
DIMASSOC
  2
AcDbDimAssoc
  3
"AcDbDimAssoc|Product Desc:     AcDim ARX App For Dimension|Company:          Autodesk, Inc.|WEB Address:      www.autodesk.com"
 90
        0
 91
        4
280
     0
281
     0
  0
CLASS
  1
CELLSTYLEMAP
  2
AcDbCellStyleMap
  3
ObjectDBX Classes
 90
     1152
 91
        4
280
     0
281
     0
  0
CLASS
  1
SUN
  2
AcDbSun
  3
SCENEOE
 90
     1153
 91
        5
280
     0
281
     0
  0
ENDSEC
  0
SECTION
  2
TABLES
  0
TABLE
  2
VPORT
  5
7
330
0
100
AcDbSymbolTable
 70
     1
  0
VPORT
  5
15
330
7
100
AcDbSymbolTableRecord
100
AcDbViewportTableRecord
  2
*ACTIVE
 70
     0
 10
0.0
 20
0.0
 11
1.0
 21
1.0
 12
1120.805152399794
 22
595.31377008398
 13
0.0
 23
0.0
 14
1.0
 24
1.0
 15
0.0
 25
0.0
 16
0.0
 26
0.0
 36
1.0
 17
-91.02013567089784
 27
73.59871453016603
 37
-46.86809886248109
 40
1765.342793908307
 41
2.391379310344828
 42
50.0
 43
0.0
 44
0.0
 50
0.0
 51
0.0
 71
    16
 72
  2000
 73
     1
 74
     1
 75
     0
 76
     0
 77
     0
 78
     0
281
     0
 65
     1
110
0.0
120
0.0
130
0.0
111
1.0
121
0.0
131
0.0
112
0.0
122
1.0
132
0.0
 79
     0
146
0.0
348
26C
 60
     3
 61
     5
292
     1
282
     1
141
0.0
142
0.0
 63
   256
361
904
  0
ENDTAB
  0
TABLE
  2
LTYPE
  5
4
330
0
100
AcDbSymbolTable
 70
    21
  0
LTYPE
  5
11
330
4
100
AcDbSymbolTableRecord
100
AcDbLinetypeTableRecord
  2
ByBlock
 70
     0
  3

 72
    65
 73
     0
 40
0.0
  0
LTYPE
  5
12
330
4
100
AcDbSymbolTableRecord
100
AcDbLinetypeTableRecord
  2
ByLayer
 70
     0
  3

 72
    65
 73
     0
 40
0.0
  0
LTYPE
  5
13
330
4
100
AcDbSymbolTableRecord
100
AcDbLinetypeTableRecord
  2
Continuous
 70
     0
  3
Solid line
 72
    65
 73
     0
 40
0.0
  0
LTYPE
  5
3A
330
4
100
AcDbSymbolTableRecord
100
AcDbLinetypeTableRecord
  2
STYLE_01
 70
     0
  3

 72
    65
 73
     2
 40
0.2460629921259842
 49
0.1230314960629921
 74
     0
 49
-0.1230314960629921
 74
     0
  0
LTYPE
  5
3B
330
4
100
AcDbSymbolTableRecord
100
AcDbLinetypeTableRecord
  2
STYLE_02
 70
     0
  3

 72
    65
 73
     2
 40
0.6944250000000001
 49
0.48607
 74
     0
 49
-0.2083550000000001
 74
     0
  0
LTYPE
  5
3C
330
4
100
AcDbSymbolTableRecord
100
AcDbLinetypeTableRecord
  2
STYLE_03
 70
     0
  3

 72
    65
 73
     2
 40
1.25
 49
1.04164
 74
     0
 49
-0.2083599999999999
 74
     0
  0
LTYPE
  5
3D
330
4
100
AcDbSymbolTableRecord
100
AcDbLinetypeTableRecord
  2
STYLE_04
 70
     0
  3

 72
    65
 73
     2
 40
1.52771
 49
1.319425
 74
     0
 49
-0.208285
 74
     0
  0
LTYPE
  5
3E
330
4
100
AcDbSymbolTableRecord
100
AcDbLinetypeTableRecord
  2
STYLE_05
 70
     0
  3

 72
    65
 73
     2
 40
0.20828
 49
0.069425
 74
     0
 49
-0.138855
 74
     0
  0
LTYPE
  5
3F
330
4
100
AcDbSymbolTableRecord
100
AcDbLinetypeTableRecord
  2
STYLE_06
 70
     0
  3

 72
    65
 73
     4
 40
1.04164
 49
0.625
 74
     0
 49
-0.20828
 74
     0
 49
0.06943
 74
     0
 49
-0.13893
 74
     0
  0
LTYPE
  5
40
330
4
100
AcDbSymbolTableRecord
100
AcDbLinetypeTableRecord
  2
STYLE_07
 70
     0
  3

 72
    65
 73
     6
 40
1.875
 49
0.625
 74
     0
 49
-0.20828
 74
     0
 49
0.6250000000000001
 74
     0
 49
-0.2083599999999999
 74
     0
 49
0.06943
 74
     0
 49
-0.1389299999999999
 74
     0
  0
LTYPE
  5
41
330
4
100
AcDbSymbolTableRecord
100
AcDbLinetypeTableRecord
  2
STYLE_08
 70
     0
  3

 72
    65
 73
     6
 40
1.25
 49
0.625
 74
     0
 49
-0.20828
 74
     0
 49
0.06943
 74
     0
 49
-0.13893
 74
     0
 49
0.0694299999999999
 74
     0
 49
-0.13893
 74
     0
  0
LTYPE
  5
42
330
4
100
AcDbSymbolTableRecord
100
AcDbLinetypeTableRecord
  2
STYLE_09
 70
     0
  3

 72
    65
 73
     4
 40
5.0
 49
3.75
 74
     0
 49
-0.2777849999999998
 74
     0
 49
0.6944300000000003
 74
     0
 49
-0.2777849999999998
 74
     0
  0
LTYPE
  5
43
330
4
100
AcDbSymbolTableRecord
100
AcDbLinetypeTableRecord
  2
STYLE_10
 70
     0
  3

 72
    65
 73
     6
 40
5.9375
 49
3.75
 74
     0
 49
-0.2777849999999998
 74
     0
 49
0.6944300000000003
 74
     0
 49
-0.2777849999999998
 74
     0
 49
0.625
 74
     0
 49
-0.3125
 74
     0
  0
LTYPE
  5
44
330
4
100
AcDbSymbolTableRecord
100
AcDbLinetypeTableRecord
  2
STYLE_11
 70
     0
  3

 72
    65
 73
     2
 40
0.0694444881889764
 49
0.0347222440944882
 74
     0
 49
-0.0347222440944882
 74
     0
  0
LTYPE
  5
45
330
4
100
AcDbSymbolTableRecord
100
AcDbLinetypeTableRecord
  2
STYLE_12
 70
     0
  3

 72
    65
 73
     2
 40
0.3937007874015748
 49
0.1968503937007874
 74
     0
 49
-0.1968503937007874
 74
     0
  0
LTYPE
  5
46
330
4
100
AcDbSymbolTableRecord
100
AcDbLinetypeTableRecord
  2
STYLE_13
 70
     0
  3

 72
    65
 73
     2
 40
0.5905511811023622
 49
0.2952755905511811
 74
     0
 49
-0.2952755905511811
 74
     0
  0
LTYPE
  5
47
330
4
100
AcDbSymbolTableRecord
100
AcDbLinetypeTableRecord
  2
STYLE_14
 70
     0
  3

 72
    65
 73
     2
 40
1.968503937007874
 49
0.9842519685039369
 74
     0
 49
-0.9842519685039369
 74
     0
  0
LTYPE
  5
48
330
4
100
AcDbSymbolTableRecord
100
AcDbLinetypeTableRecord
  2
STYLE_15
 70
     0
  3

 72
    65
 73
     2
 40
0.1875
 49
0.125
 74
     0
 49
-0.0625
 74
     0
  0
LTYPE
  5
49
330
4
100
AcDbSymbolTableRecord
100
AcDbLinetypeTableRecord
  2
STYLE_16
 70
     0
  3

 72
    65
 73
     2
 40
0.3690944881889764
 49
0.2460629921259843
 74
     0
 49
-0.1230314960629922
 74
     0
  0
LTYPE
  5
908
330
4
100
AcDbSymbolTableRecord
100
AcDbLinetypeTableRecord
  2
AI-LINETYPE-1
 70
     0
  3
Adobe Illustrator Linetype No. 1
 72
    65
 73
     4
 40
2.116668062491661
 49
1.058334031245831
 74
     0
 49
-0.3527780104152769
 74
     0
 49
0.3527780104152769
 74
     0
 49
-0.3527780104152769
 74
     0
  0
LTYPE
  5
909
330
4
100
AcDbSymbolTableRecord
100
AcDbLinetypeTableRecord
  2
AI-LINETYPE-2
 70
     0
  3
Adobe Illustrator Linetype No. 2
 72
    65
 73
     4
 40
2.116668062491661
 49
1.058334031245831
 74
     0
 49
-0.3527780104152769
 74
     0
 49
0.3527780104152769
 74
     0
 49
-0.3527780104152769
 74
     0
  0
LTYPE
  5
D5E
330
4
100
AcDbSymbolTableRecord
100
AcDbLinetypeTableRecord
  2
CENTER2
 70
     0
  3
Center (.5x) ___ _ ___ _ ___ _ ___ _ ___ _ ___
 72
    65
 73
     4
 40
28.575
 49
19.05
 74
     4
 75
     0
340
0
 46
0.0
 50
0.0
 44
0.0
 45
0.0
 49
-3.175
 74
     4
 75
     0
340
0
 46
0.0
 50
0.0
 44
0.0
 45
0.0
 49
3.175
 74
     4
 75
     0
340
0
 46
0.0
 50
0.0
 44
0.0
 45
0.0
 49
-3.175
 74
     4
 75
     0
340
0
 46
0.0
 50
0.0
 44
0.0
 45
0.0
  0
LTYPE
  5
D5F
330
4
100
AcDbSymbolTableRecord
100
AcDbLinetypeTableRecord
  2
HIDDEN2
 70
     0
  3
Hidden (.5x) _ _ _ _ _ _ _ _ _ _ _ _ _ _ _ _ _ 
 72
    65
 73
     2
 40
4.7625
 49
3.175
 74
     4
 75
     0
340
0
 46
0.0
 50
0.0
 44
0.0
 45
0.0
 49
-1.5875
 74
     4
 75
     0
340
0
 46
0.0
 50
0.0
 44
0.0
 45
0.0
  0
ENDTAB
  0
TABLE
  2
LAYER
  5
2
102
{ACAD_XDICTIONARY
360
2E1
102
}
330
0
100
AcDbSymbolTable
 70
     7
  0
LAYER
  5
14
330
2
100
AcDbSymbolTableRecord
100
AcDbLayerTableRecord
  2
0
 70
     0
 62
     7
  6
Continuous
370
    -3
390
1D
347
266
  0
LAYER
  5
4B
330
2
100
AcDbSymbolTableRecord
100
AcDbLayerTableRecord
  2
TEMPLATE
 70
     0
 62
     7
  6
Continuous
370
    20
390
1D
347
266
  0
LAYER
  5
4C
330
2
100
AcDbSymbolTableRecord
100
AcDbLayerTableRecord
  2
DIM
 70
     0
 62
     7
  6
Continuous
370
    13
390
1D
347
266
  0
LAYER
  5
4D
330
2
100
AcDbSymbolTableRecord
100
AcDbLayerTableRecord
  2
MODEL
 70
     0
 62
     7
  6
Continuous
370
    20
390
1D
347
266
  0
LAYER
  5
667
330
2
100
AcDbSymbolTableRecord
100
AcDbLayerTableRecord
  2
LOGO
 70
     0
 62
     7
  6
Continuous
370
    -3
390
1D
347
266
  0
LAYER
  5
88C
330
2
100
AcDbSymbolTableRecord
100
AcDbLayerTableRecord
  2
HIDDEN
 70
     0
 62
     7
  6
STYLE_12
370
    20
390
1D
347
266
1001
AcAecLayerStandard
1000

1000

  0
LAYER
  5
D5A
330
2
100
AcDbSymbolTableRecord
100
AcDbLayerTableRecord
  2
Defpoints
 70
     0
 62
     7
  6
Continuous
290
     0
370
    -3
390
1D
347
266
  0
ENDTAB
  0
TABLE
  2
STYLE
  5
3
330
0
100
AcDbSymbolTable
 70
     5
  0
STYLE
  5
17
330
3
100
AcDbSymbolTableRecord
100
AcDbTextStyleTableRecord
  2
Standard
 70
     0
 40
0.0
 41
1.0
 50
0.0
 71
     0
 42
2.5
  3
txt
  4
BIGFONT.SHX
  0
STYLE
  5
39
330
3
100
AcDbSymbolTableRecord
100
AcDbTextStyleTableRecord
  2
ＭＳ ゴシック
 70
     0
 40
0.0
 41
1.0
 50
0.0
 71
     0
 42
2.5
  3
msgothic.ttc
  4
ＭＳ ゴシック
1001
ACAD
1000
ＭＳ ゴシック
1071
        0
  0
STYLE
  5
384
330
3
100
AcDbSymbolTableRecord
100
AcDbTextStyleTableRecord
  2
ARIAL
 70
     0
 40
0.0
 41
1.0
 50
0.0
 71
     0
 42
12.0
  3
ARIAL.TTF
  4

1001
ACAD
1000
Arial
1071
       34
  0
STYLE
  5
385
330
3
100
AcDbSymbolTableRecord
100
AcDbTextStyleTableRecord
  2
ROMANS
 70
     0
 40
0.0
 41
1.0
 50
0.0
 71
     0
 42
5.0
  3
romans.shx
  4

  0
STYLE
  5
D63
330
3
100
AcDbSymbolTableRecord
100
AcDbTextStyleTableRecord
  2
SEACAD_arial_ttf
 70
     0
 40
0.0
 41
1.0
 50
0.0
 71
     0
 42
2.5
  3
arial.ttf
  4

  0
ENDTAB
  0
TABLE
  2
VIEW
  5
5
330
0
100
AcDbSymbolTable
 70
     0
  0
ENDTAB
  0
TABLE
  2
UCS
  5
6
330
0
100
AcDbSymbolTable
 70
     0
  0
ENDTAB
  0
TABLE
  2
APPID
  5
8
330
0
100
AcDbSymbolTable
 70
     2
  0
APPID
  5
16
330
8
100
AcDbSymbolTableRecord
100
AcDbRegAppTableRecord
  2
ACAD
 70
     0
  0
APPID
  5
7AC
330
8
100
AcDbSymbolTableRecord
100
AcDbRegAppTableRecord
  2
AcAecLayerStandard
 70
     0
  0
ENDTAB
  0
TABLE
  2
DIMSTYLE
  5
9
330
0
100
AcDbSymbolTable
 70
     7
100
AcDbDimStyleTable
  0
DIMSTYLE
105
18
330
9
100
AcDbSymbolTableRecord
100
AcDbDimStyleTableRecord
  2
Standard
 70
     0
178
     0
340
17
  0
DIMSTYLE
105
56
330
9
100
AcDbSymbolTableRecord
100
AcDbDimStyleTableRecord
  2
tform線あり
 70
     0
  3
<>
  4
[]
 41
9.999389648437498
 42
25.0
 43
0.9999999999999999
 44
0.0
 73
     0
 74
     0
 77
     1
 78
    11
140
24.4326171875
141
0.0
143
1.0
146
0.8
147
0.4999999999999999
171
     1
172
     1
174
     1
178
     0
179
     2
271
     1
272
     1
276
     2
284
    11
285
    11
286
    11
289
     0
340
39
341
4E
342
4E
  0
DIMSTYLE
105
57
102
{ACAD_REACTORS
330
1264
330
1267
330
1268
330
1269
330
1260
330
1261
330
1266
330
1262
330
125F
330
1263
330
125D
330
125E
330
1265
330
126A
102
}
330
9
100
AcDbSymbolTableRecord
100
AcDbDimStyleTableRecord
  2
tfrom線あり
 70
     0
  3
<>
  4
[]
 41
6.0
 42
5.0
 43
0.9999999999999999
 44
0.0
 73
     0
 74
     0
 77
     1
 78
    11
140
12.0
141
0.0
143
1.0
147
10.0
171
     1
174
     1
178
     0
179
     2
271
     0
272
     1
276
     2
284
    11
285
    11
286
    11
289
     0
340
39
341
4E
342
4E
  0
DIMSTYLE
105
5C
330
9
100
AcDbSymbolTableRecord
100
AcDbDimStyleTableRecord
  2
JIS
 70
     0
  3
<>
  4
[]
 41
9.0
 42
0.0
 43
6.99999999999994
 44
19.9999999999962
 73
     0
 74
     0
 77
     1
 78
    11
140
24.4326171875
141
0.0
143
1.0
147
10.0
171
     1
174
     1
178
     0
179
     2
271
     1
272
     1
276
     2
284
    11
285
    11
286
    11
289
     0
340
39
341
4E
342
4E
  0
DIMSTYLE
105
383
330
9
100
AcDbSymbolTableRecord
100
AcDbDimStyleTableRecord
  2
ARIAL
 70
     0
 41
10.0
 42
3.0
 43
0.5
 44
3.0
 73
     0
 74
     0
 77
     1
 78
     8
140
12.0
141
0.0
146
0.5
147
4.0
171
     1
172
     1
178
     0
271
     1
289
     0
340
384
  0
DIMSTYLE
105
D60
330
9
100
AcDbSymbolTableRecord
100
AcDbDimStyleTableRecord
  2
ISO-25
 70
     0
 41
2.5
 42
0.625
 43
3.75
 44
1.25
 73
     0
 74
     0
 77
     1
 78
     8
140
2.5
141
2.5
143
0.0393700787
147
0.625
171
     3
172
     1
178
     0
271
     2
272
     2
274
     3
278
    44
283
     0
284
     8
340
17
  0
DIMSTYLE
105
D62
102
{ACAD_REACTORS
102
}
330
9
100
AcDbSymbolTableRecord
100
AcDbDimStyleTableRecord
  2
$DDT_AUDIT_GENERATED_(252)
 70
     0
 41
6.0
 42
0.0
 44
3.0
 78
     8
140
6.0
141
3.0
144
4.0
147
3.0
173
     1
176
   136
177
   136
271
     0
178
   136
271
     0
272
     0
278
    44
284
     8
340
D63
343
D64
344
D64
  0
ENDTAB
  0
TABLE
  2
BLOCK_RECORD
  5
1
330
0
100
AcDbSymbolTable
 70
    35
  0
BLOCK_RECORD
  5
A
330
1
100
AcDbSymbolTableRecord
100
AcDbBlockTableRecord
  2
*MODEL_SPACE
340
20
 70
     0
280
     1
281
     0
  0
BLOCK_RECORD
  5
B
330
1
100
AcDbSymbolTableRecord
100
AcDbBlockTableRecord
  2
*PAPER_SPACE
340
21
 70
     0
280
     1
281
     0
  0
BLOCK_RECORD
  5
4E
330
1
100
AcDbSymbolTableRecord
100
AcDbBlockTableRecord
  2
_DOT
340
0
102
{BLKREFS
331
1271
331
1272
331
1280
331
1281
331
128B
331
128C
331
129A
331
129B
331
12A7
331
12A8
331
12B3
331
12B4
331
12C0
331
12C1
331
12CA
331
12CB
331
12D9
331
12DA
331
12E8
331
12E9
331
12F3
331
12F4
331
1300
331
1301
331
130D
331
130E
331
1319
102
}
 70
     0
280
     1
281
     0
  0
BLOCK_RECORD
  5
68A
330
1
100
AcDbSymbolTableRecord
100
AcDbBlockTableRecord
  2
名称未設定-1
340
0
102
{BLKREFS
331
6B5
102
}
 70
     1
280
     1
281
     0
  0
BLOCK_RECORD
  5
68D
330
1
100
AcDbSymbolTableRecord
100
AcDbBlockTableRecord
  2
block 2
340
0
102
{BLKREFS
331
68C
102
}
 70
     0
280
     1
281
     0
  0
BLOCK_RECORD
  5
690
330
1
100
AcDbSymbolTableRecord
100
AcDbBlockTableRecord
  2
block 3
340
0
102
{BLKREFS
331
68F
102
}
 70
     0
280
     1
281
     0
  0
BLOCK_RECORD
  5
693
330
1
100
AcDbSymbolTableRecord
100
AcDbBlockTableRecord
  2
block 4
340
0
102
{BLKREFS
331
692
102
}
 70
     0
280
     1
281
     0
  0
BLOCK_RECORD
  5
6A2
330
1
100
AcDbSymbolTableRecord
100
AcDbBlockTableRecord
  2
block 5
340
0
102
{BLKREFS
331
6A1
102
}
 70
     0
280
     1
281
     0
  0
BLOCK_RECORD
  5
D64
330
1
100
AcDbSymbolTableRecord
100
AcDbBlockTableRecord
  2
_SE_FILLED
340
0
102
{BLKREFS
331
F96
331
F97
331
FA4
331
FA5
331
FB2
331
FB3
331
FC0
331
FC1
331
FCE
331
FCF
331
FDC
331
FDD
331
FEA
331
FEB
331
FF6
331
FF7
331
1006
331
1007
331
1014
331
1015
331
1022
331
1023
331
1030
331
1031
331
103E
331
103F
331
104B
102
}
 70
     0
280
     1
281
     0
1001
ACAD
1000
DesignCenter Data
1002
{
1070
     1
1070
     0
1002
}
  0
BLOCK_RECORD
  5
F90
330
1
100
AcDbSymbolTableRecord
100
AcDbBlockTableRecord
  2
*D7
340
0
 70
     0
280
     1
281
     0
  0
BLOCK_RECORD
  5
F9E
330
1
100
AcDbSymbolTableRecord
100
AcDbBlockTableRecord
  2
*D8
340
0
 70
     0
280
     1
281
     0
  0
BLOCK_RECORD
  5
FAC
330
1
100
AcDbSymbolTableRecord
100
AcDbBlockTableRecord
  2
*D9
340
0
 70
     0
280
     1
281
     0
  0
BLOCK_RECORD
  5
FBA
330
1
100
AcDbSymbolTableRecord
100
AcDbBlockTableRecord
  2
*D10
340
0
 70
     0
280
     1
281
     0
  0
BLOCK_RECORD
  5
FC8
330
1
100
AcDbSymbolTableRecord
100
AcDbBlockTableRecord
  2
*D11
340
0
 70
     0
280
     1
281
     0
  0
BLOCK_RECORD
  5
FD6
330
1
100
AcDbSymbolTableRecord
100
AcDbBlockTableRecord
  2
*D12
340
0
 70
     0
280
     1
281
     0
  0
BLOCK_RECORD
  5
FE4
330
1
100
AcDbSymbolTableRecord
100
AcDbBlockTableRecord
  2
*D13
340
0
 70
     0
280
     1
281
     0
  0
BLOCK_RECORD
  5
FF2
330
1
100
AcDbSymbolTableRecord
100
AcDbBlockTableRecord
  2
*D14
340
0
 70
     0
280
     1
281
     0
  0
BLOCK_RECORD
  5
1000
330
1
100
AcDbSymbolTableRecord
100
AcDbBlockTableRecord
  2
*D15
340
0
 70
     0
280
     1
281
     0
  0
BLOCK_RECORD
  5
100E
330
1
100
AcDbSymbolTableRecord
100
AcDbBlockTableRecord
  2
*D16
340
0
 70
     0
280
     1
281
     0
  0
BLOCK_RECORD
  5
101C
330
1
100
AcDbSymbolTableRecord
100
AcDbBlockTableRecord
  2
*D17
340
0
 70
     0
280
     1
281
     0
  0
BLOCK_RECORD
  5
102A
330
1
100
AcDbSymbolTableRecord
100
AcDbBlockTableRecord
  2
*D18
340
0
 70
     0
280
     1
281
     0
  0
BLOCK_RECORD
  5
1038
330
1
100
AcDbSymbolTableRecord
100
AcDbBlockTableRecord
  2
*D19
340
0
 70
     0
280
     1
281
     0
  0
BLOCK_RECORD
  5
1046
330
1
100
AcDbSymbolTableRecord
100
AcDbBlockTableRecord
  2
*D20
340
0
 70
     0
280
     1
281
     0
  0
BLOCK_RECORD
  5
126B
330
1
100
AcDbSymbolTableRecord
100
AcDbBlockTableRecord
  2
*D21
340
0
 70
     0
280
     1
281
     0
  0
BLOCK_RECORD
  5
1278
330
1
100
AcDbSymbolTableRecord
100
AcDbBlockTableRecord
  2
*D22
340
0
 70
     0
280
     1
281
     0
  0
BLOCK_RECORD
  5
1285
330
1
100
AcDbSymbolTableRecord
100
AcDbBlockTableRecord
  2
*D23
340
0
 70
     0
280
     1
281
     0
  0
BLOCK_RECORD
  5
1292
330
1
100
AcDbSymbolTableRecord
100
AcDbBlockTableRecord
  2
*D24
340
0
 70
     0
280
     1
281
     0
  0
BLOCK_RECORD
  5
129F
330
1
100
AcDbSymbolTableRecord
100
AcDbBlockTableRecord
  2
*D25
340
0
 70
     0
280
     1
281
     0
  0
BLOCK_RECORD
  5
12AC
330
1
100
AcDbSymbolTableRecord
100
AcDbBlockTableRecord
  2
*D26
340
0
 70
     0
280
     1
281
     0
  0
BLOCK_RECORD
  5
12B9
330
1
100
AcDbSymbolTableRecord
100
AcDbBlockTableRecord
  2
*D27
340
0
 70
     0
280
     1
281
     0
  0
BLOCK_RECORD
  5
12C6
330
1
100
AcDbSymbolTableRecord
100
AcDbBlockTableRecord
  2
*D28
340
0
 70
     0
280
     1
281
     0
  0
BLOCK_RECORD
  5
12D3
330
1
100
AcDbSymbolTableRecord
100
AcDbBlockTableRecord
  2
*D29
340
0
 70
     0
280
     1
281
     0
  0
BLOCK_RECORD
  5
12E0
330
1
100
AcDbSymbolTableRecord
100
AcDbBlockTableRecord
  2
*D30
340
0
 70
     0
280
     1
281
     0
  0
BLOCK_RECORD
  5
12ED
330
1
100
AcDbSymbolTableRecord
100
AcDbBlockTableRecord
  2
*D31
340
0
 70
     0
280
     1
281
     0
  0
BLOCK_RECORD
  5
12FA
330
1
100
AcDbSymbolTableRecord
100
AcDbBlockTableRecord
  2
*D32
340
0
 70
     0
280
     1
281
     0
  0
BLOCK_RECORD
  5
1307
330
1
100
AcDbSymbolTableRecord
100
AcDbBlockTableRecord
  2
*D33
340
0
 70
     0
280
     1
281
     0
  0
BLOCK_RECORD
  5
1314
330
1
100
AcDbSymbolTableRecord
100
AcDbBlockTableRecord
  2
*D34
340
0
 70
     0
280
     1
281
     0
  0
ENDTAB
  0
ENDSEC
  0
SECTION
  2
BLOCKS
  0
BLOCK
  5
D
330
A
100
AcDbEntity
  8
0
390
1D
100
AcDbBlockBegin
  2
*MODEL_SPACE
 70
     0
 10
0.0
 20
0.0
 30
0.0
  3
*MODEL_SPACE
  1
*MODEL_SPACE
  0
ENDBLK
  5
E
330
A
100
AcDbEntity
  8
0
390
1D
100
AcDbBlockEnd
  0
BLOCK
  5
F
330
B
100
AcDbEntity
 67
     1
  8
0
390
1D
100
AcDbBlockBegin
  2
*PAPER_SPACE
 70
     0
 10
0.0
 20
0.0
 30
0.0
  3
*PAPER_SPACE
  1
*PAPER_SPACE
  0
ENDBLK
  5
10
330
B
100
AcDbEntity
 67
     1
  8
0
390
1D
100
AcDbBlockEnd
  0
BLOCK
  5
D4A
330
4E
100
AcDbEntity
  8
0
390
1D
100
AcDbBlockBegin
  2
_DOT
 70
     0
 10
0.0
 20
0.0
 30
0.0
  3
_DOT
  1
_DOT
  0
POLYLINE
  5
D4C
330
4E
100
AcDbEntity
  8
0
  6
ByBlock
 62
     0
370
    -2
390
1D
100
AcDb2dPolyline
 66
     1
 10
0.0
 20
0.0
 30
0.0
 70
     1
 40
0.5
 41
0.5
  0
VERTEX
  5
D4D
330
D4C
100
AcDbEntity
  8
0
  6
ByBlock
 62
     0
370
    -2
390
1D
100
AcDbVertex
100
AcDb2dVertex
 10
-0.25
 20
0.0
 30
0.0
 42
1.0
  0
VERTEX
  5
D4E
330
D4C
100
AcDbEntity
  8
0
  6
ByBlock
 62
     0
370
    -2
390
1D
100
AcDbVertex
100
AcDb2dVertex
 10
0.25
 20
0.0
 30
0.0
 42
1.0
  0
SEQEND
  5
D4F
330
D4C
100
AcDbEntity
  8
0
390
1D
  0
LINE
  5
D50
330
4E
100
AcDbEntity
  8
0
  6
ByBlock
 62
     0
370
    -2
390
1D
100
AcDbLine
 10
-0.5
 20
0.0
 30
0.0
 11
-1.0
 21
0.0
 31
0.0
  0
ENDBLK
  5
D51
330
4E
100
AcDbEntity
  8
0
390
1D
100
AcDbBlockEnd
  0
BLOCK
  5
68B
330
68A
100
AcDbEntity
  8
0
100
AcDbBlockBegin
  2
名称未設定-1
 70
     0
 10
0.0
 20
0.0
 30
0.0
  3
名称未設定-1
  1
名称未設定-1
  0
INSERT
  5
68F
330
68A
100
AcDbEntity
  8
LOGO
100
AcDbBlockReference
  2
block 3
 10
0.0
 20
0.0
 30
0.0
  0
ENDBLK
  5
6B1
330
68A
100
AcDbEntity
  8
0
100
AcDbBlockEnd
  0
BLOCK
  5
68E
330
68D
100
AcDbEntity
  8
0
100
AcDbBlockBegin
  2
block 2
 70
     0
 10
0.0
 20
0.0
 30
0.0
  3
block 2
  1
block 2
  0
ENDBLK
  5
6B0
330
68D
100
AcDbEntity
  8
0
100
AcDbBlockEnd
  0
BLOCK
  5
691
330
690
100
AcDbEntity
  8
0
100
AcDbBlockBegin
  2
block 3
 70
     0
 10
0.0
 20
0.0
 30
0.0
  3
block 3
  1
block 3
  0
INSERT
  5
692
330
690
100
AcDbEntity
  8
LOGO
100
AcDbBlockReference
  2
block 4
 10
0.0
 20
0.0
 30
0.0
  0
INSERT
  5
6A1
330
690
100
AcDbEntity
  8
LOGO
100
AcDbBlockReference
  2
block 5
 10
0.0
 20
0.0
 30
0.0
  0
ENDBLK
  5
6AF
330
690
100
AcDbEntity
  8
0
100
AcDbBlockEnd
  0
BLOCK
  5
694
330
693
100
AcDbEntity
  8
0
100
AcDbBlockBegin
  2
block 4
 70
     0
 10
0.0
 20
0.0
 30
0.0
  3
block 4
  1
block 4
  0
POLYLINE
  5
695
330
693
100
AcDbEntity
  8
LOGO
370
     0
100
AcDb2dPolyline
 66
     1
 10
0.0
 20
0.0
 30
0.0
  0
VERTEX
  5
696
330
695
100
AcDbEntity
  8
LOGO
370
     0
100
AcDbVertex
100
AcDb2dVertex
 10
83.79545727667795
 20
167.6444858234922
 30
0.0
  0
VERTEX
  5
697
330
695
100
AcDbEntity
  8
LOGO
370
     0
100
AcDbVertex
100
AcDb2dVertex
 10
83.79545727667795
 20
159.7968976406313
 30
0.0
  0
VERTEX
  5
698
330
695
100
AcDbEntity
  8
LOGO
370
     0
100
AcDbVertex
100
AcDb2dVertex
 10
71.3631329975216
 20
159.7968976406313
 30
0.0
  0
VERTEX
  5
699
330
695
100
AcDbEntity
  8
LOGO
370
     0
100
AcDbVertex
100
AcDb2dVertex
 10
71.3631329975216
 20
127.8027915271048
 30
0.0
  0
VERTEX
  5
69A
330
695
100
AcDbEntity
  8
LOGO
370
     0
100
AcDbVertex
100
AcDb2dVertex
 10
60.43011526263018
 20
127.8027915271048
 30
0.0
  0
VERTEX
  5
69B
330
695
100
AcDbEntity
  8
LOGO
370
     0
100
AcDbVertex
100
AcDb2dVertex
 10
60.43011526263018
 20
159.7968976406313
 30
0.0
  0
VERTEX
  5
69C
330
695
100
AcDbEntity
  8
LOGO
370
     0
100
AcDbVertex
100
AcDb2dVertex
 10
48.21793273020759
 20
159.7968976406313
 30
0.0
  0
VERTEX
  5
69D
330
695
100
AcDbEntity
  8
LOGO
370
     0
100
AcDbVertex
100
AcDb2dVertex
 10
48.21793273020759
 20
167.6444858234922
 30
0.0
  0
VERTEX
  5
69E
330
695
100
AcDbEntity
  8
LOGO
370
     0
100
AcDbVertex
100
AcDb2dVertex
 10
83.79545727667795
 20
167.6444858234922
 30
0.0
  0
SEQEND
  5
69F
330
695
100
AcDbEntity
  8
LOGO
370
     0
  0
HATCH
  5
6A0
330
693
100
AcDbEntity
  8
LOGO
 62
   250
420
  2234388
100
AcDbHatch
 10
0.0
 20
0.0
 30
0.0
210
0.0
220
0.0
230
1.0
  2
SOLID
 70
     1
 71
     0
 91
        1
 92
        1
 93
        8
 72
     1
 10
83.79545727667795
 20
167.6444858234922
 11
83.79545727667795
 21
159.7968976406313
 72
     1
 10
83.79545727667795
 20
159.7968976406313
 11
71.3631329975216
 21
159.7968976406313
 72
     1
 10
71.3631329975216
 20
159.7968976406313
 11
71.3631329975216
 21
127.8027915271048
 72
     1
 10
71.3631329975216
 20
127.8027915271048
 11
60.43011526263018
 21
127.8027915271048
 72
     1
 10
60.43011526263018
 20
127.8027915271048
 11
60.43011526263018
 21
159.7968976406313
 72
     1
 10
60.43011526263018
 20
159.7968976406313
 11
48.21793273020759
 21
159.7968976406313
 72
     1
 10
48.21793273020759
 20
159.7968976406313
 11
48.21793273020759
 21
167.6444858234922
 72
     1
 10
48.21793273020759
 20
167.6444858234922
 11
83.79545727667795
 21
167.6444858234922
 97
        0
 75
     2
 76
     1
 98
        0
  0
ENDBLK
  5
6AE
330
693
100
AcDbEntity
  8
0
100
AcDbBlockEnd
  0
BLOCK
  5
6A3
330
6A2
100
AcDbEntity
  8
0
100
AcDbBlockBegin
  2
block 5
 70
     0
 10
0.0
 20
0.0
 30
0.0
  3
block 5
  1
block 5
  0
SPLINE
  5
6A4
330
6A2
100
AcDbEntity
  8
LOGO
370
     0
100
AcDbSpline
210
0.0
220
0.0
230
1.0
 70
    11
 71
     3
 72
    56
 73
    52
 74
     0
 42
0.000000001
 43
0.0000000001
 40
0.0
 40
0.0
 40
0.0
 40
0.0
 40
1.0
 40
1.0
 40
1.0
 40
2.0
 40
2.0
 40
2.0
 40
3.0
 40
3.0
 40
3.0
 40
4.0
 40
4.0
 40
4.0
 40
5.0
 40
5.0
 40
5.0
 40
6.0
 40
6.0
 40
6.0
 40
7.0
 40
7.0
 40
7.0
 40
8.0
 40
8.0
 40
8.0
 40
9.0
 40
9.0
 40
9.0
 40
10.0
 40
10.0
 40
10.0
 40
11.0
 40
11.0
 40
11.0
 40
12.0
 40
12.0
 40
12.0
 40
13.0
 40
13.0
 40
13.0
 40
14.0
 40
14.0
 40
14.0
 40
15.0
 40
15.0
 40
15.0
 40
16.0
 40
16.0
 40
16.0
 40
17.0
 40
17.0
 40
17.0
 40
17.0
 10
100.4504378777679
 20
166.69157178364
 30
0.0
 10
101.9848844191641
 20
167.1313385124438
 30
0.0
 10
103.9637485713373
 20
166.7649523658846
 30
0.0
 10
103.9637485713373
 20
166.7649523658846
 30
0.0
 10
103.9637485713373
 20
166.7649523658846
 30
0.0
 10
103.0132460999156
 20
163.911205638077
 30
0.0
 10
103.0132460999156
 20
163.911205638077
 30
0.0
 10
103.0132460999156
 20
163.911205638077
 30
0.0
 10
101.0674548862189
 20
164.3601018759394
 30
0.0
 10
99.57090442016032
 20
163.1805004036133
 30
0.0
 10
98.40508333886608
 20
162.258247733807
 30
0.0
 10
97.65301849830304
 20
159.804132345923
 30
0.0
 10
97.3598406791005
 20
158.8699940888517
 30
0.0
 10
97.3598406791005
 20
158.8699940888517
 30
0.0
 10
96.07137411762282
 20
154.9119212747295
 30
0.0
 10
96.07137411762282
 20
154.9119212747295
 30
0.0
 10
96.07137411762282
 20
154.9119212747295
 30
0.0
 10
100.3012651448482
 20
154.9119212747295
 30
0.0
 10
100.3012651448482
 20
154.9119212747295
 30
0.0
 10
100.3012651448482
 20
154.9119212747295
 30
0.0
 10
99.64152892419852
 20
152.4199098115079
 30
0.0
 10
99.64152892419852
 20
152.4199098115079
 30
0.0
 10
99.64152892419852
 20
152.4199098115079
 30
0.0
 10
95.38097652692731
 20
152.4199098115079
 30
0.0
 10
95.38097652692731
 20
152.4199098115079
 30
0.0
 10
95.38097652692731
 20
152.4199098115079
 30
0.0
 10
87.75353009080013
 20
127.8027915271048
 30
0.0
 10
87.75353009080013
 20
127.8027915271048
 30
0.0
 10
87.75353009080013
 20
127.8027915271048
 30
0.0
 10
85.36538832498108
 20
127.8027915271048
 30
0.0
 10
85.36538832498108
 20
127.8027915271048
 30
0.0
 10
85.36538832498108
 20
127.8027915271048
 30
0.0
 10
93.00006946639998
 20
152.4199098115079
 30
0.0
 10
93.00006946639998
 20
152.4199098115079
 30
0.0
 10
93.00006946639998
 20
152.4199098115079
 30
0.0
 10
89.85297266450198
 20
152.4199098115079
 30
0.0
 10
89.85297266450198
 20
152.4199098115079
 30
0.0
 10
89.85297266450198
 20
152.4199098115079
 30
0.0
 10
90.51270888515164
 20
154.9119212747295
 30
0.0
 10
90.51270888515164
 20
154.9119212747295
 30
0.0
 10
90.51270888515164
 20
154.9119212747295
 30
0.0
 10
93.6904670570955
 20
154.9119212747295
 30
0.0
 10
93.6904670570955
 20
154.9119212747295
 30
0.0
 10
93.6904670570955
 20
154.9119212747295
 30
0.0
 10
94.81598049462158
 20
158.3616699146644
 30
0.0
 10
94.81598049462158
 20
158.3616699146644
 30
0.0
 10
95.7237637538445
 20
161.2605474231013
 30
0.0
 10
96.4968436907311
 20
162.8139420021662
 30
0.0
 10
97.15657991138076
 20
163.9844139654337
 30
0.0
 10
97.81183750494507
 20
165.1523021053827
 30
0.0
 10
99.1047826935081
 20
166.3084769129547
 30
0.0
 10
100.4504378777679
 20
166.69157178364
 30
0.0
  0
HATCH
  5
6A5
330
6A2
100
AcDbEntity
  8
LOGO
 62
   250
420
  2234388
100
AcDbHatch
 10
0.0
 20
0.0
 30
0.0
210
0.0
220
0.0
230
1.0
  2
SOLID
 70
     1
 71
     0
 91
        1
 92
        1
 93
        1
 72
     4
 94
        3
 73
     0
 74
     1
 95
       56
 96
       52
 40
0.0
 40
0.0
 40
0.0
 40
0.0
 40
1.0
 40
1.0
 40
1.0
 40
2.0
 40
2.0
 40
2.0
 40
3.0
 40
3.0
 40
3.0
 40
4.0
 40
4.0
 40
4.0
 40
5.0
 40
5.0
 40
5.0
 40
6.0
 40
6.0
 40
6.0
 40
7.0
 40
7.0
 40
7.0
 40
8.0
 40
8.0
 40
8.0
 40
9.0
 40
9.0
 40
9.0
 40
10.0
 40
10.0
 40
10.0
 40
11.0
 40
11.0
 40
11.0
 40
12.0
 40
12.0
 40
12.0
 40
13.0
 40
13.0
 40
13.0
 40
14.0
 40
14.0
 40
14.0
 40
15.0
 40
15.0
 40
15.0
 40
16.0
 40
16.0
 40
16.0
 40
17.0
 40
17.0
 40
17.0
 40
17.0
 10
100.4504378777679
 20
166.69157178364
 10
101.9848844191641
 20
167.1313385124438
 10
103.9637485713373
 20
166.7649523658846
 10
103.9637485713373
 20
166.7649523658846
 10
103.9637485713373
 20
166.7649523658846
 10
103.0132460999156
 20
163.911205638077
 10
103.0132460999156
 20
163.911205638077
 10
103.0132460999156
 20
163.911205638077
 10
101.0674548862189
 20
164.3601018759394
 10
99.57090442016032
 20
163.1805004036133
 10
98.40508333886608
 20
162.258247733807
 10
97.65301849830304
 20
159.804132345923
 10
97.3598406791005
 20
158.8699940888517
 10
97.3598406791005
 20
158.8699940888517
 10
96.07137411762282
 20
154.9119212747295
 10
96.07137411762282
 20
154.9119212747295
 10
96.07137411762282
 20
154.9119212747295
 10
100.3012651448482
 20
154.9119212747295
 10
100.3012651448482
 20
154.9119212747295
 10
100.3012651448482
 20
154.9119212747295
 10
99.64152892419852
 20
152.4199098115079
 10
99.64152892419852
 20
152.4199098115079
 10
99.64152892419852
 20
152.4199098115079
 10
95.38097652692731
 20
152.4199098115079
 10
95.38097652692731
 20
152.4199098115079
 10
95.38097652692731
 20
152.4199098115079
 10
87.75353009080013
 20
127.8027915271048
 10
87.75353009080013
 20
127.8027915271048
 10
87.75353009080013
 20
127.8027915271048
 10
85.36538832498108
 20
127.8027915271048
 10
85.36538832498108
 20
127.8027915271048
 10
85.36538832498108
 20
127.8027915271048
 10
93.00006946639998
 20
152.4199098115079
 10
93.00006946639998
 20
152.4199098115079
 10
93.00006946639998
 20
152.4199098115079
 10
89.85297266450198
 20
152.4199098115079
 10
89.85297266450198
 20
152.4199098115079
 10
89.85297266450198
 20
152.4199098115079
 10
90.51270888515164
 20
154.9119212747295
 10
90.51270888515164
 20
154.9119212747295
 10
90.51270888515164
 20
154.9119212747295
 10
93.6904670570955
 20
154.9119212747295
 10
93.6904670570955
 20
154.9119212747295
 10
93.6904670570955
 20
154.9119212747295
 10
94.81598049462158
 20
158.3616699146644
 10
94.81598049462158
 20
158.3616699146644
 10
95.7237637538445
 20
161.2605474231013
 10
96.4968436907311
 20
162.8139420021662
 10
97.15657991138076
 20
163.9844139654337
 10
97.81183750494507
 20
165.1523021053827
 10
99.1047826935081
 20
166.3084769129547
 10
100.4504378777679
 20
166.69157178364
 97
        0
 75
     2
 76
     1
 98
        0
  0
SPLINE
  5
6A6
330
6A2
100
AcDbEntity
  8
LOGO
370
     0
100
AcDbSpline
210
0.0
220
0.0
230
1.0
 70
    11
 71
     3
 72
    38
 73
    34
 74
     0
 42
0.000000001
 43
0.0000000001
 40
0.0
 40
0.0
 40
0.0
 40
0.0
 40
1.0
 40
1.0
 40
1.0
 40
2.0
 40
2.0
 40
2.0
 40
3.0
 40
3.0
 40
3.0
 40
4.0
 40
4.0
 40
4.0
 40
5.0
 40
5.0
 40
5.0
 40
6.0
 40
6.0
 40
6.0
 40
7.0
 40
7.0
 40
7.0
 40
8.0
 40
8.0
 40
8.0
 40
9.0
 40
9.0
 40
9.0
 40
10.0
 40
10.0
 40
10.0
 40
11.0
 40
11.0
 40
11.0
 40
11.0
 10
126.377554584636
 20
154.8151140277308
 30
0.0
 10
126.377554584636
 20
154.8151140277308
 30
0.0
 10
128.8311532078563
 20
154.8151140277308
 30
0.0
 10
128.8311532078563
 20
154.8151140277308
 30
0.0
 10
128.8311532078563
 20
154.8151140277308
 30
0.0
 10
127.7345785914971
 20
151.3062819612468
 30
0.0
 10
127.7345785914971
 20
151.3062819612468
 30
0.0
 10
128.571392836906
 20
152.2922689395754
 30
0.0
 10
129.8860421413442
 20
153.604506675583
 30
0.0
 10
131.0163787157314
 20
154.2664822097754
 30
0.0
 10
132.7044766171327
 20
155.2500576196734
 30
0.0
 10
133.6642808525008
 20
155.3847609420097
 30
0.0
 10
134.7284715499351
 20
155.3565111403944
 30
0.0
 10
134.7284715499351
 20
155.3565111403944
 30
0.0
 10
133.6877075172549
 20
152.0345756272799
 30
0.0
 10
133.6877075172549
 20
152.0345756272799
 30
0.0
 10
133.011434827367
 20
152.3184516825359
 30
0.0
 10
130.930940291334
 20
151.7768823149844
 30
0.0
 10
129.739280976855
 20
150.9162968950455
 30
0.0
 10
128.66613302525
 20
150.1454562717016
 30
0.0
 10
127.9192358313239
 20
149.4857200510519
 30
0.0
 10
127.0393578639405
 20
147.8282835196966
 30
0.0
 10
126.164647543194
 20
146.1699857139017
 30
0.0
 10
125.4742499524985
 20
143.5262176944419
 30
0.0
 10
124.2822461282437
 20
139.6959580071401
 30
0.0
 10
124.2822461282437
 20
139.6959580071401
 30
0.0
 10
120.5753209406769
 20
127.8027915271048
 30
0.0
 10
120.5753209406769
 20
127.8027915271048
 30
0.0
 10
120.5753209406769
 20
127.8027915271048
 30
0.0
 10
118.1964809388044
 20
127.8027915271048
 30
0.0
 10
118.1964809388044
 20
127.8027915271048
 30
0.0
 10
118.1964809388044
 20
127.8027915271048
 30
0.0
 10
126.377554584636
 20
154.8151140277308
 30
0.0
 10
126.377554584636
 20
154.8151140277308
 30
0.0
  0
HATCH
  5
6A7
330
6A2
100
AcDbEntity
  8
LOGO
 62
   250
420
  2234388
100
AcDbHatch
 10
0.0
 20
0.0
 30
0.0
210
0.0
220
0.0
230
1.0
  2
SOLID
 70
     1
 71
     0
 91
        1
 92
        1
 93
        1
 72
     4
 94
        3
 73
     0
 74
     1
 95
       38
 96
       34
 40
0.0
 40
0.0
 40
0.0
 40
0.0
 40
1.0
 40
1.0
 40
1.0
 40
2.0
 40
2.0
 40
2.0
 40
3.0
 40
3.0
 40
3.0
 40
4.0
 40
4.0
 40
4.0
 40
5.0
 40
5.0
 40
5.0
 40
6.0
 40
6.0
 40
6.0
 40
7.0
 40
7.0
 40
7.0
 40
8.0
 40
8.0
 40
8.0
 40
9.0
 40
9.0
 40
9.0
 40
10.0
 40
10.0
 40
10.0
 40
11.0
 40
11.0
 40
11.0
 40
11.0
 10
126.377554584636
 20
154.8151140277308
 10
126.377554584636
 20
154.8151140277308
 10
128.8311532078563
 20
154.8151140277308
 10
128.8311532078563
 20
154.8151140277308
 10
128.8311532078563
 20
154.8151140277308
 10
127.7345785914971
 20
151.3062819612468
 10
127.7345785914971
 20
151.3062819612468
 10
128.571392836906
 20
152.2922689395754
 10
129.8860421413442
 20
153.604506675583
 10
131.0163787157314
 20
154.2664822097754
 10
132.7044766171327
 20
155.2500576196734
 10
133.6642808525008
 20
155.3847609420097
 10
134.7284715499351
 20
155.3565111403944
 10
134.7284715499351
 20
155.3565111403944
 10
133.6877075172549
 20
152.0345756272799
 10
133.6877075172549
 20
152.0345756272799
 10
133.011434827367
 20
152.3184516825359
 10
130.930940291334
 20
151.7768823149844
 10
129.739280976855
 20
150.9162968950455
 10
128.66613302525
 20
150.1454562717016
 10
127.9192358313239
 20
149.4857200510519
 10
127.0393578639405
 20
147.8282835196966
 10
126.164647543194
 20
146.1699857139017
 10
125.4742499524985
 20
143.5262176944419
 10
124.2822461282437
 20
139.6959580071401
 10
124.2822461282437
 20
139.6959580071401
 10
120.5753209406769
 20
127.8027915271048
 10
120.5753209406769
 20
127.8027915271048
 10
120.5753209406769
 20
127.8027915271048
 10
118.1964809388044
 20
127.8027915271048
 10
118.1964809388044
 20
127.8027915271048
 10
118.1964809388044
 20
127.8027915271048
 10
126.377554584636
 20
154.8151140277308
 10
126.377554584636
 20
154.8151140277308
 97
        0
 75
     2
 76
     1
 98
        0
  0
SPLINE
  5
6A8
330
6A2
100
AcDbEntity
  8
LOGO
370
     0
100
AcDbSpline
210
0.0
220
0.0
230
1.0
 70
    11
 71
     3
 72
   104
 73
   100
 74
     0
 42
0.000000001
 43
0.0000000001
 40
0.0
 40
0.0
 40
0.0
 40
0.0
 40
1.0
 40
1.0
 40
1.0
 40
2.0
 40
2.0
 40
2.0
 40
3.0
 40
3.0
 40
3.0
 40
4.0
 40
4.0
 40
4.0
 40
5.0
 40
5.0
 40
5.0
 40
6.0
 40
6.0
 40
6.0
 40
7.0
 40
7.0
 40
7.0
 40
8.0
 40
8.0
 40
8.0
 40
9.0
 40
9.0
 40
9.0
 40
10.0
 40
10.0
 40
10.0
 40
11.0
 40
11.0
 40
11.0
 40
12.0
 40
12.0
 40
12.0
 40
13.0
 40
13.0
 40
13.0
 40
14.0
 40
14.0
 40
14.0
 40
15.0
 40
15.0
 40
15.0
 40
16.0
 40
16.0
 40
16.0
 40
17.0
 40
17.0
 40
17.0
 40
18.0
 40
18.0
 40
18.0
 40
19.0
 40
19.0
 40
19.0
 40
20.0
 40
20.0
 40
20.0
 40
21.0
 40
21.0
 40
21.0
 40
22.0
 40
22.0
 40
22.0
 40
23.0
 40
23.0
 40
23.0
 40
24.0
 40
24.0
 40
24.0
 40
25.0
 40
25.0
 40
25.0
 40
26.0
 40
26.0
 40
26.0
 40
27.0
 40
27.0
 40
27.0
 40
28.0
 40
28.0
 40
28.0
 40
29.0
 40
29.0
 40
29.0
 40
30.0
 40
30.0
 40
30.0
 40
31.0
 40
31.0
 40
31.0
 40
32.0
 40
32.0
 40
32.0
 40
33.0
 40
33.0
 40
33.0
 40
33.0
 10
139.8926730891197
 20
154.8294111834263
 30
0.0
 10
139.8926730891197
 20
154.8294111834263
 30
0.0
 10
142.0344903652445
 20
154.8294111834263
 30
0.0
 10
142.0344903652445
 20
154.8294111834263
 30
0.0
 10
142.0344903652445
 20
154.8294111834263
 30
0.0
 10
140.9516961399171
 20
151.3157559800812
 30
0.0
 10
140.9516961399171
 20
151.3157559800812
 30
0.0
 10
141.8928968473923
 20
152.7887075264977
 30
0.0
 10
142.7341897198865
 20
153.4484437471474
 30
0.0
 10
143.8552245303272
 20
154.2926649527359
 30
0.0
 10
144.9803934580775
 20
155.1296514530327
 30
0.0
 10
146.3139908001845
 20
155.3044901642492
 30
0.0
 10
147.241066606852
 20
155.3044901642492
 30
0.0
 10
148.3855280820469
 20
155.3044901642492
 30
0.0
 10
149.4969166187653
 20
155.0752189084569
 30
0.0
 10
150.0784491203092
 20
153.8172414621372
 30
0.0
 10
150.5228667310863
 20
152.833838307127
 30
0.0
 10
150.5414702589793
 20
152.7201500811143
 30
0.0
 10
150.4140016419347
 20
150.7765981809602
 30
0.0
 10
151.5818897818837
 20
152.7699317437168
 30
0.0
 10
152.4424752018226
 20
153.6256940267945
 30
0.0
 10
153.9038856707499
 20
154.4507949398263
 30
0.0
 10
155.4455669174378
 20
155.3044901642492
 30
0.0
 10
156.339225275853
 20
155.3659851592288
 30
0.0
 10
157.3748216618963
 20
155.2147453676543
 30
0.0
 10
158.911679771723
 20
154.9877134254046
 30
0.0
 10
159.8859534176746
 20
154.4390816074493
 30
0.0
 10
160.3965169054045
 20
152.7816450760939
 30
0.0
 10
160.9070803931344
 20
151.1219692311958
 30
0.0
 10
160.6328506116007
 20
150.2303779314354
 30
0.0
 10
159.9992971339115
 20
147.597634224801
 30
0.0
 10
159.7105979417943
 20
146.4014962832367
 30
0.0
 10
159.2947746424084
 20
144.9400858143094
 30
0.0
 10
158.7463150793409
 20
143.2092687007094
 30
0.0
 10
158.7463150793409
 20
143.2092687007094
 30
0.0
 10
153.9038856707499
 20
127.8027915271048
 30
0.0
 10
153.9038856707499
 20
127.8027915271048
 30
0.0
 10
153.9038856707499
 20
127.8027915271048
 30
0.0
 10
151.3882752878863
 20
127.8027915271048
 30
0.0
 10
151.3882752878863
 20
127.8027915271048
 30
0.0
 10
151.3882752878863
 20
127.8027915271048
 30
0.0
 10
155.6250565106276
 20
141.2751908193897
 30
0.0
 10
155.6250565106276
 20
141.2751908193897
 30
0.0
 10
156.5094131050963
 20
144.0936252951782
 30
0.0
 10
157.109893644309
 20
146.1506931664571
 30
0.0
 10
157.4220195011804
 20
147.4415712963654
 30
0.0
 10
157.8095929989511
 20
149.0530157726519
 30
0.0
 10
157.9656559273867
 20
149.5826995529385
 30
0.0
 10
157.7816877071116
 20
150.7529992613181
 30
0.0
 10
157.6111553680925
 20
151.8430281919372
 30
0.0
 10
157.0582171779396
 20
152.5547853887321
 30
0.0
 10
156.1170164704645
 20
152.5547853887321
 30
0.0
 10
155.1096698860365
 20
152.5547853887321
 30
0.0
 10
154.2962823053817
 20
152.4412694176073
 30
0.0
 10
153.156643967048
 20
151.2945686288697
 30
0.0
 10
152.0170056287143
 20
150.1476955852443
 30
0.0
 10
151.076149431015
 20
148.7930831468137
 30
0.0
 10
150.3337308641742
 20
147.2290087646991
 30
0.0
 10
149.5957909244188
 20
145.6683794803425
 30
0.0
 10
148.8530278478023
 20
143.6822806228776
 30
0.0
 10
148.0964843801539
 20
141.2751908193897
 30
0.0
 10
148.0964843801539
 20
141.2751908193897
 30
0.0
 10
143.8552245303272
 20
127.8027915271048
 30
0.0
 10
143.8552245303272
 20
127.8027915271048
 30
0.0
 10
143.8552245303272
 20
127.8027915271048
 30
0.0
 10
141.486030802177
 20
127.8027915271048
 30
0.0
 10
141.486030802177
 20
127.8027915271048
 30
0.0
 10
141.486030802177
 20
127.8027915271048
 30
0.0
 10
146.3329388378533
 20
143.2092687007094
 30
0.0
 10
146.3329388378533
 20
143.2092687007094
 30
0.0
 10
146.8483254624444
 20
144.8408669988801
 30
0.0
 10
147.2314203331297
 20
146.1837661049335
 30
0.0
 10
147.4867020769946
 20
147.224185627838
 30
0.0
 10
147.9169947869641
 20
149.0197705792876
 30
0.0
 10
148.0306830129768
 20
150.2400242051577
 30
0.0
 10
147.709255392159
 20
151.3157559800812
 30
0.0
 10
147.3874832615654
 20
152.3916600098926
 30
0.0
 10
146.8245542879144
 20
152.6683013598569
 30
0.0
 10
145.8840425999909
 20
152.6683013598569
 30
0.0
 10
145.0989048209514
 20
152.6683013598569
 30
0.0
 10
144.3282364524954
 20
152.3275811915945
 30
0.0
 10
143.4531816219731
 20
151.6538923250251
 30
0.0
 10
142.34627171234
 20
150.8074318058939
 30
0.0
 10
141.901854101563
 20
150.1097995099067
 30
0.0
 10
141.3578731655808
 20
149.289521733736
 30
0.0
 10
140.6299240093235
 20
148.192602607601
 30
0.0
 10
140.2850697237515
 20
147.455696197173
 30
0.0
 10
139.6652966370942
 20
145.8385673095858
 30
0.0
 10
139.0506911970739
 20
144.2214384219986
 30
0.0
 10
138.463991048893
 20
142.3252566160164
 30
0.0
 10
138.0571250036777
 20
141.0154304484394
 30
0.0
 10
138.0571250036777
 20
141.0154304484394
 30
0.0
 10
133.9009590684727
 20
127.8027915271048
 30
0.0
 10
133.9009590684727
 20
127.8027915271048
 30
0.0
 10
133.9009590684727
 20
127.8027915271048
 30
0.0
 10
131.4180771143097
 20
127.8027915271048
 30
0.0
 10
131.4180771143097
 20
127.8027915271048
 30
0.0
 10
131.4180771143097
 20
127.8027915271048
 30
0.0
 10
139.8926730891197
 20
154.8294111834263
 30
0.0
 10
139.8926730891197
 20
154.8294111834263
 30
0.0
  0
HATCH
  5
6A9
330
6A2
100
AcDbEntity
  8
LOGO
 62
   250
420
  2234388
100
AcDbHatch
 10
0.0
 20
0.0
 30
0.0
210
0.0
220
0.0
230
1.0
  2
SOLID
 70
     1
 71
     0
 91
        1
 92
        1
 93
        1
 72
     4
 94
        3
 73
     0
 74
     1
 95
      104
 96
      100
 40
0.0
 40
0.0
 40
0.0
 40
0.0
 40
1.0
 40
1.0
 40
1.0
 40
2.0
 40
2.0
 40
2.0
 40
3.0
 40
3.0
 40
3.0
 40
4.0
 40
4.0
 40
4.0
 40
5.0
 40
5.0
 40
5.0
 40
6.0
 40
6.0
 40
6.0
 40
7.0
 40
7.0
 40
7.0
 40
8.0
 40
8.0
 40
8.0
 40
9.0
 40
9.0
 40
9.0
 40
10.0
 40
10.0
 40
10.0
 40
11.0
 40
11.0
 40
11.0
 40
12.0
 40
12.0
 40
12.0
 40
13.0
 40
13.0
 40
13.0
 40
14.0
 40
14.0
 40
14.0
 40
15.0
 40
15.0
 40
15.0
 40
16.0
 40
16.0
 40
16.0
 40
17.0
 40
17.0
 40
17.0
 40
18.0
 40
18.0
 40
18.0
 40
19.0
 40
19.0
 40
19.0
 40
20.0
 40
20.0
 40
20.0
 40
21.0
 40
21.0
 40
21.0
 40
22.0
 40
22.0
 40
22.0
 40
23.0
 40
23.0
 40
23.0
 40
24.0
 40
24.0
 40
24.0
 40
25.0
 40
25.0
 40
25.0
 40
26.0
 40
26.0
 40
26.0
 40
27.0
 40
27.0
 40
27.0
 40
28.0
 40
28.0
 40
28.0
 40
29.0
 40
29.0
 40
29.0
 40
30.0
 40
30.0
 40
30.0
 40
31.0
 40
31.0
 40
31.0
 40
32.0
 40
32.0
 40
32.0
 40
33.0
 40
33.0
 40
33.0
 40
33.0
 10
139.8926730891197
 20
154.8294111834263
 10
139.8926730891197
 20
154.8294111834263
 10
142.0344903652445
 20
154.8294111834263
 10
142.0344903652445
 20
154.8294111834263
 10
142.0344903652445
 20
154.8294111834263
 10
140.9516961399171
 20
151.3157559800812
 10
140.9516961399171
 20
151.3157559800812
 10
141.8928968473923
 20
152.7887075264977
 10
142.7341897198865
 20
153.4484437471474
 10
143.8552245303272
 20
154.2926649527359
 10
144.9803934580775
 20
155.1296514530327
 10
146.3139908001845
 20
155.3044901642492
 10
147.241066606852
 20
155.3044901642492
 10
148.3855280820469
 20
155.3044901642492
 10
149.4969166187653
 20
155.0752189084569
 10
150.0784491203092
 20
153.8172414621372
 10
150.5228667310863
 20
152.833838307127
 10
150.5414702589793
 20
152.7201500811143
 10
150.4140016419347
 20
150.7765981809602
 10
151.5818897818837
 20
152.7699317437168
 10
152.4424752018226
 20
153.6256940267945
 10
153.9038856707499
 20
154.4507949398263
 10
155.4455669174378
 20
155.3044901642492
 10
156.339225275853
 20
155.3659851592288
 10
157.3748216618963
 20
155.2147453676543
 10
158.911679771723
 20
154.9877134254046
 10
159.8859534176746
 20
154.4390816074493
 10
160.3965169054045
 20
152.7816450760939
 10
160.9070803931344
 20
151.1219692311958
 10
160.6328506116007
 20
150.2303779314354
 10
159.9992971339115
 20
147.597634224801
 10
159.7105979417943
 20
146.4014962832367
 10
159.2947746424084
 20
144.9400858143094
 10
158.7463150793409
 20
143.2092687007094
 10
158.7463150793409
 20
143.2092687007094
 10
153.9038856707499
 20
127.8027915271048
 10
153.9038856707499
 20
127.8027915271048
 10
153.9038856707499
 20
127.8027915271048
 10
151.3882752878863
 20
127.8027915271048
 10
151.3882752878863
 20
127.8027915271048
 10
151.3882752878863
 20
127.8027915271048
 10
155.6250565106276
 20
141.2751908193897
 10
155.6250565106276
 20
141.2751908193897
 10
156.5094131050963
 20
144.0936252951782
 10
157.109893644309
 20
146.1506931664571
 10
157.4220195011804
 20
147.4415712963654
 10
157.8095929989511
 20
149.0530157726519
 10
157.9656559273867
 20
149.5826995529385
 10
157.7816877071116
 20
150.7529992613181
 10
157.6111553680925
 20
151.8430281919372
 10
157.0582171779396
 20
152.5547853887321
 10
156.1170164704645
 20
152.5547853887321
 10
155.1096698860365
 20
152.5547853887321
 10
154.2962823053817
 20
152.4412694176073
 10
153.156643967048
 20
151.2945686288697
 10
152.0170056287143
 20
150.1476955852443
 10
151.076149431015
 20
148.7930831468137
 10
150.3337308641742
 20
147.2290087646991
 10
149.5957909244188
 20
145.6683794803425
 10
148.8530278478023
 20
143.6822806228776
 10
148.0964843801539
 20
141.2751908193897
 10
148.0964843801539
 20
141.2751908193897
 10
143.8552245303272
 20
127.8027915271048
 10
143.8552245303272
 20
127.8027915271048
 10
143.8552245303272
 20
127.8027915271048
 10
141.486030802177
 20
127.8027915271048
 10
141.486030802177
 20
127.8027915271048
 10
141.486030802177
 20
127.8027915271048
 10
146.3329388378533
 20
143.2092687007094
 10
146.3329388378533
 20
143.2092687007094
 10
146.8483254624444
 20
144.8408669988801
 10
147.2314203331297
 20
146.1837661049335
 10
147.4867020769946
 20
147.224185627838
 10
147.9169947869641
 20
149.0197705792876
 10
148.0306830129768
 20
150.2400242051577
 10
147.709255392159
 20
151.3157559800812
 10
147.3874832615654
 20
152.3916600098926
 10
146.8245542879144
 20
152.6683013598569
 10
145.8840425999909
 20
152.6683013598569
 10
145.0989048209514
 20
152.6683013598569
 10
144.3282364524954
 20
152.3275811915945
 10
143.4531816219731
 20
151.6538923250251
 10
142.34627171234
 20
150.8074318058939
 10
141.901854101563
 20
150.1097995099067
 10
141.3578731655808
 20
149.289521733736
 10
140.6299240093235
 20
148.192602607601
 10
140.2850697237515
 20
147.455696197173
 10
139.6652966370942
 20
145.8385673095858
 10
139.0506911970739
 20
144.2214384219986
 10
138.463991048893
 20
142.3252566160164
 10
138.0571250036777
 20
141.0154304484394
 10
138.0571250036777
 20
141.0154304484394
 10
133.9009590684727
 20
127.8027915271048
 10
133.9009590684727
 20
127.8027915271048
 10
133.9009590684727
 20
127.8027915271048
 10
131.4180771143097
 20
127.8027915271048
 10
131.4180771143097
 20
127.8027915271048
 10
131.4180771143097
 20
127.8027915271048
 10
139.8926730891197
 20
154.8294111834263
 10
139.8926730891197
 20
154.8294111834263
 97
        0
 75
     2
 76
     1
 98
        0
  0
SPLINE
  5
6AA
330
6A2
100
AcDbEntity
  8
LOGO
370
     0
100
AcDbSpline
210
0.0
220
0.0
230
1.0
 70
    11
 71
     3
 72
    29
 73
    25
 74
     0
 42
0.000000001
 43
0.0000000001
 40
0.0
 40
0.0
 40
0.0
 40
0.0
 40
1.0
 40
1.0
 40
1.0
 40
2.0
 40
2.0
 40
2.0
 40
3.0
 40
3.0
 40
3.0
 40
4.0
 40
4.0
 40
4.0
 40
5.0
 40
5.0
 40
5.0
 40
6.0
 40
6.0
 40
6.0
 40
7.0
 40
7.0
 40
7.0
 40
8.0
 40
8.0
 40
8.0
 40
8.0
 10
101.6420971922469
 20
132.8388354296931
 30
0.0
 10
101.630039350094
 20
134.7164137077823
 30
0.0
 10
102.2236296937908
 20
138.0598810818841
 30
0.0
 10
103.7487744712405
 20
142.5378191476827
 30
0.0
 10
105.819967243327
 20
148.5896501242061
 30
0.0
 10
107.0602024361932
 20
150.8074318058939
 30
0.0
 10
108.1522984254671
 20
151.8833358357054
 30
0.0
 10
109.741177511439
 20
153.4532668840085
 30
0.0
 10
111.8740375333931
 20
153.5290590346837
 30
0.0
 10
112.5075910110823
 20
153.4532668840085
 30
0.0
 10
113.4012493694975
 20
153.3490526768302
 30
0.0
 10
114.6683563248758
 20
152.7580461564518
 30
0.0
 10
114.7493161221879
 20
150.7838328862519
 30
0.0
 10
114.8106388622796
 20
149.0909118479895
 30
0.0
 10
114.3186789024427
 20
145.9191825971221
 30
0.0
 10
112.6164561002338
 20
140.9489400617108
 30
0.0
 10
110.6444821435766
 20
135.1746117095912
 30
0.0
 10
109.4669477299053
 20
132.8960240524753
 30
0.0
 10
108.5212683953448
 20
131.9072809959403
 30
0.0
 10
106.7346406980658
 20
130.0538184021569
 30
0.0
 10
104.8222669326213
 20
130.2336525051225
 30
0.0
 10
104.5408024457958
 20
130.2336525051225
 30
0.0
 10
104.1721769856939
 20
130.2336525051225
 30
0.0
 10
101.6465758193322
 20
130.6305277668397
 30
0.0
 10
101.6420971922469
 20
132.8388354296931
 30
0.0
  0
SPLINE
  5
6AB
330
6A2
100
AcDbEntity
  8
LOGO
370
     0
100
AcDbSpline
210
0.0
220
0.0
230
1.0
 70
    11
 71
     3
 72
    32
 73
    28
 74
     0
 42
0.000000001
 43
0.0000000001
 40
0.0
 40
0.0
 40
0.0
 40
0.0
 40
1.0
 40
1.0
 40
1.0
 40
2.0
 40
2.0
 40
2.0
 40
3.0
 40
3.0
 40
3.0
 40
4.0
 40
4.0
 40
4.0
 40
5.0
 40
5.0
 40
5.0
 40
6.0
 40
6.0
 40
6.0
 40
7.0
 40
7.0
 40
7.0
 40
8.0
 40
8.0
 40
8.0
 40
9.0
 40
9.0
 40
9.0
 40
9.0
 10
106.2595617172429
 20
153.4105476718098
 30
0.0
 10
104.8222669326213
 20
151.5474388043041
 30
0.0
 10
103.7177685914188
 20
149.8758773721411
 30
0.0
 10
101.9232171692965
 20
144.6141795664062
 30
0.0
 10
100.2754269116635
 20
139.7999999594306
 30
0.0
 10
99.22777268346732
 20
136.3052927937542
 30
0.0
 10
99.06964269637689
 20
132.039572749846
 30
0.0
 10
98.94665270641765
 20
128.8673267343149
 30
0.0
 10
100.8807305877373
 20
127.8027915271048
 30
0.0
 10
103.7129454545577
 20
127.8027915271048
 30
0.0
 10
104.9352661390825
 20
127.8027915271048
 30
0.0
 10
108.0151835347002
 20
127.8827177950895
 30
0.0
 10
110.2045431598849
 20
130.5926316915021
 30
0.0
 10
111.7417457794874
 20
132.4984597712065
 30
0.0
 10
113.155269389579
 20
134.475256864725
 30
0.0
 10
115.0562743324223
 20
140.9489400617108
 30
0.0
 10
116.6361961642235
 20
146.3680788349845
 30
0.0
 10
117.7282921534974
 20
149.8639917848761
 30
0.0
 10
117.6480213757369
 20
151.8595646611754
 30
0.0
 10
117.6480213757369
 20
151.8595646611754
 30
0.0
 10
117.6480213757369
 20
151.8595646611754
 30
0.0
 10
117.6480213757369
 20
151.8595646611754
 30
0.0
 10
117.13229024137
 20
155.18150017429
 30
0.0
 10
114.7162431837115
 20
155.886194920681
 30
0.0
 10
113.3351034925446
 20
155.886194920681
 30
0.0
 10
111.9829026225447
 20
155.886194920681
 30
0.0
 10
108.3414342923792
 20
156.1251124501957
 30
0.0
 10
106.2595617172429
 20
153.4105476718098
 30
0.0
  0
HATCH
  5
6AC
330
6A2
100
AcDbEntity
  8
LOGO
 62
   250
420
  2234388
100
AcDbHatch
 10
0.0
 20
0.0
 30
0.0
210
0.0
220
0.0
230
1.0
  2
SOLID
 70
     1
 71
     0
 91
        2
 92
        1
 93
        1
 72
     4
 94
        3
 73
     0
 74
     1
 95
       29
 96
       25
 40
0.0
 40
0.0
 40
0.0
 40
0.0
 40
1.0
 40
1.0
 40
1.0
 40
2.0
 40
2.0
 40
2.0
 40
3.0
 40
3.0
 40
3.0
 40
4.0
 40
4.0
 40
4.0
 40
5.0
 40
5.0
 40
5.0
 40
6.0
 40
6.0
 40
6.0
 40
7.0
 40
7.0
 40
7.0
 40
8.0
 40
8.0
 40
8.0
 40
8.0
 10
101.6420971922469
 20
132.8388354296931
 10
101.630039350094
 20
134.7164137077823
 10
102.2236296937908
 20
138.0598810818841
 10
103.7487744712405
 20
142.5378191476827
 10
105.819967243327
 20
148.5896501242061
 10
107.0602024361932
 20
150.8074318058939
 10
108.1522984254671
 20
151.8833358357054
 10
109.741177511439
 20
153.4532668840085
 10
111.8740375333931
 20
153.5290590346837
 10
112.5075910110823
 20
153.4532668840085
 10
113.4012493694975
 20
153.3490526768302
 10
114.6683563248758
 20
152.7580461564518
 10
114.7493161221879
 20
150.7838328862519
 10
114.8106388622796
 20
149.0909118479895
 10
114.3186789024427
 20
145.9191825971221
 10
112.6164561002338
 20
140.9489400617108
 10
110.6444821435766
 20
135.1746117095912
 10
109.4669477299053
 20
132.8960240524753
 10
108.5212683953448
 20
131.9072809959403
 10
106.7346406980658
 20
130.0538184021569
 10
104.8222669326213
 20
130.2336525051225
 10
104.5408024457958
 20
130.2336525051225
 10
104.1721769856939
 20
130.2336525051225
 10
101.6465758193322
 20
130.6305277668397
 10
101.6420971922469
 20
132.8388354296931
 97
        0
 92
        1
 93
        1
 72
     4
 94
        3
 73
     0
 74
     1
 95
       32
 96
       28
 40
0.0
 40
0.0
 40
0.0
 40
0.0
 40
1.0
 40
1.0
 40
1.0
 40
2.0
 40
2.0
 40
2.0
 40
3.0
 40
3.0
 40
3.0
 40
4.0
 40
4.0
 40
4.0
 40
5.0
 40
5.0
 40
5.0
 40
6.0
 40
6.0
 40
6.0
 40
7.0
 40
7.0
 40
7.0
 40
8.0
 40
8.0
 40
8.0
 40
9.0
 40
9.0
 40
9.0
 40
9.0
 10
106.2595617172429
 20
153.4105476718098
 10
104.8222669326213
 20
151.5474388043041
 10
103.7177685914188
 20
149.8758773721411
 10
101.9232171692965
 20
144.6141795664062
 10
100.2754269116635
 20
139.7999999594306
 10
99.22777268346732
 20
136.3052927937542
 10
99.06964269637689
 20
132.039572749846
 10
98.94665270641765
 20
128.8673267343149
 10
100.8807305877373
 20
127.8027915271048
 10
103.7129454545577
 20
127.8027915271048
 10
104.9352661390825
 20
127.8027915271048
 10
108.0151835347002
 20
127.8827177950895
 10
110.2045431598849
 20
130.5926316915021
 10
111.7417457794874
 20
132.4984597712065
 10
113.155269389579
 20
134.475256864725
 10
115.0562743324223
 20
140.9489400617108
 10
116.6361961642235
 20
146.3680788349845
 10
117.7282921534974
 20
149.8639917848761
 10
117.6480213757369
 20
151.8595646611754
 10
117.6480213757369
 20
151.8595646611754
 10
117.6480213757369
 20
151.8595646611754
 10
117.6480213757369
 20
151.8595646611754
 10
117.13229024137
 20
155.18150017429
 10
114.7162431837115
 20
155.886194920681
 10
113.3351034925446
 20
155.886194920681
 10
111.9829026225447
 20
155.886194920681
 10
108.3414342923792
 20
156.1251124501957
 10
106.2595617172429
 20
153.4105476718098
 97
        0
 75
     2
 76
     1
 98
        0
  0
ENDBLK
  5
6AD
330
6A2
100
AcDbEntity
  8
0
100
AcDbBlockEnd
  0
BLOCK
  5
D65
330
D64
100
AcDbEntity
  8
0
100
AcDbBlockBegin
  2
_SE_FILLED
 70
     0
 10
0.0
 20
0.0
 30
0.0
  3
_SE_FILLED
  1
_SE_FILLED
  0
SOLID
  5
D66
330
D64
100
AcDbEntity
  8
0
 62
     0
100
AcDbTrace
 10
0.0
 20
0.0
 30
0.0
 11
-1.0
 21
-0.1665
 31
0.0
 12
-1.0
 22
0.1665
 32
0.0
 13
0.0
 23
0.0
 33
0.0
  0
LINE
  5
D67
330
D64
100
AcDbEntity
  8
0
 62
     0
100
AcDbLine
 10
0.0
 20
0.0
 30
0.0
 11
-1.0
 21
0.0
 31
0.0
  0
ENDBLK
  5
D68
330
D64
100
AcDbEntity
  8
0
100
AcDbBlockEnd
  0
BLOCK
  5
F91
330
F90
100
AcDbEntity
  8
0
100
AcDbBlockBegin
  2
*D7
 70
     1
 10
0.0
 20
0.0
 30
0.0
  3
*D7
  1
*D8
  0
LINE
  5
F92
330
F90
100
AcDbEntity
  8
MODEL
  6
Continuous
 62
   136
370
    -2
100
AcDbLine
 10
671.0879782880002
 20
336.5
 30
0.0
 11
757.7356168472002
 21
336.5
 31
0.0
  0
LINE
  5
F93
330
F90
100
AcDbEntity
  8
MODEL
  6
Continuous
 62
   136
370
    -2
100
AcDbLine
 10
617.3175000000001
 20
246.3
 30
0.0
 11
757.7356168472002
 21
246.3
 31
0.0
  0
LINE
  5
F94
330
F90
100
AcDbEntity
  8
MODEL
  6
Continuous
 62
   136
370
    -2
100
AcDbLine
 10
754.7356168472002
 20
330.5
 30
0.0
 11
754.7356168472002
 21
297.4630002444
 31
0.0
  0
LINE
  5
F95
330
F90
100
AcDbEntity
  8
MODEL
  6
Continuous
 62
   136
370
    -2
100
AcDbLine
 10
754.7356168472002
 20
252.3
 30
0.0
 11
754.7356168472002
 21
285.3370002444
 31
0.0
  0
INSERT
  5
F96
330
F90
100
AcDbEntity
  8
MODEL
 62
   136
370
    -2
100
AcDbBlockReference
  2
_SE_FILLED
 10
754.7356168472002
 20
336.5
 30
0.0
 41
6.0
 42
6.0
 43
6.0
 50
90.0
  0
INSERT
  5
F97
330
F90
100
AcDbEntity
  8
MODEL
 62
   136
370
    -2
100
AcDbBlockReference
  2
_SE_FILLED
 10
754.7356168472002
 20
246.3
 30
0.0
 41
6.0
 42
6.0
 43
6.0
 50
270.0
  0
MTEXT
  5
F98
330
F90
100
AcDbEntity
  8
MODEL
  6
Continuous
 62
   136
370
    20
100
AcDbMText
 10
754.7356168472002
 20
291.4000002444
 30
0.0
 40
6.0
 41
0.0
 46
0.0
 71
     5
 72
     1
  1
\A1;\A1;361
  7
SEACAD_arial_ttf
 73
     1
 44
1.0
  0
POINT
  5
F99
330
F90
100
AcDbEntity
  8
Defpoints
 62
     0
100
AcDbPoint
 10
671.0879782880002
 20
336.5
 30
0.0
  0
POINT
  5
F9A
330
F90
100
AcDbEntity
  8
Defpoints
 62
     0
100
AcDbPoint
 10
617.3175000000001
 20
246.3
 30
0.0
  0
POINT
  5
F9B
330
F90
100
AcDbEntity
  8
Defpoints
 62
     0
100
AcDbPoint
 10
754.7356168472002
 20
246.3
 30
0.0
  0
ENDBLK
  5
F9C
330
F90
100
AcDbEntity
  8
0
100
AcDbBlockEnd
  0
BLOCK
  5
F9F
330
F9E
100
AcDbEntity
  8
0
100
AcDbBlockBegin
  2
*D8
 70
     1
 10
0.0
 20
0.0
 30
0.0
  3
*D8
  1
*D9
  0
LINE
  5
FA0
330
F9E
100
AcDbEntity
  8
MODEL
  6
Continuous
 62
   136
370
    -2
100
AcDbLine
 10
671.0879782880002
 20
336.5
 30
0.0
 11
685.7356227408
 21
336.5
 31
0.0
  0
LINE
  5
FA1
330
F9E
100
AcDbEntity
  8
MODEL
  6
Continuous
 62
   136
370
    -2
100
AcDbLine
 10
629.0
 20
306.5
 30
0.0
 11
685.7356227408
 21
306.5
 31
0.0
  0
LINE
  5
FA2
330
F9E
100
AcDbEntity
  8
MODEL
  6
Continuous
 62
   136
370
    -2
100
AcDbLine
 10
682.7356227408
 20
330.5
 30
0.0
 11
682.7356227408
 21
327.5630003351999
 31
0.0
  0
LINE
  5
FA3
330
F9E
100
AcDbEntity
  8
MODEL
  6
Continuous
 62
   136
370
    -2
100
AcDbLine
 10
682.7356227408
 20
312.5
 30
0.0
 11
682.7356227408
 21
315.4370003352
 31
0.0
  0
INSERT
  5
FA4
330
F9E
100
AcDbEntity
  8
MODEL
 62
   136
370
    -2
100
AcDbBlockReference
  2
_SE_FILLED
 10
682.7356227408
 20
336.5
 30
0.0
 41
6.0
 42
6.0
 43
6.0
 50
90.0
  0
INSERT
  5
FA5
330
F9E
100
AcDbEntity
  8
MODEL
 62
   136
370
    -2
100
AcDbBlockReference
  2
_SE_FILLED
 10
682.7356227408
 20
306.5
 30
0.0
 41
6.0
 42
6.0
 43
6.0
 50
270.0
  0
MTEXT
  5
FA6
330
F9E
100
AcDbEntity
  8
MODEL
  6
Continuous
 62
   136
370
    20
100
AcDbMText
 10
682.7356227408
 20
321.5000003352
 30
0.0
 40
6.0
 41
0.0
 46
0.0
 71
     5
 72
     1
  1
\A1;\A1;max. 120
  7
SEACAD_arial_ttf
 73
     1
 44
1.0
  0
POINT
  5
FA7
330
F9E
100
AcDbEntity
  8
Defpoints
 62
     0
100
AcDbPoint
 10
671.0879782880002
 20
336.5
 30
0.0
  0
POINT
  5
FA8
330
F9E
100
AcDbEntity
  8
Defpoints
 62
     0
100
AcDbPoint
 10
629.0
 20
306.5
 30
0.0
  0
POINT
  5
FA9
330
F9E
100
AcDbEntity
  8
Defpoints
 62
     0
100
AcDbPoint
 10
682.7356227408
 20
306.5
 30
0.0
  0
ENDBLK
  5
FAA
330
F9E
100
AcDbEntity
  8
0
100
AcDbBlockEnd
  0
BLOCK
  5
FAD
330
FAC
100
AcDbEntity
  8
0
100
AcDbBlockBegin
  2
*D9
 70
     1
 10
0.0
 20
0.0
 30
0.0
  3
*D9
  1
*D10
  0
LINE
  5
FAE
330
FAC
100
AcDbEntity
  8
MODEL
  6
Continuous
 62
   136
370
    -2
100
AcDbLine
 10
408.0
 20
246.3
 30
0.0
 11
408.0
 21
130.5917667032
 31
0.0
  0
LINE
  5
FAF
330
FAC
100
AcDbEntity
  8
MODEL
  6
Continuous
 62
   136
370
    -2
100
AcDbLine
 10
608.0
 20
246.3
 30
0.0
 11
608.0
 21
130.5917667032
 31
0.0
  0
LINE
  5
FB0
330
FAC
100
AcDbEntity
  8
MODEL
  6
Continuous
 62
   136
370
    -2
100
AcDbLine
 10
414.0
 20
133.5917667032
 30
0.0
 11
498.3880014900002
 21
133.5917667032
 31
0.0
  0
LINE
  5
FB1
330
FAC
100
AcDbEntity
  8
MODEL
  6
Continuous
 62
   136
370
    -2
100
AcDbLine
 10
602.0
 20
133.5917667032
 30
0.0
 11
517.6120014900001
 21
133.5917667032
 31
0.0
  0
INSERT
  5
FB2
330
FAC
100
AcDbEntity
  8
MODEL
 62
   136
370
    -2
100
AcDbBlockReference
  2
_SE_FILLED
 10
408.0
 20
133.5917667032
 30
0.0
 41
6.0
 42
6.0
 43
6.0
 50
180.0
  0
INSERT
  5
FB3
330
FAC
100
AcDbEntity
  8
MODEL
 62
   136
370
    -2
100
AcDbBlockReference
  2
_SE_FILLED
 10
608.0
 20
133.5917667032
 30
0.0
 41
6.0
 42
6.0
 43
6.0
  0
MTEXT
  5
FB4
330
FAC
100
AcDbEntity
  8
MODEL
  6
Continuous
 62
   136
370
    20
100
AcDbMText
 10
508.0000014900002
 20
133.5917667032
 30
0.0
 40
6.0
 41
0.0
 46
0.0
 71
     5
 72
     1
  1
\A1;\A1;800
  7
SEACAD_arial_ttf
 73
     1
 44
1.0
  0
POINT
  5
FB5
330
FAC
100
AcDbEntity
  8
Defpoints
 62
     0
100
AcDbPoint
 10
408.0
 20
246.3
 30
0.0
  0
POINT
  5
FB6
330
FAC
100
AcDbEntity
  8
Defpoints
 62
     0
100
AcDbPoint
 10
608.0
 20
246.3
 30
0.0
  0
POINT
  5
FB7
330
FAC
100
AcDbEntity
  8
Defpoints
 62
     0
100
AcDbPoint
 10
608.0
 20
133.5917667032
 30
0.0
  0
ENDBLK
  5
FB8
330
FAC
100
AcDbEntity
  8
0
100
AcDbBlockEnd
  0
BLOCK
  5
FBB
330
FBA
100
AcDbEntity
  8
0
100
AcDbBlockBegin
  2
*D10
 70
     1
 10
0.0
 20
0.0
 30
0.0
  3
*D10
  1
*D11
  0
LINE
  5
FBC
330
FBA
100
AcDbEntity
  8
MODEL
  6
Continuous
 62
   136
370
    -2
100
AcDbLine
 10
536.0
 20
374.5
 30
0.0
 11
536.0
 21
462.211961448
 31
0.0
  0
LINE
  5
FBD
330
FBA
100
AcDbEntity
  8
MODEL
  6
Continuous
 62
   136
370
    -2
100
AcDbLine
 10
480.0
 20
374.5
 30
0.0
 11
480.0
 21
462.211961448
 31
0.0
  0
LINE
  5
FBE
330
FBA
100
AcDbEntity
  8
MODEL
  6
Continuous
 62
   136
370
    -2
100
AcDbLine
 10
480.0
 20
459.211961448
 30
0.0
 11
482.2409030956001
 21
459.211961448
 31
0.0
  0
LINE
  5
FBF
330
FBA
100
AcDbEntity
  8
MODEL
  6
Continuous
 62
   136
370
    -2
100
AcDbLine
 10
530.0
 20
459.211961448
 30
0.0
 11
486.0
 21
459.211961448
 31
0.0
  0
INSERT
  5
FC0
330
FBA
100
AcDbEntity
  8
MODEL
 62
   136
370
    -2
100
AcDbBlockReference
  2
_SE_FILLED
 10
536.0
 20
459.211961448
 30
0.0
 41
6.0
 42
6.0
 43
6.0
  0
INSERT
  5
FC1
330
FBA
100
AcDbEntity
  8
MODEL
 62
   136
370
    -2
100
AcDbBlockReference
  2
_SE_FILLED
 10
480.0
 20
459.211961448
 30
0.0
 41
6.0
 42
6.0
 43
6.0
 50
180.0
  0
MTEXT
  5
FC2
330
FBA
100
AcDbEntity
  8
MODEL
  6
Continuous
 62
   136
370
    20
100
AcDbMText
 10
468.9989030956001
 20
459.211961448
 30
0.0
 40
6.0
 41
0.0
 46
0.0
 71
     5
 72
     1
  1
\A1;\A1;%%C 224
  7
SEACAD_arial_ttf
 73
     1
 44
1.0
  0
POINT
  5
FC3
330
FBA
100
AcDbEntity
  8
Defpoints
 62
     0
100
AcDbPoint
 10
536.0
 20
374.5
 30
0.0
  0
POINT
  5
FC4
330
FBA
100
AcDbEntity
  8
Defpoints
 62
     0
100
AcDbPoint
 10
480.0
 20
374.5
 30
0.0
  0
POINT
  5
FC5
330
FBA
100
AcDbEntity
  8
Defpoints
 62
     0
100
AcDbPoint
 10
480.0
 20
459.211961448
 30
0.0
  0
ENDBLK
  5
FC6
330
FBA
100
AcDbEntity
  8
0
100
AcDbBlockEnd
  0
BLOCK
  5
FC9
330
FC8
100
AcDbEntity
  8
0
100
AcDbBlockBegin
  2
*D11
 70
     1
 10
0.0
 20
0.0
 30
0.0
  3
*D11
  1
*D12
  0
LINE
  5
FCA
330
FC8
100
AcDbEntity
  8
MODEL
  6
Continuous
 62
   136
370
    -2
100
AcDbLine
 10
435.5
 20
384.5879782879999
 30
0.0
 11
435.5
 21
412.1271434867999
 31
0.0
  0
LINE
  5
FCB
330
FC8
100
AcDbEntity
  8
MODEL
  6
Continuous
 62
   136
370
    -2
100
AcDbLine
 10
380.5
 20
384.5879782879999
 30
0.0
 11
380.5
 21
412.1271434867999
 31
0.0
  0
LINE
  5
FCC
330
FC8
100
AcDbEntity
  8
MODEL
  6
Continuous
 62
   136
370
    -2
100
AcDbLine
 10
380.5
 20
409.1271434867999
 30
0.0
 11
374.5000000000001
 21
409.1271434867999
 31
0.0
  0
LINE
  5
FCD
330
FC8
100
AcDbEntity
  8
MODEL
  6
Continuous
 62
   136
370
    -2
100
AcDbLine
 10
429.5
 20
409.1271434867999
 30
0.0
 11
386.5
 21
409.1271434867999
 31
0.0
  0
INSERT
  5
FCE
330
FC8
100
AcDbEntity
  8
MODEL
 62
   136
370
    -2
100
AcDbBlockReference
  2
_SE_FILLED
 10
435.5
 20
409.1271434867999
 30
0.0
 41
6.0
 42
6.0
 43
6.0
  0
INSERT
  5
FCF
330
FC8
100
AcDbEntity
  8
MODEL
 62
   136
370
    -2
100
AcDbBlockReference
  2
_SE_FILLED
 10
380.5
 20
409.1271434867999
 30
0.0
 41
6.0
 42
6.0
 43
6.0
 50
180.0
  0
MTEXT
  5
FD0
330
FC8
100
AcDbEntity
  8
MODEL
  6
Continuous
 62
   136
370
    20
100
AcDbMText
 10
361.258
 20
409.1271434867999
 30
0.0
 40
6.0
 41
0.0
 46
0.0
 71
     5
 72
     1
  1
\A1;\A1;%%C 220
  7
SEACAD_arial_ttf
 73
     1
 44
1.0
  0
POINT
  5
FD1
330
FC8
100
AcDbEntity
  8
Defpoints
 62
     0
100
AcDbPoint
 10
435.5
 20
384.5879782879999
 30
0.0
  0
POINT
  5
FD2
330
FC8
100
AcDbEntity
  8
Defpoints
 62
     0
100
AcDbPoint
 10
380.5
 20
384.5879782879999
 30
0.0
  0
POINT
  5
FD3
330
FC8
100
AcDbEntity
  8
Defpoints
 62
     0
100
AcDbPoint
 10
380.5
 20
409.1271434867999
 30
0.0
  0
ENDBLK
  5
FD4
330
FC8
100
AcDbEntity
  8
0
100
AcDbBlockEnd
  0
BLOCK
  5
FD7
330
FD6
100
AcDbEntity
  8
0
100
AcDbBlockBegin
  2
*D12
 70
     1
 10
0.0
 20
0.0
 30
0.0
  3
*D12
  1
*D13
  0
LINE
  5
FD8
330
FD6
100
AcDbEntity
  8
MODEL
  6
Continuous
 62
   136
370
    -2
100
AcDbLine
 10
523.0
 20
291.3
 30
0.0
 11
523.0
 21
172.4155320404
 31
0.0
  0
LINE
  5
FD9
330
FD6
100
AcDbEntity
  8
MODEL
  6
Continuous
 62
   136
370
    -2
100
AcDbLine
 10
493.0
 20
291.3
 30
0.0
 11
493.0
 21
172.4155320404
 31
0.0
  0
LINE
  5
FDA
330
FD6
100
AcDbEntity
  8
MODEL
  6
Continuous
 62
   136
370
    -2
100
AcDbLine
 10
493.0
 20
175.4155320404
 30
0.0
 11
506.6856529867999
 21
175.4155320404
 31
0.0
  0
LINE
  5
FDB
330
FD6
100
AcDbEntity
  8
MODEL
  6
Continuous
 62
   136
370
    -2
100
AcDbLine
 10
517.0
 20
175.4155320404
 30
0.0
 11
499.0
 21
175.4155320404
 31
0.0
  0
INSERT
  5
FDC
330
FD6
100
AcDbEntity
  8
MODEL
 62
   136
370
    -2
100
AcDbBlockReference
  2
_SE_FILLED
 10
523.0
 20
175.4155320404
 30
0.0
 41
6.0
 42
6.0
 43
6.0
  0
INSERT
  5
FDD
330
FD6
100
AcDbEntity
  8
MODEL
 62
   136
370
    -2
100
AcDbBlockReference
  2
_SE_FILLED
 10
493.0
 20
175.4155320404
 30
0.0
 41
6.0
 42
6.0
 43
6.0
 50
180.0
  0
MTEXT
  5
FDE
330
FD6
100
AcDbEntity
  8
MODEL
  6
Continuous
 62
   136
370
    20
100
AcDbMText
 10
483.4506529867999
 20
175.4155320404
 30
0.0
 40
6.0
 41
0.0
 46
0.0
 71
     5
 72
     1
  1
\A1;\A1;M 120 x1.5
  7
SEACAD_arial_ttf
 73
     1
 44
1.0
  0
POINT
  5
FDF
330
FD6
100
AcDbEntity
  8
Defpoints
 62
     0
100
AcDbPoint
 10
523.0
 20
291.3
 30
0.0
  0
POINT
  5
FE0
330
FD6
100
AcDbEntity
  8
Defpoints
 62
     0
100
AcDbPoint
 10
493.0
 20
291.3
 30
0.0
  0
POINT
  5
FE1
330
FD6
100
AcDbEntity
  8
Defpoints
 62
     0
100
AcDbPoint
 10
493.0
 20
175.4155320404
 30
0.0
  0
ENDBLK
  5
FE2
330
FD6
100
AcDbEntity
  8
0
100
AcDbBlockEnd
  0
BLOCK
  5
FE5
330
FE4
100
AcDbEntity
  8
0
100
AcDbBlockBegin
  2
*D13
 70
     1
 10
0.0
 20
0.0
 30
0.0
  3
*D13
  1
*D14
  0
LINE
  5
FE6
330
FE4
100
AcDbEntity
  8
MODEL
  6
Continuous
 62
   136
370
    -2
100
AcDbLine
 10
618.4775
 20
247.46
 30
0.0
 11
618.4775
 21
204.8825195944
 31
0.0
  0
LINE
  5
FE7
330
FE4
100
AcDbEntity
  8
MODEL
  6
Continuous
 62
   136
370
    -2
100
AcDbLine
 10
597.5225
 20
247.46
 30
0.0
 11
597.5225
 21
204.8825195944
 31
0.0
  0
LINE
  5
FE8
330
FE4
100
AcDbEntity
  8
MODEL
  6
Continuous
 62
   136
370
    -2
100
AcDbLine
 10
618.4775
 20
207.8825195944
 30
0.0
 11
615.6609715636
 21
207.8825195944
 31
0.0
  0
LINE
  5
FE9
330
FE4
100
AcDbEntity
  8
MODEL
  6
Continuous
 62
   136
370
    -2
100
AcDbLine
 10
612.4775
 20
207.8825195944
 30
0.0
 11
603.5225
 21
207.8825195944
 31
0.0
  0
INSERT
  5
FEA
330
FE4
100
AcDbEntity
  8
MODEL
 62
   136
370
    -2
100
AcDbBlockReference
  2
_SE_FILLED
 10
618.4775
 20
207.8825195944
 30
0.0
 41
6.0
 42
6.0
 43
6.0
  0
INSERT
  5
FEB
330
FE4
100
AcDbEntity
  8
MODEL
 62
   136
370
    -2
100
AcDbBlockReference
  2
_SE_FILLED
 10
597.5225
 20
207.8825195944
 30
0.0
 41
6.0
 42
6.0
 43
6.0
 50
180.0
  0
MTEXT
  5
FEC
330
FE4
100
AcDbEntity
  8
MODEL
  6
Continuous
 62
   136
370
    20
100
AcDbMText
 10
627.2949715636
 20
207.8825195944
 30
0.0
 40
6.0
 41
0.0
 46
0.0
 71
     5
 72
     1
  1
\A1;\A1;G1/2 {}
  7
SEACAD_arial_ttf
 73
     1
 44
1.0
  0
POINT
  5
FED
330
FE4
100
AcDbEntity
  8
Defpoints
 62
     0
100
AcDbPoint
 10
618.4775
 20
247.46
 30
0.0
  0
POINT
  5
FEE
330
FE4
100
AcDbEntity
  8
Defpoints
 62
     0
100
AcDbPoint
 10
597.5225
 20
247.46
 30
0.0
  0
POINT
  5
FEF
330
FE4
100
AcDbEntity
  8
Defpoints
 62
     0
100
AcDbPoint
 10
597.5225
 20
207.8825195944
 30
0.0
  0
ENDBLK
  5
FF0
330
FE4
100
AcDbEntity
  8
0
100
AcDbBlockEnd
  0
BLOCK
  5
FF3
330
FF2
100
AcDbEntity
  8
0
100
AcDbBlockBegin
  2
*D14
 70
     1
 10
0.0
 20
0.0
 30
0.0
  3
*D14
  1
*D15
  0
ARC
  5
FF4
330
FF2
100
AcDbEntity
  8
MODEL
  6
Continuous
 62
   136
370
    -2
100
AcDbCircle
 10
508.0
 20
828.5
 30
0.0
 40
190.3811693192339
100
AcDbArc
 50
201.805792595028
 51
300.9051198797093
  0
ARC
  5
FF5
330
FF2
100
AcDbEntity
  8
MODEL
  6
Continuous
 62
   136
370
    -2
100
AcDbCircle
 10
508.0
 20
828.5
 30
0.0
 40
190.3811693192339
100
AcDbArc
 50
307.4470080678382
 51
338.1942074049437
  0
INSERT
  5
FF6
330
FF2
100
AcDbEntity
  8
MODEL
 62
   136
370
    -2
100
AcDbBlockReference
  2
_SE_FILLED
 10
329.1002200540965
 20
763.385805183001
 30
0.0
 41
6.0
 42
6.0
 43
6.0
 50
110.9028962975022
  0
INSERT
  5
FF7
330
FF2
100
AcDbEntity
  8
MODEL
 62
   136
370
    -2
100
AcDbBlockReference
  2
_SE_FILLED
 10
686.8997799458713
 20
763.3858051829125
 30
0.0
 41
6.0
 42
6.0
 43
6.0
 50
69.09710370246944
  0
MTEXT
  5
FF8
330
FF2
100
AcDbEntity
  8
MODEL
  6
Continuous
 62
   136
370
    20
100
AcDbMText
 10
615.3212356660001
 20
671.251337028
 30
0.0
 40
6.0
 41
0.0
 46
0.0
 71
     5
 72
     1
  1
\A1;180%%D {}
  7
SEACAD_arial_ttf
 73
     1
 44
1.0
  0
POINT
  5
FF9
330
FF2
100
AcDbEntity
  8
Defpoints
 62
     0
100
AcDbPoint
 10
432.5938709977239
 20
653.6889438844017
 30
0.0
  0
POINT
  5
FFA
330
FF2
100
AcDbEntity
  8
Defpoints
 62
     0
100
AcDbPoint
 10
508.0
 20
828.5
 30
0.0
  0
POINT
  5
FFB
330
FF2
100
AcDbEntity
  8
Defpoints
 62
     0
100
AcDbPoint
 10
508.0
 20
828.5
 30
0.0
  0
POINT
  5
FFC
330
FF2
100
AcDbEntity
  8
Defpoints
 62
     0
100
AcDbPoint
 10
248.6035003888001
 20
734.0873952687999
 30
0.0
  0
POINT
  5
FFD
330
FF2
100
AcDbEntity
  8
Defpoints
 62
     0
100
AcDbPoint
 10
767.3964996108002
 20
734.0873952687999
 30
0.0
  0
ENDBLK
  5
FFE
330
FF2
100
AcDbEntity
  8
0
100
AcDbBlockEnd
  0
BLOCK
  5
1001
330
1000
100
AcDbEntity
  8
0
100
AcDbBlockBegin
  2
*D15
 70
     1
 10
0.0
 20
0.0
 30
0.0
  3
*D15
  1
*D16
  0
LINE
  5
1002
330
1000
100
AcDbEntity
  8
MODEL
  6
Continuous
 62
   136
370
    -2
100
AcDbLine
 10
671.0879782880002
 20
336.5
 30
0.0
 11
718.3651135708001
 21
336.5
 31
0.0
  0
LINE
  5
1003
330
1000
100
AcDbEntity
  8
MODEL
  6
Continuous
 62
   136
370
    -2
100
AcDbLine
 10
656.0903411264001
 20
407.4961185548
 30
0.0
 11
718.3651135708001
 21
407.4961185548
 31
0.0
  0
LINE
  5
1004
330
1000
100
AcDbEntity
  8
MODEL
  6
Continuous
 62
   136
370
    -2
100
AcDbLine
 10
715.3651135708001
 20
342.5
 30
0.0
 11
715.3651135708001
 21
365.935060286
 31
0.0
  0
LINE
  5
1005
330
1000
100
AcDbEntity
  8
MODEL
  6
Continuous
 62
   136
370
    -2
100
AcDbLine
 10
715.3651135708001
 20
401.4961185548
 30
0.0
 11
715.3651135708001
 21
378.0610602859999
 31
0.0
  0
INSERT
  5
1006
330
1000
100
AcDbEntity
  8
MODEL
 62
   136
370
    -2
100
AcDbBlockReference
  2
_SE_FILLED
 10
715.3651135708001
 20
336.5
 30
0.0
 41
6.0
 42
6.0
 43
6.0
 50
270.0
  0
INSERT
  5
1007
330
1000
100
AcDbEntity
  8
MODEL
 62
   136
370
    -2
100
AcDbBlockReference
  2
_SE_FILLED
 10
715.3651135708001
 20
407.4961185548
 30
0.0
 41
6.0
 42
6.0
 43
6.0
 50
90.0
  0
MTEXT
  5
1008
330
1000
100
AcDbEntity
  8
MODEL
  6
Continuous
 62
   136
370
    20
100
AcDbMText
 10
715.3651135708001
 20
371.9980602859999
 30
0.0
 40
6.0
 41
0.0
 46
0.0
 71
     5
 72
     1
  1
\A1;\A1;284
  7
SEACAD_arial_ttf
 73
     1
 44
1.0
  0
POINT
  5
1009
330
1000
100
AcDbEntity
  8
Defpoints
 62
     0
100
AcDbPoint
 10
671.0879782880002
 20
336.5
 30
0.0
  0
POINT
  5
100A
330
1000
100
AcDbEntity
  8
Defpoints
 62
     0
100
AcDbPoint
 10
656.0903411264001
 20
407.4961185548
 30
0.0
  0
POINT
  5
100B
330
1000
100
AcDbEntity
  8
Defpoints
 62
     0
100
AcDbPoint
 10
715.3651135708001
 20
407.4961185548
 30
0.0
  0
ENDBLK
  5
100C
330
1000
100
AcDbEntity
  8
0
100
AcDbBlockEnd
  0
BLOCK
  5
100F
330
100E
100
AcDbEntity
  8
0
100
AcDbBlockBegin
  2
*D16
 70
     1
 10
0.0
 20
0.0
 30
0.0
  3
*D16
  1
*D17
  0
LINE
  5
1010
330
100E
100
AcDbEntity
  8
MODEL
  6
Continuous
 62
   136
370
    -2
100
AcDbLine
 10
423.0
 20
306.5
 30
0.0
 11
423.0
 21
297.1228068544
 31
0.0
  0
LINE
  5
1011
330
100E
100
AcDbEntity
  8
MODEL
  6
Continuous
 62
   136
370
    -2
100
AcDbLine
 10
393.0
 20
306.5
 30
0.0
 11
393.0
 21
297.1228068544
 31
0.0
  0
LINE
  5
1012
330
100E
100
AcDbEntity
  8
MODEL
  6
Continuous
 62
   136
370
    -2
100
AcDbLine
 10
393.0
 20
300.1228068544
 30
0.0
 11
375.3223706340001
 21
300.1228068544
 31
0.0
  0
LINE
  5
1013
330
100E
100
AcDbEntity
  8
MODEL
  6
Continuous
 62
   136
370
    -2
100
AcDbLine
 10
417.0
 20
300.1228068544
 30
0.0
 11
399.0
 21
300.1228068544
 31
0.0
  0
INSERT
  5
1014
330
100E
100
AcDbEntity
  8
MODEL
 62
   136
370
    -2
100
AcDbBlockReference
  2
_SE_FILLED
 10
423.0
 20
300.1228068544
 30
0.0
 41
6.0
 42
6.0
 43
6.0
  0
INSERT
  5
1015
330
100E
100
AcDbEntity
  8
MODEL
 62
   136
370
    -2
100
AcDbBlockReference
  2
_SE_FILLED
 10
393.0
 20
300.1228068544
 30
0.0
 41
6.0
 42
6.0
 43
6.0
 50
180.0
  0
MTEXT
  5
1016
330
100E
100
AcDbEntity
  8
MODEL
  6
Continuous
 62
   136
370
    20
100
AcDbMText
 10
352.0873706340001
 20
300.1228068544
 30
0.0
 40
6.0
 41
0.0
 46
0.0
 71
     5
 72
     1
  1
\A1;\A1;M 120 x1.5
  7
SEACAD_arial_ttf
 73
     1
 44
1.0
  0
POINT
  5
1017
330
100E
100
AcDbEntity
  8
Defpoints
 62
     0
100
AcDbPoint
 10
423.0
 20
306.5
 30
0.0
  0
POINT
  5
1018
330
100E
100
AcDbEntity
  8
Defpoints
 62
     0
100
AcDbPoint
 10
393.0
 20
306.5
 30
0.0
  0
POINT
  5
1019
330
100E
100
AcDbEntity
  8
Defpoints
 62
     0
100
AcDbPoint
 10
393.0
 20
300.1228068544
 30
0.0
  0
ENDBLK
  5
101A
330
100E
100
AcDbEntity
  8
0
100
AcDbBlockEnd
  0
BLOCK
  5
101D
330
101C
100
AcDbEntity
  8
0
100
AcDbBlockBegin
  2
*D17
 70
     1
 10
0.0
 20
0.0
 30
0.0
  3
*D17
  1
*D18
  0
LINE
  5
101E
330
101C
100
AcDbEntity
  8
MODEL
  6
Continuous
 62
   136
370
    -2
100
AcDbLine
 10
28.0
 20
384.5879782879999
 30
0.0
 11
28.0
 21
538.8800639356
 31
0.0
  0
LINE
  5
101F
330
101C
100
AcDbEntity
  8
MODEL
  6
Continuous
 62
   136
370
    -2
100
AcDbLine
 10
258.0
 20
522.187978288
 30
0.0
 11
258.0
 21
538.8800639356
 31
0.0
  0
LINE
  5
1020
330
101C
100
AcDbEntity
  8
MODEL
  6
Continuous
 62
   136
370
    -2
100
AcDbLine
 10
34.0
 20
535.8800639356
 30
0.0
 11
133.391002086
 21
535.8800639356
 31
0.0
  0
LINE
  5
1021
330
101C
100
AcDbEntity
  8
MODEL
  6
Continuous
 62
   136
370
    -2
100
AcDbLine
 10
252.0
 20
535.8800639356
 30
0.0
 11
152.609002086
 21
535.8800639356
 31
0.0
  0
INSERT
  5
1022
330
101C
100
AcDbEntity
  8
MODEL
 62
   136
370
    -2
100
AcDbBlockReference
  2
_SE_FILLED
 10
28.0
 20
535.8800639356
 30
0.0
 41
6.0
 42
6.0
 43
6.0
 50
180.0
  0
INSERT
  5
1023
330
101C
100
AcDbEntity
  8
MODEL
 62
   136
370
    -2
100
AcDbBlockReference
  2
_SE_FILLED
 10
258.0
 20
535.8800639356
 30
0.0
 41
6.0
 42
6.0
 43
6.0
  0
MTEXT
  5
1024
330
101C
100
AcDbEntity
  8
MODEL
  6
Continuous
 62
   136
370
    20
100
AcDbMText
 10
143.000002086
 20
535.8800639356
 30
0.0
 40
6.0
 41
0.0
 46
0.0
 71
     5
 72
     1
  1
\A1;\A1;920
  7
SEACAD_arial_ttf
 73
     1
 44
1.0
  0
POINT
  5
1025
330
101C
100
AcDbEntity
  8
Defpoints
 62
     0
100
AcDbPoint
 10
28.0
 20
384.5879782879999
 30
0.0
  0
POINT
  5
1026
330
101C
100
AcDbEntity
  8
Defpoints
 62
     0
100
AcDbPoint
 10
258.0
 20
522.187978288
 30
0.0
  0
POINT
  5
1027
330
101C
100
AcDbEntity
  8
Defpoints
 62
     0
100
AcDbPoint
 10
258.0
 20
535.8800639356
 30
0.0
  0
ENDBLK
  5
1028
330
101C
100
AcDbEntity
  8
0
100
AcDbBlockEnd
  0
BLOCK
  5
102B
330
102A
100
AcDbEntity
  8
0
100
AcDbBlockBegin
  2
*D18
 70
     1
 10
0.0
 20
0.0
 30
0.0
  3
*D18
  1
*D19
  0
LINE
  5
102C
330
102A
100
AcDbEntity
  8
MODEL
  6
Continuous
 62
   136
370
    -2
100
AcDbLine
 10
103.5879782880002
 20
336.5
 30
0.0
 11
294.8651036464
 21
336.5
 31
0.0
  0
LINE
  5
102D
330
102A
100
AcDbEntity
  8
MODEL
  6
Continuous
 62
   136
370
    -2
100
AcDbLine
 10
287.3267792252
 20
507.6578281292
 30
0.0
 11
294.8651036464
 21
507.6578281292
 31
0.0
  0
LINE
  5
102E
330
102A
100
AcDbEntity
  8
MODEL
  6
Continuous
 62
   136
370
    -2
100
AcDbLine
 10
291.8651036464
 20
342.5
 30
0.0
 11
291.8651036464
 21
453.169423246
 31
0.0
  0
LINE
  5
102F
330
102A
100
AcDbEntity
  8
MODEL
  6
Continuous
 62
   136
370
    -2
100
AcDbLine
 10
291.8651036464
 20
501.6578281292
 30
0.0
 11
291.8651036464
 21
465.2954232459999
 31
0.0
  0
INSERT
  5
1030
330
102A
100
AcDbEntity
  8
MODEL
 62
   136
370
    -2
100
AcDbBlockReference
  2
_SE_FILLED
 10
291.8651036464
 20
336.5
 30
0.0
 41
6.0
 42
6.0
 43
6.0
 50
270.0
  0
INSERT
  5
1031
330
102A
100
AcDbEntity
  8
MODEL
 62
   136
370
    -2
100
AcDbBlockReference
  2
_SE_FILLED
 10
291.8651036464
 20
507.6578281292
 30
0.0
 41
6.0
 42
6.0
 43
6.0
 50
90.0
  0
MTEXT
  5
1032
330
102A
100
AcDbEntity
  8
MODEL
  6
Continuous
 62
   136
370
    20
100
AcDbMText
 10
291.8651036464
 20
459.2324232459999
 30
0.0
 40
6.0
 41
0.0
 46
0.0
 71
     5
 72
     1
  1
\A1;\A1;685
  7
SEACAD_arial_ttf
 73
     1
 44
1.0
  0
POINT
  5
1033
330
102A
100
AcDbEntity
  8
Defpoints
 62
     0
100
AcDbPoint
 10
103.5879782880002
 20
336.5
 30
0.0
  0
POINT
  5
1034
330
102A
100
AcDbEntity
  8
Defpoints
 62
     0
100
AcDbPoint
 10
287.3267792252
 20
507.6578281292
 30
0.0
  0
POINT
  5
1035
330
102A
100
AcDbEntity
  8
Defpoints
 62
     0
100
AcDbPoint
 10
291.8651036464
 20
507.6578281292
 30
0.0
  0
ENDBLK
  5
1036
330
102A
100
AcDbEntity
  8
0
100
AcDbBlockEnd
  0
BLOCK
  5
1039
330
1038
100
AcDbEntity
  8
0
100
AcDbBlockBegin
  2
*D19
 70
     1
 10
0.0
 20
0.0
 30
0.0
  3
*D19
  1
*D20
  0
LINE
  5
103A
330
1038
100
AcDbEntity
  8
MODEL
  6
Continuous
 62
   136
370
    -2
100
AcDbLine
 10
103.5879782880002
 20
336.5
 30
0.0
 11
222.865106746
 21
336.5
 31
0.0
  0
LINE
  5
103B
330
1038
100
AcDbEntity
  8
MODEL
  6
Continuous
 62
   136
370
    -2
100
AcDbLine
 10
245.1500000000001
 20
474.1
 30
0.0
 11
216.865106746
 21
474.1
 31
0.0
  0
LINE
  5
103C
330
1038
100
AcDbEntity
  8
MODEL
  6
Continuous
 62
   136
370
    -2
100
AcDbLine
 10
219.865106746
 20
342.5
 30
0.0
 11
219.865106746
 21
399.2370023364
 31
0.0
  0
LINE
  5
103D
330
1038
100
AcDbEntity
  8
MODEL
  6
Continuous
 62
   136
370
    -2
100
AcDbLine
 10
219.865106746
 20
468.1
 30
0.0
 11
219.865106746
 21
411.3630023364
 31
0.0
  0
INSERT
  5
103E
330
1038
100
AcDbEntity
  8
MODEL
 62
   136
370
    -2
100
AcDbBlockReference
  2
_SE_FILLED
 10
219.865106746
 20
336.5
 30
0.0
 41
6.0
 42
6.0
 43
6.0
 50
270.0
  0
INSERT
  5
103F
330
1038
100
AcDbEntity
  8
MODEL
 62
   136
370
    -2
100
AcDbBlockReference
  2
_SE_FILLED
 10
219.865106746
 20
474.1
 30
0.0
 41
6.0
 42
6.0
 43
6.0
 50
90.0
  0
MTEXT
  5
1040
330
1038
100
AcDbEntity
  8
MODEL
  6
Continuous
 62
   136
370
    20
100
AcDbMText
 10
219.865106746
 20
405.3000023364
 30
0.0
 40
6.0
 41
0.0
 46
0.0
 71
     5
 72
     1
  1
\A1;\A1;550
  7
SEACAD_arial_ttf
 73
     1
 44
1.0
  0
POINT
  5
1041
330
1038
100
AcDbEntity
  8
Defpoints
 62
     0
100
AcDbPoint
 10
103.5879782880002
 20
336.5
 30
0.0
  0
POINT
  5
1042
330
1038
100
AcDbEntity
  8
Defpoints
 62
     0
100
AcDbPoint
 10
245.1500000000001
 20
474.1
 30
0.0
  0
POINT
  5
1043
330
1038
100
AcDbEntity
  8
Defpoints
 62
     0
100
AcDbPoint
 10
219.865106746
 20
474.1
 30
0.0
  0
ENDBLK
  5
1044
330
1038
100
AcDbEntity
  8
0
100
AcDbBlockEnd
  0
BLOCK
  5
1047
330
1046
100
AcDbEntity
  8
0
100
AcDbBlockBegin
  2
*D20
 70
     1
 10
0.0
 20
0.0
 30
0.0
  3
*D20
  1
*D21
  0
LINE
  5
1048
330
1046
100
AcDbEntity
  8
MODEL
  6
Continuous
 62
   136
370
    -2
100
AcDbLine
 10
532.6068147133519
 20
74.2729139004
 30
0.0
 11
444.976814713352
 21
74.2729139004
 31
0.0
  0
LINE
  5
1049
330
1046
100
AcDbEntity
  8
MODEL
  6
Continuous
 62
   136
370
    -2
100
AcDbLine
 10
444.976814713352
 20
74.2729139004
 30
0.0
 11
420.1292084400134
 21
35.45078633238422
 31
0.0
  0
MTEXT
  5
104A
330
1046
100
AcDbEntity
  8
MODEL
  6
Continuous
 62
   136
370
    20
100
AcDbMText
 10
553.816814713352
 20
74.2729139004
 30
0.0
 40
6.0
 41
0.0
 46
0.0
 71
     5
 72
     1
  1
\A1;\A1;3- %%c132\P(%%C31-%%C35)
  7
SEACAD_arial_ttf
 73
     1
 44
1.0
  0
INSERT
  5
104B
330
1046
100
AcDbEntity
  8
MODEL
 62
   136
370
    -2
100
AcDbBlockReference
  2
_SE_FILLED
 10
416.8947528560002
 20
30.39724331039997
 30
0.0
 41
6.0
 42
6.0
 43
6.0
 50
237.3792444244189
  0
LINE
  5
104C
330
1046
100
AcDbEntity
  8
MODEL
  6
Continuous
 62
   136
370
    20
100
AcDbLine
 10
405.0000000000001
 20
16.49999999999997
 30
0.0
 11
411.0000000000001
 21
16.49999999999997
 31
0.0
  0
LINE
  5
104D
330
1046
100
AcDbEntity
  8
MODEL
  6
Continuous
 62
   136
370
    20
100
AcDbLine
 10
408.0000000000001
 20
13.49999999999997
 30
0.0
 11
408.0000000000001
 21
19.49999999999997
 31
0.0
  0
POINT
  5
104E
330
1046
100
AcDbEntity
  8
Defpoints
 62
     0
100
AcDbPoint
 10
416.8947528560002
 20
30.39724331039997
 30
0.0
  0
POINT
  5
104F
330
1046
100
AcDbEntity
  8
Defpoints
 62
     0
100
AcDbPoint
 10
399.105247144
 20
2.602756689599971
 30
0.0
  0
ENDBLK
  5
1050
330
1046
100
AcDbEntity
  8
0
100
AcDbBlockEnd
  0
BLOCK
  5
126C
330
126B
100
AcDbEntity
  8
0
100
AcDbBlockBegin
  2
*D21
 70
     1
 10
0.0
 20
0.0
 30
0.0
  3
*D21
  1
*D22
  0
LINE
  5
126E
330
126B
100
AcDbEntity
  8
DIM
 62
     0
370
    -2
100
AcDbLine
 10
893.8512392855216
 20
660.1845296782434
 30
0.0
 11
972.4988778447216
 21
660.1845296782434
 31
0.0
  0
LINE
  5
126F
330
126B
100
AcDbEntity
  8
DIM
 62
     0
370
    -2
100
AcDbLine
 10
840.0807609975216
 20
569.9845296782433
 30
0.0
 11
972.4988778447216
 21
569.9845296782433
 31
0.0
  0
LINE
  5
1270
330
126B
100
AcDbEntity
  8
DIM
 62
     0
370
    -2
100
AcDbLine
 10
972.4988778447216
 20
654.1845296782434
 30
0.0
 11
972.4988778447216
 21
575.9845296782433
 31
0.0
  0
INSERT
  5
1271
330
126B
100
AcDbEntity
  8
DIM
 62
     0
370
    -2
100
AcDbBlockReference
  2
_DOT
 10
972.4988778447216
 20
660.1845296782434
 30
0.0
 41
6.0
 42
6.0
 43
6.0
 50
90.0
  0
INSERT
  5
1272
330
126B
100
AcDbEntity
  8
DIM
 62
     0
370
    -2
100
AcDbBlockReference
  2
_DOT
 10
972.4988778447216
 20
569.9845296782433
 30
0.0
 41
6.0
 42
6.0
 43
6.0
 50
270.0
  0
MTEXT
  5
1273
330
126B
100
AcDbEntity
  8
DIM
  6
Continuous
 62
     0
100
AcDbMText
 10
959.4988778447216
 20
615.0845299226434
 30
0.0
 40
16.0
 41
0.0
 46
0.0
 71
     5
 72
     1
  1
\A1;\A1;90
  7
ＭＳ ゴシック
 11
0.0
 21
1.0
 31
0.0
 73
     1
 44
1.0
  0
POINT
  5
1274
330
126B
100
AcDbEntity
  8
Defpoints
 62
     0
100
AcDbPoint
 10
888.8512392855216
 20
660.1845296782434
 30
0.0
  0
POINT
  5
1275
330
126B
100
AcDbEntity
  8
Defpoints
 62
     0
100
AcDbPoint
 10
835.0807609975216
 20
569.9845296782433
 30
0.0
  0
POINT
  5
1276
330
126B
100
AcDbEntity
  8
Defpoints
 62
     0
100
AcDbPoint
 10
972.4988778447216
 20
569.9845296782433
 30
0.0
  0
ENDBLK
  5
126D
330
126B
100
AcDbEntity
  8
0
100
AcDbBlockEnd
  0
BLOCK
  5
1279
330
1278
100
AcDbEntity
  8
0
100
AcDbBlockBegin
  2
*D22
 70
     1
 10
0.0
 20
0.0
 30
0.0
  3
*D22
  1
*D23
  0
LINE
  5
127B
330
1278
100
AcDbEntity
  8
DIM
 62
     0
370
    -2
100
AcDbLine
 10
893.8512392855216
 20
660.1845296782434
 30
0.0
 11
900.4988837383214
 21
660.1845296782434
 31
0.0
  0
LINE
  5
127C
330
1278
100
AcDbEntity
  8
DIM
 62
     0
370
    -2
100
AcDbLine
 10
851.7632609975215
 20
630.1845296782434
 30
0.0
 11
900.4988837383214
 21
630.1845296782434
 31
0.0
  0
LINE
  5
127D
330
1278
100
AcDbEntity
  8
DIM
 62
     0
370
    -2
100
AcDbLine
 10
900.4988837383214
 20
660.1845296782434
 30
0.0
 11
900.4988837383214
 21
748.4485296782434
 31
0.0
  0
LINE
  5
127E
330
1278
100
AcDbEntity
  8
DIM
 62
     0
370
    -2
100
AcDbLine
 10
900.4988837383214
 20
666.1845296782434
 30
0.0
 11
900.4988837383214
 21
672.1845296782434
 31
0.0
  0
LINE
  5
127F
330
1278
100
AcDbEntity
  8
DIM
 62
     0
370
    -2
100
AcDbLine
 10
900.4988837383214
 20
624.1845296782434
 30
0.0
 11
900.4988837383214
 21
618.1845296782434
 31
0.0
  0
INSERT
  5
1280
330
1278
100
AcDbEntity
  8
DIM
 62
     0
370
    -2
100
AcDbBlockReference
  2
_DOT
 10
900.4988837383214
 20
660.1845296782434
 30
0.0
 41
6.0
 42
6.0
 43
6.0
 50
270.0
  0
INSERT
  5
1281
330
1278
100
AcDbEntity
  8
DIM
 62
     0
370
    -2
100
AcDbBlockReference
  2
_DOT
 10
900.4988837383214
 20
630.1845296782434
 30
0.0
 41
6.0
 42
6.0
 43
6.0
 50
90.0
  0
MTEXT
  5
1282
330
1278
100
AcDbEntity
  8
DIM
  6
Continuous
 62
     0
100
AcDbMText
 10
887.4988837383214
 20
712.8165296782435
 30
0.0
 40
16.0
 41
0.0
 46
0.0
 71
     5
 72
     1
  1
\A1;max.30
  7
ＭＳ ゴシック
 11
0.0
 21
1.0
 31
0.0
 73
     1
 44
1.0
  0
POINT
  5
1283
330
1278
100
AcDbEntity
  8
Defpoints
 62
     0
100
AcDbPoint
 10
888.8512392855216
 20
660.1845296782434
 30
0.0
  0
POINT
  5
1327
330
1278
100
AcDbEntity
  8
Defpoints
 62
     0
100
AcDbPoint
 10
846.7632609975215
 20
630.1845296782434
 30
0.0
  0
POINT
  5
1328
330
1278
100
AcDbEntity
  8
Defpoints
 62
     0
100
AcDbPoint
 10
900.4988837383214
 20
630.1845296782434
 30
0.0
  0
ENDBLK
  5
127A
330
1278
100
AcDbEntity
  8
0
100
AcDbBlockEnd
  0
BLOCK
  5
1286
330
1285
100
AcDbEntity
  8
0
100
AcDbBlockBegin
  2
*D23
 70
     1
 10
0.0
 20
0.0
 30
0.0
  3
*D23
  1
*D24
  0
LINE
  5
1288
330
1285
100
AcDbEntity
  8
DIM
 62
     0
370
    -2
100
AcDbLine
 10
625.7632609975215
 20
564.9845296782433
 30
0.0
 11
625.7632609975215
 21
457.2762963814433
 31
0.0
  0
LINE
  5
1289
330
1285
100
AcDbEntity
  8
DIM
 62
     0
370
    -2
100
AcDbLine
 10
825.7632609975215
 20
564.9845296782433
 30
0.0
 11
825.7632609975215
 21
457.2762963814433
 31
0.0
  0
LINE
  5
128A
330
1285
100
AcDbEntity
  8
DIM
 62
     0
370
    -2
100
AcDbLine
 10
631.7632609975215
 20
457.2762963814433
 30
0.0
 11
819.7632609975215
 21
457.2762963814433
 31
0.0
  0
INSERT
  5
128B
330
1285
100
AcDbEntity
  8
DIM
 62
     0
370
    -2
100
AcDbBlockReference
  2
_DOT
 10
625.7632609975215
 20
457.2762963814433
 30
0.0
 41
6.0
 42
6.0
 43
6.0
 50
180.0
  0
INSERT
  5
128C
330
1285
100
AcDbEntity
  8
DIM
 62
     0
370
    -2
100
AcDbBlockReference
  2
_DOT
 10
825.7632609975215
 20
457.2762963814433
 30
0.0
 41
6.0
 42
6.0
 43
6.0
  0
MTEXT
  5
128D
330
1285
100
AcDbEntity
  8
DIM
  6
Continuous
 62
     0
100
AcDbMText
 10
725.7632624875216
 20
470.2762963814433
 30
0.0
 40
16.0
 41
0.0
 46
0.0
 71
     5
 72
     1
  1
\A1;\A1;200
  7
ＭＳ ゴシック
 73
     1
 44
1.0
  0
POINT
  5
128E
330
1285
100
AcDbEntity
  8
Defpoints
 62
     0
100
AcDbPoint
 10
625.7632609975215
 20
569.9845296782433
 30
0.0
  0
POINT
  5
128F
330
1285
100
AcDbEntity
  8
Defpoints
 62
     0
100
AcDbPoint
 10
825.7632609975215
 20
569.9845296782433
 30
0.0
  0
POINT
  5
1290
330
1285
100
AcDbEntity
  8
Defpoints
 62
     0
100
AcDbPoint
 10
825.7632609975215
 20
457.2762963814433
 30
0.0
  0
ENDBLK
  5
1287
330
1285
100
AcDbEntity
  8
0
100
AcDbBlockEnd
  0
BLOCK
  5
1293
330
1292
100
AcDbEntity
  8
0
100
AcDbBlockBegin
  2
*D24
 70
     1
 10
0.0
 20
0.0
 30
0.0
  3
*D24
  1
*D25
  0
LINE
  5
1295
330
1292
100
AcDbEntity
  8
DIM
 62
     0
370
    -2
100
AcDbLine
 10
753.7632609975215
 20
703.1845296782434
 30
0.0
 11
753.7632609975215
 21
782.8964911262434
 31
0.0
  0
LINE
  5
1296
330
1292
100
AcDbEntity
  8
DIM
 62
     0
370
    -2
100
AcDbLine
 10
697.7632609975215
 20
703.1845296782434
 30
0.0
 11
697.7632609975215
 21
782.8964911262434
 31
0.0
  0
LINE
  5
1297
330
1292
100
AcDbEntity
  8
DIM
 62
     0
370
    -2
100
AcDbLine
 10
697.7632609975215
 20
782.8964911262434
 30
0.0
 11
634.5392609975214
 21
782.8964911262434
 31
0.0
  0
LINE
  5
1298
330
1292
100
AcDbEntity
  8
DIM
 62
     0
370
    -2
100
AcDbLine
 10
759.7632609975215
 20
782.8964911262434
 30
0.0
 11
765.7632609975215
 21
782.8964911262434
 31
0.0
  0
LINE
  5
1299
330
1292
100
AcDbEntity
  8
DIM
 62
     0
370
    -2
100
AcDbLine
 10
691.7632609975215
 20
782.8964911262434
 30
0.0
 11
685.7632609975215
 21
782.8964911262434
 31
0.0
  0
INSERT
  5
129A
330
1292
100
AcDbEntity
  8
DIM
 62
     0
370
    -2
100
AcDbBlockReference
  2
_DOT
 10
753.7632609975215
 20
782.8964911262434
 30
0.0
 41
6.0
 42
6.0
 43
6.0
 50
180.0
  0
INSERT
  5
129B
330
1292
100
AcDbEntity
  8
DIM
 62
     0
370
    -2
100
AcDbBlockReference
  2
_DOT
 10
697.7632609975215
 20
782.8964911262434
 30
0.0
 41
6.0
 42
6.0
 43
6.0
  0
MTEXT
  5
129C
330
1292
100
AcDbEntity
  8
DIM
  6
Continuous
 62
     0
100
AcDbMText
 10
657.6512609975214
 20
797.1924911262435
 30
0.0
 40
16.0
 41
0.0
 46
0.0
 71
     5
 72
     1
  1
\A1;φ56
  7
ＭＳ ゴシック
 73
     1
 44
1.0
  0
POINT
  5
129D
330
1292
100
AcDbEntity
  8
Defpoints
 62
     0
100
AcDbPoint
 10
753.7632609975215
 20
698.1845296782434
 30
0.0
  0
POINT
  5
129E
330
1292
100
AcDbEntity
  8
Defpoints
 62
     0
100
AcDbPoint
 10
697.7632609975215
 20
698.1845296782434
 30
0.0
  0
POINT
  5
131F
330
1292
100
AcDbEntity
  8
Defpoints
 62
     0
100
AcDbPoint
 10
697.7632609975215
 20
782.8964911262434
 30
0.0
  0
ENDBLK
  5
1294
330
1292
100
AcDbEntity
  8
0
100
AcDbBlockEnd
  0
BLOCK
  5
12A0
330
129F
100
AcDbEntity
  8
0
100
AcDbBlockBegin
  2
*D25
 70
     1
 10
0.0
 20
0.0
 30
0.0
  3
*D25
  1
*D26
  0
LINE
  5
12A2
330
129F
100
AcDbEntity
  8
DIM
 62
     0
370
    -2
100
AcDbLine
 10
653.2632609975215
 20
713.2725079662433
 30
0.0
 11
653.2632609975215
 21
732.8116731650433
 31
0.0
  0
LINE
  5
12A3
330
129F
100
AcDbEntity
  8
DIM
 62
     0
370
    -2
100
AcDbLine
 10
598.2632609975215
 20
713.2725079662433
 30
0.0
 11
598.2632609975215
 21
732.8116731650433
 31
0.0
  0
LINE
  5
12A4
330
129F
100
AcDbEntity
  8
DIM
 62
     0
370
    -2
100
AcDbLine
 10
598.2632609975215
 20
732.8116731650433
 30
0.0
 11
530.6192609975216
 21
732.8116731650433
 31
0.0
  0
LINE
  5
12A5
330
129F
100
AcDbEntity
  8
DIM
 62
     0
370
    -2
100
AcDbLine
 10
659.2632609975215
 20
732.8116731650433
 30
0.0
 11
665.2632609975215
 21
732.8116731650433
 31
0.0
  0
LINE
  5
12A6
330
129F
100
AcDbEntity
  8
DIM
 62
     0
370
    -2
100
AcDbLine
 10
592.2632609975215
 20
732.8116731650433
 30
0.0
 11
586.2632609975215
 21
732.8116731650433
 31
0.0
  0
INSERT
  5
12A7
330
129F
100
AcDbEntity
  8
DIM
 62
     0
370
    -2
100
AcDbBlockReference
  2
_DOT
 10
653.2632609975215
 20
732.8116731650433
 30
0.0
 41
6.0
 42
6.0
 43
6.0
 50
180.0
  0
INSERT
  5
12A8
330
129F
100
AcDbEntity
  8
DIM
 62
     0
370
    -2
100
AcDbBlockReference
  2
_DOT
 10
598.2632609975215
 20
732.8116731650433
 30
0.0
 41
6.0
 42
6.0
 43
6.0
  0
MTEXT
  5
12A9
330
129F
100
AcDbEntity
  8
DIM
  6
Continuous
 62
     0
100
AcDbMText
 10
553.6912609975216
 20
747.1076731650434
 30
0.0
 40
16.0
 41
0.0
 46
0.0
 71
     5
 72
     1
  1
\A1;φ55
  7
ＭＳ ゴシック
 73
     1
 44
1.0
  0
POINT
  5
12AA
330
129F
100
AcDbEntity
  8
Defpoints
 62
     0
100
AcDbPoint
 10
653.2632609975215
 20
708.2725079662433
 30
0.0
  0
POINT
  5
12AB
330
129F
100
AcDbEntity
  8
Defpoints
 62
     0
100
AcDbPoint
 10
598.2632609975215
 20
708.2725079662433
 30
0.0
  0
POINT
  5
1320
330
129F
100
AcDbEntity
  8
Defpoints
 62
     0
100
AcDbPoint
 10
598.2632609975215
 20
732.8116731650433
 30
0.0
  0
ENDBLK
  5
12A1
330
129F
100
AcDbEntity
  8
0
100
AcDbBlockEnd
  0
BLOCK
  5
12AD
330
12AC
100
AcDbEntity
  8
0
100
AcDbBlockBegin
  2
*D26
 70
     1
 10
0.0
 20
0.0
 30
0.0
  3
*D26
  1
*D27
  0
LINE
  5
12AF
330
12AC
100
AcDbEntity
  8
DIM
 62
     0
370
    -2
100
AcDbLine
 10
740.7632609975215
 20
609.9845296782433
 30
0.0
 11
740.7632609975215
 21
509.1000617186434
 31
0.0
  0
LINE
  5
12B0
330
12AC
100
AcDbEntity
  8
DIM
 62
     0
370
    -2
100
AcDbLine
 10
710.7632609975215
 20
609.9845296782433
 30
0.0
 11
710.7632609975215
 21
509.1000617186434
 31
0.0
  0
LINE
  5
12B1
330
12AC
100
AcDbEntity
  8
DIM
 62
     0
370
    -2
100
AcDbLine
 10
710.7632609975215
 20
509.1000617186434
 30
0.0
 11
574.9872609975215
 21
509.1000617186434
 31
0.0
  0
LINE
  5
12B2
330
12AC
100
AcDbEntity
  8
DIM
 62
     0
370
    -2
100
AcDbLine
 10
734.7632609975215
 20
509.1000617186434
 30
0.0
 11
716.7632609975215
 21
509.1000617186434
 31
0.0
  0
INSERT
  5
12B3
330
12AC
100
AcDbEntity
  8
DIM
 62
     0
370
    -2
100
AcDbBlockReference
  2
_DOT
 10
740.7632609975215
 20
509.1000617186434
 30
0.0
 41
6.0
 42
6.0
 43
6.0
  0
INSERT
  5
12B4
330
12AC
100
AcDbEntity
  8
DIM
 62
     0
370
    -2
100
AcDbBlockReference
  2
_DOT
 10
710.7632609975215
 20
509.1000617186434
 30
0.0
 41
6.0
 42
6.0
 43
6.0
 50
180.0
  0
MTEXT
  5
12B5
330
12AC
100
AcDbEntity
  8
DIM
  6
Continuous
 62
     0
100
AcDbMText
 10
625.7632609975215
 20
522.1000617186434
 30
0.0
 40
16.0
 41
0.0
 46
0.0
 71
     5
 72
     1
  1
\A1;\A1;M 30 x1.5
  7
ＭＳ ゴシック
 73
     1
 44
1.0
  0
POINT
  5
12B6
330
12AC
100
AcDbEntity
  8
Defpoints
 62
     0
100
AcDbPoint
 10
740.7632609975215
 20
614.9845296782433
 30
0.0
  0
POINT
  5
12B7
330
12AC
100
AcDbEntity
  8
Defpoints
 62
     0
100
AcDbPoint
 10
710.7632609975215
 20
614.9845296782433
 30
0.0
  0
POINT
  5
1329
330
12AC
100
AcDbEntity
  8
Defpoints
 62
     0
100
AcDbPoint
 10
710.7632609975215
 20
509.1000617186434
 30
0.0
  0
ENDBLK
  5
12AE
330
12AC
100
AcDbEntity
  8
0
100
AcDbBlockEnd
  0
BLOCK
  5
12BA
330
12B9
100
AcDbEntity
  8
0
100
AcDbBlockBegin
  2
*D27
 70
     1
 10
0.0
 20
0.0
 30
0.0
  3
*D27
  1
*D28
  0
LINE
  5
12BC
330
12B9
100
AcDbEntity
  8
DIM
 62
     0
370
    -2
100
AcDbLine
 10
836.2407609975214
 20
566.1445296782434
 30
0.0
 11
836.2407609975214
 21
531.5670492726434
 31
0.0
  0
LINE
  5
12BD
330
12B9
100
AcDbEntity
  8
DIM
 62
     0
370
    -2
100
AcDbLine
 10
815.2857609975215
 20
566.1445296782434
 30
0.0
 11
815.2857609975215
 21
531.5670492726434
 31
0.0
  0
LINE
  5
12BE
330
12B9
100
AcDbEntity
  8
DIM
 62
     0
370
    -2
100
AcDbLine
 10
836.2407609975214
 20
531.5670492726434
 30
0.0
 11
902.8727609975215
 21
531.5670492726434
 31
0.0
  0
LINE
  5
12BF
330
12B9
100
AcDbEntity
  8
DIM
 62
     0
370
    -2
100
AcDbLine
 10
830.2407609975214
 20
531.5670492726434
 30
0.0
 11
821.2857609975215
 21
531.5670492726434
 31
0.0
  0
INSERT
  5
12C0
330
12B9
100
AcDbEntity
  8
DIM
 62
     0
370
    -2
100
AcDbBlockReference
  2
_DOT
 10
836.2407609975214
 20
531.5670492726434
 30
0.0
 41
6.0
 42
6.0
 43
6.0
  0
INSERT
  5
12C1
330
12B9
100
AcDbEntity
  8
DIM
 62
     0
370
    -2
100
AcDbBlockReference
  2
_DOT
 10
815.2857609975215
 20
531.5670492726434
 30
0.0
 41
6.0
 42
6.0
 43
6.0
 50
180.0
  0
MTEXT
  5
12C2
330
12B9
100
AcDbEntity
  8
DIM
  6
Continuous
 62
     0
100
AcDbMText
 10
878.0567609975215
 20
546.2710492726434
 30
0.0
 40
16.0
 41
0.0
 46
0.0
 71
     5
 72
     1
  1
\A1;\A1;G1/2 {}
  7
ＭＳ ゴシック
 73
     1
 44
1.0
  0
POINT
  5
12C3
330
12B9
100
AcDbEntity
  8
Defpoints
 62
     0
100
AcDbPoint
 10
836.2407609975214
 20
571.1445296782434
 30
0.0
  0
POINT
  5
12C4
330
12B9
100
AcDbEntity
  8
Defpoints
 62
     0
100
AcDbPoint
 10
815.2857609975215
 20
571.1445296782434
 30
0.0
  0
POINT
  5
1324
330
12B9
100
AcDbEntity
  8
Defpoints
 62
     0
100
AcDbPoint
 10
815.2857609975215
 20
531.5670492726434
 30
0.0
  0
ENDBLK
  5
12BB
330
12B9
100
AcDbEntity
  8
0
100
AcDbBlockEnd
  0
BLOCK
  5
12C7
330
12C6
100
AcDbEntity
  8
0
100
AcDbBlockBegin
  2
*D28
 70
     1
 10
0.0
 20
0.0
 30
0.0
  3
*D28
  1
*D29
  0
ARC
  5
12C9
330
12C6
100
AcDbEntity
  8
DIM
 62
     0
370
    -2
100
AcDbCircle
 10
726.6308321073021
 20
1229.92799325714
 30
0.0
 40
190.3811693192339
100
AcDbArc
 50
201.805792595028
 51
338.1942074049436
  0
INSERT
  5
12CA
330
12C6
100
AcDbEntity
  8
DIM
 62
     0
370
    -2
100
AcDbBlockReference
  2
_DOT
 10
547.7310521613986
 20
1164.813798440141
 30
0.0
 41
6.0
 42
6.0
 43
6.0
 50
110.9028962975022
  0
INSERT
  5
12CB
330
12C6
100
AcDbEntity
  8
DIM
 62
     0
370
    -2
100
AcDbBlockReference
  2
_DOT
 10
905.5306120531734
 20
1164.813798440052
 30
0.0
 41
6.0
 42
6.0
 43
6.0
 50
69.09710370246941
  0
MTEXT
  5
12CC
330
12C6
100
AcDbEntity
  8
DIM
  6
Continuous
 62
     0
100
AcDbMText
 10
826.4658966633085
 20
1083.648178999198
 30
0.0
 40
16.0
 41
0.0
 46
0.0
 71
     5
 72
     1
  1
\A1;180%%D {}
  7
ＭＳ ゴシック
 11
0.8259675236489554
 21
0.563717704065796
 31
0.0
 73
     1
 44
1.0
  0
POINT
  5
12CD
330
12C6
100
AcDbEntity
  8
Defpoints
 62
     0
100
AcDbPoint
 10
651.224703105026
 20
1055.116937141541
 30
0.0
  0
POINT
  5
12CE
330
12C6
100
AcDbEntity
  8
Defpoints
 62
     0
100
AcDbPoint
 10
726.6308321073021
 20
1229.92799325714
 30
0.0
  0
POINT
  5
12CF
330
12C6
100
AcDbEntity
  8
Defpoints
 62
     0
100
AcDbPoint
 10
726.6308321073021
 20
1229.92799325714
 30
0.0
  0
POINT
  5
12D0
330
12C6
100
AcDbEntity
  8
Defpoints
 62
     0
100
AcDbPoint
 10
467.2343324961022
 20
1135.51538852594
 30
0.0
  0
POINT
  5
12D1
330
12C6
100
AcDbEntity
  8
Defpoints
 62
     0
100
AcDbPoint
 10
986.0273317181023
 20
1135.51538852594
 30
0.0
  0
ENDBLK
  5
12C8
330
12C6
100
AcDbEntity
  8
0
100
AcDbBlockEnd
  0
BLOCK
  5
12D4
330
12D3
100
AcDbEntity
  8
0
100
AcDbBlockBegin
  2
*D29
 70
     1
 10
0.0
 20
0.0
 30
0.0
  3
*D29
  1
*D30
  0
LINE
  5
12D6
330
12D3
100
AcDbEntity
  8
DIM
 62
     0
370
    -2
100
AcDbLine
 10
893.8512392855216
 20
660.1845296782434
 30
0.0
 11
972.586770444372
 21
660.1845296782434
 31
0.0
  0
LINE
  5
12D7
330
12D3
100
AcDbEntity
  8
DIM
 62
     0
370
    -2
100
AcDbLine
 10
878.8536021239215
 20
731.1806482330434
 30
0.0
 11
972.586770444372
 21
731.1806482330434
 31
0.0
  0
LINE
  5
12D8
330
12D3
100
AcDbEntity
  8
DIM
 62
     0
370
    -2
100
AcDbLine
 10
972.586770444372
 20
666.1845296782434
 30
0.0
 11
972.586770444372
 21
725.1806482330434
 31
0.0
  0
INSERT
  5
12D9
330
12D3
100
AcDbEntity
  8
DIM
 62
     0
370
    -2
100
AcDbBlockReference
  2
_DOT
 10
972.586770444372
 20
660.1845296782434
 30
0.0
 41
6.0
 42
6.0
 43
6.0
 50
270.0
  0
INSERT
  5
12DA
330
12D3
100
AcDbEntity
  8
DIM
 62
     0
370
    -2
100
AcDbBlockReference
  2
_DOT
 10
972.586770444372
 20
731.1806482330434
 30
0.0
 41
6.0
 42
6.0
 43
6.0
 50
90.0
  0
MTEXT
  5
12DB
330
12D3
100
AcDbEntity
  8
DIM
  6
Continuous
 62
     0
100
AcDbMText
 10
959.586770444372
 20
695.6825899642433
 30
0.0
 40
16.0
 41
0.0
 46
0.0
 71
     5
 72
     1
  1
\A1;\A1;71
  7
ＭＳ ゴシック
 11
0.0
 21
1.0
 31
0.0
 73
     1
 44
1.0
  0
POINT
  5
12DC
330
12D3
100
AcDbEntity
  8
Defpoints
 62
     0
100
AcDbPoint
 10
888.8512392855216
 20
660.1845296782434
 30
0.0
  0
POINT
  5
12DD
330
12D3
100
AcDbEntity
  8
Defpoints
 62
     0
100
AcDbPoint
 10
873.8536021239215
 20
731.1806482330434
 30
0.0
  0
POINT
  5
12DE
330
12D3
100
AcDbEntity
  8
Defpoints
 62
     0
100
AcDbPoint
 10
972.586770444372
 20
731.1806482330434
 30
0.0
  0
ENDBLK
  5
12D5
330
12D3
100
AcDbEntity
  8
0
100
AcDbBlockEnd
  0
BLOCK
  5
12E1
330
12E0
100
AcDbEntity
  8
0
100
AcDbBlockBegin
  2
*D30
 70
     1
 10
0.0
 20
0.0
 30
0.0
  3
*D30
  1
*D31
  0
LINE
  5
12E3
330
12E0
100
AcDbEntity
  8
DIM
 62
     0
370
    -2
100
AcDbLine
 10
640.7632609975215
 20
625.1845296782434
 30
0.0
 11
640.7632609975215
 21
623.8073365326434
 31
0.0
  0
LINE
  5
12E4
330
12E0
100
AcDbEntity
  8
DIM
 62
     0
370
    -2
100
AcDbLine
 10
610.7632609975215
 20
625.1845296782434
 30
0.0
 11
610.7632609975215
 21
623.8073365326434
 31
0.0
  0
LINE
  5
12E5
330
12E0
100
AcDbEntity
  8
DIM
 62
     0
370
    -2
100
AcDbLine
 10
610.7632609975215
 20
623.8073365326434
 30
0.0
 11
492.2112609975214
 21
623.8073365326434
 31
0.0
  0
LINE
  5
12E6
330
12E0
100
AcDbEntity
  8
DIM
 62
     0
370
    -2
100
AcDbLine
 10
646.7632609975215
 20
623.8073365326434
 30
0.0
 11
652.7632609975215
 21
623.8073365326434
 31
0.0
  0
LINE
  5
12E7
330
12E0
100
AcDbEntity
  8
DIM
 62
     0
370
    -2
100
AcDbLine
 10
604.7632609975215
 20
623.8073365326434
 30
0.0
 11
598.7632609975215
 21
623.8073365326434
 31
0.0
  0
INSERT
  5
12E8
330
12E0
100
AcDbEntity
  8
DIM
 62
     0
370
    -2
100
AcDbBlockReference
  2
_DOT
 10
640.7632609975215
 20
623.8073365326434
 30
0.0
 41
6.0
 42
6.0
 43
6.0
 50
180.0
  0
INSERT
  5
12E9
330
12E0
100
AcDbEntity
  8
DIM
 62
     0
370
    -2
100
AcDbBlockReference
  2
_DOT
 10
610.7632609975215
 20
623.8073365326434
 30
0.0
 41
6.0
 42
6.0
 43
6.0
  0
MTEXT
  5
12EA
330
12E0
100
AcDbEntity
  8
DIM
  6
Continuous
 62
     0
100
AcDbMText
 10
542.9872609975214
 20
636.8073365326434
 30
0.0
 40
16.0
 41
0.0
 46
0.0
 71
     5
 72
     1
  1
\A1;\A1;M 30 x1.5
  7
ＭＳ ゴシック
 73
     1
 44
1.0
  0
POINT
  5
12EB
330
12E0
100
AcDbEntity
  8
Defpoints
 62
     0
100
AcDbPoint
 10
640.7632609975215
 20
630.1845296782434
 30
0.0
  0
POINT
  5
12EC
330
12E0
100
AcDbEntity
  8
Defpoints
 62
     0
100
AcDbPoint
 10
610.7632609975215
 20
630.1845296782434
 30
0.0
  0
POINT
  5
1321
330
12E0
100
AcDbEntity
  8
Defpoints
 62
     0
100
AcDbPoint
 10
610.7632609975215
 20
623.8073365326434
 30
0.0
  0
ENDBLK
  5
12E2
330
12E0
100
AcDbEntity
  8
0
100
AcDbBlockEnd
  0
BLOCK
  5
12EE
330
12ED
100
AcDbEntity
  8
0
100
AcDbBlockBegin
  2
*D31
 70
     1
 10
0.0
 20
0.0
 30
0.0
  3
*D31
  1
*D32
  0
LINE
  5
12F0
330
12ED
100
AcDbEntity
  8
DIM
 62
     0
370
    -2
100
AcDbLine
 10
143.2126750565217
 20
713.2725079662433
 30
0.0
 11
143.2126750565217
 21
859.5645936138434
 31
0.0
  0
LINE
  5
12F1
330
12ED
100
AcDbEntity
  8
DIM
 62
     0
370
    -2
100
AcDbLine
 10
373.2126750565217
 20
850.8725079662433
 30
0.0
 11
373.2126750565217
 21
859.5645936138434
 31
0.0
  0
LINE
  5
12F2
330
12ED
100
AcDbEntity
  8
DIM
 62
     0
370
    -2
100
AcDbLine
 10
149.2126750565217
 20
859.5645936138434
 30
0.0
 11
367.2126750565217
 21
859.5645936138434
 31
0.0
  0
INSERT
  5
12F3
330
12ED
100
AcDbEntity
  8
DIM
 62
     0
370
    -2
100
AcDbBlockReference
  2
_DOT
 10
143.2126750565217
 20
859.5645936138434
 30
0.0
 41
6.0
 42
6.0
 43
6.0
 50
180.0
  0
INSERT
  5
12F4
330
12ED
100
AcDbEntity
  8
DIM
 62
     0
370
    -2
100
AcDbBlockReference
  2
_DOT
 10
373.2126750565217
 20
859.5645936138434
 30
0.0
 41
6.0
 42
6.0
 43
6.0
  0
MTEXT
  5
12F5
330
12ED
100
AcDbEntity
  8
DIM
  6
Continuous
 62
     0
100
AcDbMText
 10
258.2126771425217
 20
872.5645936138434
 30
0.0
 40
16.0
 41
0.0
 46
0.0
 71
     5
 72
     1
  1
\A1;\A1;230
  7
ＭＳ ゴシック
 73
     1
 44
1.0
  0
POINT
  5
12F6
330
12ED
100
AcDbEntity
  8
Defpoints
 62
     0
100
AcDbPoint
 10
143.2126750565217
 20
708.2725079662433
 30
0.0
  0
POINT
  5
12F7
330
12ED
100
AcDbEntity
  8
Defpoints
 62
     0
100
AcDbPoint
 10
373.2126750565217
 20
845.8725079662433
 30
0.0
  0
POINT
  5
12F8
330
12ED
100
AcDbEntity
  8
Defpoints
 62
     0
100
AcDbPoint
 10
373.2126750565217
 20
859.5645936138434
 30
0.0
  0
ENDBLK
  5
12EF
330
12ED
100
AcDbEntity
  8
0
100
AcDbBlockEnd
  0
BLOCK
  5
12FB
330
12FA
100
AcDbEntity
  8
0
100
AcDbBlockBegin
  2
*D32
 70
     1
 10
0.0
 20
0.0
 30
0.0
  3
*D32
  1
*D33
  0
LINE
  5
12FD
330
12FA
100
AcDbEntity
  8
DIM
 62
     0
370
    -2
100
AcDbLine
 10
223.8006533445218
 20
660.1845296782434
 30
0.0
 11
425.7044332996045
 21
660.1845296782434
 31
0.0
  0
LINE
  5
12FE
330
12FA
100
AcDbEntity
  8
DIM
 62
     0
370
    -2
100
AcDbLine
 10
407.5394542817216
 20
831.3423578074434
 30
0.0
 11
425.7044332996045
 21
831.3423578074434
 31
0.0
  0
LINE
  5
12FF
330
12FA
100
AcDbEntity
  8
DIM
 62
     0
370
    -2
100
AcDbLine
 10
425.7044332996045
 20
666.1845296782434
 30
0.0
 11
425.7044332996045
 21
825.3423578074434
 31
0.0
  0
INSERT
  5
1300
330
12FA
100
AcDbEntity
  8
DIM
 62
     0
370
    -2
100
AcDbBlockReference
  2
_DOT
 10
425.7044332996045
 20
660.1845296782434
 30
0.0
 41
6.0
 42
6.0
 43
6.0
 50
270.0
  0
INSERT
  5
1301
330
12FA
100
AcDbEntity
  8
DIM
 62
     0
370
    -2
100
AcDbBlockReference
  2
_DOT
 10
425.7044332996045
 20
831.3423578074434
 30
0.0
 41
6.0
 42
6.0
 43
6.0
 50
90.0
  0
MTEXT
  5
1302
330
12FA
100
AcDbEntity
  8
DIM
  6
Continuous
 62
     0
100
AcDbMText
 10
412.7044332996045
 20
745.7634437428434
 30
0.0
 40
16.0
 41
0.0
 46
0.0
 71
     5
 72
     1
  1
\A1;\A1;171
  7
ＭＳ ゴシック
 11
0.0
 21
1.0
 31
0.0
 73
     1
 44
1.0
  0
POINT
  5
1303
330
12FA
100
AcDbEntity
  8
Defpoints
 62
     0
100
AcDbPoint
 10
218.8006533445218
 20
660.1845296782434
 30
0.0
  0
POINT
  5
1304
330
12FA
100
AcDbEntity
  8
Defpoints
 62
     0
100
AcDbPoint
 10
402.5394542817216
 20
831.3423578074434
 30
0.0
  0
POINT
  5
1305
330
12FA
100
AcDbEntity
  8
Defpoints
 62
     0
100
AcDbPoint
 10
425.7044332996045
 20
831.3423578074434
 30
0.0
  0
ENDBLK
  5
12FC
330
12FA
100
AcDbEntity
  8
0
100
AcDbBlockEnd
  0
BLOCK
  5
1308
330
1307
100
AcDbEntity
  8
0
100
AcDbBlockBegin
  2
*D33
 70
     1
 10
0.0
 20
0.0
 30
0.0
  3
*D33
  1
*D34
  0
LINE
  5
130A
330
1307
100
AcDbEntity
  8
DIM
 62
     0
370
    -2
100
AcDbLine
 10
223.8006533445218
 20
660.1845296782434
 30
0.0
 11
335.0777818025217
 21
660.1845296782434
 31
0.0
  0
LINE
  5
130B
330
1307
100
AcDbEntity
  8
DIM
 62
     0
370
    -2
100
AcDbLine
 10
355.3626750565218
 20
797.7845296782434
 30
0.0
 11
335.0777818025217
 21
797.7845296782434
 31
0.0
  0
LINE
  5
130C
330
1307
100
AcDbEntity
  8
DIM
 62
     0
370
    -2
100
AcDbLine
 10
335.0777818025217
 20
666.1845296782434
 30
0.0
 11
335.0777818025217
 21
791.7845296782434
 31
0.0
  0
INSERT
  5
130D
330
1307
100
AcDbEntity
  8
DIM
 62
     0
370
    -2
100
AcDbBlockReference
  2
_DOT
 10
335.0777818025217
 20
660.1845296782434
 30
0.0
 41
6.0
 42
6.0
 43
6.0
 50
270.0
  0
INSERT
  5
130E
330
1307
100
AcDbEntity
  8
DIM
 62
     0
370
    -2
100
AcDbBlockReference
  2
_DOT
 10
335.0777818025217
 20
797.7845296782434
 30
0.0
 41
6.0
 42
6.0
 43
6.0
 50
90.0
  0
MTEXT
  5
130F
330
1307
100
AcDbEntity
  8
DIM
  6
Continuous
 62
     0
100
AcDbMText
 10
322.0777818025217
 20
728.9845320146434
 30
0.0
 40
16.0
 41
0.0
 46
0.0
 71
     5
 72
     1
  1
\A1;\A1;138
  7
ＭＳ ゴシック
 11
0.0
 21
1.0
 31
0.0
 73
     1
 44
1.0
  0
POINT
  5
1310
330
1307
100
AcDbEntity
  8
Defpoints
 62
     0
100
AcDbPoint
 10
218.8006533445218
 20
660.1845296782434
 30
0.0
  0
POINT
  5
1311
330
1307
100
AcDbEntity
  8
Defpoints
 62
     0
100
AcDbPoint
 10
360.3626750565218
 20
797.7845296782434
 30
0.0
  0
POINT
  5
1312
330
1307
100
AcDbEntity
  8
Defpoints
 62
     0
100
AcDbPoint
 10
335.0777818025217
 20
797.7845296782434
 30
0.0
  0
ENDBLK
  5
1309
330
1307
100
AcDbEntity
  8
0
100
AcDbBlockEnd
  0
BLOCK
  5
1315
330
1314
100
AcDbEntity
  8
0
100
AcDbBlockBegin
  2
*D34
 70
     1
 10
0.0
 20
0.0
 30
0.0
  3
*D34
  1
*D35
  0
LINE
  5
1317
330
1314
100
AcDbEntity
  8
DIM
 62
     0
370
    -2
100
AcDbLine
 10
637.8924694375348
 20
326.1353160106276
 30
0.0
 11
702.6295551242932
 21
427.2811314773509
 31
0.0
  0
MTEXT
  5
1318
330
1314
100
AcDbEntity
  8
DIM
  6
Continuous
 62
     0
100
AcDbMText
 10
654.0055424143673
 20
402.6378683189121
 30
0.0
 40
16.0
 41
0.0
 46
0.0
 71
     5
 72
     1
  1
\A1;\A1;3- %%c33\P(%%C31-%%C35)
  7
ＭＳ ゴシック
 11
0.5390759306688704
 21
0.8422571703307081
 31
0.0
 73
     1
 44
1.0
  0
INSERT
  5
1319
330
1314
100
AcDbEntity
  8
DIM
 62
     0
370
    -2
100
AcDbBlockReference
  2
_DOT
 10
634.6580138535217
 20
321.0817729886434
 30
0.0
 41
6.0
 42
6.0
 43
6.0
 50
237.3792444244189
  0
POINT
  5
131A
330
1314
100
AcDbEntity
  8
Defpoints
 62
     0
100
AcDbPoint
 10
634.6580138535217
 20
321.0817729886434
 30
0.0
  0
POINT
  5
131B
330
1314
100
AcDbEntity
  8
Defpoints
 62
     0
100
AcDbPoint
 10
616.8685081415215
 20
293.2872863678434
 30
0.0
  0
ENDBLK
  5
1316
330
1314
100
AcDbEntity
  8
0
100
AcDbBlockEnd
  0
ENDSEC
  0
SECTION
  2
ENTITIES
  0
MTEXT
  5
177
330
A
100
AcDbEntity
  8
TEMPLATE
390
1D
100
AcDbMText
 10
39.60107227386538
 20
171.8658758157141
 30
0.0
 40
8.144205729166663
 41
0.0
 46
0.0
 71
     1
 72
     1
  1
品名
  7
ＭＳ ゴシック
 73
     1
 44
0.7828267384257843
  0
MTEXT
  5
178
330
A
100
AcDbEntity
  8
TEMPLATE
390
1D
100
AcDbMText
 10
39.60107227386538
 20
129.365875815714
 30
0.0
 40
8.144205729166663
 41
0.0
 46
0.0
 71
     1
 72
     1
  1
仕様
  7
ＭＳ ゴシック
 73
     1
 44
0.7828267384257843
  0
LINE
  5
179
330
A
100
AcDbEntity
  8
TEMPLATE
390
1D
100
AcDbLine
 10
1011.101072273624
 20
133.5733367532142
 30
0.0
 11
36.10107227362437
 21
133.5733367532142
 31
0.0
  0
LWPOLYLINE
  5
17A
330
A
100
AcDbEntity
  8
TEMPLATE
390
1D
100
AcDbPolyline
 90
        5
 70
   128
 43
0.0
 10
1011.101072273624
 20
1448.573336753213
 10
36.10107227362437
 20
1448.573336753213
 10
36.10107227362437
 20
48.57333675321413
 10
1011.101072273624
 20
48.57333675321413
 10
1011.101072273624
 20
1448.573336753213
  0
LINE
  5
17B
330
A
100
AcDbEntity
  8
TEMPLATE
390
1D
100
AcDbLine
 10
1011.101072273624
 20
176.0733367532141
 30
0.0
 11
36.10107227362437
 21
176.0733367532141
 31
0.0
  0
LINE
  5
17C
330
A
100
AcDbEntity
  8
TEMPLATE
390
1D
100
AcDbLine
 10
1011.101072273866
 20
91.07333675321412
 30
0.0
 11
634.601072273865
 21
91.07333675321412
 31
0.0
  0
MTEXT
  5
17D
330
A
100
AcDbEntity
  8
TEMPLATE
390
1D
100
AcDbMText
 10
36.10107227396725
 20
42.64642572478557
 30
0.0
 40
10.85894097222222
 41
0.0
 46
10.85894097222222
 71
     1
 72
     1
  1
{160309SO}
  7
ＭＳ ゴシック
 73
     1
 44
0.7828267384257843
1001
ACAD
1000
ACAD_MTEXT_DEFINED_HEIGHT_BEGIN
1070
    46
1040
10.85894097222222
1000
ACAD_MTEXT_DEFINED_HEIGHT_END
  0
MTEXT
  5
17E
330
A
100
AcDbEntity
  8
TEMPLATE
390
1D
100
AcDbMText
 10
649.5367753999956
 20
76.11813951656006
 30
0.0
 40
12.21630859375
 41
0.0
 46
0.0
 71
     1
 72
     1
  1
大洋金物株式会社 ティーフォルム事業部
  7
ＭＳ ゴシック
 73
     1
 44
0.7828267384257843
  0
MTEXT
  5
180
330
A
100
AcDbEntity
  8
TEMPLATE
390
1D
100
AcDbMText
 10
915.601072273995
 20
115.0746453469641
 30
0.0
 40
12.21630859375
 41
0.0
 46
12.21630859375
 71
     1
 72
     1
  1
{1:5}
  7
ＭＳ ゴシック
 73
     1
 44
0.7828267384257843
1001
ACAD
1000
ACAD_MTEXT_DEFINED_HEIGHT_BEGIN
1070
    46
1040
12.21630859375
1000
ACAD_MTEXT_DEFINED_HEIGHT_END
  0
MTEXT
  5
181
330
A
100
AcDbEntity
  8
TEMPLATE
390
1D
100
AcDbMText
 10
889.101072273995
 20
129.365875815714
 30
0.0
 40
8.144205729166663
 41
0.0
 46
0.0
 71
     1
 72
     1
  1
縮尺
  7
ＭＳ ゴシック
 73
     1
 44
0.7828267384257843
  0
LINE
  5
182
330
A
100
AcDbEntity
  8
TEMPLATE
390
1D
100
AcDbLine
 10
885.601072273995
 20
91.07333675321412
 30
0.0
 11
885.601072273995
 21
133.5733367532142
 31
0.0
  0
MTEXT
  5
183
330
A
100
AcDbEntity
  8
TEMPLATE
390
1D
100
AcDbMText
 10
763.601072273995
 20
129.365875815714
 30
0.0
 40
8.144205729166663
 41
0.0
 46
0.0
 71
     1
 72
     1
  1
容量
  7
ＭＳ ゴシック
 73
     1
 44
0.7828267384257843
  0
LINE
  5
184
330
A
100
AcDbEntity
  8
TEMPLATE
390
1D
100
AcDbLine
 10
760.101072273995
 20
91.07333675321412
 30
0.0
 11
760.101072273995
 21
133.5733367532142
 31
0.0
  0
MTEXT
  5
185
330
A
100
AcDbEntity
  8
TEMPLATE
390
1D
100
AcDbMText
 10
638.101072273995
 20
171.8658758157141
 30
0.0
 40
8.144205729166663
 41
0.0
 46
0.0
 71
     1
 72
     1
  1
品番
  7
ＭＳ ゴシック
 73
     1
 44
0.7828267384257843
  0
MTEXT
  5
186
330
A
100
AcDbEntity
  8
TEMPLATE
390
1D
100
AcDbMText
 10
638.101072273995
 20
129.365875815714
 30
0.0
 40
8.144205729166663
 41
0.0
 46
0.0
 71
     1
 72
     1
  1
重量
  7
ＭＳ ゴシック
 73
     1
 44
0.7828267384257843
  0
MTEXT
  5
187
330
A
100
AcDbEntity
  8
TEMPLATE
390
1D
100
AcDbMText
 10
664.601072273995
 20
157.5746453469641
 30
0.0
 40
12.21630859375
 41
0.0
 46
12.21630859375
 71
     1
 72
     1
  1
{FHT73-2901}
  7
ＭＳ ゴシック
 73
     1
 44
0.7828267384257843
1001
ACAD
1000
ACAD_MTEXT_DEFINED_HEIGHT_BEGIN
1070
    46
1040
12.21630859375
1000
ACAD_MTEXT_DEFINED_HEIGHT_END
  0
LINE
  5
188
330
A
100
AcDbEntity
  8
TEMPLATE
390
1D
100
AcDbLine
 10
634.601072273995
 20
48.57333675321413
 30
0.0
 11
634.601072273995
 21
176.0733367532141
 31
0.0
  0
MTEXT
  5
189
330
A
100
AcDbEntity
  8
TEMPLATE
390
1D
100
AcDbMText
 10
66.10107227386537
 20
157.5746453469641
 30
0.0
 40
12.21630859375
 41
0.0
 46
12.21630859375
 71
     1
 72
     1
  1
{バス混合栓　-GROHE,Deck bath-}
  7
ＭＳ ゴシック
 73
     1
 44
0.7828267384257843
1001
ACAD
1000
ACAD_MTEXT_DEFINED_HEIGHT_BEGIN
1070
    46
1040
12.21630859375
1000
ACAD_MTEXT_DEFINED_HEIGHT_END
  0
INSERT
  5
6B5
330
A
100
AcDbEntity
  8
TEMPLATE
100
AcDbBlockReference
  2
名称未設定-1
 10
935.3753740442249
 20
12.97338287832691
 30
0.0
 41
0.3809999999999999
 42
0.3809999999999999
 43
0.3809999999999999
  0
MTEXT
  5
7D9
330
A
100
AcDbEntity
  8
TEMPLATE
390
1D
100
AcDbMText
 10
62.62717263801819
 20
113.4059880146976
 30
0.0
 40
12.21630859375
 41
0.0
 46
12.21630859375
 71
     1
 72
     1
  1
{クローム}
  7
ＭＳ ゴシック
 73
     1
 44
0.7828267384257843
1001
ACAD
1000
ACAD_MTEXT_DEFINED_HEIGHT_BEGIN
1070
    46
1040
12.21630859375
1000
ACAD_MTEXT_DEFINED_HEIGHT_END
  0
INSERT
  5
68C
330
A
100
AcDbEntity
  8
TEMPLATE
100
AcDbBlockReference
  2
block 2
 10
919.2743017702577
 20
8.373076514336368
 30
0.0
 41
0.3809999999999999
 42
0.3809999999999999
 43
0.3809999999999999
  0
LINE
  5
1054
330
A
100
AcDbEntity
  8
MODEL
100
AcDbLine
 10
753.2632609975215
 20
660.1845296782434
 30
0.0
 11
698.2632609975215
 21
660.1845296782434
 31
0.0
  0
LINE
  5
1055
330
A
100
AcDbEntity
  8
MODEL
100
AcDbLine
 10
751.7632609975215
 20
700.1845296782434
 30
0.0
 11
699.7632609975215
 21
700.1845296782434
 31
0.0
  0
ARC
  5
1056
330
A
100
AcDbEntity
  8
MODEL
100
AcDbCircle
 10
753.2632609975215
 20
660.6845296782434
 30
0.0
 40
0.5000000000000004
100
AcDbArc
 50
270.0
 51
0.0
  0
ARC
  5
1057
330
A
100
AcDbEntity
  8
MODEL
100
AcDbCircle
 10
698.2632609975215
 20
660.6845296782434
 30
0.0
 40
0.4999999999999972
100
AcDbArc
 50
180.0
 51
270.0
  0
LINE
  5
1058
330
A
100
AcDbEntity
  8
MODEL
100
AcDbLine
 10
753.7632609975215
 20
660.6845296782434
 30
0.0
 11
753.7632609975215
 21
698.1845296782434
 31
0.0
  0
LINE
  5
1059
330
A
100
AcDbEntity
  8
MODEL
100
AcDbLine
 10
697.7632609975215
 20
698.1845296782434
 30
0.0
 11
697.7632609975215
 21
660.6845296782434
 31
0.0
  0
ARC
  5
105A
330
A
100
AcDbEntity
  8
MODEL
100
AcDbCircle
 10
751.7632609975215
 20
698.1845296782434
 30
0.0
 40
2.000000000000002
100
AcDbArc
 50
0.0
 51
90.0
  0
ARC
  5
105B
330
A
100
AcDbEntity
  8
MODEL
100
AcDbCircle
 10
699.7632609975215
 20
698.1845296782434
 30
0.0
 40
2.000000000000002
100
AcDbArc
 50
90.0
 51
180.0
  0
LINE
  5
105C
330
A
100
AcDbEntity
  8
MODEL
100
AcDbLine
 10
746.7632609975215
 20
659.6845296782434
 30
0.0
 11
704.7632609975215
 21
659.6845296782434
 31
0.0
  0
LINE
  5
105D
330
A
100
AcDbEntity
  8
MODEL
100
AcDbLine
 10
746.7632609975215
 20
659.6845296782434
 30
0.0
 11
746.7632609975215
 21
660.1845296782434
 31
0.0
  0
LINE
  5
105E
330
A
100
AcDbEntity
  8
MODEL
100
AcDbLine
 10
704.7632609975215
 20
660.1845296782434
 30
0.0
 11
704.7632609975215
 21
659.6845296782434
 31
0.0
  0
LINE
  5
105F
330
A
100
AcDbEntity
  8
MODEL
100
AcDbLine
 10
804.7632609975215
 20
630.1845296782434
 30
0.0
 11
846.7632609975215
 21
630.1845296782434
 31
0.0
  0
LINE
  5
1060
330
A
100
AcDbEntity
  8
MODEL
100
AcDbLine
 10
804.7632609975215
 20
630.1845296782434
 30
0.0
 11
804.7632609975215
 21
628.1845296782434
 31
0.0
  0
LINE
  5
1061
330
A
100
AcDbEntity
  8
MODEL
100
AcDbLine
 10
846.7632609975215
 20
628.1845296782434
 30
0.0
 11
846.7632609975215
 21
630.1845296782434
 31
0.0
  0
LINE
  5
1062
330
A
100
AcDbEntity
  8
MODEL
100
AcDbLine
 10
800.7632609975215
 20
628.1845296782434
 30
0.0
 11
850.7632609975215
 21
628.1845296782434
 31
0.0
  0
LINE
  5
1063
330
A
100
AcDbEntity
  8
MODEL
100
AcDbLine
 10
800.7632609975215
 20
627.1845296782434
 30
0.0
 11
850.7632609975215
 21
627.1845296782434
 31
0.0
  0
LINE
  5
1064
330
A
100
AcDbEntity
  8
MODEL
100
AcDbLine
 10
800.7632609975215
 20
628.1845296782434
 30
0.0
 11
800.7632609975215
 21
627.1845296782434
 31
0.0
  0
LINE
  5
1065
330
A
100
AcDbEntity
  8
MODEL
100
AcDbLine
 10
850.7632609975215
 20
627.1845296782434
 30
0.0
 11
850.7632609975215
 21
628.1845296782434
 31
0.0
  0
LINE
  5
1066
330
A
100
AcDbEntity
  8
MODEL
100
AcDbLine
 10
825.7632609975215
 20
621.1845296782434
 30
0.0
 11
843.7632609975215
 21
621.1845296782434
 31
0.0
  0
LINE
  5
1067
330
A
100
AcDbEntity
  8
MODEL
100
AcDbLine
 10
807.7632609975215
 20
621.1845296782434
 30
0.0
 11
825.7632609975215
 21
621.1845296782434
 31
0.0
  0
LINE
  5
1068
330
A
100
AcDbEntity
  8
MODEL
100
AcDbLine
 10
807.7632609975215
 20
627.1845296782434
 30
0.0
 11
807.7632609975215
 21
621.1845296782434
 31
0.0
  0
LINE
  5
1069
330
A
100
AcDbEntity
  8
MODEL
100
AcDbLine
 10
843.7632609975215
 20
627.1845296782434
 30
0.0
 11
843.7632609975215
 21
621.1845296782434
 31
0.0
  0
LINE
  5
106A
330
A
100
AcDbEntity
  8
MODEL
100
AcDbLine
 10
825.7632609975215
 20
627.1845296782434
 30
0.0
 11
825.7632609975215
 21
621.1845296782434
 31
0.0
  0
LINE
  5
106B
330
A
100
AcDbEntity
  8
MODEL
100
AcDbLine
 10
604.7632609975215
 20
630.1845296782434
 30
0.0
 11
646.7632609975215
 21
630.1845296782434
 31
0.0
  0
LINE
  5
106C
330
A
100
AcDbEntity
  8
MODEL
100
AcDbLine
 10
604.7632609975215
 20
630.1845296782434
 30
0.0
 11
604.7632609975215
 21
628.1845296782434
 31
0.0
  0
LINE
  5
106D
330
A
100
AcDbEntity
  8
MODEL
100
AcDbLine
 10
646.7632609975215
 20
628.1845296782434
 30
0.0
 11
646.7632609975215
 21
630.1845296782434
 31
0.0
  0
LINE
  5
106E
330
A
100
AcDbEntity
  8
MODEL
100
AcDbLine
 10
600.7632609975215
 20
628.1845296782434
 30
0.0
 11
650.7632609975215
 21
628.1845296782434
 31
0.0
  0
LINE
  5
106F
330
A
100
AcDbEntity
  8
MODEL
100
AcDbLine
 10
600.7632609975215
 20
627.1845296782434
 30
0.0
 11
650.7632609975215
 21
627.1845296782434
 31
0.0
  0
LINE
  5
1070
330
A
100
AcDbEntity
  8
MODEL
100
AcDbLine
 10
600.7632609975215
 20
628.1845296782434
 30
0.0
 11
600.7632609975215
 21
627.1845296782434
 31
0.0
  0
LINE
  5
1071
330
A
100
AcDbEntity
  8
MODEL
100
AcDbLine
 10
650.7632609975215
 20
627.1845296782434
 30
0.0
 11
650.7632609975215
 21
628.1845296782434
 31
0.0
  0
LINE
  5
1072
330
A
100
AcDbEntity
  8
MODEL
100
AcDbLine
 10
625.7632609975215
 20
621.1845296782434
 30
0.0
 11
643.7632609975215
 21
621.1845296782434
 31
0.0
  0
LINE
  5
1073
330
A
100
AcDbEntity
  8
MODEL
100
AcDbLine
 10
607.7632609975215
 20
621.1845296782434
 30
0.0
 11
625.7632609975215
 21
621.1845296782434
 31
0.0
  0
LINE
  5
1074
330
A
100
AcDbEntity
  8
MODEL
100
AcDbLine
 10
607.7632609975215
 20
627.1845296782434
 30
0.0
 11
607.7632609975215
 21
621.1845296782434
 31
0.0
  0
LINE
  5
1075
330
A
100
AcDbEntity
  8
MODEL
100
AcDbLine
 10
643.7632609975215
 20
627.1845296782434
 30
0.0
 11
643.7632609975215
 21
621.1845296782434
 31
0.0
  0
LINE
  5
1076
330
A
100
AcDbEntity
  8
MODEL
100
AcDbLine
 10
625.7632609975215
 20
627.1845296782434
 30
0.0
 11
625.7632609975215
 21
621.1845296782434
 31
0.0
  0
LINE
  5
1077
330
A
100
AcDbEntity
  8
MODEL
100
AcDbLine
 10
814.8088098471214
 20
597.9845296782433
 30
0.0
 11
636.7177121475215
 21
597.9845296782433
 31
0.0
  0
LINE
  5
1078
330
A
100
AcDbEntity
  8
MODEL
100
AcDbLine
 10
625.7632609975215
 20
599.9845296782433
 30
0.0
 11
825.7632609975215
 21
599.9845296782433
 31
0.0
  0
LINE
  5
1079
330
A
100
AcDbEntity
  8
MODEL
100
AcDbLine
 10
810.7632609975215
 20
595.9845296782433
 30
0.0
 11
816.0975688059216
 21
595.9845296782433
 31
0.0
  0
LINE
  5
107A
330
A
100
AcDbEntity
  8
MODEL
100
AcDbLine
 10
635.4289531887216
 20
595.9845296782433
 30
0.0
 11
640.7632609975215
 21
595.9845296782433
 31
0.0
  0
SPLINE
  5
107B
330
A
100
AcDbEntity
  8
MODEL
100
AcDbSpline
210
0.0
220
0.0
230
1.0
 70
     8
 71
     3
 72
    20
 73
    16
 74
     0
 42
0.000000001
 43
0.0000000001
 40
0.0
 40
0.0
 40
0.0
 40
0.0
 40
0.0624999999999983
 40
0.0624999999999983
 40
0.1249999999999967
 40
0.1249999999999967
 40
0.2499999999999967
 40
0.2499999999999967
 40
0.4999999999999968
 40
0.4999999999999968
 40
0.7499999999999969
 40
0.7499999999999969
 40
0.8749999999999984
 40
0.8749999999999984
 40
1.0
 40
1.0
 40
1.0
 40
1.0
 10
825.7632609973805
 20
599.9845296781754
 30
0.0
 10
825.5564157945055
 20
599.8708171569293
 30
0.0
 10
825.347574905097
 20
599.7560075059922
 30
0.0
 10
824.9328677057808
 20
599.5285036328206
 30
0.0
 10
824.7258503113396
 20
599.4151759669766
 30
0.0
 10
824.1055082571977
 20
599.0770273422986
 30
0.0
 10
823.692898266894
 20
598.8540220094474
 30
0.0
 10
822.4554848288308
 20
598.1972256881998
 30
0.0
 10
821.6255861241482
 20
597.7723816782113
 30
0.0
 10
819.996614287031
 20
597.0132847021454
 30
0.0
 10
819.1946175405824
 20
596.6752971687554
 30
0.0
 10
817.9979977335936
 20
596.2876653495533
 30
0.0
 10
817.6044115458792
 20
596.180534134779
 30
0.0
 10
816.8381802578476
 20
596.029454960309
 30
0.0
 10
816.463809700402
 20
595.9845296781754
 30
0.0
 10
816.0975688061128
 20
595.9845296781754
 30
0.0
  0
SPLINE
  5
107C
330
A
100
AcDbEntity
  8
MODEL
100
AcDbSpline
210
0.0
220
0.0
230
1.0
 70
     8
 71
     3
 72
    20
 73
    16
 74
     0
 42
0.000000001
 43
0.0000000001
 40
0.0
 40
0.0
 40
0.0
 40
0.0
 40
0.1249999999999984
 40
0.1249999999999984
 40
0.2499999999999969
 40
0.2499999999999969
 40
0.4999999999999969
 40
0.4999999999999969
 40
0.7499999999999969
 40
0.7499999999999969
 40
0.8749999999999984
 40
0.8749999999999984
 40
0.9374999999999992
 40
0.9374999999999992
 40
1.0
 40
1.0
 40
1.0
 40
1.0
 10
635.4289531886479
 20
595.9845296781754
 30
0.0
 10
635.0627122943588
 20
595.9845296781754
 30
0.0
 10
634.6883417369131
 20
596.029454960309
 30
0.0
 10
633.9221104488815
 20
596.180534134779
 30
0.0
 10
633.5285242611671
 20
596.2876653495533
 30
0.0
 10
632.3319044541784
 20
596.6752971687554
 30
0.0
 10
631.52990770773
 20
597.0132847021454
 30
0.0
 10
629.9009358706123
 20
597.7723816782113
 30
0.0
 10
629.07103716593
 20
598.1972256881998
 30
0.0
 10
627.8336237278668
 20
598.8540220094474
 30
0.0
 10
627.4210137375633
 20
599.0770273422986
 30
0.0
 10
626.8006716834211
 20
599.4151759669766
 30
0.0
 10
626.5936542889799
 20
599.5285036328206
 30
0.0
 10
626.1789470896636
 20
599.7560075059918
 30
0.0
 10
625.9701062002387
 20
599.8708171568994
 30
0.0
 10
625.7632609973803
 20
599.9845296781754
 30
0.0
  0
LINE
  5
107D
330
A
100
AcDbEntity
  8
MODEL
100
AcDbLine
 10
838.7632609975215
 20
590.9845296782433
 30
0.0
 11
812.7632609975215
 21
590.9845296782433
 31
0.0
  0
LINE
  5
107E
330
A
100
AcDbEntity
  8
MODEL
100
AcDbLine
 10
638.7632609975215
 20
590.9845296782433
 30
0.0
 11
612.7632609975215
 21
590.9845296782433
 31
0.0
  0
LINE
  5
107F
330
A
100
AcDbEntity
  8
MODEL
100
AcDbLine
 10
640.7632609975215
 20
614.9845296782433
 30
0.0
 11
635.4289531887216
 21
614.9845296782433
 31
0.0
  0
LINE
  5
1080
330
A
100
AcDbEntity
  8
MODEL
100
AcDbLine
 10
636.7177121475215
 20
612.9845296782433
 30
0.0
 11
714.8088098471214
 21
612.9845296782433
 31
0.0
  0
LINE
  5
1081
330
A
100
AcDbEntity
  8
MODEL
100
AcDbLine
 10
725.7632609975215
 20
610.9845296782433
 30
0.0
 11
736.7177121475215
 21
610.9845296782433
 31
0.0
  0
LINE
  5
1082
330
A
100
AcDbEntity
  8
MODEL
100
AcDbLine
 10
714.8088098471214
 20
610.9845296782433
 30
0.0
 11
725.7632609975215
 21
610.9845296782433
 31
0.0
  0
LINE
  5
1083
330
A
100
AcDbEntity
  8
MODEL
100
AcDbLine
 10
825.7632609975215
 20
610.9845296782433
 30
0.0
 11
736.7177121475215
 21
610.9845296782433
 31
0.0
  0
LINE
  5
1084
330
A
100
AcDbEntity
  8
MODEL
100
AcDbLine
 10
714.8088098471214
 20
610.9845296782433
 30
0.0
 11
625.7632609975215
 21
610.9845296782433
 31
0.0
  0
LINE
  5
1085
330
A
100
AcDbEntity
  8
MODEL
100
AcDbLine
 10
725.7632609975215
 20
614.9845296782433
 30
0.0
 11
716.0975688059216
 21
614.9845296782433
 31
0.0
  0
LINE
  5
1086
330
A
100
AcDbEntity
  8
MODEL
100
AcDbLine
 10
735.4289531887214
 20
614.9845296782433
 30
0.0
 11
725.7632609975215
 21
614.9845296782433
 31
0.0
  0
LINE
  5
1087
330
A
100
AcDbEntity
  8
MODEL
100
AcDbLine
 10
736.7177121475215
 20
612.9845296782433
 30
0.0
 11
814.8088098471214
 21
612.9845296782433
 31
0.0
  0
LINE
  5
1088
330
A
100
AcDbEntity
  8
MODEL
100
AcDbLine
 10
816.0975688059216
 20
614.9845296782433
 30
0.0
 11
810.7632609975215
 21
614.9845296782433
 31
0.0
  0
SPLINE
  5
1089
330
A
100
AcDbEntity
  8
MODEL
100
AcDbSpline
210
0.0
220
0.0
230
1.0
 70
     8
 71
     3
 72
    20
 73
    16
 74
     0
 42
0.000000001
 43
0.0000000001
 40
0.0
 40
0.0
 40
0.0
 40
0.0
 40
0.0625000000000007
 40
0.0625000000000007
 40
0.1250000000000014
 40
0.1250000000000014
 40
0.250000000000003
 40
0.250000000000003
 40
0.5000000000000029
 40
0.5000000000000029
 40
0.750000000000003
 40
0.750000000000003
 40
0.8750000000000016
 40
0.8750000000000016
 40
1.0
 40
1.0
 40
1.0
 40
1.0
 10
625.7632609973803
 20
610.9845296781754
 30
0.0
 10
625.9701062002387
 20
611.0982421994514
 30
0.0
 10
626.1789470896636
 20
611.213051850359
 30
0.0
 10
626.5936542889799
 20
611.4405557235302
 30
0.0
 10
626.8006716834211
 20
611.5538833893742
 30
0.0
 10
627.4210137375633
 20
611.8920320140521
 30
0.0
 10
627.8336237278668
 20
612.1150373469034
 30
0.0
 10
629.07103716593
 20
612.7718336681513
 30
0.0
 10
629.9009358706123
 20
613.1966776781394
 30
0.0
 10
631.52990770773
 20
613.9557746542054
 30
0.0
 10
632.3319044541784
 20
614.2937621875958
 30
0.0
 10
633.5285242611671
 20
614.6813940067977
 30
0.0
 10
633.9221104488815
 20
614.7885252215717
 30
0.0
 10
634.6883417369131
 20
614.9396043960418
 30
0.0
 10
635.0627122943588
 20
614.9845296781754
 30
0.0
 10
635.4289531886479
 20
614.9845296781754
 30
0.0
  0
SPLINE
  5
108A
330
A
100
AcDbEntity
  8
MODEL
100
AcDbSpline
210
0.0
220
0.0
230
1.0
 70
     8
 71
     3
 72
    20
 73
    16
 74
     0
 42
0.000000001
 43
0.0000000001
 40
0.0
 40
0.0
 40
0.0
 40
0.0
 40
0.1250000000000016
 40
0.1250000000000016
 40
0.2500000000000031
 40
0.2500000000000031
 40
0.5000000000000032
 40
0.5000000000000032
 40
0.7500000000000033
 40
0.7500000000000033
 40
0.8750000000000033
 40
0.8750000000000033
 40
0.9375000000000017
 40
0.9375000000000017
 40
1.0
 40
1.0
 40
1.0
 40
1.0
 10
816.0975688061128
 20
614.9845296781754
 30
0.0
 10
816.463809700402
 20
614.9845296781754
 30
0.0
 10
816.8381802578476
 20
614.9396043960418
 30
0.0
 10
817.6044115458792
 20
614.7885252215717
 30
0.0
 10
817.9979977335936
 20
614.6813940067977
 30
0.0
 10
819.1946175405824
 20
614.2937621875958
 30
0.0
 10
819.996614287031
 20
613.9557746542054
 30
0.0
 10
821.6255861241482
 20
613.1966776781394
 30
0.0
 10
822.4554848288308
 20
612.7718336681513
 30
0.0
 10
823.692898266894
 20
612.1150373469034
 30
0.0
 10
824.1055082571977
 20
611.8920320140521
 30
0.0
 10
824.7258503113396
 20
611.5538833893742
 30
0.0
 10
824.9328677057808
 20
611.4405557235302
 30
0.0
 10
825.347574905097
 20
611.213051850359
 30
0.0
 10
825.5564157945055
 20
611.0982421994214
 30
0.0
 10
825.7632609973805
 20
610.9845296781754
 30
0.0
  0
SPLINE
  5
108B
330
A
100
AcDbEntity
  8
MODEL
100
AcDbSpline
210
0.0
220
0.0
230
1.0
 70
     8
 71
     3
 72
    10
 73
     6
 74
     0
 42
0.000000001
 43
0.0000000001
 40
0.0
 40
0.0
 40
0.0
 40
0.0
 40
0.5
 40
0.5
 40
1.0
 40
1.0
 40
1.0
 40
1.0
 10
715.8466481242497
 20
613.5889015931061
 30
0.0
 10
715.7394396156503
 20
613.372230320345
 30
0.0
 10
715.5898855946687
 20
613.198513464719
 30
0.0
 10
715.2329727776648
 20
613.0043976336018
 30
0.0
 10
715.0280131377656
 20
612.9845296781754
 30
0.0
 10
714.808809847277
 20
612.9845296781754
 30
0.0
  0
ARC
  5
108C
330
A
100
AcDbEntity
  8
MODEL
100
AcDbCircle
 10
712.8598358599215
 20
614.8462727070433
 30
0.0
 40
3.240683511548524
100
AcDbArc
 50
337.1701595840004
 51
2.445146493399196
  0
ARC
  5
108D
330
A
100
AcDbEntity
  8
MODEL
100
AcDbCircle
 10
738.6666861351216
 20
614.8462727070433
 30
0.0
 40
3.240683511548818
100
AcDbArc
 50
177.554853506601
 51
202.8298404159999
  0
SPLINE
  5
108E
330
A
100
AcDbEntity
  8
MODEL
100
AcDbSpline
210
0.0
220
0.0
230
1.0
 70
     8
 71
     3
 72
    10
 73
     6
 74
     0
 42
0.000000001
 43
0.0000000001
 40
0.0
 40
0.0
 40
0.0
 40
0.0
 40
0.5
 40
0.5
 40
1.0
 40
1.0
 40
1.0
 40
1.0
 10
736.717712147484
 20
612.9845296781754
 30
0.0
 10
736.4985088569952
 20
612.9845296781754
 30
0.0
 10
736.2935492170959
 20
613.0043976336018
 30
0.0
 10
735.9366364000919
 20
613.198513464719
 30
0.0
 10
735.7870823791102
 20
613.372230320345
 30
0.0
 10
735.6798738705111
 20
613.5889015931061
 30
0.0
  0
SPLINE
  5
108F
330
A
100
AcDbEntity
  8
MODEL
100
AcDbSpline
210
0.0
220
0.0
230
1.0
 70
     8
 71
     3
 72
    10
 73
     6
 74
     0
 42
0.000000001
 43
0.0000000001
 40
0.0
 40
0.0
 40
0.0
 40
0.0
 40
0.5
 40
0.5
 40
1.0
 40
1.0
 40
1.0
 40
1.0
 10
736.5549580357822
 20
612.3777864306818
 30
0.0
 10
736.5163019592844
 20
612.594750708057
 30
0.0
 10
736.4810954256011
 20
612.7692475287294
 30
0.0
 10
736.4980858844335
 20
612.9644593581241
 30
0.0
 10
736.5495602139329
 20
612.9845296781754
 30
0.0
 10
736.717712147484
 20
612.9845296781754
 30
0.0
  0
ARC
  5
1090
330
A
100
AcDbEntity
  8
MODEL
100
AcDbCircle
 10
728.2349123951215
 20
610.6997408922433
 30
0.0
 40
8.487578941636125
100
AcDbArc
 50
1.922840295199644
 51
11.40284587900014
  0
SPLINE
  5
1091
330
A
100
AcDbEntity
  8
MODEL
100
AcDbSpline
210
0.0
220
0.0
230
1.0
 70
     8
 71
     3
 72
    25
 73
    21
 74
     0
 42
0.000000001
 43
0.0000000001
 40
0.0
 40
0.0
 40
0.0
 40
0.0
 40
0.087372569573053
 40
0.1706785271117397
 40
0.2499432824975052
 40
0.3251963825172043
 40
0.3964724064854317
 40
0.463812104346736
 40
0.5272638542702858
 40
0.586885543460674
 40
0.6427470114454036
 40
0.6949332408925563
 40
0.7435485363335542
 40
0.7887219890220588
 40
0.8306145643162957
 40
0.8694281114343431
 40
0.9054163681216584
 40
0.938897409887557
 40
0.9702657139129581
 40
1.0
 40
1.0
 40
1.0
 40
1.0
 10
714.9715639589788
 20
612.3777864306818
 30
0.0
 10
714.9774703626763
 20
612.4114130025962
 30
0.0
 10
714.9890082662612
 20
612.4771010531393
 30
0.0
 10
715.0030811708959
 20
612.5645060258322
 30
0.0
 10
715.0142114038072
 20
612.6413428267482
 30
0.0
 10
715.0222240830774
 20
612.7077279171858
 30
0.0
 10
715.0271634960679
 20
612.7645606858034
 30
0.0
 10
715.0290195593104
 20
612.8126036950617
 30
0.0
 10
715.0277955999227
 20
612.8526855926245
 30
0.0
 10
715.0234914675523
 20
612.8856290593666
 30
0.0
 10
715.0161075222395
 20
612.9122498146578
 30
0.0
 10
715.0056431224355
 20
612.9333410554002
 30
0.0
 10
714.992096899796
 20
612.9496642332042
 30
0.0
 10
714.975463881498
 20
612.9619404592238
 30
0.0
 10
714.9557406289939
 20
612.9708447511873
 30
0.0
 10
714.9329017820562
 20
612.9769986978649
 30
0.0
 10
714.9069699897138
 20
612.980974592861
 30
0.0
 10
714.8777739264176
 20
612.9832671754021
 30
0.0
 10
714.8457609042596
 20
612.9843799503237
 30
0.0
 10
714.8209053017392
 20
612.9844806666838
 30
0.0
 10
714.808809847277
 20
612.9845296781754
 30
0.0
  0
ARC
  5
1092
330
A
100
AcDbEntity
  8
MODEL
100
AcDbCircle
 10
727.1142703251214
 20
610.2531945186433
 30
0.0
 40
12.32717358888537
100
AcDbArc
 50
170.0755020576002
 51
176.5988117681999
  0
LINE
  5
1093
330
A
100
AcDbEntity
  8
MODEL
100
AcDbLine
 10
815.2857609975215
 20
571.1445296782434
 30
0.0
 11
836.2407609975214
 21
571.1445296782434
 31
0.0
  0
LINE
  5
1094
330
A
100
AcDbEntity
  8
MODEL
100
AcDbLine
 10
835.0807609975216
 20
569.9845296782433
 30
0.0
 11
816.4457609975216
 21
569.9845296782433
 31
0.0
  0
LINE
  5
1095
330
A
100
AcDbEntity
  8
MODEL
100
AcDbLine
 10
615.2857609975215
 20
571.1445296782434
 30
0.0
 11
636.2407609975214
 21
571.1445296782434
 31
0.0
  0
LINE
  5
1096
330
A
100
AcDbEntity
  8
MODEL
100
AcDbLine
 10
635.0807609975216
 20
569.9845296782433
 30
0.0
 11
616.4457609975216
 21
569.9845296782433
 31
0.0
  0
ARC
  5
1097
330
A
100
AcDbEntity
  8
MODEL
100
AcDbCircle
 10
825.7632609975215
 20
606.9845296782433
 30
0.0
 40
2.250000000000002
100
AcDbArc
 50
0.0
 51
180.0
  0
LINE
  5
1098
330
A
100
AcDbEntity
  8
MODEL
100
AcDbLine
 10
823.5132609975215
 20
606.9845296782433
 30
0.0
 11
823.5132609975215
 21
603.9845296782433
 31
0.0
  0
ARC
  5
1099
330
A
100
AcDbEntity
  8
MODEL
100
AcDbCircle
 10
825.7632609975215
 20
603.9845296782433
 30
0.0
 40
2.249999999999988
100
AcDbArc
 50
180.0
 51
0.0
  0
LINE
  5
109A
330
A
100
AcDbEntity
  8
MODEL
100
AcDbLine
 10
828.0132609975215
 20
603.9845296782433
 30
0.0
 11
827.0132609975215
 21
603.9845296782433
 31
0.0
  0
ARC
  5
109B
330
A
100
AcDbEntity
  8
MODEL
100
AcDbCircle
 10
825.7632609975215
 20
603.9845296782433
 30
0.0
 40
1.250000000000001
100
AcDbArc
 50
180.0
 51
0.0
  0
LINE
  5
109C
330
A
100
AcDbEntity
  8
MODEL
100
AcDbLine
 10
824.5132609975215
 20
603.9845296782433
 30
0.0
 11
824.5132609975215
 21
606.9845296782433
 31
0.0
  0
ARC
  5
109D
330
A
100
AcDbEntity
  8
MODEL
100
AcDbCircle
 10
825.7632609975215
 20
606.9845296782433
 30
0.0
 40
1.249999999999987
100
AcDbArc
 50
0.0
 51
180.0
  0
LINE
  5
109E
330
A
100
AcDbEntity
  8
MODEL
100
AcDbLine
 10
827.0132609975215
 20
606.9845296782433
 30
0.0
 11
828.0132609975215
 21
606.9845296782433
 31
0.0
  0
LINE
  5
109F
330
A
100
AcDbEntity
  8
MODEL
100
AcDbLine
 10
716.2632609975215
 20
609.2345296782433
 30
0.0
 11
711.7632609975215
 21
609.2345296782433
 31
0.0
  0
LINE
  5
10A0
330
A
100
AcDbEntity
  8
MODEL
100
AcDbLine
 10
711.7632609975215
 20
609.2345296782433
 30
0.0
 11
711.7632609975215
 21
601.7345296782433
 31
0.0
  0
LINE
  5
10A1
330
A
100
AcDbEntity
  8
MODEL
100
AcDbLine
 10
711.7632609975215
 20
601.7345296782433
 30
0.0
 11
712.7632609975215
 21
601.7345296782433
 31
0.0
  0
LINE
  5
10A2
330
A
100
AcDbEntity
  8
MODEL
100
AcDbLine
 10
712.7632609975215
 20
601.7345296782433
 30
0.0
 11
712.7632609975215
 21
605.2345296782433
 31
0.0
  0
LINE
  5
10A3
330
A
100
AcDbEntity
  8
MODEL
100
AcDbLine
 10
712.7632609975215
 20
605.2345296782433
 30
0.0
 11
715.7632609975215
 21
605.2345296782433
 31
0.0
  0
LINE
  5
10A4
330
A
100
AcDbEntity
  8
MODEL
100
AcDbLine
 10
715.7632609975215
 20
605.2345296782433
 30
0.0
 11
715.7632609975215
 21
606.2345296782433
 31
0.0
  0
LINE
  5
10A5
330
A
100
AcDbEntity
  8
MODEL
100
AcDbLine
 10
715.7632609975215
 20
606.2345296782433
 30
0.0
 11
712.7632609975215
 21
606.2345296782433
 31
0.0
  0
LINE
  5
10A6
330
A
100
AcDbEntity
  8
MODEL
100
AcDbLine
 10
712.7632609975215
 20
606.2345296782433
 30
0.0
 11
712.7632609975215
 21
608.2345296782433
 31
0.0
  0
LINE
  5
10A7
330
A
100
AcDbEntity
  8
MODEL
100
AcDbLine
 10
712.7632609975215
 20
608.2345296782433
 30
0.0
 11
716.2632609975215
 21
608.2345296782433
 31
0.0
  0
LINE
  5
10A8
330
A
100
AcDbEntity
  8
MODEL
100
AcDbLine
 10
716.2632609975215
 20
608.2345296782433
 30
0.0
 11
716.2632609975215
 21
609.2345296782433
 31
0.0
  0
ARC
  5
10A9
330
A
100
AcDbEntity
  8
MODEL
100
AcDbCircle
 10
720.2632609975215
 20
604.2345296782433
 30
0.0
 40
2.0
100
AcDbArc
 50
0.0
 51
48.59037789069779
  0
ARC
  5
10AA
330
A
100
AcDbEntity
  8
MODEL
100
AcDbCircle
 10
720.2632609975215
 20
604.2345296782433
 30
0.0
 40
1.000000000000001
100
AcDbArc
 50
0.0
 51
90.0
  0
LINE
  5
10AB
330
A
100
AcDbEntity
  8
MODEL
100
AcDbLine
 10
720.2632609975215
 20
605.2345296782433
 30
0.0
 11
718.7632609975215
 21
605.2345296782433
 31
0.0
  0
LINE
  5
10AC
330
A
100
AcDbEntity
  8
MODEL
100
AcDbLine
 10
718.7632609975215
 20
601.7345296782433
 30
0.0
 11
717.7632609975215
 21
601.7345296782433
 31
0.0
  0
LINE
  5
10AD
330
A
100
AcDbEntity
  8
MODEL
100
AcDbLine
 10
717.7632609975215
 20
601.7345296782433
 30
0.0
 11
717.7632609975215
 21
609.2345296782433
 31
0.0
  0
LINE
  5
10AE
330
A
100
AcDbEntity
  8
MODEL
100
AcDbLine
 10
717.7632609975215
 20
609.2345296782433
 30
0.0
 11
720.2632609975215
 21
609.2345296782433
 31
0.0
  0
ARC
  5
10AF
330
A
100
AcDbEntity
  8
MODEL
100
AcDbCircle
 10
720.2632609975215
 20
607.2345296782433
 30
0.0
 40
2.00000000000001
100
AcDbArc
 50
311.4096221093022
 51
90.0
  0
LINE
  5
10B0
330
A
100
AcDbEntity
  8
MODEL
100
AcDbLine
 10
722.2632609975215
 20
604.2345296782433
 30
0.0
 11
722.2632609975215
 21
601.7345296782433
 31
0.0
  0
LINE
  5
10B1
330
A
100
AcDbEntity
  8
MODEL
100
AcDbLine
 10
722.2632609975215
 20
601.7345296782433
 30
0.0
 11
721.2632609975215
 21
601.7345296782433
 31
0.0
  0
LINE
  5
10B2
330
A
100
AcDbEntity
  8
MODEL
100
AcDbLine
 10
721.2632609975215
 20
601.7345296782433
 30
0.0
 11
721.2632609975215
 21
604.2345296782433
 31
0.0
  0
LINE
  5
10B3
330
A
100
AcDbEntity
  8
MODEL
100
AcDbLine
 10
718.7632609975215
 20
605.2345296782433
 30
0.0
 11
718.7632609975215
 21
601.7345296782433
 31
0.0
  0
ARC
  5
10B4
330
A
100
AcDbEntity
  8
MODEL
100
AcDbCircle
 10
720.2632609975215
 20
607.2345296782433
 30
0.0
 40
1.00000000000001
100
AcDbArc
 50
270.0
 51
90.0
  0
LINE
  5
10B5
330
A
100
AcDbEntity
  8
MODEL
100
AcDbLine
 10
720.2632609975215
 20
606.2345296782433
 30
0.0
 11
718.7632609975215
 21
606.2345296782433
 31
0.0
  0
LINE
  5
10B6
330
A
100
AcDbEntity
  8
MODEL
100
AcDbLine
 10
718.7632609975215
 20
606.2345296782433
 30
0.0
 11
718.7632609975215
 21
608.2345296782433
 31
0.0
  0
LINE
  5
10B7
330
A
100
AcDbEntity
  8
MODEL
100
AcDbLine
 10
718.7632609975215
 20
608.2345296782433
 30
0.0
 11
720.2632609975215
 21
608.2345296782433
 31
0.0
  0
ARC
  5
10B8
330
A
100
AcDbEntity
  8
MODEL
100
AcDbCircle
 10
726.0132609975215
 20
606.9845296782433
 30
0.0
 40
1.250000000000001
100
AcDbArc
 50
0.0
 51
180.0
  0
LINE
  5
10B9
330
A
100
AcDbEntity
  8
MODEL
100
AcDbLine
 10
727.2632609975215
 20
603.9845296782433
 30
0.0
 11
727.2632609975215
 21
606.9845296782433
 31
0.0
  0
ARC
  5
10BA
330
A
100
AcDbEntity
  8
MODEL
100
AcDbCircle
 10
726.0132609975215
 20
603.9845296782433
 30
0.0
 40
1.250000000000001
100
AcDbArc
 50
180.0
 51
0.0
  0
LINE
  5
10BB
330
A
100
AcDbEntity
  8
MODEL
100
AcDbLine
 10
724.7632609975215
 20
606.9845296782433
 30
0.0
 11
724.7632609975215
 21
603.9845296782433
 31
0.0
  0
ARC
  5
10BC
330
A
100
AcDbEntity
  8
MODEL
100
AcDbCircle
 10
726.0132609975215
 20
606.9845296782433
 30
0.0
 40
2.250000000000002
100
AcDbArc
 50
0.0
 51
180.0
  0
LINE
  5
10BD
330
A
100
AcDbEntity
  8
MODEL
100
AcDbLine
 10
723.7632609975215
 20
606.9845296782433
 30
0.0
 11
723.7632609975215
 21
603.9845296782433
 31
0.0
  0
ARC
  5
10BE
330
A
100
AcDbEntity
  8
MODEL
100
AcDbCircle
 10
726.0132609975215
 20
603.9845296782433
 30
0.0
 40
2.250000000000002
100
AcDbArc
 50
180.0
 51
0.0
  0
LINE
  5
10BF
330
A
100
AcDbEntity
  8
MODEL
100
AcDbLine
 10
728.2632609975215
 20
603.9845296782433
 30
0.0
 11
728.2632609975215
 21
606.9845296782433
 31
0.0
  0
LINE
  5
10C0
330
A
100
AcDbEntity
  8
MODEL
100
AcDbLine
 10
730.7632609975215
 20
601.7345296782433
 30
0.0
 11
729.7632609975215
 21
601.7345296782433
 31
0.0
  0
LINE
  5
10C1
330
A
100
AcDbEntity
  8
MODEL
100
AcDbLine
 10
729.7632609975215
 20
601.7345296782433
 30
0.0
 11
729.7632609975215
 21
609.2345296782433
 31
0.0
  0
LINE
  5
10C2
330
A
100
AcDbEntity
  8
MODEL
100
AcDbLine
 10
729.7632609975215
 20
609.2345296782433
 30
0.0
 11
730.7632609975215
 21
609.2345296782433
 31
0.0
  0
LINE
  5
10C3
330
A
100
AcDbEntity
  8
MODEL
100
AcDbLine
 10
730.7632609975215
 20
609.2345296782433
 30
0.0
 11
733.2632609975215
 21
604.2345296782433
 31
0.0
  0
LINE
  5
10C4
330
A
100
AcDbEntity
  8
MODEL
100
AcDbLine
 10
733.2632609975215
 20
604.2345296782433
 30
0.0
 11
733.2632609975215
 21
609.2345296782433
 31
0.0
  0
LINE
  5
10C5
330
A
100
AcDbEntity
  8
MODEL
100
AcDbLine
 10
733.2632609975215
 20
609.2345296782433
 30
0.0
 11
734.2632609975215
 21
609.2345296782433
 31
0.0
  0
LINE
  5
10C6
330
A
100
AcDbEntity
  8
MODEL
100
AcDbLine
 10
734.2632609975215
 20
609.2345296782433
 30
0.0
 11
734.2632609975215
 21
601.7345296782433
 31
0.0
  0
LINE
  5
10C7
330
A
100
AcDbEntity
  8
MODEL
100
AcDbLine
 10
734.2632609975215
 20
601.7345296782433
 30
0.0
 11
733.2632609975215
 21
601.7345296782433
 31
0.0
  0
LINE
  5
10C8
330
A
100
AcDbEntity
  8
MODEL
100
AcDbLine
 10
733.2632609975215
 20
601.7345296782433
 30
0.0
 11
730.7632609975215
 21
606.7345296782433
 31
0.0
  0
LINE
  5
10C9
330
A
100
AcDbEntity
  8
MODEL
100
AcDbLine
 10
730.7632609975215
 20
606.7345296782433
 30
0.0
 11
730.7632609975215
 21
601.7345296782433
 31
0.0
  0
LINE
  5
10CA
330
A
100
AcDbEntity
  8
MODEL
100
AcDbLine
 10
740.2632609975215
 20
608.2345296782433
 30
0.0
 11
738.5132609975215
 21
608.2345296782433
 31
0.0
  0
LINE
  5
10CB
330
A
100
AcDbEntity
  8
MODEL
100
AcDbLine
 10
737.5132609975215
 20
608.2345296782433
 30
0.0
 11
735.7632609975215
 21
608.2345296782433
 31
0.0
  0
LINE
  5
10CC
330
A
100
AcDbEntity
  8
MODEL
100
AcDbLine
 10
735.7632609975215
 20
608.2345296782433
 30
0.0
 11
735.7632609975215
 21
609.2345296782433
 31
0.0
  0
LINE
  5
10CD
330
A
100
AcDbEntity
  8
MODEL
100
AcDbLine
 10
735.7632609975215
 20
609.2345296782433
 30
0.0
 11
740.2632609975215
 21
609.2345296782433
 31
0.0
  0
LINE
  5
10CE
330
A
100
AcDbEntity
  8
MODEL
100
AcDbLine
 10
740.2632609975215
 20
609.2345296782433
 30
0.0
 11
740.2632609975215
 21
608.2345296782433
 31
0.0
  0
LINE
  5
10CF
330
A
100
AcDbEntity
  8
MODEL
100
AcDbLine
 10
738.5132609975215
 20
608.2345296782433
 30
0.0
 11
738.5132609975215
 21
601.7345296782433
 31
0.0
  0
LINE
  5
10D0
330
A
100
AcDbEntity
  8
MODEL
100
AcDbLine
 10
738.5132609975215
 20
601.7345296782433
 30
0.0
 11
737.5132609975215
 21
601.7345296782433
 31
0.0
  0
LINE
  5
10D1
330
A
100
AcDbEntity
  8
MODEL
100
AcDbLine
 10
737.5132609975215
 20
601.7345296782433
 30
0.0
 11
737.5132609975215
 21
608.2345296782433
 31
0.0
  0
LINE
  5
10D2
330
A
100
AcDbEntity
  8
MODEL
100
AcDbLine
 10
623.5132609975215
 20
601.7345296782433
 30
0.0
 11
623.5132609975215
 21
609.2345296782433
 31
0.0
  0
LINE
  5
10D3
330
A
100
AcDbEntity
  8
MODEL
100
AcDbLine
 10
624.5132609975215
 20
601.7345296782433
 30
0.0
 11
623.5132609975215
 21
601.7345296782433
 31
0.0
  0
LINE
  5
10D4
330
A
100
AcDbEntity
  8
MODEL
100
AcDbLine
 10
624.5132609975215
 20
605.9845296782433
 30
0.0
 11
627.0132609975215
 21
605.9845296782433
 31
0.0
  0
LINE
  5
10D5
330
A
100
AcDbEntity
  8
MODEL
100
AcDbLine
 10
627.0132609975215
 20
604.9845296782433
 30
0.0
 11
624.5132609975215
 21
604.9845296782433
 31
0.0
  0
LINE
  5
10D6
330
A
100
AcDbEntity
  8
MODEL
100
AcDbLine
 10
623.5132609975215
 20
609.2345296782433
 30
0.0
 11
624.5132609975215
 21
609.2345296782433
 31
0.0
  0
LINE
  5
10D7
330
A
100
AcDbEntity
  8
MODEL
100
AcDbLine
 10
624.5132609975215
 20
609.2345296782433
 30
0.0
 11
624.5132609975215
 21
605.9845296782433
 31
0.0
  0
LINE
  5
10D8
330
A
100
AcDbEntity
  8
MODEL
100
AcDbLine
 10
627.0132609975215
 20
605.9845296782433
 30
0.0
 11
627.0132609975215
 21
609.2345296782433
 31
0.0
  0
LINE
  5
10D9
330
A
100
AcDbEntity
  8
MODEL
100
AcDbLine
 10
627.0132609975215
 20
609.2345296782433
 30
0.0
 11
628.0132609975215
 21
609.2345296782433
 31
0.0
  0
LINE
  5
10DA
330
A
100
AcDbEntity
  8
MODEL
100
AcDbLine
 10
628.0132609975215
 20
609.2345296782433
 30
0.0
 11
628.0132609975215
 21
601.7345296782433
 31
0.0
  0
LINE
  5
10DB
330
A
100
AcDbEntity
  8
MODEL
100
AcDbLine
 10
628.0132609975215
 20
601.7345296782433
 30
0.0
 11
627.0132609975215
 21
601.7345296782433
 31
0.0
  0
LINE
  5
10DC
330
A
100
AcDbEntity
  8
MODEL
100
AcDbLine
 10
627.0132609975215
 20
601.7345296782433
 30
0.0
 11
627.0132609975215
 21
604.9845296782433
 31
0.0
  0
LINE
  5
10DD
330
A
100
AcDbEntity
  8
MODEL
100
AcDbLine
 10
624.5132609975215
 20
604.9845296782433
 30
0.0
 11
624.5132609975215
 21
601.7345296782433
 31
0.0
  0
LINE
  5
10DE
330
A
100
AcDbEntity
  8
MODEL
100
AcDbLine
 10
615.2857609975215
 20
588.9845296782433
 30
0.0
 11
615.2857609975215
 21
571.1445296782434
 31
0.0
  0
LINE
  5
10DF
330
A
100
AcDbEntity
  8
MODEL
100
AcDbLine
 10
636.2407609975214
 20
571.1445296782434
 30
0.0
 11
636.2407609975214
 21
588.9845296782433
 31
0.0
  0
LINE
  5
10E0
330
A
100
AcDbEntity
  8
MODEL
100
AcDbLine
 10
815.2857609975215
 20
588.9845296782433
 30
0.0
 11
815.2857609975215
 21
571.1445296782434
 31
0.0
  0
LINE
  5
10E1
330
A
100
AcDbEntity
  8
MODEL
100
AcDbLine
 10
836.2407609975214
 20
571.1445296782434
 30
0.0
 11
836.2407609975214
 21
588.9845296782433
 31
0.0
  0
ARC
  5
10E2
330
A
100
AcDbEntity
  8
MODEL
100
AcDbCircle
 10
808.7632609975215
 20
595.9845296782433
 30
0.0
 40
1.999999999999997
100
AcDbArc
 50
0.0
 51
90.0
  0
ARC
  5
10E3
330
A
100
AcDbEntity
  8
MODEL
100
AcDbCircle
 10
642.7632609975215
 20
595.9845296782433
 30
0.0
 40
2.000000000000002
100
AcDbArc
 50
90.0
 51
180.0
  0
ARC
  5
10E4
330
A
100
AcDbEntity
  8
MODEL
100
AcDbCircle
 10
838.7632609975215
 20
592.9845296782433
 30
0.0
 40
2.000000000000002
100
AcDbArc
 50
270.0
 51
0.0
  0
ARC
  5
10E5
330
A
100
AcDbEntity
  8
MODEL
100
AcDbCircle
 10
812.7632609975215
 20
592.9845296782433
 30
0.0
 40
2.000000000000002
100
AcDbArc
 50
180.0
 51
270.0
  0
ARC
  5
10E6
330
A
100
AcDbEntity
  8
MODEL
100
AcDbCircle
 10
638.7632609975215
 20
592.9845296782433
 30
0.0
 40
2.000000000000002
100
AcDbArc
 50
270.0
 51
0.0
  0
ARC
  5
10E7
330
A
100
AcDbEntity
  8
MODEL
100
AcDbCircle
 10
612.7632609975215
 20
592.9845296782433
 30
0.0
 40
2.000000000000002
100
AcDbArc
 50
180.0
 51
270.0
  0
ARC
  5
10E8
330
A
100
AcDbEntity
  8
MODEL
100
AcDbCircle
 10
638.2407609975214
 20
588.9845296782433
 30
0.0
 40
2.000000000000002
100
AcDbArc
 50
90.0
 51
180.0
  0
ARC
  5
10E9
330
A
100
AcDbEntity
  8
MODEL
100
AcDbCircle
 10
613.2857609975215
 20
588.9845296782433
 30
0.0
 40
2.0
100
AcDbArc
 50
0.0
 51
90.0
  0
ARC
  5
10EA
330
A
100
AcDbEntity
  8
MODEL
100
AcDbCircle
 10
838.2407609975214
 20
588.9845296782433
 30
0.0
 40
2.000000000000002
100
AcDbArc
 50
90.0
 51
180.0
  0
ARC
  5
10EB
330
A
100
AcDbEntity
  8
MODEL
100
AcDbCircle
 10
813.2857609975215
 20
588.9845296782433
 30
0.0
 40
2.0
100
AcDbArc
 50
0.0
 51
90.0
  0
LINE
  5
10EC
330
A
100
AcDbEntity
  8
MODEL
100
AcDbLine
 10
740.7632609975215
 20
614.9845296782433
 30
0.0
 11
740.7632609975215
 21
659.6845296782434
 31
0.0
  0
LINE
  5
10ED
330
A
100
AcDbEntity
  8
MODEL
100
AcDbLine
 10
710.7632609975215
 20
659.6845296782434
 30
0.0
 11
710.7632609975215
 21
614.9845296782433
 31
0.0
  0
ARC
  5
10EE
330
A
100
AcDbEntity
  8
MODEL
100
AcDbCircle
 10
808.7632609975215
 20
614.9845296782433
 30
0.0
 40
2.000000000000002
100
AcDbArc
 50
270.0
 51
0.0
  0
ARC
  5
10EF
330
A
100
AcDbEntity
  8
MODEL
100
AcDbCircle
 10
708.7632609975215
 20
614.9845296782433
 30
0.0
 40
2.000000000000002
100
AcDbArc
 50
270.0
 51
0.0
  0
ARC
  5
10F0
330
A
100
AcDbEntity
  8
MODEL
100
AcDbCircle
 10
742.7632609975215
 20
614.9845296782433
 30
0.0
 40
1.999999999999997
100
AcDbArc
 50
180.0
 51
270.0
  0
ARC
  5
10F1
330
A
100
AcDbEntity
  8
MODEL
100
AcDbCircle
 10
642.7632609975215
 20
614.9845296782433
 30
0.0
 40
2.000000000000001
100
AcDbArc
 50
180.0
 51
270.0
  0
LINE
  5
10F2
330
A
100
AcDbEntity
  8
MODEL
100
AcDbLine
 10
640.7632609975215
 20
614.9845296782433
 30
0.0
 11
640.7632609975215
 21
621.1845296782434
 31
0.0
  0
LINE
  5
10F3
330
A
100
AcDbEntity
  8
MODEL
100
AcDbLine
 10
640.7632609975215
 20
592.9845296782433
 30
0.0
 11
640.7632609975215
 21
595.9845296782433
 31
0.0
  0
LINE
  5
10F4
330
A
100
AcDbEntity
  8
MODEL
100
AcDbLine
 10
610.7632609975215
 20
621.1845296782434
 30
0.0
 11
610.7632609975215
 21
592.9845296782433
 31
0.0
  0
LINE
  5
10F5
330
A
100
AcDbEntity
  8
MODEL
100
AcDbLine
 10
840.7632609975215
 20
592.9845296782433
 30
0.0
 11
840.7632609975215
 21
621.1845296782434
 31
0.0
  0
LINE
  5
10F6
330
A
100
AcDbEntity
  8
MODEL
100
AcDbLine
 10
840.7632609975215
 20
630.1845296782434
 30
0.0
 11
840.7632609975215
 21
660.1845296782434
 31
0.0
  0
LINE
  5
10F7
330
A
100
AcDbEntity
  8
MODEL
100
AcDbLine
 10
810.7632609975215
 20
595.9845296782433
 30
0.0
 11
810.7632609975215
 21
592.9845296782433
 31
0.0
  0
LINE
  5
10F8
330
A
100
AcDbEntity
  8
MODEL
100
AcDbLine
 10
810.7632609975215
 20
660.1845296782434
 30
0.0
 11
810.7632609975215
 21
630.1845296782434
 31
0.0
  0
LINE
  5
10F9
330
A
100
AcDbEntity
  8
MODEL
100
AcDbLine
 10
810.7632609975215
 20
621.1845296782434
 30
0.0
 11
810.7632609975215
 21
614.9845296782433
 31
0.0
  0
LINE
  5
10FA
330
A
100
AcDbEntity
  8
MODEL
100
AcDbLine
 10
815.2857609975215
 20
571.1445296782434
 30
0.0
 11
816.4457609975216
 21
569.9845296782433
 31
0.0
  0
LINE
  5
10FB
330
A
100
AcDbEntity
  8
MODEL
100
AcDbLine
 10
835.0807609975216
 20
569.9845296782433
 30
0.0
 11
836.2407609975214
 21
571.1445296782434
 31
0.0
  0
LINE
  5
10FC
330
A
100
AcDbEntity
  8
MODEL
100
AcDbLine
 10
615.2857609975215
 20
571.1445296782434
 30
0.0
 11
616.4457609975216
 21
569.9845296782433
 31
0.0
  0
LINE
  5
10FD
330
A
100
AcDbEntity
  8
MODEL
100
AcDbLine
 10
635.0807609975216
 20
569.9845296782433
 30
0.0
 11
636.2407609975214
 21
571.1445296782434
 31
0.0
  0
LINE
  5
10FE
330
A
100
AcDbEntity
  8
MODEL
100
AcDbLine
 10
616.4477609975215
 20
569.9845296782433
 30
0.0
 11
616.4477609975215
 21
579.9845296782433
 31
0.0
  0
LINE
  5
10FF
330
A
100
AcDbEntity
  8
MODEL
100
AcDbLine
 10
635.0787609975216
 20
569.9845296782433
 30
0.0
 11
635.0787609975216
 21
579.9845296782433
 31
0.0
  0
LINE
  5
1100
330
A
100
AcDbEntity
  8
MODEL
100
AcDbLine
 10
636.2407609975214
 20
579.9845296782433
 30
0.0
 11
615.2857609975215
 21
579.9845296782433
 31
0.0
  0
LINE
  5
1101
330
A
100
AcDbEntity
  8
MODEL
100
AcDbLine
 10
816.4477609975215
 20
569.9845296782433
 30
0.0
 11
816.4477609975215
 21
579.9845296782433
 31
0.0
  0
LINE
  5
1102
330
A
100
AcDbEntity
  8
MODEL
100
AcDbLine
 10
835.0787609975216
 20
569.9845296782433
 30
0.0
 11
835.0787609975216
 21
579.9845296782433
 31
0.0
  0
LINE
  5
1103
330
A
100
AcDbEntity
  8
MODEL
100
AcDbLine
 10
836.2407609975214
 20
579.9845296782433
 30
0.0
 11
815.2857609975215
 21
579.9845296782433
 31
0.0
  0
LINE
  5
1104
330
A
100
AcDbEntity
  8
MODEL
100
AcDbLine
 10
739.8432609975214
 20
659.6845296782434
 30
0.0
 11
739.8432609975214
 21
653.9845296782433
 31
0.0
  0
LINE
  5
1105
330
A
100
AcDbEntity
  8
MODEL
100
AcDbLine
 10
711.6832609975215
 20
659.6845296782434
 30
0.0
 11
711.6832609975215
 21
653.9845296782433
 31
0.0
  0
LINE
  5
1106
330
A
100
AcDbEntity
  8
MODEL
100
AcDbLine
 10
710.7632609975215
 20
653.9845296782433
 30
0.0
 11
740.7632609975215
 21
653.9845296782433
 31
0.0
  0
LINE
  5
1107
330
A
100
AcDbEntity
  8
MODEL
100
AcDbLine
 10
639.8432609975216
 20
660.1845296782434
 30
0.0
 11
639.8432609975216
 21
630.1845296782434
 31
0.0
  0
LINE
  5
1108
330
A
100
AcDbEntity
  8
MODEL
100
AcDbLine
 10
639.8432609975216
 20
621.1845296782434
 30
0.0
 11
639.8432609975216
 21
615.9845296782433
 31
0.0
  0
LINE
  5
1109
330
A
100
AcDbEntity
  8
MODEL
100
AcDbLine
 10
611.6832609975215
 20
660.1845296782434
 30
0.0
 11
611.6832609975215
 21
630.1845296782434
 31
0.0
  0
LINE
  5
110A
330
A
100
AcDbEntity
  8
MODEL
100
AcDbLine
 10
611.6832609975215
 20
621.1845296782434
 30
0.0
 11
611.6832609975215
 21
615.9845296782433
 31
0.0
  0
LINE
  5
110B
330
A
100
AcDbEntity
  8
MODEL
100
AcDbLine
 10
610.7632609975215
 20
615.9845296782433
 30
0.0
 11
640.7632609975215
 21
615.9845296782433
 31
0.0
  0
LINE
  5
110C
330
A
100
AcDbEntity
  8
MODEL
100
AcDbLine
 10
839.8432609975214
 20
660.1845296782434
 30
0.0
 11
839.8432609975214
 21
630.1845296782434
 31
0.0
  0
LINE
  5
110D
330
A
100
AcDbEntity
  8
MODEL
100
AcDbLine
 10
839.8432609975214
 20
621.1845296782434
 30
0.0
 11
839.8432609975214
 21
615.9845296782433
 31
0.0
  0
LINE
  5
110E
330
A
100
AcDbEntity
  8
MODEL
100
AcDbLine
 10
811.6832609975215
 20
660.1845296782434
 30
0.0
 11
811.6832609975215
 21
630.1845296782434
 31
0.0
  0
LINE
  5
110F
330
A
100
AcDbEntity
  8
MODEL
100
AcDbLine
 10
811.6832609975215
 20
621.1845296782434
 30
0.0
 11
811.6832609975215
 21
615.9845296782433
 31
0.0
  0
LINE
  5
1110
330
A
100
AcDbEntity
  8
MODEL
100
AcDbLine
 10
810.7632609975215
 20
615.9845296782433
 30
0.0
 11
840.7632609975215
 21
615.9845296782433
 31
0.0
  0
LINE
  5
1111
330
A
100
AcDbEntity
  8
MODEL
100
AcDbLine
 10
640.7632609975215
 20
660.1845296782434
 30
0.0
 11
610.7632609975215
 21
660.1845296782434
 31
0.0
  0
LINE
  5
1112
330
A
100
AcDbEntity
  8
MODEL
100
AcDbLine
 10
810.7632609975215
 20
660.1845296782434
 30
0.0
 11
840.7632609975215
 21
660.1845296782434
 31
0.0
  0
LINE
  5
1113
330
A
100
AcDbEntity
  8
MODEL
100
AcDbLine
 10
840.7632609975215
 20
660.1845296782434
 30
0.0
 11
888.8512392855216
 21
660.1845296782434
 31
0.0
  0
LINE
  5
1114
330
A
100
AcDbEntity
  8
MODEL
100
AcDbLine
 10
725.7632609975215
 20
660.1845296782434
 30
0.0
 11
725.7632609975215
 21
708.2725079662433
 31
0.0
  0
LINE
  5
1115
330
A
100
AcDbEntity
  8
MODEL
100
AcDbLine
 10
653.2632609975215
 20
660.1845296782434
 30
0.0
 11
653.2632609975215
 21
708.2725079662433
 31
0.0
  0
LINE
  5
1116
330
A
100
AcDbEntity
  8
MODEL
100
AcDbLine
 10
598.2632609975215
 20
660.1845296782434
 30
0.0
 11
598.2632609975215
 21
708.2725079662433
 31
0.0
  0
ARC
  5
1117
330
A
100
AcDbEntity
  8
MODEL
100
AcDbCircle
 10
726.6308321073021
 20
1229.92799325714
 30
0.0
 40
28.0
100
AcDbArc
 50
322.4006939401002
 51
217.4948061546007
  0
ARC
  5
1118
330
A
100
AcDbEntity
  8
MODEL
100
AcDbCircle
 10
726.6308321073021
 20
1229.92799325714
 30
0.0
 40
23.8
100
AcDbArc
 50
339.6452317548001
 51
200.0301476657006
  0
ARC
  5
1119
330
A
100
AcDbEntity
  8
MODEL
100
AcDbCircle
 10
726.6308321073021
 20
1229.92799325714
 30
0.0
 40
23.5
100
AcDbArc
 50
342.4485068452993
 51
197.6146005259997
  0
ARC
  5
111A
330
A
100
AcDbEntity
  8
MODEL
100
AcDbCircle
 10
726.6308321073021
 20
1229.92799325714
 30
0.0
 40
22.49999999999995
100
AcDbArc
 50
31.21825398719925
 51
148.7817460128007
  0
ARC
  5
111B
330
A
100
AcDbEntity
  8
MODEL
100
AcDbCircle
 10
1119.821511083302
 20
1194.75175441594
 30
0.0
 40
415.08372114023
100
AcDbArc
 50
173.5220096986999
 51
180.1349627964
  0
SPLINE
  5
111C
330
A
100
AcDbEntity
  8
MODEL
100
AcDbSpline
210
0.0
220
0.0
230
1.0
 70
     8
 71
     3
 72
    33
 73
    29
 74
     0
 42
0.000000001
 43
0.0000000001
 40
0.0
 40
0.0
 40
0.0
 40
0.0
 40
0.0197399012828331
 40
0.039773064143801
 40
0.0601025510612629
 40
0.080731296164135
 40
0.1016621365881253
 40
0.1228978435986546
 40
0.1828717331980362
 40
0.2465019616978487
 40
0.3067168018496414
 40
0.3706636470498218
 40
0.4303218667550213
 40
0.4953783909058879
 40
0.5579615910963044
 40
0.6206846590407388
 40
0.683547590466106
 40
0.7465476840997566
 40
0.7794778325168932
 40
0.8096874870589634
 40
0.8422034325699043
 40
0.8729657264674295
 40
0.8951728748272468
 40
0.9169720306595603
 40
0.938358269680627
 40
0.9593272860350562
 40
0.9798754736481273
 40
1.0
 40
1.0
 40
1.0
 40
1.0
 10
739.6483876090261
 20
1093.609309804031
 30
0.0
 10
739.6475141157713
 20
1094.323094440992
 30
0.0
 10
739.6457541523984
 20
1095.761267902144
 30
0.0
 10
739.6317687258421
 20
1097.934896419246
 30
0.0
 10
739.6095230504837
 20
1100.140777419822
 30
0.0
 10
739.578161109337
 20
1102.37915204643
 30
0.0
 10
739.5379014664551
 20
1104.65020547188
 30
0.0
 10
739.458966844379
 20
1108.343875415985
 30
0.0
 10
739.3117403728517
 20
1113.580289289459
 30
0.0
 10
739.0680284807278
 20
1120.220722929187
 30
0.0
 10
738.7685470914645
 20
1126.996920347809
 30
0.0
 10
738.4324785103637
 20
1133.619822525271
 30
0.0
 10
738.0486058660925
 20
1140.404119358301
 30
0.0
 10
737.6352997688283
 20
1147.123262649523
 30
0.0
 10
737.1857560518134
 20
1153.931437415933
 30
0.0
 10
736.7241131905363
 20
1160.636774471356
 30
0.0
 10
736.2550661034189
 20
1167.327623256871
 30
0.0
 10
735.8733553406374
 20
1172.931864247216
 30
0.0
 10
735.590411171055
 20
1177.361955202412
 30
0.0
 10
735.3902154159215
 20
1180.709481232064
 30
0.0
 10
735.213424129358
 20
1183.968354608447
 30
0.0
 10
735.0724007128111
 20
1186.935181177621
 30
0.0
 10
734.9679179758197
 20
1189.519384747584
 30
0.0
 10
734.8916716520686
 20
1191.771134794853
 30
0.0
 10
734.8320969310226
 20
1193.971634569101
 30
0.0
 10
734.7897644530891
 20
1196.120044532454
 30
0.0
 10
734.763077176604
 20
1198.216845544098
 30
0.0
 10
734.7596918540474
 20
1199.592081443198
 30
0.0
 10
734.758016824123
 20
1200.272536922892
 30
0.0
  0
SPLINE
  5
111D
330
A
100
AcDbEntity
  8
MODEL
100
AcDbSpline
210
0.0
220
0.0
230
1.0
 70
     8
 71
     3
 72
    35
 73
    31
 74
     0
 42
0.000000001
 43
0.0000000001
 40
0.0
 40
0.0
 40
0.0
 40
0.0
 40
0.0109242816881071
 40
0.0219749521870423
 40
0.0331516429584271
 40
0.0444539115263011
 40
0.0558812446376657
 40
0.0674330616119514
 40
0.0791087178841824
 40
0.0909075087462398
 40
0.1028286732900498
 40
0.1148713985557543
 40
0.127034823886948
 40
0.1577962091585288
 40
0.1903130394666876
 40
0.2205218117609051
 40
0.2534528186469561
 40
0.3164528885517685
 40
0.3793157963005082
 40
0.4420388406211985
 40
0.5046220172395964
 40
0.5696776429592957
 40
0.6293367141262842
 40
0.6932826674976633
 40
0.7534983527135725
 40
0.8171276850856668
 40
0.8771024242543722
 40
0.9192685364318401
 40
0.9602266799586309
 40
1.0
 40
1.0
 40
1.0
 40
1.0
 10
718.503647390199
 20
1200.272536922892
 30
0.0
 10
718.5031539033085
 20
1199.903407952002
 30
0.0
 10
718.5021612201166
 20
1199.160879361312
 30
0.0
 10
718.4942453817974
 20
1198.036943445639
 30
0.0
 10
718.4816504480374
 20
1196.897528453391
 30
0.0
 10
718.4639060293522
 20
1195.742416702704
 30
0.0
 10
718.441150605771
 20
1194.57175494656
 30
0.0
 10
718.4133587473626
 20
1193.38560102457
 30
0.0
 10
718.3805512705509
 20
1192.184046980165
 30
0.0
 10
718.3427393601252
 20
1190.967185064958
 30
0.0
 10
718.2999343243642
 20
1189.735116550214
 30
0.0
 10
718.2521653352788
 20
1188.487948695576
 30
0.0
 10
718.1726751250127
 20
1186.586642984377
 30
0.0
 10
718.0482497409354
 20
1183.968384052464
 30
0.0
 10
717.8714502794766
 20
1180.709543425298
 30
0.0
 10
717.6712555982837
 20
1177.36198562045
 30
0.0
 10
717.3883105998531
 20
1172.931895051007
 30
0.0
 10
717.0065982357015
 20
1167.327623234024
 30
0.0
 10
716.5375509837519
 20
1160.636774477342
 30
0.0
 10
716.0759081981386
 20
1153.931437414731
 30
0.0
 10
715.6263664051331
 20
1147.123293903633
 30
0.0
 10
715.213060596407
 20
1140.404150760673
 30
0.0
 10
714.829187938262
 20
1133.619885197798
 30
0.0
 10
714.4931230170558
 20
1126.996951713302
 30
0.0
 10
714.1936228270221
 20
1120.22078549424
 30
0.0
 10
713.9499847427929
 20
1113.580321792253
 30
0.0
 10
713.781240207135
 20
1107.587203623233
 30
0.0
 10
713.6802776537517
 20
1102.412020445116
 30
0.0
 10
713.6240233356249
 20
1097.966929795618
 30
0.0
 10
713.6168236275136
 20
1095.047568181439
 30
0.0
 10
713.6132766052957
 20
1093.609309804031
 30
0.0
  0
SPLINE
  5
111E
330
A
100
AcDbEntity
  8
MODEL
100
AcDbSpline
210
0.0
220
0.0
230
1.0
 70
     8
 71
     3
 72
    28
 73
    24
 74
     0
 42
0.000000001
 43
0.0000000001
 40
0.0
 40
0.0
 40
0.0
 40
0.0
 40
0.0301760978887443
 40
0.0608954737277774
 40
0.0921449873738459
 40
0.1239098693167733
 40
0.1839693618315945
 40
0.2484166097598056
 40
0.3732472037588537
 40
0.4280099131352948
 40
0.4984278367181024
 40
0.5789350836950704
 40
0.6238621351878536
 40
0.6905854336946488
 40
0.7493529176960542
 40
0.7838344810863555
 40
0.8174191072733159
 40
0.850104260956883
 40
0.8818881697554443
 40
0.9127697786389204
 40
0.942748702198243
 40
0.9718251749505338
 40
1.0
 40
1.0
 40
1.0
 40
1.0
 10
740.4752027670678
 20
992.3682149484388
 30
0.0
 10
740.484626327786
 20
993.3903481697029
 30
0.0
 10
740.5036431071018
 20
995.453016674798
 30
0.0
 10
740.5222287955945
 20
998.5743032482964
 30
0.0
 10
740.5338048165162
 20
1001.749536348567
 30
0.0
 10
740.5386281211798
 20
1005.918860958441
 30
0.0
 10
740.5261823991906
 20
1011.21321378408
 30
0.0
 10
740.4730511705308
 20
1019.660871468347
 30
0.0
 10
740.3816321558878
 20
1027.928979328075
 30
0.0
 10
740.2676290543519
 20
1036.396166096909
 30
0.0
 10
740.1673699151414
 20
1043.359702786694
 30
0.0
 10
740.0696489492367
 20
1049.985566554469
 30
0.0
 10
739.9735581909305
 20
1056.480106585746
 30
0.0
 10
739.8937654758566
 20
1062.233806665977
 30
0.0
 10
739.8249594805612
 20
1067.625938817897
 30
0.0
 10
739.776841268293
 20
1071.894252994284
 30
0.0
 10
739.742792075631
 20
1075.280303187355
 30
0.0
 10
739.7138924283669
 20
1078.570807266098
 30
0.0
 10
739.6901745736901
 20
1081.76536857488
 30
0.0
 10
739.6716137610866
 20
1084.863765787207
 30
0.0
 10
739.6583896128606
 20
1087.865651662341
 30
0.0
 10
739.6500027890476
 20
1090.771630167269
 30
0.0
 10
739.6489203197826
 20
1092.673400217552
 30
0.0
 10
739.6483876090261
 20
1093.609309804031
 30
0.0
  0
ARC
  5
111F
330
A
100
AcDbEntity
  8
MODEL
100
AcDbCircle
 10
732.6397213989022
 20
991.8275179183396
 30
0.0
 40
7.85411494381702
100
AcDbArc
 50
291.2339541637011
 51
3.947507854200934
  0
ARC
  5
1120
330
A
100
AcDbEntity
  8
MODEL
100
AcDbCircle
 10
726.6308321073021
 20
1013.14772758834
 30
0.0
 40
29.97827092333941
100
AcDbArc
 50
252.8227004845999
 51
287.1772995154001
  0
ARC
  5
1121
330
A
100
AcDbEntity
  8
MODEL
100
AcDbCircle
 10
720.5513037153022
 20
991.7826729503398
 30
0.0
 40
7.786888651829524
100
AcDbArc
 50
175.6875224224003
 51
249.1310155598004
  0
SPLINE
  5
1122
330
A
100
AcDbEntity
  8
MODEL
100
AcDbSpline
210
0.0
220
0.0
230
1.0
 70
     8
 71
     3
 72
    33
 73
    29
 74
     0
 42
0.000000001
 43
0.0000000001
 40
0.0
 40
0.0
 40
0.0
 40
0.0
 40
0.0149143980392669
 40
0.0300851285807164
 40
0.0455123697765431
 40
0.0611962577299845
 40
0.0771368842168045
 40
0.0933342944310691
 40
0.1097884847609239
 40
0.1264994005996151
 40
0.1434669341964064
 40
0.1606909225514776
 40
0.1781711453580715
 40
0.1959073229943789
 40
0.213899114566679
 40
0.2321461160042238
 40
0.2506478582051589
 40
0.3094143540079502
 40
0.3761385351177437
 40
0.4210654969599704
 40
0.5015727280433062
 40
0.5719897679519003
 40
0.6267532556815321
 40
0.7515837446443057
 40
0.8160299855865569
 40
0.8760903803250082
 40
0.9391041769032197
 40
1.0
 40
1.0
 40
1.0
 40
1.0
 10
713.6132766052957
 20
1093.609309804031
 30
0.0
 10
713.613127320859
 20
1093.114049305445
 30
0.0
 10
713.6128261862463
 20
1092.115016307823
 30
0.0
 10
713.6104468785658
 20
1090.601313217979
 30
0.0
 10
713.6066744277306
 20
1089.060330253792
 30
0.0
 10
713.6013696464082
 20
1087.491877602452
 30
0.0
 10
713.5945788781354
 20
1085.896002535035
 30
0.0
 10
713.5862967973673
 20
1084.272697961508
 30
0.0
 10
713.576531510873
 20
1082.621982672948
 30
0.0
 10
713.5652866303482
 20
1080.943879474421
 30
0.0
 10
713.5525661292523
 20
1079.2384213313
 30
0.0
 10
713.5383729772662
 20
1077.505649794607
 30
0.0
 10
713.522709352895
 20
1075.745615559234
 30
0.0
 10
713.505576902667
 20
1073.958378270927
 30
0.0
 10
713.4869751463563
 20
1072.144007065139
 30
0.0
 10
713.4669073980402
 20
1070.30257879391
 30
0.0
 10
713.4298239526094
 20
1067.087353296475
 30
0.0
 10
713.3679027463357
 20
1062.233834578084
 30
0.0
 10
713.2881058251922
 20
1056.480140732041
 30
0.0
 10
713.1920157487826
 20
1049.985568022772
 30
0.0
 10
713.0942939089215
 20
1043.359732501946
 30
0.0
 10
712.9940376598253
 20
1036.396194037878
 30
0.0
 10
712.8800235282014
 20
1027.929007107954
 30
0.0
 10
712.7886782678121
 20
1019.660904926579
 30
0.0
 10
712.7353704511517
 20
1011.213244035266
 30
0.0
 10
712.7209476123741
 20
1004.860211438783
 30
0.0
 10
712.7336372691053
 20
998.6280533579949
 30
0.0
 10
712.7690551860557
 20
994.4309140047297
 30
0.0
 10
712.7864614472543
 20
992.3682149484381
 30
0.0
  0
ARC
  5
1123
330
A
100
AcDbEntity
  8
MODEL
100
AcDbCircle
 10
333.4401631341021
 20
1194.75175497034
 30
0.0
 40
415.0837111386308
100
AcDbArc
 50
359.8650371238001
 51
6.477990385999957
  0
ARC
  5
1124
330
A
100
AcDbEntity
  8
MODEL
100
AcDbCircle
 10
726.6308321073021
 20
1229.92799325714
 30
0.0
 40
22.50000000000003
100
AcDbArc
 50
148.7817460127996
 51
170.2291378221004
  0
ARC
  5
1125
330
A
100
AcDbEntity
  8
MODEL
100
AcDbCircle
 10
726.6308321073021
 20
1229.92799325714
 30
0.0
 40
22.5
100
AcDbArc
 50
11.63840793820014
 51
31.21825398719925
  0
SPLINE
  5
1126
330
A
100
AcDbEntity
  8
MODEL
100
AcDbSpline
210
0.0
220
0.0
230
1.0
 70
     8
 71
     3
 72
    13
 73
     9
 74
     0
 42
0.000000001
 43
0.0000000001
 40
0.0
 40
0.0
 40
0.0
 40
0.0
 40
0.1667488732395677
 40
0.3335397876137635
 40
0.5002576126206372
 40
0.6668798550094314
 40
0.8334218616508211
 40
1.0
 40
1.0
 40
1.0
 40
1.0
 10
704.6309473395391
 20
1192.627833528084
 30
0.0
 10
704.6479340057323
 20
1186.620655422029
 30
0.0
 10
704.6787270498841
 20
1176.482014247282
 30
0.0
 10
704.8829779009367
 20
1159.471253073407
 30
0.0
 10
705.1309812884498
 20
1142.643295201234
 30
0.0
 10
705.3790447737239
 20
1125.630985536912
 30
0.0
 10
705.5832558732519
 20
1108.056583240538
 30
0.0
 10
705.6139759132546
 20
1097.292822753195
 30
0.0
 10
705.6309247295986
 20
1090.903085872341
 30
0.0
  0
SPLINE
  5
1127
330
A
100
AcDbEntity
  8
MODEL
100
AcDbSpline
210
0.0
220
0.0
230
1.0
 70
     8
 71
     3
 72
    13
 73
     9
 74
     0
 42
0.000000001
 43
0.0000000001
 40
0.0
 40
0.0
 40
0.0
 40
0.0
 40
0.166578138349178
 40
0.3331201449905679
 40
0.4997423873793628
 40
0.6664602123862364
 40
0.8332511267604324
 40
1.0
 40
1.0
 40
1.0
 40
1.0
 10
747.6307394847241
 20
1090.903085872341
 30
0.0
 10
747.6476883010679
 20
1097.292822753195
 30
0.0
 10
747.6784083410706
 20
1108.056583240538
 30
0.0
 10
747.8826194405984
 20
1125.630985536912
 30
0.0
 10
748.1306829258725
 20
1142.643295201233
 30
0.0
 10
748.3786863133854
 20
1159.471253073407
 30
0.0
 10
748.5829371644382
 20
1176.482014247282
 30
0.0
 10
748.6137302085898
 20
1186.620655422029
 30
0.0
 10
748.6307168747834
 20
1192.627833528084
 30
0.0
  0
SPLINE
  5
1128
330
A
100
AcDbEntity
  8
MODEL
100
AcDbSpline
210
0.0
220
0.0
230
1.0
 70
     8
 71
     3
 72
    26
 73
    22
 74
     0
 42
0.000000001
 43
0.0000000001
 40
0.0
 40
0.0
 40
0.0
 40
0.0
 40
0.0751395172144193
 40
0.1441436111606031
 40
0.2069438265941138
 40
0.2635058745710382
 40
0.3138170617748667
 40
0.3489617634785238
 40
0.3802500871286287
 40
0.4076859298393258
 40
0.431333484351098
 40
0.4558933027530833
 40
0.4927374529941056
 40
0.5358307385582979
 40
0.5851671878984412
 40
0.6407438443818484
 40
0.7025594417240035
 40
0.7693514239439726
 40
0.8421919611011669
 40
0.9211239123496184
 40
1.0
 40
1.0
 40
1.0
 40
1.0
 10
705.6467493800125
 20
1090.72231168962
 30
0.0
 10
705.6505538493078
 20
1088.047692997516
 30
0.0
 10
705.6578199694919
 20
1083.729172450977
 30
0.0
 10
705.7068743939791
 20
1076.882674388006
 30
0.0
 10
705.770036037621
 20
1070.785240000109
 30
0.0
 10
705.8417548696995
 20
1065.249343634706
 30
0.0
 10
705.9106596502949
 20
1060.61622573267
 30
0.0
 10
705.9722084659046
 20
1056.801976259228
 30
0.0
 10
706.0242919362637
 20
1053.73292257489
 30
0.0
 10
706.0717058570561
 20
1051.037894953889
 30
0.0
 10
706.1163487116306
 20
1048.561812915826
 30
0.0
 10
706.1676293857919
 20
1045.776083519417
 30
0.0
 10
706.2320649546333
 20
1042.350730636108
 30
0.0
 10
706.3132395855743
 20
1038.109358890274
 30
0.0
 10
706.406871791857
 20
1033.248878384679
 30
0.0
 10
706.5116005803847
 20
1027.76764602963
 30
0.0
 10
706.6246729887354
 20
1021.709322569341
 30
0.0
 10
706.7433758546423
 20
1015.066272200753
 30
0.0
 10
706.8618834778719
 20
1007.899377122669
 30
0.0
 10
706.9784998708757
 20
1000.141628803129
 30
0.0
 10
707.030274195991
 20
995.3164472134162
 30
0.0
 10
707.0606725996262
 20
992.4538649126993
 30
0.0
  0
SPLINE
  5
1129
330
A
100
AcDbEntity
  8
MODEL
100
AcDbSpline
210
0.0
220
0.0
230
1.0
 70
     8
 71
     3
 72
    26
 73
    22
 74
     0
 42
0.000000001
 43
0.0000000001
 40
0.0
 40
0.0
 40
0.0
 40
0.0
 40
0.0689813874423537
 40
0.1378556214005792
 40
0.2004471931160861
 40
0.2567857244740107
 40
0.3068902660346525
 40
0.3418899196906663
 40
0.3730462457679912
 40
0.4003583101441741
 40
0.423906496853437
 40
0.448501362436155
 40
0.485385474755855
 40
0.5285309722871566
 40
0.5779512634794431
 40
0.6336607503812764
 40
0.695671138429126
 40
0.7627100860181861
 40
0.8358150038593204
 40
0.9149417385091949
 40
1.0
 40
1.0
 40
1.0
 40
1.0
 10
746.2008736822123
 20
992.455578856824
 30
0.0
 10
746.227043500765
 20
994.9590084418832
 30
0.0
 10
746.2715649417079
 20
999.1738012545121
 30
0.0
 10
746.3694715350674
 20
1005.916259844835
 30
0.0
 10
746.4679461406166
 20
1012.075879040574
 30
0.0
 10
746.56412896634
 20
1017.652040783205
 30
0.0
 10
746.6483091174774
 20
1022.30728671192
 30
0.0
 10
746.7193969197266
 20
1026.132872504825
 30
0.0
 10
746.7773941451375
 20
1029.20651386092
 30
0.0
 10
746.8287403320911
 20
1031.902235611515
 30
0.0
 10
746.8761493946341
 20
1034.380942969385
 30
0.0
 10
746.9297294792694
 20
1037.172918244994
 30
0.0
 10
746.9956334250656
 20
1040.60660009057
 30
0.0
 10
747.0762950249651
 20
1044.851770291785
 30
0.0
 10
747.1663079493402
 20
1049.709463018411
 30
0.0
 10
747.2629683370416
 20
1055.1792219757
 30
0.0
 10
747.3613656266199
 20
1061.214346775893
 30
0.0
 10
747.4558564818898
 20
1067.816847518621
 30
0.0
 10
747.5377102658698
 20
1074.919616398261
 30
0.0
 10
747.6007684246844
 20
1082.774355801611
 30
0.0
 10
747.6100519108314
 20
1087.694556990813
 30
0.0
 10
747.6149148302835
 20
1090.722311664875
 30
0.0
  0
ARC
  5
112A
330
A
100
AcDbEntity
  8
MODEL
100
AcDbCircle
 10
726.6308321073021
 20
1007.92799325714
 30
0.0
 40
30.00000000000003
100
AcDbArc
 50
248.4680988108004
 51
270.0
  0
ARC
  5
112B
330
A
100
AcDbEntity
  8
MODEL
100
AcDbCircle
 10
726.6308321073021
 20
1007.92799325714
 30
0.0
 40
30.00000000000003
100
AcDbArc
 50
270.0
 51
291.5301906343004
  0
ARC
  5
112C
330
A
100
AcDbEntity
  8
MODEL
100
AcDbCircle
 10
720.5074851389023
 20
992.5425473139397
 30
0.0
 40
13.43151747301877
100
AcDbArc
 50
180.3621476900997
 51
248.6800239383987
  0
ARC
  5
112D
330
A
100
AcDbEntity
  8
MODEL
100
AcDbCircle
 10
732.7138430653023
 20
992.5405946747397
 30
0.0
 40
13.44340517259968
100
AcDbArc
 50
291.4834398404993
 51
359.6550911249996
  0
ARC
  5
112E
330
A
100
AcDbEntity
  8
MODEL
100
AcDbCircle
 10
-746.8216779590978
 20
1192.07796954194
 30
0.0
 40
1451.452628411748
100
AcDbArc
 50
0.0231372848000066
 51
1.437029283300009
  0
ARC
  5
112F
330
A
100
AcDbEntity
  8
MODEL
100
AcDbCircle
 10
2230.907398208903
 20
1191.79212641114
 30
0.0
 40
1482.276822576638
100
AcDbArc
 50
178.5857623875
 51
179.9662949059
  0
LINE
  5
1130
330
A
100
AcDbEntity
  8
MODEL
100
AcDbLine
 10
803.5819709641022
 20
1214.92799325714
 30
0.0
 11
750.2740129421023
 21
1214.92799325714
 31
0.0
  0
LINE
  5
1131
330
A
100
AcDbEntity
  8
MODEL
100
AcDbLine
 10
702.9876512721022
 20
1214.92799325714
 30
0.0
 11
649.6796932505023
 21
1214.92799325714
 31
0.0
  0
LINE
  5
1132
330
A
100
AcDbEntity
  8
MODEL
100
AcDbLine
 10
750.2740129421023
 20
1244.92799325714
 30
0.0
 11
803.5819709641022
 21
1244.92799325714
 31
0.0
  0
LINE
  5
1133
330
A
100
AcDbEntity
  8
MODEL
100
AcDbLine
 10
649.6796932505023
 20
1244.92799325714
 30
0.0
 11
702.9876512721022
 21
1244.92799325714
 31
0.0
  0
SPLINE
  5
1134
330
A
100
AcDbEntity
  8
HIDDEN
100
AcDbSpline
210
0.0
220
0.0
230
1.0
 70
     8
 71
     3
 72
    28
 73
    24
 74
     0
 42
0.000000001
 43
0.0000000001
 40
0.0
 40
0.0
 40
0.0
 40
0.0
 40
0.0301760978887443
 40
0.0608954737277774
 40
0.0921449873738459
 40
0.1239098693167733
 40
0.1839693618315945
 40
0.2484166097598056
 40
0.3732472037588537
 40
0.4280099131352948
 40
0.4984278367181024
 40
0.5789350836950704
 40
0.6238621351878536
 40
0.6905854336946488
 40
0.7493529176960542
 40
0.7838344810863555
 40
0.8174191072733159
 40
0.850104260956883
 40
0.8818881697554443
 40
0.9127697786389204
 40
0.942748702198243
 40
0.9718251749505338
 40
1.0
 40
1.0
 40
1.0
 40
1.0
 10
954.5990564166747
 20
1161.687216780078
 30
0.0
 10
953.64178841878
 20
1162.045662181382
 30
0.0
 10
951.7100181670022
 20
1162.769006286321
 30
0.0
 10
948.7833248863695
 20
1163.854014001879
 30
0.0
 10
945.8035410051044
 20
1164.950885583364
 30
0.0
 10
941.887307102898
 20
1166.381411007804
 30
0.0
 10
936.9079861331894
 20
1168.180491166932
 30
0.0
 10
928.9516125939164
 20
1171.019833235367
 30
0.0
 10
921.150865505777
 20
1173.761786897124
 30
0.0
 10
913.1553212231612
 20
1176.550607456105
 30
0.0
 10
906.5774465360358
 20
1178.838064499516
 30
0.0
 10
900.3177487083605
 20
1181.01241570447
 30
0.0
 10
894.1820123906422
 20
1183.143383440297
 30
0.0
 10
888.7480121671884
 20
1185.036284140842
 30
0.0
 10
883.6575323373542
 20
1186.815845466228
 30
0.0
 10
879.6301716047507
 20
1188.230478563602
 30
0.0
 10
876.4366797149574
 20
1189.356580160855
 30
0.0
 10
873.3347330519974
 20
1190.454842052202
 30
0.0
 10
870.3247153794301
 20
1191.525158875875
 30
0.0
 10
867.406826210956
 20
1192.567431675875
 30
0.0
 10
864.581453280579
 20
1193.581710478632
 30
0.0
 10
861.847858260653
 20
1194.56773262694
 30
0.0
 10
860.0604087516778
 20
1195.21715910373
 30
0.0
 10
859.1807592217314
 20
1195.53675845027
 30
0.0
  0
ARC
  5
1135
330
A
100
AcDbEntity
  8
HIDDEN
100
AcDbCircle
 10
952.4272529653023
 20
1154.13934348234
 30
0.0
 40
7.85411494381702
100
AcDbArc
 50
1.233954163699276
 51
73.94750785420221
  0
ARC
  5
1136
330
A
100
AcDbEntity
  8
HIDDEN
100
AcDbCircle
 10
930.3376480881021
 20
1155.78477572274
 30
0.0
 40
29.97827092333941
100
AcDbArc
 50
322.8227004846003
 51
357.1772995154005
  0
ARC
  5
1137
330
A
100
AcDbEntity
  8
HIDDEN
100
AcDbCircle
 10
948.3349111021022
 20
1142.76460870554
 30
0.0
 40
7.786888651829524
100
AcDbArc
 50
245.687522422399
 51
319.1310155597999
  0
SPLINE
  5
1138
330
A
100
AcDbEntity
  8
HIDDEN
100
AcDbSpline
210
0.0
220
0.0
230
1.0
 70
     8
 71
     3
 72
    33
 73
    29
 74
     0
 42
0.000000001
 43
0.0000000001
 40
0.0
 40
0.0
 40
0.0
 40
0.0
 40
0.0149143980392669
 40
0.0300851285807164
 40
0.0455123697765431
 40
0.0611962577299845
 40
0.0771368842168045
 40
0.0933342944310691
 40
0.1097884847609239
 40
0.1264994005996151
 40
0.1434669341964064
 40
0.1606909225514776
 40
0.1781711453580715
 40
0.1959073229943789
 40
0.213899114566679
 40
0.2321461160042238
 40
0.2506478582051589
 40
0.3094143540079502
 40
0.3761385351177437
 40
0.4210654969599704
 40
0.5015727280433062
 40
0.5719897679519003
 40
0.6267532556815321
 40
0.7515837446443057
 40
0.8160299855865569
 40
0.8760903803250082
 40
0.9391041769032197
 40
1.0
 40
1.0
 40
1.0
 40
1.0
 10
850.2762268247358
 20
1171.071756758723
 30
0.0
 10
850.7415684023391
 20
1170.902227410529
 30
0.0
 10
851.6802493440229
 20
1170.560255027522
 30
0.0
 10
853.1018511964563
 20
1170.040302261911
 30
0.0
 10
854.5486112624845
 20
1169.509710103425
 30
0.0
 10
856.0206603029325
 20
1168.96828283895
 30
0.0
 10
857.5179697479431
 20
1168.416080184827
 30
0.0
 10
859.0405444385229
 20
1167.853094711746
 30
0.0
 10
860.5883694895145
 20
1167.279340464504
 30
0.0
 10
862.1614247064391
 20
1166.694828636778
 30
0.0
 10
863.7596804709807
 20
1166.09957423722
 30
0.0
 10
865.3830987536427
 20
1165.493594267702
 30
0.0
 10
867.0316326619001
 20
1164.876908114025
 30
0.0
 10
868.7052267102334
 20
1164.249537723467
 30
0.0
 10
870.4038157683191
 20
1163.611506290478
 30
0.0
 10
872.1273287523446
 20
1162.96284321422
 30
0.0
 10
875.1359691411259
 20
1161.828324288738
 30
0.0
 10
879.6756065657993
 20
1160.110136220434
 30
0.0
 10
885.055018060781
 20
1158.067272448599
 30
0.0
 10
891.1250553691335
 20
1155.755702624002
 30
0.0
 10
897.3178812769185
 20
1153.397704917711
 30
0.0
 10
903.8271773294779
 20
1150.921824436713
 30
0.0
 10
911.7447352767027
 20
1147.918737711223
 30
0.0
 10
919.4829679653941
 20
1145.005043750986
 30
0.0
 10
927.4029402207681
 20
1142.065680600227
 30
0.0
 10
933.3679051699097
 20
1139.879262445855
 30
0.0
 10
939.2285582482115
 20
1137.759663222626
 30
0.0
 10
943.1846927679163
 20
1136.357438974666
 30
0.0
 10
945.1289491419658
 20
1135.668310882999
 30
0.0
  0
SPLINE
  5
1139
330
A
100
AcDbEntity
  8
HIDDEN
100
AcDbSpline
210
0.0
220
0.0
230
1.0
 70
     8
 71
     3
 72
    26
 73
    22
 74
     0
 42
0.000000001
 43
0.0000000001
 40
0.0
 40
0.0
 40
0.0
 40
0.0
 40
0.0751395172144193
 40
0.1441436111606031
 40
0.2069438265941138
 40
0.2635058745710382
 40
0.3138170617748667
 40
0.3489617634785238
 40
0.3802500871286287
 40
0.4076859298393258
 40
0.431333484351098
 40
0.4558933027530833
 40
0.4927374529941056
 40
0.5358307385582979
 40
0.5851671878984412
 40
0.6407438443818484
 40
0.7025594417240035
 40
0.7693514239439726
 40
0.8421919611011669
 40
0.9211239123496184
 40
1.0
 40
1.0
 40
1.0
 40
1.0
 10
850.2644048656717
 20
1162.598258402962
 30
0.0
 10
852.7790255191914
 20
1161.68705996627
 30
0.0
 10
856.839592568953
 20
1160.216866869507
 30
0.0
 10
863.2899738782459
 20
1157.921322701438
 30
0.0
 10
869.0412905326904
 20
1155.895229848617
 30
0.0
 10
874.2678607819213
 20
1154.069235437561
 30
0.0
 10
878.6451343086318
 20
1152.549365102525
 30
0.0
 10
882.2504073273977
 20
1151.302651918785
 30
0.0
 10
885.1521880233626
 20
1150.301916190555
 30
0.0
 10
887.7009021076161
 20
1149.424716968845
 30
0.0
 10
890.0429268827646
 20
1148.619797596315
 30
0.0
 10
892.6781952636035
 20
1147.715210099987
 30
0.0
 10
895.9190123541274
 20
1146.604220044453
 30
0.0
 10
899.9323614446067
 20
1145.229864673735
 30
0.0
 10
904.5317432097994
 20
1143.655467927892
 30
0.0
 10
909.7182361619149
 20
1141.87918892198
 30
0.0
 10
915.4498710531926
 20
1139.91337357152
 30
0.0
 10
921.7328952352747
 20
1137.752860739495
 30
0.0
 10
928.5081056483788
 20
1135.412998996745
 30
0.0
 10
935.8378896536152
 20
1132.869276368579
 30
0.0
 10
940.3897850495165
 20
1131.26761902095
 30
0.0
 10
943.09012938026
 20
1130.317123367758
 30
0.0
  0
SPLINE
  5
113A
330
A
100
AcDbEntity
  8
HIDDEN
100
AcDbSpline
210
0.0
220
0.0
230
1.0
 70
     8
 71
     3
 72
    26
 73
    22
 74
     0
 42
0.000000001
 43
0.0000000001
 40
0.0
 40
0.0
 40
0.0
 40
0.0
 40
0.0689813874423537
 40
0.1378556214005792
 40
0.2004471931160861
 40
0.2567857244740107
 40
0.3068902660346525
 40
0.3418899196906663
 40
0.3730462457679912
 40
0.4003583101441741
 40
0.423906496853437
 40
0.448501362436155
 40
0.485385474755855
 40
0.5285309722871566
 40
0.5779512634794431
 40
0.6336607503812764
 40
0.695671138429126
 40
0.7627100860181861
 40
0.8358150038593204
 40
0.9149417385091949
 40
1.0
 40
1.0
 40
1.0
 40
1.0
 10
956.4752559836753
 20
1167.097467704556
 30
0.0
 10
954.1317522810306
 20
1167.978282635424
 30
0.0
 10
950.1863698064741
 20
1169.461663146808
 30
0.0
 10
943.8840172502865
 20
1171.859721903544
 30
0.0
 10
938.1295488439033
 20
1174.058971603872
 30
0.0
 10
932.9225672658837
 20
1176.056513533872
 30
0.0
 10
928.5768583260839
 20
1177.727804880468
 30
0.0
 10
925.0062970466216
 20
1179.103032964863
 30
0.0
 10
922.1378551647036
 20
1180.208779786751
 30
0.0
 10
919.6222667581993
 20
1181.179020559242
 30
0.0
 10
917.3092585992864
 20
1182.071338351273
 30
0.0
 10
914.7039855036065
 20
1183.076598945351
 30
0.0
 10
911.4999204881793
 20
1184.312916753856
 30
0.0
 10
907.5383532680754
 20
1185.840647584724
 30
0.0
 10
903.0044014921158
 20
1187.586660828127
 30
0.0
 10
897.8975691621298
 20
1189.548259623701
 30
0.0
 10
892.2600607769497
 20
1191.704857079773
 30
0.0
 10
886.0880573261383
 20
1194.051837689537
 30
0.0
 10
879.4416334657202
 20
1196.558045116551
 30
0.0
 10
872.082159970712
 20
1199.303779499588
 30
0.0
 10
867.4618583596999
 20
1200.995311038938
 30
0.0
 10
864.6183628513419
 20
1202.03543377604
 30
0.0
  0
ARC
  5
113B
330
A
100
AcDbEntity
  8
HIDDEN
100
AcDbCircle
 10
935.242593921702
 20
1153.99952143874
 30
0.0
 40
30.00000000000003
100
AcDbArc
 50
318.4680988107996
 51
339.9999999999994
  0
ARC
  5
113C
330
A
100
AcDbEntity
  8
HIDDEN
100
AcDbCircle
 10
935.242593921702
 20
1153.99952143874
 30
0.0
 40
30.00000000000003
100
AcDbArc
 50
339.9999999999994
 51
1.530190634299728
  0
ARC
  5
113D
330
A
100
AcDbEntity
  8
HIDDEN
100
AcDbCircle
 10
947.6058759341023
 20
1142.98332505194
 30
0.0
 40
13.43151747301877
100
AcDbArc
 50
250.3621476900987
 51
318.6800239384007
  0
ARC
  5
113E
330
A
100
AcDbEntity
  8
HIDDEN
100
AcDbCircle
 10
951.7825311025023
 20
1154.45288167954
 30
0.0
 40
13.44340517259968
100
AcDbArc
 50
1.483439840500636
 51
69.65509112500091
  0
LINE
  5
113F
330
A
100
AcDbEntity
  8
MODEL
100
AcDbLine
 10
986.0273317181023
 20
1135.51538852594
 30
0.0
 11
940.8394133725025
 21
1151.96244575234
 31
0.0
  0
SPLINE
  5
1140
330
A
100
AcDbEntity
  8
HIDDEN
100
AcDbSpline
210
0.0
220
0.0
230
1.0
 70
     8
 71
     3
 72
    28
 73
    24
 74
     0
 42
0.000000001
 43
0.0000000001
 40
0.0
 40
0.0
 40
0.0
 40
0.0
 40
0.0301760978887443
 40
0.0608954737277774
 40
0.0921449873738459
 40
0.1239098693167733
 40
0.1839693618315945
 40
0.2484166097598056
 40
0.3732472037588537
 40
0.4280099131352948
 40
0.4984278367181024
 40
0.5789350836950704
 40
0.6238621351878536
 40
0.6905854336946488
 40
0.7493529176960542
 40
0.7838344810863555
 40
0.8174191072733159
 40
0.850104260956883
 40
0.8818881697554443
 40
0.9127697786389204
 40
0.942748702198243
 40
0.9718251749505338
 40
1.0
 40
1.0
 40
1.0
 40
1.0
 10
508.1327150723577
 20
1135.668310882999
 30
0.0
 10
509.0964291654274
 20
1136.009045783366
 30
0.0
 10
511.0412076603797
 20
1136.696650033918
 30
0.0
 10
513.9806143006964
 20
1137.746728080817
 30
0.0
 10
516.9683166466306
 20
1138.821843859427
 30
0.0
 10
520.8878498835417
 20
1140.243304436266
 30
0.0
 10
525.8586574780135
 20
1142.065774901621
 30
0.0
 10
533.7786871164038
 20
1145.004971017066
 30
0.0
 10
541.5168999155618
 20
1147.918736225742
 30
0.0
 10
549.4344614839239
 20
1150.921812531243
 30
0.0
 10
555.9437548807242
 20
1153.39769512122
 30
0.0
 10
562.1366076308699
 20
1155.755701667287
 30
0.0
 10
568.2066139987322
 20
1158.067260956125
 30
0.0
 10
573.586032790494
 20
1160.110122907766
 30
0.0
 10
578.6294465475831
 20
1162.018997205241
 30
0.0
 10
582.6238924844735
 20
1163.524062960602
 30
0.0
 10
585.7940933547583
 20
1164.714156108032
 30
0.0
 10
588.8762714947198
 20
1165.866731569934
 30
0.0
 10
591.870065199175
 20
1166.981623379648
 30
0.0
 10
594.7752580240755
 20
1168.058779096927
 30
0.0
 10
597.5915851043086
 20
1169.097911168692
 30
0.0
 10
600.3194431988694
 20
1170.099695389898
 30
0.0
 10
602.106152255259
 20
1170.751156243448
 30
0.0
 10
602.9854373895865
 20
1171.071756758723
 30
0.0
  0
ARC
  5
1141
330
A
100
AcDbEntity
  8
HIDDEN
100
AcDbCircle
 10
504.9447336025022
 20
1142.84632562914
 30
0.0
 40
7.85411494381702
100
AcDbArc
 50
221.233954163698
 51
293.9475078541999
  0
ARC
  5
1142
330
A
100
AcDbEntity
  8
HIDDEN
100
AcDbCircle
 10
522.9240161265021
 20
1155.78477572274
 30
0.0
 40
29.97827092333941
100
AcDbArc
 50
182.8227004845996
 51
217.1772995153997
  0
ARC
  5
1143
330
A
100
AcDbEntity
  8
HIDDEN
100
AcDbCircle
 10
500.7681107685022
 20
1154.19038464114
 30
0.0
 40
7.786888651829524
100
AcDbArc
 50
105.6875224223995
 51
179.1310155597993
  0
SPLINE
  5
1144
330
A
100
AcDbEntity
  8
HIDDEN
100
AcDbSpline
210
0.0
220
0.0
230
1.0
 70
     8
 71
     3
 72
    33
 73
    29
 74
     0
 42
0.000000001
 43
0.0000000001
 40
0.0
 40
0.0
 40
0.0
 40
0.0
 40
0.0149143980392669
 40
0.0300851285807164
 40
0.0455123697765431
 40
0.0611962577299845
 40
0.0771368842168045
 40
0.0933342944310691
 40
0.1097884847609239
 40
0.1264994005996151
 40
0.1434669341964064
 40
0.1606909225514776
 40
0.1781711453580715
 40
0.1959073229943789
 40
0.213899114566679
 40
0.2321461160042238
 40
0.2506478582051589
 40
0.3094143540079502
 40
0.3761385351177437
 40
0.4210654969599704
 40
0.5015727280433062
 40
0.5719897679519003
 40
0.6267532556815321
 40
0.7515837446443057
 40
0.8160299855865569
 40
0.8760903803250082
 40
0.9391041769032197
 40
1.0
 40
1.0
 40
1.0
 40
1.0
 10
594.0809049925914
 20
1195.53675845027
 30
0.0
 10
593.6154612984191
 20
1195.367509665044
 30
0.0
 10
592.6765743685281
 20
1195.026103229984
 30
0.0
 10
591.253344973787
 20
1194.510622100112
 30
0.0
 10
589.8040043994082
 20
1193.987119830051
 30
0.0
 10
588.3283266748234
 20
1193.455662293304
 30
0.0
 10
586.8263720707374
 20
1192.916222108851
 30
0.0
 10
585.2981321032549
 20
1192.368801856135
 30
0.0
 10
583.7436272028905
 20
1191.81340034421
 30
0.0
 10
582.1628800346681
 20
1191.250021978985
 30
0.0
 10
580.5559229349107
 20
1190.678674301452
 30
0.0
 10
578.9227959644955
 20
1190.099368732308
 30
0.0
 10
577.2635475061332
 20
1189.512120563105
 30
0.0
 10
575.5782341716348
 20
1188.916948646656
 30
0.0
 10
573.8669207628303
 20
1188.313877079946
 30
0.0
 10
572.1296806304939
 20
1187.702929033704
 30
0.0
 10
569.0956736710706
 20
1186.638104188272
 30
0.0
 10
564.5136796467078
 20
1185.036289921179
 30
0.0
 10
559.0796838429131
 20
1183.143395305264
 30
0.0
 10
552.9439170511488
 20
1181.012415752133
 30
0.0
 10
546.6842454680133
 20
1178.838075029455
 30
0.0
 10
540.106370102084
 20
1176.550614663384
 30
0.0
 10
532.1108218955807
 20
1173.761804414199
 30
0.0
 10
524.3101053687882
 20
1171.019783388225
 30
0.0
 10
516.3536684192255
 20
1168.180606161357
 30
0.0
 10
510.3788376673116
 20
1166.021294077326
 30
0.0
 10
504.5268648254379
 20
1163.877846100515
 30
0.0
 10
500.5949575877963
 20
1162.409057942152
 30
0.0
 10
498.6626077976467
 20
1161.687216780078
 30
0.0
  0
SPLINE
  5
1145
330
A
100
AcDbEntity
  8
HIDDEN
100
AcDbSpline
210
0.0
220
0.0
230
1.0
 70
     8
 71
     3
 72
    26
 73
    22
 74
     0
 42
0.000000001
 43
0.0000000001
 40
0.0
 40
0.0
 40
0.0
 40
0.0
 40
0.0751395172144193
 40
0.1441436111606031
 40
0.2069438265941138
 40
0.2635058745710382
 40
0.3138170617748667
 40
0.3489617634785238
 40
0.3802500871286287
 40
0.4076859298393258
 40
0.431333484351098
 40
0.4558933027530833
 40
0.4927374529941056
 40
0.5358307385582979
 40
0.5851671878984412
 40
0.6407438443818484
 40
0.7025594417240035
 40
0.7693514239439726
 40
0.8421919611011669
 40
0.9211239123496184
 40
1.0
 40
1.0
 40
1.0
 40
1.0
 10
588.6433013848565
 20
1202.035433788287
 30
0.0
 10
586.1312831416043
 20
1201.117085288149
 30
0.0
 10
582.0756864107763
 20
1199.633236352348
 30
0.0
 10
575.658860304071
 20
1197.245500022865
 30
0.0
 10
569.9507487584491
 20
1195.10070210915
 30
0.0
 10
564.7732370796708
 20
1193.139920383544
 30
0.0
 10
560.443097198831
 20
1191.490551420782
 30
0.0
 10
556.8799260495376
 20
1190.128164301349
 30
0.0
 10
554.0137725455669
 20
1189.029543667596
 30
0.0
 10
551.4974914932833
 20
1188.063235422904
 30
0.0
 10
549.186004229175
 20
1187.174414928345
 30
0.0
 10
546.5858138953894
 20
1186.17345128982
 30
0.0
 10
543.3890733298462
 20
1184.941361977174
 30
0.0
 10
539.4312509571847
 20
1183.414448203075
 30
0.0
 10
534.8959173932172
 20
1181.664080470608
 30
0.0
 10
529.7810631516267
 20
1179.69097572517
 30
0.0
 10
524.1267743429695
 20
1177.512653759227
 30
0.0
 10
517.9249477033087
 20
1175.129052512884
 30
0.0
 10
511.2308012787686
 20
1172.566469292023
 30
0.0
 10
503.9807875844314
 20
1169.80357953592
 30
0.0
 10
499.4643079127228
 20
1168.104618285777
 30
0.0
 10
496.7847573147156
 20
1167.096992321425
 30
0.0
  0
SPLINE
  5
1146
330
A
100
AcDbEntity
  8
HIDDEN
100
AcDbSpline
210
0.0
220
0.0
230
1.0
 70
     8
 71
     3
 72
    26
 73
    22
 74
     0
 42
0.000000001
 43
0.0000000001
 40
0.0
 40
0.0
 40
0.0
 40
0.0
 40
0.0689813874423537
 40
0.1378556214005792
 40
0.2004471931160861
 40
0.2567857244740107
 40
0.3068902660346525
 40
0.3418899196906663
 40
0.3730462457679912
 40
0.4003583101441741
 40
0.423906496853437
 40
0.448501362436155
 40
0.485385474755855
 40
0.5285309722871566
 40
0.5779512634794431
 40
0.6336607503812764
 40
0.695671138429126
 40
0.7627100860181861
 40
0.8358150038593204
 40
0.9149417385091949
 40
1.0
 40
1.0
 40
1.0
 40
1.0
 10
510.1731050794234
 20
1130.317820391457
 30
0.0
 10
512.534509992253
 20
1131.149452151564
 30
0.0
 10
516.510346926034
 20
1132.549159723907
 30
0.0
 10
522.879671536408
 20
1134.76321427403
 30
0.0
 10
528.7015005401994
 20
1136.777392254018
 30
0.0
 10
533.974275045898
 20
1138.594169600861
 30
0.0
 10
538.3775666004123
 20
1140.107254013777
 30
0.0
 10
541.9967548005026
 20
1141.348880731769
 30
0.0
 10
544.9048691211148
 20
1142.345628424168
 30
0.0
 10
547.4555803880613
 20
1143.219369930687
 30
0.0
 10
549.8010182557063
 20
1144.022587830257
 30
0.0
 10
552.4429422878385
 20
1144.92715080403
 30
0.0
 10
555.6920882572398
 20
1146.039609709444
 30
0.0
 10
559.708831261261
 20
1147.415746319899
 30
0.0
 10
564.3043555038124
 20
1148.992590601681
 30
0.0
 10
569.4773074331096
 20
1150.772527291164
 30
0.0
 10
575.1821235284582
 20
1152.744198333392
 30
0.0
 10
581.4187625309947
 20
1154.913594224299
 30
0.0
 10
588.1211776772699
 20
1157.265966857733
 30
0.0
 10
595.523785493309
 20
1159.893190667734
 30
0.0
 10
600.1504373828467
 20
1161.567274960229
 30
0.0
 10
602.9972593240205
 20
1162.598258398282
 30
0.0
  0
ARC
  5
1147
330
A
100
AcDbEntity
  8
HIDDEN
100
AcDbCircle
 10
518.0190702925021
 20
1153.99952143874
 30
0.0
 40
30.00000000000003
100
AcDbArc
 50
178.4680988108007
 51
200.0000000000007
  0
ARC
  5
1148
330
A
100
AcDbEntity
  8
HIDDEN
100
AcDbCircle
 10
518.0190702925021
 20
1153.99952143874
 30
0.0
 40
30.00000000000003
100
AcDbArc
 50
200.0000000000007
 51
221.5301906343006
  0
ARC
  5
1149
330
A
100
AcDbEntity
  8
HIDDEN
100
AcDbCircle
 10
501.4671722649022
 20
1154.49145297274
 30
0.0
 40
13.43151747301877
100
AcDbArc
 50
110.362147690101
 51
178.6800239384
  0
ARC
  5
114A
330
A
100
AcDbEntity
  8
HIDDEN
100
AcDbCircle
 10
505.6401576713021
 20
1143.02056066074
 30
0.0
 40
13.44340517259968
100
AcDbArc
 50
221.4834398404985
 51
289.655091125001
  0
LINE
  5
114B
330
A
100
AcDbEntity
  8
MODEL
100
AcDbLine
 10
467.2343324961022
 20
1135.51538852594
 30
0.0
 11
512.4222508421022
 21
1151.96244575234
 31
0.0
  0
LINE
  5
114C
330
A
100
AcDbEntity
  8
MODEL
100
AcDbLine
 10
825.7656238359216
 20
731.1806482330434
 30
0.0
 11
873.8536021239215
 21
731.1806482330434
 31
0.0
  0
CIRCLE
  5
114D
330
A
100
AcDbEntity
  8
MODEL
100
AcDbCircle
 10
626.6308321073021
 20
1229.92799325714
 30
0.0
 40
27.5
  0
ARC
  5
114E
330
A
100
AcDbEntity
  8
MODEL
100
AcDbCircle
 10
618.1919187577022
 20
1217.12506553154
 30
0.0
 40
1.899999999999975
100
AcDbArc
 50
249.0665616665051
 51
301.2150290138001
  0
ARC
  5
114F
330
A
100
AcDbEntity
  8
MODEL
100
AcDbCircle
 10
626.6344745485022
 20
1203.91120874274
 30
0.0
 40
13.78125835880567
100
AcDbArc
 50
57.06033709449937
 51
122.7627015176
  0
ARC
  5
1150
330
A
100
AcDbEntity
  8
MODEL
100
AcDbCircle
 10
630.0840164085022
 20
1231.19664255914
 30
0.0
 40
16.8684469774706
100
AcDbArc
 50
289.8286813870999
 51
355.6667615447991
  0
SPLINE
  5
1151
330
A
100
AcDbEntity
  8
MODEL
100
AcDbSpline
210
0.0
220
0.0
230
1.0
 70
     8
 71
     3
 72
    34
 73
    30
 74
     0
 42
0.000000001
 43
0.0000000001
 40
0.0
 40
0.0
 40
0.0
 40
0.0
 40
0.0624999999999999
 40
0.0624999999999999
 40
0.1249999999999998
 40
0.1249999999999998
 40
0.1874999999999997
 40
0.1874999999999997
 40
0.2499999999999996
 40
0.2499999999999996
 40
0.3124999999999996
 40
0.3124999999999996
 40
0.3749999999999995
 40
0.3749999999999995
 40
0.4999999999999996
 40
0.4999999999999996
 40
0.6249999999999996
 40
0.6249999999999996
 40
0.6874999999999996
 40
0.6874999999999996
 40
0.7499999999999996
 40
0.7499999999999996
 40
0.8124999999999997
 40
0.8124999999999997
 40
0.8749999999999998
 40
0.8749999999999998
 40
0.9374999999999999
 40
0.9374999999999999
 40
1.0
 40
1.0
 40
1.0
 40
1.0
 10
606.3915992962781
 20
1229.921933163078
 30
0.0
 10
606.3904645966733
 20
1231.135951136403
 30
0.0
 10
606.5811090745614
 20
1232.314580089861
 30
0.0
 10
607.2705525860607
 20
1234.614923922301
 30
0.0
 10
607.7685137925317
 20
1235.723173261821
 30
0.0
 10
608.9684666222453
 20
1237.784822956844
 30
0.0
 10
609.682910810615
 20
1238.762347252062
 30
0.0
 10
611.2807928274418
 20
1240.553647722434
 30
0.0
 10
612.1571040711045
 20
1241.363641509523
 30
0.0
 10
614.0771040599838
 20
1242.799126762427
 30
0.0
 10
615.1217185096806
 20
1243.419568034551
 30
0.0
 10
617.2809202307661
 20
1244.437426565412
 30
0.0
 10
618.4068766692077
 20
1244.843633469714
 30
0.0
 10
621.8980649203778
 20
1245.794545437331
 30
0.0
 10
624.2614315166817
 20
1246.057900247193
 30
0.0
 10
629.0368743407267
 20
1246.081062788281
 30
0.0
 10
631.4410715659925
 20
1245.823641829093
 30
0.0
 10
634.8891950930246
 20
1244.881689171705
 30
0.0
 10
636.030302518979
 20
1244.467683219413
 30
0.0
 10
638.1902924685829
 20
1243.439087620635
 30
0.0
 10
639.2108404435165
 20
1242.826782392675
 30
0.0
 10
641.1217464561447
 20
1241.387316057495
 30
0.0
 10
642.0106901020378
 20
1240.558465448418
 30
0.0
 10
643.5914976222749
 20
1238.774127529995
 30
0.0
 10
644.2954259100494
 20
1237.810581781282
 30
0.0
 10
645.5118429976054
 20
1235.725137968773
 30
0.0
 10
646.0046440025618
 20
1234.632523361984
 30
0.0
 10
646.7026347767998
 20
1232.340472283796
 30
0.0
 10
646.9042525613223
 20
1231.134552056189
 30
0.0
 10
646.9042444078606
 20
1229.922109908454
 30
0.0
  0
ARC
  5
1152
330
A
100
AcDbEntity
  8
MODEL
100
AcDbCircle
 10
623.0154522433023
 20
1231.07998254034
 30
0.0
 40
16.66414009671809
100
AcDbArc
 50
183.984895913599
 51
250.7195496402997
  0
ARC
  5
1153
330
A
100
AcDbEntity
  8
MODEL
100
AcDbCircle
 10
635.1174152433022
 20
1217.09916302394
 30
0.0
 40
1.900000000000004
100
AcDbArc
 50
238.6216636966006
 51
291.2466253681011
  0
SPLINE
  5
1154
330
A
100
AcDbEntity
  8
MODEL
100
AcDbSpline
210
0.0
220
0.0
230
1.0
 70
     8
 71
     3
 72
    40
 73
    36
 74
     0
 42
0.000000001
 43
0.0000000001
 40
0.0
 40
0.0
 40
0.0
 40
0.0
 40
0.0625
 40
0.0625
 40
0.1250000000000001
 40
0.1250000000000001
 40
0.2500000000000002
 40
0.2500000000000002
 40
0.3750000000000004
 40
0.3750000000000004
 40
0.4375000000000005
 40
0.4375000000000005
 40
0.4687500000000005
 40
0.4687500000000005
 40
0.4843750000000005
 40
0.4843750000000005
 40
0.4921875000000005
 40
0.4921875000000005
 40
0.5000000000000004
 40
0.5000000000000004
 40
0.5156250000000004
 40
0.5156250000000004
 40
0.5312500000000004
 40
0.5312500000000004
 40
0.5625000000000004
 40
0.5625000000000004
 40
0.6250000000000006
 40
0.6250000000000006
 40
0.7500000000000004
 40
0.7500000000000004
 40
0.8750000000000004
 40
0.8750000000000004
 40
0.9375000000000002
 40
0.9375000000000002
 40
1.0
 40
1.0
 40
1.0
 40
1.0
 10
635.0972802427331
 20
1213.40404430651
 30
0.0
 10
635.2950328597691
 20
1212.917947179504
 30
0.0
 10
635.3265983079194
 20
1212.442879454334
 30
0.0
 10
635.2458787480415
 20
1211.514987651457
 30
0.0
 10
635.1288319050642
 20
1211.062786338622
 30
0.0
 10
634.6499447553275
 20
1209.748486082343
 30
0.0
 10
634.1666085725575
 20
1208.929623022744
 30
0.0
 10
632.9920410094215
 20
1207.413508918716
 30
0.0
 10
632.3110559330918
 20
1206.716500167575
 30
0.0
 10
630.9518922936094
 20
1205.754935439877
 30
0.0
 10
630.4488473874941
 20
1205.447767178855
 30
0.0
 10
629.4387985337345
 20
1205.015732167041
 30
0.0
 10
629.0623293652599
 20
1204.875352401621
 30
0.0
 10
628.3121991445893
 20
1204.685853807151
 30
0.0
 10
628.0290034511282
 20
1204.625056459558
 30
0.0
 10
627.4888570521015
 20
1204.552967776441
 30
0.0
 10
627.2896947171565
 20
1204.53256454344
 30
0.0
 10
626.8459476504398
 20
1204.507860281017
 30
0.0
 10
626.5968946205331
 20
1204.504831922081
 30
0.0
 10
625.9056919717694
 20
1204.52860127854
 30
0.0
 10
625.5264485898978
 20
1204.580933441841
 30
0.0
 10
624.9135406996289
 20
1204.693354836563
 30
0.0
 10
624.6606606493777
 20
1204.757202489829
 30
0.0
 10
623.9854737195639
 20
1204.953060336143
 30
0.0
 10
623.6342705687631
 20
1205.09305763621
 30
0.0
 10
622.6788790519698
 20
1205.527929986756
 30
0.0
 10
622.1954090562234
 20
1205.83275266292
 30
0.0
 10
620.8849878728762
 20
1206.786910750185
 30
0.0
 10
620.2193831989042
 20
1207.477076579131
 30
0.0
 10
619.0711728743005
 20
1208.979785975043
 30
0.0
 10
618.5975392888209
 20
1209.791598680991
 30
0.0
 10
618.1312073500845
 20
1211.091980362224
 30
0.0
 10
618.0178681697047
 20
1211.539105034203
 30
0.0
 10
617.9421802149415
 20
1212.456020608839
 30
0.0
 10
617.975312722985
 20
1212.925218216186
 30
0.0
 10
618.1705473350445
 20
1213.405003176489
 30
0.0
  0
SPLINE
  5
1155
330
A
100
AcDbEntity
  8
MODEL
100
AcDbSpline
210
0.0
220
0.0
230
1.0
 70
     8
 71
     3
 72
    40
 73
    36
 74
     0
 42
0.000000001
 43
0.0000000001
 40
0.0
 40
0.0
 40
0.0
 40
0.0
 40
0.0625
 40
0.0625
 40
0.1250000000000001
 40
0.1250000000000001
 40
0.2500000000000001
 40
0.2500000000000001
 40
0.3750000000000002
 40
0.3750000000000002
 40
0.4375000000000001
 40
0.4375000000000001
 40
0.4687500000000002
 40
0.4687500000000002
 40
0.4843750000000002
 40
0.4843750000000002
 40
0.4921875000000002
 40
0.4921875000000002
 40
0.5000000000000001
 40
0.5000000000000001
 40
0.5156250000000001
 40
0.5156250000000001
 40
0.5312500000000001
 40
0.5312500000000001
 40
0.5625000000000001
 40
0.5625000000000001
 40
0.6250000000000001
 40
0.6250000000000001
 40
0.7500000000000002
 40
0.7500000000000002
 40
0.8750000000000002
 40
0.8750000000000002
 40
0.9375000000000002
 40
0.9375000000000002
 40
1.0
 40
1.0
 40
1.0
 40
1.0
 10
618.6139029758634
 20
1213.46937618102
 30
0.0
 10
618.436224635857
 20
1212.99548469448
 30
0.0
 10
618.4170026285902
 20
1212.530437218107
 30
0.0
 10
618.5147220227378
 20
1211.619127340462
 30
0.0
 10
618.6362728574719
 20
1211.173371992526
 30
0.0
 10
619.1210567501759
 20
1209.874057672093
 30
0.0
 10
619.5966712850274
 20
1209.063468976718
 30
0.0
 10
620.7351070715382
 20
1207.55244580915
 30
0.0
 10
621.3904055360537
 20
1206.851841155973
 30
0.0
 10
622.6751271169011
 20
1205.866075478768
 30
0.0
 10
623.1476541356182
 20
1205.547648340956
 30
0.0
 10
624.0853130000979
 20
1205.089235565063
 30
0.0
 10
624.4314558053271
 20
1204.938524794092
 30
0.0
 10
625.129636348921
 20
1204.729467434466
 30
0.0
 10
625.3903200490998
 20
1204.661529275058
 30
0.0
 10
625.9139660140326
 20
1204.57988132754
 30
0.0
 10
626.1128599617033
 20
1204.556565305117
 30
0.0
 10
626.5602283449558
 20
1204.533233760194
 30
0.0
 10
626.8083192805974
 20
1204.535615741936
 30
0.0
 10
627.4642287675798
 20
1204.580732414269
 30
0.0
 10
627.7785799937261
 20
1204.645245341704
 30
0.0
 10
628.315756900795
 20
1204.776631368731
 30
0.0
 10
628.5327173066895
 20
1204.846339165458
 30
0.0
 10
629.1269213952522
 20
1205.060154747949
 30
0.0
 10
629.4431904624402
 20
1205.209523792353
 30
0.0
 10
630.3065752945319
 20
1205.666513083382
 30
0.0
 10
630.7553536897129
 20
1205.980740998131
 30
0.0
 10
631.9785073872937
 20
1206.954484127475
 30
0.0
 10
632.6145049428591
 20
1207.646855655643
 30
0.0
 10
633.7167702431585
 20
1209.138521401809
 30
0.0
 10
634.1766527039227
 20
1209.936381235955
 30
0.0
 10
634.6420210108398
 20
1211.20997512759
 30
0.0
 10
634.7583595411014
 20
1211.646967917899
 30
0.0
 10
634.8497958553834
 20
1212.542208951054
 30
0.0
 10
634.8295945589679
 20
1212.999823161625
 30
0.0
 10
634.6539288967034
 20
1213.468465941462
 30
0.0
  0
ARC
  5
1156
330
A
100
AcDbEntity
  8
MODEL
100
AcDbCircle
 10
626.6334042765021
 20
1204.45257298794
 30
0.0
 40
12.06710988321722
100
AcDbArc
 50
48.34375722679973
 51
131.6497399301994
  0
ARC
  5
1157
330
A
100
AcDbEntity
  8
MODEL
100
AcDbCircle
 10
626.6333654821022
 20
1204.24466683834
 30
0.0
 40
13.03959464284449
100
AcDbArc
 50
49.42558015870128
 51
130.5678732101004
  0
ARC
  5
1158
330
A
100
AcDbEntity
  8
MODEL
100
AcDbCircle
 10
623.1833124285023
 20
1231.19268990274
 30
0.0
 40
16.96349859451502
100
AcDbArc
 50
184.2954893013006
 51
250.1721349572003
  0
SPLINE
  5
1159
330
A
100
AcDbEntity
  8
MODEL
100
AcDbSpline
210
0.0
220
0.0
230
1.0
 70
     8
 71
     3
 72
    28
 73
    24
 74
     0
 42
0.000000001
 43
0.0000000001
 40
0.0
 40
0.0
 40
0.0
 40
0.0
 40
0.1249999999999999
 40
0.1249999999999999
 40
0.1874999999999998
 40
0.1874999999999998
 40
0.2499999999999998
 40
0.2499999999999998
 40
0.3124999999999998
 40
0.3124999999999998
 40
0.3749999999999998
 40
0.3749999999999998
 40
0.4999999999999998
 40
0.4999999999999998
 40
0.6249999999999998
 40
0.6249999999999998
 40
0.7499999999999998
 40
0.7499999999999998
 40
0.8124999999999999
 40
0.8124999999999999
 40
0.8749999999999999
 40
0.8749999999999999
 40
1.0
 40
1.0
 40
1.0
 40
1.0
 10
606.2674637374431
 20
1229.922120098052
 30
0.0
 10
606.2675315454006
 20
1232.359678642902
 30
0.0
 10
607.0595807898682
 20
1234.713000313705
 30
0.0
 10
608.864520529935
 20
1237.824682618644
 30
0.0
 10
609.5796386731794
 20
1238.810268361807
 30
0.0
 10
611.1769218351925
 20
1240.617832394777
 30
0.0
 10
612.0529697619094
 20
1241.436950506583
 30
0.0
 10
613.9744881360238
 20
1242.890792794047
 30
0.0
 10
615.0213281365885
 20
1243.520677726991
 30
0.0
 10
617.186670025783
 20
1244.55381540636
 30
0.0
 10
618.3157313135181
 20
1244.966380089723
 30
0.0
 10
621.8257553853454
 20
1245.928530100485
 30
0.0
 10
624.2036361544602
 20
1246.180035158068
 30
0.0
 10
629.0092877827418
 20
1246.159058109607
 30
0.0
 10
631.4176103710362
 20
1245.884849025355
 30
0.0
 10
636.0152727200267
 20
1244.634204460417
 30
0.0
 10
638.267455148513
 20
1243.611780266801
 30
0.0
 10
641.1527448925523
 20
1241.461497721984
 30
0.0
 10
642.0525245797281
 20
1240.632671129374
 30
0.0
 10
643.658994630037
 20
1238.833651140643
 30
0.0
 10
644.3682397174813
 20
1237.866161272629
 30
0.0
 10
646.1926408204141
 20
1234.743864095223
 30
0.0
 10
646.9813674822461
 20
1232.364642754525
 30
0.0
 10
646.9790537943733
 20
1229.922111171583
 30
0.0
  0
ARC
  5
115A
330
A
100
AcDbEntity
  8
MODEL
100
AcDbCircle
 10
630.2566865325022
 20
1231.07859621794
 30
0.0
 40
16.76230964118494
100
AcDbArc
 50
289.2901507538998
 51
356.0438391339004
  0
ARC
  5
115B
330
A
100
AcDbEntity
  8
MODEL
100
AcDbCircle
 10
635.0791921649021
 20
1217.12520213394
 30
0.0
 40
1.999999999976844
100
AcDbArc
 50
238.7810910669094
 51
290.9454944498088
  0
ARC
  5
115C
330
A
100
AcDbEntity
  8
MODEL
100
AcDbCircle
 10
626.6366713497022
 20
1203.93888033794
 30
0.0
 40
13.65812868851997
100
AcDbArc
 50
57.16415061299991
 51
123.0153351466
  0
ARC
  5
115D
330
A
100
AcDbEntity
  8
MODEL
100
AcDbCircle
 10
618.1535969577022
 20
1217.09912505034
 30
0.0
 40
2.000000000026189
100
AcDbArc
 50
248.7699706257007
 51
301.3744798944961
  0
CIRCLE
  5
115E
330
A
100
AcDbEntity
  8
MODEL
100
AcDbCircle
 10
626.6308321073021
 20
1229.92799325714
 30
0.0
 40
25.60216577971613
  0
CIRCLE
  5
115F
330
A
100
AcDbEntity
  8
MODEL
100
AcDbCircle
 10
826.6308321073021
 20
1229.92799325714
 30
0.0
 40
27.5
  0
ARC
  5
1160
330
A
100
AcDbEntity
  8
MODEL
100
AcDbCircle
 10
818.1919187577022
 20
1217.12506553154
 30
0.0
 40
1.899999999999975
100
AcDbArc
 50
249.0665616665051
 51
301.2150290138001
  0
ARC
  5
1161
330
A
100
AcDbEntity
  8
MODEL
100
AcDbCircle
 10
826.6344745485022
 20
1203.91120874274
 30
0.0
 40
13.78125835880567
100
AcDbArc
 50
57.06033709449937
 51
122.7627015176
  0
ARC
  5
1162
330
A
100
AcDbEntity
  8
MODEL
100
AcDbCircle
 10
830.0840164085022
 20
1231.19664255914
 30
0.0
 40
16.8684469774706
100
AcDbArc
 50
289.8286813870999
 51
355.6667615447991
  0
SPLINE
  5
1163
330
A
100
AcDbEntity
  8
MODEL
100
AcDbSpline
210
0.0
220
0.0
230
1.0
 70
     8
 71
     3
 72
    34
 73
    30
 74
     0
 42
0.000000001
 43
0.0000000001
 40
0.0
 40
0.0
 40
0.0
 40
0.0
 40
0.0624999999999999
 40
0.0624999999999999
 40
0.1249999999999998
 40
0.1249999999999998
 40
0.1874999999999997
 40
0.1874999999999997
 40
0.2499999999999996
 40
0.2499999999999996
 40
0.3124999999999996
 40
0.3124999999999996
 40
0.3749999999999995
 40
0.3749999999999995
 40
0.4999999999999996
 40
0.4999999999999996
 40
0.6249999999999996
 40
0.6249999999999996
 40
0.6874999999999996
 40
0.6874999999999996
 40
0.7499999999999996
 40
0.7499999999999996
 40
0.8124999999999997
 40
0.8124999999999997
 40
0.8749999999999998
 40
0.8749999999999998
 40
0.9374999999999999
 40
0.9374999999999999
 40
1.0
 40
1.0
 40
1.0
 40
1.0
 10
806.3915992962781
 20
1229.921933163078
 30
0.0
 10
806.3904645966733
 20
1231.135951136403
 30
0.0
 10
806.5811090745614
 20
1232.314580089861
 30
0.0
 10
807.2705525860607
 20
1234.614923922301
 30
0.0
 10
807.768513792532
 20
1235.723173261821
 30
0.0
 10
808.9684666222453
 20
1237.784822956844
 30
0.0
 10
809.682910810615
 20
1238.762347252062
 30
0.0
 10
811.2807928274418
 20
1240.553647722434
 30
0.0
 10
812.1571040711048
 20
1241.363641509523
 30
0.0
 10
814.0771040599838
 20
1242.799126762427
 30
0.0
 10
815.1217185096806
 20
1243.419568034551
 30
0.0
 10
817.2809202307664
 20
1244.437426565412
 30
0.0
 10
818.4068766692077
 20
1244.843633469714
 30
0.0
 10
821.8980649203778
 20
1245.794545437331
 30
0.0
 10
824.2614315166817
 20
1246.057900247193
 30
0.0
 10
829.0368743407267
 20
1246.081062788281
 30
0.0
 10
831.4410715659925
 20
1245.823641829093
 30
0.0
 10
834.8891950930246
 20
1244.881689171705
 30
0.0
 10
836.030302518979
 20
1244.467683219413
 30
0.0
 10
838.1902924685829
 20
1243.439087620635
 30
0.0
 10
839.2108404435168
 20
1242.826782392675
 30
0.0
 10
841.1217464561447
 20
1241.387316057495
 30
0.0
 10
842.0106901020378
 20
1240.558465448418
 30
0.0
 10
843.5914976222749
 20
1238.774127529995
 30
0.0
 10
844.295425910049
 20
1237.810581781282
 30
0.0
 10
845.5118429976054
 20
1235.725137968773
 30
0.0
 10
846.0046440025618
 20
1234.632523361984
 30
0.0
 10
846.7026347767998
 20
1232.340472283796
 30
0.0
 10
846.9042525613219
 20
1231.134552056189
 30
0.0
 10
846.904244407861
 20
1229.922109908454
 30
0.0
  0
ARC
  5
1164
330
A
100
AcDbEntity
  8
MODEL
100
AcDbCircle
 10
823.0154522433023
 20
1231.07998254034
 30
0.0
 40
16.66414009671809
100
AcDbArc
 50
183.984895913599
 51
250.7195496402997
  0
ARC
  5
1165
330
A
100
AcDbEntity
  8
MODEL
100
AcDbCircle
 10
835.1174152433022
 20
1217.09916302394
 30
0.0
 40
1.900000000000004
100
AcDbArc
 50
238.6216636966006
 51
291.2466253681011
  0
SPLINE
  5
1166
330
A
100
AcDbEntity
  8
MODEL
100
AcDbSpline
210
0.0
220
0.0
230
1.0
 70
     8
 71
     3
 72
    40
 73
    36
 74
     0
 42
0.000000001
 43
0.0000000001
 40
0.0
 40
0.0
 40
0.0
 40
0.0
 40
0.0625
 40
0.0625
 40
0.1250000000000001
 40
0.1250000000000001
 40
0.2500000000000002
 40
0.2500000000000002
 40
0.3750000000000004
 40
0.3750000000000004
 40
0.4375000000000005
 40
0.4375000000000005
 40
0.4687500000000005
 40
0.4687500000000005
 40
0.4843750000000005
 40
0.4843750000000005
 40
0.4921875000000005
 40
0.4921875000000005
 40
0.5000000000000004
 40
0.5000000000000004
 40
0.5156250000000004
 40
0.5156250000000004
 40
0.5312500000000004
 40
0.5312500000000004
 40
0.5625000000000004
 40
0.5625000000000004
 40
0.6250000000000006
 40
0.6250000000000006
 40
0.7500000000000004
 40
0.7500000000000004
 40
0.8750000000000004
 40
0.8750000000000004
 40
0.9375000000000002
 40
0.9375000000000002
 40
1.0
 40
1.0
 40
1.0
 40
1.0
 10
835.0972802427328
 20
1213.40404430651
 30
0.0
 10
835.2950328597691
 20
1212.917947179504
 30
0.0
 10
835.3265983079194
 20
1212.442879454334
 30
0.0
 10
835.245878748041
 20
1211.514987651457
 30
0.0
 10
835.1288319050637
 20
1211.062786338622
 30
0.0
 10
834.6499447553275
 20
1209.748486082343
 30
0.0
 10
834.1666085725575
 20
1208.929623022744
 30
0.0
 10
832.9920410094215
 20
1207.413508918716
 30
0.0
 10
832.3110559330918
 20
1206.716500167575
 30
0.0
 10
830.9518922936091
 20
1205.754935439877
 30
0.0
 10
830.4488473874939
 20
1205.447767178855
 30
0.0
 10
829.4387985337345
 20
1205.015732167041
 30
0.0
 10
829.0623293652599
 20
1204.875352401621
 30
0.0
 10
828.3121991445893
 20
1204.685853807151
 30
0.0
 10
828.0290034511282
 20
1204.625056459558
 30
0.0
 10
827.4888570521013
 20
1204.552967776441
 30
0.0
 10
827.2896947171567
 20
1204.53256454344
 30
0.0
 10
826.8459476504398
 20
1204.507860281017
 30
0.0
 10
826.5968946205331
 20
1204.504831922081
 30
0.0
 10
825.9056919717694
 20
1204.52860127854
 30
0.0
 10
825.5264485898975
 20
1204.580933441841
 30
0.0
 10
824.9135406996289
 20
1204.693354836563
 30
0.0
 10
824.6606606493777
 20
1204.757202489829
 30
0.0
 10
823.9854737195639
 20
1204.953060336143
 30
0.0
 10
823.6342705687631
 20
1205.09305763621
 30
0.0
 10
822.6788790519698
 20
1205.527929986756
 30
0.0
 10
822.1954090562234
 20
1205.83275266292
 30
0.0
 10
820.8849878728762
 20
1206.786910750185
 30
0.0
 10
820.2193831989042
 20
1207.477076579131
 30
0.0
 10
819.0711728743005
 20
1208.979785975043
 30
0.0
 10
818.5975392888209
 20
1209.791598680991
 30
0.0
 10
818.1312073500845
 20
1211.091980362224
 30
0.0
 10
818.0178681697042
 20
1211.539105034203
 30
0.0
 10
817.9421802149415
 20
1212.456020608839
 30
0.0
 10
817.9753127229848
 20
1212.925218216186
 30
0.0
 10
818.170547335044
 20
1213.405003176489
 30
0.0
  0
SPLINE
  5
1167
330
A
100
AcDbEntity
  8
MODEL
100
AcDbSpline
210
0.0
220
0.0
230
1.0
 70
     8
 71
     3
 72
    40
 73
    36
 74
     0
 42
0.000000001
 43
0.0000000001
 40
0.0
 40
0.0
 40
0.0
 40
0.0
 40
0.0625
 40
0.0625
 40
0.1250000000000001
 40
0.1250000000000001
 40
0.2500000000000001
 40
0.2500000000000001
 40
0.3750000000000002
 40
0.3750000000000002
 40
0.4375000000000001
 40
0.4375000000000001
 40
0.4687500000000002
 40
0.4687500000000002
 40
0.4843750000000002
 40
0.4843750000000002
 40
0.4921875000000002
 40
0.4921875000000002
 40
0.5000000000000001
 40
0.5000000000000001
 40
0.5156250000000001
 40
0.5156250000000001
 40
0.5312500000000001
 40
0.5312500000000001
 40
0.5625000000000001
 40
0.5625000000000001
 40
0.6250000000000001
 40
0.6250000000000001
 40
0.7500000000000002
 40
0.7500000000000002
 40
0.8750000000000002
 40
0.8750000000000002
 40
0.9375000000000002
 40
0.9375000000000002
 40
1.0
 40
1.0
 40
1.0
 40
1.0
 10
818.6139029758634
 20
1213.46937618102
 30
0.0
 10
818.436224635857
 20
1212.99548469448
 30
0.0
 10
818.4170026285902
 20
1212.530437218107
 30
0.0
 10
818.5147220227378
 20
1211.619127340462
 30
0.0
 10
818.6362728574719
 20
1211.173371992526
 30
0.0
 10
819.1210567501759
 20
1209.874057672093
 30
0.0
 10
819.5966712850274
 20
1209.063468976718
 30
0.0
 10
820.7351070715378
 20
1207.55244580915
 30
0.0
 10
821.3904055360537
 20
1206.851841155973
 30
0.0
 10
822.6751271169011
 20
1205.866075478768
 30
0.0
 10
823.1476541356182
 20
1205.547648340956
 30
0.0
 10
824.0853130000975
 20
1205.089235565063
 30
0.0
 10
824.4314558053271
 20
1204.938524794092
 30
0.0
 10
825.129636348921
 20
1204.729467434466
 30
0.0
 10
825.3903200490998
 20
1204.661529275058
 30
0.0
 10
825.9139660140323
 20
1204.57988132754
 30
0.0
 10
826.1128599617028
 20
1204.556565305117
 30
0.0
 10
826.5602283449558
 20
1204.533233760194
 30
0.0
 10
826.8083192805974
 20
1204.535615741936
 30
0.0
 10
827.4642287675798
 20
1204.580732414269
 30
0.0
 10
827.7785799937261
 20
1204.645245341704
 30
0.0
 10
828.3157569007955
 20
1204.776631368731
 30
0.0
 10
828.5327173066895
 20
1204.846339165458
 30
0.0
 10
829.1269213952522
 20
1205.060154747949
 30
0.0
 10
829.4431904624402
 20
1205.209523792353
 30
0.0
 10
830.3065752945319
 20
1205.666513083382
 30
0.0
 10
830.7553536897132
 20
1205.980740998131
 30
0.0
 10
831.9785073872937
 20
1206.954484127475
 30
0.0
 10
832.6145049428588
 20
1207.646855655643
 30
0.0
 10
833.7167702431585
 20
1209.138521401809
 30
0.0
 10
834.1766527039223
 20
1209.936381235955
 30
0.0
 10
834.6420210108398
 20
1211.20997512759
 30
0.0
 10
834.7583595411016
 20
1211.646967917899
 30
0.0
 10
834.8497958553831
 20
1212.542208951054
 30
0.0
 10
834.8295945589676
 20
1212.999823161625
 30
0.0
 10
834.6539288967034
 20
1213.468465941462
 30
0.0
  0
ARC
  5
1168
330
A
100
AcDbEntity
  8
MODEL
100
AcDbCircle
 10
826.6334042765021
 20
1204.45257298794
 30
0.0
 40
12.06710988321722
100
AcDbArc
 50
48.34375722679973
 51
131.6497399301994
  0
ARC
  5
1169
330
A
100
AcDbEntity
  8
MODEL
100
AcDbCircle
 10
826.6333654821022
 20
1204.24466683834
 30
0.0
 40
13.03959464284449
100
AcDbArc
 50
49.42558015870128
 51
130.5678732100984
  0
ARC
  5
116A
330
A
100
AcDbEntity
  8
MODEL
100
AcDbCircle
 10
823.1833124285023
 20
1231.19268990274
 30
0.0
 40
16.96349859451502
100
AcDbArc
 50
184.2954893013006
 51
250.1721349572003
  0
SPLINE
  5
116B
330
A
100
AcDbEntity
  8
MODEL
100
AcDbSpline
210
0.0
220
0.0
230
1.0
 70
     8
 71
     3
 72
    28
 73
    24
 74
     0
 42
0.000000001
 43
0.0000000001
 40
0.0
 40
0.0
 40
0.0
 40
0.0
 40
0.1249999999999999
 40
0.1249999999999999
 40
0.1874999999999998
 40
0.1874999999999998
 40
0.2499999999999998
 40
0.2499999999999998
 40
0.3124999999999998
 40
0.3124999999999998
 40
0.3749999999999998
 40
0.3749999999999998
 40
0.4999999999999998
 40
0.4999999999999998
 40
0.6249999999999998
 40
0.6249999999999998
 40
0.7499999999999998
 40
0.7499999999999998
 40
0.8124999999999999
 40
0.8124999999999999
 40
0.8749999999999999
 40
0.8749999999999999
 40
1.0
 40
1.0
 40
1.0
 40
1.0
 10
806.2674637374431
 20
1229.922120098052
 30
0.0
 10
806.2675315454006
 20
1232.359678642902
 30
0.0
 10
807.0595807898682
 20
1234.713000313705
 30
0.0
 10
808.864520529935
 20
1237.824682618644
 30
0.0
 10
809.5796386731794
 20
1238.810268361807
 30
0.0
 10
811.1769218351925
 20
1240.617832394777
 30
0.0
 10
812.0529697619094
 20
1241.436950506583
 30
0.0
 10
813.9744881360238
 20
1242.890792794047
 30
0.0
 10
815.0213281365887
 20
1243.520677726991
 30
0.0
 10
817.1866700257834
 20
1244.55381540636
 30
0.0
 10
818.3157313135181
 20
1244.966380089723
 30
0.0
 10
821.8257553853454
 20
1245.928530100485
 30
0.0
 10
824.2036361544598
 20
1246.180035158068
 30
0.0
 10
829.0092877827418
 20
1246.159058109607
 30
0.0
 10
831.4176103710362
 20
1245.884849025355
 30
0.0
 10
836.0152727200267
 20
1244.634204460417
 30
0.0
 10
838.267455148513
 20
1243.611780266801
 30
0.0
 10
841.1527448925523
 20
1241.461497721984
 30
0.0
 10
842.0525245797281
 20
1240.632671129374
 30
0.0
 10
843.658994630037
 20
1238.833651140643
 30
0.0
 10
844.3682397174813
 20
1237.866161272629
 30
0.0
 10
846.1926408204141
 20
1234.743864095223
 30
0.0
 10
846.9813674822464
 20
1232.364642754525
 30
0.0
 10
846.9790537943733
 20
1229.922111171583
 30
0.0
  0
ARC
  5
116C
330
A
100
AcDbEntity
  8
MODEL
100
AcDbCircle
 10
830.2566865325022
 20
1231.07859621794
 30
0.0
 40
16.76230964118494
100
AcDbArc
 50
289.2901507538998
 51
356.0438391339004
  0
ARC
  5
116D
330
A
100
AcDbEntity
  8
MODEL
100
AcDbCircle
 10
835.0791921649021
 20
1217.12520213394
 30
0.0
 40
1.999999999976844
100
AcDbArc
 50
238.7810910669094
 51
290.9454944498088
  0
ARC
  5
116E
330
A
100
AcDbEntity
  8
MODEL
100
AcDbCircle
 10
826.6366713497022
 20
1203.93888033794
 30
0.0
 40
13.65812868851997
100
AcDbArc
 50
57.16415061299991
 51
123.0153351466
  0
ARC
  5
116F
330
A
100
AcDbEntity
  8
MODEL
100
AcDbCircle
 10
818.1535969577022
 20
1217.09912505034
 30
0.0
 40
2.000000000026189
100
AcDbArc
 50
248.7699706257007
 51
301.3744798945016
  0
CIRCLE
  5
1170
330
A
100
AcDbEntity
  8
MODEL
100
AcDbCircle
 10
826.6308321073021
 20
1229.92799325714
 30
0.0
 40
25.60216577971613
  0
ARC
  5
1171
330
A
100
AcDbEntity
  8
MODEL
100
AcDbCircle
 10
625.7656238359216
 20
628.6064127438434
 30
0.0
 40
102.5742354890328
100
AcDbArc
 50
78.69667804560007
 51
101.2922424776001
  0
ARC
  5
1172
330
A
100
AcDbEntity
  8
MODEL
100
AcDbCircle
 10
645.8316535551214
 20
728.9948514074433
 30
0.0
 40
0.1999999999964716
100
AcDbArc
 50
47.14201597684211
 51
78.80549383127133
  0
ARC
  5
1173
330
A
100
AcDbEntity
  8
MODEL
100
AcDbCircle
 10
605.7190083755215
 20
728.9987301186434
 30
0.0
 40
0.1999999322060092
100
AcDbArc
 50
101.1838495673351
 51
137.3903521959884
  0
SPLINE
  5
1174
330
A
100
AcDbEntity
  8
MODEL
100
AcDbSpline
210
0.0
220
0.0
230
1.0
 70
    12
 71
     2
 72
     6
 73
     3
 74
     0
 42
0.000000001
 43
0.0000000001
 40
0.0
 40
0.0
 40
0.0
 40
1.0
 40
1.0
 40
1.0
 10
616.6942487215188
 20
728.7863546183762
 30
0.0
 41
1.0
 10
616.6697598961492
 20
728.7667656133865
 30
0.0
 41
0.9428089213927817
 10
616.6546459023505
 20
728.7088278611922
 30
0.0
 41
1.0
  0
SPLINE
  5
1175
330
A
100
AcDbEntity
  8
MODEL
100
AcDbSpline
210
0.0
220
0.0
230
1.0
 70
     8
 71
     3
 72
    40
 73
    36
 74
     0
 42
0.000000001
 43
0.0000000001
 40
0.0
 40
0.0
 40
0.0
 40
0.0
 40
0.0625
 40
0.0625
 40
0.1250000000000001
 40
0.1250000000000001
 40
0.2500000000000002
 40
0.2500000000000002
 40
0.3750000000000004
 40
0.3750000000000004
 40
0.4375000000000005
 40
0.4375000000000005
 40
0.4687500000000005
 40
0.4687500000000005
 40
0.4843750000000005
 40
0.4843750000000005
 40
0.4921875000000005
 40
0.4921875000000005
 40
0.5000000000000004
 40
0.5000000000000004
 40
0.5156250000000004
 40
0.5156250000000004
 40
0.5312500000000004
 40
0.5312500000000004
 40
0.5625000000000004
 40
0.5625000000000004
 40
0.6250000000000006
 40
0.6250000000000006
 40
0.7500000000000004
 40
0.7500000000000004
 40
0.8750000000000004
 40
0.8750000000000004
 40
0.9375000000000002
 40
0.9375000000000002
 40
1.0
 40
1.0
 40
1.0
 40
1.0
 10
634.2246893898196
 20
727.6419248793337
 30
0.0
 10
634.4224420068556
 20
725.813554941225
 30
0.0
 10
634.4540074550059
 20
723.9925956582018
 30
0.0
 10
634.3732878951275
 20
720.3540270357826
 30
0.0
 10
634.2562410521502
 20
718.5365559989477
 30
0.0
 10
633.777353902414
 20
713.081674747787
 30
0.0
 10
633.2940177196435
 20
709.4391386594318
 30
0.0
 10
632.119450156508
 20
702.146016506995
 30
0.0
 10
631.4384650801778
 20
698.500258885023
 30
0.0
 10
630.0793014406956
 20
693.0941530334258
 30
0.0
 10
629.5762565345804
 20
691.2989192934725
 30
0.0
 10
628.5662076808212
 20
688.6927181341674
 30
0.0
 10
628.1897385123464
 20
687.8311032707921
 30
0.0
 10
627.439608291676
 20
686.652971956389
 30
0.0
 10
627.1564125982147
 20
686.2721272706901
 30
0.0
 10
626.616266199188
 20
685.8186041853994
 30
0.0
 10
626.4171038642432
 20
685.6898680325214
 30
0.0
 10
625.9733567975263
 20
685.533803957443
 30
0.0
 10
625.7243037676196
 20
685.5145401064326
 30
0.0
 10
625.0331011188555
 20
685.6640916143946
 30
0.0
 10
624.6538577369843
 20
685.993935269117
 30
0.0
 10
624.0409498467154
 20
686.697646579403
 30
0.0
 10
623.788069796464
 20
687.095247959973
 30
0.0
 10
623.1128828666499
 20
688.3058220699265
 30
0.0
 10
622.7616797158491
 20
689.159626082291
 30
0.0
 10
621.8062881990563
 20
691.7665574317566
 30
0.0
 10
621.3228182033099
 20
693.5362031646246
 30
0.0
 10
620.0123970199622
 20
698.868558088765
 30
0.0
 10
619.3467923459907
 20
702.4597163481542
 30
0.0
 10
618.1985820213872
 20
709.659832613787
 30
0.0
 10
617.7249484359072
 20
713.260741838021
 30
0.0
 10
617.258616497171
 20
718.6493455308041
 30
0.0
 10
617.1452773167907
 20
720.4446279792558
 30
0.0
 10
617.0695893620275
 20
724.0382854078246
 30
0.0
 10
617.1027218700713
 20
725.8365472104442
 30
0.0
 10
617.2979564821308
 20
727.6414634503953
 30
0.0
  0
SPLINE
  5
1176
330
A
100
AcDbEntity
  8
MODEL
100
AcDbSpline
210
0.0
220
0.0
230
1.0
 70
     8
 71
     3
 72
    40
 73
    36
 74
     0
 42
0.000000001
 43
0.0000000001
 40
0.0
 40
0.0
 40
0.0
 40
0.0
 40
0.0625
 40
0.0625
 40
0.1250000000000001
 40
0.1250000000000001
 40
0.2500000000000001
 40
0.2500000000000001
 40
0.3750000000000002
 40
0.3750000000000002
 40
0.4375000000000001
 40
0.4375000000000001
 40
0.4687500000000002
 40
0.4687500000000002
 40
0.4843750000000002
 40
0.4843750000000002
 40
0.4921875000000002
 40
0.4921875000000002
 40
0.5000000000000001
 40
0.5000000000000001
 40
0.5156250000000001
 40
0.5156250000000001
 40
0.5312500000000001
 40
0.5312500000000001
 40
0.5625000000000001
 40
0.5625000000000001
 40
0.6250000000000001
 40
0.6250000000000001
 40
0.7500000000000002
 40
0.7500000000000002
 40
0.8750000000000002
 40
0.8750000000000002
 40
0.9375000000000002
 40
0.9375000000000002
 40
1.0
 40
1.0
 40
1.0
 40
1.0
 10
617.7413121229499
 20
727.577921660829
 30
0.0
 10
617.563633782943
 20
725.7707605738166
 30
0.0
 10
617.5444117756767
 20
723.9624746237241
 30
0.0
 10
617.6421311698243
 20
720.342114901435
 30
0.0
 10
617.7636820045584
 20
718.529606106201
 30
0.0
 10
618.2484658972623
 20
713.0854359700238
 30
0.0
 10
618.7240804321139
 20
709.4615741474314
 30
0.0
 10
619.8625162186247
 20
702.2151492265222
 30
0.0
 10
620.5178146831404
 20
698.592857147621
 30
0.0
 10
621.8025362639876
 20
693.2137798295001
 30
0.0
 10
622.2750632827047
 20
691.4267405960278
 30
0.0
 10
623.212722147184
 20
688.8190350680454
 30
0.0
 10
623.5588649524136
 20
687.9558314456353
 30
0.0
 10
624.2570454960075
 20
686.7578545928113
 30
0.0
 10
624.5177291961863
 20
686.3685123632717
 30
0.0
 10
625.0413751611188
 20
685.9013367707325
 30
0.0
 10
625.2402691087896
 20
685.7680866906958
 30
0.0
 10
625.6876374920423
 20
685.6349506005446
 30
0.0
 10
625.9357284276839
 20
685.6486824216942
 30
0.0
 10
626.5916379146663
 20
685.9069870597601
 30
0.0
 10
626.9059891408126
 20
686.2765145396513
 30
0.0
 10
627.4431660478815
 20
687.0298416639185
 30
0.0
 10
627.6601264537755
 20
687.4296851518329
 30
0.0
 10
628.2543305423383
 20
688.6546126500558
 30
0.0
 10
628.5705996095267
 20
689.5082319983042
 30
0.0
 10
629.4339844416179
 20
692.0990376994386
 30
0.0
 10
629.8827628367997
 20
693.852593931741
 30
0.0
 10
631.1059165343804
 20
699.134736862365
 30
0.0
 10
631.7419140899456
 20
702.6909517675326
 30
0.0
 10
632.844179390245
 20
709.8072503119665
 30
0.0
 10
633.3040618510088
 20
713.3592191977766
 30
0.0
 10
633.7694301579263
 20
718.684120859677
 30
0.0
 10
633.8857686881879
 20
720.4587530410233
 30
0.0
 10
633.9772050024696
 20
724.0125260292142
 30
0.0
 10
633.9570037060544
 20
725.7914993429798
 30
0.0
 10
633.7813380437899
 20
727.5783720199913
 30
0.0
  0
ARC
  5
1177
330
A
100
AcDbEntity
  8
MODEL
100
AcDbCircle
 10
625.7620367331215
 20
702.2319738642434
 30
0.0
 40
26.58475301722289
100
AcDbArc
 50
72.44324319080016
 51
107.5599742203998
  0
LINE
  5
1178
330
A
100
AcDbEntity
  8
MODEL
100
AcDbLine
 10
604.4774619643215
 20
728.9500099330434
 30
0.0
 11
605.3948728847215
 21
729.1381151454434
 31
0.0
  0
ARC
  5
1179
330
A
100
AcDbEntity
  8
MODEL
100
AcDbCircle
 10
625.7620786055215
 20
699.7181164510433
 30
0.0
 40
29.96470182374136
100
AcDbArc
 50
73.56047190840005
 51
106.4424711206
  0
ARC
  5
117A
330
A
100
AcDbEntity
  8
MODEL
100
AcDbCircle
 10
646.8474731779215
 20
727.9714823918433
 30
0.0
 40
0.9999999999998124
100
AcDbArc
 50
5.292221378502975
 51
78.16512133840358
  0
ARC
  5
117B
330
A
100
AcDbEntity
  8
MODEL
100
AcDbCircle
 10
604.6825633423216
 20
727.9712691990434
 30
0.0
 40
1.000000000000015
100
AcDbArc
 50
101.8354336836982
 51
174.7019943616976
  0
LINE
  5
117C
330
A
100
AcDbEntity
  8
MODEL
100
AcDbLine
 10
646.1064629415216
 20
729.1440699274434
 30
0.0
 11
647.0525650747215
 21
728.9502251130434
 31
0.0
  0
ARC
  5
117D
330
A
100
AcDbEntity
  8
MODEL
100
AcDbCircle
 10
620.7079097407216
 20
979.5373644958435
 30
0.0
 40
250.8670428192522
100
AcDbArc
 50
266.5004644372
 51
269.0518759283
  0
ARC
  5
117E
330
A
100
AcDbEntity
  8
MODEL
100
AcDbCircle
 10
631.3058919915215
 20
969.4373020782435
 30
0.0
 40
240.7486122865687
100
AcDbArc
 50
270.8605255956998
 51
273.5246115104999
  0
ARC
  5
117F
330
A
100
AcDbEntity
  8
MODEL
100
AcDbCircle
 10
634.8430442019214
 20
736.1288176670433
 30
0.0
 40
7.41339129406846
100
AcDbArc
 50
256.9570743852005
 51
270.6068404167003
  0
ARC
  5
1180
330
A
100
AcDbEntity
  8
MODEL
100
AcDbCircle
 10
625.7663970651215
 20
696.5644808670434
 30
0.0
 40
33.1787746872666
100
AcDbArc
 50
77.1063415037998
 51
102.9654988375999
  0
ARC
  5
1181
330
A
100
AcDbEntity
  8
MODEL
100
AcDbCircle
 10
616.6487797379216
 20
736.0454679586434
 30
0.0
 40
7.341375764903828
100
AcDbArc
 50
269.2819673851998
 51
283.1765584418999
  0
LINE
  5
1182
330
A
100
AcDbEntity
  8
MODEL
100
AcDbLine
 10
650.9318684307216
 20
683.6845296762434
 30
0.0
 11
600.5958549855216
 21
683.6845296798434
 31
0.0
  0
LINE
  5
1183
330
A
100
AcDbEntity
  8
MODEL
100
AcDbLine
 10
602.4132609975215
 20
683.6845296798434
 30
0.0
 11
649.1132609975216
 21
683.6845296766434
 31
0.0
  0
SPLINE
  5
1184
330
A
100
AcDbEntity
  8
MODEL
100
AcDbSpline
210
0.0
220
0.0
230
1.0
 70
     8
 71
     3
 72
    21
 73
    17
 74
     0
 42
0.000000001
 43
0.0000000001
 40
0.0
 40
0.0
 40
0.0
 40
0.0
 40
0.0855582815339325
 40
0.1757675904168908
 40
0.2627191924763664
 40
0.3464131350579304
 40
0.4268494712596192
 40
0.5040282609030449
 40
0.5779495717184351
 40
0.6486134808027403
 40
0.716020076429969
 40
0.7801694603209977
 40
0.8410617505202725
 40
0.8986970850850605
 40
0.9530756268790946
 40
1.0
 40
1.0
 40
1.0
 40
1.0
 10
651.4306532727135
 20
684.223444400719
 30
0.0
 10
651.3257041966071
 20
685.5993874277266
 30
0.0
 10
651.1438075750675
 20
687.9825719665033
 30
0.0
 10
650.8416721417886
 20
691.900872632335
 30
0.0
 10
650.5465759678971
 20
695.6938413017874
 30
0.0
 10
650.257805914003
 20
699.369123911205
 30
0.0
 10
649.9778472821231
 20
702.8949031548782
 30
0.0
 10
649.7060735942791
 20
706.2792098696785
 30
0.0
 10
649.4426399271483
 20
709.5200632737426
 30
0.0
 10
649.187521499977
 20
712.6178062768589
 30
0.0
 10
648.940679729267
 20
715.5728946260898
 30
0.0
 10
648.7022854015779
 20
718.3833351758286
 30
0.0
 10
648.4717456645378
 20
721.0561227740437
 30
0.0
 10
648.2511107611856
 20
723.5671477123858
 30
0.0
 10
648.0389639989933
 20
725.936482586931
 30
0.0
 10
647.912495741582
 20
727.3100692077365
 30
0.0
 10
647.8430254787927
 20
728.0637009209086
 30
0.0
  0
SPLINE
  5
1185
330
A
100
AcDbEntity
  8
MODEL
100
AcDbSpline
210
0.0
220
0.0
230
1.0
 70
     8
 71
     3
 72
    21
 73
    17
 74
     0
 42
0.000000001
 43
0.0000000001
 40
0.0
 40
0.0
 40
0.0
 40
0.0
 40
0.0469259934490483
 40
0.1013035932343957
 40
0.1589378967443268
 40
0.2198290676903837
 40
0.2839772448487149
 40
0.3513825468785934
 40
0.4220450760308195
 40
0.4959649210393631
 40
0.5731421594029675
 40
0.6535768592048925
 40
0.7372690805786059
 40
0.8242188768989842
 40
0.9144262957584745
 40
1.0
 40
1.0
 40
1.0
 40
1.0
 10
603.6870207382087
 20
728.063588137553
 30
0.0
 10
603.617471245168
 20
727.309918971449
 30
0.0
 10
603.4908625941755
 20
725.9363032049602
 30
0.0
 10
603.2784911886772
 20
723.5669366340937
 30
0.0
 10
603.0576325428624
 20
721.0559146481497
 30
0.0
 10
602.8268659732144
 20
718.3831306033918
 30
0.0
 10
602.588243662409
 20
715.5726936526846
 30
0.0
 10
602.3411722006879
 20
712.6176091121382
 30
0.0
 10
602.0858225382392
 20
709.5198700801822
 30
0.0
 10
601.8221560545135
 20
706.2790208119898
 30
0.0
 10
601.5501479559168
 20
702.894718439387
 30
0.0
 10
601.2699534299657
 20
699.3689435597878
 30
0.0
 10
600.9809455540228
 20
695.6936660728462
 30
0.0
 10
600.6856113996855
 20
691.900700357761
 30
0.0
 10
600.3832181817231
 20
687.9821547065382
 30
0.0
 10
600.2011640021426
 20
685.5987456827233
 30
0.0
 10
600.096113029859
 20
684.2225272400037
 30
0.0
  0
ARC
  5
1186
330
A
100
AcDbEntity
  8
MODEL
100
AcDbCircle
 10
647.0967386855216
 20
728.0334844358433
 30
0.0
 40
0.7418125366543832
100
AcDbArc
 50
2.29420412190251
 51
22.46291872590398
  0
ARC
  5
1187
330
A
100
AcDbEntity
  8
MODEL
100
AcDbCircle
 10
600.5945670995216
 20
684.1845296814433
 30
0.0
 40
0.5000000016019556
100
AcDbArc
 50
175.6631564015037
 51
270.000111944008
  0
ARC
  5
1188
330
A
100
AcDbEntity
  8
MODEL
100
AcDbCircle
 10
650.9322694455216
 20
684.1845296766434
 30
0.0
 40
0.5000000001521188
100
AcDbArc
 50
270.0005493901052
 51
4.658161790198458
  0
LINE
  5
1189
330
A
100
AcDbEntity
  8
MODEL
100
AcDbLine
 10
652.7624248747215
 20
660.1845296782434
 30
0.0
 11
598.7640971199214
 21
660.1845296782434
 31
0.0
  0
LINE
  5
118A
330
A
100
AcDbEntity
  8
MODEL
100
AcDbLine
 10
600.4661027027216
 20
683.1845296782434
 30
0.0
 11
651.0604192919216
 21
683.1845296782434
 31
0.0
  0
ARC
  5
118B
330
A
100
AcDbEntity
  8
MODEL
100
AcDbCircle
 10
748.2632609975215
 20
660.1845296782434
 30
0.0
 40
150.0
100
AcDbArc
 50
171.343999691
 51
179.8083749621
  0
ARC
  5
118C
330
A
100
AcDbEntity
  8
MODEL
100
AcDbCircle
 10
503.2632609975215
 20
660.1845296782434
 30
0.0
 40
150.0
100
AcDbArc
 50
0.1916250378999892
 51
8.656000309000005
  0
ARC
  5
118D
330
A
100
AcDbEntity
  8
MODEL
100
AcDbCircle
 10
598.7640971199214
 20
660.6845296782434
 30
0.0
 40
0.5000000000000084
100
AcDbArc
 50
179.8083749620995
 51
270.0
  0
ARC
  5
118E
330
A
100
AcDbEntity
  8
MODEL
100
AcDbCircle
 10
652.7624248747215
 20
660.6845296782434
 30
0.0
 40
0.5000000000000004
100
AcDbArc
 50
270.0
 51
0.1916250379004575
  0
ARC
  5
118F
330
A
100
AcDbEntity
  8
MODEL
100
AcDbCircle
 10
647.2632609975215
 20
683.6845296782434
 30
0.0
 40
0.5000000000000004
100
AcDbArc
 50
180.0
 51
270.0
  0
ARC
  5
1190
330
A
100
AcDbEntity
  8
MODEL
100
AcDbCircle
 10
604.2632609975215
 20
683.6845296782434
 30
0.0
 40
0.5000000000000004
100
AcDbArc
 50
270.0
 51
0.0
  0
ARC
  5
1191
330
A
100
AcDbEntity
  8
MODEL
100
AcDbCircle
 10
651.0604192919216
 20
682.6845296782434
 30
0.0
 40
0.5000000000000072
100
AcDbArc
 50
8.656000309004005
 51
90.0
  0
ARC
  5
1192
330
A
100
AcDbEntity
  8
MODEL
100
AcDbCircle
 10
600.4661027027216
 20
682.6845296782434
 30
0.0
 40
0.5000000000000004
100
AcDbArc
 50
90.0
 51
171.343999690996
  0
ARC
  5
1193
330
A
100
AcDbEntity
  8
MODEL
100
AcDbCircle
 10
825.7656238359216
 20
628.6064127438434
 30
0.0
 40
102.5742354890328
100
AcDbArc
 50
78.69667804560007
 51
101.2922424776001
  0
ARC
  5
1194
330
A
100
AcDbEntity
  8
MODEL
100
AcDbCircle
 10
845.8316535551214
 20
728.9948514074433
 30
0.0
 40
0.1999999999964716
100
AcDbArc
 50
47.1420159767722
 51
78.80549383127133
  0
ARC
  5
1195
330
A
100
AcDbEntity
  8
MODEL
100
AcDbCircle
 10
805.7190083755215
 20
728.9987301186434
 30
0.0
 40
0.1999999322060092
100
AcDbArc
 50
101.1838495673351
 51
137.3903521959884
  0
SPLINE
  5
1196
330
A
100
AcDbEntity
  8
MODEL
100
AcDbSpline
210
0.0
220
0.0
230
1.0
 70
    12
 71
     2
 72
     6
 73
     3
 74
     0
 42
0.000000001
 43
0.0000000001
 40
0.0
 40
0.0
 40
0.0
 40
1.0
 40
1.0
 40
1.0
 10
816.6942487215188
 20
728.7863546183762
 30
0.0
 41
1.0
 10
816.6697598961493
 20
728.7667656133866
 30
0.0
 41
0.942808921385062
 10
816.6546459023505
 20
728.7088278611922
 30
0.0
 41
1.0
  0
SPLINE
  5
1197
330
A
100
AcDbEntity
  8
MODEL
100
AcDbSpline
210
0.0
220
0.0
230
1.0
 70
     8
 71
     3
 72
    40
 73
    36
 74
     0
 42
0.000000001
 43
0.0000000001
 40
0.0
 40
0.0
 40
0.0
 40
0.0
 40
0.0625
 40
0.0625
 40
0.1250000000000001
 40
0.1250000000000001
 40
0.2500000000000002
 40
0.2500000000000002
 40
0.3750000000000004
 40
0.3750000000000004
 40
0.4375000000000005
 40
0.4375000000000005
 40
0.4687500000000005
 40
0.4687500000000005
 40
0.4843750000000005
 40
0.4843750000000005
 40
0.4921875000000005
 40
0.4921875000000005
 40
0.5000000000000004
 40
0.5000000000000004
 40
0.5156250000000004
 40
0.5156250000000004
 40
0.5312500000000004
 40
0.5312500000000004
 40
0.5625000000000004
 40
0.5625000000000004
 40
0.6250000000000006
 40
0.6250000000000006
 40
0.7500000000000004
 40
0.7500000000000004
 40
0.8750000000000004
 40
0.8750000000000004
 40
0.9375000000000002
 40
0.9375000000000002
 40
1.0
 40
1.0
 40
1.0
 40
1.0
 10
834.2246893898196
 20
727.6419248793337
 30
0.0
 10
834.4224420068556
 20
725.813554941225
 30
0.0
 10
834.4540074550059
 20
723.9925956582018
 30
0.0
 10
834.373287895128
 20
720.3540270357826
 30
0.0
 10
834.2562410521507
 20
718.5365559989477
 30
0.0
 10
833.777353902414
 20
713.081674747787
 30
0.0
 10
833.294017719644
 20
709.4391386594318
 30
0.0
 10
832.1194501565085
 20
702.146016506995
 30
0.0
 10
831.4384650801783
 20
698.500258885023
 30
0.0
 10
830.0793014406961
 20
693.0941530334258
 30
0.0
 10
829.5762565345806
 20
691.2989192934725
 30
0.0
 10
828.566207680821
 20
688.6927181341674
 30
0.0
 10
828.1897385123464
 20
687.8311032707921
 30
0.0
 10
827.4396082916758
 20
686.652971956389
 30
0.0
 10
827.1564125982147
 20
686.2721272706901
 30
0.0
 10
826.616266199188
 20
685.8186041853994
 30
0.0
 10
826.4171038642432
 20
685.6898680325214
 30
0.0
 10
825.9733567975263
 20
685.533803957443
 30
0.0
 10
825.7243037676196
 20
685.5145401064326
 30
0.0
 10
825.0331011188559
 20
685.6640916143946
 30
0.0
 10
824.6538577369845
 20
685.993935269117
 30
0.0
 10
824.0409498467154
 20
686.697646579403
 30
0.0
 10
823.788069796464
 20
687.095247959973
 30
0.0
 10
823.1128828666504
 20
688.3058220699265
 30
0.0
 10
822.7616797158496
 20
689.159626082291
 30
0.0
 10
821.8062881990563
 20
691.7665574317566
 30
0.0
 10
821.3228182033099
 20
693.5362031646246
 30
0.0
 10
820.0123970199627
 20
698.868558088765
 30
0.0
 10
819.3467923459912
 20
702.4597163481542
 30
0.0
 10
818.198582021387
 20
709.659832613787
 30
0.0
 10
817.724948435907
 20
713.260741838021
 30
0.0
 10
817.258616497171
 20
718.6493455308041
 30
0.0
 10
817.1452773167907
 20
720.4446279792558
 30
0.0
 10
817.069589362028
 20
724.0382854078246
 30
0.0
 10
817.1027218700713
 20
725.8365472104442
 30
0.0
 10
817.297956482131
 20
727.6414634503953
 30
0.0
  0
SPLINE
  5
1198
330
A
100
AcDbEntity
  8
MODEL
100
AcDbSpline
210
0.0
220
0.0
230
1.0
 70
     8
 71
     3
 72
    40
 73
    36
 74
     0
 42
0.000000001
 43
0.0000000001
 40
0.0
 40
0.0
 40
0.0
 40
0.0
 40
0.0625
 40
0.0625
 40
0.1250000000000001
 40
0.1250000000000001
 40
0.2500000000000001
 40
0.2500000000000001
 40
0.3750000000000002
 40
0.3750000000000002
 40
0.4375000000000001
 40
0.4375000000000001
 40
0.4687500000000002
 40
0.4687500000000002
 40
0.4843750000000002
 40
0.4843750000000002
 40
0.4921875000000002
 40
0.4921875000000002
 40
0.5000000000000001
 40
0.5000000000000001
 40
0.5156250000000001
 40
0.5156250000000001
 40
0.5312500000000001
 40
0.5312500000000001
 40
0.5625000000000001
 40
0.5625000000000001
 40
0.6250000000000001
 40
0.6250000000000001
 40
0.7500000000000002
 40
0.7500000000000002
 40
0.8750000000000002
 40
0.8750000000000002
 40
0.9375000000000002
 40
0.9375000000000002
 40
1.0
 40
1.0
 40
1.0
 40
1.0
 10
817.7413121229499
 20
727.577921660829
 30
0.0
 10
817.5636337829435
 20
725.7707605738166
 30
0.0
 10
817.5444117756767
 20
723.9624746237241
 30
0.0
 10
817.6421311698243
 20
720.342114901435
 30
0.0
 10
817.7636820045584
 20
718.529606106201
 30
0.0
 10
818.2484658972623
 20
713.0854359700238
 30
0.0
 10
818.7240804321139
 20
709.4615741474314
 30
0.0
 10
819.8625162186247
 20
702.2151492265222
 30
0.0
 10
820.5178146831404
 20
698.592857147621
 30
0.0
 10
821.8025362639876
 20
693.2137798295001
 30
0.0
 10
822.2750632827049
 20
691.4267405960278
 30
0.0
 10
823.212722147184
 20
688.8190350680454
 30
0.0
 10
823.5588649524136
 20
687.9558314456353
 30
0.0
 10
824.2570454960075
 20
686.7578545928113
 30
0.0
 10
824.5177291961863
 20
686.3685123632717
 30
0.0
 10
825.0413751611193
 20
685.9013367707325
 30
0.0
 10
825.2402691087896
 20
685.7680866906958
 30
0.0
 10
825.6876374920423
 20
685.6349506005446
 30
0.0
 10
825.9357284276839
 20
685.6486824216942
 30
0.0
 10
826.5916379146668
 20
685.9069870597601
 30
0.0
 10
826.9059891408126
 20
686.2765145396513
 30
0.0
 10
827.443166047882
 20
687.0298416639185
 30
0.0
 10
827.660126453776
 20
687.4296851518329
 30
0.0
 10
828.2543305423387
 20
688.6546126500558
 30
0.0
 10
828.5705996095271
 20
689.5082319983042
 30
0.0
 10
829.4339844416179
 20
692.0990376994386
 30
0.0
 10
829.8827628367997
 20
693.852593931741
 30
0.0
 10
831.1059165343802
 20
699.134736862365
 30
0.0
 10
831.7419140899456
 20
702.6909517675326
 30
0.0
 10
832.844179390245
 20
709.8072503119665
 30
0.0
 10
833.3040618510092
 20
713.3592191977766
 30
0.0
 10
833.7694301579263
 20
718.684120859677
 30
0.0
 10
833.8857686881884
 20
720.4587530410233
 30
0.0
 10
833.9772050024701
 20
724.0125260292142
 30
0.0
 10
833.9570037060544
 20
725.7914993429798
 30
0.0
 10
833.7813380437899
 20
727.5783720199913
 30
0.0
  0
ARC
  5
1199
330
A
100
AcDbEntity
  8
MODEL
100
AcDbCircle
 10
825.7620367331215
 20
702.2319738642434
 30
0.0
 40
26.58475301722289
100
AcDbArc
 50
72.44324319080016
 51
107.5599742204003
  0
LINE
  5
119A
330
A
100
AcDbEntity
  8
MODEL
100
AcDbLine
 10
804.4774619643215
 20
728.9500099330434
 30
0.0
 11
805.3948728847215
 21
729.1381151454434
 31
0.0
  0
ARC
  5
119B
330
A
100
AcDbEntity
  8
MODEL
100
AcDbCircle
 10
825.7620786055215
 20
699.7181164510433
 30
0.0
 40
29.96470182374136
100
AcDbArc
 50
73.56047190840005
 51
106.4424711206
  0
ARC
  5
119C
330
A
100
AcDbEntity
  8
MODEL
100
AcDbCircle
 10
846.8474731779215
 20
727.9714823918433
 30
0.0
 40
0.9999999999998124
100
AcDbArc
 50
5.292221378502975
 51
78.16512133840358
  0
ARC
  5
119D
330
A
100
AcDbEntity
  8
MODEL
100
AcDbCircle
 10
804.6825633423216
 20
727.9712691990434
 30
0.0
 40
1.000000000000015
100
AcDbArc
 50
101.8354336836982
 51
174.7019943616976
  0
LINE
  5
119E
330
A
100
AcDbEntity
  8
MODEL
100
AcDbLine
 10
846.1064629415216
 20
729.1440699274434
 30
0.0
 11
847.0525650747215
 21
728.9502251130434
 31
0.0
  0
ARC
  5
119F
330
A
100
AcDbEntity
  8
MODEL
100
AcDbCircle
 10
820.7079097407216
 20
979.5373644958435
 30
0.0
 40
250.8670428192522
100
AcDbArc
 50
266.5004644372
 51
269.0518759283
  0
ARC
  5
11A0
330
A
100
AcDbEntity
  8
MODEL
100
AcDbCircle
 10
831.3058919915215
 20
969.4373020782435
 30
0.0
 40
240.7486122865687
100
AcDbArc
 50
270.8605255956998
 51
273.5246115104999
  0
ARC
  5
11A1
330
A
100
AcDbEntity
  8
MODEL
100
AcDbCircle
 10
834.8430442019214
 20
736.1288176670433
 30
0.0
 40
7.41339129406846
100
AcDbArc
 50
256.9570743852005
 51
270.6068404167003
  0
ARC
  5
11A2
330
A
100
AcDbEntity
  8
MODEL
100
AcDbCircle
 10
825.7663970651215
 20
696.5644808670434
 30
0.0
 40
33.1787746872666
100
AcDbArc
 50
77.1063415037998
 51
102.9654988375999
  0
ARC
  5
11A3
330
A
100
AcDbEntity
  8
MODEL
100
AcDbCircle
 10
816.6487797379216
 20
736.0454679586434
 30
0.0
 40
7.341375764903828
100
AcDbArc
 50
269.2819673851998
 51
283.1765584418999
  0
LINE
  5
11A4
330
A
100
AcDbEntity
  8
MODEL
100
AcDbLine
 10
850.9318684307216
 20
683.6845296762434
 30
0.0
 11
800.5958549855216
 21
683.6845296798434
 31
0.0
  0
LINE
  5
11A5
330
A
100
AcDbEntity
  8
MODEL
100
AcDbLine
 10
802.4132609975215
 20
683.6845296798434
 30
0.0
 11
849.1132609975214
 21
683.6845296766434
 31
0.0
  0
SPLINE
  5
11A6
330
A
100
AcDbEntity
  8
MODEL
100
AcDbSpline
210
0.0
220
0.0
230
1.0
 70
     8
 71
     3
 72
    21
 73
    17
 74
     0
 42
0.000000001
 43
0.0000000001
 40
0.0
 40
0.0
 40
0.0
 40
0.0
 40
0.0855582815339325
 40
0.1757675904168908
 40
0.2627191924763664
 40
0.3464131350579304
 40
0.4268494712596192
 40
0.5040282609030449
 40
0.5779495717184351
 40
0.6486134808027403
 40
0.716020076429969
 40
0.7801694603209977
 40
0.8410617505202725
 40
0.8986970850850605
 40
0.9530756268790946
 40
1.0
 40
1.0
 40
1.0
 40
1.0
 10
851.4306532727135
 20
684.223444400719
 30
0.0
 10
851.3257041966071
 20
685.5993874277266
 30
0.0
 10
851.1438075750675
 20
687.9825719665033
 30
0.0
 10
850.8416721417886
 20
691.900872632335
 30
0.0
 10
850.5465759678971
 20
695.6938413017874
 30
0.0
 10
850.2578059140035
 20
699.369123911205
 30
0.0
 10
849.9778472821231
 20
702.8949031548782
 30
0.0
 10
849.7060735942796
 20
706.2792098696785
 30
0.0
 10
849.4426399271483
 20
709.5200632737426
 30
0.0
 10
849.1875214999775
 20
712.6178062768589
 30
0.0
 10
848.940679729267
 20
715.5728946260898
 30
0.0
 10
848.7022854015779
 20
718.3833351758286
 30
0.0
 10
848.4717456645383
 20
721.0561227740437
 30
0.0
 10
848.251110761186
 20
723.5671477123858
 30
0.0
 10
848.0389639989933
 20
725.936482586931
 30
0.0
 10
847.9124957415818
 20
727.3100692077365
 30
0.0
 10
847.8430254787932
 20
728.0637009209086
 30
0.0
  0
SPLINE
  5
11A7
330
A
100
AcDbEntity
  8
MODEL
100
AcDbSpline
210
0.0
220
0.0
230
1.0
 70
     8
 71
     3
 72
    21
 73
    17
 74
     0
 42
0.000000001
 43
0.0000000001
 40
0.0
 40
0.0
 40
0.0
 40
0.0
 40
0.0469259934490483
 40
0.1013035932343957
 40
0.1589378967443268
 40
0.2198290676903837
 40
0.2839772448487149
 40
0.3513825468785934
 40
0.4220450760308195
 40
0.4959649210393631
 40
0.5731421594029675
 40
0.6535768592048925
 40
0.7372690805786059
 40
0.8242188768989842
 40
0.9144262957584745
 40
1.0
 40
1.0
 40
1.0
 40
1.0
 10
803.6870207382092
 20
728.063588137553
 30
0.0
 10
803.617471245168
 20
727.309918971449
 30
0.0
 10
803.4908625941755
 20
725.9363032049602
 30
0.0
 10
803.2784911886772
 20
723.5669366340937
 30
0.0
 10
803.0576325428622
 20
721.0559146481497
 30
0.0
 10
802.8268659732146
 20
718.3831306033918
 30
0.0
 10
802.588243662409
 20
715.5726936526846
 30
0.0
 10
802.3411722006879
 20
712.6176091121382
 30
0.0
 10
802.0858225382392
 20
709.5198700801822
 30
0.0
 10
801.8221560545137
 20
706.2790208119898
 30
0.0
 10
801.5501479559168
 20
702.894718439387
 30
0.0
 10
801.2699534299659
 20
699.3689435597878
 30
0.0
 10
800.9809455540228
 20
695.6936660728462
 30
0.0
 10
800.6856113996855
 20
691.900700357761
 30
0.0
 10
800.3832181817231
 20
687.9821547065382
 30
0.0
 10
800.2011640021431
 20
685.5987456827233
 30
0.0
 10
800.0961130298595
 20
684.2225272400037
 30
0.0
  0
ARC
  5
11A8
330
A
100
AcDbEntity
  8
MODEL
100
AcDbCircle
 10
847.0967386855216
 20
728.0334844358433
 30
0.0
 40
0.7418125366543832
100
AcDbArc
 50
2.29420412190251
 51
22.46291872590398
  0
ARC
  5
11A9
330
A
100
AcDbEntity
  8
MODEL
100
AcDbCircle
 10
800.5945670995216
 20
684.1845296814433
 30
0.0
 40
0.5000000016019556
100
AcDbArc
 50
175.6631564015037
 51
270.000111944008
  0
ARC
  5
11AA
330
A
100
AcDbEntity
  8
MODEL
100
AcDbCircle
 10
850.9322694455216
 20
684.1845296766434
 30
0.0
 40
0.5000000001521188
100
AcDbArc
 50
270.0005493901052
 51
4.658161790198458
  0
LINE
  5
11AB
330
A
100
AcDbEntity
  8
MODEL
100
AcDbLine
 10
852.7624248747215
 20
660.1845296782434
 30
0.0
 11
798.7640971199214
 21
660.1845296782434
 31
0.0
  0
LINE
  5
11AC
330
A
100
AcDbEntity
  8
MODEL
100
AcDbLine
 10
800.4661027027216
 20
683.1845296782434
 30
0.0
 11
851.0604192919216
 21
683.1845296782434
 31
0.0
  0
ARC
  5
11AD
330
A
100
AcDbEntity
  8
MODEL
100
AcDbCircle
 10
948.2632609975215
 20
660.1845296782434
 30
0.0
 40
150.0
100
AcDbArc
 50
171.343999691
 51
179.8083749621
  0
ARC
  5
11AE
330
A
100
AcDbEntity
  8
MODEL
100
AcDbCircle
 10
703.2632609975215
 20
660.1845296782434
 30
0.0
 40
150.0
100
AcDbArc
 50
0.1916250378999892
 51
8.656000309000005
  0
ARC
  5
11AF
330
A
100
AcDbEntity
  8
MODEL
100
AcDbCircle
 10
798.7640971199214
 20
660.6845296782434
 30
0.0
 40
0.5000000000000084
100
AcDbArc
 50
179.8083749620995
 51
270.0
  0
ARC
  5
11B0
330
A
100
AcDbEntity
  8
MODEL
100
AcDbCircle
 10
852.7624248747215
 20
660.6845296782434
 30
0.0
 40
0.5000000000000004
100
AcDbArc
 50
270.0
 51
0.1916250379004575
  0
ARC
  5
11B1
330
A
100
AcDbEntity
  8
MODEL
100
AcDbCircle
 10
847.2632609975215
 20
683.6845296782434
 30
0.0
 40
0.5000000000000004
100
AcDbArc
 50
180.0
 51
270.0
  0
ARC
  5
11B2
330
A
100
AcDbEntity
  8
MODEL
100
AcDbCircle
 10
804.2632609975215
 20
683.6845296782434
 30
0.0
 40
0.5000000000000004
100
AcDbArc
 50
270.0
 51
0.0
  0
ARC
  5
11B3
330
A
100
AcDbEntity
  8
MODEL
100
AcDbCircle
 10
851.0604192919216
 20
682.6845296782434
 30
0.0
 40
0.5000000000000072
100
AcDbArc
 50
8.656000309004005
 51
90.0
  0
ARC
  5
11B4
330
A
100
AcDbEntity
  8
MODEL
100
AcDbCircle
 10
800.4661027027216
 20
682.6845296782434
 30
0.0
 40
0.5000000000000004
100
AcDbArc
 50
90.0
 51
171.343999690996
  0
LINE
  5
11B5
330
A
100
AcDbEntity
  8
MODEL
100
AcDbLine
 10
640.7632609975215
 20
630.1845296782434
 30
0.0
 11
640.7632609975215
 21
660.1845296782434
 31
0.0
  0
LINE
  5
11B6
330
A
100
AcDbEntity
  8
MODEL
100
AcDbLine
 10
610.7632609975215
 20
660.1845296782434
 30
0.0
 11
610.7632609975215
 21
630.1845296782434
 31
0.0
  0
LINE
  5
11B7
330
A
100
AcDbEntity
  8
MODEL
100
AcDbLine
 10
170.7126750565217
 20
660.1845296782434
 30
0.0
 11
115.7126750565217
 21
660.1845296782434
 31
0.0
  0
LINE
  5
11B8
330
A
100
AcDbEntity
  8
MODEL
100
AcDbLine
 10
169.2126750565217
 20
700.1845296782434
 30
0.0
 11
166.1047405621218
 21
700.1845296782434
 31
0.0
  0
ARC
  5
11B9
330
A
100
AcDbEntity
  8
MODEL
100
AcDbCircle
 10
170.7126750565217
 20
660.6845296782434
 30
0.0
 40
0.5000000000000004
100
AcDbArc
 50
270.0
 51
0.0
  0
ARC
  5
11BA
330
A
100
AcDbEntity
  8
MODEL
100
AcDbCircle
 10
115.7126750565217
 20
660.6845296782434
 30
0.0
 40
0.4999999999999972
100
AcDbArc
 50
180.0
 51
270.0
  0
LINE
  5
11BB
330
A
100
AcDbEntity
  8
MODEL
100
AcDbLine
 10
171.2126750565217
 20
660.6845296782434
 30
0.0
 11
171.2126750565217
 21
698.1845296782434
 31
0.0
  0
LINE
  5
11BC
330
A
100
AcDbEntity
  8
MODEL
100
AcDbLine
 10
115.2126750565217
 20
698.1845296782434
 30
0.0
 11
115.2126750565217
 21
660.6845296782434
 31
0.0
  0
ARC
  5
11BD
330
A
100
AcDbEntity
  8
MODEL
100
AcDbCircle
 10
169.2126750565217
 20
698.1845296782434
 30
0.0
 40
2.000000000000002
100
AcDbArc
 50
0.0
 51
90.0
  0
ARC
  5
11BE
330
A
100
AcDbEntity
  8
MODEL
100
AcDbCircle
 10
117.2126750565217
 20
698.1845296782434
 30
0.0
 40
2.000000000000002
100
AcDbArc
 50
90.0
 51
180.0
  0
LINE
  5
11BF
330
A
100
AcDbEntity
  8
MODEL
100
AcDbLine
 10
122.2126750565217
 20
630.1845296782434
 30
0.0
 11
164.2126750565217
 21
630.1845296782434
 31
0.0
  0
LINE
  5
11C0
330
A
100
AcDbEntity
  8
MODEL
100
AcDbLine
 10
122.2126750565217
 20
630.1845296782434
 30
0.0
 11
122.2126750565217
 21
628.1845296782434
 31
0.0
  0
LINE
  5
11C1
330
A
100
AcDbEntity
  8
MODEL
100
AcDbLine
 10
164.2126750565217
 20
628.1845296782434
 30
0.0
 11
164.2126750565217
 21
630.1845296782434
 31
0.0
  0
LINE
  5
11C2
330
A
100
AcDbEntity
  8
MODEL
100
AcDbLine
 10
118.2126750565217
 20
628.1845296782434
 30
0.0
 11
168.2126750565217
 21
628.1845296782434
 31
0.0
  0
LINE
  5
11C3
330
A
100
AcDbEntity
  8
MODEL
100
AcDbLine
 10
118.2126750565217
 20
627.1845296782434
 30
0.0
 11
168.2126750565217
 21
627.1845296782434
 31
0.0
  0
LINE
  5
11C4
330
A
100
AcDbEntity
  8
MODEL
100
AcDbLine
 10
118.2126750565217
 20
628.1845296782434
 30
0.0
 11
118.2126750565217
 21
627.1845296782434
 31
0.0
  0
LINE
  5
11C5
330
A
100
AcDbEntity
  8
MODEL
100
AcDbLine
 10
168.2126750565217
 20
627.1845296782434
 30
0.0
 11
168.2126750565217
 21
628.1845296782434
 31
0.0
  0
LINE
  5
11C6
330
A
100
AcDbEntity
  8
MODEL
100
AcDbLine
 10
156.2126750565217
 20
590.9845296782433
 30
0.0
 11
130.2126750565217
 21
590.9845296782433
 31
0.0
  0
LINE
  5
11C7
330
A
100
AcDbEntity
  8
MODEL
100
AcDbLine
 10
132.7351750565217
 20
571.1445296782434
 30
0.0
 11
153.6901750565216
 21
571.1445296782434
 31
0.0
  0
LINE
  5
11C8
330
A
100
AcDbEntity
  8
MODEL
100
AcDbLine
 10
152.5301750565218
 20
569.9845296782433
 30
0.0
 11
133.8951750565218
 21
569.9845296782433
 31
0.0
  0
LINE
  5
11C9
330
A
100
AcDbEntity
  8
MODEL
100
AcDbLine
 10
132.7351750565217
 20
588.9845296782433
 30
0.0
 11
132.7351750565217
 21
571.1445296782434
 31
0.0
  0
LINE
  5
11CA
330
A
100
AcDbEntity
  8
MODEL
100
AcDbLine
 10
153.6901750565216
 20
571.1445296782434
 30
0.0
 11
153.6901750565216
 21
588.9845296782433
 31
0.0
  0
ARC
  5
11CB
330
A
100
AcDbEntity
  8
MODEL
100
AcDbCircle
 10
156.2126750565217
 20
592.9845296782433
 30
0.0
 40
2.000000000000002
100
AcDbArc
 50
270.0
 51
0.0
  0
ARC
  5
11CC
330
A
100
AcDbEntity
  8
MODEL
100
AcDbCircle
 10
130.2126750565217
 20
592.9845296782433
 30
0.0
 40
2.000000000000002
100
AcDbArc
 50
180.0
 51
270.0
  0
ARC
  5
11CD
330
A
100
AcDbEntity
  8
MODEL
100
AcDbCircle
 10
155.6901750565216
 20
588.9845296782433
 30
0.0
 40
2.000000000000002
100
AcDbArc
 50
90.0
 51
180.0
  0
ARC
  5
11CE
330
A
100
AcDbEntity
  8
MODEL
100
AcDbCircle
 10
130.7351750565217
 20
588.9845296782433
 30
0.0
 40
2.0
100
AcDbArc
 50
0.0
 51
90.0
  0
LINE
  5
11CF
330
A
100
AcDbEntity
  8
MODEL
100
AcDbLine
 10
158.2126750565217
 20
592.9845296782433
 30
0.0
 11
158.2126750565217
 21
621.1845296782434
 31
0.0
  0
LINE
  5
11D0
330
A
100
AcDbEntity
  8
MODEL
100
AcDbLine
 10
158.2126750565217
 20
630.1845296782434
 30
0.0
 11
158.2126750565217
 21
660.1845296782434
 31
0.0
  0
LINE
  5
11D1
330
A
100
AcDbEntity
  8
MODEL
100
AcDbLine
 10
128.2126750565217
 20
660.1845296782434
 30
0.0
 11
128.2126750565217
 21
630.1845296782434
 31
0.0
  0
LINE
  5
11D2
330
A
100
AcDbEntity
  8
MODEL
100
AcDbLine
 10
128.2126750565217
 20
621.1845296782434
 30
0.0
 11
128.2126750565217
 21
592.9845296782433
 31
0.0
  0
LINE
  5
11D3
330
A
100
AcDbEntity
  8
MODEL
100
AcDbLine
 10
132.7351750565217
 20
571.1445296782434
 30
0.0
 11
133.8951750565218
 21
569.9845296782433
 31
0.0
  0
LINE
  5
11D4
330
A
100
AcDbEntity
  8
MODEL
100
AcDbLine
 10
152.5301750565218
 20
569.9845296782433
 30
0.0
 11
153.6901750565216
 21
571.1445296782434
 31
0.0
  0
LINE
  5
11D5
330
A
100
AcDbEntity
  8
MODEL
100
AcDbLine
 10
133.8971750565217
 20
569.9845296782433
 30
0.0
 11
133.8971750565217
 21
579.9845296782433
 31
0.0
  0
LINE
  5
11D6
330
A
100
AcDbEntity
  8
MODEL
100
AcDbLine
 10
152.5281750565218
 20
569.9845296782433
 30
0.0
 11
152.5281750565218
 21
579.9845296782433
 31
0.0
  0
LINE
  5
11D7
330
A
100
AcDbEntity
  8
MODEL
100
AcDbLine
 10
153.6901750565216
 20
579.9845296782433
 30
0.0
 11
132.7351750565217
 21
579.9845296782433
 31
0.0
  0
LINE
  5
11D8
330
A
100
AcDbEntity
  8
MODEL
100
AcDbLine
 10
157.2926750565218
 20
660.1845296782434
 30
0.0
 11
157.2926750565218
 21
630.1845296782434
 31
0.0
  0
LINE
  5
11D9
330
A
100
AcDbEntity
  8
MODEL
100
AcDbLine
 10
157.2926750565218
 20
621.1845296782434
 30
0.0
 11
157.2926750565218
 21
615.9845296782433
 31
0.0
  0
LINE
  5
11DA
330
A
100
AcDbEntity
  8
MODEL
100
AcDbLine
 10
129.1326750565217
 20
660.1845296782434
 30
0.0
 11
129.1326750565217
 21
630.1845296782434
 31
0.0
  0
LINE
  5
11DB
330
A
100
AcDbEntity
  8
MODEL
100
AcDbLine
 10
129.1326750565217
 20
621.1845296782434
 30
0.0
 11
129.1326750565217
 21
615.9845296782433
 31
0.0
  0
LINE
  5
11DC
330
A
100
AcDbEntity
  8
MODEL
100
AcDbLine
 10
128.2126750565217
 20
615.9845296782433
 30
0.0
 11
158.2126750565217
 21
615.9845296782433
 31
0.0
  0
LINE
  5
11DD
330
A
100
AcDbEntity
  8
MODEL
100
AcDbLine
 10
158.2126750565217
 20
660.1845296782434
 30
0.0
 11
128.2126750565217
 21
660.1845296782434
 31
0.0
  0
LINE
  5
11DE
330
A
100
AcDbEntity
  8
MODEL
100
AcDbLine
 10
360.3626750565218
 20
797.7845296782434
 30
0.0
 11
386.0626750565218
 21
797.7845296782434
 31
0.0
  0
LINE
  5
11DF
330
A
100
AcDbEntity
  8
MODEL
100
AcDbLine
 10
362.6624605897218
 20
809.4845296782433
 30
0.0
 11
387.0126750565219
 21
809.4845296782433
 31
0.0
  0
LINE
  5
11E0
330
A
100
AcDbEntity
  8
MODEL
100
AcDbLine
 10
360.2126750565217
 20
798.0443372994433
 30
0.0
 11
360.2126750565217
 21
797.8711323594433
 31
0.0
  0
LINE
  5
11E1
330
A
100
AcDbEntity
  8
MODEL
100
AcDbLine
 10
360.2126750565217
 20
802.4845296782433
 30
0.0
 11
359.4126750565217
 21
803.2845296782434
 31
0.0
  0
LINE
  5
11E2
330
A
100
AcDbEntity
  8
MODEL
100
AcDbLine
 10
360.2126750565217
 20
798.0443372994433
 30
0.0
 11
360.2126750565217
 21
798.9103627030433
 31
0.0
  0
LINE
  5
11E3
330
A
100
AcDbEntity
  8
MODEL
100
AcDbLine
 10
360.2126750565217
 20
798.9103627030433
 30
0.0
 11
360.2126750565217
 21
802.4845296782433
 31
0.0
  0
LINE
  5
11E4
330
A
100
AcDbEntity
  8
MODEL
100
AcDbLine
 10
386.2126750565217
 20
797.8711323594433
 30
0.0
 11
386.2126750565217
 21
798.0443372994433
 31
0.0
  0
LINE
  5
11E5
330
A
100
AcDbEntity
  8
MODEL
100
AcDbLine
 10
386.2126750565217
 20
802.4845296782433
 30
0.0
 11
387.0126750565219
 21
803.2845296782434
 31
0.0
  0
LINE
  5
11E6
330
A
100
AcDbEntity
  8
MODEL
100
AcDbLine
 10
386.2126750565217
 20
798.0443372994433
 30
0.0
 11
386.2126750565217
 21
798.9103627030433
 31
0.0
  0
LINE
  5
11E7
330
A
100
AcDbEntity
  8
MODEL
100
AcDbLine
 10
386.2126750565217
 20
798.9103627030433
 30
0.0
 11
386.2126750565217
 21
802.4845296782433
 31
0.0
  0
LINE
  5
11E8
330
A
100
AcDbEntity
  8
MODEL
100
AcDbLine
 10
360.2126750565217
 20
797.8711322186434
 30
0.0
 11
360.3626750565218
 21
797.7845296782434
 31
0.0
  0
LINE
  5
11E9
330
A
100
AcDbEntity
  8
MODEL
100
AcDbLine
 10
386.0626750565218
 20
797.7845296782434
 30
0.0
 11
386.2126750565217
 21
797.8711322186434
 31
0.0
  0
LINE
  5
11EA
330
A
100
AcDbEntity
  8
MODEL
100
AcDbLine
 10
387.0126750565219
 20
803.2845296782434
 30
0.0
 11
387.0126750565219
 21
809.4845296782433
 31
0.0
  0
LINE
  5
11EB
330
A
100
AcDbEntity
  8
MODEL
100
AcDbLine
 10
359.4126750565217
 20
808.5454803914433
 30
0.0
 11
359.4126750565217
 21
803.2845296782434
 31
0.0
  0
LINE
  5
11EC
330
A
100
AcDbEntity
  8
MODEL
100
AcDbLine
 10
386.3626750565218
 20
809.4845296782433
 30
0.0
 11
386.3626750565218
 21
810.3121447070433
 31
0.0
  0
SPLINE
  5
11ED
330
A
100
AcDbEntity
  8
MODEL
100
AcDbSpline
210
0.0
220
0.0
230
1.0
 70
     8
 71
     3
 72
    22
 73
    18
 74
     0
 42
0.000000001
 43
0.0000000001
 40
0.0
 40
0.0
 40
0.0
 40
0.0
 40
0.0152199366467637
 40
0.1486396462645077
 40
0.2837948867016734
 40
0.4230336135367715
 40
0.4953710074682026
 40
0.5696063097779699
 40
0.6452830197772885
 40
0.6834171470224233
 40
0.7215644222535674
 40
0.7964624643870007
 40
0.8682234922363973
 40
0.9030902683911964
 40
0.9361155452216136
 40
0.9687685551846502
 40
1.0
 40
1.0
 40
1.0
 40
1.0
 10
132.0412986808547
 20
729.9987443884762
 30
0.0
 10
132.0832664170005
 20
730.4114181970706
 30
0.0
 10
132.5175216327425
 20
734.4392996906573
 30
0.0
 10
133.7880239260166
 20
742.0820541795854
 30
0.0
 10
136.7211241485863
 20
752.8075981915714
 30
0.0
 10
140.1255103066226
 20
761.5947919229882
 30
0.0
 10
143.56093406376
 20
768.4638047908942
 30
0.0
 10
146.6185123941734
 20
773.5407653538066
 30
0.0
 10
149.5759169620403
 20
777.5481239191158
 30
0.0
 10
152.2040014312083
 20
780.5762596332834
 30
0.0
 10
154.9788017313597
 20
783.4420369467166
 30
0.0
 10
158.655438314483
 20
786.6720702983573
 30
0.0
 10
162.5997309527284
 20
789.4986486820529
 30
0.0
 10
165.7959351581908
 20
791.4816581594738
 30
0.0
 10
168.1672153813515
 20
792.8185369665126
 30
0.0
 10
170.5086889480183
 20
794.0278669639217
 30
0.0
 10
172.0934050119636
 20
794.7492277942146
 30
0.0
 10
172.8681313905604
 20
795.101882302129
 30
0.0
  0
SPLINE
  5
11EE
330
A
100
AcDbEntity
  8
MODEL
100
AcDbSpline
210
0.0
220
0.0
230
1.0
 70
     8
 71
     3
 72
    35
 73
    31
 74
     0
 42
0.000000001
 43
0.0000000001
 40
0.0
 40
0.0
 40
0.0
 40
0.0
 40
0.0109242816881071
 40
0.0219749521870423
 40
0.0331516429584271
 40
0.0444539115263011
 40
0.0558812446376657
 40
0.0674330616119514
 40
0.0791087178841824
 40
0.0909075087462398
 40
0.1028286732900498
 40
0.1148713985557543
 40
0.127034823886948
 40
0.1577962091585288
 40
0.1903130394666876
 40
0.2205218117609051
 40
0.2534528186469561
 40
0.3164528885517685
 40
0.3793157963005082
 40
0.4420388406211985
 40
0.5046220172395964
 40
0.5696776429592957
 40
0.6293367141262842
 40
0.6932826674976633
 40
0.7534983527135725
 40
0.8171276850856668
 40
0.8771024242543722
 40
0.9192685364318401
 40
0.9602266799586309
 40
1.0
 40
1.0
 40
1.0
 40
1.0
 10
172.8681313905604
 20
795.101882302129
 30
0.0
 10
173.2372603614508
 20
795.264016569481
 30
0.0
 10
173.9797889521403
 20
795.590160921545
 30
0.0
 10
175.1037248678131
 20
796.0735249982857
 30
0.0
 10
176.2431398600611
 20
796.5560378016194
 30
0.0
 10
177.3982516107483
 20
797.0369228264766
 30
0.0
 10
178.5689133668916
 20
797.5162110264957
 30
0.0
 10
179.7550672888822
 20
797.9937145403454
 30
0.0
 10
180.9566213332876
 20
798.469306690305
 30
0.0
 10
182.1734832484942
 20
798.9428465391845
 30
0.0
 10
183.405551763238
 20
799.4141984727141
 30
0.0
 10
184.6527196178765
 20
799.8832327494346
 30
0.0
 10
186.5540253290753
 20
800.5860769634894
 30
0.0
 10
189.1722842609877
 20
801.5250783443994
 30
0.0
 10
192.431124888154
 20
802.6445814453693
 30
0.0
 10
195.7786826930028
 20
803.7478064830498
 30
0.0
 10
200.2087732624452
 20
805.1501574446173
 30
0.0
 10
205.813045079429
 20
806.8222171434821
 30
0.0
 10
212.5038938361108
 20
808.6814405629542
 30
0.0
 10
219.2092308987214
 20
810.4291753608138
 30
0.0
 10
226.017374409819
 20
812.1042719544422
 30
0.0
 10
232.7365175527798
 20
813.6741785744733
 30
0.0
 10
239.5207831156545
 20
815.192611631649
 30
0.0
 10
246.1437166001508
 20
816.6235563226454
 30
0.0
 10
252.919882819212
 20
818.0472440109718
 30
0.0
 10
259.5603465211996
 20
819.413991949619
 30
0.0
 10
265.5534646902199
 20
820.6317763789142
 30
0.0
 10
270.7286478683354
 20
821.6796228188949
 30
0.0
 10
275.1737385178344
 20
822.5797464717925
 30
0.0
 10
278.0931001320139
 20
823.1750465448949
 30
0.0
 10
279.5313585094209
 20
823.4683282380746
 30
0.0
  0
ARC
  5
11EF
330
A
100
AcDbEntity
  8
MODEL
100
AcDbCircle
 10
363.5512571369218
 20
893.8041660798434
 30
0.0
 40
68.39032421712352
100
AcDbArc
 50
291.5158929124
 51
292.7249419204999
  0
ARC
  5
11F0
330
A
100
AcDbEntity
  8
MODEL
100
AcDbCircle
 10
382.4146990765216
 20
857.0482425062434
 30
0.0
 40
27.57909069428287
100
AcDbArc
 50
266.5862020366005
 51
283.0328365974
  0
SPLINE
  5
11F1
330
A
100
AcDbEntity
  8
MODEL
100
AcDbSpline
210
0.0
220
0.0
230
1.0
 70
     8
 71
     3
 72
    33
 73
    29
 74
     0
 42
0.000000001
 43
0.0000000001
 40
0.0
 40
0.0
 40
0.0
 40
0.0
 40
0.0149143980392669
 40
0.0300851285807164
 40
0.0455123697765431
 40
0.0611962577299845
 40
0.0771368842168045
 40
0.0933342944310691
 40
0.1097884847609239
 40
0.1264994005996151
 40
0.1434669341964064
 40
0.1606909225514776
 40
0.1781711453580715
 40
0.1959073229943789
 40
0.213899114566679
 40
0.2321461160042238
 40
0.2506478582051589
 40
0.3094143540079502
 40
0.3761385351177437
 40
0.4210654969599704
 40
0.5015727280433062
 40
0.5719897679519003
 40
0.6267532556815321
 40
0.7515837446443057
 40
0.8160299855865569
 40
0.8760903803250082
 40
0.9391041769032197
 40
1.0
 40
1.0
 40
1.0
 40
1.0
 10
279.5313585094209
 20
823.4683282380746
 30
0.0
 10
280.0266190080067
 20
823.5686378900301
 30
0.0
 10
281.0256520056291
 20
823.7709812074762
 30
0.0
 10
282.5393550954732
 20
824.0651356304646
 30
0.0
 10
284.0803380596603
 20
824.3553888137893
 30
0.0
 10
285.6487907110004
 20
824.6405480165654
 30
0.0
 10
287.244665778418
 20
824.920545414819
 30
0.0
 10
288.8679703519447
 20
825.1950119946093
 30
0.0
 10
290.5186856405039
 20
825.4636699910486
 30
0.0
 10
292.1967888390313
 20
825.7262258592026
 30
0.0
 10
293.9022469821521
 20
825.9824003734174
 30
0.0
 10
295.6350185188455
 20
826.2319211049834
 30
0.0
 10
297.3950527542177
 20
826.4745251839457
 30
0.0
 10
299.1822900425252
 20
826.7099593856985
 30
0.0
 10
300.9966612483129
 20
826.937980396335
 30
0.0
 10
302.8380895195421
 20
827.1583571372038
 30
0.0
 10
306.053315016977
 20
827.5240503649769
 30
0.0
 10
310.9068337353681
 20
828.0170642929774
 30
0.0
 10
316.6605275814113
 20
828.4974181118881
 30
0.0
 10
323.155100290681
 20
828.9442267211334
 30
0.0
 10
329.7809358115062
 20
829.2992201689106
 30
0.0
 10
336.7444742755747
 20
829.5598385536382
 30
0.0
 10
345.2116612054983
 20
829.7769786275613
 30
0.0
 10
353.4797633868734
 20
829.8599405643322
 30
0.0
 10
361.9274242781858
 20
829.8311161309686
 30
0.0
 10
368.2804568746699
 20
829.7588780261261
 30
0.0
 10
374.5126149554576
 20
829.6480824087414
 30
0.0
 10
378.7097543087225
 20
829.5609245056054
 30
0.0
 10
380.7724533650144
 20
829.5180904442566
 30
0.0
  0
ARC
  5
11F2
330
A
100
AcDbEntity
  8
MODEL
100
AcDbCircle
 10
479.9522058633218
 20
818.3480641974434
 30
0.0
 40
87.02576654071696
100
AcDbArc
 50
175.1192155645
 51
184.5408600583
  0
SPLINE
  5
11F3
330
A
100
AcDbEntity
  8
MODEL
100
AcDbSpline
210
0.0
220
0.0
230
1.0
 70
    12
 71
     2
 72
     6
 73
     3
 74
     0
 42
0.000000001
 43
0.0000000001
 40
0.0
 40
0.0
 40
0.0
 40
1.0
 40
1.0
 40
1.0
 10
393.2420045994761
 20
825.7524574036678
 30
0.0
 41
1.0
 10
392.655928609145
 20
829.943130108268
 30
0.0
 41
0.7624547534153788
 10
388.6340442482772
 20
830.1795620554798
 30
0.0
 41
1.0
  0
SPLINE
  5
11F4
330
A
100
AcDbEntity
  8
MODEL
100
AcDbSpline
210
0.0
220
0.0
230
1.0
 70
     8
 71
     3
 72
    22
 73
    18
 74
     0
 42
0.000000001
 43
0.0000000001
 40
0.0
 40
0.0
 40
0.0
 40
0.0
 40
0.0204158503321544
 40
0.0407264600692507
 40
0.0610373462632111
 40
0.0910964775897962
 40
0.1224153996395647
 40
0.1879905468529054
 40
0.2603532365929117
 40
0.2991264537007624
 40
0.3388646240203076
 40
0.4196281038661552
 40
0.5001429476169
 40
0.5791635854963438
 40
0.7324959470539373
 40
0.8822369742145129
 40
1.0
 40
1.0
 40
1.0
 40
1.0
 10
188.0850097581963
 20
760.6243199072081
 30
0.0
 10
187.7854718733772
 20
760.490806549803
 30
0.0
 10
187.1879401758556
 20
760.224468075989
 30
0.0
 10
186.3018532998635
 20
759.8116006717937
 30
0.0
 10
185.28813251718
 20
759.3236646784086
 30
0.0
 10
184.1388096874216
 20
758.7469590348794
 30
0.0
 10
182.4015673954723
 20
757.8348169516346
 30
0.0
 10
180.1876191681024
 20
756.6011461074557
 30
0.0
 10
177.9743758361242
 20
755.3037332088034
 30
0.0
 10
176.1017022489864
 20
754.1688435741014
 30
0.0
 10
174.130442013136
 20
752.9444473317194
 30
0.0
 10
171.6443947691157
 20
751.325186442863
 30
0.0
 10
168.7008748953413
 20
749.1849520266358
 30
0.0
 10
165.0055633726827
 20
746.0444081915145
 30
0.0
 10
160.9600023888745
 20
741.4640585445334
 30
0.0
 10
157.6504589138392
 20
735.5300480564714
 30
0.0
 10
156.3058715607099
 20
731.4239556818313
 30
0.0
 10
155.8670402387436
 20
729.5814517862993
 30
0.0
  0
SPLINE
  5
11F5
330
A
100
AcDbEntity
  8
MODEL
100
AcDbSpline
210
0.0
220
0.0
230
1.0
 70
     8
 71
     3
 72
    23
 73
    19
 74
     0
 42
0.000000001
 43
0.0000000001
 40
0.0
 40
0.0
 40
0.0
 40
0.0
 40
0.0405065061046293
 40
0.0822211039024316
 40
0.1251600419028633
 40
0.1859860825050101
 40
0.2497624614347612
 40
0.3681388657177865
 40
0.4980838220024915
 40
0.6224262769643579
 40
0.6535993151952766
 40
0.6848194612270153
 40
0.7474155238811595
 40
0.8102345854033316
 40
0.8732664721534799
 40
0.9365107435803237
 40
0.9688190984706976
 40
1.0
 40
1.0
 40
1.0
 40
1.0
 10
284.7699931636928
 20
797.8424743227578
 30
0.0
 10
283.3931192115826
 20
797.5528083258846
 30
0.0
 10
280.5983065465607
 20
796.964837149985
 30
0.0
 10
276.3675458592381
 20
795.9657228178149
 30
0.0
 10
271.472873687437
 20
794.7177477491617
 30
0.0
 10
265.872583971217
 20
793.1511561114386
 30
0.0
 10
257.8174555221137
 20
790.6718356145313
 30
0.0
 10
247.6002610832738
 20
787.1185909633114
 30
0.0
 10
235.613110578415
 20
782.361410641557
 30
0.0
 10
226.5808393058078
 20
778.4032703566157
 30
0.0
 10
220.7141635622843
 20
775.7327141540769
 30
0.0
 10
216.7962001922028
 20
773.9271109875153
 30
0.0
 10
211.8984626057588
 20
771.6374810135802
 30
0.0
 10
206.0112247588736
 20
768.8617236318394
 30
0.0
 10
200.0898127656028
 20
766.0809014772145
 30
0.0
 10
195.0980657171115
 20
763.7747324626702
 30
0.0
 10
191.0906804395127
 20
761.9582259892521
 30
0.0
 10
189.0749681956977
 20
761.0636599839389
 30
0.0
 10
188.0850097597327
 20
760.6243199113645
 30
0.0
  0
ARC
  5
11F6
330
A
100
AcDbEntity
  8
MODEL
100
AcDbCircle
 10
363.1011268273219
 20
742.0397847690434
 30
0.0
 40
74.54609659975245
100
AcDbArc
 50
66.07185782410008
 51
66.96998017670012
  0
ARC
  5
11F7
330
A
100
AcDbEntity
  8
MODEL
100
AcDbCircle
 10
382.1486405817218
 20
773.2664038434434
 30
0.0
 40
38.72283760608541
100
AcDbArc
 50
74.856406614
 51
92.03017273550023
  0
SPLINE
  5
11F8
330
A
100
AcDbEntity
  8
MODEL
100
AcDbSpline
210
0.0
220
0.0
230
1.0
 70
     8
 71
     3
 72
    27
 73
    23
 74
     0
 42
0.000000001
 43
0.0000000001
 40
0.0
 40
0.0
 40
0.0
 40
0.0
 40
0.0172608969986063
 40
0.0347495068785564
 40
0.0524677627228543
 40
0.0704177697351131
 40
0.088601809359603
 40
0.1070223431546084
 40
0.1256820163737082
 40
0.1858559270010224
 40
0.2509517678818663
 40
0.3094619845726528
 40
0.3760067185415594
 40
0.4254461720510291
 40
0.5007992144299409
 40
0.6254197741929021
 40
0.6909082101192555
 40
0.7500598843505674
 40
0.8174082702263334
 40
0.8815148625773638
 40
0.9423799909690744
 40
1.0
 40
1.0
 40
1.0
 40
1.0
 10
380.7768536768658
 20
811.9649355073938
 30
0.0
 10
380.2180092759154
 20
811.9473383440753
 30
0.0
 10
379.0929479678939
 20
811.9119118683934
 30
0.0
 10
377.3946623253535
 20
811.8456534104394
 30
0.0
 10
375.6744658307282
 20
811.7691478808341
 30
0.0
 10
373.9322515176
 20
811.6812560980305
 30
0.0
 10
372.1678621307801
 20
811.5820423498718
 30
0.0
 10
370.3811304551621
 20
811.4712599403309
 30
0.0
 10
367.2380140781781
 20
811.2584315495058
 30
0.0
 10
362.5902407010419
 20
810.888819938667
 30
0.0
 10
356.6649375756861
 20
810.313300943121
 30
0.0
 10
350.5449373851511
 20
809.6188032179306
 30
0.0
 10
344.9392821025344
 20
808.8959240202565
 30
0.0
 10
338.8037747412757
 20
808.0226141008453
 30
0.0
 10
330.8215023858854
 20
806.779297282865
 30
0.0
 10
322.3509714398504
 20
805.3005486092142
 30
0.0
 10
314.4158680110486
 20
803.8121912917621
 30
0.0
 10
308.3115705613925
 20
802.6255020115766
 30
0.0
 10
302.2571495662276
 20
801.4165251799482
 30
0.0
 10
296.1524159545443
 20
800.1755923050022
 30
0.0
 10
290.3584787950781
 20
798.9871624944793
 30
0.0
 10
286.5984950504023
 20
798.2170059257262
 30
0.0
 10
284.7699931636928
 20
797.8424743227578
 30
0.0
  0
SPLINE
  5
11F9
330
A
100
AcDbEntity
  8
MODEL
100
AcDbSpline
210
0.0
220
0.0
230
1.0
 70
    12
 71
     2
 72
     6
 73
     3
 74
     0
 42
0.000000001
 43
0.0000000001
 40
0.0
 40
0.0
 40
0.0
 40
1.0
 40
1.0
 40
1.0
 10
392.2645563889616
 20
810.6445578861353
 30
0.0
 41
1.0
 10
393.0372110934973
 20
810.6753274588895
 30
0.0
 41
0.7805461256590821
 10
393.1996020893769
 20
811.4582325298429
 30
0.0
 41
1.0
  0
ARC
  5
11FA
330
A
100
AcDbEntity
  8
MODEL
100
AcDbCircle
 10
376.4843618249217
 20
754.8778798698434
 30
0.0
 40
56.32002311338756
100
AcDbArc
 50
78.70765498810007
 51
108.1796293911
  0
SPLINE
  5
11FB
330
A
100
AcDbEntity
  8
MODEL
100
AcDbSpline
210
0.0
220
0.0
230
1.0
 70
     8
 71
     3
 72
    28
 73
    24
 74
     0
 42
0.000000001
 43
0.0000000001
 40
0.0
 40
0.0
 40
0.0
 40
0.0
 40
0.0635481170196762
 40
0.1239928284554185
 40
0.1805745125231347
 40
0.2326245227771381
 40
0.2796675269165048
 40
0.3216364049738711
 40
0.3585683201235903
 40
0.3904681717961764
 40
0.4173895680116274
 40
0.4452706216128763
 40
0.4780111439660886
 40
0.5156269763288505
 40
0.5581911676408945
 40
0.6058547092425582
 40
0.6588183253233896
 40
0.7071734762553645
 40
0.7595018657306346
 40
0.8157643257034337
 40
0.8754334958423752
 40
0.9374343294175497
 40
1.0
 40
1.0
 40
1.0
 40
1.0
 10
172.4818526735164
 20
795.977091280213
 30
0.0
 10
170.4290018185427
 20
795.0349366210789
 30
0.0
 10
167.0615140324794
 20
793.4722746574862
 30
0.0
 10
161.8457480259133
 20
790.6059151328838
 30
0.0
 10
157.2258680847328
 20
787.7369552407617
 30
0.0
 10
153.0961519562013
 20
784.8489087102773
 30
0.0
 10
149.5119397061828
 20
782.0318182344997
 30
0.0
 10
146.4452405614081
 20
779.3536597601358
 30
0.0
 10
143.8595916077056
 20
776.875749244039
 30
0.0
 10
141.7146533589896
 20
774.6448489319325
 30
0.0
 10
139.8453271340932
 20
772.5574996570174
 30
0.0
 10
138.029279725308
 20
770.388005875713
 30
0.0
 10
136.083812577602
 20
767.8786535077305
 30
0.0
 10
133.9777201562422
 20
764.8974172389378
 30
0.0
 10
131.7688833446934
 20
761.4042244568742
 30
0.0
 10
129.5233802090677
 20
757.3555643492625
 30
0.0
 10
127.4592968192933
 20
753.0026379906253
 30
0.0
 10
125.6178965253664
 20
748.3884967469546
 30
0.0
 10
124.0319314142109
 20
743.5698458861898
 30
0.0
 10
122.6665977461082
 20
738.295452342627
 30
0.0
 10
121.6011195379708
 20
732.6722256223718
 30
0.0
 10
120.866436565263
 20
726.6397840551906
 30
0.0
 10
120.7630930877326
 20
722.9077663663281
 30
0.0
 10
120.7126750563807
 20
720.6845296781754
 30
0.0
  0
SPLINE
  5
11FC
330
A
100
AcDbEntity
  8
MODEL
100
AcDbSpline
210
0.0
220
0.0
230
1.0
 70
     8
 71
     3
 72
    24
 73
    20
 74
     0
 42
0.000000001
 43
0.0000000001
 40
0.0
 40
0.0
 40
0.0
 40
0.0
 40
0.071569272051976
 40
0.1340648967486472
 40
0.1895349732760457
 40
0.2395710515456551
 40
0.2851598101371895
 40
0.3359607063769443
 40
0.3795681489638315
 40
0.4157793904353819
 40
0.4493882211306068
 40
0.5060222653143482
 40
0.5766998267509069
 40
0.6607779900298775
 40
0.7319546791390187
 40
0.8097888050783965
 40
0.86647895750391
 40
0.9289478113131496
 40
1.0
 40
1.0
 40
1.0
 40
1.0
 10
165.7126750563805
 20
720.6845296781754
 30
0.0
 10
165.7308273162926
 20
721.9330583625069
 30
0.0
 10
165.7707698427914
 20
723.9011060383466
 30
0.0
 10
166.0842356660471
 20
726.9503353551702
 30
0.0
 10
166.5331567228297
 20
729.5659958517833
 30
0.0
 10
167.0821845967441
 20
731.9029276989918
 30
0.0
 10
167.7238412359836
 20
734.1350104996021
 30
0.0
 10
168.4368942030283
 20
736.2390627792262
 30
0.0
 10
169.1908892820297
 20
738.169310775001
 30
0.0
 10
169.9091873514299
 20
739.8191525918342
 30
0.0
 10
170.7708282925823
 20
741.6306347418038
 30
0.0
 10
171.9659228301532
 20
743.8873615688858
 30
0.0
 10
173.7124003276151
 20
746.7521227047781
 30
0.0
 10
175.8081042417793
 20
749.6653334283561
 30
0.0
 10
178.2122964884463
 20
752.4765290995118
 30
0.0
 10
180.5533080816701
 20
754.765528475353
 30
0.0
 10
182.9927688255589
 20
756.7014599436234
 30
0.0
 10
185.5796704086601
 20
758.3726197347394
 30
0.0
 10
187.3493396874587
 20
759.2219144644006
 30
0.0
 10
188.4712884767773
 20
759.7491109332806
 30
0.0
  0
SPLINE
  5
11FD
330
A
100
AcDbEntity
  8
MODEL
100
AcDbSpline
210
0.0
220
0.0
230
1.0
 70
     8
 71
     3
 72
    19
 73
    15
 74
     0
 42
0.000000001
 43
0.0000000001
 40
0.0
 40
0.0
 40
0.0
 40
0.0
 40
0.0606741375156996
 40
0.1276313599990797
 40
0.2010554066994095
 40
0.281178677235911
 40
0.3682439370706743
 40
0.4624411214519523
 40
0.5414982614398122
 40
0.6250038447006337
 40
0.7129224618105708
 40
0.8050594209838678
 40
0.9009921896803644
 40
1.0
 40
1.0
 40
1.0
 40
1.0
 10
279.2183690031247
 20
824.999380486361
 30
0.0
 10
276.8019699066572
 20
824.5077592044878
 30
0.0
 10
272.5133648347287
 20
823.6347388410697
 30
0.0
 10
265.0840988729867
 20
822.137349407119
 30
0.0
 10
257.1455147313043
 20
820.5244097137978
 30
0.0
 10
248.4277870003987
 20
818.712275438945
 30
0.0
 10
238.9938057411205
 20
816.6658736861385
 30
0.0
 10
229.6214685328014
 20
814.4994272363982
 30
0.0
 10
220.416307983724
 20
812.2019254773257
 30
0.0
 10
211.484938713756
 20
809.7870351239442
 30
0.0
 10
202.1340122188242
 20
807.0190552082586
 30
0.0
 10
192.4922387364797
 20
803.8598119876037
 30
0.0
 10
182.3290107592861
 20
800.1580552718806
 30
0.0
 10
176.1832220703379
 20
797.5554553354793
 30
0.0
 10
172.4818526735164
 20
795.977091280213
 30
0.0
  0
SPLINE
  5
11FE
330
A
100
AcDbEntity
  8
MODEL
100
AcDbSpline
210
0.0
220
0.0
230
1.0
 70
     8
 71
     3
 72
    15
 73
    11
 74
     0
 42
0.000000001
 43
0.0000000001
 40
0.0
 40
0.0
 40
0.0
 40
0.0
 40
0.1414265165816416
 40
0.2831759115611645
 40
0.423944858221605
 40
0.5635148788177554
 40
0.6724879098964078
 40
0.7810664876385641
 40
0.8898794319078867
 40
1.0
 40
1.0
 40
1.0
 40
1.0
 10
188.4712884767769
 20
759.7491109332806
 30
0.0
 10
193.3701715932307
 20
761.9292022275025
 30
0.0
 10
201.6387838541596
 20
765.5983318959321
 30
0.0
 10
215.2538574754935
 20
771.6495102461166
 30
0.0
 10
228.56084917972
 20
777.3439033932817
 30
0.0
 10
241.030525147361
 20
782.3424478449369
 30
0.0
 10
252.6047305569607
 20
786.574746508221
 30
0.0
 10
263.2430599504933
 20
790.0563220391126
 30
0.0
 10
274.3184298094227
 20
793.2023023489002
 30
0.0
 10
281.1480623893081
 20
794.7158742977674
 30
0.0
 10
285.2269342898371
 20
795.6072532548162
 30
0.0
  0
LINE
  5
11FF
330
A
100
AcDbEntity
  8
MODEL
100
AcDbLine
 10
165.7126750565217
 20
702.1919934906433
 30
0.0
 11
165.7126750565217
 21
720.6845296782434
 31
0.0
  0
LINE
  5
1200
330
A
100
AcDbEntity
  8
MODEL
100
AcDbLine
 10
120.7126750565217
 20
720.6845296782434
 30
0.0
 11
120.7126750565217
 21
707.1553640258434
 31
0.0
  0
SPLINE
  5
1201
330
A
100
AcDbEntity
  8
MODEL
100
AcDbSpline
210
0.0
220
0.0
230
1.0
 70
     8
 71
     3
 72
    26
 73
    22
 74
     0
 42
0.000000001
 43
0.0000000001
 40
0.0
 40
0.0
 40
0.0
 40
0.0
 40
0.0680983407865729
 40
0.136515473172187
 40
0.1990128915093266
 40
0.2553485084973809
 40
0.305461012493593
 40
0.3404645079456767
 40
0.371614988224755
 40
0.3989048761105192
 40
0.422445225191184
 40
0.4472161040547967
 40
0.4843371348873111
 40
0.5277443683956039
 40
0.57745025009936
 40
0.6334557679514172
 40
0.6957447687040023
 40
0.7629984355138952
 40
0.8362047284193941
 40
0.9152561146213317
 40
1.0
 40
1.0
 40
1.0
 40
1.0
 10
389.9707764912007
 20
830.7274806141926
 30
0.0
 10
387.1958893371298
 20
830.7802480201798
 30
0.0
 10
382.5091016319877
 20
830.8671865871586
 30
0.0
 10
374.9913987196999
 20
831.0713216500877
 30
0.0
 10
368.0906575288855
 20
831.2198447881866
 30
0.0
 10
361.8235846473758
 20
831.3110406731014
 30
0.0
 10
356.5845426945566
 20
831.3444785744709
 30
0.0
 10
352.2764727759827
 20
831.3422901678018
 30
0.0
 10
348.8144392253648
 20
831.3206313864306
 30
0.0
 10
345.7771853970116
 20
831.2854743041373
 30
0.0
 10
342.9764929954752
 20
831.2395412451069
 30
0.0
 10
339.8118750100916
 20
831.1726167185318
 30
0.0
 10
335.9119172768835
 20
831.0656370942442
 30
0.0
 10
331.0897087028957
 20
830.8916433890986
 30
0.0
 10
325.5708460129349
 20
830.6324898769498
 30
0.0
 10
319.3569271137401
 20
830.2569601394686
 30
0.0
 10
312.5044216860817
 20
829.7295510550554
 30
0.0
 10
305.0173938498576
 20
829.0038529347994
 30
0.0
 10
296.9825183256712
 20
828.0316262656697
 30
0.0
 10
288.1282035450874
 20
826.7160175571722
 30
0.0
 10
282.6089080125789
 20
825.6573294041442
 30
0.0
 10
279.2183690031247
 20
824.999380486361
 30
0.0
  0
LINE
  5
1202
330
A
100
AcDbEntity
  8
MODEL
100
AcDbLine
 10
387.4916007149218
 20
810.0687889198433
 30
0.0
 11
393.3361134017218
 21
810.1705213402433
 31
0.0
  0
SPLINE
  5
1203
330
A
100
AcDbEntity
  8
MODEL
100
AcDbSpline
210
0.0
220
0.0
230
1.0
 70
     8
 71
     3
 72
    13
 73
     9
 74
     0
 42
0.000000001
 43
0.0000000001
 40
0.0
 40
0.0
 40
0.0
 40
0.0
 40
0.2036212203277183
 40
0.4010913079896594
 40
0.5924512348310631
 40
0.7780623594502994
 40
0.958295983774752
 40
1.0
 40
1.0
 40
1.0
 40
1.0
 10
285.2269342898371
 20
795.6072532548162
 30
0.0
 10
290.6975964022379
 20
796.7364856199822
 30
0.0
 10
299.7771629076974
 20
798.599369009223
 30
0.0
 10
314.5348600647058
 20
801.5671351523349
 30
0.0
 10
328.5818938146099
 20
804.1716784187109
 30
0.0
 10
342.2108197845087
 20
806.342214971579
 30
0.0
 10
352.586132149971
 20
807.7668475186973
 30
0.0
 10
357.7772603987314
 20
808.2403024229118
 30
0.0
 10
358.9166607050277
 20
808.343639960613
 30
0.0
  0
ARC
  5
1204
330
A
100
AcDbEntity
  8
MODEL
100
AcDbCircle
 10
345.2126750565217
 20
820.4345296782434
 30
0.0
 40
50.00000000000004
100
AcDbArc
 50
349.1121355703
 51
6.750523901900038
  0
ARC
  5
1205
330
A
100
AcDbEntity
  8
MODEL
100
AcDbCircle
 10
389.9007837033218
 20
825.7234746150434
 30
0.0
 40
5.000000003417444
100
AcDbArc
 50
6.749694981200561
 51
89.19581714060043
  0
ARC
  5
1206
330
A
100
AcDbEntity
  8
MODEL
100
AcDbCircle
 10
393.3306028213217
 20
811.1789893314434
 30
0.0
 40
1.000000000750541
100
AcDbArc
 50
270.3277465527038
 51
349.1120699413986
  0
LINE
  5
1207
330
A
100
AcDbEntity
  8
MODEL
100
AcDbLine
 10
170.7126750565217
 20
660.1845296782434
 30
0.0
 11
218.8006533445218
 21
660.1845296782434
 31
0.0
  0
LINE
  5
120A
330
A
100
AcDbEntity
  8
MODEL
100
AcDbLine
 10
143.2126750565217
 20
660.1845296782434
 30
0.0
 11
143.2126750565217
 21
708.2725079662433
 31
0.0
  0
LINE
  5
120B
330
A
100
AcDbEntity
  8
MODEL
100
AcDbLine
 10
373.2126750565217
 20
797.7845296782434
 30
0.0
 11
373.2126750565217
 21
845.8725079662433
 31
0.0
  0
LINE
  5
120C
330
A
100
AcDbEntity
  8
MODEL
100
AcDbLine
 10
119.5348344065217
 20
700.1845296782434
 30
0.0
 11
117.2126750565217
 21
700.1845296782434
 31
0.0
  0
LINE
  5
120D
330
A
100
AcDbEntity
  8
MODEL
100
AcDbLine
 10
163.9972750565216
 20
621.1845296782434
 30
0.0
 11
122.4280750565217
 21
621.1845296782434
 31
0.0
  0
LINE
  5
120E
330
A
100
AcDbEntity
  8
MODEL
100
AcDbLine
 10
163.9972750565216
 20
627.1845296782434
 30
0.0
 11
163.9972750565216
 21
621.1845296782434
 31
0.0
  0
LINE
  5
120F
330
A
100
AcDbEntity
  8
MODEL
100
AcDbLine
 10
122.4280750565217
 20
627.1845296782434
 30
0.0
 11
122.4280750565217
 21
621.1845296782434
 31
0.0
  0
LINE
  5
1210
330
A
100
AcDbEntity
  8
MODEL
100
AcDbLine
 10
153.6050750565219
 20
627.1845296782434
 30
0.0
 11
153.6050750565219
 21
621.1845296782434
 31
0.0
  0
LINE
  5
1211
330
A
100
AcDbEntity
  8
MODEL
100
AcDbLine
 10
132.8202750565217
 20
627.1845296782434
 30
0.0
 11
132.8202750565217
 21
621.1845296782434
 31
0.0
  0
LINE
  5
1212
330
A
100
AcDbEntity
  8
MODEL
100
AcDbLine
 10
711.7632609975215
 20
806.8845296782433
 30
0.0
 11
711.7632609975215
 21
806.1845296782434
 31
0.0
  0
LINE
  5
1213
330
A
100
AcDbEntity
  8
MODEL
100
AcDbLine
 10
738.7632609975215
 20
800.1845296782434
 30
0.0
 11
712.7632609975215
 21
800.1845296782434
 31
0.0
  0
LINE
  5
1214
330
A
100
AcDbEntity
  8
MODEL
100
AcDbLine
 10
712.7632609975215
 20
805.1845296782434
 30
0.0
 11
712.7632609975215
 21
800.1845296782434
 31
0.0
  0
LINE
  5
1215
330
A
100
AcDbEntity
  8
MODEL
100
AcDbLine
 10
711.7632609975215
 20
806.1845296782434
 30
0.0
 11
712.7632609975215
 21
805.1845296782434
 31
0.0
  0
LINE
  5
1216
330
A
100
AcDbEntity
  8
MODEL
100
AcDbLine
 10
739.7632609975215
 20
806.8845296782433
 30
0.0
 11
739.7632609975215
 21
806.1845296782434
 31
0.0
  0
LINE
  5
1217
330
A
100
AcDbEntity
  8
MODEL
100
AcDbLine
 10
739.7632609975215
 20
806.1845296782434
 30
0.0
 11
738.7632609975215
 21
805.1845296782434
 31
0.0
  0
LINE
  5
1218
330
A
100
AcDbEntity
  8
MODEL
100
AcDbLine
 10
738.7632609975215
 20
805.1845296782434
 30
0.0
 11
738.7632609975215
 21
800.1845296782434
 31
0.0
  0
LINE
  5
1219
330
A
100
AcDbEntity
  8
MODEL
100
AcDbLine
 10
711.3932609975216
 20
806.8845296782433
 30
0.0
 11
740.1332609975216
 21
806.8845296782433
 31
0.0
  0
LINE
  5
121A
330
A
100
AcDbEntity
  8
MODEL
100
AcDbLine
 10
711.3932609975216
 20
831.8845296782433
 30
0.0
 11
740.1332609975216
 21
831.8845296782433
 31
0.0
  0
LINE
  5
121B
330
A
100
AcDbEntity
  8
MODEL
100
AcDbLine
 10
748.7632609975215
 20
718.1845296782434
 30
0.0
 11
748.7632609975215
 21
700.1845296782434
 31
0.0
  0
LINE
  5
121C
330
A
100
AcDbEntity
  8
MODEL
100
AcDbLine
 10
702.7632609975215
 20
718.1845296782434
 30
0.0
 11
702.7632609975215
 21
700.1845296782434
 31
0.0
  0
ARC
  5
121D
330
A
100
AcDbEntity
  8
MODEL
100
AcDbCircle
 10
711.3926549975215
 20
811.8845416782434
 30
0.0
 40
5.000000000000004
100
AcDbArc
 50
189.5939170000002
 51
269.9999280000006
  0
ARC
  5
121E
330
A
100
AcDbEntity
  8
MODEL
100
AcDbCircle
 10
755.7632609975215
 20
819.3845416782434
 30
0.0
 40
50.0
100
AcDbArc
 50
170.406083
 51
189.594231
  0
ARC
  5
121F
330
A
100
AcDbEntity
  8
MODEL
100
AcDbCircle
 10
711.3926549975215
 20
826.8845416782434
 30
0.0
 40
5.000000000000004
100
AcDbArc
 50
90.00007199999942
 51
170.4060829999998
  0
ARC
  5
1220
330
A
100
AcDbEntity
  8
MODEL
100
AcDbCircle
 10
740.1338669975214
 20
826.8845416782434
 30
0.0
 40
5.000000000000004
100
AcDbArc
 50
9.594076000000486
 51
90.00007899999753
  0
ARC
  5
1221
330
A
100
AcDbEntity
  8
MODEL
100
AcDbCircle
 10
695.7632609975215
 20
819.3845416782434
 30
0.0
 40
50.0
100
AcDbArc
 50
350.405924
 51
9.59407599999993
  0
ARC
  5
1222
330
A
100
AcDbEntity
  8
MODEL
100
AcDbCircle
 10
740.1338669975214
 20
811.8845416782434
 30
0.0
 40
5.000000000000004
100
AcDbArc
 50
269.9999210000025
 51
350.4059239999995
  0
ARC
  5
1223
330
A
100
AcDbEntity
  8
MODEL
100
AcDbCircle
 10
2461.169754997522
 20
718.1845296782434
 30
0.0
 40
1758.406494
100
AcDbArc
 50
176.604157
 51
180.0001569999998
  0
ARC
  5
1224
330
A
100
AcDbEntity
  8
MODEL
100
AcDbCircle
 10
-1009.643233002478
 20
718.1845296782434
 30
0.0
 40
1758.406494
100
AcDbArc
 50
0.0
 51
3.395991000000002
  0
CIRCLE
  5
1225
330
A
100
AcDbEntity
  8
MODEL
100
AcDbCircle
 10
625.7632609975215
 20
307.1845296782434
 30
0.0
 40
16.5
  0
CIRCLE
  5
1226
330
A
100
AcDbEntity
  8
MODEL
100
AcDbCircle
 10
725.7632609975215
 20
307.1845296782434
 30
0.0
 40
16.5
  0
CIRCLE
  5
1227
330
A
100
AcDbEntity
  8
MODEL
100
AcDbCircle
 10
825.7632609975215
 20
307.1845296782434
 30
0.0
 40
16.5
  0
LINE
  5
1228
330
A
100
AcDbEntity
  8
MODEL
100
AcDbLine
 10
170.2118389337218
 20
660.1845296782434
 30
0.0
 11
116.2135111789216
 21
660.1845296782434
 31
0.0
  0
LINE
  5
1229
330
A
100
AcDbEntity
  8
MODEL
100
AcDbLine
 10
117.9155167617218
 20
683.1845296782434
 30
0.0
 11
168.5098333509218
 21
683.1845296782434
 31
0.0
  0
ARC
  5
122A
330
A
100
AcDbEntity
  8
MODEL
100
AcDbCircle
 10
265.7126750565217
 20
660.1845296782434
 30
0.0
 40
150.0
100
AcDbArc
 50
171.343999691
 51
179.8083749621
  0
ARC
  5
122B
330
A
100
AcDbEntity
  8
MODEL
100
AcDbCircle
 10
20.71267505652168
 20
660.1845296782434
 30
0.0
 40
150.0
100
AcDbArc
 50
0.1916250378999892
 51
8.656000309000005
  0
ARC
  5
122C
330
A
100
AcDbEntity
  8
MODEL
100
AcDbCircle
 10
116.2135111789216
 20
660.6845296782434
 30
0.0
 40
0.5000000000000084
100
AcDbArc
 50
179.8083749620995
 51
270.0
  0
ARC
  5
122D
330
A
100
AcDbEntity
  8
MODEL
100
AcDbCircle
 10
170.2118389337218
 20
660.6845296782434
 30
0.0
 40
0.5000000000000004
100
AcDbArc
 50
270.0
 51
0.1916250379004684
  0
ARC
  5
122E
330
A
100
AcDbEntity
  8
MODEL
100
AcDbCircle
 10
164.7126750565217
 20
683.6845296782434
 30
0.0
 40
0.5000000000000004
100
AcDbArc
 50
180.0
 51
270.0
  0
ARC
  5
122F
330
A
100
AcDbEntity
  8
MODEL
100
AcDbCircle
 10
121.7126750565217
 20
683.6845296782434
 30
0.0
 40
0.5000000000000004
100
AcDbArc
 50
270.0
 51
0.0
  0
ARC
  5
1230
330
A
100
AcDbEntity
  8
MODEL
100
AcDbCircle
 10
168.5098333509218
 20
682.6845296782434
 30
0.0
 40
0.5000000000000072
100
AcDbArc
 50
8.656000309003026
 51
90.0
  0
ARC
  5
1231
330
A
100
AcDbEntity
  8
MODEL
100
AcDbCircle
 10
117.9155167617218
 20
682.6845296782434
 30
0.0
 40
0.5000000000000004
100
AcDbArc
 50
90.0
 51
171.3439996909968
  0
SPLINE
  5
1232
330
A
100
AcDbEntity
  8
MODEL
100
AcDbSpline
210
0.0
220
0.0
230
1.0
 70
     8
 71
     3
 72
    10
 73
     6
 74
     0
 42
0.000000001
 43
0.0000000001
 40
0.0
 40
0.0
 40
0.0
 40
0.0
 40
0.5012499001524353
 40
0.5012499001524353
 40
0.9999999999999999
 40
0.9999999999999999
 40
0.9999999999999999
 40
0.9999999999999999
 10
157.5164686843259
 20
728.9488607054998
 30
0.0
 10
156.8272189893455
 20
729.2226882054914
 30
0.0
 10
156.258291242571
 20
729.4368107649714
 30
0.0
 10
155.484215650763
 20
729.7229777991802
 30
0.0
 10
155.2719844639735
 20
729.798411632887
 30
0.0
 10
155.2727405394596
 20
729.7982128552829
 30
0.0
  0
SPLINE
  5
1233
330
A
100
AcDbEntity
  8
MODEL
100
AcDbSpline
210
0.0
220
0.0
230
1.0
 70
     8
 71
     3
 72
    12
 73
     8
 74
     0
 42
0.000000001
 43
0.0000000001
 40
0.0
 40
0.0
 40
0.0
 40
0.0
 40
0.2499999999999992
 40
0.2499999999999992
 40
0.4999999999999983
 40
0.4999999999999983
 40
1.0
 40
1.0
 40
1.0
 40
1.0
 10
157.6508546631103
 20
728.7862554535598
 30
0.0
 10
157.6978132531415
 20
728.784702975559
 30
0.0
 10
157.7298387193077
 20
728.7872277949762
 30
0.0
 10
157.7651857963403
 20
728.8001713566733
 30
0.0
 10
157.7680502003127
 20
728.8107858130473
 30
0.0
 10
157.7325111818823
 20
728.8530260073942
 30
0.0
 10
157.6498228677597
 20
728.8958814515954
 30
0.0
 10
157.5164686843259
 20
728.9488607054998
 30
0.0
  0
ARC
  5
1234
330
A
100
AcDbEntity
  8
MODEL
100
AcDbCircle
 10
143.6885957173217
 20
490.7595197790434
 30
0.0
 40
238.4358856582853
100
AcDbArc
 50
86.64297006650003
 51
90.1141759152
  0
ARC
  5
1235
330
A
100
AcDbEntity
  8
MODEL
100
AcDbCircle
 10
142.0942580697217
 20
475.7865072438434
 30
0.0
 40
253.4070104823262
100
AcDbArc
 50
89.75267557690002
 51
92.22766892899999
  0
ARC
  5
1236
330
A
100
AcDbEntity
  8
MODEL
100
AcDbCircle
 10
142.0942580697217
 20
475.7865072438434
 30
0.0
 40
253.4070104823262
100
AcDbArc
 50
92.22766892899999
 51
92.9080224397
  0
ARC
  5
1237
330
A
100
AcDbEntity
  8
MODEL
100
AcDbCircle
 10
142.0942580697217
 20
475.7865072438434
 30
0.0
 40
253.4070104823262
100
AcDbArc
 50
92.9080224397
 51
93.36760949939999
  0
SPLINE
  5
1238
330
A
100
AcDbEntity
  8
MODEL
100
AcDbSpline
210
0.0
220
0.0
230
1.0
 70
    12
 71
     2
 72
     6
 73
     3
 74
     0
 42
0.000000001
 43
0.0000000001
 40
0.0
 40
0.0
 40
0.0
 40
1.0
 40
1.0
 40
1.0
 10
157.5364376810601
 20
728.942897509411
 30
0.0
 41
1.0
 10
157.5266936501452
 20
728.9466135713166
 30
0.0
 41
0.9980682295362423
 10
157.5164686842982
 20
728.9488607053962
 30
0.0
 41
1.0
  0
SPLINE
  5
1239
330
A
100
AcDbEntity
  8
MODEL
100
AcDbSpline
210
0.0
220
0.0
230
1.0
 70
    12
 71
     2
 72
     6
 73
     3
 74
     0
 42
0.000000001
 43
0.0000000001
 40
0.0
 40
0.0
 40
0.0
 40
1.0
 40
1.0
 40
1.0
 10
157.7488421558558
 20
728.7132180900613
 30
0.0
 41
1.0
 10
157.7114543222189
 20
728.7675242824517
 30
0.0
 41
0.9473303886256674
 10
157.6508546631101
 20
728.7862554535598
 30
0.0
 41
1.0
  0
ARC
  5
123A
330
A
100
AcDbEntity
  8
MODEL
100
AcDbCircle
 10
143.1550164021216
 20
677.4052038894433
 30
0.0
 40
53.77326915515928
100
AcDbArc
 50
76.96915292749996
 51
89.9377433850999
  0
ARC
  5
123B
330
A
100
AcDbEntity
  8
MODEL
100
AcDbCircle
 10
143.3786305065219
 20
676.1029845734433
 30
0.0
 40
55.07529408883352
100
AcDbArc
 50
90.17178201590008
 51
107.0683484930002
  0
ARC
  5
123C
330
A
100
AcDbEntity
  8
MODEL
100
AcDbCircle
 10
127.2557997873218
 20
728.5740853290433
 30
0.0
 40
0.1868880550344456
100
AcDbArc
 50
115.6044074019381
 51
142.6245874639626
  0
SPLINE
  5
123D
330
A
100
AcDbEntity
  8
MODEL
100
AcDbSpline
210
0.0
220
0.0
230
1.0
 70
     8
 71
     3
 72
    13
 73
     9
 74
     0
 42
0.000000001
 43
0.0000000001
 40
0.0
 40
0.0
 40
0.0
 40
0.0
 40
0.0492181611592046
 40
0.158589079026833
 40
0.2940984742503537
 40
0.4944737018850671
 40
0.8158851892174536
 40
1.0
 40
1.0
 40
1.0
 40
1.0
 10
157.8882075840233
 20
728.7132747297081
 30
0.0
 10
157.8838067108682
 20
728.7220262631241
 30
0.0
 10
157.8680477744288
 20
728.7482491654125
 30
0.0
 10
157.8388394978394
 20
728.7822457759946
 30
0.0
 10
157.7974923779752
 20
728.816171235005
 30
0.0
 10
157.7373129711154
 20
728.8536342532634
 30
0.0
 10
157.6597220609615
 20
728.8921838007334
 30
0.0
 10
157.5907179472454
 20
728.9202950713305
 30
0.0
 10
157.5609783199072
 20
728.932277113587
 30
0.0
  0
ARC
  5
123E
330
A
100
AcDbEntity
  8
MODEL
100
AcDbCircle
 10
-213.1933509258783
 20
626.8631952638434
 30
0.0
 40
386.3020685340572
100
AcDbArc
 50
8.7361896134
 51
9.049031170000006
  0
SPLINE
  5
123F
330
A
100
AcDbEntity
  8
MODEL
100
AcDbSpline
210
0.0
220
0.0
230
1.0
 70
    12
 71
     2
 72
     6
 73
     3
 74
     0
 42
0.000000001
 43
0.0000000001
 40
0.0
 40
0.0
 40
0.0
 40
1.0
 40
1.0
 40
1.0
 10
159.7553494165134
 20
727.6319340422554
 30
0.0
 41
1.0
 10
159.7553039374564
 20
727.6324475170446
 30
0.0
 41
0.9999489319383333
 10
159.7551597571219
 20
727.6329347219802
 30
0.0
 41
1.0
  0
SPLINE
  5
1240
330
A
100
AcDbEntity
  8
MODEL
100
AcDbSpline
210
0.0
220
0.0
230
1.0
 70
    12
 71
     2
 72
     6
 73
     3
 74
     0
 42
0.000000001
 43
0.0000000001
 40
0.0
 40
0.0
 40
0.0
 40
1.0
 40
1.0
 40
1.0
 10
159.7551597571219
 20
727.6329347219802
 30
0.0
 41
1.0
 10
159.7530598494182
 20
727.6400305953727
 30
0.0
 41
0.9893392264994229
 10
159.7305602197434
 20
727.641350001491
 30
0.0
 41
1.0
  0
ARC
  5
1241
330
A
100
AcDbEntity
  8
MODEL
100
AcDbCircle
 10
139.8611797189217
 20
377.7340878682434
 30
0.0
 40
350.345668388742
100
AcDbArc
 50
89.45175799160002
 51
92.34657083329996
  0
ARC
  5
1242
330
A
100
AcDbEntity
  8
MODEL
100
AcDbCircle
 10
145.5912475821217
 20
392.1277844218434
 30
0.0
 40
335.9442357798411
100
AcDbArc
 50
87.59501560199998
 51
90.40554031540002
  0
LINE
  5
1243
330
A
100
AcDbEntity
  8
MODEL
100
AcDbLine
 10
159.7305602197218
 20
727.6413500014434
 30
0.0
 11
159.6883315681218
 21
727.7761149358433
 31
0.0
  0
ARC
  5
1244
330
A
100
AcDbEntity
  8
MODEL
100
AcDbCircle
 10
128.5827668609218
 20
653.8860054378433
 30
0.0
 40
80.5315426143756
100
AcDbArc
 50
67.81922673329998
 51
70.2264281005
  0
SPLINE
  5
1245
330
A
100
AcDbEntity
  8
MODEL
100
AcDbSpline
210
0.0
220
0.0
230
1.0
 70
    12
 71
     2
 72
     6
 73
     3
 74
     0
 42
0.000000001
 43
0.0000000001
 40
0.0
 40
0.0
 40
0.0
 40
1.0
 40
1.0
 40
1.0
 10
159.7004990006251
 20
727.8102895516981
 30
0.0
 41
1.0
 10
159.6995505982741
 20
727.8130127668281
 30
0.0
 41
0.9995444766875352
 10
159.6977486216172
 20
727.8154178479053
 30
0.0
 41
1.0
  0
ARC
  5
1246
330
A
100
AcDbEntity
  8
MODEL
100
AcDbCircle
 10
158.6887576961217
 20
727.4479560518433
 30
0.0
 40
1.052062820867402
100
AcDbArc
 50
18.17494516570289
 51
73.61380372239653
  0
ARC
  5
1247
330
A
100
AcDbEntity
  8
MODEL
100
AcDbCircle
 10
158.7645776801216
 20
727.6030453210434
 30
0.0
 40
0.882359670529244
100
AcDbArc
 50
68.1255771531799
 51
75.49647283258673
  0
SPLINE
  5
1248
330
A
100
AcDbEntity
  8
MODEL
100
AcDbSpline
210
0.0
220
0.0
230
1.0
 70
    12
 71
     2
 72
     6
 73
     3
 74
     0
 42
0.000000001
 43
0.0000000001
 40
0.0
 40
0.0
 40
0.0
 40
1.0
 40
1.0
 40
1.0
 10
159.6883315682044
 20
727.776114935699
 30
0.0
 41
1.0
 10
159.7043581079157
 20
727.7965878343135
 30
0.0
 41
0.9889181613990186
 10
159.6994757943792
 20
727.810067224185
 30
0.0
 41
1.0
  0
ARC
  5
1249
330
A
100
AcDbEntity
  8
MODEL
100
AcDbCircle
 10
143.9466570221218
 20
504.9802679306434
 30
0.0
 40
224.1590463342159
100
AcDbArc
 50
86.4309901706
 51
90.18740951330004
  0
ARC
  5
124A
330
A
100
AcDbEntity
  8
MODEL
100
AcDbCircle
 10
142.2540204597217
 20
473.4055569886433
 30
0.0
 40
255.7343579014686
100
AcDbArc
 50
89.7850441458
 51
93.42729949340001
  0
SPLINE
  5
124B
330
A
100
AcDbEntity
  8
MODEL
100
AcDbSpline
210
0.0
220
0.0
230
1.0
 70
     8
 71
     3
 72
    12
 73
     8
 74
     0
 42
0.000000001
 43
0.0000000001
 40
0.0
 40
0.0
 40
0.0
 40
0.0
 40
0.4981067969348439
 40
0.4981067969348439
 40
0.9962135938696881
 40
0.9962135938696881
 40
1.0
 40
1.0
 40
1.0
 40
1.0
 10
157.7440125228752
 20
728.8972743159378
 30
0.0
 10
157.0728707755918
 20
729.1648479743126
 30
0.0
 10
156.5211923981951
 20
729.3736462857597
 30
0.0
 10
155.7400754672249
 20
729.6638304988762
 30
0.0
 10
155.5312803720747
 20
729.7383021529422
 30
0.0
 10
155.528346858694
 20
729.7393924945466
 30
0.0
 10
155.5283372283479
 20
729.7393963305542
 30
0.0
 10
155.5283400776004
 20
729.7393957807342
 30
0.0
  0
LINE
  5
124C
330
A
100
AcDbEntity
  8
MODEL
100
AcDbLine
 10
157.7440121845218
 20
728.8480215490433
 30
0.0
 11
157.7440125229218
 21
728.8972743158433
 31
0.0
  0
SPLINE
  5
124D
330
A
100
AcDbEntity
  8
MODEL
100
AcDbSpline
210
0.0
220
0.0
230
1.0
 70
     8
 71
     3
 72
    12
 73
     8
 74
     0
 42
0.000000001
 43
0.0000000001
 40
0.0
 40
0.0
 40
0.0
 40
0.0
 40
0.2500000000000007
 40
0.2500000000000007
 40
0.5
 40
0.5
 40
1.0
 40
1.0
 40
1.0
 40
1.0
 10
157.7440125228752
 20
728.8972743159378
 30
0.0
 10
157.8232532504564
 20
728.8656822842141
 30
0.0
 10
157.8866669963331
 20
728.8374747472318
 30
0.0
 10
157.9822403989049
 20
728.7878973510669
 30
0.0
 10
158.0141619715487
 20
728.7664646952246
 30
0.0
 10
158.0559347164783
 20
728.7162970943817
 30
0.0
 10
158.0133505485755
 20
728.7003696727729
 30
0.0
 10
157.9007139316402
 20
728.7045677935274
 30
0.0
  0
LINE
  5
124E
330
A
100
AcDbEntity
  8
MODEL
100
AcDbLine
 10
118.1581333589218
 20
683.6847017554434
 30
0.0
 11
168.2672167537216
 21
683.6843576006434
 31
0.0
  0
LINE
  5
124F
330
A
100
AcDbEntity
  8
MODEL
100
AcDbLine
 10
126.9705573385218
 20
728.6702924162433
 30
0.0
 11
126.1634837981217
 21
728.4274952934434
 31
0.0
  0
LINE
  5
1250
330
A
100
AcDbEntity
  8
MODEL
100
AcDbLine
 10
168.7647982089218
 20
684.2377225434434
 30
0.0
 11
168.6229482065219
 21
685.5349993274434
 31
0.0
  0
ARC
  5
1251
330
A
100
AcDbEntity
  8
MODEL
100
AcDbCircle
 10
346.1421208801216
 20
665.4803118742434
 30
0.0
 40
229.2493075591262
100
AcDbArc
 50
164.2299669353
 51
175.3066007991
  0
ARC
  5
1252
330
A
100
AcDbEntity
  8
MODEL
100
AcDbCircle
 10
-201.7941134514783
 20
629.5490553126434
 30
0.0
 40
374.6183885281965
100
AcDbArc
 50
8.9209896841
 51
12.276056048
  0
ARC
  5
1253
330
A
100
AcDbEntity
  8
MODEL
100
AcDbCircle
 10
-201.7941134514783
 20
629.5490553126434
 30
0.0
 40
374.6183885281965
100
AcDbArc
 50
13.3288573678
 51
15.17826440600001
  0
ARC
  5
1254
330
A
100
AcDbEntity
  8
MODEL
100
AcDbCircle
 10
-200.3620217210782
 20
629.8324132254434
 30
0.0
 40
373.1575973724322
100
AcDbArc
 50
8.97489611930001
 51
15.1937486228
  0
ARC
  5
1255
330
A
100
AcDbEntity
  8
MODEL
100
AcDbCircle
 10
126.4553495189218
 20
727.4907967170434
 30
0.0
 40
0.985195540012728
100
AcDbArc
 50
107.296423115798
 51
162.5070896914999
  0
ARC
  5
1256
330
A
100
AcDbEntity
  8
MODEL
100
AcDbCircle
 10
157.3545070185216
 20
726.9744978338433
 30
0.0
 40
2.490217129850417
100
AcDbArc
 50
14.93115716010075
 51
20.05918833679809
  0
ARC
  5
1257
330
A
100
AcDbEntity
  8
MODEL
100
AcDbCircle
 10
158.7314765445217
 20
727.4603416174434
 30
0.0
 40
1.025083332467026
100
AcDbArc
 50
19.86523272629805
 51
69.42333107088719
  0
ARC
  5
1258
330
A
100
AcDbEntity
  8
MODEL
100
AcDbCircle
 10
130.9502975469218
 20
659.7090127694433
 30
0.0
 40
74.25251857547065
100
AcDbArc
 50
67.72011706020005
 51
70.41702114810006
  0
ARC
  5
1259
330
A
100
AcDbEntity
  8
MODEL
100
AcDbCircle
 10
158.1646492357218
 20
727.2249395258434
 30
0.0
 40
1.641526905613943
100
AcDbArc
 50
14.38886760809803
 51
20.85109195469954
  0
LINE
  5
125A
330
A
100
AcDbEntity
  8
MODEL
100
AcDbLine
 10
155.5283383549217
 20
729.7364339298433
 30
0.0
 11
155.5283381437218
 21
729.7056660302434
 31
0.0
  0
ARC
  5
125B
330
A
100
AcDbEntity
  8
MODEL
100
AcDbCircle
 10
168.2690428005217
 20
684.1843575906433
 30
0.0
 40
0.4999999879413808
100
AcDbArc
 50
269.9996064749041
 51
6.192441909805631
  0
ARC
  5
125C
330
A
100
AcDbEntity
  8
MODEL
100
AcDbCircle
 10
118.1572535757218
 20
684.1847017646434
 30
0.0
 40
0.4999999857035908
100
AcDbArc
 50
173.7513488591962
 51
269.9996064749024
  0
DIMENSION
  5
125D
330
A
100
AcDbEntity
  8
DIM
100
AcDbDimension
  2
*D21
 10
972.4988778447216
 20
569.9845296782433
 30
0.0
 11
972.4988778447216
 21
615.0845299226434
 31
0.0
 70
   160
  1
\A1;<>
 71
     5
 42
90.20000000000005
 73
     0
 74
     0
 75
     0
  3
tfrom線あり
100
AcDbAlignedDimension
 13
888.8512392855216
 23
660.1845296782434
 33
0.0
 14
835.0807609975216
 24
569.9845296782433
 34
0.0
 50
90.0
100
AcDbRotatedDimension
1001
ACAD
1000
DSTYLE
1002
{
1070
   147
1040
5.0
1070
   140
1040
16.0
1002
}
  0
DIMENSION
  5
125E
330
A
100
AcDbEntity
  8
DIM
100
AcDbDimension
  2
*D22
 10
900.4988837383214
 20
630.1845296782434
 30
0.0
 11
900.4988837383214
 21
712.8165296782435
 31
0.0
 70
   160
 71
     5
 42
30.0
 73
     0
 74
     0
 75
     0
  3
tfrom線あり
100
AcDbAlignedDimension
 13
888.8512392855216
 23
660.1845296782434
 33
0.0
 14
846.7632609975215
 24
630.1845296782434
 34
0.0
 50
90.0
100
AcDbRotatedDimension
1001
ACAD
1000
DSTYLE
1002
{
1070
   147
1040
5.0
1070
   140
1040
16.0
1070
     3
1000
max.<>
1002
}
  0
DIMENSION
  5
125F
330
A
100
AcDbEntity
  8
DIM
100
AcDbDimension
  2
*D23
 10
825.7632609975215
 20
457.2762963814433
 30
0.0
 11
725.7632624875216
 21
457.2762963814433
 31
0.0
 70
   161
  1
\A1;<>
 71
     5
 42
200.0
 73
     0
 74
     0
 75
     0
  3
tfrom線あり
100
AcDbAlignedDimension
 13
625.7632609975215
 23
569.9845296782433
 33
0.0
 14
825.7632609975215
 24
569.9845296782433
 34
0.0
1001
ACAD
1000
DSTYLE
1002
{
1070
   147
1040
5.0
1070
   140
1040
16.0
1002
}
  0
DIMENSION
  5
1260
330
A
100
AcDbEntity
  8
DIM
100
AcDbDimension
  2
*D24
 10
697.7632609975215
 20
782.8964911262434
 30
0.0
 11
657.6512609975214
 21
782.8964911262434
 31
0.0
 70
   160
 71
     5
 42
56.0
 73
     0
 74
     0
 75
     0
  3
tfrom線あり
100
AcDbAlignedDimension
 13
753.7632609975215
 23
698.1845296782434
 33
0.0
 14
697.7632609975215
 24
698.1845296782434
 34
0.0
100
AcDbRotatedDimension
1001
ACAD
1000
DSTYLE
1002
{
1070
   147
1040
5.0
1070
   140
1040
16.0
1070
     3
1000
φ<>
1002
}
  0
DIMENSION
  5
1261
330
A
100
AcDbEntity
  8
DIM
100
AcDbDimension
  2
*D25
 10
598.2632609975215
 20
732.8116731650433
 30
0.0
 11
553.6912609975216
 21
732.8116731650433
 31
0.0
 70
   160
 71
     5
 42
55.0
 73
     0
 74
     0
 75
     0
  3
tfrom線あり
100
AcDbAlignedDimension
 13
653.2632609975215
 23
708.2725079662433
 33
0.0
 14
598.2632609975215
 24
708.2725079662433
 34
0.0
100
AcDbRotatedDimension
1001
ACAD
1000
DSTYLE
1002
{
1070
   147
1040
5.0
1070
   140
1040
16.0
1070
     3
1000
φ<>
1002
}
  0
DIMENSION
  5
1262
330
A
100
AcDbEntity
  8
DIM
100
AcDbDimension
  2
*D26
 10
710.7632609975215
 20
509.1000617186434
 30
0.0
 11
625.7632609975215
 21
509.1000617186434
 31
0.0
 70
   160
  1
\A1;M <> x1.5
 71
     5
 42
30.0
 73
     0
 74
     1
 75
     1
  3
tfrom線あり
100
AcDbAlignedDimension
 13
740.7632609975215
 23
614.9845296782433
 33
0.0
 14
710.7632609975215
 24
614.9845296782433
 34
0.0
100
AcDbRotatedDimension
1001
ACAD
1000
DSTYLE
1002
{
1070
   172
1070
     1
1070
   147
1040
5.0
1070
   140
1040
16.0
1002
}
  0
DIMENSION
  5
1263
330
A
100
AcDbEntity
  8
DIM
100
AcDbDimension
  2
*D27
 10
815.2857609975215
 20
531.5670492726434
 30
0.0
 11
878.0567609975215
 21
531.5670492726434
 31
0.0
 70
   160
  1
\A1;G1/2 {}
 71
     5
 42
20.95499999999993
 73
     0
 74
     1
 75
     1
  3
tfrom線あり
100
AcDbAlignedDimension
 13
836.2407609975214
 23
571.1445296782434
 33
0.0
 14
815.2857609975215
 24
571.1445296782434
 34
0.0
100
AcDbRotatedDimension
1001
ACAD
1000
DSTYLE
1002
{
1070
   147
1040
5.0
1070
   140
1040
16.0
1070
   172
1070
     1
1002
}
  0
DIMENSION
  5
1264
330
A
100
AcDbEntity
  8
DIM
100
AcDbDimension
  2
*D28
 10
986.0273317181023
 20
1135.51538852594
 30
0.0
 11
833.9520677733022
 21
1072.67933028514
 31
0.0
 70
   162
  1
\A1;180%%D {}
 71
     5
 42
2.443460952792391
 73
     0
 74
     0
 75
     0
  3
tfrom線あり
100
AcDb2LineAngularDimension
 13
726.6308321073021
 23
1229.92799325714
 33
0.0
 14
467.2343324961022
 24
1135.51538852594
 34
0.0
 15
726.6308321073021
 25
1229.92799325714
 35
0.0
 16
651.224703105026
 26
1055.116937141541
 36
0.0
1001
ACAD
1000
DSTYLE
1002
{
1070
   147
1040
5.0
1070
   140
1040
16.0
1002
}
  0
DIMENSION
  5
1265
330
A
100
AcDbEntity
  8
DIM
100
AcDbDimension
  2
*D29
 10
972.586770444372
 20
731.1806482330434
 30
0.0
 11
972.586770444372
 21
695.6825899642433
 31
0.0
 70
   160
  1
\A1;<>
 71
     5
 42
70.99611855479998
 73
     0
 74
     0
 75
     0
  3
tfrom線あり
100
AcDbAlignedDimension
 13
888.8512392855216
 23
660.1845296782434
 33
0.0
 14
873.8536021239215
 24
731.1806482330434
 34
0.0
 50
90.0
100
AcDbRotatedDimension
1001
ACAD
1000
DSTYLE
1002
{
1070
   147
1040
5.0
1070
   140
1040
16.0
1002
}
  0
DIMENSION
  5
1266
330
A
100
AcDbEntity
  8
DIM
100
AcDbDimension
  2
*D30
 10
610.7632609975215
 20
623.8073365326434
 30
0.0
 11
542.9872609975214
 21
623.8073365326434
 31
0.0
 70
   160
  1
\A1;M <> x1.5
 71
     5
 42
30.0
 73
     0
 74
     0
 75
     0
  3
tfrom線あり
100
AcDbAlignedDimension
 13
640.7632609975215
 23
630.1845296782434
 33
0.0
 14
610.7632609975215
 24
630.1845296782434
 34
0.0
100
AcDbRotatedDimension
1001
ACAD
1000
DSTYLE
1002
{
1070
   147
1040
5.0
1070
   140
1040
16.0
1002
}
  0
DIMENSION
  5
1267
330
A
100
AcDbEntity
  8
DIM
100
AcDbDimension
  2
*D31
 10
373.2126750565217
 20
859.5645936138434
 30
0.0
 11
258.2126771425217
 21
859.5645936138434
 31
0.0
 70
   160
  1
\A1;<>
 71
     5
 42
230.0
 73
     0
 74
     0
 75
     0
  3
tfrom線あり
100
AcDbAlignedDimension
 13
143.2126750565217
 23
708.2725079662433
 33
0.0
 14
373.2126750565217
 24
845.8725079662433
 34
0.0
100
AcDbRotatedDimension
1001
ACAD
1000
DSTYLE
1002
{
1070
   147
1040
5.0
1070
   140
1040
16.0
1002
}
  0
DIMENSION
  5
1268
330
A
100
AcDbEntity
  8
DIM
100
AcDbDimension
  2
*D32
 10
425.7044332996045
 20
831.3423578074434
 30
0.0
 11
425.7044332996045
 21
745.7634437428434
 31
0.0
 70
   160
  1
\A1;<>
 71
     5
 42
171.1578281292
 73
     0
 74
     0
 75
     0
  3
tfrom線あり
100
AcDbAlignedDimension
 13
218.8006533445218
 23
660.1845296782434
 33
0.0
 14
402.5394542817216
 24
831.3423578074434
 34
0.0
 50
90.0
100
AcDbRotatedDimension
1001
ACAD
1000
DSTYLE
1002
{
1070
   147
1040
5.0
1070
   140
1040
16.0
1002
}
  0
DIMENSION
  5
1269
330
A
100
AcDbEntity
  8
DIM
100
AcDbDimension
  2
*D33
 10
335.0777818025217
 20
797.7845296782434
 30
0.0
 11
335.0777818025217
 21
728.9845320146434
 31
0.0
 70
   160
  1
\A1;<>
 71
     5
 42
137.6
 73
     0
 74
     0
 75
     0
  3
tfrom線あり
100
AcDbAlignedDimension
 13
218.8006533445218
 23
660.1845296782434
 33
0.0
 14
360.3626750565218
 24
797.7845296782434
 34
0.0
 50
90.0
100
AcDbRotatedDimension
1001
ACAD
1000
DSTYLE
1002
{
1070
   147
1040
5.0
1070
   140
1040
16.0
1002
}
  0
DIMENSION
  5
126A
330
A
100
AcDbEntity
  8
DIM
100
AcDbDimension
  2
*D34
 10
616.8685081415215
 20
293.2872863678434
 30
0.0
 11
677.3102368126378
 21
387.7219967012582
 31
0.0
 70
   163
  1
\A1;3- <>\P(%%C31-%%C35)
 71
     5
 42
32.9999999998654
 73
     0
 74
     0
 75
     0
  3
tfrom線あり
100
AcDbDiametricDimension
 15
634.6580138535217
 25
321.0817729886434
 35
0.0
 40
0.0
1001
ACAD
1000
DSTYLE
1002
{
1070
   147
1040
5.0
1070
   140
1040
16.0
1002
}
  0
VIEWPORT
  5
349
330
B
100
AcDbEntity
 67
     1
  8
0
100
AcDbViewport
 10
202.5
 20
128.5
 30
0.0
 40
486.0
 41
308.4
 68
     1
 69
     1
 12
202.5
 22
128.5
 13
0.0
 23
0.0
 14
0.5
 24
0.5
 15
0.0
 25
0.0
 16
0.0
 26
0.0
 36
1.0
 17
0.0
 27
0.0
 37
0.0
 42
50.0
 43
0.0
 44
0.0
 45
308.4
 50
0.0
 51
0.0
 72
   100
 90
   557152
  1

281
     0
 71
     1
 74
     0
110
0.0
120
0.0
130
0.0
111
1.0
121
0.0
131
0.0
112
0.0
122
1.0
132
0.0
 79
     0
146
0.0
170
     0
 61
     5
348
26C
292
     1
282
     1
141
0.0
142
0.0
 63
   256
  0
VIEWPORT
  5
34A
330
B
100
AcDbEntity
 67
     1
  8
0
100
AcDbViewport
 10
202.5
 20
128.5
 30
0.0
 40
324.0
 41
205.6
 68
     2
 69
     2
 12
986.6781359294573
 22
1427.077061889956
 13
0.0
 23
0.0
 14
0.5
 24
0.5
 15
0.0
 25
0.0
 16
0.0
 26
0.0
 36
1.0
 17
0.0
 27
0.0
 37
0.0
 42
50.0
 43
0.0
 44
0.0
 45
2890.021615685494
 50
0.0
 51
0.0
 72
   100
 90
   557152
  1

281
     0
 71
     1
 74
     0
110
0.0
120
0.0
130
0.0
111
1.0
121
0.0
131
0.0
112
0.0
122
1.0
132
0.0
 79
     0
146
0.0
170
     0
 61
     5
348
26C
292
     1
282
     1
141
0.0
142
0.0
 63
   256
  0
ENDSEC
  0
SECTION
  2
OBJECTS
  0
DICTIONARY
  5
19
330
0
100
AcDbDictionary
281
     1
  3
ACAD_COLOR
350
674
  3
ACAD_DETAILVIEWSTYLE
350
BBF
  3
ACAD_GROUP
350
1A
  3
ACAD_IMAGE_VARS
350
27B
  3
ACAD_LAYOUT
350
1E
  3
ACAD_MATERIAL
350
263
  3
ACAD_MLEADERSTYLE
350
336
  3
ACAD_MLINESTYLE
350
1B
  3
ACAD_PLOTSETTINGS
350
22
  3
ACAD_PLOTSTYLENAME
350
1F
  3
ACAD_SCALELIST
350
241
  3
ACAD_SECTIONVIEWSTYLE
350
BC0
  3
ACAD_TABLESTYLE
350
278
  3
ACAD_VISUALSTYLE
350
267
  3
ACDB_RECOMPOSE_DATA
350
132F
  3
AcDbVariableDictionary
350
330
  3
APPDATA
350
27A
  0
SUN
  5
904
330
15
100
AcDbSun
 90
        1
290
     0
 63
     7
421
 16777215
 40
1.0
291
     1
 91
  2455826
 92
 54000000
292
     0
 70
     2
 71
   256
280
     1
  0
DICTIONARY
  5
2E1
330
2
100
AcDbDictionary
280
     1
281
     1
  3
ACAD_LAYERSTATES
360
2E2
  3
ACLYDICTIONARY
360
D22
  0
DICTIONARY
  5
674
102
{ACAD_REACTORS
330
19
102
}
330
19
100
AcDbDictionary
281
     1
  0
DICTIONARY
  5
BBF
102
{ACAD_REACTORS
330
19
102
}
330
19
100
AcDbDictionary
281
     1
  0
DICTIONARY
  5
1A
102
{ACAD_REACTORS
330
19
102
}
330
19
100
AcDbDictionary
281
     1
  0
RASTERVARIABLES
  5
27B
102
{ACAD_REACTORS
330
19
102
}
330
19
100
AcDbRasterVariables
 90
        0
 70
     1
 71
     1
 72
     1
  0
DICTIONARY
  5
1E
102
{ACAD_REACTORS
330
19
102
}
330
19
100
AcDbDictionary
281
     1
  3
Layout1
350
21
  3
Model
350
20
  0
DICTIONARY
  5
263
102
{ACAD_REACTORS
330
19
102
}
330
19
100
AcDbDictionary
281
     1
  3
ByBlock
350
265
  3
ByLayer
350
264
  3
Global
350
266
  0
DICTIONARY
  5
336
102
{ACAD_REACTORS
330
19
102
}
330
19
100
AcDbDictionary
281
     1
  0
DICTIONARY
  5
1B
102
{ACAD_REACTORS
330
19
102
}
330
19
100
AcDbDictionary
281
     1
  3
Standard
350
1C
  0
DICTIONARY
  5
22
102
{ACAD_REACTORS
330
19
102
}
330
19
100
AcDbDictionary
281
     1
  0
ACDBDICTIONARYWDFLT
  5
1F
102
{ACAD_REACTORS
330
19
102
}
330
19
100
AcDbDictionary
281
     1
  3
Normal
350
1D
100
AcDbDictionaryWithDefault
340
1D
  0
DICTIONARY
  5
241
102
{ACAD_REACTORS
330
19
102
}
330
19
100
AcDbDictionary
281
     1
  3
A0
350
242
  3
A1
350
243
  3
A2
350
244
  3
A3
350
245
  3
A4
350
246
  3
A5
350
247
  3
A6
350
248
  3
A7
350
249
  3
A8
350
24A
  3
A9
350
24B
  3
B0
350
24C
  3
B1
350
24D
  3
B2
350
24E
  3
B3
350
24F
  3
B4
350
250
  3
B5
350
251
  3
B6
350
252
  3
B7
350
253
  3
B8
350
254
  3
B9
350
255
  3
C0
350
256
  3
C1
350
257
  3
C2
350
258
  3
C3
350
259
  3
C4
350
25A
  3
C5
350
25B
  3
C6
350
25C
  3
C7
350
25D
  3
C8
350
25E
  3
C9
350
25F
  3
D0
350
260
  3
D1
350
261
  3
D2
350
262
  0
DICTIONARY
  5
BC0
102
{ACAD_REACTORS
330
19
102
}
330
19
100
AcDbDictionary
281
     1
  0
DICTIONARY
  5
278
102
{ACAD_REACTORS
330
19
102
}
330
19
100
AcDbDictionary
281
     1
  3
Standard
350
279
  0
DICTIONARY
  5
267
102
{ACAD_REACTORS
330
19
102
}
330
19
100
AcDbDictionary
281
     1
  3
2dWireframe
350
26C
  3
3D Hidden
350
26E
  3
3dWireframe
350
26D
  3
Basic
350
26F
  3
Brighten
350
273
  3
ColorChange
350
277
  3
Conceptual
350
271
  3
Dim
350
272
  3
EdgeColorOff
350
8FE
  3
Facepattern
350
276
  3
Flat
350
268
  3
FlatWithEdges
350
269
  3
Gouraud
350
26A
  3
GouraudWithEdges
350
26B
  3
Hidden
350
8FB
  3
JitterOff
350
8FC
  3
Linepattern
350
275
  3
OverhangOff
350
8FD
  3
Realistic
350
270
  3
Shaded
350
903
  3
Shaded with edges
350
902
  3
Shades of Gray
350
8FF
  3
Sketchy
350
900
  3
Thicken
350
274
  3
Wireframe
350
8FA
  3
X-Ray
350
901
  0
XRECORD
  5
132F
102
{ACAD_REACTORS
330
19
102
}
330
19
100
AcDbXrecord
280
     1
 90
        1
330
279
  0
DICTIONARY
  5
330
102
{ACAD_REACTORS
330
19
102
}
330
19
100
AcDbDictionary
281
     1
  3
CANNOSCALE
350
331
  3
CTABLESTYLE
350
335
  3
HPTRANSPARENCY
350
D52
  3
XCLIPFRAME
350
896
  0
DICTIONARY
  5
27A
102
{ACAD_REACTORS
330
19
102
}
330
19
100
AcDbDictionary
281
     1
  0
DICTIONARY
  5
2E2
102
{ACAD_REACTORS
330
2E1
102
}
330
2E1
100
AcDbDictionary
281
     1
  3
ARGON_LAYERP_8
350
C9F
  3
ARGON_LAYERP_9
350
7AA
  0
DICTIONARY
  5
D22
102
{ACAD_REACTORS
330
2E1
102
}
330
2E1
100
AcDbDictionary
281
     1
1001
ACAD
1000
<All
  0
LAYOUT
  5
21
102
{ACAD_REACTORS
330
1E
102
}
330
1E
100
AcDbPlotSettings
  1

  2
none_device
  4
ISO_A3_(420.00_x_297.00_MM)
  6

 40
7.5
 41
20.0
 42
7.5
 43
20.0
 44
420.0
 45
297.0
 46
0.0
 47
0.0
 48
0.0
 49
0.0
140
0.0
141
0.0
142
1.0
143
1.0
 70
     0
 72
     1
 73
     0
 74
     0
  7

 75
     0
 76
     0
 77
     2
 78
   300
147
1.0
148
0.0
149
0.0
100
AcDbLayout
  1
Layout1
 70
     0
 71
     0
 10
-7.5
 20
-20.0
 11
412.5
 21
277.0
 12
0.0
 22
0.0
 32
0.0
 14
0.0
 24
0.0
 34
0.0
 15
0.0
 25
0.0
 35
0.0
146
0.0
 13
0.0
 23
0.0
 33
0.0
 16
0.0
 26
0.0
 36
0.0
 17
0.0
 27
0.0
 37
0.0
 76
     0
330
B
331
349
  0
LAYOUT
  5
20
102
{ACAD_REACTORS
330
1E
102
}
330
1E
100
AcDbPlotSettings
  1

  2
none_device
  4
ISO_A3_(420.00_x_297.00_MM)
  6

 40
7.5
 41
20.0
 42
7.5
 43
20.0
 44
420.0
 45
297.0
 46
0.0
 47
0.0
 48
0.0
 49
0.0
140
0.0
141
0.0
142
1.0
143
1.0
 70
  1024
 72
     1
 73
     0
 74
     0
  7

 75
     0
 76
     0
 77
     2
 78
   300
147
1.0
148
0.0
149
0.0
100
AcDbLayout
  1
Model
 70
     0
 71
     1
 10
0.0
 20
0.0
 11
1050.0
 21
1485.0
 12
0.0
 22
0.0
 32
0.0
 14
36.10107227362437
 24
31.89607416228557
 34
0.0
 15
1011.101072273866
 25
1448.573336753213
 35
0.0
146
0.0
 13
0.0
 23
0.0
 33
0.0
 16
0.0
 26
0.0
 36
0.0
 17
0.0
 27
0.0
 37
0.0
 76
     0
330
A
331
15
  0
MATERIAL
  5
265
102
{ACAD_REACTORS
330
263
102
}
330
263
100
AcDbMaterial
  1
ByBlock
 72
     1
 94
      127
  0
MATERIAL
  5
264
102
{ACAD_REACTORS
330
263
102
}
330
263
100
AcDbMaterial
  1
ByLayer
 72
     1
 94
      127
  0
MATERIAL
  5
266
102
{ACAD_REACTORS
330
263
102
}
330
263
100
AcDbMaterial
  1
Global
 72
     1
 94
      127
  0
MLINESTYLE
  5
1C
102
{ACAD_REACTORS
330
1B
102
}
330
1B
100
AcDbMlineStyle
  2
Standard
 70
     0
  3

 62
     0
 51
90.0
 52
90.0
 71
     2
 49
0.5
 62
   256
  6
BYLAYER
 49
-0.5
 62
   256
  6
BYLAYER
  0
ACDBPLACEHOLDER
  5
1D
102
{ACAD_REACTORS
330
1F
102
}
330
1F
  0
SCALE
  5
242
102
{ACAD_REACTORS
330
241
102
}
330
241
100
AcDbScale
 70
     0
300
1:1
140
1.0
141
1.0
290
     1
  0
SCALE
  5
243
102
{ACAD_REACTORS
330
241
102
}
330
241
100
AcDbScale
 70
     0
300
1:2
140
1.0
141
2.0
290
     0
  0
SCALE
  5
244
102
{ACAD_REACTORS
330
241
102
}
330
241
100
AcDbScale
 70
     0
300
1:4
140
1.0
141
4.0
290
     0
  0
SCALE
  5
245
102
{ACAD_REACTORS
330
241
102
}
330
241
100
AcDbScale
 70
     0
300
1:5
140
1.0
141
5.0
290
     0
  0
SCALE
  5
246
102
{ACAD_REACTORS
330
241
102
}
330
241
100
AcDbScale
 70
     0
300
1:8
140
1.0
141
8.0
290
     0
  0
SCALE
  5
247
102
{ACAD_REACTORS
330
241
102
}
330
241
100
AcDbScale
 70
     0
300
1:10
140
1.0
141
10.0
290
     0
  0
SCALE
  5
248
102
{ACAD_REACTORS
330
241
102
}
330
241
100
AcDbScale
 70
     0
300
1:16
140
1.0
141
16.0
290
     0
  0
SCALE
  5
249
102
{ACAD_REACTORS
330
241
102
}
330
241
100
AcDbScale
 70
     0
300
1:20
140
1.0
141
20.0
290
     0
  0
SCALE
  5
24A
102
{ACAD_REACTORS
330
241
102
}
330
241
100
AcDbScale
 70
     0
300
1:30
140
1.0
141
30.0
290
     0
  0
SCALE
  5
24B
102
{ACAD_REACTORS
330
241
102
}
330
241
100
AcDbScale
 70
     0
300
1:40
140
1.0
141
40.0
290
     0
  0
SCALE
  5
24C
102
{ACAD_REACTORS
330
241
102
}
330
241
100
AcDbScale
 70
     0
300
1:50
140
1.0
141
50.0
290
     0
  0
SCALE
  5
24D
102
{ACAD_REACTORS
330
241
102
}
330
241
100
AcDbScale
 70
     0
300
1:100
140
1.0
141
100.0
290
     0
  0
SCALE
  5
24E
102
{ACAD_REACTORS
330
241
102
}
330
241
100
AcDbScale
 70
     0
300
2:1
140
2.0
141
1.0
290
     0
  0
SCALE
  5
24F
102
{ACAD_REACTORS
330
241
102
}
330
241
100
AcDbScale
 70
     0
300
4:1
140
4.0
141
1.0
290
     0
  0
SCALE
  5
250
102
{ACAD_REACTORS
330
241
102
}
330
241
100
AcDbScale
 70
     0
300
8:1
140
8.0
141
1.0
290
     0
  0
SCALE
  5
251
102
{ACAD_REACTORS
330
241
102
}
330
241
100
AcDbScale
 70
     0
300
10:1
140
10.0
141
1.0
290
     0
  0
SCALE
  5
252
102
{ACAD_REACTORS
330
241
102
}
330
241
100
AcDbScale
 70
     0
300
100:1
140
100.0
141
1.0
290
     0
  0
SCALE
  5
253
102
{ACAD_REACTORS
330
241
102
}
330
241
100
AcDbScale
 70
     0
300
1/128" = 1'-0"
140
0.0078125
141
12.0
290
     0
  0
SCALE
  5
254
102
{ACAD_REACTORS
330
241
102
}
330
241
100
AcDbScale
 70
     0
300
1/64" = 1'-0"
140
0.015625
141
12.0
290
     0
  0
SCALE
  5
255
102
{ACAD_REACTORS
330
241
102
}
330
241
100
AcDbScale
 70
     0
300
1/32" = 1'-0"
140
0.03125
141
12.0
290
     0
  0
SCALE
  5
256
102
{ACAD_REACTORS
330
241
102
}
330
241
100
AcDbScale
 70
     0
300
1/16" = 1'-0"
140
0.0625
141
12.0
290
     0
  0
SCALE
  5
257
102
{ACAD_REACTORS
330
241
102
}
330
241
100
AcDbScale
 70
     0
300
3/32" = 1'-0"
140
0.09375
141
12.0
290
     0
  0
SCALE
  5
258
102
{ACAD_REACTORS
330
241
102
}
330
241
100
AcDbScale
 70
     0
300
1/8" = 1'-0"
140
0.125
141
12.0
290
     0
  0
SCALE
  5
259
102
{ACAD_REACTORS
330
241
102
}
330
241
100
AcDbScale
 70
     0
300
3/16" = 1'-0"
140
0.1875
141
12.0
290
     0
  0
SCALE
  5
25A
102
{ACAD_REACTORS
330
241
102
}
330
241
100
AcDbScale
 70
     0
300
1/4" = 1'-0"
140
0.25
141
12.0
290
     0
  0
SCALE
  5
25B
102
{ACAD_REACTORS
330
241
102
}
330
241
100
AcDbScale
 70
     0
300
3/8" = 1'-0"
140
0.375
141
12.0
290
     0
  0
SCALE
  5
25C
102
{ACAD_REACTORS
330
241
102
}
330
241
100
AcDbScale
 70
     0
300
1/2" = 1'-0"
140
0.5
141
12.0
290
     0
  0
SCALE
  5
25D
102
{ACAD_REACTORS
330
241
102
}
330
241
100
AcDbScale
 70
     0
300
3/4" = 1'-0"
140
0.75
141
12.0
290
     0
  0
SCALE
  5
25E
102
{ACAD_REACTORS
330
241
102
}
330
241
100
AcDbScale
 70
     0
300
1" = 1'-0"
140
1.0
141
12.0
290
     0
  0
SCALE
  5
25F
102
{ACAD_REACTORS
330
241
102
}
330
241
100
AcDbScale
 70
     0
300
1-1/2" = 1'-0"
140
1.5
141
12.0
290
     0
  0
SCALE
  5
260
102
{ACAD_REACTORS
330
241
102
}
330
241
100
AcDbScale
 70
     0
300
3" = 1'-0"
140
3.0
141
12.0
290
     0
  0
SCALE
  5
261
102
{ACAD_REACTORS
330
241
102
}
330
241
100
AcDbScale
 70
     0
300
6" = 1'-0"
140
6.0
141
12.0
290
     0
  0
SCALE
  5
262
102
{ACAD_REACTORS
330
241
102
}
330
241
100
AcDbScale
 70
     0
300
1'-0" = 1'-0"
140
12.0
141
12.0
290
     0
  0
TABLESTYLE
  5
279
102
{ACAD_REACTORS
330
278
102
}
102
{ACAD_XDICTIONARY
360
132D
102
}
330
278
100
AcDbTableStyle
  3
Standard
 70
     0
 71
     0
 40
0.06
 41
0.06
280
     0
281
     0
  7
Standard
140
4.5
170
     2
 62
     0
 63
   257
283
     0
 90
        4
 91
        0
  1

274
    -2
284
     1
 64
     0
275
    -2
285
     1
 65
     0
276
    -2
286
     1
 66
     0
277
    -2
287
     1
 67
     0
278
    -2
288
     1
 68
     0
279
    -2
289
     1
 69
     0
  7
Standard
140
6.0
170
     5
 62
     0
 63
   257
283
     0
 90
        4
 91
        0
  1

274
    -2
284
     1
 64
     0
275
    -2
285
     1
 65
     0
276
    -2
286
     1
 66
     0
277
    -2
287
     1
 67
     0
278
    -2
288
     1
 68
     0
279
    -2
289
     1
 69
     0
  7
Standard
140
4.5
170
     5
 62
     0
 63
   257
283
     0
 90
        4
 91
        0
  1

274
    -2
284
     1
 64
     0
275
    -2
285
     1
 65
     0
276
    -2
286
     1
 66
     0
277
    -2
287
     1
 67
     0
278
    -2
288
     1
 68
     0
279
    -2
289
     1
 69
     0
  0
VISUALSTYLE
  5
26C
102
{ACAD_REACTORS
330
267
102
}
330
267
100
AcDbVisualStyle
  2
2dWireframe
 70
     4
 71
     0
 72
     2
 73
     0
 90
        0
 40
-0.6
 41
-30.0
 62
     5
 63
     7
421
 16777215
 74
     1
 91
        4
 64
     7
 65
   257
 75
     1
175
     1
 42
1.0
 92
        0
 66
   257
 43
1.0
 76
     1
 77
     6
 78
     2
 67
     7
 79
     5
170
     0
171
     0
290
     0
174
     0
 93
        1
 44
0.0
173
     0
291
     0
 45
0.0
  0
VISUALSTYLE
  5
26E
102
{ACAD_REACTORS
330
267
102
}
330
267
100
AcDbVisualStyle
  2
3D Hidden
 70
     6
 71
     1
 72
     2
 73
     2
 90
        0
 40
-0.6
 41
-30.0
 62
     5
 63
     7
421
 16777215
 74
     2
 91
        2
 64
     7
 65
   257
 75
     2
175
     1
 42
40.0
 92
        0
 66
   257
 43
1.0
 76
     1
 77
     6
 78
     2
 67
     7
 79
     3
170
     0
171
     0
290
     0
174
     0
 93
        1
 44
0.0
173
     0
291
     0
 45
0.0
  0
VISUALSTYLE
  5
26D
102
{ACAD_REACTORS
330
267
102
}
330
267
100
AcDbVisualStyle
  2
3dWireframe
 70
     5
 71
     0
 72
     2
 73
     0
 90
        0
 40
-0.6
 41
-30.0
 62
     5
 63
     7
421
 16777215
 74
     1
 91
        4
 64
     7
 65
   257
 75
     1
175
     1
 42
1.0
 92
        0
 66
   257
 43
1.0
 76
     1
 77
     6
 78
     2
 67
     7
 79
     5
170
     0
171
     0
290
     0
174
     0
 93
        1
 44
0.0
173
     0
291
     0
 45
0.0
  0
VISUALSTYLE
  5
26F
102
{ACAD_REACTORS
330
267
102
}
330
267
100
AcDbVisualStyle
  2
Basic
 70
     7
 71
     1
 72
     0
 73
     1
 90
        0
 40
-0.6
 41
-30.0
 62
     5
 63
     7
421
 16777215
 74
     0
 91
        4
 64
     7
 65
   257
 75
     1
175
     1
 42
1.0
 92
        8
 66
     7
 43
1.0
 76
     1
 77
     6
 78
     2
 67
     7
 79
     5
170
     0
171
     0
290
     0
174
     0
 93
        1
 44
0.0
173
     0
291
     1
 45
0.0
  0
VISUALSTYLE
  5
273
102
{ACAD_REACTORS
330
267
102
}
330
267
100
AcDbVisualStyle
  2
Brighten
 70
    12
 71
     2
 72
     2
 73
     0
 90
        0
 40
-0.6
 41
-30.0
 62
     5
 63
     7
421
 16777215
 74
     1
 91
        4
 64
     7
 65
   257
 75
     1
175
     1
 42
1.0
 92
        8
 66
     7
 43
1.0
 76
     1
 77
     6
 78
     2
 67
     7
 79
     5
170
     0
171
     0
290
     0
174
     0
 93
        1
 44
50.0
173
     0
291
     1
 45
0.0
  0
VISUALSTYLE
  5
277
102
{ACAD_REACTORS
330
267
102
}
330
267
100
AcDbVisualStyle
  2
ColorChange
 70
    16
 71
     2
 72
     2
 73
     3
 90
        0
 40
-0.6
 41
-30.0
 62
     5
 63
     8
421
  8421504
 74
     1
 91
        4
 64
     7
 65
   257
 75
     1
175
     1
 42
1.0
 92
        8
 66
     8
424
  8421504
 43
1.0
 76
     1
 77
     6
 78
     2
 67
     7
 79
     5
170
     0
171
     0
290
     0
174
     0
 93
        1
 44
0.0
173
     0
291
     1
 45
0.0
  0
VISUALSTYLE
  5
271
102
{ACAD_REACTORS
330
267
102
}
330
267
100
AcDbVisualStyle
  2
Conceptual
 70
     9
 71
     3
 72
     2
 73
     0
 90
        0
 40
-0.6
 41
-30.0
 62
     5
 63
     7
421
 16777215
 74
     2
 91
        2
 64
     7
 65
   257
 75
     1
175
     1
 42
40.0
 92
        8
 66
     7
 43
1.0
 76
     1
 77
     6
 78
     2
 67
     7
 79
     3
170
     0
171
     0
290
     0
174
     0
 93
        1
 44
0.0
173
     0
291
     0
 45
0.0
  0
VISUALSTYLE
  5
272
102
{ACAD_REACTORS
330
267
102
}
330
267
100
AcDbVisualStyle
  2
Dim
 70
    11
 71
     2
 72
     2
 73
     0
 90
        0
 40
-0.6
 41
-30.0
 62
     5
 63
     7
421
 16777215
 74
     1
 91
        4
 64
     7
 65
   257
 75
     1
175
     1
 42
1.0
 92
        8
 66
     7
 43
1.0
 76
     1
 77
     6
 78
     2
 67
     7
 79
     5
170
     0
171
     0
290
     0
174
     0
 93
        1
 44
-50.0
173
     0
291
     1
 45
0.0
  0
VISUALSTYLE
  5
8FE
102
{ACAD_REACTORS
330
267
102
}
330
267
100
AcDbVisualStyle
  2
EdgeColorOff
 70
    22
 71
     2
 72
     2
 73
     0
 90
        0
 40
0.6
 41
30.0
 62
     5
 63
     7
421
 16777215
 74
     1
 91
        4
 64
     7
 65
   257
 75
     1
175
     1
 42
1.0
 92
        8
 66
     7
 43
1.0
 76
     1
 77
     6
 78
     2
 67
     7
 79
     5
170
     0
171
     0
290
     0
174
     0
 93
        1
 44
0.0
173
     0
291
     1
 45
0.0
  0
VISUALSTYLE
  5
276
102
{ACAD_REACTORS
330
267
102
}
330
267
100
AcDbVisualStyle
  2
Facepattern
 70
    15
 71
     2
 72
     2
 73
     0
 90
        0
 40
-0.6
 41
-30.0
 62
     5
 63
     7
421
 16777215
 74
     1
 91
        4
 64
     7
 65
   257
 75
     1
175
     1
 42
1.0
 92
        8
 66
     7
 43
1.0
 76
     1
 77
     6
 78
     2
 67
     7
 79
     5
170
     0
171
     0
290
     0
174
     0
 93
        1
 44
0.0
173
     0
291
     1
 45
0.0
  0
VISUALSTYLE
  5
268
102
{ACAD_REACTORS
330
267
102
}
330
267
100
AcDbVisualStyle
  2
Flat
 70
     0
 71
     2
 72
     1
 73
     1
 90
        2
 40
-0.6
 41
30.0
 62
     5
 63
     7
421
 16777215
 74
     0
 91
        4
 64
     7
 65
   257
 75
     1
175
     1
 42
1.0
 92
        8
 66
     7
 43
1.0
 76
     1
 77
     6
 78
     2
 67
     7
 79
     5
170
     0
171
     0
290
     0
174
     0
 93
       13
 44
0.0
173
     0
291
     1
 45
0.0
  0
VISUALSTYLE
  5
269
102
{ACAD_REACTORS
330
267
102
}
330
267
100
AcDbVisualStyle
  2
FlatWithEdges
 70
     1
 71
     2
 72
     1
 73
     1
 90
        2
 40
-0.6
 41
30.0
 62
     5
 63
     7
421
 16777215
 74
     1
 91
        4
 64
     7
 65
   257
 75
     1
175
     1
 42
1.0
 92
        0
 66
   257
 43
1.0
 76
     1
 77
     6
 78
     2
 67
     7
 79
     5
170
     0
171
     0
290
     0
174
     0
 93
       13
 44
0.0
173
     0
291
     1
 45
0.0
  0
VISUALSTYLE
  5
26A
102
{ACAD_REACTORS
330
267
102
}
330
267
100
AcDbVisualStyle
  2
Gouraud
 70
     2
 71
     2
 72
     2
 73
     1
 90
        2
 40
-0.6
 41
30.0
 62
     5
 63
     7
421
 16777215
 74
     0
 91
        4
 64
     7
 65
   257
 75
     1
175
     1
 42
1.0
 92
        0
 66
     7
 43
1.0
 76
     1
 77
     6
 78
     2
 67
     7
 79
     5
170
     0
171
     0
290
     0
174
     0
 93
       13
 44
0.0
173
     0
291
     1
 45
0.0
  0
VISUALSTYLE
  5
26B
102
{ACAD_REACTORS
330
267
102
}
330
267
100
AcDbVisualStyle
  2
GouraudWithEdges
 70
     3
 71
     2
 72
     2
 73
     1
 90
        2
 40
-0.6
 41
30.0
 62
     5
 63
     7
421
 16777215
 74
     1
 91
        4
 64
     7
 65
   257
 75
     1
175
     1
 42
1.0
 92
        0
 66
   257
 43
1.0
 76
     1
 77
     6
 78
     2
 67
     7
 79
     5
170
     0
171
     0
290
     0
174
     0
 93
       13
 44
0.0
173
     0
291
     1
 45
0.0
  0
VISUALSTYLE
  5
8FB
102
{ACAD_REACTORS
330
267
102
}
330
267
100
AcDbVisualStyle
  2
Hidden
 70
     6
 71
     1
 72
     2
 73
     2
 90
        0
 40
0.6
 41
30.0
 62
     5
 63
     7
421
 16777215
 74
     2
 91
        2
 64
     7
 65
   257
 75
     2
175
     1
 42
40.0
 92
        0
 66
   257
 43
1.0
 76
     1
 77
     6
 78
     2
 67
     7
 79
     3
170
     0
171
     0
290
     0
174
     0
 93
        1
 44
0.0
173
     0
291
     0
 45
0.0
  0
VISUALSTYLE
  5
8FC
102
{ACAD_REACTORS
330
267
102
}
330
267
100
AcDbVisualStyle
  2
JitterOff
 70
    20
 71
     2
 72
     2
 73
     0
 90
        0
 40
0.6
 41
30.0
 62
     5
 63
     7
421
 16777215
 74
     1
 91
        4
 64
     7
 65
   257
 75
     1
175
     1
 42
1.0
 92
       10
 66
     7
 43
1.0
 76
     1
 77
     6
 78
     2
 67
     7
 79
     5
170
     0
171
     0
290
     0
174
     0
 93
        1
 44
0.0
173
     0
291
     1
 45
0.0
  0
VISUALSTYLE
  5
275
102
{ACAD_REACTORS
330
267
102
}
330
267
100
AcDbVisualStyle
  2
Linepattern
 70
    14
 71
     2
 72
     2
 73
     0
 90
        0
 40
-0.6
 41
-30.0
 62
     5
 63
     7
421
 16777215
 74
     1
 91
        4
 64
     7
 65
   257
 75
     7
175
     7
 42
1.0
 92
        8
 66
     7
 43
1.0
 76
     1
 77
     6
 78
     2
 67
     7
 79
     5
170
     0
171
     0
290
     0
174
     0
 93
        1
 44
0.0
173
     0
291
     1
 45
0.0
  0
VISUALSTYLE
  5
8FD
102
{ACAD_REACTORS
330
267
102
}
330
267
100
AcDbVisualStyle
  2
OverhangOff
 70
    21
 71
     2
 72
     2
 73
     0
 90
        0
 40
0.6
 41
30.0
 62
     5
 63
     7
421
 16777215
 74
     1
 91
        4
 64
     7
 65
   257
 75
     1
175
     1
 42
1.0
 92
        9
 66
     7
 43
1.0
 76
     1
 77
     6
 78
     2
 67
     7
 79
     5
170
     0
171
     0
290
     0
174
     0
 93
        1
 44
0.0
173
     0
291
     1
 45
0.0
  0
VISUALSTYLE
  5
270
102
{ACAD_REACTORS
330
267
102
}
330
267
100
AcDbVisualStyle
  2
Realistic
 70
     8
 71
     2
 72
     2
 73
     0
 90
        0
 40
-0.6
 41
-30.0
 62
     5
 63
     7
421
 16777215
 74
     1
 91
        0
 64
     7
 65
   257
 75
     1
175
     1
 42
1.0
 92
        8
 66
     8
424
  7895160
 43
1.0
 76
     1
 77
     6
 78
     2
 67
     7
 79
     5
170
     0
171
     0
290
     0
174
     0
 93
       13
 44
0.0
173
     0
291
     0
 45
0.0
  0
VISUALSTYLE
  5
903
102
{ACAD_REACTORS
330
267
102
}
330
267
100
AcDbVisualStyle
  2
Shaded
 70
    27
 71
     2
 72
     2
 73
     1
 90
        2
 40
0.6
 41
30.0
 62
     5
 63
     7
421
 16777215
 74
     0
 91
        4
 64
     7
 65
   257
 75
     1
175
     1
 42
1.0
 92
        8
 66
   257
 43
1.0
 76
     1
 77
     6
 78
     2
 67
     8
425
  7895160
 79
     3
170
     0
171
     0
290
     0
174
     0
 93
        5
 44
0.0
173
     0
291
     0
 45
0.0
  0
VISUALSTYLE
  5
902
102
{ACAD_REACTORS
330
267
102
}
330
267
100
AcDbVisualStyle
  2
Shaded with edges
 70
    26
 71
     2
 72
     2
 73
     1
 90
        2
 40
0.6
 41
30.0
 62
     5
 63
     7
421
 16777215
 74
     1
 91
       10
 64
     7
 65
   257
 75
     2
175
     1
 42
1.0
 92
        8
 66
   257
 43
1.0
 76
     1
 77
     6
 78
     2
 67
     7
 79
     3
170
     0
171
     0
290
     0
174
     0
 93
        5
 44
0.0
173
     0
291
     0
 45
0.0
  0
VISUALSTYLE
  5
8FF
102
{ACAD_REACTORS
330
267
102
}
330
267
100
AcDbVisualStyle
  2
Shades of Gray
 70
    23
 71
     2
 72
     2
 73
     3
 90
        0
 40
0.6
 41
30.0
 62
     5
 63
     7
421
 16777215
 74
     2
 91
        2
 64
     7
 65
     7
 75
     1
175
     1
 42
40.0
 92
        8
 66
     7
 43
1.0
 76
     1
 77
     6
 78
     2
 67
     7
 79
     3
170
     0
171
     0
290
     0
174
     0
 93
        1
 44
0.0
173
     0
291
     0
 45
0.0
  0
VISUALSTYLE
  5
900
102
{ACAD_REACTORS
330
267
102
}
330
267
100
AcDbVisualStyle
  2
Sketchy
 70
    24
 71
     1
 72
     2
 73
     2
 90
        0
 40
0.6
 41
30.0
 62
     5
 63
     7
421
 16777215
 74
     2
 91
        2
 64
     7
 65
     7
 75
     1
175
     1
 42
40.0
 92
       11
 66
     7
 43
1.0
 76
     1
 77
     6
 78
     2
 67
     7
 79
     6
170
     0
171
     0
290
     0
174
     0
 93
        1
 44
0.0
173
     0
291
     0
 45
0.0
  0
VISUALSTYLE
  5
274
102
{ACAD_REACTORS
330
267
102
}
330
267
100
AcDbVisualStyle
  2
Thicken
 70
    13
 71
     2
 72
     2
 73
     0
 90
        0
 40
-0.6
 41
-30.0
 62
     5
 63
     7
421
 16777215
 74
     1
 91
        4
 64
     7
 65
   257
 75
     1
175
     1
 42
1.0
 92
       12
 66
     7
 43
1.0
 76
     1
 77
     6
 78
     2
 67
     7
 79
     5
170
     0
171
     0
290
     0
174
     0
 93
        1
 44
0.0
173
     0
291
     1
 45
0.0
  0
VISUALSTYLE
  5
8FA
102
{ACAD_REACTORS
330
267
102
}
330
267
100
AcDbVisualStyle
  2
Wireframe
 70
     5
 71
     0
 72
     2
 73
     0
 90
        0
 40
0.6
 41
30.0
 62
     5
 63
     7
421
 16777215
 74
     1
 91
        4
 64
     7
 65
   257
 75
     1
175
     1
 42
1.0
 92
        0
 66
   257
 43
1.0
 76
     1
 77
     6
 78
     2
 67
     7
 79
     3
170
     0
171
     0
290
     0
174
     0
 93
        1
 44
0.0
173
     0
291
     0
 45
0.0
  0
VISUALSTYLE
  5
901
102
{ACAD_REACTORS
330
267
102
}
330
267
100
AcDbVisualStyle
  2
X-Ray
 70
    25
 71
     2
 72
     2
 73
     1
 90
        1
 40
0.5
 41
30.0
 62
     5
 63
     7
421
 16777215
 74
     1
 91
        0
 64
     7
 65
   257
 75
     1
175
     1
 42
1.0
 92
        8
 66
     7
 43
1.0
 76
     1
 77
     6
 78
     2
 67
     7
 79
     3
170
     0
171
     0
290
     0
174
     0
 93
       13
 44
0.0
173
     0
291
     0
 45
0.0
  0
DICTIONARYVAR
  5
331
102
{ACAD_REACTORS
330
330
102
}
330
330
100
DictionaryVariables
280
     0
  1
1:1
  0
DICTIONARYVAR
  5
335
102
{ACAD_REACTORS
330
330
102
}
330
330
100
DictionaryVariables
280
     0
  1
Standard
  0
DICTIONARYVAR
  5
D52
102
{ACAD_REACTORS
330
330
102
}
330
330
100
DictionaryVariables
280
     0
  1
ByLayer
  0
DICTIONARYVAR
  5
896
102
{ACAD_REACTORS
330
330
102
}
330
330
100
DictionaryVariables
280
     0
  1
0
  0
XRECORD
  5
C9F
102
{ACAD_REACTORS
330
2E2
102
}
330
2E2
100
AcDbXrecord
280
     1
 91
     1023
301

290
     0
302
MODEL
330
14
 90
        8
 62
     7
370
    -3
331
13
  1
Color_7
330
0
 90
        0
 62
     7
370
    -3
331
13
  1
Color_7
330
4B
 90
        8
 62
     7
370
     0
331
13
  1
Color_7
330
4C
 90
        8
 62
     7
370
     9
331
13
  1
Color_7
330
4D
 90
        8
 62
     7
370
    -3
331
13
  1
Color_7
330
667
 90
        8
 62
     7
370
    -3
331
13
  1
Color_7
330
88C
 90
        8
 62
     7
370
     9
331
45
  1
Color_7
330
0
 90
        8
 62
     7
370
    -3
331
13
  1
Color_7
  0
XRECORD
  5
7AA
102
{ACAD_REACTORS
330
2E2
102
}
330
2E2
100
AcDbXrecord
280
     1
 91
     1023
301

290
     0
302
MODEL
330
14
 90
        8
 62
     7
370
    -3
331
13
  1
Color_7
330
0
 90
        0
 62
     7
370
    -3
331
13
  1
Color_7
330
4B
 90
        8
 62
     7
370
    20
331
13
  1
Color_7
330
4C
 90
        8
 62
     7
370
    13
331
13
  1
Color_7
330
4D
 90
        8
 62
     7
370
    20
331
13
  1
Color_7
330
667
 90
        8
 62
     7
370
    -3
331
13
  1
Color_7
330
88C
 90
        8
 62
     7
370
    20
331
45
  1
Color_7
330
0
 90
        8
 62
     7
370
    -3
331
13
  1
Color_7
  0
DICTIONARY
  5
132D
330
279
100
AcDbDictionary
280
     1
281
     1
  3
ACAD_ROUNDTRIP_2008_TABLESTYLE_CELLSTYLEMAP
360
132E
  0
CELLSTYLEMAP
  5
132E
102
{ACAD_REACTORS
330
132D
102
}
330
132D
100
AcDbCellStyleMap
 90
        3
300
CELLSTYLE
  1
TABLEFORMAT_BEGIN
 90
        5
170
     1
 91
        0
 92
    32768
 62
   257
 93
        1
300
CONTENTFORMAT
  1
CONTENTFORMAT_BEGIN
 90
        0
 91
        0
 92
        4
 93
        0
300

 40
0.0
140
1.0
 94
        5
 62
     0
340
17
144
6.0
309
CONTENTFORMAT_END
171
     1
301
MARGIN
  1
CELLMARGIN_BEGIN
 40
0.06
 40
0.06
 40
0.06
 40
0.06
 40
0.18
 40
0.18
309
CELLMARGIN_END
 94
        6
 95
        1
302
GRIDFORMAT
  1
GRIDFORMAT_BEGIN
 90
        0
 91
        1
 62
     0
 92
       -2
340
0
 93
        0
 40
0.045
309
GRIDFORMAT_END
 95
        2
302
GRIDFORMAT
  1
GRIDFORMAT_BEGIN
 90
        0
 91
        1
 62
     0
 92
       -2
340
0
 93
        0
 40
0.045
309
GRIDFORMAT_END
 95
        4
302
GRIDFORMAT
  1
GRIDFORMAT_BEGIN
 90
        0
 91
        1
 62
     0
 92
       -2
340
0
 93
        0
 40
0.045
309
GRIDFORMAT_END
 95
        8
302
GRIDFORMAT
  1
GRIDFORMAT_BEGIN
 90
        0
 91
        1
 62
     0
 92
       -2
340
0
 93
        0
 40
0.045
309
GRIDFORMAT_END
 95
       16
302
GRIDFORMAT
  1
GRIDFORMAT_BEGIN
 90
        0
 91
        1
 62
     0
 92
       -2
340
0
 93
        0
 40
0.045
309
GRIDFORMAT_END
 95
       32
302
GRIDFORMAT
  1
GRIDFORMAT_BEGIN
 90
        0
 91
        1
 62
     0
 92
       -2
340
0
 93
        0
 40
0.045
309
GRIDFORMAT_END
309
TABLEFORMAT_END
  1
CELLSTYLE_BEGIN
 90
        1
 91
        1
300
_TITLE
309
CELLSTYLE_END
300
CELLSTYLE
  1
TABLEFORMAT_BEGIN
 90
        5
170
     1
 91
        0
 92
        0
 62
   257
 93
        1
300
CONTENTFORMAT
  1
CONTENTFORMAT_BEGIN
 90
        0
 91
        0
 92
        4
 93
        0
300

 40
0.0
140
1.0
 94
        5
 62
     0
340
17
144
4.5
309
CONTENTFORMAT_END
171
     1
301
MARGIN
  1
CELLMARGIN_BEGIN
 40
0.06
 40
0.06
 40
0.06
 40
0.06
 40
0.18
 40
0.18
309
CELLMARGIN_END
 94
        6
 95
        1
302
GRIDFORMAT
  1
GRIDFORMAT_BEGIN
 90
        0
 91
        1
 62
     0
 92
       -2
340
0
 93
        0
 40
0.045
309
GRIDFORMAT_END
 95
        2
302
GRIDFORMAT
  1
GRIDFORMAT_BEGIN
 90
        0
 91
        1
 62
     0
 92
       -2
340
0
 93
        0
 40
0.045
309
GRIDFORMAT_END
 95
        4
302
GRIDFORMAT
  1
GRIDFORMAT_BEGIN
 90
        0
 91
        1
 62
     0
 92
       -2
340
0
 93
        0
 40
0.045
309
GRIDFORMAT_END
 95
        8
302
GRIDFORMAT
  1
GRIDFORMAT_BEGIN
 90
        0
 91
        1
 62
     0
 92
       -2
340
0
 93
        0
 40
0.045
309
GRIDFORMAT_END
 95
       16
302
GRIDFORMAT
  1
GRIDFORMAT_BEGIN
 90
        0
 91
        1
 62
     0
 92
       -2
340
0
 93
        0
 40
0.045
309
GRIDFORMAT_END
 95
       32
302
GRIDFORMAT
  1
GRIDFORMAT_BEGIN
 90
        0
 91
        1
 62
     0
 92
       -2
340
0
 93
        0
 40
0.045
309
GRIDFORMAT_END
309
TABLEFORMAT_END
  1
CELLSTYLE_BEGIN
 90
        2
 91
        1
300
_HEADER
309
CELLSTYLE_END
300
CELLSTYLE
  1
TABLEFORMAT_BEGIN
 90
        5
170
     1
 91
        0
 92
        0
 62
   257
 93
        1
300
CONTENTFORMAT
  1
CONTENTFORMAT_BEGIN
 90
        0
 91
        0
 92
        4
 93
        0
300

 40
0.0
140
1.0
 94
        2
 62
     0
340
17
144
4.5
309
CONTENTFORMAT_END
171
     1
301
MARGIN
  1
CELLMARGIN_BEGIN
 40
0.06
 40
0.06
 40
0.06
 40
0.06
 40
0.18
 40
0.18
309
CELLMARGIN_END
 94
        6
 95
        1
302
GRIDFORMAT
  1
GRIDFORMAT_BEGIN
 90
        0
 91
        1
 62
     0
 92
       -2
340
0
 93
        0
 40
0.045
309
GRIDFORMAT_END
 95
        2
302
GRIDFORMAT
  1
GRIDFORMAT_BEGIN
 90
        0
 91
        1
 62
     0
 92
       -2
340
0
 93
        0
 40
0.045
309
GRIDFORMAT_END
 95
        4
302
GRIDFORMAT
  1
GRIDFORMAT_BEGIN
 90
        0
 91
        1
 62
     0
 92
       -2
340
0
 93
        0
 40
0.045
309
GRIDFORMAT_END
 95
        8
302
GRIDFORMAT
  1
GRIDFORMAT_BEGIN
 90
        0
 91
        1
 62
     0
 92
       -2
340
0
 93
        0
 40
0.045
309
GRIDFORMAT_END
 95
       16
302
GRIDFORMAT
  1
GRIDFORMAT_BEGIN
 90
        0
 91
        1
 62
     0
 92
       -2
340
0
 93
        0
 40
0.045
309
GRIDFORMAT_END
 95
       32
302
GRIDFORMAT
  1
GRIDFORMAT_BEGIN
 90
        0
 91
        1
 62
     0
 92
       -2
340
0
 93
        0
 40
0.045
309
GRIDFORMAT_END
309
TABLEFORMAT_END
  1
CELLSTYLE_BEGIN
 90
        3
 91
        2
300
_DATA
309
CELLSTYLE_END
  0
ENDSEC
  0
EOF
