  0
SECTION
  2
HEADER
  9
$ACADVER
  1
AC1021
  9
$ACADMAINTVER
 70
    25
  9
$DWGCODEPAGE
  3
ANSI_932
  9
$LASTSAVEDBY
  1
howeNelson
  9
$INSBASE
 10
0.0
 20
0.0
 30
0.0
  9
$EXTMIN
 10
0.0
 20
0.0
 30
-0.0000000000000142
  9
$EXTMAX
 10
420.0
 20
594.0
 30
0.0000000000000071
  9
$LIMMIN
 10
0.0
 20
0.0
  9
$LIMMAX
 10
420.0
 20
594.0
  9
$ORTHOMODE
 70
     0
  9
$REGENMODE
 70
     1
  9
$FILLMODE
 70
     1
  9
$QTEXTMODE
 70
     0
  9
$MIRRTEXT
 70
     1
  9
$LTSCALE
 40
50.0
  9
$ATTMODE
 70
     1
  9
$TEXTSIZE
 40
2.5
  9
$TRACEWID
 40
1.0
  9
$TEXTSTYLE
  7
ＭＳ ゴシック
  9
$CLAYER
  8
DIM
  9
$CELTYPE
  6
ByLayer
  9
$CECOLOR
 62
   256
  9
$CELTSCALE
 40
0.05
  9
$DISPSILH
 70
     0
  9
$DIMSCALE
 40
1.0
  9
$DIMASZ
 40
1.0
  9
$DIMEXO
 40
5.0
  9
$DIMDLI
 40
0.9999999999999999
  9
$DIMRND
 40
0.0
  9
$DIMDLE
 40
0.0
  9
$DIMEXE
 40
0.0
  9
$DIMTP
 40
0.0
  9
$DIMTM
 40
0.0
  9
$DIMTXT
 40
5.0
  9
$DIMCEN
 40
0.0
  9
$DIMTSZ
 40
0.0
  9
$DIMTOL
 70
     0
  9
$DIMLIM
 70
     0
  9
$DIMTIH
 70
     0
  9
$DIMTOH
 70
     0
  9
$DIMSE1
 70
     0
  9
$DIMSE2
 70
     0
  9
$DIMTAD
 70
     1
  9
$DIMZIN
 70
    11
  9
$DIMBLK
  1
DOT
  9
$DIMASO
 70
     1
  9
$DIMSHO
 70
     1
  9
$DIMPOST
  1
<>
  9
$DIMAPOST
  1
[]
  9
$DIMALT
 70
     0
  9
$DIMALTD
 70
     1
  9
$DIMALTF
 40
1.0
  9
$DIMLFAC
 40
1.0
  9
$DIMTOFL
 70
     0
  9
$DIMTVP
 40
0.0
  9
$DIMTIX
 70
     1
  9
$DIMSOXD
 70
     0
  9
$DIMSAH
 70
     0
  9
$DIMBLK1
  1

  9
$DIMBLK2
  1

  9
$DIMSTYLE
  2
tfrom線あり
  9
$DIMCLRD
 70
     0
  9
$DIMCLRE
 70
     0
  9
$DIMCLRT
 70
     0
  9
$DIMTFAC
 40
1.0
  9
$DIMGAP
 40
5.0
  9
$DIMJUST
 70
     0
  9
$DIMSD1
 70
     0
  9
$DIMSD2
 70
     0
  9
$DIMTOLJ
 70
     1
  9
$DIMTZIN
 70
    11
  9
$DIMALTZ
 70
    11
  9
$DIMALTTZ
 70
    11
  9
$DIMUPT
 70
     0
  9
$DIMDEC
 70
     0
  9
$DIMTDEC
 70
     1
  9
$DIMALTU
 70
     2
  9
$DIMALTTD
 70
     2
  9
$DIMTXSTY
  7
ＭＳ ゴシック
  9
$DIMAUNIT
 70
     0
  9
$DIMADEC
 70
     2
  9
$DIMALTRND
 40
0.0
  9
$DIMAZIN
 70
     0
  9
$DIMDSEP
 70
    46
  9
$DIMATFIT
 70
     0
  9
$DIMFRAC
 70
     2
  9
$DIMLDRBLK
  1
DOT
  9
$DIMLUNIT
 70
     2
  9
$DIMLWD
 70
    -2
  9
$DIMLWE
 70
    -2
  9
$DIMTMOVE
 70
     0
  9
$DIMFXL
 40
1.0
  9
$DIMFXLON
 70
     0
  9
$DIMJOGANG
 40
0.7853981633974483
  9
$DIMTFILL
 70
     0
  9
$DIMTFILLCLR
 70
     0
  9
$DIMARCSYM
 70
     0
  9
$DIMLTYPE
  6

  9
$DIMLTEX1
  6

  9
$DIMLTEX2
  6

  9
$LUNITS
 70
     2
  9
$LUPREC
 70
     0
  9
$SKETCHINC
 40
0.1
  9
$FILLETRAD
 40
0.0
  9
$AUNITS
 70
     0
  9
$AUPREC
 70
     0
  9
$MENU
  1
acad
  9
$ELEVATION
 40
0.0
  9
$PELEVATION
 40
0.0
  9
$THICKNESS
 40
0.0
  9
$LIMCHECK
 70
     0
  9
$CHAMFERA
 40
0.0
  9
$CHAMFERB
 40
0.0
  9
$CHAMFERC
 40
0.0
  9
$CHAMFERD
 40
0.0
  9
$SKPOLY
 70
     0
  9
$TDCREATE
 40
2447893.375
  9
$TDUCREATE
 40
0.0
  9
$TDUPDATE
 40
2457595.694827118
  9
$TDUUPDATE
 40
2457595.319827118
  9
$TDINDWG
 40
0.2748334722
  9
$TDUSRTIMER
 40
2457595.31982478
  9
$USRTIMER
 70
     1
  9
$ANGBASE
 50
0.0
  9
$ANGDIR
 70
     0
  9
$PDMODE
 70
     1
  9
$PDSIZE
 40
-2.0
  9
$PLINEWID
 40
0.0
  9
$SPLFRAME
 70
     0
  9
$SPLINETYPE
 70
     6
  9
$SPLINESEGS
 70
     8
  9
$HANDSEED
  5
5CEA
  9
$SURFTAB1
 70
     6
  9
$SURFTAB2
 70
     6
  9
$SURFTYPE
 70
     6
  9
$SURFU
 70
     6
  9
$SURFV
 70
     6
  9
$UCSBASE
  2

  9
$UCSNAME
  2

  9
$UCSORG
 10
0.0
 20
0.0
 30
0.0
  9
$UCSXDIR
 10
1.0
 20
0.0
 30
0.0
  9
$UCSYDIR
 10
0.0
 20
1.0
 30
0.0
  9
$UCSORTHOREF
  2

  9
$UCSORTHOVIEW
 70
     0
  9
$UCSORGTOP
 10
0.0
 20
0.0
 30
0.0
  9
$UCSORGBOTTOM
 10
0.0
 20
0.0
 30
0.0
  9
$UCSORGLEFT
 10
0.0
 20
0.0
 30
0.0
  9
$UCSORGRIGHT
 10
0.0
 20
0.0
 30
0.0
  9
$UCSORGFRONT
 10
0.0
 20
0.0
 30
0.0
  9
$UCSORGBACK
 10
0.0
 20
0.0
 30
0.0
  9
$PUCSBASE
  2

  9
$PUCSNAME
  2

  9
$PUCSORG
 10
0.0
 20
0.0
 30
0.0
  9
$PUCSXDIR
 10
1.0
 20
0.0
 30
0.0
  9
$PUCSYDIR
 10
0.0
 20
1.0
 30
0.0
  9
$PUCSORTHOREF
  2

  9
$PUCSORTHOVIEW
 70
     0
  9
$PUCSORGTOP
 10
0.0
 20
0.0
 30
0.0
  9
$PUCSORGBOTTOM
 10
0.0
 20
0.0
 30
0.0
  9
$PUCSORGLEFT
 10
0.0
 20
0.0
 30
0.0
  9
$PUCSORGRIGHT
 10
0.0
 20
0.0
 30
0.0
  9
$PUCSORGFRONT
 10
0.0
 20
0.0
 30
0.0
  9
$PUCSORGBACK
 10
0.0
 20
0.0
 30
0.0
  9
$USERI1
 70
     0
  9
$USERI2
 70
     0
  9
$USERI3
 70
     0
  9
$USERI4
 70
     0
  9
$USERI5
 70
     0
  9
$USERR1
 40
0.0
  9
$USERR2
 40
0.0
  9
$USERR3
 40
0.0
  9
$USERR4
 40
0.0
  9
$USERR5
 40
0.0
  9
$WORLDVIEW
 70
     1
  9
$SHADEDGE
 70
     3
  9
$SHADEDIF
 70
    70
  9
$TILEMODE
 70
     1
  9
$MAXACTVP
 70
    64
  9
$PINSBASE
 10
0.0
 20
0.0
 30
0.0
  9
$PLIMCHECK
 70
     0
  9
$PEXTMIN
 10
0.0
 20
0.0
 30
0.0
  9
$PEXTMAX
 10
0.0
 20
0.0
 30
0.0
  9
$PLIMMIN
 10
-95.87226993865028
 20
-25.69999999999999
  9
$PLIMMAX
 10
201.1277300613497
 20
184.3
  9
$UNITMODE
 70
     0
  9
$VISRETAIN
 70
     0
  9
$PLINEGEN
 70
     1
  9
$PSLTSCALE
 70
     0
  9
$TREEDEPTH
 70
  3020
  9
$CMLSTYLE
  2
Standard
  9
$CMLJUST
 70
     0
  9
$CMLSCALE
 40
1.0
  9
$PROXYGRAPHICS
 70
     0
  9
$MEASUREMENT
 70
     1
  9
$CELWEIGHT
370
    -1
  9
$ENDCAPS
280
     0
  9
$JOINSTYLE
280
     0
  9
$LWDISPLAY
290
     1
  9
$INSUNITS
 70
     4
  9
$HYPERLINKBASE
  1

  9
$STYLESHEET
  1

  9
$XEDIT
290
     1
  9
$CEPSNTYPE
380
     0
  9
$PSTYLEMODE
290
     1
  9
$FINGERPRINTGUID
  2

  9
$VERSIONGUID
  2

  9
$EXTNAMES
290
     1
  9
$PSVPSCALE
 40
0.0
  9
$OLESTARTUP
290
     0
  9
$SORTENTS
280
   127
  9
$INDEXCTL
280
     0
  9
$HIDETEXT
280
     1
  9
$XCLIPFRAME
290
     0
  9
$HALOGAP
280
     0
  9
$OBSCOLOR
 70
   257
  9
$OBSLTYPE
280
     0
  9
$INTERSECTIONDISPLAY
280
     0
  9
$INTERSECTIONCOLOR
 70
   257
  9
$DIMASSOC
280
     2
  9
$PROJECTNAME
  1

  9
$CAMERADISPLAY
290
     0
  9
$LENSLENGTH
 40
50.0
  9
$CAMERAHEIGHT
 40
0.0
  9
$STEPSPERSEC
 40
2.0
  9
$STEPSIZE
 40
6.0
  9
$3DDWFPREC
 40
2.0
  9
$PSOLWIDTH
 40
0.25
  9
$PSOLHEIGHT
 40
4.0
  9
$LOFTANG1
 40
1.570796326794897
  9
$LOFTANG2
 40
1.570796326794897
  9
$LOFTMAG1
 40
0.0
  9
$LOFTMAG2
 40
0.0
  9
$LOFTPARAM
 70
     7
  9
$LOFTNORMALS
280
     1
  9
$LATITUDE
 40
37.795
  9
$LONGITUDE
 40
-122.394
  9
$NORTHDIRECTION
 40
0.0
  9
$TIMEZONE
 70
 -8000
  9
$LIGHTGLYPHDISPLAY
280
     1
  9
$TILEMODELIGHTSYNCH
280
     1
  9
$SOLIDHIST
280
     1
  9
$SHOWHIST
280
     1
  9
$DWFFRAME
280
     2
  9
$DGNFRAME
280
     2
  9
$REALWORLDSCALE
290
     1
  9
$INTERFERECOLOR
 62
   256
  9
$CSHADOW
280
     0
  9
$SHADOWPLANELOCATION
 40
0.0
  0
ENDSEC
  0
SECTION
  2
CLASSES
  0
CLASS
  1
LWPOLYLINE
  2
AcDbPolyline
  3
ObjectDBX Classes
 90
        0
 91
        1
280
     0
281
     1
  0
CLASS
  1
IMAGE
  2
AcDbRasterImage
  3
ISM
 90
      127
 91
       13
280
     0
281
     1
  0
CLASS
  1
OLE2FRAME
  2
AcDbOle2Frame
  3
ObjectDBX Classes
 90
        0
 91
        1
280
     0
281
     1
  0
CLASS
  1
HATCH
  2
AcDbHatch
  3
ObjectDBX Classes
 90
        0
 91
        1
280
     0
281
     1
  0
CLASS
  1
DICTIONARYVAR
  2
AcDbDictionaryVar
  3
ObjectDBX Classes
 90
        0
 91
       12
280
     0
281
     0
  0
CLASS
  1
RASTERVARIABLES
  2
AcDbRasterVariables
  3
ISM
 90
        0
 91
       12
280
     0
281
     0
  0
CLASS
  1
IMAGEDEF
  2
AcDbRasterImageDef
  3
ISM
 90
        0
 91
       12
280
     0
281
     0
  0
CLASS
  1
IMAGEDEF_REACTOR
  2
AcDbRasterImageDefReactor
  3
ISM
 90
        1
 91
       12
280
     0
281
     0
  0
CLASS
  1
IDBUFFER
  2
AcDbIdBuffer
  3
ObjectDBX Classes
 90
        0
 91
       12
280
     0
281
     0
  0
CLASS
  1
SPATIAL_FILTER
  2
AcDbSpatialFilter
  3
ObjectDBX Classes
 90
        0
 91
       12
280
     0
281
     0
  0
CLASS
  1
XRECORD
  2
AcDbXrecord
  3
ObjectDBX Classes
 90
        0
 91
        1
280
     0
281
     0
  0
CLASS
  1
SORTENTSTABLE
  2
AcDbSortentsTable
  3
ObjectDBX Classes
 90
        0
 91
       12
280
     0
281
     0
  0
CLASS
  1
LAYER_INDEX
  2
AcDbLayerIndex
  3
ObjectDBX Classes
 90
        0
 91
       12
280
     0
281
     0
  0
CLASS
  1
SPATIAL_INDEX
  2
AcDbSpatialIndex
  3
AutoCAD 2000
 90
        0
 91
       12
280
     0
281
     0
  0
CLASS
  1
OBJECT_PTR
  2
CAseDLPNTableRecord
  3
ASE-LPNTableRecord
 90
        1
 91
       12
280
     0
281
     0
  0
CLASS
  1
LAYOUT
  2
AcDbLayout
  3
ObjectDBX Classes
 90
        0
 91
        1
280
     0
281
     0
  0
CLASS
  1
PLOTSETTINGS
  2
AcDbPlotSettings
  3
ObjectDBX Classes
 90
        0
 91
       12
280
     0
281
     0
  0
CLASS
  1
ACDBDICTIONARYWDFLT
  2
AcDbDictionaryWithDefault
  3
ObjectDBX Classes
 90
        0
 91
       12
280
     0
281
     0
  0
CLASS
  1
ACDBPLACEHOLDER
  2
AcDbPlaceHolder
  3
ObjectDBX Classes
 90
        0
 91
        1
280
     0
281
     0
  0
CLASS
  1
SCALE
  2
AcDbScale
  3
ObjectDBX Classes
 90
     1153
 91
       12
280
     0
281
     0
  0
CLASS
  1
MATERIAL
  2
AcDbMaterial
  3
ObjectDBX Classes
 90
     1153
 91
       12
280
     0
281
     0
  0
CLASS
  1
VISUALSTYLE
  2
AcDbVisualStyle
  3
ObjectDBX Classes
 90
     4095
 91
       12
280
     0
281
     0
  0
CLASS
  1
TABLESTYLE
  2
AcDbTableStyle
  3
ObjectDBX Classes
 90
     4095
 91
       12
280
     0
281
     0
  0
CLASS
  1
DIMASSOC
  2
AcDbDimAssoc
  3
"AcDbDimAssoc|Product Desc:     AcDim ARX App For Dimension|Company:          Autodesk, Inc.|WEB Address:      www.autodesk.com"
 90
        0
 91
       12
280
     0
281
     0
  0
CLASS
  1
CELLSTYLEMAP
  2
AcDbCellStyleMap
  3
ObjectDBX Classes
 90
     1152
 91
       12
280
     0
281
     0
  0
CLASS
  1
SUN
  2
AcDbSun
  3
SCENEOE
 90
     1153
 91
       12
280
     0
281
     0
  0
CLASS
  1
MLEADERSTYLE
  2
AcDbMLeaderStyle
  3
ACDB_MLEADERSTYLE_CLASS
 90
     4095
 91
       12
280
     0
281
     0
  0
CLASS
  1
FIELD
  2
AcDbField
  3
ObjectDBX Classes
 90
     1152
 91
       12
280
     0
281
     0
  0
CLASS
  1
FIELDLIST
  2
AcDbFieldList
  3
ObjectDBX Classes
 90
     1152
 91
       12
280
     0
281
     0
  0
ENDSEC
  0
SECTION
  2
TABLES
  0
TABLE
  2
VPORT
  5
7
330
0
100
AcDbSymbolTable
 70
     1
  0
VPORT
  5
15
330
7
100
AcDbSymbolTableRecord
100
AcDbViewportTableRecord
  2
*ACTIVE
 70
     0
 10
0.0
 20
0.0
 11
1.0
 21
1.0
 12
301.0201356709061
 22
223.401285469834
 13
0.0
 23
0.0
 14
1.0
 24
1.0
 15
0.0
 25
0.0
 16
0.0
 26
0.0
 36
1.0
 17
-91.02013567090614
 27
73.59871453016603
 37
-46.86809886248109
 40
605.8800000000005
 41
2.479940564635958
 42
50.0
 43
0.0
 44
0.0
 50
0.0
 51
0.0
 71
    16
 72
  2000
 73
     1
 74
     1
 75
     0
 76
     0
 77
     0
 78
     0
281
     0
 65
     1
110
0.0
120
0.0
130
0.0
111
1.0
121
0.0
131
0.0
112
0.0
122
1.0
132
0.0
 79
     0
146
0.0
348
26C
 60
     3
 61
     5
292
     1
282
     1
141
0.0
142
0.0
 63
   256
361
904
  0
ENDTAB
  0
TABLE
  2
LTYPE
  5
4
330
0
100
AcDbSymbolTable
 70
     5
  0
LTYPE
  5
11
330
4
100
AcDbSymbolTableRecord
100
AcDbLinetypeTableRecord
  2
ByBlock
 70
     0
  3

 72
    65
 73
     0
 40
0.0
  0
LTYPE
  5
12
330
4
100
AcDbSymbolTableRecord
100
AcDbLinetypeTableRecord
  2
ByLayer
 70
     0
  3

 72
    65
 73
     0
 40
0.0
  0
LTYPE
  5
13
330
4
100
AcDbSymbolTableRecord
100
AcDbLinetypeTableRecord
  2
Continuous
 70
     0
  3
Solid line
 72
    65
 73
     0
 40
0.0
  0
LTYPE
  5
D6C
330
4
100
AcDbSymbolTableRecord
100
AcDbLinetypeTableRecord
  2
BORDER
 70
     0
  3
Border __  __  . __  __  . __  __  . __  __  . 
 72
    65
 73
     6
 40
44.45
 49
12.7
 74
     0
 49
-6.35
 74
     0
 49
12.7
 74
     0
 49
-6.35
 74
     0
 49
0.0
 74
     0
 49
-6.35
 74
     0
  0
LTYPE
  5
1638
330
4
100
AcDbSymbolTableRecord
100
AcDbLinetypeTableRecord
  2
HIDDEN2
 70
     0
  3
Hidden (.5x) _ _ _ _ _ _ _ _ _ _ _ _ _ _ _ _ _ 
 72
    65
 73
     2
 40
4.7625
 49
3.175
 74
     4
 75
     0
340
0
 46
0.0
 50
0.0
 44
0.0
 45
0.0
 49
-1.5875
 74
     4
 75
     0
340
0
 46
0.0
 50
0.0
 44
0.0
 45
0.0
  0
LTYPE
  5
4F60
330
4
100
AcDbSymbolTableRecord
100
AcDbLinetypeTableRecord
  2
CENTER2
 70
     0
  3
___ _ ___ _ ___ _ ___ _ ___ _ ___ _ ___ _ ___ _
 72
    65
 73
     4
 40
1.125
 49
0.75
 74
     0
 49
-0.125
 74
     0
 49
0.125
 74
     0
 49
-0.125
 74
     0
  0
LTYPE
  5
5C38
330
4
100
AcDbSymbolTableRecord
100
AcDbLinetypeTableRecord
  2
HIDDEN
 70
     0
  3
Hidden _ _ _ _ _ _ _ _ _ _ _ _ _ _ _ _ _ _ _ _ 
 72
    65
 73
     2
 40
9.524999999999999
 49
6.35
 74
     0
 49
-3.175
 74
     0
  0
ENDTAB
  0
TABLE
  2
LAYER
  5
2
102
{ACAD_XDICTIONARY
360
2E1
102
}
330
0
100
AcDbSymbolTable
 70
    35
  0
LAYER
  5
14
330
2
100
AcDbSymbolTableRecord
100
AcDbLayerTableRecord
  2
0
 70
     0
 62
     7
  6
Continuous
370
    -3
390
1D
347
266
  0
LAYER
  5
4B
330
2
100
AcDbSymbolTableRecord
100
AcDbLayerTableRecord
  2
TEMPLATE
 70
     0
 62
     7
  6
Continuous
370
    20
390
1D
347
266
  0
LAYER
  5
4C
330
2
100
AcDbSymbolTableRecord
100
AcDbLayerTableRecord
  2
DIM
 70
     0
 62
     3
  6
Continuous
370
    13
390
1D
347
266
  0
LAYER
  5
4D
330
2
100
AcDbSymbolTableRecord
100
AcDbLayerTableRecord
  2
MODEL
 70
     0
 62
     7
  6
Continuous
370
    20
390
1D
347
266
  0
LAYER
  5
667
330
2
100
AcDbSymbolTableRecord
100
AcDbLayerTableRecord
  2
LOGO
 70
     0
 62
     7
  6
Continuous
370
    -3
390
1D
347
266
  0
LAYER
  5
D6B
330
2
100
AcDbSymbolTableRecord
100
AcDbLayerTableRecord
  2
BORDER
 70
     0
 62
     4
  6
BORDER
290
     0
370
    20
390
1D
347
266
1001
AcAecLayerStandard
1000

1000

  0
LAYER
  5
D8C
330
2
100
AcDbSymbolTableRecord
100
AcDbLayerTableRecord
  2
Defpoints
 70
     0
 62
     7
  6
Continuous
290
     0
370
    -3
390
1D
347
266
  0
LAYER
  5
1635
330
2
100
AcDbSymbolTableRecord
100
AcDbLayerTableRecord
  2
Standard
 70
     0
 62
     7
  6
Continuous
370
    -3
390
1D
347
266
  0
LAYER
  5
3445
330
2
100
AcDbSymbolTableRecord
100
AcDbLayerTableRecord
  2
Layer50
 70
     0
 62
     7
  6
Continuous
370
    -3
390
1D
347
266
  0
LAYER
  5
4F4A
330
2
100
AcDbSymbolTableRecord
100
AcDbLayerTableRecord
  2
DEFAULT
 70
     0
 62
     7
  6
Continuous
370
    -3
390
1D
347
266
  0
LAYER
  5
4F4C
330
2
100
AcDbSymbolTableRecord
100
AcDbLayerTableRecord
  2
MDS_LAYER_90
 70
     0
 62
     7
  6
Continuous
370
    -3
390
1D
347
266
  0
LAYER
  5
4F4D
330
2
100
AcDbSymbolTableRecord
100
AcDbLayerTableRecord
  2
DV1_HULSE_VERLANGERUNGS-
 70
     0
 62
     7
  6
Continuous
370
    -3
390
1D
347
266
  0
LAYER
  5
4F4E
330
2
100
AcDbSymbolTableRecord
100
AcDbLayerTableRecord
  2
DV1_HULSE_ABDECK
 70
     0
 62
     7
  6
Continuous
370
    -3
390
1D
347
266
  0
LAYER
  5
4F4F
330
2
100
AcDbSymbolTableRecord
100
AcDbLayerTableRecord
  2
DV1_ROSETTE
 70
     0
 62
     7
  6
Continuous
370
    -3
390
1D
347
266
  0
LAYER
  5
4F50
330
2
100
AcDbSymbolTableRecord
100
AcDbLayerTableRecord
  2
DV1_DICHTUNG_PROFIL
 70
     0
 62
     7
  6
Continuous
370
    -3
390
1D
347
266
  0
LAYER
  5
4F51
330
2
100
AcDbSymbolTableRecord
100
AcDbLayerTableRecord
  2
DV1_UNTERBAU
 70
     0
 62
     7
  6
Continuous
370
    -3
390
1D
347
266
  0
LAYER
  5
4F52
330
2
100
AcDbSymbolTableRecord
100
AcDbLayerTableRecord
  2
DV1_BEMASUNG
 70
     0
 62
     7
  6
Continuous
370
    -3
390
1D
347
266
  0
LAYER
  5
4F53
330
2
100
AcDbSymbolTableRecord
100
AcDbLayerTableRecord
  2
DV1_RING
 70
     0
 62
     7
  6
Continuous
370
    -3
390
1D
347
266
  0
LAYER
  5
4F54
330
2
100
AcDbSymbolTableRecord
100
AcDbLayerTableRecord
  2
DV1_GRIFF_-FUHR-
 70
     0
 62
     7
  6
Continuous
370
    -3
390
1D
347
266
  0
LAYER
  5
4F55
330
2
100
AcDbSymbolTableRecord
100
AcDbLayerTableRecord
  2
DV1_GRIFF_KPL_TRIO
 70
     0
 62
     7
  6
Continuous
370
    -3
390
1D
347
266
  0
LAYER
  5
4F56
330
2
100
AcDbSymbolTableRecord
100
AcDbLayerTableRecord
  2
DV2_GRIFF_KPL_TRIO
 70
     0
 62
     7
  6
Continuous
370
    -3
390
1D
347
266
  0
LAYER
  5
4F57
330
2
100
AcDbSymbolTableRecord
100
AcDbLayerTableRecord
  2
DV2_GRIFF_-FUHR-
 70
     0
 62
     7
  6
Continuous
370
    -3
390
1D
347
266
  0
LAYER
  5
4F58
330
2
100
AcDbSymbolTableRecord
100
AcDbLayerTableRecord
  2
DV2_ﾃ_ﾌｫﾙﾄ
 70
     0
 62
     7
  6
Continuous
370
    -3
390
1D
347
266
  0
LAYER
  5
4F59
330
2
100
AcDbSymbolTableRecord
100
AcDbLayerTableRecord
  2
DV3_HULSE_VERLANGERUNGS-
 70
     0
 62
     7
  6
Continuous
370
    -3
390
1D
347
266
  0
LAYER
  5
4F5A
330
2
100
AcDbSymbolTableRecord
100
AcDbLayerTableRecord
  2
DV3_HULSE_ABDECK
 70
     0
 62
     7
  6
Continuous
370
    -3
390
1D
347
266
  0
LAYER
  5
4F5B
330
2
100
AcDbSymbolTableRecord
100
AcDbLayerTableRecord
  2
DV3_ROSETTE
 70
     0
 62
     7
  6
Continuous
370
    -3
390
1D
347
266
  0
LAYER
  5
4F5C
330
2
100
AcDbSymbolTableRecord
100
AcDbLayerTableRecord
  2
DV3_DICHTUNG_PROFIL
 70
     0
 62
     7
  6
Continuous
370
    -3
390
1D
347
266
  0
LAYER
  5
4F5D
330
2
100
AcDbSymbolTableRecord
100
AcDbLayerTableRecord
  2
DV3_RING
 70
     0
 62
     7
  6
Continuous
370
    -3
390
1D
347
266
  0
LAYER
  5
4F5E
330
2
100
AcDbSymbolTableRecord
100
AcDbLayerTableRecord
  2
DV3_GRIFF_-FUHR-
 70
     0
 62
     7
  6
Continuous
370
    -3
390
1D
347
266
  0
LAYER
  5
4F5F
330
2
100
AcDbSymbolTableRecord
100
AcDbLayerTableRecord
  2
DV3_GRIFF_KPL_TRIO
 70
     0
 62
     7
  6
Continuous
370
    -3
390
1D
347
266
  0
LAYER
  5
55E5
330
2
100
AcDbSymbolTableRecord
100
AcDbLayerTableRecord
  2
Layer2
 70
     0
 62
     7
  6
Continuous
370
    -3
390
1D
347
266
  0
LAYER
  5
55E7
330
2
100
AcDbSymbolTableRecord
100
AcDbLayerTableRecord
  2
Layer4
 70
     0
 62
     7
  6
Continuous
370
    -3
390
1D
347
266
  0
LAYER
  5
55E9
330
2
100
AcDbSymbolTableRecord
100
AcDbLayerTableRecord
  2
Layer3
 70
     0
 62
     7
  6
Continuous
370
    -3
390
1D
347
266
  0
LAYER
  5
55EA
330
2
100
AcDbSymbolTableRecord
100
AcDbLayerTableRecord
  2
Layer1
 70
     0
 62
     7
  6
Continuous
370
    -3
390
1D
347
266
  0
LAYER
  5
55EB
330
2
100
AcDbSymbolTableRecord
100
AcDbLayerTableRecord
  2
Layer51
 70
     0
 62
     7
  6
Continuous
370
    -3
390
1D
347
266
  0
ENDTAB
  0
TABLE
  2
STYLE
  5
3
330
0
100
AcDbSymbolTable
 70
     5
  0
STYLE
  5
17
330
3
100
AcDbSymbolTableRecord
100
AcDbTextStyleTableRecord
  2
Standard
 70
     0
 40
0.0
 41
1.0
 50
0.0
 71
     0
 42
2.5
  3
txt
  4
BIGFONT.SHX
  0
STYLE
  5
39
330
3
100
AcDbSymbolTableRecord
100
AcDbTextStyleTableRecord
  2
ＭＳ ゴシック
 70
     0
 40
0.0
 41
1.0
 50
0.0
 71
     0
 42
2.5
  3
msgothic.ttc
  4
ＭＳ ゴシック
1001
ACAD
1000
ＭＳ ゴシック
1071
        0
  0
STYLE
  5
4F63
330
3
100
AcDbSymbolTableRecord
100
AcDbTextStyleTableRecord
  2
arial_ttf
 70
     0
 40
0.0
 41
1.0
 50
0.0
 71
     0
 42
2.5
  3
arial.ttf
  4

1001
ACAD
1000
Arial
1071
    32770
  0
STYLE
  5
4F64
330
3
100
AcDbSymbolTableRecord
100
AcDbTextStyleTableRecord
  2
semeca1_ttf
 70
     0
 40
0.0
 41
1.0
 50
0.0
 71
     0
 42
2.5
  3
semeca1.ttf
  4

1001
ACAD
1000
Solid Edge ANSI1 Symbols
1071
        2
  0
STYLE
  5
55F1
330
3
100
AcDbSymbolTableRecord
100
AcDbTextStyleTableRecord
  2
SEACAD_arial_ttf
 70
     0
 40
0.0
 41
1.0
 50
0.0
 71
     0
 42
2.5
  3
arial.ttf
  4

  0
ENDTAB
  0
TABLE
  2
VIEW
  5
5
330
0
100
AcDbSymbolTable
 70
     0
  0
ENDTAB
  0
TABLE
  2
UCS
  5
6
330
0
100
AcDbSymbolTable
 70
     0
  0
ENDTAB
  0
TABLE
  2
APPID
  5
8
330
0
100
AcDbSymbolTable
 70
     3
  0
APPID
  5
16
330
8
100
AcDbSymbolTableRecord
100
AcDbRegAppTableRecord
  2
ACAD
 70
     0
  0
APPID
  5
7AC
330
8
100
AcDbSymbolTableRecord
100
AcDbRegAppTableRecord
  2
AcAecLayerStandard
 70
     0
  0
APPID
  5
E29
330
8
100
AcDbSymbolTableRecord
100
AcDbRegAppTableRecord
  2
ACAD_MLEADERVER
 70
     0
  0
ENDTAB
  0
TABLE
  2
DIMSTYLE
  5
9
330
0
100
AcDbSymbolTable
 70
     4
100
AcDbDimStyleTable
  0
DIMSTYLE
105
18
330
9
100
AcDbSymbolTableRecord
100
AcDbDimStyleTableRecord
  2
Standard
 70
     0
178
     0
340
17
  0
DIMSTYLE
105
57
102
{ACAD_REACTORS
330
57C1
330
57FC
330
5B55
330
5C61
330
5C70
330
5CA5
330
5CA8
330
5CC3
102
}
330
9
100
AcDbSymbolTableRecord
100
AcDbDimStyleTableRecord
  2
tfrom線あり
 70
     0
  3
<>
  4
[]
 41
1.0
 42
5.0
 43
0.9999999999999999
 44
0.0
 73
     0
 74
     0
 77
     1
 78
    11
140
5.0
141
0.0
143
1.0
147
5.0
171
     1
174
     1
178
     0
179
     2
271
     0
272
     1
276
     2
284
    11
285
    11
286
    11
289
     0
340
39
341
4E
342
4E
  0
DIMSTYLE
105
55EE
330
9
100
AcDbSymbolTableRecord
100
AcDbDimStyleTableRecord
  2
ISO-25
 70
     0
 41
2.5
 42
0.625
 43
3.75
 44
1.25
 73
     0
 74
     0
 77
     1
 78
     8
140
2.5
141
2.5
143
0.0393700787
147
0.625
171
     3
172
     1
178
     0
271
     2
272
     2
274
     3
278
    44
283
     0
284
     8
340
17
  0
DIMSTYLE
105
55F0
330
9
100
AcDbSymbolTableRecord
100
AcDbDimStyleTableRecord
  2
$DDT_AUDIT_GENERATED_(106)
 70
     0
 41
6.0
 42
0.0
 44
3.0
 78
     8
140
6.0
141
3.0
144
2.0
147
3.0
173
     1
176
   136
177
   136
271
     0
178
   136
271
     0
272
     0
278
    44
284
     8
340
55F1
343
55F2
344
55F2
  0
ENDTAB
  0
TABLE
  2
BLOCK_RECORD
  5
1
330
0
100
AcDbSymbolTable
 70
    55
  0
BLOCK_RECORD
  5
A
330
1
100
AcDbSymbolTableRecord
100
AcDbBlockTableRecord
  2
*MODEL_SPACE
340
20
 70
     0
280
     1
281
     0
  0
BLOCK_RECORD
  5
B
330
1
100
AcDbSymbolTableRecord
100
AcDbBlockTableRecord
  2
*PAPER_SPACE
340
21
 70
     0
280
     1
281
     0
  0
BLOCK_RECORD
  5
4E
330
1
100
AcDbSymbolTableRecord
100
AcDbBlockTableRecord
  2
_DOT
340
0
102
{BLKREFS
331
3873
331
3874
331
3880
331
3881
331
3939
331
393A
331
468C
331
468D
331
46D4
331
46D5
331
4D83
331
4D84
331
4E8C
331
4E8D
331
50D6
331
50D7
331
50E5
331
50E6
331
50F5
331
50F6
331
5104
331
5105
331
5111
331
5112
331
5120
331
5121
331
5237
331
5238
331
5373
331
5374
331
544E
331
544F
331
545B
331
545C
331
5599
331
559A
331
57CA
331
57CB
331
57D7
331
57D8
331
57E4
331
57E5
331
57F1
331
57F2
331
5805
331
5806
331
590D
331
590E
331
59E5
331
59E6
331
5B08
331
5B09
331
5B66
331
5B67
331
5C19
331
5C1A
331
5C90
331
5C91
331
5C9C
331
5C9D
331
5CB1
331
5CB2
331
5CBD
331
5CBE
331
5CCD
331
5CCC
102
}
 70
     0
280
     1
281
     0
  0
BLOCK_RECORD
  5
68A
330
1
100
AcDbSymbolTableRecord
100
AcDbBlockTableRecord
  2
名称未設定-1
340
0
102
{BLKREFS
331
6B5
102
}
 70
     1
280
     1
281
     0
  0
BLOCK_RECORD
  5
68D
330
1
100
AcDbSymbolTableRecord
100
AcDbBlockTableRecord
  2
block 2
340
0
102
{BLKREFS
331
68C
331
1343
102
}
 70
     0
280
     1
281
     0
  0
BLOCK_RECORD
  5
690
330
1
100
AcDbSymbolTableRecord
100
AcDbBlockTableRecord
  2
block 3
340
0
102
{BLKREFS
331
68F
102
}
 70
     0
280
     1
281
     0
  0
BLOCK_RECORD
  5
693
330
1
100
AcDbSymbolTableRecord
100
AcDbBlockTableRecord
  2
block 4
340
0
102
{BLKREFS
331
692
102
}
 70
     0
280
     1
281
     0
  0
BLOCK_RECORD
  5
6A2
330
1
100
AcDbSymbolTableRecord
100
AcDbBlockTableRecord
  2
block 5
340
0
102
{BLKREFS
331
6A1
102
}
 70
     0
280
     1
281
     0
  0
BLOCK_RECORD
  5
386D
330
1
100
AcDbSymbolTableRecord
100
AcDbBlockTableRecord
  2
*D6
340
0
 70
     0
280
     1
281
     0
  0
BLOCK_RECORD
  5
387A
330
1
100
AcDbSymbolTableRecord
100
AcDbBlockTableRecord
  2
*D7
340
0
 70
     0
280
     1
281
     0
  0
BLOCK_RECORD
  5
3933
330
1
100
AcDbSymbolTableRecord
100
AcDbBlockTableRecord
  2
*D8
340
0
 70
     0
280
     1
281
     0
  0
BLOCK_RECORD
  5
4686
330
1
100
AcDbSymbolTableRecord
100
AcDbBlockTableRecord
  2
*D9
340
0
 70
     0
280
     1
281
     0
  0
BLOCK_RECORD
  5
46CE
330
1
100
AcDbSymbolTableRecord
100
AcDbBlockTableRecord
  2
*D10
340
0
 70
     0
280
     1
281
     0
  0
BLOCK_RECORD
  5
4D7D
330
1
100
AcDbSymbolTableRecord
100
AcDbBlockTableRecord
  2
*D11
340
0
 70
     0
280
     1
281
     0
  0
BLOCK_RECORD
  5
4E86
330
1
100
AcDbSymbolTableRecord
100
AcDbBlockTableRecord
  2
*D12
340
0
 70
     0
280
     1
281
     0
  0
BLOCK_RECORD
  5
4F85
330
1
100
AcDbSymbolTableRecord
100
AcDbBlockTableRecord
  2
SE10
340
0
 70
     0
280
     1
281
     0
  0
BLOCK_RECORD
  5
4FD8
330
1
100
AcDbSymbolTableRecord
100
AcDbBlockTableRecord
  2
SE1
340
0
 70
     0
280
     1
281
     0
  0
BLOCK_RECORD
  5
5061
330
1
100
AcDbSymbolTableRecord
100
AcDbBlockTableRecord
  2
SE2
340
0
 70
     0
280
     1
281
     0
  0
BLOCK_RECORD
  5
506D
330
1
100
AcDbSymbolTableRecord
100
AcDbBlockTableRecord
  2
SE3
340
0
 70
     0
280
     1
281
     0
  0
BLOCK_RECORD
  5
5078
330
1
100
AcDbSymbolTableRecord
100
AcDbBlockTableRecord
  2
SE4
340
0
 70
     0
280
     1
281
     0
  0
BLOCK_RECORD
  5
5083
330
1
100
AcDbSymbolTableRecord
100
AcDbBlockTableRecord
  2
SE5
340
0
 70
     0
280
     1
281
     0
  0
BLOCK_RECORD
  5
5090
330
1
100
AcDbSymbolTableRecord
100
AcDbBlockTableRecord
  2
SE6
340
0
 70
     0
280
     1
281
     0
  0
BLOCK_RECORD
  5
509B
330
1
100
AcDbSymbolTableRecord
100
AcDbBlockTableRecord
  2
SE8
340
0
 70
     0
280
     1
281
     0
  0
BLOCK_RECORD
  5
50D0
330
1
100
AcDbSymbolTableRecord
100
AcDbBlockTableRecord
  2
*D21
340
0
 70
     0
280
     1
281
     0
  0
BLOCK_RECORD
  5
50DF
330
1
100
AcDbSymbolTableRecord
100
AcDbBlockTableRecord
  2
*D22
340
0
 70
     0
280
     1
281
     0
  0
BLOCK_RECORD
  5
50EE
330
1
100
AcDbSymbolTableRecord
100
AcDbBlockTableRecord
  2
*D23
340
0
 70
     0
280
     1
281
     0
  0
BLOCK_RECORD
  5
50FE
330
1
100
AcDbSymbolTableRecord
100
AcDbBlockTableRecord
  2
*D24
340
0
 70
     0
280
     1
281
     0
  0
BLOCK_RECORD
  5
510B
330
1
100
AcDbSymbolTableRecord
100
AcDbBlockTableRecord
  2
*D25
340
0
 70
     0
280
     1
281
     0
  0
BLOCK_RECORD
  5
511A
330
1
100
AcDbSymbolTableRecord
100
AcDbBlockTableRecord
  2
*D26
340
0
 70
     0
280
     1
281
     0
  0
BLOCK_RECORD
  5
5231
330
1
100
AcDbSymbolTableRecord
100
AcDbBlockTableRecord
  2
*D27
340
0
 70
     0
280
     1
281
     0
  0
BLOCK_RECORD
  5
536E
330
1
100
AcDbSymbolTableRecord
100
AcDbBlockTableRecord
  2
*D28
340
0
 70
     0
280
     1
281
     0
  0
BLOCK_RECORD
  5
5449
330
1
100
AcDbSymbolTableRecord
100
AcDbBlockTableRecord
  2
*D29
340
0
 70
     0
280
     1
281
     0
  0
BLOCK_RECORD
  5
5456
330
1
100
AcDbSymbolTableRecord
100
AcDbBlockTableRecord
  2
*D30
340
0
 70
     0
280
     1
281
     0
  0
BLOCK_RECORD
  5
5594
330
1
100
AcDbSymbolTableRecord
100
AcDbBlockTableRecord
  2
*D31
340
0
 70
     0
280
     1
281
     0
  0
BLOCK_RECORD
  5
55F2
330
1
100
AcDbSymbolTableRecord
100
AcDbBlockTableRecord
  2
_SE_FILLED
340
0
102
{BLKREFS
331
56D4
331
56D5
331
56E0
331
56E1
331
56EB
331
56EC
331
56F9
331
56FA
102
}
 70
     0
280
     1
281
     0
1001
ACAD
1000
DesignCenter Data
1002
{
1070
     1
1070
     0
1002
}
  0
BLOCK_RECORD
  5
56CE
330
1
100
AcDbSymbolTableRecord
100
AcDbBlockTableRecord
  2
DMBLK1
340
0
 70
     0
280
     1
281
     0
1001
ACAD
1000
DesignCenter Data
1002
{
1070
     1
1070
     0
1002
}
  0
BLOCK_RECORD
  5
56DA
330
1
100
AcDbSymbolTableRecord
100
AcDbBlockTableRecord
  2
DMBLK2
340
0
 70
     0
280
     1
281
     0
1001
ACAD
1000
DesignCenter Data
1002
{
1070
     1
1070
     0
1002
}
  0
BLOCK_RECORD
  5
56E5
330
1
100
AcDbSymbolTableRecord
100
AcDbBlockTableRecord
  2
DMBLK3
340
0
 70
     0
280
     1
281
     0
1001
ACAD
1000
DesignCenter Data
1002
{
1070
     1
1070
     0
1002
}
  0
BLOCK_RECORD
  5
56F3
330
1
100
AcDbSymbolTableRecord
100
AcDbBlockTableRecord
  2
DMBLK4
340
0
 70
     0
280
     1
281
     0
1001
ACAD
1000
DesignCenter Data
1002
{
1070
     1
1070
     0
1002
}
  0
BLOCK_RECORD
  5
57C4
330
1
100
AcDbSymbolTableRecord
100
AcDbBlockTableRecord
  2
*D37
340
0
 70
     0
280
     1
281
     0
  0
BLOCK_RECORD
  5
57D1
330
1
100
AcDbSymbolTableRecord
100
AcDbBlockTableRecord
  2
*D38
340
0
 70
     0
280
     1
281
     0
  0
BLOCK_RECORD
  5
57DE
330
1
100
AcDbSymbolTableRecord
100
AcDbBlockTableRecord
  2
*D39
340
0
 70
     0
280
     1
281
     0
  0
BLOCK_RECORD
  5
57EB
330
1
100
AcDbSymbolTableRecord
100
AcDbBlockTableRecord
  2
*D40
340
0
 70
     0
280
     1
281
     0
  0
BLOCK_RECORD
  5
57FF
330
1
100
AcDbSymbolTableRecord
100
AcDbBlockTableRecord
  2
*D41
340
0
 70
     0
280
     1
281
     0
  0
BLOCK_RECORD
  5
5908
330
1
100
AcDbSymbolTableRecord
100
AcDbBlockTableRecord
  2
*D42
340
0
 70
     0
280
     1
281
     0
  0
BLOCK_RECORD
  5
59DF
330
1
100
AcDbSymbolTableRecord
100
AcDbBlockTableRecord
  2
*D43
340
0
 70
     0
280
     1
281
     0
  0
BLOCK_RECORD
  5
5B03
330
1
100
AcDbSymbolTableRecord
100
AcDbBlockTableRecord
  2
*D44
340
0
 70
     0
280
     1
281
     0
  0
BLOCK_RECORD
  5
5B60
330
1
100
AcDbSymbolTableRecord
100
AcDbBlockTableRecord
  2
*D45
340
0
 70
     0
280
     1
281
     0
  0
BLOCK_RECORD
  5
5C13
330
1
100
AcDbSymbolTableRecord
100
AcDbBlockTableRecord
  2
*D46
340
0
 70
     0
280
     1
281
     0
  0
BLOCK_RECORD
  5
5C62
330
1
100
AcDbSymbolTableRecord
100
AcDbBlockTableRecord
  2
*D48
340
0
 70
     0
280
     1
281
     0
  0
BLOCK_RECORD
  5
5C71
330
1
100
AcDbSymbolTableRecord
100
AcDbBlockTableRecord
  2
*D49
340
0
 70
     0
280
     1
281
     0
  0
BLOCK_RECORD
  5
5C8A
330
1
100
AcDbSymbolTableRecord
100
AcDbBlockTableRecord
  2
*D50
340
0
 70
     0
280
     1
281
     0
  0
BLOCK_RECORD
  5
5C96
330
1
100
AcDbSymbolTableRecord
100
AcDbBlockTableRecord
  2
*D51
340
0
 70
     0
280
     1
281
     0
  0
BLOCK_RECORD
  5
5CAB
330
1
100
AcDbSymbolTableRecord
100
AcDbBlockTableRecord
  2
*D52
340
0
 70
     0
280
     1
281
     0
  0
BLOCK_RECORD
  5
5CB7
330
1
100
AcDbSymbolTableRecord
100
AcDbBlockTableRecord
  2
*D53
340
0
 70
     0
280
     1
281
     0
  0
BLOCK_RECORD
  5
5CC6
330
1
100
AcDbSymbolTableRecord
100
AcDbBlockTableRecord
  2
*D54
340
0
 70
     0
280
     1
281
     0
  0
ENDTAB
  0
ENDSEC
  0
SECTION
  2
BLOCKS
  0
BLOCK
  5
D
330
A
100
AcDbEntity
  8
0
390
1D
100
AcDbBlockBegin
  2
*MODEL_SPACE
 70
     0
 10
0.0
 20
0.0
 30
0.0
  3
*MODEL_SPACE
  1
*MODEL_SPACE
  0
ENDBLK
  5
E
330
A
100
AcDbEntity
  8
0
390
1D
100
AcDbBlockEnd
  0
BLOCK
  5
F
330
B
100
AcDbEntity
 67
     1
  8
0
390
1D
100
AcDbBlockBegin
  2
*PAPER_SPACE
 70
     0
 10
0.0
 20
0.0
 30
0.0
  3
*PAPER_SPACE
  1
*PAPER_SPACE
  0
ENDBLK
  5
10
330
B
100
AcDbEntity
 67
     1
  8
0
390
1D
100
AcDbBlockEnd
  0
BLOCK
  5
38A8
330
4E
100
AcDbEntity
  8
0
390
1D
100
AcDbBlockBegin
  2
_DOT
 70
     0
 10
0.0
 20
0.0
 30
0.0
  3
_DOT
  1
_DOT
  0
POLYLINE
  5
38AA
330
4E
100
AcDbEntity
  8
0
  6
ByBlock
 62
     0
370
    -2
390
1D
100
AcDb2dPolyline
 66
     1
 10
0.0
 20
0.0
 30
0.0
 70
     1
 40
0.5
 41
0.5
  0
VERTEX
  5
38AB
330
38AA
100
AcDbEntity
  8
0
  6
ByBlock
 62
     0
370
    -2
390
1D
100
AcDbVertex
100
AcDb2dVertex
 10
-0.25
 20
0.0
 30
0.0
 42
1.0
  0
VERTEX
  5
38AC
330
38AA
100
AcDbEntity
  8
0
  6
ByBlock
 62
     0
370
    -2
390
1D
100
AcDbVertex
100
AcDb2dVertex
 10
0.25
 20
0.0
 30
0.0
 42
1.0
  0
SEQEND
  5
38AD
330
38AA
100
AcDbEntity
  8
0
390
1D
  0
LINE
  5
38AE
330
4E
100
AcDbEntity
  8
0
  6
ByBlock
 62
     0
370
    -2
390
1D
100
AcDbLine
 10
-0.5
 20
0.0
 30
0.0
 11
-1.0
 21
0.0
 31
0.0
  0
ENDBLK
  5
38AF
330
4E
100
AcDbEntity
  8
0
390
1D
100
AcDbBlockEnd
  0
BLOCK
  5
68B
330
68A
100
AcDbEntity
  8
0
100
AcDbBlockBegin
  2
名称未設定-1
 70
     0
 10
0.0
 20
0.0
 30
0.0
  3
名称未設定-1
  1
名称未設定-1
  0
INSERT
  5
68F
330
68A
100
AcDbEntity
  8
LOGO
100
AcDbBlockReference
  2
block 3
 10
0.0
 20
0.0
 30
0.0
  0
ENDBLK
  5
6B1
330
68A
100
AcDbEntity
  8
0
100
AcDbBlockEnd
  0
BLOCK
  5
68E
330
68D
100
AcDbEntity
  8
0
100
AcDbBlockBegin
  2
block 2
 70
     0
 10
0.0
 20
0.0
 30
0.0
  3
block 2
  1
block 2
  0
ENDBLK
  5
6B0
330
68D
100
AcDbEntity
  8
0
100
AcDbBlockEnd
  0
BLOCK
  5
691
330
690
100
AcDbEntity
  8
0
100
AcDbBlockBegin
  2
block 3
 70
     0
 10
0.0
 20
0.0
 30
0.0
  3
block 3
  1
block 3
  0
INSERT
  5
692
330
690
100
AcDbEntity
  8
LOGO
100
AcDbBlockReference
  2
block 4
 10
0.0
 20
0.0
 30
0.0
  0
INSERT
  5
6A1
330
690
100
AcDbEntity
  8
LOGO
100
AcDbBlockReference
  2
block 5
 10
0.0
 20
0.0
 30
0.0
  0
ENDBLK
  5
6AF
330
690
100
AcDbEntity
  8
0
100
AcDbBlockEnd
  0
BLOCK
  5
694
330
693
100
AcDbEntity
  8
0
100
AcDbBlockBegin
  2
block 4
 70
     0
 10
0.0
 20
0.0
 30
0.0
  3
block 4
  1
block 4
  0
POLYLINE
  5
695
330
693
100
AcDbEntity
  8
LOGO
370
     0
100
AcDb2dPolyline
 66
     1
 10
0.0
 20
0.0
 30
0.0
  0
VERTEX
  5
696
330
695
100
AcDbEntity
  8
LOGO
370
     0
100
AcDbVertex
100
AcDb2dVertex
 10
83.79545727667795
 20
167.6444858234922
 30
0.0
  0
VERTEX
  5
697
330
695
100
AcDbEntity
  8
LOGO
370
     0
100
AcDbVertex
100
AcDb2dVertex
 10
83.79545727667795
 20
159.7968976406313
 30
0.0
  0
VERTEX
  5
698
330
695
100
AcDbEntity
  8
LOGO
370
     0
100
AcDbVertex
100
AcDb2dVertex
 10
71.3631329975216
 20
159.7968976406313
 30
0.0
  0
VERTEX
  5
699
330
695
100
AcDbEntity
  8
LOGO
370
     0
100
AcDbVertex
100
AcDb2dVertex
 10
71.3631329975216
 20
127.8027915271048
 30
0.0
  0
VERTEX
  5
69A
330
695
100
AcDbEntity
  8
LOGO
370
     0
100
AcDbVertex
100
AcDb2dVertex
 10
60.43011526263018
 20
127.8027915271048
 30
0.0
  0
VERTEX
  5
69B
330
695
100
AcDbEntity
  8
LOGO
370
     0
100
AcDbVertex
100
AcDb2dVertex
 10
60.43011526263018
 20
159.7968976406313
 30
0.0
  0
VERTEX
  5
69C
330
695
100
AcDbEntity
  8
LOGO
370
     0
100
AcDbVertex
100
AcDb2dVertex
 10
48.21793273020759
 20
159.7968976406313
 30
0.0
  0
VERTEX
  5
69D
330
695
100
AcDbEntity
  8
LOGO
370
     0
100
AcDbVertex
100
AcDb2dVertex
 10
48.21793273020759
 20
167.6444858234922
 30
0.0
  0
VERTEX
  5
69E
330
695
100
AcDbEntity
  8
LOGO
370
     0
100
AcDbVertex
100
AcDb2dVertex
 10
83.79545727667795
 20
167.6444858234922
 30
0.0
  0
SEQEND
  5
69F
330
695
100
AcDbEntity
  8
LOGO
370
     0
  0
HATCH
  5
6A0
330
693
100
AcDbEntity
  8
LOGO
 62
   250
420
  2234388
100
AcDbHatch
 10
0.0
 20
0.0
 30
0.0
210
0.0
220
0.0
230
1.0
  2
SOLID
 70
     1
 71
     0
 91
        1
 92
        1
 93
        8
 72
     1
 10
83.79545727667795
 20
167.6444858234922
 11
83.79545727667795
 21
159.7968976406313
 72
     1
 10
83.79545727667795
 20
159.7968976406313
 11
71.3631329975216
 21
159.7968976406313
 72
     1
 10
71.3631329975216
 20
159.7968976406313
 11
71.3631329975216
 21
127.8027915271048
 72
     1
 10
71.3631329975216
 20
127.8027915271048
 11
60.43011526263018
 21
127.8027915271048
 72
     1
 10
60.43011526263018
 20
127.8027915271048
 11
60.43011526263018
 21
159.7968976406313
 72
     1
 10
60.43011526263018
 20
159.7968976406313
 11
48.21793273020759
 21
159.7968976406313
 72
     1
 10
48.21793273020759
 20
159.7968976406313
 11
48.21793273020759
 21
167.6444858234922
 72
     1
 10
48.21793273020759
 20
167.6444858234922
 11
83.79545727667795
 21
167.6444858234922
 97
        0
 75
     2
 76
     1
 98
        0
  0
ENDBLK
  5
6AE
330
693
100
AcDbEntity
  8
0
100
AcDbBlockEnd
  0
BLOCK
  5
6A3
330
6A2
100
AcDbEntity
  8
0
100
AcDbBlockBegin
  2
block 5
 70
     0
 10
0.0
 20
0.0
 30
0.0
  3
block 5
  1
block 5
  0
SPLINE
  5
6A4
330
6A2
100
AcDbEntity
  8
LOGO
370
     0
100
AcDbSpline
210
0.0
220
0.0
230
1.0
 70
    11
 71
     3
 72
    56
 73
    52
 74
     0
 42
0.000000001
 43
0.0000000001
 40
0.0
 40
0.0
 40
0.0
 40
0.0
 40
1.0
 40
1.0
 40
1.0
 40
2.0
 40
2.0
 40
2.0
 40
3.0
 40
3.0
 40
3.0
 40
4.0
 40
4.0
 40
4.0
 40
5.0
 40
5.0
 40
5.0
 40
6.0
 40
6.0
 40
6.0
 40
7.0
 40
7.0
 40
7.0
 40
8.0
 40
8.0
 40
8.0
 40
9.0
 40
9.0
 40
9.0
 40
10.0
 40
10.0
 40
10.0
 40
11.0
 40
11.0
 40
11.0
 40
12.0
 40
12.0
 40
12.0
 40
13.0
 40
13.0
 40
13.0
 40
14.0
 40
14.0
 40
14.0
 40
15.0
 40
15.0
 40
15.0
 40
16.0
 40
16.0
 40
16.0
 40
17.0
 40
17.0
 40
17.0
 40
17.0
 10
100.4504378777679
 20
166.69157178364
 30
0.0
 10
101.9848844191641
 20
167.1313385124438
 30
0.0
 10
103.9637485713373
 20
166.7649523658846
 30
0.0
 10
103.9637485713373
 20
166.7649523658846
 30
0.0
 10
103.9637485713373
 20
166.7649523658846
 30
0.0
 10
103.0132460999156
 20
163.911205638077
 30
0.0
 10
103.0132460999156
 20
163.911205638077
 30
0.0
 10
103.0132460999156
 20
163.911205638077
 30
0.0
 10
101.0674548862189
 20
164.3601018759394
 30
0.0
 10
99.57090442016032
 20
163.1805004036133
 30
0.0
 10
98.40508333886608
 20
162.258247733807
 30
0.0
 10
97.65301849830304
 20
159.804132345923
 30
0.0
 10
97.3598406791005
 20
158.8699940888517
 30
0.0
 10
97.3598406791005
 20
158.8699940888517
 30
0.0
 10
96.07137411762282
 20
154.9119212747295
 30
0.0
 10
96.07137411762282
 20
154.9119212747295
 30
0.0
 10
96.07137411762282
 20
154.9119212747295
 30
0.0
 10
100.3012651448482
 20
154.9119212747295
 30
0.0
 10
100.3012651448482
 20
154.9119212747295
 30
0.0
 10
100.3012651448482
 20
154.9119212747295
 30
0.0
 10
99.64152892419852
 20
152.4199098115079
 30
0.0
 10
99.64152892419852
 20
152.4199098115079
 30
0.0
 10
99.64152892419852
 20
152.4199098115079
 30
0.0
 10
95.38097652692731
 20
152.4199098115079
 30
0.0
 10
95.38097652692731
 20
152.4199098115079
 30
0.0
 10
95.38097652692731
 20
152.4199098115079
 30
0.0
 10
87.75353009080013
 20
127.8027915271048
 30
0.0
 10
87.75353009080013
 20
127.8027915271048
 30
0.0
 10
87.75353009080013
 20
127.8027915271048
 30
0.0
 10
85.36538832498108
 20
127.8027915271048
 30
0.0
 10
85.36538832498108
 20
127.8027915271048
 30
0.0
 10
85.36538832498108
 20
127.8027915271048
 30
0.0
 10
93.00006946639998
 20
152.4199098115079
 30
0.0
 10
93.00006946639998
 20
152.4199098115079
 30
0.0
 10
93.00006946639998
 20
152.4199098115079
 30
0.0
 10
89.85297266450198
 20
152.4199098115079
 30
0.0
 10
89.85297266450198
 20
152.4199098115079
 30
0.0
 10
89.85297266450198
 20
152.4199098115079
 30
0.0
 10
90.51270888515164
 20
154.9119212747295
 30
0.0
 10
90.51270888515164
 20
154.9119212747295
 30
0.0
 10
90.51270888515164
 20
154.9119212747295
 30
0.0
 10
93.6904670570955
 20
154.9119212747295
 30
0.0
 10
93.6904670570955
 20
154.9119212747295
 30
0.0
 10
93.6904670570955
 20
154.9119212747295
 30
0.0
 10
94.81598049462158
 20
158.3616699146644
 30
0.0
 10
94.81598049462158
 20
158.3616699146644
 30
0.0
 10
95.7237637538445
 20
161.2605474231013
 30
0.0
 10
96.4968436907311
 20
162.8139420021662
 30
0.0
 10
97.15657991138076
 20
163.9844139654337
 30
0.0
 10
97.81183750494507
 20
165.1523021053827
 30
0.0
 10
99.1047826935081
 20
166.3084769129547
 30
0.0
 10
100.4504378777679
 20
166.69157178364
 30
0.0
  0
HATCH
  5
6A5
330
6A2
100
AcDbEntity
  8
LOGO
 62
   250
420
  2234388
100
AcDbHatch
 10
0.0
 20
0.0
 30
0.0
210
0.0
220
0.0
230
1.0
  2
SOLID
 70
     1
 71
     0
 91
        1
 92
        1
 93
        1
 72
     4
 94
        3
 73
     0
 74
     1
 95
       56
 96
       52
 40
0.0
 40
0.0
 40
0.0
 40
0.0
 40
1.0
 40
1.0
 40
1.0
 40
2.0
 40
2.0
 40
2.0
 40
3.0
 40
3.0
 40
3.0
 40
4.0
 40
4.0
 40
4.0
 40
5.0
 40
5.0
 40
5.0
 40
6.0
 40
6.0
 40
6.0
 40
7.0
 40
7.0
 40
7.0
 40
8.0
 40
8.0
 40
8.0
 40
9.0
 40
9.0
 40
9.0
 40
10.0
 40
10.0
 40
10.0
 40
11.0
 40
11.0
 40
11.0
 40
12.0
 40
12.0
 40
12.0
 40
13.0
 40
13.0
 40
13.0
 40
14.0
 40
14.0
 40
14.0
 40
15.0
 40
15.0
 40
15.0
 40
16.0
 40
16.0
 40
16.0
 40
17.0
 40
17.0
 40
17.0
 40
17.0
 10
100.4504378777679
 20
166.69157178364
 10
101.9848844191641
 20
167.1313385124438
 10
103.9637485713373
 20
166.7649523658846
 10
103.9637485713373
 20
166.7649523658846
 10
103.9637485713373
 20
166.7649523658846
 10
103.0132460999156
 20
163.911205638077
 10
103.0132460999156
 20
163.911205638077
 10
103.0132460999156
 20
163.911205638077
 10
101.0674548862189
 20
164.3601018759394
 10
99.57090442016032
 20
163.1805004036133
 10
98.40508333886608
 20
162.258247733807
 10
97.65301849830304
 20
159.804132345923
 10
97.3598406791005
 20
158.8699940888517
 10
97.3598406791005
 20
158.8699940888517
 10
96.07137411762282
 20
154.9119212747295
 10
96.07137411762282
 20
154.9119212747295
 10
96.07137411762282
 20
154.9119212747295
 10
100.3012651448482
 20
154.9119212747295
 10
100.3012651448482
 20
154.9119212747295
 10
100.3012651448482
 20
154.9119212747295
 10
99.64152892419852
 20
152.4199098115079
 10
99.64152892419852
 20
152.4199098115079
 10
99.64152892419852
 20
152.4199098115079
 10
95.38097652692731
 20
152.4199098115079
 10
95.38097652692731
 20
152.4199098115079
 10
95.38097652692731
 20
152.4199098115079
 10
87.75353009080013
 20
127.8027915271048
 10
87.75353009080013
 20
127.8027915271048
 10
87.75353009080013
 20
127.8027915271048
 10
85.36538832498108
 20
127.8027915271048
 10
85.36538832498108
 20
127.8027915271048
 10
85.36538832498108
 20
127.8027915271048
 10
93.00006946639998
 20
152.4199098115079
 10
93.00006946639998
 20
152.4199098115079
 10
93.00006946639998
 20
152.4199098115079
 10
89.85297266450198
 20
152.4199098115079
 10
89.85297266450198
 20
152.4199098115079
 10
89.85297266450198
 20
152.4199098115079
 10
90.51270888515164
 20
154.9119212747295
 10
90.51270888515164
 20
154.9119212747295
 10
90.51270888515164
 20
154.9119212747295
 10
93.6904670570955
 20
154.9119212747295
 10
93.6904670570955
 20
154.9119212747295
 10
93.6904670570955
 20
154.9119212747295
 10
94.81598049462158
 20
158.3616699146644
 10
94.81598049462158
 20
158.3616699146644
 10
95.7237637538445
 20
161.2605474231013
 10
96.4968436907311
 20
162.8139420021662
 10
97.15657991138076
 20
163.9844139654337
 10
97.81183750494507
 20
165.1523021053827
 10
99.1047826935081
 20
166.3084769129547
 10
100.4504378777679
 20
166.69157178364
 97
        0
 75
     2
 76
     1
 98
        0
  0
SPLINE
  5
6A6
330
6A2
100
AcDbEntity
  8
LOGO
370
     0
100
AcDbSpline
210
0.0
220
0.0
230
1.0
 70
    11
 71
     3
 72
    38
 73
    34
 74
     0
 42
0.000000001
 43
0.0000000001
 40
0.0
 40
0.0
 40
0.0
 40
0.0
 40
1.0
 40
1.0
 40
1.0
 40
2.0
 40
2.0
 40
2.0
 40
3.0
 40
3.0
 40
3.0
 40
4.0
 40
4.0
 40
4.0
 40
5.0
 40
5.0
 40
5.0
 40
6.0
 40
6.0
 40
6.0
 40
7.0
 40
7.0
 40
7.0
 40
8.0
 40
8.0
 40
8.0
 40
9.0
 40
9.0
 40
9.0
 40
10.0
 40
10.0
 40
10.0
 40
11.0
 40
11.0
 40
11.0
 40
11.0
 10
126.377554584636
 20
154.8151140277308
 30
0.0
 10
126.377554584636
 20
154.8151140277308
 30
0.0
 10
128.8311532078563
 20
154.8151140277308
 30
0.0
 10
128.8311532078563
 20
154.8151140277308
 30
0.0
 10
128.8311532078563
 20
154.8151140277308
 30
0.0
 10
127.7345785914971
 20
151.3062819612468
 30
0.0
 10
127.7345785914971
 20
151.3062819612468
 30
0.0
 10
128.571392836906
 20
152.2922689395754
 30
0.0
 10
129.8860421413442
 20
153.604506675583
 30
0.0
 10
131.0163787157314
 20
154.2664822097754
 30
0.0
 10
132.7044766171327
 20
155.2500576196734
 30
0.0
 10
133.6642808525008
 20
155.3847609420097
 30
0.0
 10
134.7284715499351
 20
155.3565111403944
 30
0.0
 10
134.7284715499351
 20
155.3565111403944
 30
0.0
 10
133.6877075172549
 20
152.0345756272799
 30
0.0
 10
133.6877075172549
 20
152.0345756272799
 30
0.0
 10
133.011434827367
 20
152.3184516825359
 30
0.0
 10
130.930940291334
 20
151.7768823149844
 30
0.0
 10
129.739280976855
 20
150.9162968950455
 30
0.0
 10
128.66613302525
 20
150.1454562717016
 30
0.0
 10
127.9192358313239
 20
149.4857200510519
 30
0.0
 10
127.0393578639405
 20
147.8282835196966
 30
0.0
 10
126.164647543194
 20
146.1699857139017
 30
0.0
 10
125.4742499524985
 20
143.5262176944419
 30
0.0
 10
124.2822461282437
 20
139.6959580071401
 30
0.0
 10
124.2822461282437
 20
139.6959580071401
 30
0.0
 10
120.5753209406769
 20
127.8027915271048
 30
0.0
 10
120.5753209406769
 20
127.8027915271048
 30
0.0
 10
120.5753209406769
 20
127.8027915271048
 30
0.0
 10
118.1964809388044
 20
127.8027915271048
 30
0.0
 10
118.1964809388044
 20
127.8027915271048
 30
0.0
 10
118.1964809388044
 20
127.8027915271048
 30
0.0
 10
126.377554584636
 20
154.8151140277308
 30
0.0
 10
126.377554584636
 20
154.8151140277308
 30
0.0
  0
HATCH
  5
6A7
330
6A2
100
AcDbEntity
  8
LOGO
 62
   250
420
  2234388
100
AcDbHatch
 10
0.0
 20
0.0
 30
0.0
210
0.0
220
0.0
230
1.0
  2
SOLID
 70
     1
 71
     0
 91
        1
 92
        1
 93
        1
 72
     4
 94
        3
 73
     0
 74
     1
 95
       38
 96
       34
 40
0.0
 40
0.0
 40
0.0
 40
0.0
 40
1.0
 40
1.0
 40
1.0
 40
2.0
 40
2.0
 40
2.0
 40
3.0
 40
3.0
 40
3.0
 40
4.0
 40
4.0
 40
4.0
 40
5.0
 40
5.0
 40
5.0
 40
6.0
 40
6.0
 40
6.0
 40
7.0
 40
7.0
 40
7.0
 40
8.0
 40
8.0
 40
8.0
 40
9.0
 40
9.0
 40
9.0
 40
10.0
 40
10.0
 40
10.0
 40
11.0
 40
11.0
 40
11.0
 40
11.0
 10
126.377554584636
 20
154.8151140277308
 10
126.377554584636
 20
154.8151140277308
 10
128.8311532078563
 20
154.8151140277308
 10
128.8311532078563
 20
154.8151140277308
 10
128.8311532078563
 20
154.8151140277308
 10
127.7345785914971
 20
151.3062819612468
 10
127.7345785914971
 20
151.3062819612468
 10
128.571392836906
 20
152.2922689395754
 10
129.8860421413442
 20
153.604506675583
 10
131.0163787157314
 20
154.2664822097754
 10
132.7044766171327
 20
155.2500576196734
 10
133.6642808525008
 20
155.3847609420097
 10
134.7284715499351
 20
155.3565111403944
 10
134.7284715499351
 20
155.3565111403944
 10
133.6877075172549
 20
152.0345756272799
 10
133.6877075172549
 20
152.0345756272799
 10
133.011434827367
 20
152.3184516825359
 10
130.930940291334
 20
151.7768823149844
 10
129.739280976855
 20
150.9162968950455
 10
128.66613302525
 20
150.1454562717016
 10
127.9192358313239
 20
149.4857200510519
 10
127.0393578639405
 20
147.8282835196966
 10
126.164647543194
 20
146.1699857139017
 10
125.4742499524985
 20
143.5262176944419
 10
124.2822461282437
 20
139.6959580071401
 10
124.2822461282437
 20
139.6959580071401
 10
120.5753209406769
 20
127.8027915271048
 10
120.5753209406769
 20
127.8027915271048
 10
120.5753209406769
 20
127.8027915271048
 10
118.1964809388044
 20
127.8027915271048
 10
118.1964809388044
 20
127.8027915271048
 10
118.1964809388044
 20
127.8027915271048
 10
126.377554584636
 20
154.8151140277308
 10
126.377554584636
 20
154.8151140277308
 97
        0
 75
     2
 76
     1
 98
        0
  0
SPLINE
  5
6A8
330
6A2
100
AcDbEntity
  8
LOGO
370
     0
100
AcDbSpline
210
0.0
220
0.0
230
1.0
 70
    11
 71
     3
 72
   104
 73
   100
 74
     0
 42
0.000000001
 43
0.0000000001
 40
0.0
 40
0.0
 40
0.0
 40
0.0
 40
1.0
 40
1.0
 40
1.0
 40
2.0
 40
2.0
 40
2.0
 40
3.0
 40
3.0
 40
3.0
 40
4.0
 40
4.0
 40
4.0
 40
5.0
 40
5.0
 40
5.0
 40
6.0
 40
6.0
 40
6.0
 40
7.0
 40
7.0
 40
7.0
 40
8.0
 40
8.0
 40
8.0
 40
9.0
 40
9.0
 40
9.0
 40
10.0
 40
10.0
 40
10.0
 40
11.0
 40
11.0
 40
11.0
 40
12.0
 40
12.0
 40
12.0
 40
13.0
 40
13.0
 40
13.0
 40
14.0
 40
14.0
 40
14.0
 40
15.0
 40
15.0
 40
15.0
 40
16.0
 40
16.0
 40
16.0
 40
17.0
 40
17.0
 40
17.0
 40
18.0
 40
18.0
 40
18.0
 40
19.0
 40
19.0
 40
19.0
 40
20.0
 40
20.0
 40
20.0
 40
21.0
 40
21.0
 40
21.0
 40
22.0
 40
22.0
 40
22.0
 40
23.0
 40
23.0
 40
23.0
 40
24.0
 40
24.0
 40
24.0
 40
25.0
 40
25.0
 40
25.0
 40
26.0
 40
26.0
 40
26.0
 40
27.0
 40
27.0
 40
27.0
 40
28.0
 40
28.0
 40
28.0
 40
29.0
 40
29.0
 40
29.0
 40
30.0
 40
30.0
 40
30.0
 40
31.0
 40
31.0
 40
31.0
 40
32.0
 40
32.0
 40
32.0
 40
33.0
 40
33.0
 40
33.0
 40
33.0
 10
139.8926730891197
 20
154.8294111834263
 30
0.0
 10
139.8926730891197
 20
154.8294111834263
 30
0.0
 10
142.0344903652445
 20
154.8294111834263
 30
0.0
 10
142.0344903652445
 20
154.8294111834263
 30
0.0
 10
142.0344903652445
 20
154.8294111834263
 30
0.0
 10
140.9516961399171
 20
151.3157559800812
 30
0.0
 10
140.9516961399171
 20
151.3157559800812
 30
0.0
 10
141.8928968473923
 20
152.7887075264977
 30
0.0
 10
142.7341897198865
 20
153.4484437471474
 30
0.0
 10
143.8552245303272
 20
154.2926649527359
 30
0.0
 10
144.9803934580775
 20
155.1296514530327
 30
0.0
 10
146.3139908001845
 20
155.3044901642492
 30
0.0
 10
147.241066606852
 20
155.3044901642492
 30
0.0
 10
148.3855280820469
 20
155.3044901642492
 30
0.0
 10
149.4969166187653
 20
155.0752189084569
 30
0.0
 10
150.0784491203092
 20
153.8172414621372
 30
0.0
 10
150.5228667310863
 20
152.833838307127
 30
0.0
 10
150.5414702589793
 20
152.7201500811143
 30
0.0
 10
150.4140016419347
 20
150.7765981809602
 30
0.0
 10
151.5818897818837
 20
152.7699317437168
 30
0.0
 10
152.4424752018226
 20
153.6256940267945
 30
0.0
 10
153.9038856707499
 20
154.4507949398263
 30
0.0
 10
155.4455669174378
 20
155.3044901642492
 30
0.0
 10
156.339225275853
 20
155.3659851592288
 30
0.0
 10
157.3748216618963
 20
155.2147453676543
 30
0.0
 10
158.911679771723
 20
154.9877134254046
 30
0.0
 10
159.8859534176746
 20
154.4390816074493
 30
0.0
 10
160.3965169054045
 20
152.7816450760939
 30
0.0
 10
160.9070803931344
 20
151.1219692311958
 30
0.0
 10
160.6328506116007
 20
150.2303779314354
 30
0.0
 10
159.9992971339115
 20
147.597634224801
 30
0.0
 10
159.7105979417943
 20
146.4014962832367
 30
0.0
 10
159.2947746424084
 20
144.9400858143094
 30
0.0
 10
158.7463150793409
 20
143.2092687007094
 30
0.0
 10
158.7463150793409
 20
143.2092687007094
 30
0.0
 10
153.9038856707499
 20
127.8027915271048
 30
0.0
 10
153.9038856707499
 20
127.8027915271048
 30
0.0
 10
153.9038856707499
 20
127.8027915271048
 30
0.0
 10
151.3882752878863
 20
127.8027915271048
 30
0.0
 10
151.3882752878863
 20
127.8027915271048
 30
0.0
 10
151.3882752878863
 20
127.8027915271048
 30
0.0
 10
155.6250565106276
 20
141.2751908193897
 30
0.0
 10
155.6250565106276
 20
141.2751908193897
 30
0.0
 10
156.5094131050963
 20
144.0936252951782
 30
0.0
 10
157.109893644309
 20
146.1506931664571
 30
0.0
 10
157.4220195011804
 20
147.4415712963654
 30
0.0
 10
157.8095929989511
 20
149.0530157726519
 30
0.0
 10
157.9656559273867
 20
149.5826995529385
 30
0.0
 10
157.7816877071116
 20
150.7529992613181
 30
0.0
 10
157.6111553680925
 20
151.8430281919372
 30
0.0
 10
157.0582171779396
 20
152.5547853887321
 30
0.0
 10
156.1170164704645
 20
152.5547853887321
 30
0.0
 10
155.1096698860365
 20
152.5547853887321
 30
0.0
 10
154.2962823053817
 20
152.4412694176073
 30
0.0
 10
153.156643967048
 20
151.2945686288697
 30
0.0
 10
152.0170056287143
 20
150.1476955852443
 30
0.0
 10
151.076149431015
 20
148.7930831468137
 30
0.0
 10
150.3337308641742
 20
147.2290087646991
 30
0.0
 10
149.5957909244188
 20
145.6683794803425
 30
0.0
 10
148.8530278478023
 20
143.6822806228776
 30
0.0
 10
148.0964843801539
 20
141.2751908193897
 30
0.0
 10
148.0964843801539
 20
141.2751908193897
 30
0.0
 10
143.8552245303272
 20
127.8027915271048
 30
0.0
 10
143.8552245303272
 20
127.8027915271048
 30
0.0
 10
143.8552245303272
 20
127.8027915271048
 30
0.0
 10
141.486030802177
 20
127.8027915271048
 30
0.0
 10
141.486030802177
 20
127.8027915271048
 30
0.0
 10
141.486030802177
 20
127.8027915271048
 30
0.0
 10
146.3329388378533
 20
143.2092687007094
 30
0.0
 10
146.3329388378533
 20
143.2092687007094
 30
0.0
 10
146.8483254624444
 20
144.8408669988801
 30
0.0
 10
147.2314203331297
 20
146.1837661049335
 30
0.0
 10
147.4867020769946
 20
147.224185627838
 30
0.0
 10
147.9169947869641
 20
149.0197705792876
 30
0.0
 10
148.0306830129768
 20
150.2400242051577
 30
0.0
 10
147.709255392159
 20
151.3157559800812
 30
0.0
 10
147.3874832615654
 20
152.3916600098926
 30
0.0
 10
146.8245542879144
 20
152.6683013598569
 30
0.0
 10
145.8840425999909
 20
152.6683013598569
 30
0.0
 10
145.0989048209514
 20
152.6683013598569
 30
0.0
 10
144.3282364524954
 20
152.3275811915945
 30
0.0
 10
143.4531816219731
 20
151.6538923250251
 30
0.0
 10
142.34627171234
 20
150.8074318058939
 30
0.0
 10
141.901854101563
 20
150.1097995099067
 30
0.0
 10
141.3578731655808
 20
149.289521733736
 30
0.0
 10
140.6299240093235
 20
148.192602607601
 30
0.0
 10
140.2850697237515
 20
147.455696197173
 30
0.0
 10
139.6652966370942
 20
145.8385673095858
 30
0.0
 10
139.0506911970739
 20
144.2214384219986
 30
0.0
 10
138.463991048893
 20
142.3252566160164
 30
0.0
 10
138.0571250036777
 20
141.0154304484394
 30
0.0
 10
138.0571250036777
 20
141.0154304484394
 30
0.0
 10
133.9009590684727
 20
127.8027915271048
 30
0.0
 10
133.9009590684727
 20
127.8027915271048
 30
0.0
 10
133.9009590684727
 20
127.8027915271048
 30
0.0
 10
131.4180771143097
 20
127.8027915271048
 30
0.0
 10
131.4180771143097
 20
127.8027915271048
 30
0.0
 10
131.4180771143097
 20
127.8027915271048
 30
0.0
 10
139.8926730891197
 20
154.8294111834263
 30
0.0
 10
139.8926730891197
 20
154.8294111834263
 30
0.0
  0
HATCH
  5
6A9
330
6A2
100
AcDbEntity
  8
LOGO
 62
   250
420
  2234388
100
AcDbHatch
 10
0.0
 20
0.0
 30
0.0
210
0.0
220
0.0
230
1.0
  2
SOLID
 70
     1
 71
     0
 91
        1
 92
        1
 93
        1
 72
     4
 94
        3
 73
     0
 74
     1
 95
      104
 96
      100
 40
0.0
 40
0.0
 40
0.0
 40
0.0
 40
1.0
 40
1.0
 40
1.0
 40
2.0
 40
2.0
 40
2.0
 40
3.0
 40
3.0
 40
3.0
 40
4.0
 40
4.0
 40
4.0
 40
5.0
 40
5.0
 40
5.0
 40
6.0
 40
6.0
 40
6.0
 40
7.0
 40
7.0
 40
7.0
 40
8.0
 40
8.0
 40
8.0
 40
9.0
 40
9.0
 40
9.0
 40
10.0
 40
10.0
 40
10.0
 40
11.0
 40
11.0
 40
11.0
 40
12.0
 40
12.0
 40
12.0
 40
13.0
 40
13.0
 40
13.0
 40
14.0
 40
14.0
 40
14.0
 40
15.0
 40
15.0
 40
15.0
 40
16.0
 40
16.0
 40
16.0
 40
17.0
 40
17.0
 40
17.0
 40
18.0
 40
18.0
 40
18.0
 40
19.0
 40
19.0
 40
19.0
 40
20.0
 40
20.0
 40
20.0
 40
21.0
 40
21.0
 40
21.0
 40
22.0
 40
22.0
 40
22.0
 40
23.0
 40
23.0
 40
23.0
 40
24.0
 40
24.0
 40
24.0
 40
25.0
 40
25.0
 40
25.0
 40
26.0
 40
26.0
 40
26.0
 40
27.0
 40
27.0
 40
27.0
 40
28.0
 40
28.0
 40
28.0
 40
29.0
 40
29.0
 40
29.0
 40
30.0
 40
30.0
 40
30.0
 40
31.0
 40
31.0
 40
31.0
 40
32.0
 40
32.0
 40
32.0
 40
33.0
 40
33.0
 40
33.0
 40
33.0
 10
139.8926730891197
 20
154.8294111834263
 10
139.8926730891197
 20
154.8294111834263
 10
142.0344903652445
 20
154.8294111834263
 10
142.0344903652445
 20
154.8294111834263
 10
142.0344903652445
 20
154.8294111834263
 10
140.9516961399171
 20
151.3157559800812
 10
140.9516961399171
 20
151.3157559800812
 10
141.8928968473923
 20
152.7887075264977
 10
142.7341897198865
 20
153.4484437471474
 10
143.8552245303272
 20
154.2926649527359
 10
144.9803934580775
 20
155.1296514530327
 10
146.3139908001845
 20
155.3044901642492
 10
147.241066606852
 20
155.3044901642492
 10
148.3855280820469
 20
155.3044901642492
 10
149.4969166187653
 20
155.0752189084569
 10
150.0784491203092
 20
153.8172414621372
 10
150.5228667310863
 20
152.833838307127
 10
150.5414702589793
 20
152.7201500811143
 10
150.4140016419347
 20
150.7765981809602
 10
151.5818897818837
 20
152.7699317437168
 10
152.4424752018226
 20
153.6256940267945
 10
153.9038856707499
 20
154.4507949398263
 10
155.4455669174378
 20
155.3044901642492
 10
156.339225275853
 20
155.3659851592288
 10
157.3748216618963
 20
155.2147453676543
 10
158.911679771723
 20
154.9877134254046
 10
159.8859534176746
 20
154.4390816074493
 10
160.3965169054045
 20
152.7816450760939
 10
160.9070803931344
 20
151.1219692311958
 10
160.6328506116007
 20
150.2303779314354
 10
159.9992971339115
 20
147.597634224801
 10
159.7105979417943
 20
146.4014962832367
 10
159.2947746424084
 20
144.9400858143094
 10
158.7463150793409
 20
143.2092687007094
 10
158.7463150793409
 20
143.2092687007094
 10
153.9038856707499
 20
127.8027915271048
 10
153.9038856707499
 20
127.8027915271048
 10
153.9038856707499
 20
127.8027915271048
 10
151.3882752878863
 20
127.8027915271048
 10
151.3882752878863
 20
127.8027915271048
 10
151.3882752878863
 20
127.8027915271048
 10
155.6250565106276
 20
141.2751908193897
 10
155.6250565106276
 20
141.2751908193897
 10
156.5094131050963
 20
144.0936252951782
 10
157.109893644309
 20
146.1506931664571
 10
157.4220195011804
 20
147.4415712963654
 10
157.8095929989511
 20
149.0530157726519
 10
157.9656559273867
 20
149.5826995529385
 10
157.7816877071116
 20
150.7529992613181
 10
157.6111553680925
 20
151.8430281919372
 10
157.0582171779396
 20
152.5547853887321
 10
156.1170164704645
 20
152.5547853887321
 10
155.1096698860365
 20
152.5547853887321
 10
154.2962823053817
 20
152.4412694176073
 10
153.156643967048
 20
151.2945686288697
 10
152.0170056287143
 20
150.1476955852443
 10
151.076149431015
 20
148.7930831468137
 10
150.3337308641742
 20
147.2290087646991
 10
149.5957909244188
 20
145.6683794803425
 10
148.8530278478023
 20
143.6822806228776
 10
148.0964843801539
 20
141.2751908193897
 10
148.0964843801539
 20
141.2751908193897
 10
143.8552245303272
 20
127.8027915271048
 10
143.8552245303272
 20
127.8027915271048
 10
143.8552245303272
 20
127.8027915271048
 10
141.486030802177
 20
127.8027915271048
 10
141.486030802177
 20
127.8027915271048
 10
141.486030802177
 20
127.8027915271048
 10
146.3329388378533
 20
143.2092687007094
 10
146.3329388378533
 20
143.2092687007094
 10
146.8483254624444
 20
144.8408669988801
 10
147.2314203331297
 20
146.1837661049335
 10
147.4867020769946
 20
147.224185627838
 10
147.9169947869641
 20
149.0197705792876
 10
148.0306830129768
 20
150.2400242051577
 10
147.709255392159
 20
151.3157559800812
 10
147.3874832615654
 20
152.3916600098926
 10
146.8245542879144
 20
152.6683013598569
 10
145.8840425999909
 20
152.6683013598569
 10
145.0989048209514
 20
152.6683013598569
 10
144.3282364524954
 20
152.3275811915945
 10
143.4531816219731
 20
151.6538923250251
 10
142.34627171234
 20
150.8074318058939
 10
141.901854101563
 20
150.1097995099067
 10
141.3578731655808
 20
149.289521733736
 10
140.6299240093235
 20
148.192602607601
 10
140.2850697237515
 20
147.455696197173
 10
139.6652966370942
 20
145.8385673095858
 10
139.0506911970739
 20
144.2214384219986
 10
138.463991048893
 20
142.3252566160164
 10
138.0571250036777
 20
141.0154304484394
 10
138.0571250036777
 20
141.0154304484394
 10
133.9009590684727
 20
127.8027915271048
 10
133.9009590684727
 20
127.8027915271048
 10
133.9009590684727
 20
127.8027915271048
 10
131.4180771143097
 20
127.8027915271048
 10
131.4180771143097
 20
127.8027915271048
 10
131.4180771143097
 20
127.8027915271048
 10
139.8926730891197
 20
154.8294111834263
 10
139.8926730891197
 20
154.8294111834263
 97
        0
 75
     2
 76
     1
 98
        0
  0
SPLINE
  5
6AA
330
6A2
100
AcDbEntity
  8
LOGO
370
     0
100
AcDbSpline
210
0.0
220
0.0
230
1.0
 70
    11
 71
     3
 72
    29
 73
    25
 74
     0
 42
0.000000001
 43
0.0000000001
 40
0.0
 40
0.0
 40
0.0
 40
0.0
 40
1.0
 40
1.0
 40
1.0
 40
2.0
 40
2.0
 40
2.0
 40
3.0
 40
3.0
 40
3.0
 40
4.0
 40
4.0
 40
4.0
 40
5.0
 40
5.0
 40
5.0
 40
6.0
 40
6.0
 40
6.0
 40
7.0
 40
7.0
 40
7.0
 40
8.0
 40
8.0
 40
8.0
 40
8.0
 10
101.6420971922469
 20
132.8388354296931
 30
0.0
 10
101.630039350094
 20
134.7164137077823
 30
0.0
 10
102.2236296937908
 20
138.0598810818841
 30
0.0
 10
103.7487744712405
 20
142.5378191476827
 30
0.0
 10
105.819967243327
 20
148.5896501242061
 30
0.0
 10
107.0602024361932
 20
150.8074318058939
 30
0.0
 10
108.1522984254671
 20
151.8833358357054
 30
0.0
 10
109.741177511439
 20
153.4532668840085
 30
0.0
 10
111.8740375333931
 20
153.5290590346837
 30
0.0
 10
112.5075910110823
 20
153.4532668840085
 30
0.0
 10
113.4012493694975
 20
153.3490526768302
 30
0.0
 10
114.6683563248758
 20
152.7580461564518
 30
0.0
 10
114.7493161221879
 20
150.7838328862519
 30
0.0
 10
114.8106388622796
 20
149.0909118479895
 30
0.0
 10
114.3186789024427
 20
145.9191825971221
 30
0.0
 10
112.6164561002338
 20
140.9489400617108
 30
0.0
 10
110.6444821435766
 20
135.1746117095912
 30
0.0
 10
109.4669477299053
 20
132.8960240524753
 30
0.0
 10
108.5212683953448
 20
131.9072809959403
 30
0.0
 10
106.7346406980658
 20
130.0538184021569
 30
0.0
 10
104.8222669326213
 20
130.2336525051225
 30
0.0
 10
104.5408024457958
 20
130.2336525051225
 30
0.0
 10
104.1721769856939
 20
130.2336525051225
 30
0.0
 10
101.6465758193322
 20
130.6305277668397
 30
0.0
 10
101.6420971922469
 20
132.8388354296931
 30
0.0
  0
SPLINE
  5
6AB
330
6A2
100
AcDbEntity
  8
LOGO
370
     0
100
AcDbSpline
210
0.0
220
0.0
230
1.0
 70
    11
 71
     3
 72
    32
 73
    28
 74
     0
 42
0.000000001
 43
0.0000000001
 40
0.0
 40
0.0
 40
0.0
 40
0.0
 40
1.0
 40
1.0
 40
1.0
 40
2.0
 40
2.0
 40
2.0
 40
3.0
 40
3.0
 40
3.0
 40
4.0
 40
4.0
 40
4.0
 40
5.0
 40
5.0
 40
5.0
 40
6.0
 40
6.0
 40
6.0
 40
7.0
 40
7.0
 40
7.0
 40
8.0
 40
8.0
 40
8.0
 40
9.0
 40
9.0
 40
9.0
 40
9.0
 10
106.2595617172429
 20
153.4105476718098
 30
0.0
 10
104.8222669326213
 20
151.5474388043041
 30
0.0
 10
103.7177685914188
 20
149.8758773721411
 30
0.0
 10
101.9232171692965
 20
144.6141795664062
 30
0.0
 10
100.2754269116635
 20
139.7999999594306
 30
0.0
 10
99.22777268346732
 20
136.3052927937542
 30
0.0
 10
99.06964269637689
 20
132.039572749846
 30
0.0
 10
98.94665270641765
 20
128.8673267343149
 30
0.0
 10
100.8807305877373
 20
127.8027915271048
 30
0.0
 10
103.7129454545577
 20
127.8027915271048
 30
0.0
 10
104.9352661390825
 20
127.8027915271048
 30
0.0
 10
108.0151835347002
 20
127.8827177950895
 30
0.0
 10
110.2045431598849
 20
130.5926316915021
 30
0.0
 10
111.7417457794874
 20
132.4984597712065
 30
0.0
 10
113.155269389579
 20
134.475256864725
 30
0.0
 10
115.0562743324223
 20
140.9489400617108
 30
0.0
 10
116.6361961642235
 20
146.3680788349845
 30
0.0
 10
117.7282921534974
 20
149.8639917848761
 30
0.0
 10
117.6480213757369
 20
151.8595646611754
 30
0.0
 10
117.6480213757369
 20
151.8595646611754
 30
0.0
 10
117.6480213757369
 20
151.8595646611754
 30
0.0
 10
117.6480213757369
 20
151.8595646611754
 30
0.0
 10
117.13229024137
 20
155.18150017429
 30
0.0
 10
114.7162431837115
 20
155.886194920681
 30
0.0
 10
113.3351034925446
 20
155.886194920681
 30
0.0
 10
111.9829026225447
 20
155.886194920681
 30
0.0
 10
108.3414342923792
 20
156.1251124501957
 30
0.0
 10
106.2595617172429
 20
153.4105476718098
 30
0.0
  0
HATCH
  5
6AC
330
6A2
100
AcDbEntity
  8
LOGO
 62
   250
420
  2234388
100
AcDbHatch
 10
0.0
 20
0.0
 30
0.0
210
0.0
220
0.0
230
1.0
  2
SOLID
 70
     1
 71
     0
 91
        2
 92
        1
 93
        1
 72
     4
 94
        3
 73
     0
 74
     1
 95
       29
 96
       25
 40
0.0
 40
0.0
 40
0.0
 40
0.0
 40
1.0
 40
1.0
 40
1.0
 40
2.0
 40
2.0
 40
2.0
 40
3.0
 40
3.0
 40
3.0
 40
4.0
 40
4.0
 40
4.0
 40
5.0
 40
5.0
 40
5.0
 40
6.0
 40
6.0
 40
6.0
 40
7.0
 40
7.0
 40
7.0
 40
8.0
 40
8.0
 40
8.0
 40
8.0
 10
101.6420971922469
 20
132.8388354296931
 10
101.630039350094
 20
134.7164137077823
 10
102.2236296937908
 20
138.0598810818841
 10
103.7487744712405
 20
142.5378191476827
 10
105.819967243327
 20
148.5896501242061
 10
107.0602024361932
 20
150.8074318058939
 10
108.1522984254671
 20
151.8833358357054
 10
109.741177511439
 20
153.4532668840085
 10
111.8740375333931
 20
153.5290590346837
 10
112.5075910110823
 20
153.4532668840085
 10
113.4012493694975
 20
153.3490526768302
 10
114.6683563248758
 20
152.7580461564518
 10
114.7493161221879
 20
150.7838328862519
 10
114.8106388622796
 20
149.0909118479895
 10
114.3186789024427
 20
145.9191825971221
 10
112.6164561002338
 20
140.9489400617108
 10
110.6444821435766
 20
135.1746117095912
 10
109.4669477299053
 20
132.8960240524753
 10
108.5212683953448
 20
131.9072809959403
 10
106.7346406980658
 20
130.0538184021569
 10
104.8222669326213
 20
130.2336525051225
 10
104.5408024457958
 20
130.2336525051225
 10
104.1721769856939
 20
130.2336525051225
 10
101.6465758193322
 20
130.6305277668397
 10
101.6420971922469
 20
132.8388354296931
 97
        0
 92
        1
 93
        1
 72
     4
 94
        3
 73
     0
 74
     1
 95
       32
 96
       28
 40
0.0
 40
0.0
 40
0.0
 40
0.0
 40
1.0
 40
1.0
 40
1.0
 40
2.0
 40
2.0
 40
2.0
 40
3.0
 40
3.0
 40
3.0
 40
4.0
 40
4.0
 40
4.0
 40
5.0
 40
5.0
 40
5.0
 40
6.0
 40
6.0
 40
6.0
 40
7.0
 40
7.0
 40
7.0
 40
8.0
 40
8.0
 40
8.0
 40
9.0
 40
9.0
 40
9.0
 40
9.0
 10
106.2595617172429
 20
153.4105476718098
 10
104.8222669326213
 20
151.5474388043041
 10
103.7177685914188
 20
149.8758773721411
 10
101.9232171692965
 20
144.6141795664062
 10
100.2754269116635
 20
139.7999999594306
 10
99.22777268346732
 20
136.3052927937542
 10
99.06964269637689
 20
132.039572749846
 10
98.94665270641765
 20
128.8673267343149
 10
100.8807305877373
 20
127.8027915271048
 10
103.7129454545577
 20
127.8027915271048
 10
104.9352661390825
 20
127.8027915271048
 10
108.0151835347002
 20
127.8827177950895
 10
110.2045431598849
 20
130.5926316915021
 10
111.7417457794874
 20
132.4984597712065
 10
113.155269389579
 20
134.475256864725
 10
115.0562743324223
 20
140.9489400617108
 10
116.6361961642235
 20
146.3680788349845
 10
117.7282921534974
 20
149.8639917848761
 10
117.6480213757369
 20
151.8595646611754
 10
117.6480213757369
 20
151.8595646611754
 10
117.6480213757369
 20
151.8595646611754
 10
117.6480213757369
 20
151.8595646611754
 10
117.13229024137
 20
155.18150017429
 10
114.7162431837115
 20
155.886194920681
 10
113.3351034925446
 20
155.886194920681
 10
111.9829026225447
 20
155.886194920681
 10
108.3414342923792
 20
156.1251124501957
 10
106.2595617172429
 20
153.4105476718098
 97
        0
 75
     2
 76
     1
 98
        0
  0
ENDBLK
  5
6AD
330
6A2
100
AcDbEntity
  8
0
100
AcDbBlockEnd
  0
BLOCK
  5
386E
330
386D
100
AcDbEntity
  8
0
100
AcDbBlockBegin
  2
*D6
 70
     1
 10
0.0
 20
0.0
 30
0.0
  3
*D6
  1
*D126
  0
LINE
  5
3870
330
386D
100
AcDbEntity
  8
DIM
 62
     0
370
    -2
100
AcDbLine
 10
264.3329688988288
 20
131.6444773349123
 30
0.0
 11
264.3329688988288
 21
113.4370793645779
 31
0.0
  0
LINE
  5
3871
330
386D
100
AcDbEntity
  8
DIM
 62
     0
370
    -2
100
AcDbLine
 10
356.6817439728288
 20
192.3947240001124
 30
0.0
 11
356.6817439728288
 21
113.4370793645779
 31
0.0
  0
LINE
  5
3872
330
386D
100
AcDbEntity
  8
DIM
 62
     0
370
    -2
100
AcDbLine
 10
265.3329688988288
 20
113.4370793645779
 30
0.0
 11
355.6817439728288
 21
113.4370793645779
 31
0.0
  0
INSERT
  5
3873
330
386D
100
AcDbEntity
  8
DIM
 62
     0
370
    -2
100
AcDbBlockReference
  2
_DOT
 10
264.3329688988288
 20
113.4370793645779
 30
0.0
 50
180.0
  0
INSERT
  5
3874
330
386D
100
AcDbEntity
  8
DIM
 62
     0
370
    -2
100
AcDbBlockReference
  2
_DOT
 10
356.6817439728288
 20
113.4370793645779
 30
0.0
  0
MTEXT
  5
3875
330
386D
100
AcDbEntity
  8
DIM
 62
     0
 48
0.05
100
AcDbMText
 10
310.5073572776291
 20
120.9370793645779
 30
0.0
 40
5.0
 41
0.0
 46
0.0
 71
     5
 72
     1
  1
\A1;\A1;92
  7
ＭＳ ゴシック
 73
     1
 44
1.0
  0
POINT
  5
3876
330
386D
100
AcDbEntity
  8
Defpoints
 62
     0
100
AcDbPoint
 10
264.3329688988288
 20
136.6444773349123
 30
0.0
  0
POINT
  5
3877
330
386D
100
AcDbEntity
  8
Defpoints
 62
     0
100
AcDbPoint
 10
356.6817439728288
 20
197.3947240001124
 30
0.0
  0
POINT
  5
3878
330
386D
100
AcDbEntity
  8
Defpoints
 62
     0
100
AcDbPoint
 10
356.6817439728288
 20
113.4370793645779
 30
0.0
  0
ENDBLK
  5
386F
330
386D
100
AcDbEntity
  8
0
100
AcDbBlockEnd
  0
BLOCK
  5
387B
330
387A
100
AcDbEntity
  8
0
100
AcDbBlockBegin
  2
*D7
 70
     1
 10
0.0
 20
0.0
 30
0.0
  3
*D7
  1
*D127
  0
LINE
  5
387D
330
387A
100
AcDbEntity
  8
DIM
 62
     0
370
    -2
100
AcDbLine
 10
361.6817439634287
 20
210.6456402339123
 30
0.0
 11
381.1802057218533
 21
210.6456402339123
 31
0.0
  0
LINE
  5
387E
330
387A
100
AcDbEntity
  8
DIM
 62
     0
370
    -2
100
AcDbLine
 10
351.2104983232284
 20
145.5546330899123
 30
0.0
 11
381.1802057218533
 21
145.5546330899123
 31
0.0
  0
LINE
  5
387F
330
387A
100
AcDbEntity
  8
DIM
 62
     0
370
    -2
100
AcDbLine
 10
381.1802057218533
 20
209.6456402339123
 30
0.0
 11
381.1802057218533
 21
146.5546330899123
 31
0.0
  0
INSERT
  5
3880
330
387A
100
AcDbEntity
  8
DIM
 62
     0
370
    -2
100
AcDbBlockReference
  2
_DOT
 10
381.1802057218533
 20
210.6456402339123
 30
0.0
 50
90.0
  0
INSERT
  5
3881
330
387A
100
AcDbEntity
  8
DIM
 62
     0
370
    -2
100
AcDbBlockReference
  2
_DOT
 10
381.1802057218533
 20
145.5546330899123
 30
0.0
 50
270.0
  0
MTEXT
  5
3882
330
387A
100
AcDbEntity
  8
DIM
 62
     0
 48
0.05
100
AcDbMText
 10
373.6802057218533
 20
178.1001370051123
 30
0.0
 40
5.0
 41
0.0
 46
0.0
 71
     5
 72
     1
  1
\A1;\A1;65
  7
ＭＳ ゴシック
 11
0.0
 21
1.0
 31
0.0
 73
     1
 44
1.0
  0
POINT
  5
3883
330
387A
100
AcDbEntity
  8
Defpoints
 62
     0
100
AcDbPoint
 10
356.6817439634287
 20
210.6456402339123
 30
0.0
  0
POINT
  5
3884
330
387A
100
AcDbEntity
  8
Defpoints
 62
     0
100
AcDbPoint
 10
346.2104983232284
 20
145.5546330899123
 30
0.0
  0
POINT
  5
3885
330
387A
100
AcDbEntity
  8
Defpoints
 62
     0
100
AcDbPoint
 10
381.1802057218533
 20
145.5546330899123
 30
0.0
  0
ENDBLK
  5
387C
330
387A
100
AcDbEntity
  8
0
100
AcDbBlockEnd
  0
BLOCK
  5
3934
330
3933
100
AcDbEntity
  8
0
100
AcDbBlockBegin
  2
*D8
 70
     1
 10
0.0
 20
0.0
 30
0.0
  3
*D8
  1
*D131
  0
LINE
  5
3936
330
3933
100
AcDbEntity
  8
DIM
 62
     0
 48
0.05
370
    -2
100
AcDbLine
 10
264.3329688988288
 20
132.7554298162339
 30
0.0
 11
264.3329688988288
 21
126.3475594767068
 31
0.0
  0
LINE
  5
3937
330
3933
100
AcDbEntity
  8
DIM
 62
     0
 48
0.05
370
    -2
100
AcDbLine
 10
271.3329688988288
 20
170.6660729800151
 30
0.0
 11
271.3329688988288
 21
126.3475594767068
 31
0.0
  0
LINE
  5
3938
330
3933
100
AcDbEntity
  8
DIM
 62
     0
 48
0.05
370
    -2
100
AcDbLine
 10
265.3329688988288
 20
126.3475594767068
 30
0.0
 11
270.3329688988288
 21
126.3475594767068
 31
0.0
  0
INSERT
  5
3939
330
3933
100
AcDbEntity
  8
DIM
 62
     0
370
    -2
100
AcDbBlockReference
  2
_DOT
 10
264.3329688988288
 20
126.3475594767068
 30
0.0
 50
180.0
  0
INSERT
  5
393A
330
3933
100
AcDbEntity
  8
DIM
 62
     0
370
    -2
100
AcDbBlockReference
  2
_DOT
 10
271.3329688988288
 20
126.3475594767068
 30
0.0
  0
MTEXT
  5
393B
330
3933
100
AcDbEntity
  8
DIM
 62
     0
 48
0.05
100
AcDbMText
 10
267.8329688988288
 20
133.8475594767068
 30
0.0
 40
5.0
 41
0.0
 46
0.0
 71
     5
 72
     1
  1
\A1;7
  7
ＭＳ ゴシック
 73
     1
 44
1.0
  0
POINT
  5
393C
330
3933
100
AcDbEntity
  8
Defpoints
 62
     0
100
AcDbPoint
 10
264.3329688988288
 20
137.7554298162339
 30
0.0
  0
POINT
  5
393D
330
3933
100
AcDbEntity
  8
Defpoints
 62
     0
100
AcDbPoint
 10
271.3329688988288
 20
175.6660729800151
 30
0.0
  0
POINT
  5
393E
330
3933
100
AcDbEntity
  8
Defpoints
 62
     0
100
AcDbPoint
 10
271.3329688988288
 20
126.3475594767068
 30
0.0
  0
ENDBLK
  5
3935
330
3933
100
AcDbEntity
  8
0
100
AcDbBlockEnd
  0
BLOCK
  5
4687
330
4686
100
AcDbEntity
  8
0
100
AcDbBlockBegin
  2
*D9
 70
     1
 10
0.0
 20
0.0
 30
0.0
  3
*D9
  1
*D140
  0
LINE
  5
4689
330
4686
100
AcDbEntity
  8
DIM
 62
     0
 48
0.05
370
    -2
100
AcDbLine
 10
81.4661371915963
 20
245.6507761786149
 30
0.0
 11
42.87941763844655
 21
245.6507761786149
 31
0.0
  0
LINE
  5
468A
330
4686
100
AcDbEntity
  8
DIM
 62
     0
 48
0.05
370
    -2
100
AcDbLine
 10
81.4661371915963
 20
175.6507761786149
 30
0.0
 11
42.87941763844655
 21
175.6507761786149
 31
0.0
  0
LINE
  5
468B
330
4686
100
AcDbEntity
  8
DIM
 62
     0
 48
0.05
370
    -2
100
AcDbLine
 10
42.87941763844655
 20
244.6507761786149
 30
0.0
 11
42.87941763844655
 21
176.6507761786149
 31
0.0
  0
INSERT
  5
468C
330
4686
100
AcDbEntity
  8
DIM
 62
     0
370
    -2
100
AcDbBlockReference
  2
_DOT
 10
42.87941763844655
 20
245.6507761786149
 30
0.0
 50
90.0
  0
INSERT
  5
468D
330
4686
100
AcDbEntity
  8
DIM
 62
     0
370
    -2
100
AcDbBlockReference
  2
_DOT
 10
42.87941763844655
 20
175.6507761786149
 30
0.0
 50
270.0
  0
MTEXT
  5
468E
330
4686
100
AcDbEntity
  8
DIM
 62
     0
 48
0.05
100
AcDbMText
 10
35.37941763844655
 20
210.6507761786149
 30
0.0
 40
5.0
 41
0.0
 46
0.0
 71
     5
 72
     1
  1
\A1;70
  7
ＭＳ ゴシック
 11
1.015061051085857E-16
 21
1.0
 31
0.0
 73
     1
 44
1.0
  0
POINT
  5
468F
330
4686
100
AcDbEntity
  8
Defpoints
 62
     0
100
AcDbPoint
 10
86.4661371915963
 20
245.6507761786149
 30
0.0
  0
POINT
  5
4690
330
4686
100
AcDbEntity
  8
Defpoints
 62
     0
100
AcDbPoint
 10
86.4661371915963
 20
175.6507761786149
 30
0.0
  0
POINT
  5
4691
330
4686
100
AcDbEntity
  8
Defpoints
 62
     0
100
AcDbPoint
 10
42.87941763844655
 20
175.6507761786149
 30
0.0
  0
ENDBLK
  5
4688
330
4686
100
AcDbEntity
  8
0
100
AcDbBlockEnd
  0
BLOCK
  5
46CF
330
46CE
100
AcDbEntity
  8
0
100
AcDbBlockBegin
  2
*D10
 70
     1
 10
0.0
 20
0.0
 30
0.0
  3
*D10
  1
*D140
  0
LINE
  5
46D1
330
46CE
100
AcDbEntity
  8
DIM
 62
     0
 48
0.05
370
    -2
100
AcDbLine
 10
175.7931041562288
 20
243.1444773349127
 30
0.0
 11
157.4588091206034
 21
243.1444773349127
 31
0.0
  0
LINE
  5
46D2
330
46CE
100
AcDbEntity
  8
DIM
 62
     0
 48
0.05
370
    -2
100
AcDbLine
 10
175.7931041562288
 20
178.1444773349127
 30
0.0
 11
157.4588091206034
 21
178.1444773349127
 31
0.0
  0
LINE
  5
46D3
330
46CE
100
AcDbEntity
  8
DIM
 62
     0
 48
0.05
370
    -2
100
AcDbLine
 10
157.4588091206034
 20
242.1444773349127
 30
0.0
 11
157.4588091206034
 21
179.1444773349127
 31
0.0
  0
INSERT
  5
46D4
330
46CE
100
AcDbEntity
  8
DIM
 62
     0
370
    -2
100
AcDbBlockReference
  2
_DOT
 10
157.4588091206034
 20
243.1444773349127
 30
0.0
 50
90.0
  0
INSERT
  5
46D5
330
46CE
100
AcDbEntity
  8
DIM
 62
     0
370
    -2
100
AcDbBlockReference
  2
_DOT
 10
157.4588091206034
 20
178.1444773349127
 30
0.0
 50
270.0
  0
MTEXT
  5
46D6
330
46CE
100
AcDbEntity
  8
DIM
 62
     0
 48
0.05
100
AcDbMText
 10
149.9588091206034
 20
210.6444773349127
 30
0.0
 40
5.0
 41
0.0
 46
0.0
 71
     5
 72
     1
  1
\A1;65
  7
ＭＳ ゴシック
 11
0.0
 21
1.0
 31
0.0
 73
     1
 44
1.0
  0
POINT
  5
46D7
330
46CE
100
AcDbEntity
  8
Defpoints
 62
     0
100
AcDbPoint
 10
180.7931041562288
 20
243.1444773349127
 30
0.0
  0
POINT
  5
46D8
330
46CE
100
AcDbEntity
  8
Defpoints
 62
     0
100
AcDbPoint
 10
180.7931041562288
 20
178.1444773349127
 30
0.0
  0
POINT
  5
46D9
330
46CE
100
AcDbEntity
  8
Defpoints
 62
     0
100
AcDbPoint
 10
157.4588091206034
 20
178.1444773349127
 30
0.0
  0
ENDBLK
  5
46D0
330
46CE
100
AcDbEntity
  8
0
100
AcDbBlockEnd
  0
BLOCK
  5
4D7E
330
4D7D
100
AcDbEntity
  8
0
100
AcDbBlockBegin
  2
*D11
 70
     1
 10
0.0
 20
0.0
 30
0.0
  3
*D11
  1
*D28
  0
LINE
  5
4D80
330
4D7D
100
AcDbEntity
  8
DIM
 62
     0
 48
0.05
370
    -2
100
AcDbLine
 10
735.1736258114435
 20
246.5254430925232
 30
0.0
 11
716.8393307758181
 21
246.5254430925232
 31
0.0
  0
LINE
  5
4D81
330
4D7D
100
AcDbEntity
  8
DIM
 62
     0
 48
0.05
370
    -2
100
AcDbLine
 10
735.1736258114435
 20
181.5254430925232
 30
0.0
 11
716.8393307758181
 21
181.5254430925232
 31
0.0
  0
LINE
  5
4D82
330
4D7D
100
AcDbEntity
  8
DIM
 62
     0
 48
0.05
370
    -2
100
AcDbLine
 10
716.8393307758181
 20
245.5254430925232
 30
0.0
 11
716.8393307758181
 21
182.5254430925232
 31
0.0
  0
INSERT
  5
4D83
330
4D7D
100
AcDbEntity
  8
DIM
 62
     0
370
    -2
100
AcDbBlockReference
  2
_DOT
 10
716.8393307758181
 20
246.5254430925232
 30
0.0
 50
90.0
  0
INSERT
  5
4D84
330
4D7D
100
AcDbEntity
  8
DIM
 62
     0
370
    -2
100
AcDbBlockReference
  2
_DOT
 10
716.8393307758181
 20
181.5254430925232
 30
0.0
 50
270.0
  0
MTEXT
  5
4D85
330
4D7D
100
AcDbEntity
  8
DIM
 62
     0
 48
0.05
100
AcDbMText
 10
709.3393307758181
 20
214.0254430925232
 30
0.0
 40
5.0
 41
0.0
 46
0.0
 71
     5
 72
     1
  1
\A1;65
  7
ＭＳ ゴシック
 11
0.0
 21
1.0
 31
0.0
 73
     1
 44
1.0
  0
POINT
  5
4D86
330
4D7D
100
AcDbEntity
  8
Defpoints
 62
     0
100
AcDbPoint
 10
740.1736258114435
 20
246.5254430925232
 30
0.0
  0
POINT
  5
4D87
330
4D7D
100
AcDbEntity
  8
Defpoints
 62
     0
100
AcDbPoint
 10
740.1736258114435
 20
181.5254430925232
 30
0.0
  0
POINT
  5
4D88
330
4D7D
100
AcDbEntity
  8
Defpoints
 62
     0
100
AcDbPoint
 10
716.8393307758181
 20
181.5254430925232
 30
0.0
  0
ENDBLK
  5
4D7F
330
4D7D
100
AcDbEntity
  8
0
100
AcDbBlockEnd
  0
BLOCK
  5
4E87
330
4E86
100
AcDbEntity
  8
0
100
AcDbBlockBegin
  2
*D12
 70
     1
 10
0.0
 20
0.0
 30
0.0
  3
*D12
  1
*D30
  0
LINE
  5
4E89
330
4E86
100
AcDbEntity
  8
DIM
 62
     0
 48
0.05
370
    -2
100
AcDbLine
 10
167.5451543754484
 20
243.4104081036113
 30
0.0
 11
149.2108593398231
 21
243.4104081036113
 31
0.0
  0
LINE
  5
4E8A
330
4E86
100
AcDbEntity
  8
DIM
 62
     0
 48
0.05
370
    -2
100
AcDbLine
 10
167.5451543754484
 20
178.4104081036113
 30
0.0
 11
149.2108593398231
 21
178.4104081036113
 31
0.0
  0
LINE
  5
4E8B
330
4E86
100
AcDbEntity
  8
DIM
 62
     0
 48
0.05
370
    -2
100
AcDbLine
 10
149.2108593398231
 20
242.4104081036113
 30
0.0
 11
149.2108593398231
 21
179.4104081036113
 31
0.0
  0
INSERT
  5
4E8C
330
4E86
100
AcDbEntity
  8
DIM
 62
     0
370
    -2
100
AcDbBlockReference
  2
_DOT
 10
149.2108593398231
 20
243.4104081036113
 30
0.0
 50
90.0
  0
INSERT
  5
4E8D
330
4E86
100
AcDbEntity
  8
DIM
 62
     0
370
    -2
100
AcDbBlockReference
  2
_DOT
 10
149.2108593398231
 20
178.4104081036113
 30
0.0
 50
270.0
  0
MTEXT
  5
4E8E
330
4E86
100
AcDbEntity
  8
DIM
 62
     0
 48
0.05
100
AcDbMText
 10
141.7108593398231
 20
210.9104081036113
 30
0.0
 40
5.0
 41
0.0
 46
0.0
 71
     5
 72
     1
  1
\A1;65
  7
ＭＳ ゴシック
 11
0.0
 21
1.0
 31
0.0
 73
     1
 44
1.0
  0
POINT
  5
4E8F
330
4E86
100
AcDbEntity
  8
Defpoints
 62
     0
100
AcDbPoint
 10
172.5451543754484
 20
243.4104081036113
 30
0.0
  0
POINT
  5
4E90
330
4E86
100
AcDbEntity
  8
Defpoints
 62
     0
100
AcDbPoint
 10
172.5451543754484
 20
178.4104081036113
 30
0.0
  0
POINT
  5
4E91
330
4E86
100
AcDbEntity
  8
Defpoints
 62
     0
100
AcDbPoint
 10
149.2108593398231
 20
178.4104081036113
 30
0.0
  0
ENDBLK
  5
4E88
330
4E86
100
AcDbEntity
  8
0
100
AcDbBlockEnd
  0
BLOCK
  5
4F86
330
4F85
100
AcDbEntity
  8
0
 62
     1
 48
0.0
370
     0
390
1D
100
AcDbBlockBegin
  2
SE10
 70
     0
 10
0.0
 20
0.0
 30
0.0
  3
SE10
  1
SE10
  0
LINE
  5
4F87
330
4F85
100
AcDbEntity
  8
DV3_HULSE_VERLANGERUNGS-
  6
Continuous
 62
   252
370
     0
390
1D
100
AcDbLine
 10
45.1834226723
 20
125.100918943
 30
0.0
 11
45.1834226723
 21
120.3533236789
 31
0.0
  0
LINE
  5
4F88
330
4F85
100
AcDbEntity
  8
DV3_HULSE_VERLANGERUNGS-
  6
Continuous
 62
   252
370
     0
390
1D
100
AcDbLine
 10
43.493717911
 20
125.5536739693
 30
0.0
 11
45.1834226723
 21
125.100918943
 31
0.0
  0
ARC
  5
4F89
330
4F85
100
AcDbEntity
  8
DV3_HULSE_VERLANGERUNGS-
  6
Continuous
 62
   252
370
     0
390
1D
100
AcDbCircle
 10
43.5584226723
 20
125.7951554258
 30
0.0
 40
0.25
100
AcDbArc
 50
180.0
 51
255.0
  0
LINE
  5
4F8A
330
4F85
100
AcDbEntity
  8
DV3_HULSE_VERLANGERUNGS-
  6
Continuous
 62
   252
370
     0
390
1D
100
AcDbLine
 10
31.6834226723
 20
134.6419988134
 30
0.0
 11
32.1834226723
 21
134.3533236789
 31
0.0
  0
LINE
  5
4F8B
330
4F85
100
AcDbEntity
  8
DV3_HULSE_VERLANGERUNGS-
  6
Continuous
 62
   252
370
     0
390
1D
100
AcDbLine
 10
32.1834226723
 20
134.3533236789
 30
0.0
 11
32.1834226723
 21
128.0033236789
 31
0.0
  0
LINE
  5
4F8C
330
4F85
100
AcDbEntity
  8
DV3_HULSE_VERLANGERUNGS-
  6
Continuous
 62
   252
370
     0
390
1D
100
AcDbLine
 10
31.3731274336
 20
125.5536739693
 30
0.0
 11
29.6834226723
 21
125.100918943
 31
0.0
  0
LINE
  5
4F8D
330
4F85
100
AcDbEntity
  8
DV3_HULSE_VERLANGERUNGS-
  6
Continuous
 62
   252
370
     0
390
1D
100
AcDbLine
 10
29.6834226723
 20
125.100918943
 30
0.0
 11
29.6834226723
 21
120.3533236789
 31
0.0
  0
LINE
  5
4F8E
330
4F85
100
AcDbEntity
  8
DV3_HULSE_VERLANGERUNGS-
  6
Continuous
 62
   252
370
     0
390
1D
100
AcDbLine
 10
32.1834226723
 20
128.0033236789
 30
0.0
 11
31.5584226723
 21
127.6424797606
 31
0.0
  0
LINE
  5
4F8F
330
4F85
100
AcDbEntity
  8
DV3_HULSE_VERLANGERUNGS-
  6
Continuous
 62
   252
370
     0
390
1D
100
AcDbLine
 10
31.5584226723
 20
127.6424797606
 30
0.0
 11
31.5584226723
 21
125.7951554258
 31
0.0
  0
ARC
  5
4F90
330
4F85
100
AcDbEntity
  8
DV3_HULSE_VERLANGERUNGS-
  6
Continuous
 62
   252
370
     0
390
1D
100
AcDbCircle
 10
31.3084226723
 20
125.7951554258
 30
0.0
 40
0.25
100
AcDbArc
 50
285.0
 51
360.0
  0
LINE
  5
4F91
330
4F85
100
AcDbEntity
  8
DV3_HULSE_VERLANGERUNGS-
  6
Continuous
 62
   252
370
     0
390
1D
100
AcDbLine
 10
42.6834226723
 20
134.3533236789
 30
0.0
 11
42.6834226723
 21
128.0033236789
 31
0.0
  0
LINE
  5
4F92
330
4F85
100
AcDbEntity
  8
DV3_HULSE_VERLANGERUNGS-
  6
Continuous
 62
   252
370
     0
390
1D
100
AcDbLine
 10
42.6834226723
 20
128.0033236789
 30
0.0
 11
43.3084226723
 21
127.6424797606
 31
0.0
  0
LINE
  5
4F93
330
4F85
100
AcDbEntity
  8
DV3_HULSE_VERLANGERUNGS-
  6
Continuous
 62
   252
370
     0
390
1D
100
AcDbLine
 10
43.3084226723
 20
127.6424797606
 30
0.0
 11
43.3084226723
 21
125.7951554258
 31
0.0
  0
LINE
  5
4F94
330
4F85
100
AcDbEntity
  8
DV3_HULSE_VERLANGERUNGS-
  6
Continuous
 62
   252
370
     0
390
1D
100
AcDbLine
 10
43.1834226723
 20
134.6419988134
 30
0.0
 11
42.6834226723
 21
134.3533236789
 31
0.0
  0
LWPOLYLINE
  5
4F95
330
4F85
100
AcDbEntity
  8
DV3_HULSE_VERLANGERUNGS-
  6
Continuous
 62
   252
370
     0
390
1D
100
AcDbPolyline
 90
        2
 70
     0
 43
0.0
 10
43.0102178404
 20
134.5419989572
 10
43.1834226723
 20
134.7152037889
  0
LINE
  5
4F96
330
4F85
100
AcDbEntity
  8
DV3_HULSE_ABDECK
  6
Continuous
 62
   152
370
     0
390
1D
100
AcDbLine
 10
28.4334226723
 20
172.8533236789
 30
0.0
 11
28.4334226723
 21
142.6033236789
 31
0.0
  0
ARC
  5
4F97
330
4F85
100
AcDbEntity
  8
DV3_HULSE_ABDECK
  6
Continuous
 62
   152
370
     0
390
1D
100
AcDbCircle
 10
28.6834226723
 20
172.8533236789
 30
0.0
 40
0.25
100
AcDbArc
 50
90.0
 51
180.0
  0
LINE
  5
4F98
330
4F85
100
AcDbEntity
  8
DV3_HULSE_ABDECK
  6
Continuous
 62
   152
370
     0
390
1D
100
AcDbLine
 10
28.6834226723
 20
173.1033236789
 30
0.0
 11
46.1834226723
 21
173.1033236789
 31
0.0
  0
LINE
  5
4F99
330
4F85
100
AcDbEntity
  8
DV3_HULSE_ABDECK
  6
Continuous
 62
   152
370
     0
390
1D
100
AcDbLine
 10
46.4334226723
 20
172.8533236789
 30
0.0
 11
46.4334226723
 21
142.6033236789
 31
0.0
  0
ARC
  5
4F9A
330
4F85
100
AcDbEntity
  8
DV3_HULSE_ABDECK
  6
Continuous
 62
   152
370
     0
390
1D
100
AcDbCircle
 10
46.1834226723
 20
172.8533236789
 30
0.0
 40
0.25
100
AcDbArc
 50
0.0
 51
90.0
  0
LINE
  5
4F9B
330
4F85
100
AcDbEntity
  8
DV3_ROSETTE
  6
Continuous
 62
    32
370
     0
390
1D
100
AcDbLine
 10
20.1834226723
 20
140.6033236789
 30
0.0
 11
23.4334226723
 21
140.6033236789
 31
0.0
  0
ARC
  5
4F9C
330
4F85
100
AcDbEntity
  8
DV3_ROSETTE
  6
Continuous
 62
    32
370
     0
390
1D
100
AcDbCircle
 10
20.1834226723
 20
140.3533236789
 30
0.0
 40
0.25
100
AcDbArc
 50
90.0
 51
180.0
  0
LINE
  5
4F9D
330
4F85
100
AcDbEntity
  8
DV3_ROSETTE
  6
Continuous
 62
    32
370
     0
390
1D
100
AcDbLine
 10
19.9334226723
 20
140.3533236789
 30
0.0
 11
19.9334226723
 21
137.6033236789
 31
0.0
  0
LINE
  5
4F9E
330
4F85
100
AcDbEntity
  8
DV3_ROSETTE
  6
Continuous
 62
    32
370
     0
390
1D
100
AcDbLine
 10
23.9334226723
 20
142.6033236789
 30
0.0
 11
50.9334226723
 21
142.6033236789
 31
0.0
  0
ARC
  5
4F9F
330
4F85
100
AcDbEntity
  8
DV3_ROSETTE
  6
Continuous
 62
    32
370
     0
390
1D
100
AcDbCircle
 10
23.9334226723
 20
142.3533236789
 30
0.0
 40
0.25
100
AcDbArc
 50
90.0
 51
180.0
  0
LINE
  5
4FA0
330
4F85
100
AcDbEntity
  8
DV3_ROSETTE
  6
Continuous
 62
    32
370
     0
390
1D
100
AcDbLine
 10
23.6834226723
 20
142.3533236789
 30
0.0
 11
23.6834226723
 21
140.8533236789
 31
0.0
  0
ARC
  5
4FA1
330
4F85
100
AcDbEntity
  8
DV3_ROSETTE
  6
Continuous
 62
    32
370
     0
390
1D
100
AcDbCircle
 10
23.4334226723
 20
140.8533236789
 30
0.0
 40
0.25
100
AcDbArc
 50
270.0
 51
360.0
  0
ARC
  5
4FA2
330
4F85
100
AcDbEntity
  8
DV3_ROSETTE
  6
Continuous
 62
    32
370
     0
390
1D
100
AcDbCircle
 10
50.9334226723
 20
142.3533236789
 30
0.0
 40
0.25
100
AcDbArc
 50
0.0
 51
90.0
  0
LINE
  5
4FA3
330
4F85
100
AcDbEntity
  8
DV3_ROSETTE
  6
Continuous
 62
    32
370
     0
390
1D
100
AcDbLine
 10
51.1834226723
 20
142.3533236789
 30
0.0
 11
51.1834226723
 21
140.8533236789
 31
0.0
  0
ARC
  5
4FA4
330
4F85
100
AcDbEntity
  8
DV3_ROSETTE
  6
Continuous
 62
    32
370
     0
390
1D
100
AcDbCircle
 10
51.4334226723
 20
140.8533236789
 30
0.0
 40
0.25
100
AcDbArc
 50
180.0
 51
270.0
  0
LINE
  5
4FA5
330
4F85
100
AcDbEntity
  8
DV3_ROSETTE
  6
Continuous
 62
    32
370
     0
390
1D
100
AcDbLine
 10
51.4334226723
 20
140.6033236789
 30
0.0
 11
54.6834226723
 21
140.6033236789
 31
0.0
  0
ARC
  5
4FA6
330
4F85
100
AcDbEntity
  8
DV3_ROSETTE
  6
Continuous
 62
    32
370
     0
390
1D
100
AcDbCircle
 10
54.6834226723
 20
140.3533236789
 30
0.0
 40
0.25
100
AcDbArc
 50
0.0
 51
90.0
  0
LINE
  5
4FA7
330
4F85
100
AcDbEntity
  8
DV3_ROSETTE
  6
Continuous
 62
    32
370
     0
390
1D
100
AcDbLine
 10
54.9334226723
 20
140.3533236789
 30
0.0
 11
54.9334226723
 21
137.6033236789
 31
0.0
  0
LINE
  5
4FA8
330
4F85
100
AcDbEntity
  8
DV3_HULSE_ABDECK
  6
Continuous
 62
   152
370
     0
390
1D
100
AcDbLine
 10
28.4334226723
 20
142.6033236789
 30
0.0
 11
46.4334226723
 21
142.6033236789
 31
0.0
  0
LINE
  5
4FA9
330
4F85
100
AcDbEntity
  8
DV3_DICHTUNG_PROFIL
  6
Continuous
 62
    74
370
     0
390
1D
100
AcDbLine
 10
20.6834226723
 20
136.1033236789
 30
0.0
 11
20.6834226723
 21
137.6033236789
 31
0.0
  0
LINE
  5
4FAA
330
4F85
100
AcDbEntity
  8
DV3_DICHTUNG_PROFIL
  6
Continuous
 62
    74
370
     0
390
1D
100
AcDbLine
 10
54.1834226723
 20
136.1033236789
 30
0.0
 11
54.1834226723
 21
137.6033236789
 31
0.0
  0
LINE
  5
4FAB
330
4F85
100
AcDbEntity
  8
DV3_ROSETTE
  6
Continuous
 62
    32
370
     0
390
1D
100
AcDbLine
 10
19.9334226723
 20
137.6033236789
 30
0.0
 11
54.9334226723
 21
137.6033236789
 31
0.0
  0
LINE
  5
4FAC
330
4F85
100
AcDbEntity
  8
DV3_DICHTUNG_PROFIL
  6
Continuous
 62
    74
370
     0
390
1D
100
AcDbLine
 10
20.6834226723
 20
136.1033236789
 30
0.0
 11
54.1834226723
 21
136.1033236789
 31
0.0
  0
LINE
  5
4FAD
330
4F85
100
AcDbEntity
  8
DV3_HULSE_VERLANGERUNGS-
  6
Continuous
 62
   252
370
     0
390
1D
100
AcDbLine
 10
29.6834226723
 20
120.3533236789
 30
0.0
 11
45.1834226723
 21
120.3533236789
 31
0.0
  0
LINE
  5
4FAE
330
4F85
100
AcDbEntity
  8
DV3_HULSE_VERLANGERUNGS-
  6
Continuous
 62
   252
370
     0
390
1D
100
AcDbLine
 10
29.6834226723
 20
125.100918943
 30
0.0
 11
45.1834226723
 21
125.100918943
 31
0.0
  0
LINE
  5
4FAF
330
4F85
100
AcDbEntity
  8
DV3_HULSE_VERLANGERUNGS-
  6
Continuous
 62
   252
370
     0
390
1D
100
AcDbLine
 10
32.1834226723
 20
128.0033236789
 30
0.0
 11
42.6834226723
 21
128.0033236789
 31
0.0
  0
LINE
  5
4FB0
330
4F85
100
AcDbEntity
  8
DV3_HULSE_VERLANGERUNGS-
  6
Continuous
 62
   252
370
     0
390
1D
100
AcDbLine
 10
31.5584226723
 20
127.6424797606
 30
0.0
 11
43.3084226723
 21
127.6424797606
 31
0.0
  0
LINE
  5
4FB1
330
4F85
100
AcDbEntity
  8
DV3_HULSE_VERLANGERUNGS-
  6
Continuous
 62
   252
370
     0
390
1D
100
AcDbLine
 10
31.6834226723
 20
134.6419988134
 30
0.0
 11
43.1834226723
 21
134.6419988134
 31
0.0
  0
LINE
  5
4FB2
330
4F85
100
AcDbEntity
  8
DV3_HULSE_VERLANGERUNGS-
  6
Continuous
 62
   252
370
     0
390
1D
100
AcDbLine
 10
32.1834226723
 20
134.3533236789
 30
0.0
 11
42.6834226723
 21
134.3533236789
 31
0.0
  0
LINE
  5
4FB3
330
4F85
100
AcDbEntity
  8
DV3_HULSE_VERLANGERUNGS-
  6
Continuous
 62
   252
370
     0
390
1D
100
AcDbLine
 10
31.7731569249
 20
125.6644114021
 30
0.0
 11
43.136329922
 21
125.6644114021
 31
0.0
  0
LINE
  5
4FB4
330
4F85
100
AcDbEntity
  8
DV3_ROSETTE
  6
Continuous
 62
    32
370
     0
390
1D
100
AcDbLine
 10
23.6834226723
 20
140.6390247612
 30
0.0
 11
51.1834226723
 21
140.6390247612
 31
0.0
  0
LINE
  5
4FB5
330
4F85
100
AcDbEntity
  8
DV3_HULSE_VERLANGERUNGS-
  6
Continuous
 62
   252
370
     0
390
1D
100
AcDbLine
 10
42.7234226723
 20
136.1033236789
 30
0.0
 11
42.7234226723
 21
134.3764176896
 31
0.0
  0
LINE
  5
4FB6
330
4F85
100
AcDbEntity
  8
DV3_HULSE_VERLANGERUNGS-
  6
Continuous
 62
   252
370
     0
390
1D
100
AcDbLine
 10
43.1834226723
 20
136.1033236789
 30
0.0
 11
43.1834226723
 21
134.6419988134
 31
0.0
  0
LINE
  5
4FB7
330
4F85
100
AcDbEntity
  8
DV3_HULSE_VERLANGERUNGS-
  6
Continuous
 62
   252
370
     0
390
1D
100
AcDbLine
 10
32.1434226723
 20
136.1033236789
 30
0.0
 11
32.1434226723
 21
134.3764176896
 31
0.0
  0
LINE
  5
4FB8
330
4F85
100
AcDbEntity
  8
DV3_HULSE_VERLANGERUNGS-
  6
Continuous
 62
   252
370
     0
390
1D
100
AcDbLine
 10
31.6834226723
 20
136.1033236789
 30
0.0
 11
31.6834226723
 21
134.6419988134
 31
0.0
  0
LINE
  5
4FB9
330
4F85
100
AcDbEntity
  8
DV3_RING
  6
Continuous
 62
     3
370
     0
390
1D
100
AcDbLine
 10
32.9440444505
 20
175.1095985228
 30
0.0
 11
32.9440444505
 21
175.2095985228
 31
0.0
  0
LINE
  5
4FBA
330
4F85
100
AcDbEntity
  8
DV3_GRIFF_-FUHR-
  6
Continuous
 62
     1
370
     0
390
1D
100
AcDbLine
 10
44.9082970252
 20
173.1033236789
 30
0.0
 11
44.9082970252
 21
174.8595985228
 31
0.0
  0
ARC
  5
4FBB
330
4F85
100
AcDbEntity
  8
DV3_GRIFF_-FUHR-
  6
Continuous
 62
     1
370
     0
390
1D
100
AcDbCircle
 10
44.6582970252
 20
174.8595985228
 30
0.0
 40
0.25
100
AcDbArc
 50
0.0
 51
90.0
  0
ARC
  5
4FBC
330
4F85
100
AcDbEntity
  8
DV3_GRIFF_-FUHR-
  6
Continuous
 62
     1
370
     0
390
1D
100
AcDbCircle
 10
30.2085483193
 20
174.8595985228
 30
0.0
 40
0.25
100
AcDbArc
 50
90.0
 51
180.0
  0
LINE
  5
4FBD
330
4F85
100
AcDbEntity
  8
DV3_GRIFF_-FUHR-
  6
Continuous
 62
     1
370
     0
390
1D
100
AcDbLine
 10
29.9585483193
 20
174.8595985228
 30
0.0
 11
29.9585483193
 21
173.1033236789
 31
0.0
  0
LINE
  5
4FBE
330
4F85
100
AcDbEntity
  8
DV3_RING
  6
Continuous
 62
     3
370
     0
390
1D
100
AcDbLine
 10
41.922800894
 20
175.1095985228
 30
0.0
 11
41.922800894
 21
175.2095985228
 31
0.0
  0
LINE
  5
4FBF
330
4F85
100
AcDbEntity
  8
DV3_GRIFF_-FUHR-
  6
Continuous
 62
     1
370
     0
390
1D
100
AcDbLine
 10
30.2085483193
 20
175.1095985228
 30
0.0
 11
44.6582970252
 21
175.1095985228
 31
0.0
  0
LINE
  5
4FC0
330
4F85
100
AcDbEntity
  8
DV3_GRIFF_KPL_TRIO
  6
Continuous
 62
     7
370
     0
390
1D
100
AcDbLine
 10
32.8084226723
 20
186.7095985228
 30
0.0
 11
42.0584226723
 21
186.7095985228
 31
0.0
  0
LINE
  5
4FC1
330
4F85
100
AcDbEntity
  8
DV3_GRIFF_KPL_TRIO
  6
Continuous
 62
     7
370
     0
390
1D
100
AcDbLine
 10
42.3084226723
 20
175.2095985228
 30
0.0
 11
32.5584226723
 21
175.2095985228
 31
0.0
  0
LINE
  5
4FC2
330
4F85
100
AcDbEntity
  8
DV3_GRIFF_KPL_TRIO
  6
Continuous
 62
     7
370
     0
390
1D
100
AcDbLine
 10
32.5584226723
 20
185.9595985228
 30
0.0
 11
21.4119527023
 21
185.9595985228
 31
0.0
  0
LINE
  5
4FC3
330
4F85
100
AcDbEntity
  8
DV3_GRIFF_KPL_TRIO
  6
Continuous
 62
     7
370
     0
390
1D
100
AcDbLine
 10
32.5584226723
 20
181.2165439049
 30
0.0
 11
32.5584226723
 21
175.2095985228
 31
0.0
  0
LINE
  5
4FC4
330
4F85
100
AcDbEntity
  8
DV3_GRIFF_KPL_TRIO
  6
Continuous
 62
     7
370
     0
390
1D
100
AcDbLine
 10
42.3084226723
 20
184.7069513895
 30
0.0
 11
42.3084226723
 21
186.4595985228
 31
0.0
  0
LINE
  5
4FC5
330
4F85
100
AcDbEntity
  8
DV3_GRIFF_KPL_TRIO
  6
Continuous
 62
     7
370
     0
390
1D
100
AcDbLine
 10
53.4548926423
 20
185.9595985228
 30
0.0
 11
42.3084226723
 21
185.9595985228
 31
0.0
  0
SPLINE
  5
4FC6
330
4F85
100
AcDbEntity
  8
DV3_GRIFF_KPL_TRIO
  6
Continuous
 62
     7
370
     0
390
1D
100
AcDbSpline
210
0.0
220
0.0
230
1.0
 70
     8
 71
     3
 72
     9
 73
     5
 74
     0
 42
0.000000001
 43
0.0
 40
0.0
 40
0.0
 40
0.0
 40
0.0
 40
0.4832847846414331
 40
1.0
 40
1.0
 40
1.0
 40
1.0
 10
53.45726826968956
 20
179.960707949465
 30
0.0
 10
53.94851163658863
 20
179.9568139886316
 30
0.0
 10
54.7449092943405
 20
180.7039607710114
 30
0.0
 10
55.07442712986686
 20
182.1111733685271
 30
0.0
 10
55.0798926422935
 20
182.9595985228324
 30
0.0
  0
ARC
  5
4FC7
330
4F85
100
AcDbEntity
  8
DV3_GRIFF_KPL_TRIO
  6
Continuous
 62
     7
370
     0
390
1D
100
AcDbCircle
 10
42.0584226723
 20
186.4595985228
 30
0.0
 40
0.25
100
AcDbArc
 50
0.0
 51
90.0
  0
SPLINE
  5
4FC8
330
4F85
100
AcDbEntity
  8
DV3_GRIFF_KPL_TRIO
  6
Continuous
 62
     7
370
     0
390
1D
100
AcDbSpline
210
0.0
220
0.0
230
1.0
 70
     8
 71
     3
 72
    11
 73
     7
 74
     0
 42
0.000000001
 43
0.0
 40
0.0
 40
0.0
 40
0.0
 40
0.0
 40
0.2366258424938843
 40
0.4964465919145162
 40
0.7559702580936131
 40
1.0
 40
1.0
 40
1.0
 40
1.0
 10
21.4119077753152
 20
185.9586133594998
 30
0.0
 10
20.9300614048084
 20
185.9729473672678
 30
0.0
 10
20.14111845753122
 20
185.2801601753584
 30
0.0
 10
19.60345087254911
 20
182.99582231758
 30
0.0
 10
20.12078585113708
 20
180.6636509319581
 30
0.0
 10
20.91802698264193
 20
179.9485133628309
 30
0.0
 10
21.41432832966532
 20
179.960707949465
 30
0.0
  0
LINE
  5
4FC9
330
4F85
100
AcDbEntity
  8
DV3_GRIFF_KPL_TRIO
  6
Continuous
 62
     7
370
     0
390
1D
100
AcDbLine
 10
21.4119527023
 20
179.9595985228
 30
0.0
 11
32.5584226723
 21
179.9595985228
 31
0.0
  0
CIRCLE
  5
4FCA
330
4F85
100
AcDbEntity
  8
DV3_GRIFF_KPL_TRIO
  6
Continuous
 62
     7
370
     0
390
1D
100
AcDbCircle
 10
37.4334226723
 20
182.9595985228
 30
0.0
 40
3.0
  0
LINE
  5
4FCB
330
4F85
100
AcDbEntity
  8
DV3_GRIFF_KPL_TRIO
  6
Continuous
 62
     7
370
     0
390
1D
100
AcDbLine
 10
32.5584226723
 20
186.4595985228
 30
0.0
 11
32.5584226723
 21
184.7074548087
 31
0.0
  0
SPLINE
  5
4FCC
330
4F85
100
AcDbEntity
  8
DV3_GRIFF_KPL_TRIO
  6
Continuous
 62
     7
370
     0
390
1D
100
AcDbSpline
210
0.0
220
0.0
230
1.0
 70
     8
 71
     3
 72
    10
 73
     6
 74
     0
 42
0.000000001
 43
0.0
 40
0.0
 40
0.0
 40
0.0
 40
0.0
 40
0.2563212888472241
 40
0.7920281892121919
 40
1.0
 40
1.0
 40
1.0
 40
1.0
 10
42.30440221306934
 20
181.2064654952027
 30
0.0
 10
42.30211328311594
 20
181.46005999208
 30
0.0
 10
42.25848064525027
 20
182.3363842579283
 30
0.0
 10
42.27073959397904
 20
183.7016614224091
 30
0.0
 10
42.30176423953282
 20
184.5096123947356
 30
0.0
 10
42.30305824504764
 20
184.7152513912163
 30
0.0
  0
SPLINE
  5
4FCD
330
4F85
100
AcDbEntity
  8
DV3_GRIFF_KPL_TRIO
  6
Continuous
 62
     7
370
     0
390
1D
100
AcDbSpline
210
0.0
220
0.0
230
1.0
 70
     8
 71
     3
 72
     8
 73
     4
 74
     0
 42
0.000000001
 43
0.0
 40
0.0
 40
0.0
 40
0.0
 40
0.0
 40
1.0
 40
1.0
 40
1.0
 40
1.0
 10
32.60562779428784
 20
182.9595985228324
 30
0.0
 10
32.60190211265756
 20
182.2769698519304
 30
0.0
 10
32.54971302442054
 20
181.6941569802716
 30
0.0
 10
32.55352547634703
 20
181.2127079298494
 30
0.0
  0
SPLINE
  5
4FCE
330
4F85
100
AcDbEntity
  8
DV3_GRIFF_KPL_TRIO
  6
Continuous
 62
     7
370
     0
390
1D
100
AcDbSpline
210
0.0
220
0.0
230
1.0
 70
     8
 71
     3
 72
     8
 73
     4
 74
     0
 42
0.000000001
 43
0.0
 40
0.0
 40
0.0
 40
0.0
 40
0.0
 40
1.0
 40
1.0
 40
1.0
 40
1.0
 10
32.55489106311045
 20
184.70820284172
 30
0.0
 10
32.55017463937672
 20
184.2244038366072
 30
0.0
 10
32.6030193217298
 20
183.6475393506147
 30
0.0
 10
32.60562779428784
 20
182.9595985228324
 30
0.0
  0
LINE
  5
4FCF
330
4F85
100
AcDbEntity
  8
DV3_GRIFF_KPL_TRIO
  6
Continuous
 62
     7
370
     0
390
1D
100
AcDbLine
 10
42.3084226723
 20
175.2095985228
 30
0.0
 11
42.3084226723
 21
181.21445559
 31
0.0
  0
LINE
  5
4FD0
330
4F85
100
AcDbEntity
  8
DV3_GRIFF_KPL_TRIO
  6
Continuous
 62
     7
370
     0
390
1D
100
AcDbLine
 10
42.3084226723
 20
179.9595985228
 30
0.0
 11
53.4548926423
 21
179.9595985228
 31
0.0
  0
SPLINE
  5
4FD1
330
4F85
100
AcDbEntity
  8
DV3_GRIFF_KPL_TRIO
  6
Continuous
 62
     7
370
     0
390
1D
100
AcDbSpline
210
0.0
220
0.0
230
1.0
 70
     8
 71
     3
 72
     9
 73
     5
 74
     0
 42
0.000000001
 43
0.0
 40
0.0
 40
0.0
 40
0.0
 40
0.0
 40
0.5023018347150496
 40
1.0
 40
1.0
 40
1.0
 40
1.0
 10
55.0798926422935
 20
182.9595985228324
 30
0.0
 10
55.07677873723869
 20
183.7862281174223
 30
0.0
 10
54.75229835100297
 20
185.1991685076647
 30
0.0
 10
53.96049820532413
 20
185.9596206760271
 30
0.0
 10
53.45484771533944
 20
185.9586133594998
 30
0.0
  0
ARC
  5
4FD2
330
4F85
100
AcDbEntity
  8
DV3_GRIFF_KPL_TRIO
  6
Continuous
 62
     7
370
     0
390
1D
100
AcDbCircle
 10
32.8084226723
 20
186.4595985228
 30
0.0
 40
0.25
100
AcDbArc
 50
90.0
 51
180.0
  0
ENDBLK
  5
4FD3
330
4F85
100
AcDbEntity
  8
DV3_GRIFF_KPL_TRIO
  6
Continuous
 62
     7
370
     0
390
1D
100
AcDbBlockEnd
  0
BLOCK
  5
4FD9
330
4FD8
100
AcDbEntity
  8
0
 62
     1
 48
0.0
370
     0
390
1D
100
AcDbBlockBegin
  2
SE1
 70
     0
 10
0.0
 20
0.0
 30
0.0
  3
SE1
  1
SE1
  0
LINE
  5
4FDA
330
4FD8
100
AcDbEntity
  8
DV1_HULSE_VERLANGERUNGS-
  6
Continuous
 62
   252
370
     0
390
1D
100
AcDbLine
 10
129.6834226723
 20
125.100918943
 30
0.0
 11
129.6834226723
 21
120.3533236789
 31
0.0
  0
LINE
  5
4FDB
330
4FD8
100
AcDbEntity
  8
DV1_HULSE_VERLANGERUNGS-
  6
Continuous
 62
   252
370
     0
390
1D
100
AcDbLine
 10
131.3731274336
 20
125.5536739693
 30
0.0
 11
129.6834226723
 21
125.100918943
 31
0.0
  0
ARC
  5
4FDC
330
4FD8
100
AcDbEntity
  8
DV1_HULSE_VERLANGERUNGS-
  6
Continuous
 62
   252
370
     0
390
1D
100
AcDbCircle
 10
131.3084226723
 20
125.7951554258
 30
0.0
 40
0.25
100
AcDbArc
 50
285.0
 51
360.0
  0
LINE
  5
4FDD
330
4FD8
100
AcDbEntity
  8
DV1_HULSE_VERLANGERUNGS-
  6
Continuous
 62
   252
370
     0
390
1D
100
AcDbLine
 10
143.1834226723
 20
134.6419988134
 30
0.0
 11
142.6834226723
 21
134.3533236789
 31
0.0
  0
LINE
  5
4FDE
330
4FD8
100
AcDbEntity
  8
DV1_HULSE_VERLANGERUNGS-
  6
Continuous
 62
   252
370
     0
390
1D
100
AcDbLine
 10
142.6834226723
 20
134.3533236789
 30
0.0
 11
142.6834226723
 21
128.0033236789
 31
0.0
  0
LINE
  5
4FDF
330
4FD8
100
AcDbEntity
  8
DV1_HULSE_VERLANGERUNGS-
  6
Continuous
 62
   252
370
     0
390
1D
100
AcDbLine
 10
143.493717911
 20
125.5536739693
 30
0.0
 11
145.1834226723
 21
125.100918943
 31
0.0
  0
LINE
  5
4FE0
330
4FD8
100
AcDbEntity
  8
DV1_HULSE_VERLANGERUNGS-
  6
Continuous
 62
   252
370
     0
390
1D
100
AcDbLine
 10
145.1834226723
 20
125.100918943
 30
0.0
 11
145.1834226723
 21
120.3533236789
 31
0.0
  0
LINE
  5
4FE1
330
4FD8
100
AcDbEntity
  8
DV1_HULSE_VERLANGERUNGS-
  6
Continuous
 62
   252
370
     0
390
1D
100
AcDbLine
 10
142.6834226723
 20
128.0033236789
 30
0.0
 11
143.3084226723
 21
127.6424797606
 31
0.0
  0
LINE
  5
4FE2
330
4FD8
100
AcDbEntity
  8
DV1_HULSE_VERLANGERUNGS-
  6
Continuous
 62
   252
370
     0
390
1D
100
AcDbLine
 10
143.3084226723
 20
127.6424797606
 30
0.0
 11
143.3084226723
 21
125.7951554258
 31
0.0
  0
ARC
  5
4FE3
330
4FD8
100
AcDbEntity
  8
DV1_HULSE_VERLANGERUNGS-
  6
Continuous
 62
   252
370
     0
390
1D
100
AcDbCircle
 10
143.5584226723
 20
125.7951554258
 30
0.0
 40
0.25
100
AcDbArc
 50
180.0
 51
255.0
  0
LINE
  5
4FE4
330
4FD8
100
AcDbEntity
  8
DV1_HULSE_VERLANGERUNGS-
  6
Continuous
 62
   252
370
     0
390
1D
100
AcDbLine
 10
132.1834226723
 20
134.3533236789
 30
0.0
 11
132.1834226723
 21
128.0033236789
 31
0.0
  0
LINE
  5
4FE5
330
4FD8
100
AcDbEntity
  8
DV1_HULSE_VERLANGERUNGS-
  6
Continuous
 62
   252
370
     0
390
1D
100
AcDbLine
 10
132.1834226723
 20
128.0033236789
 30
0.0
 11
131.5584226723
 21
127.6424797606
 31
0.0
  0
LINE
  5
4FE6
330
4FD8
100
AcDbEntity
  8
DV1_HULSE_VERLANGERUNGS-
  6
Continuous
 62
   252
370
     0
390
1D
100
AcDbLine
 10
131.5584226723
 20
127.6424797606
 30
0.0
 11
131.5584226723
 21
125.7951554258
 31
0.0
  0
LINE
  5
4FE7
330
4FD8
100
AcDbEntity
  8
DV1_HULSE_VERLANGERUNGS-
  6
Continuous
 62
   252
370
     0
390
1D
100
AcDbLine
 10
131.6834226723
 20
134.6419988134
 30
0.0
 11
132.1834226723
 21
134.3533236789
 31
0.0
  0
LWPOLYLINE
  5
4FE8
330
4FD8
100
AcDbEntity
  8
DV1_HULSE_VERLANGERUNGS-
  6
Continuous
 62
   252
370
     0
390
1D
100
AcDbPolyline
 90
        2
 70
     0
 43
0.0
 10
131.8566275041
 20
134.5419989572
 10
131.6834226723
 20
134.7152037889
  0
LINE
  5
4FE9
330
4FD8
100
AcDbEntity
  8
DV1_HULSE_ABDECK
  6
Continuous
 62
   152
370
     0
390
1D
100
AcDbLine
 10
146.4334226723
 20
172.8533236789
 30
0.0
 11
146.4334226723
 21
142.6033236789
 31
0.0
  0
ARC
  5
4FEA
330
4FD8
100
AcDbEntity
  8
DV1_HULSE_ABDECK
  6
Continuous
 62
   152
370
     0
390
1D
100
AcDbCircle
 10
146.1834226723
 20
172.8533236789
 30
0.0
 40
0.25
100
AcDbArc
 50
0.0
 51
90.0
  0
LINE
  5
4FEB
330
4FD8
100
AcDbEntity
  8
DV1_HULSE_ABDECK
  6
Continuous
 62
   152
370
     0
390
1D
100
AcDbLine
 10
146.1834226723
 20
173.1033236789
 30
0.0
 11
128.6834226723
 21
173.1033236789
 31
0.0
  0
LINE
  5
4FEC
330
4FD8
100
AcDbEntity
  8
DV1_HULSE_ABDECK
  6
Continuous
 62
   152
370
     0
390
1D
100
AcDbLine
 10
128.4334226723
 20
172.8533236789
 30
0.0
 11
128.4334226723
 21
142.6033236789
 31
0.0
  0
ARC
  5
4FED
330
4FD8
100
AcDbEntity
  8
DV1_HULSE_ABDECK
  6
Continuous
 62
   152
370
     0
390
1D
100
AcDbCircle
 10
128.6834226723
 20
172.8533236789
 30
0.0
 40
0.25
100
AcDbArc
 50
90.0
 51
180.0
  0
LINE
  5
4FEE
330
4FD8
100
AcDbEntity
  8
DV1_ROSETTE
  6
Continuous
 62
    32
370
     0
390
1D
100
AcDbLine
 10
154.6834226723
 20
140.6033236789
 30
0.0
 11
151.4334226723
 21
140.6033236789
 31
0.0
  0
ARC
  5
4FEF
330
4FD8
100
AcDbEntity
  8
DV1_ROSETTE
  6
Continuous
 62
    32
370
     0
390
1D
100
AcDbCircle
 10
154.6834226723
 20
140.3533236789
 30
0.0
 40
0.25
100
AcDbArc
 50
0.0
 51
90.0
  0
LINE
  5
4FF0
330
4FD8
100
AcDbEntity
  8
DV1_ROSETTE
  6
Continuous
 62
    32
370
     0
390
1D
100
AcDbLine
 10
154.9334226723
 20
140.3533236789
 30
0.0
 11
154.9334226723
 21
137.6033236789
 31
0.0
  0
LINE
  5
4FF1
330
4FD8
100
AcDbEntity
  8
DV1_ROSETTE
  6
Continuous
 62
    32
370
     0
390
1D
100
AcDbLine
 10
150.9334226723
 20
142.6033236789
 30
0.0
 11
123.9334226723
 21
142.6033236789
 31
0.0
  0
ARC
  5
4FF2
330
4FD8
100
AcDbEntity
  8
DV1_ROSETTE
  6
Continuous
 62
    32
370
     0
390
1D
100
AcDbCircle
 10
150.9334226723
 20
142.3533236789
 30
0.0
 40
0.25
100
AcDbArc
 50
0.0
 51
90.0
  0
LINE
  5
4FF3
330
4FD8
100
AcDbEntity
  8
DV1_ROSETTE
  6
Continuous
 62
    32
370
     0
390
1D
100
AcDbLine
 10
151.1834226723
 20
142.3533236789
 30
0.0
 11
151.1834226723
 21
140.8533236789
 31
0.0
  0
ARC
  5
4FF4
330
4FD8
100
AcDbEntity
  8
DV1_ROSETTE
  6
Continuous
 62
    32
370
     0
390
1D
100
AcDbCircle
 10
151.4334226723
 20
140.8533236789
 30
0.0
 40
0.25
100
AcDbArc
 50
180.0
 51
270.0
  0
ARC
  5
4FF5
330
4FD8
100
AcDbEntity
  8
DV1_ROSETTE
  6
Continuous
 62
    32
370
     0
390
1D
100
AcDbCircle
 10
123.9334226723
 20
142.3533236789
 30
0.0
 40
0.25
100
AcDbArc
 50
90.0
 51
180.0
  0
LINE
  5
4FF6
330
4FD8
100
AcDbEntity
  8
DV1_ROSETTE
  6
Continuous
 62
    32
370
     0
390
1D
100
AcDbLine
 10
123.6834226723
 20
142.3533236789
 30
0.0
 11
123.6834226723
 21
140.8533236789
 31
0.0
  0
ARC
  5
4FF7
330
4FD8
100
AcDbEntity
  8
DV1_ROSETTE
  6
Continuous
 62
    32
370
     0
390
1D
100
AcDbCircle
 10
123.4334226723
 20
140.8533236789
 30
0.0
 40
0.25
100
AcDbArc
 50
270.0
 51
360.0
  0
LINE
  5
4FF8
330
4FD8
100
AcDbEntity
  8
DV1_ROSETTE
  6
Continuous
 62
    32
370
     0
390
1D
100
AcDbLine
 10
123.4334226723
 20
140.6033236789
 30
0.0
 11
120.1834226723
 21
140.6033236789
 31
0.0
  0
ARC
  5
4FF9
330
4FD8
100
AcDbEntity
  8
DV1_ROSETTE
  6
Continuous
 62
    32
370
     0
390
1D
100
AcDbCircle
 10
120.1834226723
 20
140.3533236789
 30
0.0
 40
0.25
100
AcDbArc
 50
90.0
 51
180.0
  0
LINE
  5
4FFA
330
4FD8
100
AcDbEntity
  8
DV1_ROSETTE
  6
Continuous
 62
    32
370
     0
390
1D
100
AcDbLine
 10
119.9334226723
 20
140.3533236789
 30
0.0
 11
119.9334226723
 21
137.6033236789
 31
0.0
  0
LINE
  5
4FFB
330
4FD8
100
AcDbEntity
  8
DV1_HULSE_ABDECK
  6
Continuous
 62
   152
370
     0
390
1D
100
AcDbLine
 10
146.4334226723
 20
142.6033236789
 30
0.0
 11
128.4334226723
 21
142.6033236789
 31
0.0
  0
LINE
  5
4FFC
330
4FD8
100
AcDbEntity
  8
DV1_DICHTUNG_PROFIL
  6
Continuous
 62
    74
370
     0
390
1D
100
AcDbLine
 10
154.1834226723
 20
136.1033236789
 30
0.0
 11
154.1834226723
 21
137.6033236789
 31
0.0
  0
LINE
  5
4FFD
330
4FD8
100
AcDbEntity
  8
DV1_DICHTUNG_PROFIL
  6
Continuous
 62
    74
370
     0
390
1D
100
AcDbLine
 10
120.6834226723
 20
136.1033236789
 30
0.0
 11
120.6834226723
 21
137.6033236789
 31
0.0
  0
LINE
  5
4FFE
330
4FD8
100
AcDbEntity
  8
DV1_ROSETTE
  6
Continuous
 62
    32
370
     0
390
1D
100
AcDbLine
 10
154.9334226723
 20
137.6033236789
 30
0.0
 11
119.9334226723
 21
137.6033236789
 31
0.0
  0
LINE
  5
4FFF
330
4FD8
100
AcDbEntity
  8
DV1_DICHTUNG_PROFIL
  6
Continuous
 62
    74
370
     0
390
1D
100
AcDbLine
 10
154.1834226723
 20
136.1033236789
 30
0.0
 11
120.6834226723
 21
136.1033236789
 31
0.0
  0
LINE
  5
5000
330
4FD8
100
AcDbEntity
  8
DV1_HULSE_VERLANGERUNGS-
  6
Continuous
 62
   252
370
     0
390
1D
100
AcDbLine
 10
145.1834226723
 20
120.3533236789
 30
0.0
 11
129.6834226723
 21
120.3533236789
 31
0.0
  0
LINE
  5
5001
330
4FD8
100
AcDbEntity
  8
DV1_HULSE_VERLANGERUNGS-
  6
Continuous
 62
   252
370
     0
390
1D
100
AcDbLine
 10
145.1834226723
 20
125.100918943
 30
0.0
 11
129.6834226723
 21
125.100918943
 31
0.0
  0
LINE
  5
5002
330
4FD8
100
AcDbEntity
  8
DV1_HULSE_VERLANGERUNGS-
  6
Continuous
 62
   252
370
     0
390
1D
100
AcDbLine
 10
142.6834226723
 20
128.0033236789
 30
0.0
 11
132.1834226723
 21
128.0033236789
 31
0.0
  0
LINE
  5
5003
330
4FD8
100
AcDbEntity
  8
DV1_HULSE_VERLANGERUNGS-
  6
Continuous
 62
   252
370
     0
390
1D
100
AcDbLine
 10
143.3084226723
 20
127.6424797606
 30
0.0
 11
131.5584226723
 21
127.6424797606
 31
0.0
  0
LINE
  5
5004
330
4FD8
100
AcDbEntity
  8
DV1_HULSE_VERLANGERUNGS-
  6
Continuous
 62
   252
370
     0
390
1D
100
AcDbLine
 10
143.1834226723
 20
134.6419988134
 30
0.0
 11
131.6834226723
 21
134.6419988134
 31
0.0
  0
LINE
  5
5005
330
4FD8
100
AcDbEntity
  8
DV1_HULSE_VERLANGERUNGS-
  6
Continuous
 62
   252
370
     0
390
1D
100
AcDbLine
 10
142.6834226723
 20
134.3533236789
 30
0.0
 11
132.1834226723
 21
134.3533236789
 31
0.0
  0
LINE
  5
5006
330
4FD8
100
AcDbEntity
  8
DV1_HULSE_VERLANGERUNGS-
  6
Continuous
 62
   252
370
     0
390
1D
100
AcDbLine
 10
143.0936884196
 20
125.6644114021
 30
0.0
 11
131.7305154225
 21
125.6644114021
 31
0.0
  0
LINE
  5
5007
330
4FD8
100
AcDbEntity
  8
DV1_ROSETTE
  6
Continuous
 62
    32
370
     0
390
1D
100
AcDbLine
 10
151.1834226723
 20
140.6390247612
 30
0.0
 11
123.6834226723
 21
140.6390247612
 31
0.0
  0
LINE
  5
5008
330
4FD8
100
AcDbEntity
  8
DV1_UNTERBAU
  6
CENTER2
 62
    12
370
     0
390
1D
100
AcDbLine
 10
121.6834226723
 20
111.3975517116
 30
0.0
 11
126.6834226723
 21
111.3975517116
 31
0.0
  0
LINE
  5
5009
330
4FD8
100
AcDbEntity
  8
DV1_UNTERBAU
  6
CENTER2
 62
    12
370
     0
390
1D
100
AcDbLine
 10
121.6834226723
 20
95.8090946079
 30
0.0
 11
126.6834220729
 21
95.8090946079
 31
0.0
  0
ARC
  5
500A
330
4FD8
100
AcDbEntity
  8
DV1_UNTERBAU
  6
CENTER2
 62
    12
370
     0
390
1D
100
AcDbCircle
 10
123.1365500653
 20
97.7576521906
 30
0.0
 40
4.046872607
100
AcDbArc
 50
331.2167885125
 51
28.7832114875
  0
LINE
  5
500B
330
4FD8
100
AcDbEntity
  8
DV1_UNTERBAU
  6
Continuous
 62
     7
370
     0
390
1D
100
AcDbLine
 10
131.4334226723
 20
116.1086529517
 30
0.0
 11
131.4334226723
 21
120.3533236789
 31
0.0
  0
LINE
  5
500C
330
4FD8
100
AcDbEntity
  8
DV1_UNTERBAU
  6
CENTER2
 62
    12
370
     0
390
1D
100
AcDbLine
 10
126.6834226723
 20
95.8090956461
 30
0.0
 11
126.9093699721
 21
96.2004478493
 31
0.0
  0
LINE
  5
500D
330
4FD8
100
AcDbEntity
  8
DV1_UNTERBAU
  6
CENTER2
 62
    12
370
     0
390
1D
100
AcDbLine
 10
127.0205248571
 20
110.8136736001
 30
0.0
 11
126.6044067068
 21
111.5344113785
 31
0.0
  0
LINE
  5
500E
330
4FD8
100
AcDbEntity
  8
DV1_UNTERBAU
  6
CENTER2
 62
    12
370
     0
390
1D
100
AcDbLine
 10
130.8084226723
 20
118.6033236789
 30
0.0
 11
130.8084226723
 21
114.1033236789
 31
0.0
  0
LINE
  5
500F
330
4FD8
100
AcDbEntity
  8
DV1_UNTERBAU
  6
CENTER2
 62
    12
370
     0
390
1D
100
AcDbLine
 10
143.6834226723
 20
118.6033236789
 30
0.0
 11
131.1834226723
 21
118.6033236789
 31
0.0
  0
LINE
  5
5010
330
4FD8
100
AcDbEntity
  8
DV1_UNTERBAU
  6
CENTER2
 62
    12
370
     0
390
1D
100
AcDbLine
 10
121.6834226723
 20
111.3975517116
 30
0.0
 11
121.1834226723
 21
110.5315263078
 31
0.0
  0
ARC
  5
5011
330
4FD8
100
AcDbEntity
  8
DV1_UNTERBAU
  6
CENTER2
 62
    12
370
     0
390
1D
100
AcDbCircle
 10
125.2302952793
 20
97.7576521906
 30
0.0
 40
4.046872607
100
AcDbArc
 50
151.2167885125
 51
208.7832114875
  0
LINE
  5
5012
330
4FD8
100
AcDbEntity
  8
DV1_UNTERBAU
  6
CENTER2
 62
    12
370
     0
390
1D
100
AcDbLine
 10
130.8084226723
 20
114.1033236789
 30
0.0
 11
144.0584226723
 21
114.1033236789
 31
0.0
  0
ARC
  5
5013
330
4FD8
100
AcDbEntity
  8
DV1_UNTERBAU
  6
CENTER2
 62
    12
370
     0
390
1D
100
AcDbCircle
 10
127.8865502609
 20
111.3136736001
 30
0.0
 40
1.0
100
AcDbArc
 50
210.0
 51
328.0058697438
  0
LINE
  5
5014
330
4FD8
100
AcDbEntity
  8
DV1_UNTERBAU
  6
CENTER2
 62
    12
370
     0
390
1D
100
AcDbLine
 10
121.1834226723
 20
110.5315263078
 30
0.0
 11
121.1834226723
 21
96.6751210499
 31
0.0
  0
LINE
  5
5015
330
4FD8
100
AcDbEntity
  8
DV1_UNTERBAU
  6
CENTER2
 62
    12
370
     0
390
1D
100
AcDbLine
 10
130.8084226723
 20
118.6033236789
 30
0.0
 11
137.4334226723
 21
118.6033236789
 31
0.0
  0
LINE
  5
5016
330
4FD8
100
AcDbEntity
  8
DV1_UNTERBAU
  6
CENTER2
 62
    12
370
     0
390
1D
100
AcDbLine
 10
130.8084226723
 20
114.1033236789
 30
0.0
 11
126.6834226723
 21
107.5004386226
 31
0.0
  0
LINE
  5
5017
330
4FD8
100
AcDbEntity
  8
DV1_UNTERBAU
  6
CENTER2
 62
    12
370
     0
390
1D
100
AcDbLine
 10
133.4334226723
 20
95.6033236789
 30
0.0
 11
128.5966366454
 21
96.8993365887
 31
0.0
  0
ARC
  5
5018
330
4FD8
100
AcDbEntity
  8
DV1_UNTERBAU
  6
CENTER2
 62
    12
370
     0
390
1D
100
AcDbCircle
 10
136.6209233133
 20
103.6033242234
 30
0.0
 40
15.437500641
100
AcDbArc
 50
165.3777789165
 51
194.6222210835
  0
LINE
  5
5019
330
4FD8
100
AcDbEntity
  8
DV1_UNTERBAU
  6
CENTER2
 62
    12
370
     0
390
1D
100
AcDbLine
 10
121.6834226723
 20
99.7062098241
 30
0.0
 11
126.6834226723
 21
99.7062098241
 31
0.0
  0
ARC
  5
501A
330
4FD8
100
AcDbEntity
  8
DV1_UNTERBAU
  6
CENTER2
 62
    12
370
     0
390
1D
100
AcDbCircle
 10
128.2084080778
 20
95.4504478493
 30
0.0
 40
1.5
100
AcDbArc
 50
75.0
 51
150.0
  0
LINE
  5
501B
330
4FD8
100
AcDbEntity
  8
DV1_UNTERBAU
  6
CENTER2
 62
    12
370
     0
390
1D
100
AcDbLine
 10
131.5202086991
 20
98.4101969142
 30
0.0
 11
127.2146112445
 21
99.5638782751
 31
0.0
  0
ARC
  5
501C
330
4FD8
100
AcDbEntity
  8
DV1_UNTERBAU
  6
CENTER2
 62
    12
370
     0
390
1D
100
AcDbCircle
 10
123.1365500653
 20
109.4489951671
 30
0.0
 40
4.046872607
100
AcDbArc
 50
331.2167885125
 51
28.7832114875
  0
LINE
  5
501D
330
4FD8
100
AcDbEntity
  8
DV1_UNTERBAU
  6
CENTER2
 62
    12
370
     0
390
1D
100
AcDbLine
 10
121.6834226723
 20
95.8090956461
 30
0.0
 11
121.1834226723
 21
96.6751210499
 31
0.0
  0
LINE
  5
501E
330
4FD8
100
AcDbEntity
  8
DV1_UNTERBAU
  6
CENTER2
 62
    12
370
     0
390
1D
100
AcDbLine
 10
133.4334226723
 20
95.6033236789
 30
0.0
 11
137.4334226723
 21
95.6033236789
 31
0.0
  0
LINE
  5
501F
330
4FD8
100
AcDbEntity
  8
DV1_UNTERBAU
  6
CENTER2
 62
    12
370
     0
390
1D
100
AcDbLine
 10
131.1834226723
 20
118.6033236789
 30
0.0
 11
131.1834226723
 21
120.3533236789
 31
0.0
  0
LINE
  5
5020
330
4FD8
100
AcDbEntity
  8
DV1_UNTERBAU
  6
CENTER2
 62
    12
370
     0
390
1D
100
AcDbLine
 10
121.6834226723
 20
107.5004386226
 30
0.0
 11
126.6834226723
 21
107.5004386226
 31
0.0
  0
ARC
  5
5021
330
4FD8
100
AcDbEntity
  8
DV1_UNTERBAU
  6
CENTER2
 62
    12
370
     0
390
1D
100
AcDbCircle
 10
125.2302952793
 20
109.4489951671
 30
0.0
 40
4.046872607
100
AcDbArc
 50
151.2167885125
 51
208.7832114875
  0
LINE
  5
5022
330
4FD8
100
AcDbEntity
  8
DV1_UNTERBAU
  6
CENTER2
 62
    12
370
     0
390
1D
100
AcDbLine
 10
153.1834226723
 20
95.8090946079
 30
0.0
 11
148.1834232717
 21
95.8090946079
 31
0.0
  0
LINE
  5
5023
330
4FD8
100
AcDbEntity
  8
DV1_UNTERBAU
  6
CENTER2
 62
    12
370
     0
390
1D
100
AcDbLine
 10
153.1834226723
 20
111.3975517116
 30
0.0
 11
148.1834226723
 21
111.3975517116
 31
0.0
  0
LINE
  5
5024
330
4FD8
100
AcDbEntity
  8
DV1_UNTERBAU
  6
CENTER2
 62
    12
370
     0
390
1D
100
AcDbLine
 10
153.1834226723
 20
99.7062098241
 30
0.0
 11
148.1834226723
 21
99.7062098241
 31
0.0
  0
ARC
  5
5025
330
4FD8
100
AcDbEntity
  8
DV1_UNTERBAU
  6
CENTER2
 62
    12
370
     0
390
1D
100
AcDbCircle
 10
151.7302952793
 20
97.7576521906
 30
0.0
 40
4.046872607
100
AcDbArc
 50
151.2167885125
 51
208.7832114875
  0
ARC
  5
5026
330
4FD8
100
AcDbEntity
  8
DV1_UNTERBAU
  6
CENTER2
 62
    12
370
     0
390
1D
100
AcDbCircle
 10
146.6584372668
 20
95.4504478493
 30
0.0
 40
1.5
100
AcDbArc
 50
30.0
 51
105.0
  0
ARC
  5
5027
330
4FD8
100
AcDbEntity
  8
DV1_UNTERBAU
  6
CENTER2
 62
    12
370
     0
390
1D
100
AcDbCircle
 10
138.2459220313
 20
103.6033242234
 30
0.0
 40
15.437500641
100
AcDbArc
 50
345.3777789165
 51
14.6222210835
  0
LINE
  5
5028
330
4FD8
100
AcDbEntity
  8
DV1_UNTERBAU
  6
CENTER2
 62
    12
370
     0
390
1D
100
AcDbLine
 10
137.4334226723
 20
118.6033236789
 30
0.0
 11
144.0584226723
 21
118.6033236789
 31
0.0
  0
ARC
  5
5029
330
4FD8
100
AcDbEntity
  8
DV1_UNTERBAU
  6
CENTER2
 62
    12
370
     0
390
1D
100
AcDbCircle
 10
149.6365500653
 20
97.7576521906
 30
0.0
 40
4.046872607
100
AcDbArc
 50
331.2167885125
 51
28.7832114875
  0
LINE
  5
502A
330
4FD8
100
AcDbEntity
  8
DV1_UNTERBAU
  6
CENTER2
 62
    12
370
     0
390
1D
100
AcDbLine
 10
148.1834226723
 20
95.8090956461
 30
0.0
 11
147.9574753725
 21
96.2004478493
 31
0.0
  0
LINE
  5
502B
330
4FD8
100
AcDbEntity
  8
DV1_UNTERBAU
  6
CENTER2
 62
    12
370
     0
390
1D
100
AcDbLine
 10
144.0584226723
 20
114.1033236789
 30
0.0
 11
148.1834226723
 21
107.5004386226
 31
0.0
  0
LINE
  5
502C
330
4FD8
100
AcDbEntity
  8
DV1_UNTERBAU
  6
CENTER2
 62
    12
370
     0
390
1D
100
AcDbLine
 10
143.3466366454
 20
98.4101969142
 30
0.0
 11
147.6522341
 21
99.5638782751
 31
0.0
  0
LINE
  5
502D
330
4FD8
100
AcDbEntity
  8
DV1_UNTERBAU
  6
CENTER2
 62
    12
370
     0
390
1D
100
AcDbLine
 10
141.4334226723
 20
95.6033236789
 30
0.0
 11
146.2702086991
 21
96.8993365887
 31
0.0
  0
ARC
  5
502E
330
4FD8
100
AcDbEntity
  8
DV1_UNTERBAU
  6
CENTER2
 62
    12
370
     0
390
1D
100
AcDbCircle
 10
146.9802950837
 20
111.3136736001
 30
0.0
 40
1.0
100
AcDbArc
 50
211.9941302562
 51
330.0
  0
LINE
  5
502F
330
4FD8
100
AcDbEntity
  8
DV1_UNTERBAU
  6
CENTER2
 62
    12
370
     0
390
1D
100
AcDbLine
 10
153.1834226723
 20
111.3975517116
 30
0.0
 11
153.6834226723
 21
110.5315263078
 31
0.0
  0
LINE
  5
5030
330
4FD8
100
AcDbEntity
  8
DV1_UNTERBAU
  6
CENTER2
 62
    12
370
     0
390
1D
100
AcDbLine
 10
144.0584226723
 20
118.6033236789
 30
0.0
 11
144.0584226723
 21
114.1033236789
 31
0.0
  0
LINE
  5
5031
330
4FD8
100
AcDbEntity
  8
DV1_UNTERBAU
  6
CENTER2
 62
    12
370
     0
390
1D
100
AcDbLine
 10
137.4334226723
 20
95.6033236789
 30
0.0
 11
141.4334226723
 21
95.6033236789
 31
0.0
  0
LINE
  5
5032
330
4FD8
100
AcDbEntity
  8
DV1_UNTERBAU
  6
CENTER2
 62
    12
370
     0
390
1D
100
AcDbLine
 10
153.1834226723
 20
95.8090956461
 30
0.0
 11
153.6834226723
 21
96.6751210499
 31
0.0
  0
ARC
  5
5033
330
4FD8
100
AcDbEntity
  8
DV1_UNTERBAU
  6
CENTER2
 62
    12
370
     0
390
1D
100
AcDbCircle
 10
151.7302952793
 20
109.4489951671
 30
0.0
 40
4.046872607
100
AcDbArc
 50
151.2167885125
 51
208.7832114875
  0
LINE
  5
5034
330
4FD8
100
AcDbEntity
  8
DV1_UNTERBAU
  6
CENTER2
 62
    12
370
     0
390
1D
100
AcDbLine
 10
153.6834226723
 20
110.5315263078
 30
0.0
 11
153.6834226723
 21
96.6751210499
 31
0.0
  0
LINE
  5
5035
330
4FD8
100
AcDbEntity
  8
DV1_UNTERBAU
  6
CENTER2
 62
    12
370
     0
390
1D
100
AcDbLine
 10
153.1834226723
 20
107.5004386226
 30
0.0
 11
148.1834226723
 21
107.5004386226
 31
0.0
  0
LINE
  5
5036
330
4FD8
100
AcDbEntity
  8
DV1_UNTERBAU
  6
CENTER2
 62
    12
370
     0
390
1D
100
AcDbLine
 10
147.8463204875
 20
110.8136736001
 30
0.0
 11
148.2624386378
 21
111.5344113785
 31
0.0
  0
LINE
  5
5037
330
4FD8
100
AcDbEntity
  8
DV1_UNTERBAU
  6
CENTER2
 62
    12
370
     0
390
1D
100
AcDbLine
 10
143.6834226723
 20
118.6033236789
 30
0.0
 11
143.6834226723
 21
120.3533236789
 31
0.0
  0
LINE
  5
5038
330
4FD8
100
AcDbEntity
  8
DV1_UNTERBAU
  6
Continuous
 62
     7
370
     0
390
1D
100
AcDbLine
 10
143.4334226723
 20
116.1086529517
 30
0.0
 11
143.4334226723
 21
120.3533236789
 31
0.0
  0
ARC
  5
5039
330
4FD8
100
AcDbEntity
  8
DV1_UNTERBAU
  6
CENTER2
 62
    12
370
     0
390
1D
100
AcDbCircle
 10
149.6365500653
 20
109.4489951671
 30
0.0
 40
4.046872607
100
AcDbArc
 50
331.2167885125
 51
28.7832114875
  0
LINE
  5
503A
330
4FD8
100
AcDbEntity
  8
DV1_HULSE_VERLANGERUNGS-
  6
Continuous
 62
   252
370
     0
390
1D
100
AcDbLine
 10
132.1434226723
 20
136.1033236789
 30
0.0
 11
132.1434226723
 21
134.3764176896
 31
0.0
  0
LINE
  5
503B
330
4FD8
100
AcDbEntity
  8
DV1_HULSE_VERLANGERUNGS-
  6
Continuous
 62
   252
370
     0
390
1D
100
AcDbLine
 10
131.6834226723
 20
136.1033236789
 30
0.0
 11
131.6834226723
 21
134.6419988134
 31
0.0
  0
LINE
  5
503C
330
4FD8
100
AcDbEntity
  8
DV1_HULSE_VERLANGERUNGS-
  6
Continuous
 62
   252
370
     0
390
1D
100
AcDbLine
 10
142.7234226723
 20
136.1033236789
 30
0.0
 11
142.7234226723
 21
134.3764176896
 31
0.0
  0
LINE
  5
503D
330
4FD8
100
AcDbEntity
  8
DV1_HULSE_VERLANGERUNGS-
  6
Continuous
 62
   252
370
     0
390
1D
100
AcDbLine
 10
143.1834226723
 20
136.1033236789
 30
0.0
 11
143.1834226723
 21
134.6419988134
 31
0.0
  0
LINE
  5
503E
330
4FD8
100
AcDbEntity
  8
DV1_BEMASUNG
  6
Continuous
 62
     7
370
     0
390
1D
100
AcDbLine
 10
119.9334226723
 20
178.043733488
 30
0.0
 11
119.9334226723
 21
140.3533236789
 31
0.0
  0
LINE
  5
503F
330
4FD8
100
AcDbEntity
  8
DV1_RING
  6
Continuous
 62
     3
370
     0
390
1D
100
AcDbLine
 10
141.922800894
 20
175.1095985228
 30
0.0
 11
141.922800894
 21
175.2095985228
 31
0.0
  0
LINE
  5
5040
330
4FD8
100
AcDbEntity
  8
DV1_GRIFF_-FUHR-
  6
Continuous
 62
     1
370
     0
390
1D
100
AcDbLine
 10
129.9585483193
 20
173.1033236789
 30
0.0
 11
129.9585483193
 21
174.8595985228
 31
0.0
  0
ARC
  5
5041
330
4FD8
100
AcDbEntity
  8
DV1_GRIFF_-FUHR-
  6
Continuous
 62
     1
370
     0
390
1D
100
AcDbCircle
 10
130.2085483193
 20
174.8595985228
 30
0.0
 40
0.25
100
AcDbArc
 50
90.0
 51
180.0
  0
ARC
  5
5042
330
4FD8
100
AcDbEntity
  8
DV1_GRIFF_-FUHR-
  6
Continuous
 62
     1
370
     0
390
1D
100
AcDbCircle
 10
144.6582970252
 20
174.8595985228
 30
0.0
 40
0.25
100
AcDbArc
 50
0.0
 51
90.0
  0
LINE
  5
5043
330
4FD8
100
AcDbEntity
  8
DV1_GRIFF_-FUHR-
  6
Continuous
 62
     1
370
     0
390
1D
100
AcDbLine
 10
144.9082970252
 20
174.8595985228
 30
0.0
 11
144.9082970252
 21
173.1033236789
 31
0.0
  0
LINE
  5
5044
330
4FD8
100
AcDbEntity
  8
DV1_RING
  6
Continuous
 62
     3
370
     0
390
1D
100
AcDbLine
 10
132.9440444505
 20
175.1095985228
 30
0.0
 11
132.9440444505
 21
175.2095985228
 31
0.0
  0
LINE
  5
5045
330
4FD8
100
AcDbEntity
  8
DV1_GRIFF_-FUHR-
  6
Continuous
 62
     1
370
     0
390
1D
100
AcDbLine
 10
144.6582970252
 20
175.1095985228
 30
0.0
 11
130.2085483193
 21
175.1095985228
 31
0.0
  0
LINE
  5
5046
330
4FD8
100
AcDbEntity
  8
DV1_GRIFF_KPL_TRIO
  6
Continuous
 62
     7
370
     0
390
1D
100
AcDbLine
 10
132.5584226723
 20
185.9569816877
 30
0.0
 11
132.5584226723
 21
186.4595985228
 31
0.0
  0
SPLINE
  5
5047
330
4FD8
100
AcDbEntity
  8
DV1_GRIFF_KPL_TRIO
  6
Continuous
 62
     7
370
     0
390
1D
100
AcDbSpline
210
0.0
220
0.0
230
1.0
 70
     8
 71
     3
 72
    10
 73
     6
 74
     0
 42
0.000000001
 43
0.0
 40
0.0
 40
0.0
 40
0.0
 40
0.0
 40
0.4699353791243484
 40
0.9089412818800372
 40
1.0
 40
1.0
 40
1.0
 40
1.0
 10
136.7566497295455
 20
182.9595985228324
 30
0.0
 10
136.783874424753
 20
182.1466657537848
 30
0.0
 10
137.4572751426666
 20
180.8481069199351
 30
0.0
 10
138.9958972984911
 20
180.0128562392735
 30
0.0
 10
139.7455281660091
 20
179.9577579681179
 30
0.0
 10
139.8711890178025
 20
179.9590642630321
 30
0.0
  0
SPLINE
  5
5048
330
4FD8
100
AcDbEntity
  8
DV1_GRIFF_KPL_TRIO
  6
Continuous
 62
     7
370
     0
390
1D
100
AcDbSpline
210
0.0
220
0.0
230
1.0
 70
     8
 71
     3
 72
    10
 73
     6
 74
     0
 42
0.000000001
 43
0.0
 40
0.0
 40
0.0
 40
0.0
 40
0.0
 40
0.1119310210037968
 40
0.5774719694950358
 40
1.0
 40
1.0
 40
1.0
 40
1.0
 10
139.8709457903478
 20
185.9589565878489
 30
0.0
 10
139.7160007158481
 20
185.9610898885173
 30
0.0
 10
138.8935135599064
 20
185.8893588858426
 30
0.0
 10
137.3774334576553
 20
184.9715219141963
 30
0.0
 10
136.7757397663671
 20
183.6940069258162
 30
0.0
 10
136.7566497295455
 20
182.9595985228324
 30
0.0
  0
LINE
  5
5049
330
4FD8
100
AcDbEntity
  8
DV1_GRIFF_KPL_TRIO
  6
Continuous
 62
     7
370
     0
390
1D
100
AcDbLine
 10
142.0584226723
 20
186.7095985228
 30
0.0
 11
132.8084226723
 21
186.7095985228
 31
0.0
  0
ELLIPSE
  5
504A
330
4FD8
100
AcDbEntity
  8
DV1_GRIFF_KPL_TRIO
  6
Continuous
 62
     7
370
     0
390
1D
100
AcDbEllipse
 10
146.6834226723
 20
182.9595985228
 30
0.0
 11
-1.000000000000000E-16
 21
-3.000000000000001
 31
0.0
210
0.0
220
0.0
230
1.0
 40
0.8660254038
 41
3.072115592506717
 42
3.141592653589793
  0
LINE
  5
504B
330
4FD8
100
AcDbEntity
  8
DV1_GRIFF_KPL_TRIO
  6
Continuous
 62
     7
370
     0
390
1D
100
AcDbLine
 10
132.5584226723
 20
175.2095985228
 30
0.0
 11
142.3084226723
 21
175.2095985228
 31
0.0
  0
SPLINE
  5
504C
330
4FD8
100
AcDbEntity
  8
DV1_GRIFF_KPL_TRIO
  6
Continuous
 62
     7
370
     0
390
1D
100
AcDbSpline
210
0.0
220
0.0
230
1.0
 70
     8
 71
     3
 72
    12
 73
     8
 74
     0
 42
0.000000001
 43
0.0
 40
0.0
 40
0.0
 40
0.0
 40
0.0
 40
0.1716219565307078
 40
0.4035166398377791
 40
0.6157318759109052
 40
0.8441002715996575
 40
1.0
 40
1.0
 40
1.0
 40
1.0
 10
132.5579969663075
 20
185.9601329408905
 30
0.0
 10
132.5591334547713
 20
185.955218106349
 30
0.0
 10
132.778871734144
 20
185.5846737860871
 30
0.0
 10
133.6416714218303
 20
184.0320757397325
 30
0.0
 10
133.5778726720035
 20
181.714415393579
 30
0.0
 10
132.7456602181797
 20
180.2866060270578
 30
0.0
 10
132.5595553869712
 20
179.9661672894917
 30
0.0
 10
132.5585483345062
 20
179.9602399890101
 30
0.0
  0
ARC
  5
504D
330
4FD8
100
AcDbEntity
  8
DV1_GRIFF_KPL_TRIO
  6
Continuous
 62
     7
370
     0
390
1D
100
AcDbCircle
 10
142.0584226723
 20
186.4595985228
 30
0.0
 40
0.25
100
AcDbArc
 50
0.0
 51
90.0
  0
ARC
  5
504E
330
4FD8
100
AcDbEntity
  8
DV1_GRIFF_KPL_TRIO
  6
Continuous
 62
     7
370
     0
390
1D
100
AcDbCircle
 10
118.9334226723
 20
180.2095985228
 30
0.0
 40
0.25
100
AcDbArc
 50
180.0
 51
270.0
  0
SPLINE
  5
504F
330
4FD8
100
AcDbEntity
  8
DV1_GRIFF_KPL_TRIO
  6
Continuous
 62
     7
370
     0
390
1D
100
AcDbSpline
210
0.0
220
0.0
230
1.0
 70
     8
 71
     3
 72
     9
 73
     5
 74
     0
 42
0.000000001
 43
0.0
 40
0.0
 40
0.0
 40
0.0
 40
0.0
 40
0.4977005593557484
 40
1.0
 40
1.0
 40
1.0
 40
1.0
 10
149.3149925326886
 20
182.9595985228324
 30
0.0
 10
149.3095854497595
 20
182.130905598989
 30
0.0
 10
148.7352251792811
 20
180.6752681656329
 30
0.0
 10
147.4534758507898
 20
179.9729811347297
 30
0.0
 10
146.7111725463139
 20
179.9604897691026
 30
0.0
  0
LINE
  5
5050
330
4FD8
100
AcDbEntity
  8
DV1_GRIFF_KPL_TRIO
  6
Continuous
 62
     7
370
     0
390
1D
100
AcDbLine
 10
132.5604475925
 20
179.9595985228
 30
0.0
 11
118.9334226723
 21
179.9595985228
 31
0.0
  0
LINE
  5
5051
330
4FD8
100
AcDbEntity
  8
DV1_GRIFF_KPL_TRIO
  6
Continuous
 62
     7
370
     0
390
1D
100
AcDbLine
 10
139.8699102122
 20
185.9595985228
 30
0.0
 11
146.6834226692
 21
185.9595985228
 31
0.0
  0
LINE
  5
5052
330
4FD8
100
AcDbEntity
  8
DV1_GRIFF_KPL_TRIO
  6
Continuous
 62
     7
370
     0
390
1D
100
AcDbLine
 10
142.3084226723
 20
186.4595985228
 30
0.0
 11
142.3084226723
 21
185.9595985228
 31
0.0
  0
LINE
  5
5053
330
4FD8
100
AcDbEntity
  8
DV1_GRIFF_KPL_TRIO
  6
Continuous
 62
     7
370
     0
390
1D
100
AcDbLine
 10
132.5584226723
 20
179.9595985228
 30
0.0
 11
132.5584226723
 21
175.2095985228
 31
0.0
  0
LINE
  5
5054
330
4FD8
100
AcDbEntity
  8
DV1_GRIFF_KPL_TRIO
  6
Continuous
 62
     7
370
     0
390
1D
100
AcDbLine
 10
142.3084226723
 20
175.2095985228
 30
0.0
 11
142.3084226723
 21
179.9628647512
 31
0.0
  0
SPLINE
  5
5055
330
4FD8
100
AcDbEntity
  8
DV1_GRIFF_KPL_TRIO
  6
Continuous
 62
     7
370
     0
390
1D
100
AcDbSpline
210
0.0
220
0.0
230
1.0
 70
     8
 71
     3
 72
     8
 73
     4
 74
     0
 42
0.000000001
 43
0.0
 40
0.0
 40
0.0
 40
0.0
 40
0.0
 40
1.0
 40
1.0
 40
1.0
 40
1.0
 10
146.864763707522
 20
185.9516368611458
 30
0.0
 10
146.8739616769257
 20
185.9508918940963
 30
0.0
 10
146.8831474949248
 20
185.950094147024
 30
0.0
 10
146.8923208903994
 20
185.9492438965582
 30
0.0
  0
ARC
  5
5056
330
4FD8
100
AcDbEntity
  8
DV1_GRIFF_KPL_TRIO
  6
Continuous
 62
     7
370
     0
390
1D
100
AcDbCircle
 10
132.8084226723
 20
186.4595985228
 30
0.0
 40
0.25
100
AcDbArc
 50
90.0
 51
180.0
  0
ARC
  5
5057
330
4FD8
100
AcDbEntity
  8
DV1_GRIFF_KPL_TRIO
  6
Continuous
 62
     7
370
     0
390
1D
100
AcDbCircle
 10
118.9334226723
 20
185.7095985228
 30
0.0
 40
0.25
100
AcDbArc
 50
90.0
 51
180.0
  0
SPLINE
  5
5058
330
4FD8
100
AcDbEntity
  8
DV1_GRIFF_KPL_TRIO
  6
Continuous
 62
     7
370
     0
390
1D
100
AcDbSpline
210
0.0
220
0.0
230
1.0
 70
     8
 71
     3
 72
     9
 73
     5
 74
     0
 42
0.000000001
 43
0.0
 40
0.0
 40
0.0
 40
0.0
 40
0.0
 40
0.4958801006724807
 40
1.0
 40
1.0
 40
1.0
 40
1.0
 10
146.8674074053771
 20
185.9511965131464
 30
0.0
 10
147.5729639874688
 20
185.8983450549898
 30
0.0
 10
148.7715631334077
 20
185.1629901878422
 30
0.0
 10
149.308149742486
 20
183.7684028303893
 30
0.0
 10
149.3149925326886
 20
182.9595985228324
 30
0.0
  0
LINE
  5
5059
330
4FD8
100
AcDbEntity
  8
DV1_GRIFF_KPL_TRIO
  6
Continuous
 62
     7
370
     0
390
1D
100
AcDbLine
 10
118.9334226723
 20
185.9595985228
 30
0.0
 11
132.5600554818
 21
185.9595985228
 31
0.0
  0
LINE
  5
505A
330
4FD8
100
AcDbEntity
  8
DV1_GRIFF_KPL_TRIO
  6
Continuous
 62
     7
370
     0
390
1D
100
AcDbLine
 10
146.6834226723
 20
179.9595985228
 30
0.0
 11
139.8701062675
 21
179.9595985228
 31
0.0
  0
LINE
  5
505B
330
4FD8
100
AcDbEntity
  8
DV1_GRIFF_KPL_TRIO
  6
Continuous
 62
     7
370
     0
390
1D
100
AcDbLine
 10
118.6834226723
 20
180.2095985228
 30
0.0
 11
118.6834226723
 21
185.7095985228
 31
0.0
  0
SPLINE
  5
505C
330
4FD8
100
AcDbEntity
  8
DV1_GRIFF_KPL_TRIO
  6
Continuous
 62
     7
370
     0
390
1D
100
AcDbSpline
210
0.0
220
0.0
230
1.0
 70
     8
 71
     3
 72
     9
 73
     5
 74
     0
 42
0.000000001
 43
0.0
 40
0.0
 40
0.0
 40
0.0
 40
0.0
 40
0.4977005593557546
 40
1.0
 40
1.0
 40
1.0
 40
1.0
 10
144.1073525599391
 20
182.9595985228324
 30
0.0
 10
144.1127596428682
 20
182.130905598989
 30
0.0
 10
144.6871199133465
 20
180.6752681656329
 30
0.0
 10
145.9688692418379
 20
179.9729811347297
 30
0.0
 10
146.7111725463139
 20
179.9604897691026
 30
0.0
  0
SPLINE
  5
505D
330
4FD8
100
AcDbEntity
  8
DV1_GRIFF_KPL_TRIO
  6
Continuous
 62
     7
370
     0
390
1D
100
AcDbSpline
210
0.0
220
0.0
230
1.0
 70
     8
 71
     3
 72
     9
 73
     5
 74
     0
 42
0.000000001
 43
0.0
 40
0.0
 40
0.0
 40
0.0
 40
0.0
 40
0.4958801006724775
 40
1.0
 40
1.0
 40
1.0
 40
1.0
 10
146.5549376872506
 20
185.9511965131464
 30
0.0
 10
145.8493811051589
 20
185.8983450549898
 30
0.0
 10
144.6507819592199
 20
185.1629901878422
 30
0.0
 10
144.1141953501417
 20
183.7684028303893
 30
0.0
 10
144.1073525599391
 20
182.9595985228324
 30
0.0
  0
LINE
  5
505E
330
4FD8
100
AcDbEntity
  8
DV1_BEMASUNG
  6
Continuous
 62
     7
370
     0
390
1D
100
AcDbLine
 10
119.9334226723
 20
187.8754635577
 30
0.0
 11
119.9334226723
 21
197.6033236789
 31
0.0
  0
ENDBLK
  5
505F
330
4FD8
100
AcDbEntity
  8
DV1_BEMASUNG
  6
Continuous
 62
     7
370
     0
390
1D
100
AcDbBlockEnd
  0
BLOCK
  5
5062
330
5061
100
AcDbEntity
  8
DEFAULT
 62
     1
 48
0.0
370
     0
390
1D
100
AcDbBlockBegin
  2
SE2
 70
     0
 10
0.0
 20
0.0
 30
0.0
  3
SE2
  1
SE2
  0
HATCH
  5
5063
330
5061
100
AcDbEntity
  8
DEFAULT
  6
Continuous
 62
   136
390
1D
100
AcDbHatch
 10
0.0
 20
0.0
 30
0.0
210
0.0
220
0.0
230
1.0
  2
SOLID
 70
     1
 71
     1
 91
        1
 92
        1
 93
        3
 72
     1
 10
148.9334226201273
 20
209.7075726880928
 11
154.9334226722814
 21
208.7075726794004
 72
     1
 10
154.9334226722814
 20
208.7075726794004
 11
148.9334226201273
 21
207.7075726707081
 72
     1
 10
148.9334226201273
 20
207.7075726707081
 11
148.9334226201273
 21
209.7075726880928
 97
        0
 75
     0
 76
     1
 98
        1
 10
0.0
 20
0.0
  0
HATCH
  5
5064
330
5061
100
AcDbEntity
  8
DEFAULT
  6
Continuous
 62
   136
390
1D
100
AcDbHatch
 10
0.0
 20
0.0
 30
0.0
210
0.0
220
0.0
230
1.0
  2
SOLID
 70
     1
 71
     1
 91
        1
 92
        1
 93
        3
 72
     1
 10
125.9334227244354
 20
209.7075726880928
 11
119.9334226722814
 21
208.7075726794004
 72
     1
 10
119.9334226722814
 20
208.7075726794004
 11
125.9334227244354
 21
207.7075726707081
 72
     1
 10
125.9334227244354
 20
207.7075726707081
 11
125.9334227244354
 21
209.7075726880928
 97
        0
 75
     0
 76
     1
 98
        1
 10
0.0
 20
0.0
  0
LINE
  5
5065
330
5061
100
AcDbEntity
  8
DEFAULT
  6
Continuous
 62
   136
370
     0
390
1D
100
AcDbLine
 10
154.9334226723
 20
140.3533236789
 30
0.0
 11
154.9334226723
 21
211.7075727055
 31
0.0
  0
LINE
  5
5066
330
5061
100
AcDbEntity
  8
DEFAULT
  6
Continuous
 62
   136
370
     0
390
1D
100
AcDbLine
 10
119.9334226723
 20
197.6033236789
 30
0.0
 11
119.9334226723
 21
211.7075727055
 31
0.0
  0
LINE
  5
5067
330
5061
100
AcDbEntity
  8
DEFAULT
  6
Continuous
 62
   136
370
     0
390
1D
100
AcDbLine
 10
154.9334226723
 20
208.7075726794
 30
0.0
 11
149.7501273255
 21
208.7075726794
 31
0.0
  0
LINE
  5
5068
330
5061
100
AcDbEntity
  8
DEFAULT
  6
Continuous
 62
   136
370
     0
390
1D
100
AcDbLine
 10
125.1167180191
 20
208.7075726794
 30
0.0
 11
119.9334226723
 21
208.7075726794
 31
0.0
  0
TEXT
  5
5069
330
5061
100
AcDbEntity
  8
DEFAULT
  6
Continuous
 62
   136
370
     0
390
1D
100
AcDbText
 10
138.2588230554
 20
205.7075726794
 30
0.0
 40
6.0
  1
70
  7
arial_ttf
 11
138.2588230554
 21
211.7075726794
 31
0.0
100
AcDbText
 73
     3
  0
TEXT
  5
506A
330
5061
100
AcDbEntity
  8
DEFAULT
  6
Continuous
 62
   136
370
     0
390
1D
100
AcDbText
 10
127.2167177923
 20
205.7075726794
 30
0.0
 40
6.0
  1
O
  7
semeca1_ttf
 11
127.2167177923
 21
211.7075726794
 31
0.0
100
AcDbText
 73
     3
  0
ENDBLK
  5
506B
330
5061
100
AcDbEntity
  8
DEFAULT
  6
Continuous
 62
   136
370
     0
390
1D
100
AcDbBlockEnd
  0
BLOCK
  5
506E
330
506D
100
AcDbEntity
  8
DEFAULT
 62
     1
 48
0.0
370
     0
390
1D
100
AcDbBlockBegin
  2
SE3
 70
     0
 10
0.0
 20
0.0
 30
0.0
  3
SE3
  1
SE3
  0
HATCH
  5
506F
330
506D
100
AcDbEntity
  8
DEFAULT
  6
Continuous
 62
   136
390
1D
100
AcDbHatch
 10
0.0
 20
0.0
 30
0.0
210
0.0
220
0.0
230
1.0
  2
SOLID
 70
     1
 71
     1
 91
        1
 92
        1
 93
        3
 72
     1
 10
194.8040739558933
 20
143.6033237310052
 11
193.8040739472009
 21
137.6033236788512
 72
     1
 10
193.8040739472009
 20
137.6033236788512
 11
192.8040739385086
 21
143.6033237310052
 72
     1
 10
192.8040739385086
 20
143.6033237310052
 11
194.8040739558933
 21
143.6033237310052
 97
        0
 75
     0
 76
     1
 98
        1
 10
0.0
 20
0.0
  0
HATCH
  5
5070
330
506D
100
AcDbEntity
  8
DEFAULT
  6
Continuous
 62
   136
390
1D
100
AcDbHatch
 10
0.0
 20
0.0
 30
0.0
210
0.0
220
0.0
230
1.0
  2
SOLID
 70
     1
 71
     1
 91
        1
 92
        1
 93
        3
 72
     1
 10
194.8040739558933
 20
180.7095984706783
 11
193.8040739472009
 21
186.7095985228324
 72
     1
 10
193.8040739472009
 20
186.7095985228324
 11
192.8040739385086
 21
180.7095984706783
 72
     1
 10
192.8040739385086
 20
180.7095984706783
 11
194.8040739558933
 21
180.7095984706783
 97
        0
 75
     0
 76
     1
 98
        1
 10
0.0
 20
0.0
  0
LINE
  5
5071
330
506D
100
AcDbEntity
  8
DEFAULT
  6
Continuous
 62
   136
370
     0
390
1D
100
AcDbLine
 10
154.9334226723
 20
137.6033236789
 30
0.0
 11
196.8040739733
 21
137.6033236789
 31
0.0
  0
LINE
  5
5072
330
506D
100
AcDbEntity
  8
DEFAULT
  6
Continuous
 62
   136
370
     0
390
1D
100
AcDbLine
 10
142.0584226723
 20
186.7095985228
 30
0.0
 11
196.8040739733
 21
186.7095985228
 31
0.0
  0
LINE
  5
5073
330
506D
100
AcDbEntity
  8
DEFAULT
  6
Continuous
 62
   136
370
     0
390
1D
100
AcDbLine
 10
193.8040739472
 20
137.6033236789
 30
0.0
 11
193.8040739472
 21
157.0564599292
 31
0.0
  0
LINE
  5
5074
330
506D
100
AcDbEntity
  8
DEFAULT
  6
Continuous
 62
   136
370
     0
390
1D
100
AcDbLine
 10
193.8040739472
 20
167.2564604098
 30
0.0
 11
193.8040739472
 21
186.7095985228
 31
0.0
  0
TEXT
  5
5075
330
506D
100
AcDbEntity
  8
DEFAULT
  6
Continuous
 62
   136
370
     0
390
1D
100
AcDbText
 10
189.1084217733
 20
159.1564605789
 30
0.0
 40
6.0
  1
98
  7
arial_ttf
 11
189.1084217733
 21
165.1564605789
 31
0.0
100
AcDbText
 73
     3
  0
ENDBLK
  5
5076
330
506D
100
AcDbEntity
  8
DEFAULT
  6
Continuous
 62
   136
370
     0
390
1D
100
AcDbBlockEnd
  0
BLOCK
  5
5079
330
5078
100
AcDbEntity
  8
DEFAULT
 62
     1
 48
0.0
370
     0
390
1D
100
AcDbBlockBegin
  2
SE4
 70
     0
 10
0.0
 20
0.0
 30
0.0
  3
SE4
  1
SE4
  0
HATCH
  5
507A
330
5078
100
AcDbEntity
  8
DEFAULT
  6
Continuous
 62
   136
390
1D
100
AcDbHatch
 10
0.0
 20
0.0
 30
0.0
210
0.0
220
0.0
230
1.0
  2
SOLID
 70
     1
 71
     1
 91
        1
 92
        1
 93
        3
 72
     1
 10
176.8040747307537
 20
131.6033236266971
 11
175.8040747220613
 21
137.6033236788512
 72
     1
 10
175.8040747220613
 20
137.6033236788512
 11
174.8040747133689
 21
131.6033236266971
 72
     1
 10
174.8040747133689
 20
131.6033236266971
 11
176.8040747307537
 21
131.6033236266971
 97
        0
 75
     0
 76
     1
 98
        1
 10
0.0
 20
0.0
  0
HATCH
  5
507B
330
5078
100
AcDbEntity
  8
DEFAULT
  6
Continuous
 62
   136
390
1D
100
AcDbHatch
 10
0.0
 20
0.0
 30
0.0
210
0.0
220
0.0
230
1.0
  2
SOLID
 70
     1
 71
     1
 91
        1
 92
        1
 93
        3
 72
     1
 10
176.8040747307537
 20
148.6033237310052
 11
175.8040747220613
 21
142.6033236788512
 72
     1
 10
175.8040747220613
 20
142.6033236788512
 11
174.8040747133689
 21
148.6033237310052
 72
     1
 10
174.8040747133689
 20
148.6033237310052
 11
176.8040747307537
 21
148.6033237310052
 97
        0
 75
     0
 76
     1
 98
        1
 10
0.0
 20
0.0
  0
LINE
  5
507C
330
5078
100
AcDbEntity
  8
DEFAULT
  6
Continuous
 62
   136
370
     0
390
1D
100
AcDbLine
 10
154.9334226723
 20
137.6033236789
 30
0.0
 11
178.8040747481
 21
137.6033236789
 31
0.0
  0
LINE
  5
507D
330
5078
100
AcDbEntity
  8
DEFAULT
  6
Continuous
 62
   136
370
     0
390
1D
100
AcDbLine
 10
150.9334226723
 20
142.6033236789
 30
0.0
 11
178.8040747481
 21
142.6033236789
 31
0.0
  0
LINE
  5
507E
330
5078
100
AcDbEntity
  8
DEFAULT
  6
Continuous
 62
   136
370
     0
390
1D
100
AcDbLine
 10
175.8040747221
 20
125.6033235745
 30
0.0
 11
175.8040747221
 21
137.6033236789
 31
0.0
  0
LINE
  5
507F
330
5078
100
AcDbEntity
  8
DEFAULT
  6
Continuous
 62
   136
370
     0
390
1D
100
AcDbLine
 10
175.8040747221
 20
142.6033236789
 30
0.0
 11
175.8040747221
 21
154.6033237832
 31
0.0
  0
TEXT
  5
5080
330
5078
100
AcDbEntity
  8
DEFAULT
  6
Continuous
 62
   136
370
     0
390
1D
100
AcDbText
 10
171.1084225481
 20
137.3426576922
 30
0.0
 40
6.0
  1
10
  7
arial_ttf
 11
171.1084225481
 21
143.3426576922
 31
0.0
100
AcDbText
 73
     3
  0
ENDBLK
  5
5081
330
5078
100
AcDbEntity
  8
DEFAULT
  6
Continuous
 62
   136
370
     0
390
1D
100
AcDbBlockEnd
  0
BLOCK
  5
5084
330
5083
100
AcDbEntity
  8
DEFAULT
 62
     1
 48
0.0
370
     0
390
1D
100
AcDbBlockBegin
  2
SE5
 70
     0
 10
0.0
 20
0.0
 30
0.0
  3
SE5
  1
SE5
  0
HATCH
  5
5085
330
5083
100
AcDbEntity
  8
DEFAULT
  6
Continuous
 62
   136
390
1D
100
AcDbHatch
 10
0.0
 20
0.0
 30
0.0
210
0.0
220
0.0
230
1.0
  2
SOLID
 70
     1
 71
     1
 91
        1
 92
        1
 93
        3
 72
     1
 10
125.4334226201274
 20
75.3855136868096
 11
131.4334226722814
 21
76.38551369550194
 72
     1
 10
131.4334226722814
 20
76.38551369550194
 11
125.4334226201274
 21
77.38551370419428
 72
     1
 10
125.4334226201274
 20
77.38551370419428
 11
125.4334226201274
 21
75.3855136868096
 97
        0
 75
     0
 76
     1
 98
        1
 10
0.0
 20
0.0
  0
HATCH
  5
5086
330
5083
100
AcDbEntity
  8
DEFAULT
  6
Continuous
 62
   136
390
1D
100
AcDbHatch
 10
0.0
 20
0.0
 30
0.0
210
0.0
220
0.0
230
1.0
  2
SOLID
 70
     1
 71
     1
 91
        1
 92
        1
 93
        3
 72
     1
 10
149.4334227244355
 20
75.3855136868096
 11
143.4334226722815
 21
76.38551369550194
 72
     1
 10
143.4334226722815
 20
76.38551369550194
 11
149.4334227244355
 21
77.38551370419428
 72
     1
 10
149.4334227244355
 20
77.38551370419428
 11
149.4334227244355
 21
75.3855136868096
 97
        0
 75
     0
 76
     1
 98
        1
 10
0.0
 20
0.0
  0
LINE
  5
5087
330
5083
100
AcDbEntity
  8
DEFAULT
  6
Continuous
 62
   136
370
     0
390
1D
100
AcDbLine
 10
131.4334226723
 20
116.1086529517
 30
0.0
 11
131.4334226723
 21
73.3855136694
 31
0.0
  0
LINE
  5
5088
330
5083
100
AcDbEntity
  8
DEFAULT
  6
Continuous
 62
   136
370
     0
390
1D
100
AcDbLine
 10
143.4334226723
 20
116.1086529517
 30
0.0
 11
143.4334226723
 21
73.3855136694
 31
0.0
  0
LINE
  5
5089
330
5083
100
AcDbEntity
  8
DEFAULT
  6
Continuous
 62
   136
370
     0
390
1D
100
AcDbLine
 10
119.433422568
 20
76.3855136955
 30
0.0
 11
131.4334226723
 21
76.3855136955
 31
0.0
  0
LINE
  5
508A
330
5083
100
AcDbEntity
  8
DEFAULT
  6
Continuous
 62
   136
370
     0
390
1D
100
AcDbLine
 10
143.4334226723
 20
76.3855136955
 30
0.0
 11
188.3432910616
 21
76.3855136955
 31
0.0
  0
TEXT
  5
508B
330
5083
100
AcDbEntity
  8
DEFAULT
  6
Continuous
 62
   136
370
     0
390
1D
100
AcDbText
 10
163.9128573235
 20
77.8855136955
 30
0.0
 40
6.0
  1
24
  7
arial_ttf
 11
163.9128573235
 21
83.8855136955
 31
0.0
100
AcDbText
 73
     3
  0
TEXT
  5
508C
330
5083
100
AcDbEntity
  8
DEFAULT
  6
Continuous
 62
   136
370
     0
390
1D
100
AcDbText
 10
152.7998138453
 20
77.8855136955
 30
0.0
 40
6.0
  1
M
  7
arial_ttf
 11
152.7998138453
 21
83.8855136955
 31
0.0
100
AcDbText
 73
     3
  0
TEXT
  5
508D
330
5083
100
AcDbEntity
  8
DEFAULT
  6
Continuous
 62
   136
370
     0
390
1D
100
AcDbText
 10
177.5041616714
 20
77.8855136955
 30
0.0
 40
6.0
  1
x1
  7
arial_ttf
 11
177.5041616714
 21
83.8855136955
 31
0.0
100
AcDbText
 73
     3
  0
ENDBLK
  5
508E
330
5083
100
AcDbEntity
  8
DEFAULT
  6
Continuous
 62
   136
370
     0
390
1D
100
AcDbBlockEnd
  0
BLOCK
  5
5091
330
5090
100
AcDbEntity
  8
DEFAULT
 62
     1
 48
0.0
370
     0
390
1D
100
AcDbBlockBegin
  2
SE6
 70
     0
 10
0.0
 20
0.0
 30
0.0
  3
SE6
  1
SE6
  0
HATCH
  5
5092
330
5090
100
AcDbEntity
  8
DEFAULT
  6
Continuous
 62
   136
390
1D
100
AcDbHatch
 10
0.0
 20
0.0
 30
0.0
210
0.0
220
0.0
230
1.0
  2
SOLID
 70
     1
 71
     1
 91
        1
 92
        1
 93
        3
 72
     1
 10
93.89051812269263
 20
143.6033237310052
 11
94.89051813138497
 21
137.6033236788512
 72
     1
 10
94.89051813138497
 20
137.6033236788512
 11
95.8905181400773
 21
143.6033237310052
 72
     1
 10
95.8905181400773
 20
143.6033237310052
 11
93.89051812269263
 21
143.6033237310052
 97
        0
 75
     0
 76
     1
 98
        1
 10
0.0
 20
0.0
  0
HATCH
  5
5093
330
5090
100
AcDbEntity
  8
DEFAULT
  6
Continuous
 62
   136
390
1D
100
AcDbHatch
 10
0.0
 20
0.0
 30
0.0
210
0.0
220
0.0
230
1.0
  2
SOLID
 70
     1
 71
     1
 91
        1
 92
        1
 93
        3
 72
     1
 10
93.89051812269263
 20
97.60332362669607
 11
94.89051813138497
 21
103.6033236788501
 72
     1
 10
94.89051813138497
 20
103.6033236788501
 11
95.8905181400773
 21
97.60332362669607
 72
     1
 10
95.8905181400773
 20
97.60332362669607
 11
93.89051812269263
 21
97.60332362669607
 97
        0
 75
     0
 76
     1
 98
        1
 10
0.0
 20
0.0
  0
LINE
  5
5094
330
5090
100
AcDbEntity
  8
DEFAULT
  6
Continuous
 62
   136
370
     0
390
1D
100
AcDbLine
 10
119.9334226723
 20
137.6033236789
 30
0.0
 11
91.8905181053
 21
137.6033236789
 31
0.0
  0
LINE
  5
5095
330
5090
100
AcDbEntity
  8
DEFAULT
  6
Continuous
 62
   136
370
     0
390
1D
100
AcDbLine
 10
121.1834226723
 20
103.6033236789
 30
0.0
 11
91.8905181053
 21
103.6033236789
 31
0.0
  0
LINE
  5
5096
330
5090
100
AcDbEntity
  8
DEFAULT
  6
Continuous
 62
   136
370
     0
390
1D
100
AcDbLine
 10
94.8905181314
 20
149.6033237832
 30
0.0
 11
94.8905181314
 21
137.6033236789
 31
0.0
  0
LINE
  5
5097
330
5090
100
AcDbEntity
  8
DEFAULT
  6
Continuous
 62
   136
370
     0
390
1D
100
AcDbLine
 10
94.8905181314
 20
103.6033236789
 30
0.0
 11
94.8905181314
 21
91.6033235745
 31
0.0
  0
ENDBLK
  5
5098
330
5090
100
AcDbEntity
  8
DEFAULT
  6
Continuous
 62
   136
370
     0
390
1D
100
AcDbBlockEnd
  0
BLOCK
  5
509C
330
509B
100
AcDbEntity
  8
0
 62
     1
 48
0.0
370
     0
390
1D
100
AcDbBlockBegin
  2
SE8
 70
     0
 10
0.0
 20
0.0
 30
0.0
  3
SE8
  1
SE8
  0
ARC
  5
509D
330
509B
100
AcDbEntity
  8
DV2_GRIFF_KPL_TRIO
  6
Continuous
 62
     7
370
     0
390
1D
100
AcDbCircle
 10
118.9334226723
 20
260.3533236789
 30
0.0
 40
0.25
100
AcDbArc
 50
90.0
 51
180.0
  0
LINE
  5
509E
330
509B
100
AcDbEntity
  8
DV2_GRIFF_KPL_TRIO
  6
Continuous
 62
     7
370
     0
390
1D
100
AcDbLine
 10
133.58943603
 20
260.6033236789
 30
0.0
 11
118.9334226723
 21
260.6033236789
 31
0.0
  0
ARC
  5
509F
330
509B
100
AcDbEntity
  8
DV2_GRIFF_KPL_TRIO
  6
Continuous
 62
     7
370
     0
390
1D
100
AcDbCircle
 10
144.3018528119
 20
274.9997936489
 30
0.0
 40
0.25
100
AcDbArc
 50
60.0
 51
150.0
  0
LINE
  5
50A0
330
509B
100
AcDbEntity
  8
DV2_GRIFF_KPL_TRIO
  6
Continuous
 62
     7
370
     0
390
1D
100
AcDbLine
 10
141.9534922048
 20
259.4323137629
 30
0.0
 11
149.2814988836
 21
272.1247936489
 31
0.0
  0
LINE
  5
50A1
330
509B
100
AcDbEntity
  8
DV2_GRIFF_KPL_TRIO
  6
Continuous
 62
     7
370
     0
390
1D
100
AcDbLine
 10
149.2814988836
 20
243.0818537088
 30
0.0
 11
141.9528021523
 21
255.7755288009
 31
0.0
  0
ARC
  5
50A2
330
509B
100
AcDbEntity
  8
DV2_GRIFF_KPL_TRIO
  6
Continuous
 62
     7
370
     0
390
1D
100
AcDbCircle
 10
144.3018528119
 20
240.2068537088
 30
0.0
 40
0.25
100
AcDbArc
 50
210.0
 51
300.0
  0
ARC
  5
50A3
330
509B
100
AcDbEntity
  8
DV2_GRIFF_KPL_TRIO
  6
Continuous
 62
     7
370
     0
390
1D
100
AcDbCircle
 10
118.9334226723
 20
254.8533236789
 30
0.0
 40
0.25
100
AcDbArc
 50
180.0
 51
270.0
  0
LINE
  5
50A4
330
509B
100
AcDbEntity
  8
DV2_GRIFF_KPL_TRIO
  6
Continuous
 62
     7
370
     0
390
1D
100
AcDbLine
 10
118.9334226723
 20
254.6033236789
 30
0.0
 11
133.590816135
 21
254.6033236789
 31
0.0
  0
ARC
  5
50A5
330
509B
100
AcDbEntity
  8
DV2_GRIFF_KPL_TRIO
  6
Continuous
 62
     7
370
     0
390
1D
100
AcDbCircle
 10
149.0649925327
 20
272.2497936489
 30
0.0
 40
0.25
100
AcDbArc
 50
330.0
 51
60.0
  0
LINE
  5
50A6
330
509B
100
AcDbEntity
  8
DV2_GRIFF_KPL_TRIO
  6
Continuous
 62
     7
370
     0
390
1D
100
AcDbLine
 10
144.0853464609
 20
275.1247936489
 30
0.0
 11
136.7566497295
 21
262.4311185568
 31
0.0
  0
LINE
  5
50A7
330
509B
100
AcDbEntity
  8
DV2_GRIFF_KPL_TRIO
  6
Continuous
 62
     7
370
     0
390
1D
100
AcDbLine
 10
118.6834226723
 20
254.8533236789
 30
0.0
 11
118.6834226723
 21
260.3533236789
 31
0.0
  0
CIRCLE
  5
50A8
330
509B
100
AcDbEntity
  8
DV2_GRIFF_KPL_TRIO
  6
Continuous
 62
     7
370
     0
390
1D
100
AcDbCircle
 10
137.4334226723
 20
257.6033236789
 30
0.0
 40
4.875
  0
LINE
  5
50A9
330
509B
100
AcDbEntity
  8
DV2_GRIFF_KPL_TRIO
  6
Continuous
 62
     7
370
     0
390
1D
100
AcDbLine
 10
144.4268528119
 20
239.9903473579
 30
0.0
 11
149.1899925327
 21
242.7403473579
 31
0.0
  0
LINE
  5
50AA
330
509B
100
AcDbEntity
  8
DV2_GRIFF_KPL_TRIO
  6
Continuous
 62
     7
370
     0
390
1D
100
AcDbLine
 10
149.1899925327
 20
272.4662999998
 30
0.0
 11
144.4268528119
 21
275.2162999998
 31
0.0
  0
LINE
  5
50AB
330
509B
100
AcDbEntity
  8
DV2_GRIFF_KPL_TRIO
  6
Continuous
 62
     7
370
     0
390
1D
100
AcDbLine
 10
136.7573397821
 20
252.7743335948
 30
0.0
 11
144.0853464609
 21
240.0818537088
 31
0.0
  0
ARC
  5
50AC
330
509B
100
AcDbEntity
  8
DV2_GRIFF_KPL_TRIO
  6
Continuous
 62
     7
370
     0
390
1D
100
AcDbCircle
 10
149.0649925327
 20
242.9568537088
 30
0.0
 40
0.25
100
AcDbArc
 50
300.0
 51
30.0
  0
ARC
  5
50AD
330
509B
100
AcDbEntity
  8
DV2_GRIFF_-FUHR-
  6
Continuous
 62
     1
370
     0
390
1D
100
AcDbCircle
 10
137.4334226723
 20
257.6033236789
 30
0.0
 40
7.5
100
AcDbArc
 50
323.5781784782
 51
36.4218215218
  0
ARC
  5
50AE
330
509B
100
AcDbEntity
  8
DV2_GRIFF_-FUHR-
  6
Continuous
 62
     1
370
     0
390
1D
100
AcDbCircle
 10
137.4334226723
 20
257.6033236789
 30
0.0
 40
7.5
100
AcDbArc
 50
203.5781784782
 51
276.4218215218
  0
ARC
  5
50AF
330
509B
100
AcDbEntity
  8
DV2_GRIFF_-FUHR-
  6
Continuous
 62
     1
370
     0
390
1D
100
AcDbCircle
 10
137.4334226723
 20
257.6033236789
 30
0.0
 40
7.5
100
AcDbArc
 50
83.57817847819999
 51
156.4218215218
  0
ARC
  5
50B0
330
509B
100
AcDbEntity
  8
DV2_ﾃ_ﾌｫﾙﾄ
  6
Continuous
 62
    32
370
     0
390
1D
100
AcDbCircle
 10
137.4334226723
 20
257.6033236789
 30
0.0
 40
17.5
100
AcDbArc
 50
69.8708896061
 51
170.1291103939
  0
ARC
  5
50B1
330
509B
100
AcDbEntity
  8
DV2_ﾃ_ﾌｫﾙﾄ
  6
Continuous
 62
    32
370
     0
390
1D
100
AcDbCircle
 10
137.4334226723
 20
257.6033236789
 30
0.0
 40
17.5
100
AcDbArc
 50
189.8708896061
 51
290.1291103939001
  0
ARC
  5
50B2
330
509B
100
AcDbEntity
  8
DV2_ﾃ_ﾌｫﾙﾄ
  6
Continuous
 62
    32
370
     0
390
1D
100
AcDbCircle
 10
137.4334226723
 20
257.6033236789
 30
0.0
 40
17.5
100
AcDbArc
 50
309.8708896061
 51
50.1291103939
  0
ARC
  5
50B3
330
509B
100
AcDbEntity
  8
DV2_ﾃ_ﾌｫﾙﾄ
  6
Continuous
 62
   152
370
     0
390
1D
100
AcDbCircle
 10
137.4334226723
 20
257.6033236789
 30
0.0
 40
9.0
100
AcDbArc
 50
79.47122063450001
 51
160.5287793655
  0
ARC
  5
50B4
330
509B
100
AcDbEntity
  8
DV2_ﾃ_ﾌｫﾙﾄ
  6
Continuous
 62
   152
370
     0
390
1D
100
AcDbCircle
 10
137.4334226723
 20
257.6033236789
 30
0.0
 40
9.0
100
AcDbArc
 50
199.4712206345
 51
280.5287793655
  0
ARC
  5
50B5
330
509B
100
AcDbEntity
  8
DV2_ﾃ_ﾌｫﾙﾄ
  6
Continuous
 62
   152
370
     0
390
1D
100
AcDbCircle
 10
137.4334226723
 20
257.6033236789
 30
0.0
 40
9.0
100
AcDbArc
 50
319.4712206345
 51
40.52877936550001
  0
ENDBLK
  5
50B6
330
509B
100
AcDbEntity
  8
DV2_ﾃ_ﾌｫﾙﾄ
  6
Continuous
 62
   152
370
     0
390
1D
100
AcDbBlockEnd
  0
BLOCK
  5
50D1
330
50D0
100
AcDbEntity
  8
0
100
AcDbBlockBegin
  2
*D21
 70
     1
 10
0.0
 20
0.0
 30
0.0
  3
*D21
  1
*D40
  0
LINE
  5
50D3
330
50D0
100
AcDbEntity
  8
DIM
 62
     0
 48
0.05
370
    -2
100
AcDbLine
 10
1087.062470074156
 20
419.4540196608086
 30
0.0
 11
1096.819636904417
 21
419.4540196608086
 31
0.0
  0
LINE
  5
50D4
330
50D0
100
AcDbEntity
  8
DIM
 62
     0
 48
0.05
370
    -2
100
AcDbLine
 10
1087.062470074156
 20
349.4540196608086
 30
0.0
 11
1096.819636904417
 21
349.4540196608086
 31
0.0
  0
LINE
  5
50D5
330
50D0
100
AcDbEntity
  8
DIM
 62
     0
 48
0.05
370
    -2
100
AcDbLine
 10
1096.819636904417
 20
418.4540196608086
 30
0.0
 11
1096.819636904417
 21
350.4540196608086
 31
0.0
  0
INSERT
  5
50D6
330
50D0
100
AcDbEntity
  8
DIM
 62
     0
370
    -2
100
AcDbBlockReference
  2
_DOT
 10
1096.819636904417
 20
419.4540196608086
 30
0.0
 50
90.0
  0
INSERT
  5
50D7
330
50D0
100
AcDbEntity
  8
DIM
 62
     0
370
    -2
100
AcDbBlockReference
  2
_DOT
 10
1096.819636904417
 20
349.4540196608086
 30
0.0
 50
270.0
  0
MTEXT
  5
50D8
330
50D0
100
AcDbEntity
  8
DIM
 62
     0
 48
0.05
100
AcDbMText
 10
1089.319636904417
 20
384.4540196608086
 30
0.0
 40
5.0
 41
0.0
 46
0.0
 71
     5
 72
     1
  1
\A1;70
  7
ＭＳ ゴシック
 11
0.0
 21
1.0
 31
0.0
 73
     1
 44
1.0
  0
POINT
  5
50D9
330
50D0
100
AcDbEntity
  8
Defpoints
 62
     0
100
AcDbPoint
 10
1082.062470074156
 20
419.4540196608086
 30
0.0
  0
POINT
  5
50DA
330
50D0
100
AcDbEntity
  8
Defpoints
 62
     0
100
AcDbPoint
 10
1082.062470074156
 20
349.4540196608086
 30
0.0
  0
POINT
  5
50DB
330
50D0
100
AcDbEntity
  8
Defpoints
 62
     0
100
AcDbPoint
 10
1096.819636904417
 20
349.4540196608086
 30
0.0
  0
ENDBLK
  5
50D2
330
50D0
100
AcDbEntity
  8
0
100
AcDbBlockEnd
  0
BLOCK
  5
50E0
330
50DF
100
AcDbEntity
  8
0
100
AcDbBlockBegin
  2
*D22
 70
     1
 10
0.0
 20
0.0
 30
0.0
  3
*D22
  1
*D41
  0
LINE
  5
50E2
330
50DF
100
AcDbEntity
  8
DIM
 62
     0
 48
0.05
370
    -2
100
AcDbLine
 10
1032.066521708756
 20
322.0263447226862
 30
0.0
 11
1032.066521708756
 21
255.8576813289269
 31
0.0
  0
LINE
  5
50E3
330
50DF
100
AcDbEntity
  8
DIM
 62
     0
 48
0.05
370
    -2
100
AcDbLine
 10
933.8539720209565
 20
315.7576023512152
 30
0.0
 11
933.8539720209565
 21
255.8576813289269
 31
0.0
  0
LINE
  5
50E4
330
50DF
100
AcDbEntity
  8
DIM
 62
     0
 48
0.05
370
    -2
100
AcDbLine
 10
1031.066521708756
 20
255.8576813289269
 30
0.0
 11
934.8539720209565
 21
255.8576813289269
 31
0.0
  0
INSERT
  5
50E5
330
50DF
100
AcDbEntity
  8
DIM
 62
     0
370
    -2
100
AcDbBlockReference
  2
_DOT
 10
1032.066521708756
 20
255.8576813289269
 30
0.0
  0
INSERT
  5
50E6
330
50DF
100
AcDbEntity
  8
DIM
 62
     0
370
    -2
100
AcDbBlockReference
  2
_DOT
 10
933.8539720209565
 20
255.8576813289269
 30
0.0
 50
180.0
  0
MTEXT
  5
50E7
330
50DF
100
AcDbEntity
  8
DIM
 62
     0
 48
0.05
100
AcDbMText
 10
982.9602468648565
 20
263.3576813289269
 30
0.0
 40
5.0
 41
0.0
 46
0.0
 71
     5
 72
     1
  1
\A1;98
  7
ＭＳ ゴシック
 73
     1
 44
1.0
  0
POINT
  5
50E8
330
50DF
100
AcDbEntity
  8
Defpoints
 62
     0
100
AcDbPoint
 10
1032.066521708756
 20
327.0263447226862
 30
0.0
  0
POINT
  5
50E9
330
50DF
100
AcDbEntity
  8
Defpoints
 62
     0
100
AcDbPoint
 10
933.8539720209565
 20
320.7576023512152
 30
0.0
  0
POINT
  5
50EA
330
50DF
100
AcDbEntity
  8
Defpoints
 62
     0
100
AcDbPoint
 10
933.8539720209565
 20
255.8576813289269
 30
0.0
  0
ENDBLK
  5
50E1
330
50DF
100
AcDbEntity
  8
0
100
AcDbBlockEnd
  0
BLOCK
  5
50EF
330
50EE
100
AcDbEntity
  8
0
100
AcDbBlockBegin
  2
*D23
 70
     1
 10
0.0
 20
0.0
 30
0.0
  3
*D23
  1
*D42
  0
LINE
  5
50F1
330
50EE
100
AcDbEntity
  8
DIM
 62
     0
 48
0.05
370
    -2
100
AcDbLine
 10
943.8539720209565
 20
324.5833675850085
 30
0.0
 11
943.8539720209565
 21
293.10138600649
 31
0.0
  0
LINE
  5
50F2
330
50EE
100
AcDbEntity
  8
DIM
 62
     0
 48
0.05
370
    -2
100
AcDbLine
 10
933.8539720209565
 20
324.5833675850085
 30
0.0
 11
933.8539720209565
 21
293.10138600649
 31
0.0
  0
LINE
  5
50F3
330
50EE
100
AcDbEntity
  8
DIM
 62
     0
 48
0.05
370
    -2
100
AcDbLine
 10
944.8539720209565
 20
293.10138600649
 30
0.0
 11
945.8539720209565
 21
293.10138600649
 31
0.0
  0
LINE
  5
50F4
330
50EE
100
AcDbEntity
  8
DIM
 62
     0
 48
0.05
370
    -2
100
AcDbLine
 10
932.8539720209565
 20
293.10138600649
 30
0.0
 11
931.8539720209565
 21
293.10138600649
 31
0.0
  0
INSERT
  5
50F5
330
50EE
100
AcDbEntity
  8
DIM
 62
     0
370
    -2
100
AcDbBlockReference
  2
_DOT
 10
943.8539720209565
 20
293.10138600649
 30
0.0
 50
180.0
  0
INSERT
  5
50F6
330
50EE
100
AcDbEntity
  8
DIM
 62
     0
370
    -2
100
AcDbBlockReference
  2
_DOT
 10
933.8539720209565
 20
293.10138600649
 30
0.0
  0
MTEXT
  5
50F7
330
50EE
100
AcDbEntity
  8
DIM
 62
     0
 48
0.05
100
AcDbMText
 10
938.8539720209565
 20
300.60138600649
 30
0.0
 40
5.0
 41
0.0
 46
0.0
 71
     5
 72
     1
  1
\A1;10
  7
ＭＳ ゴシック
 73
     1
 44
1.0
  0
POINT
  5
50F8
330
50EE
100
AcDbEntity
  8
Defpoints
 62
     0
100
AcDbPoint
 10
943.8539720209565
 20
329.5833675850085
 30
0.0
  0
POINT
  5
50F9
330
50EE
100
AcDbEntity
  8
Defpoints
 62
     0
100
AcDbPoint
 10
933.8539720209565
 20
329.5833675850085
 30
0.0
  0
POINT
  5
50FA
330
50EE
100
AcDbEntity
  8
Defpoints
 62
     0
100
AcDbPoint
 10
933.8539720209565
 20
293.10138600649
 30
0.0
  0
ENDBLK
  5
50F0
330
50EE
100
AcDbEntity
  8
0
100
AcDbBlockEnd
  0
BLOCK
  5
50FF
330
50FE
100
AcDbEntity
  8
0
100
AcDbBlockBegin
  2
*D24
 70
     1
 10
0.0
 20
0.0
 30
0.0
  3
*D24
  1
*D43
  0
LINE
  5
5101
330
50FE
100
AcDbEntity
  8
DIM
 62
     0
 48
0.05
370
    -2
100
AcDbLine
 10
933.8539720209565
 20
442.5590227137709
 30
0.0
 11
933.8539720209565
 21
512.230806844529
 31
0.0
  0
LINE
  5
5102
330
50FE
100
AcDbEntity
  8
DIM
 62
     0
 48
0.05
370
    -2
100
AcDbLine
 10
865.8539720209565
 20
436.1059055666686
 30
0.0
 11
865.8539720209565
 21
512.230806844529
 31
0.0
  0
LINE
  5
5103
330
50FE
100
AcDbEntity
  8
DIM
 62
     0
 48
0.05
370
    -2
100
AcDbLine
 10
932.8539720209565
 20
512.230806844529
 30
0.0
 11
866.8539720209565
 21
512.230806844529
 31
0.0
  0
INSERT
  5
5104
330
50FE
100
AcDbEntity
  8
DIM
 62
     0
370
    -2
100
AcDbBlockReference
  2
_DOT
 10
933.8539720209565
 20
512.230806844529
 30
0.0
  0
INSERT
  5
5105
330
50FE
100
AcDbEntity
  8
DIM
 62
     0
370
    -2
100
AcDbBlockReference
  2
_DOT
 10
865.8539720209565
 20
512.230806844529
 30
0.0
 50
180.0
  0
MTEXT
  5
5106
330
50FE
100
AcDbEntity
  8
DIM
 62
     0
 48
0.05
100
AcDbMText
 10
899.8539720209565
 20
519.730806844529
 30
0.0
 40
5.0
 41
0.0
 46
0.0
 71
     5
 72
     1
  1
\A1;68
  7
ＭＳ ゴシック
 73
     1
 44
1.0
  0
POINT
  5
5107
330
50FE
100
AcDbEntity
  8
Defpoints
 62
     0
100
AcDbPoint
 10
933.8539720209565
 20
437.5590227137709
 30
0.0
  0
POINT
  5
5108
330
50FE
100
AcDbEntity
  8
Defpoints
 62
     0
100
AcDbPoint
 10
865.8539720209565
 20
431.1059055666686
 30
0.0
  0
POINT
  5
5109
330
50FE
100
AcDbEntity
  8
Defpoints
 62
     0
100
AcDbPoint
 10
865.8539720209565
 20
512.230806844529
 30
0.0
  0
ENDBLK
  5
5100
330
50FE
100
AcDbEntity
  8
0
100
AcDbBlockEnd
  0
BLOCK
  5
510C
330
510B
100
AcDbEntity
  8
0
100
AcDbBlockBegin
  2
*D25
 70
     1
 10
0.0
 20
0.0
 30
0.0
  3
*D25
  1
*D44
  0
LINE
  5
510E
330
510B
100
AcDbEntity
  8
DIM
 62
     0
 48
0.05
370
    -2
100
AcDbLine
 10
713.992402551138
 20
223.5695843482437
 30
0.0
 11
713.992402551138
 21
182.4758904403685
 31
0.0
  0
LINE
  5
510F
330
510B
100
AcDbEntity
  8
DIM
 62
     0
 48
0.05
370
    -2
100
AcDbLine
 10
740.6451295427522
 20
223.5695843482437
 30
0.0
 11
740.6451295427522
 21
182.4758904403685
 31
0.0
  0
LINE
  5
5110
330
510B
100
AcDbEntity
  8
DIM
 62
     0
 48
0.05
370
    -2
100
AcDbLine
 10
714.992402551138
 20
182.4758904403685
 30
0.0
 11
739.6451295427522
 21
182.4758904403685
 31
0.0
  0
INSERT
  5
5111
330
510B
100
AcDbEntity
  8
DIM
 62
     0
370
    -2
100
AcDbBlockReference
  2
_DOT
 10
713.992402551138
 20
182.4758904403685
 30
0.0
 50
180.0
  0
INSERT
  5
5112
330
510B
100
AcDbEntity
  8
DIM
 62
     0
370
    -2
100
AcDbBlockReference
  2
_DOT
 10
740.6451295427522
 20
182.4758904403685
 30
0.0
  0
MTEXT
  5
5113
330
510B
100
AcDbEntity
  8
DIM
 62
     0
 48
0.05
100
AcDbMText
 10
727.318766046945
 20
189.9758904403685
 30
0.0
 40
5.0
 41
0.0
 46
0.0
 71
     5
 72
     1
  1
\A1;27
  7
ＭＳ ゴシック
 73
     1
 44
1.0
  0
POINT
  5
5114
330
510B
100
AcDbEntity
  8
Defpoints
 62
     0
100
AcDbPoint
 10
713.992402551138
 20
228.5695843482437
 30
0.0
  0
POINT
  5
5115
330
510B
100
AcDbEntity
  8
Defpoints
 62
     0
100
AcDbPoint
 10
740.6451295427522
 20
228.5695843482437
 30
0.0
  0
POINT
  5
5116
330
510B
100
AcDbEntity
  8
Defpoints
 62
     0
100
AcDbPoint
 10
740.6451295427522
 20
182.4758904403685
 30
0.0
  0
ENDBLK
  5
510D
330
510B
100
AcDbEntity
  8
0
100
AcDbBlockEnd
  0
BLOCK
  5
511B
330
511A
100
AcDbEntity
  8
0
100
AcDbBlockBegin
  2
*D26
 70
     1
 10
0.0
 20
0.0
 30
0.0
  3
*D26
  1
*D45
  0
LINE
  5
511D
330
511A
100
AcDbEntity
  8
DIM
 62
     0
 48
0.05
370
    -2
100
AcDbLine
 10
821.072192943644
 20
372.4540196608087
 30
0.0
 11
772.6772579207613
 21
372.4540196608087
 31
0.0
  0
LINE
  5
511E
330
511A
100
AcDbEntity
  8
DIM
 62
     0
 48
0.05
370
    -2
100
AcDbLine
 10
821.072192943644
 20
396.4540196608087
 30
0.0
 11
772.6772579207613
 21
396.4540196608087
 31
0.0
  0
LINE
  5
511F
330
511A
100
AcDbEntity
  8
DIM
 62
     0
 48
0.05
370
    -2
100
AcDbLine
 10
772.6772579207613
 20
373.4540196608087
 30
0.0
 11
772.6772579207613
 21
395.4540196608087
 31
0.0
  0
INSERT
  5
5120
330
511A
100
AcDbEntity
  8
DIM
 62
     0
370
    -2
100
AcDbBlockReference
  2
_DOT
 10
772.6772579207613
 20
372.4540196608087
 30
0.0
 50
270.0
  0
INSERT
  5
5121
330
511A
100
AcDbEntity
  8
DIM
 62
     0
370
    -2
100
AcDbBlockReference
  2
_DOT
 10
772.6772579207613
 20
396.4540196608087
 30
0.0
 50
90.0
  0
MTEXT
  5
5122
330
511A
100
AcDbEntity
  8
DIM
 62
     0
 48
0.05
100
AcDbMText
 10
765.1772579207613
 20
384.4540196608087
 30
0.0
 40
5.0
 41
0.0
 46
0.0
 71
     5
 72
     1
  1
\A1;24
  7
ＭＳ ゴシック
 11
0.0
 21
1.0
 31
0.0
 73
     1
 44
1.0
  0
POINT
  5
5123
330
511A
100
AcDbEntity
  8
Defpoints
 62
     0
100
AcDbPoint
 10
826.072192943644
 20
372.4540196608087
 30
0.0
  0
POINT
  5
5124
330
511A
100
AcDbEntity
  8
Defpoints
 62
     0
100
AcDbPoint
 10
826.072192943644
 20
396.4540196608087
 30
0.0
  0
POINT
  5
5125
330
511A
100
AcDbEntity
  8
Defpoints
 62
     0
100
AcDbPoint
 10
772.6772579207613
 20
396.4540196608087
 30
0.0
  0
ENDBLK
  5
511C
330
511A
100
AcDbEntity
  8
0
100
AcDbBlockEnd
  0
BLOCK
  5
5232
330
5231
100
AcDbEntity
  8
0
100
AcDbBlockBegin
  2
*D27
 70
     1
 10
0.0
 20
0.0
 30
0.0
  3
*D27
  1
*D46
  0
LINE
  5
5234
330
5231
100
AcDbEntity
  8
DIM
 62
     0
 48
0.05
370
    -2
100
AcDbLine
 10
650.0748486925755
 20
349.4540196608086
 30
0.0
 11
597.9731805428127
 21
349.4540196608086
 31
0.0
  0
LINE
  5
5235
330
5231
100
AcDbEntity
  8
DIM
 62
     0
 48
0.05
370
    -2
100
AcDbLine
 10
650.0748486925755
 20
419.4540196608086
 30
0.0
 11
597.9731805428127
 21
419.4540196608086
 31
0.0
  0
LINE
  5
5236
330
5231
100
AcDbEntity
  8
DIM
 62
     0
 48
0.05
370
    -2
100
AcDbLine
 10
597.9731805428127
 20
350.4540196608086
 30
0.0
 11
597.9731805428127
 21
418.4540196608086
 31
0.0
  0
INSERT
  5
5237
330
5231
100
AcDbEntity
  8
DIM
 62
     0
370
    -2
100
AcDbBlockReference
  2
_DOT
 10
597.9731805428127
 20
349.4540196608086
 30
0.0
 50
270.0
  0
INSERT
  5
5238
330
5231
100
AcDbEntity
  8
DIM
 62
     0
370
    -2
100
AcDbBlockReference
  2
_DOT
 10
597.9731805428127
 20
419.4540196608086
 30
0.0
 50
90.0
  0
MTEXT
  5
5239
330
5231
100
AcDbEntity
  8
DIM
 62
     0
 48
0.05
100
AcDbMText
 10
590.4731805428127
 20
384.4540196608086
 30
0.0
 40
5.0
 41
0.0
 46
0.0
 71
     5
 72
     1
  1
\A1;70
  7
ＭＳ ゴシック
 11
0.0
 21
1.0
 31
0.0
 73
     1
 44
1.0
  0
POINT
  5
523A
330
5231
100
AcDbEntity
  8
Defpoints
 62
     0
100
AcDbPoint
 10
655.0748486925755
 20
349.4540196608086
 30
0.0
  0
POINT
  5
523B
330
5231
100
AcDbEntity
  8
Defpoints
 62
     0
100
AcDbPoint
 10
655.0748486925755
 20
419.4540196608086
 30
0.0
  0
POINT
  5
523C
330
5231
100
AcDbEntity
  8
Defpoints
 62
     0
100
AcDbPoint
 10
597.9731805428127
 20
419.4540196608086
 30
0.0
  0
ENDBLK
  5
5233
330
5231
100
AcDbEntity
  8
0
100
AcDbBlockEnd
  0
BLOCK
  5
536F
330
536E
100
AcDbEntity
  8
0
100
AcDbBlockBegin
  2
*D28
 70
     1
 10
0.0
 20
0.0
 30
0.0
  3
*D28
  1
*D18
  0
LINE
  5
5370
330
536E
100
AcDbEntity
  8
DIM
 62
     0
 48
0.05
370
    -2
100
AcDbLine
 10
57.1019720136273
 20
143.7828948509713
 30
0.0
 11
10.80999999999998
 21
143.7828948509713
 31
0.0
  0
LINE
  5
5371
330
536E
100
AcDbEntity
  8
DIM
 62
     0
 48
0.05
370
    -2
100
AcDbLine
 10
54.1182126388296
 20
66.0357718509714
 30
0.0
 11
10.80999999999997
 21
66.0357718509714
 31
0.0
  0
LINE
  5
5372
330
536E
100
AcDbEntity
  8
DIM
 62
     0
 48
0.05
370
    -2
100
AcDbLine
 10
10.80999999999998
 20
142.7828948509713
 30
0.0
 11
10.80999999999997
 21
67.0357718509714
 31
0.0
  0
INSERT
  5
5373
330
536E
100
AcDbEntity
  8
DIM
 62
     0
370
    -2
100
AcDbBlockReference
  2
_DOT
 10
10.80999999999998
 20
143.7828948509713
 30
0.0
 50
90.0
  0
INSERT
  5
5374
330
536E
100
AcDbEntity
  8
DIM
 62
     0
370
    -2
100
AcDbBlockReference
  2
_DOT
 10
10.80999999999997
 20
66.0357718509714
 30
0.0
 50
270.0
  0
MTEXT
  5
5375
330
536E
100
AcDbEntity
  8
DIM
 62
     0
 48
0.05
100
AcDbMText
 10
2.904999999999973
 20
104.9093333509714
 30
0.0
 40
5.0
 41
0.0
 46
0.0
 71
     5
 72
     1
  1
\A1;φ78
  7
ＭＳ ゴシック
 11
6.854363624748867E-17
 21
1.0
 31
0.0
 73
     1
 44
1.0
  0
POINT
  5
5376
330
536E
100
AcDbEntity
  8
Defpoints
 62
     0
100
AcDbPoint
 10
62.1019720136273
 20
143.7828948509713
 30
0.0
  0
POINT
  5
5377
330
536E
100
AcDbEntity
  8
Defpoints
 62
     0
100
AcDbPoint
 10
59.1182126388296
 20
66.0357718509714
 30
0.0
  0
POINT
  5
5378
330
536E
100
AcDbEntity
  8
Defpoints
 62
     0
100
AcDbPoint
 10
10.80999999999997
 20
66.0357718509714
 30
0.0
  0
ENDBLK
  5
5379
330
536E
100
AcDbEntity
  8
0
100
AcDbBlockEnd
  0
BLOCK
  5
544A
330
5449
100
AcDbEntity
  8
0
100
AcDbBlockBegin
  2
*D29
 70
     1
 10
0.0
 20
0.0
 30
0.0
  3
*D29
  1
*D19
  0
LINE
  5
544B
330
5449
100
AcDbEntity
  8
DIM
 62
     0
 48
0.05
370
    -2
100
AcDbLine
 10
322.9769534655186
 20
96.4027576692942
 30
0.0
 11
322.9769534655186
 21
0.5
 31
0.0
  0
LINE
  5
544C
330
5449
100
AcDbEntity
  8
DIM
 62
     0
 48
0.05
370
    -2
100
AcDbLine
 10
221.3997494655186
 20
25.90933385097119
 30
0.0
 11
221.3997494655186
 21
0.5
 31
0.0
  0
LINE
  5
544D
330
5449
100
AcDbEntity
  8
DIM
 62
     0
 48
0.05
370
    -2
100
AcDbLine
 10
321.9769534655186
 20
0.5
 30
0.0
 11
222.3997494655186
 21
0.5
 31
0.0
  0
INSERT
  5
544E
330
5449
100
AcDbEntity
  8
DIM
 62
     0
370
    -2
100
AcDbBlockReference
  2
_DOT
 10
322.9769534655186
 20
0.5
 30
0.0
  0
INSERT
  5
544F
330
5449
100
AcDbEntity
  8
DIM
 62
     0
370
    -2
100
AcDbBlockReference
  2
_DOT
 10
221.3997494655186
 20
0.5
 30
0.0
 50
180.0
  0
MTEXT
  5
5450
330
5449
100
AcDbEntity
  8
DIM
 62
     0
 48
0.05
100
AcDbMText
 10
272.1883514655186
 20
8.0
 30
0.0
 40
5.0
 41
0.0
 46
0.0
 71
     5
 72
     1
  1
\A1;110～75
  7
ＭＳ ゴシック
 73
     1
 44
1.0
  0
POINT
  5
5451
330
5449
100
AcDbEntity
  8
Defpoints
 62
     0
100
AcDbPoint
 10
322.9769534655186
 20
101.4027576692942
 30
0.0
  0
POINT
  5
5452
330
5449
100
AcDbEntity
  8
Defpoints
 62
     0
100
AcDbPoint
 10
221.3997494655186
 20
30.90933385097119
 30
0.0
  0
POINT
  5
5453
330
5449
100
AcDbEntity
  8
Defpoints
 62
     0
100
AcDbPoint
 10
221.3997494655186
 20
0.5
 30
0.0
  0
ENDBLK
  5
5454
330
5449
100
AcDbEntity
  8
0
100
AcDbBlockEnd
  0
BLOCK
  5
5457
330
5456
100
AcDbEntity
  8
0
100
AcDbBlockBegin
  2
*D30
 70
     1
 10
0.0
 20
0.0
 30
0.0
  3
*D30
  1
*D20
  0
LINE
  5
5458
330
5456
100
AcDbEntity
  8
DIM
 62
     0
 48
0.05
370
    -2
100
AcDbLine
 10
234.5088044655185
 20
82.89550849953699
 30
0.0
 11
234.5088044655185
 21
19.18476024488689
 31
0.0
  0
LINE
  5
5459
330
5456
100
AcDbEntity
  8
DIM
 62
     0
 48
0.05
370
    -2
100
AcDbLine
 10
221.3997494655186
 20
25.90933385097119
 30
0.0
 11
221.3997494655186
 21
19.18476024488689
 31
0.0
  0
LINE
  5
545A
330
5456
100
AcDbEntity
  8
DIM
 62
     0
 48
0.05
370
    -2
100
AcDbLine
 10
233.5088044655185
 20
19.18476024488689
 30
0.0
 11
222.3997494655186
 21
19.18476024488689
 31
0.0
  0
INSERT
  5
545B
330
5456
100
AcDbEntity
  8
DIM
 62
     0
370
    -2
100
AcDbBlockReference
  2
_DOT
 10
234.5088044655185
 20
19.18476024488689
 30
0.0
  0
INSERT
  5
545C
330
5456
100
AcDbEntity
  8
DIM
 62
     0
370
    -2
100
AcDbBlockReference
  2
_DOT
 10
221.3997494655186
 20
19.18476024488689
 30
0.0
 50
180.0
  0
MTEXT
  5
545D
330
5456
100
AcDbEntity
  8
DIM
 62
     0
 48
0.05
100
AcDbMText
 10
227.9542752553186
 20
26.68476024488689
 30
0.0
 40
5.0
 41
0.0
 46
0.0
 71
     5
 72
     1
  1
\A1;13
  7
ＭＳ ゴシック
 73
     1
 44
1.0
  0
POINT
  5
545E
330
5456
100
AcDbEntity
  8
Defpoints
 62
     0
100
AcDbPoint
 10
234.5088044655185
 20
87.89550849953699
 30
0.0
  0
POINT
  5
545F
330
5456
100
AcDbEntity
  8
Defpoints
 62
     0
100
AcDbPoint
 10
221.3997494655186
 20
30.90933385097119
 30
0.0
  0
POINT
  5
5460
330
5456
100
AcDbEntity
  8
Defpoints
 62
     0
100
AcDbPoint
 10
221.3997494655186
 20
19.18476024488689
 30
0.0
  0
ENDBLK
  5
5461
330
5456
100
AcDbEntity
  8
0
100
AcDbBlockEnd
  0
BLOCK
  5
5595
330
5594
100
AcDbEntity
  8
0
100
AcDbBlockBegin
  2
*D31
 70
     1
 10
0.0
 20
0.0
 30
0.0
  3
*D31
  1
*D22
  0
LINE
  5
5596
330
5594
100
AcDbEntity
  8
DIM
 62
     0
 48
0.05
370
    -2
100
AcDbLine
 10
150.8997494655186
 20
142.4093338509712
 30
0.0
 11
139.2557740105162
 21
142.4093338509712
 31
0.0
  0
LINE
  5
5597
330
5594
100
AcDbEntity
  8
DIM
 62
     0
 48
0.05
370
    -2
100
AcDbLine
 10
150.8997494655186
 20
67.4093338509712
 30
0.0
 11
139.2557740105162
 21
67.4093338509712
 31
0.0
  0
LINE
  5
5598
330
5594
100
AcDbEntity
  8
DIM
 62
     0
 48
0.05
370
    -2
100
AcDbLine
 10
139.2557740105162
 20
141.4093338509712
 30
0.0
 11
139.2557740105162
 21
68.4093338509712
 31
0.0
  0
INSERT
  5
5599
330
5594
100
AcDbEntity
  8
DIM
 62
     0
370
    -2
100
AcDbBlockReference
  2
_DOT
 10
139.2557740105162
 20
142.4093338509712
 30
0.0
 50
90.0
  0
INSERT
  5
559A
330
5594
100
AcDbEntity
  8
DIM
 62
     0
370
    -2
100
AcDbBlockReference
  2
_DOT
 10
139.2557740105162
 20
67.4093338509712
 30
0.0
 50
270.0
  0
MTEXT
  5
559B
330
5594
100
AcDbEntity
  8
DIM
 62
     0
 48
0.05
100
AcDbMText
 10
131.7557740105162
 20
104.9093338509712
 30
0.0
 40
5.0
 41
0.0
 46
0.0
 71
     5
 72
     1
  1
\A1;75
  7
ＭＳ ゴシック
 11
0.0
 21
1.0
 31
0.0
 73
     1
 44
1.0
  0
POINT
  5
559C
330
5594
100
AcDbEntity
  8
Defpoints
 62
     0
100
AcDbPoint
 10
155.8997494655186
 20
142.4093338509712
 30
0.0
  0
POINT
  5
559D
330
5594
100
AcDbEntity
  8
Defpoints
 62
     0
100
AcDbPoint
 10
155.8997494655186
 20
67.4093338509712
 30
0.0
  0
POINT
  5
559E
330
5594
100
AcDbEntity
  8
Defpoints
 62
     0
100
AcDbPoint
 10
139.2557740105162
 20
67.4093338509712
 30
0.0
  0
ENDBLK
  5
559F
330
5594
100
AcDbEntity
  8
0
100
AcDbBlockEnd
  0
BLOCK
  5
55F3
330
55F2
100
AcDbEntity
  8
0
100
AcDbBlockBegin
  2
_SE_FILLED
 70
     0
 10
0.0
 20
0.0
 30
0.0
  3
_SE_FILLED
  1
_SE_FILLED
  0
SOLID
  5
55F4
330
55F2
100
AcDbEntity
  8
0
 62
     0
100
AcDbTrace
 10
0.0
 20
0.0
 30
0.0
 11
-1.0
 21
-0.1665
 31
0.0
 12
-1.0
 22
0.1665
 32
0.0
 13
0.0
 23
0.0
 33
0.0
  0
LINE
  5
55F5
330
55F2
100
AcDbEntity
  8
0
 62
     0
100
AcDbLine
 10
0.0
 20
0.0
 30
0.0
 11
-1.0
 21
0.0
 31
0.0
  0
ENDBLK
  5
55F6
330
55F2
100
AcDbEntity
  8
0
100
AcDbBlockEnd
  0
BLOCK
  5
56CF
330
56CE
100
AcDbEntity
  8
0
100
AcDbBlockBegin
  2
DMBLK1
 70
     0
 10
0.0
 20
0.0
 30
0.0
  3
DMBLK1
  1
DMBLK1
  0
LINE
  5
56D0
330
56CE
100
AcDbEntity
  8
Layer3
  6
Continuous
 62
   136
370
    -2
100
AcDbLine
 10
72.56059921999999
 20
78.4700271301
 30
0.0
 11
132.0027742805
 21
78.4700271301
 31
0.0
  0
LINE
  5
56D1
330
56CE
100
AcDbEntity
  8
Layer3
  6
Continuous
 62
   136
370
    -2
100
AcDbLine
 10
72.56059921999999
 20
35.27002763009997
 30
0.0
 11
132.0027742805
 21
35.27002763009997
 31
0.0
  0
LINE
  5
56D2
330
56CE
100
AcDbEntity
  8
Layer3
  6
Continuous
 62
   136
370
    -2
100
AcDbLine
 10
129.0027742805
 20
72.4700271301
 30
0.0
 11
129.0027742805
 21
62.97202656979999
 31
0.0
  0
LINE
  5
56D3
330
56CE
100
AcDbEntity
  8
Layer3
  6
Continuous
 62
   136
370
    -2
100
AcDbLine
 10
129.0027742805
 20
41.27002763009997
 30
0.0
 11
129.0027742805
 21
50.76802656979999
 31
0.0
  0
INSERT
  5
56D4
330
56CE
100
AcDbEntity
  8
Layer3
 62
   136
370
    -2
100
AcDbBlockReference
  2
_SE_FILLED
 10
129.0027742805
 20
78.4700271301
 30
0.0
 41
6.0
 42
6.0
 43
6.0
 50
90.0
  0
INSERT
  5
56D5
330
56CE
100
AcDbEntity
  8
Layer3
 62
   136
370
    -2
100
AcDbBlockReference
  2
_SE_FILLED
 10
129.0027742805
 20
35.27002763009997
 30
0.0
 41
6.0
 42
6.0
 43
6.0
 50
270.0
  0
MTEXT
  5
56D6
330
56CE
100
AcDbEntity
  8
Layer3
 62
   136
 48
0.05
370
    20
100
AcDbMText
 10
129.0027742805
 20
56.87002656979999
 30
0.0
 40
6.0
 41
0.0
 46
0.0
 71
     5
 72
     1
  1
\A1;\A1;O 86
  7
SEACAD_arial_ttf
 73
     1
 44
1.0
  0
POINT
  5
56D7
330
56CE
100
AcDbEntity
  8
Defpoints
 62
     0
100
AcDbPoint
 10
72.56059921999999
 20
78.4700271301
 30
0.0
  0
POINT
  5
56FF
330
56CE
100
AcDbEntity
  8
Defpoints
 62
     0
100
AcDbPoint
 10
72.56059921999999
 20
35.27002763009997
 30
0.0
  0
POINT
  5
5700
330
56CE
100
AcDbEntity
  8
Defpoints
 62
     0
100
AcDbPoint
 10
129.0027742805
 20
35.27002763009997
 30
0.0
  0
ENDBLK
  5
56D8
330
56CE
100
AcDbEntity
  8
0
100
AcDbBlockEnd
  0
BLOCK
  5
56DB
330
56DA
100
AcDbEntity
  8
0
100
AcDbBlockBegin
  2
DMBLK2
 70
     0
 10
0.0
 20
0.0
 30
0.0
  3
DMBLK2
  1
DMBLK2
  0
LINE
  5
56DC
330
56DA
100
AcDbEntity
  8
Layer3
  6
Continuous
 62
   136
370
    -2
100
AcDbLine
 10
69.63559921999999
 20
35.27002738009998
 30
0.0
 11
69.63559921999999
 21
9.166589062299991
 31
0.0
  0
LINE
  5
56DD
330
56DA
100
AcDbEntity
  8
Layer3
  6
Continuous
 62
   136
370
    -2
100
AcDbLine
 10
115.56059922
 20
44.4950161301
 30
0.0
 11
115.56059922
 21
9.166589062299991
 31
0.0
  0
LINE
  5
56DE
330
56DA
100
AcDbEntity
  8
Layer3
  6
Continuous
 62
   136
370
    -2
100
AcDbLine
 10
75.63559921999999
 20
12.16658906229999
 30
0.0
 11
85.33809862989999
 21
12.16658906229999
 31
0.0
  0
LINE
  5
56DF
330
56DA
100
AcDbEntity
  8
Layer3
  6
Continuous
 62
   136
370
    -2
100
AcDbLine
 10
109.56059922
 20
12.16658906229999
 30
0.0
 11
99.85809862990001
 21
12.16658906229999
 31
0.0
  0
INSERT
  5
56E0
330
56DA
100
AcDbEntity
  8
Layer3
 62
   136
370
    -2
100
AcDbBlockReference
  2
_SE_FILLED
 10
69.63559921999999
 20
12.16658906229999
 30
0.0
 41
6.0
 42
6.0
 43
6.0
 50
180.0
  0
INSERT
  5
56E1
330
56DA
100
AcDbEntity
  8
Layer3
 62
   136
370
    -2
100
AcDbBlockReference
  2
_SE_FILLED
 10
115.56059922
 20
12.16658906229999
 30
0.0
 41
6.0
 42
6.0
 43
6.0
  0
MTEXT
  5
56E2
330
56DA
100
AcDbEntity
  8
Layer3
 62
   136
 48
0.05
370
    20
100
AcDbMText
 10
92.5980986299
 20
12.16658906229999
 30
0.0
 40
6.0
 41
0.0
 46
0.0
 71
     5
 72
     1
  1
\A1;\A1;92
  7
SEACAD_arial_ttf
 73
     1
 44
1.0
  0
POINT
  5
5701
330
56DA
100
AcDbEntity
  8
Defpoints
 62
     0
100
AcDbPoint
 10
69.63559921999999
 20
35.27002738009998
 30
0.0
  0
POINT
  5
5702
330
56DA
100
AcDbEntity
  8
Defpoints
 62
     0
100
AcDbPoint
 10
115.56059922
 20
44.4950161301
 30
0.0
  0
POINT
  5
5703
330
56DA
100
AcDbEntity
  8
Defpoints
 62
     0
100
AcDbPoint
 10
115.56059922
 20
12.16658906229999
 30
0.0
  0
ENDBLK
  5
56E3
330
56DA
100
AcDbEntity
  8
0
100
AcDbBlockEnd
  0
BLOCK
  5
56E6
330
56E5
100
AcDbEntity
  8
0
100
AcDbBlockBegin
  2
DMBLK3
 70
     0
 10
0.0
 20
0.0
 30
0.0
  3
DMBLK3
  1
DMBLK3
  0
LINE
  5
56E7
330
56E5
100
AcDbEntity
  8
Layer3
  6
Continuous
 62
   136
370
    -2
100
AcDbLine
 10
43.42982725269999
 20
39.1200273801
 30
0.0
 11
43.42982725269999
 21
9.10199999999999
 31
0.0
  0
LINE
  5
56E8
330
56E5
100
AcDbEntity
  8
Layer3
  6
Continuous
 62
   136
370
    -2
100
AcDbLine
 10
69.63559921999999
 20
35.27002738009998
 30
0.0
 11
69.63559921999999
 21
9.10199999999999
 31
0.0
  0
LINE
  5
56E9
330
56E5
100
AcDbEntity
  8
Layer3
  6
Continuous
 62
   136
370
    -2
100
AcDbLine
 10
37.42982725269999
 20
12.10199999999999
 30
0.0
 11
31.42982725269999
 21
12.10199999999999
 31
0.0
  0
LINE
  5
56EA
330
56E5
100
AcDbEntity
  8
Layer3
  6
Continuous
 62
   136
370
    -2
100
AcDbLine
 10
75.63559921999999
 20
12.10199999999999
 30
0.0
 11
81.63559921999999
 21
12.10199999999999
 31
0.0
  0
INSERT
  5
56EB
330
56E5
100
AcDbEntity
  8
Layer3
 62
   136
370
    -2
100
AcDbBlockReference
  2
_SE_FILLED
 10
43.42982725269999
 20
12.10199999999999
 30
0.0
 41
6.0
 42
6.0
 43
6.0
  0
INSERT
  5
56EC
330
56E5
100
AcDbEntity
  8
Layer3
 62
   136
370
    -2
100
AcDbBlockReference
  2
_SE_FILLED
 10
69.63559921999999
 20
12.10199999999999
 30
0.0
 41
6.0
 42
6.0
 43
6.0
 50
180.0
  0
MTEXT
  5
56ED
330
56E5
100
AcDbEntity
  8
Layer3
 62
   136
 48
0.05
370
    20
100
AcDbMText
 10
46.92868346379999
 20
12.10199999999999
 30
0.0
 40
6.0
 41
0.0
 46
0.0
 71
     5
 72
     1
  1
\A1;\A1;   1/2"  32-67\P3/4" {}  38-73\P 1"    51-86
  7
SEACAD_arial_ttf
 73
     1
 44
1.0
  0
POINT
  5
56EE
330
56E5
100
AcDbEntity
  8
Defpoints
 62
     0
100
AcDbPoint
 10
43.42982725269999
 20
39.1200273801
 30
0.0
  0
POINT
  5
56EF
330
56E5
100
AcDbEntity
  8
Defpoints
 62
     0
100
AcDbPoint
 10
69.63559921999999
 20
35.27002738009998
 30
0.0
  0
POINT
  5
56F0
330
56E5
100
AcDbEntity
  8
Defpoints
 62
     0
100
AcDbPoint
 10
69.63559921999999
 20
12.10199999999999
 30
0.0
  0
ENDBLK
  5
56F1
330
56E5
100
AcDbEntity
  8
0
100
AcDbBlockEnd
  0
BLOCK
  5
56F4
330
56F3
100
AcDbEntity
  8
0
100
AcDbBlockBegin
  2
DMBLK4
 70
     0
 10
0.0
 20
0.0
 30
0.0
  3
DMBLK4
  1
DMBLK4
  0
LINE
  5
56F5
330
56F3
100
AcDbEntity
  8
Layer3
  6
Continuous
 62
   136
370
    -2
100
AcDbLine
 10
50.38559921999999
 20
62.8700273801
 30
0.0
 11
9.497739130399989
 21
62.8700273801
 31
0.0
  0
LINE
  5
56F6
330
56F3
100
AcDbEntity
  8
Layer3
  6
Continuous
 62
   136
370
    -2
100
AcDbLine
 10
50.38559921999999
 20
50.8700273801
 30
0.0
 11
9.497739130399989
 21
50.8700273801
 31
0.0
  0
LINE
  5
56F7
330
56F3
100
AcDbEntity
  8
Layer3
  6
Continuous
 62
   136
370
    -2
100
AcDbLine
 10
12.49773913039999
 20
68.8700273801
 30
0.0
 11
12.49773913039999
 21
74.8700273801
 31
0.0
  0
LINE
  5
56F8
330
56F3
100
AcDbEntity
  8
Layer3
  6
Continuous
 62
   136
370
    -2
100
AcDbLine
 10
12.49773913039999
 20
44.8700273801
 30
0.0
 11
12.49773913039999
 21
38.8700273801
 31
0.0
  0
INSERT
  5
56F9
330
56F3
100
AcDbEntity
  8
Layer3
 62
   136
370
    -2
100
AcDbBlockReference
  2
_SE_FILLED
 10
12.49773913039999
 20
62.8700273801
 30
0.0
 41
6.0
 42
6.0
 43
6.0
 50
270.0
  0
INSERT
  5
56FA
330
56F3
100
AcDbEntity
  8
Layer3
 62
   136
370
    -2
100
AcDbBlockReference
  2
_SE_FILLED
 10
12.49773913039999
 20
50.8700273801
 30
0.0
 41
6.0
 42
6.0
 43
6.0
 50
90.0
  0
MTEXT
  5
56FB
330
56F3
100
AcDbEntity
  8
Layer3
 62
   136
 48
0.05
370
    20
100
AcDbMText
 10
12.49773913039999
 20
56.87002732799999
 30
0.0
 40
6.0
 41
0.0
 46
0.0
 71
     5
 72
     1
  1
\A1;\A1;M24x1 {}
  7
SEACAD_arial_ttf
 73
     1
 44
1.0
  0
POINT
  5
5704
330
56F3
100
AcDbEntity
  8
Defpoints
 62
     0
100
AcDbPoint
 10
50.38559921999999
 20
62.8700273801
 30
0.0
  0
POINT
  5
5705
330
56F3
100
AcDbEntity
  8
Defpoints
 62
     0
100
AcDbPoint
 10
50.38559921999999
 20
50.8700273801
 30
0.0
  0
POINT
  5
5706
330
56F3
100
AcDbEntity
  8
Defpoints
 62
     0
100
AcDbPoint
 10
12.49773913039999
 20
50.8700273801
 30
0.0
  0
ENDBLK
  5
56FC
330
56F3
100
AcDbEntity
  8
0
100
AcDbBlockEnd
  0
BLOCK
  5
57C5
330
57C4
100
AcDbEntity
  8
0
100
AcDbBlockBegin
  2
*D37
 70
     1
 10
0.0
 20
0.0
 30
0.0
  3
*D37
  1
*D58
  0
LINE
  5
57C7
330
57C4
100
AcDbEntity
  8
DIM
 62
     0
370
    -2
100
AcDbLine
 10
755.2125755573854
 20
292.1187790150291
 30
0.0
 11
863.0969256783853
 21
292.1187790150291
 31
0.0
  0
LINE
  5
57C8
330
57C4
100
AcDbEntity
  8
DIM
 62
     0
370
    -2
100
AcDbLine
 10
755.2125755573854
 20
205.718780015029
 30
0.0
 11
863.0969256783853
 21
205.718780015029
 31
0.0
  0
LINE
  5
57C9
330
57C4
100
AcDbEntity
  8
DIM
 62
     0
370
    -2
100
AcDbLine
 10
863.0969256783853
 20
291.1187790150291
 30
0.0
 11
863.0969256783853
 21
206.718780015029
 31
0.0
  0
INSERT
  5
57CA
330
57C4
100
AcDbEntity
  8
DIM
 62
     0
370
    -2
100
AcDbBlockReference
  2
_DOT
 10
863.0969256783853
 20
292.1187790150291
 30
0.0
 50
90.0
  0
INSERT
  5
57CB
330
57C4
100
AcDbEntity
  8
DIM
 62
     0
370
    -2
100
AcDbBlockReference
  2
_DOT
 10
863.0969256783853
 20
205.718780015029
 30
0.0
 50
270.0
  0
MTEXT
  5
57CC
330
57C4
100
AcDbEntity
  8
DIM
 62
     0
 48
0.05
100
AcDbMText
 10
855.5969256783853
 20
248.9187778944291
 30
0.0
 40
5.0
 41
0.0
 46
0.0
 71
     5
 72
     1
  1
\A1;\A1;O 86
  7
ＭＳ ゴシック
 11
0.0
 21
1.0
 31
0.0
 73
     1
 44
1.0
  0
POINT
  5
57CD
330
57C4
100
AcDbEntity
  8
Defpoints
 62
     0
100
AcDbPoint
 10
750.2125755573854
 20
292.1187790150291
 30
0.0
  0
POINT
  5
57CE
330
57C4
100
AcDbEntity
  8
Defpoints
 62
     0
100
AcDbPoint
 10
750.2125755573854
 20
205.718780015029
 30
0.0
  0
POINT
  5
57CF
330
57C4
100
AcDbEntity
  8
Defpoints
 62
     0
100
AcDbPoint
 10
863.0969256783853
 20
205.718780015029
 30
0.0
  0
ENDBLK
  5
57C6
330
57C4
100
AcDbEntity
  8
0
100
AcDbBlockEnd
  0
BLOCK
  5
57D2
330
57D1
100
AcDbEntity
  8
0
100
AcDbBlockBegin
  2
*D38
 70
     1
 10
0.0
 20
0.0
 30
0.0
  3
*D38
  1
*D59
  0
LINE
  5
57D4
330
57D1
100
AcDbEntity
  8
DIM
 62
     0
370
    -2
100
AcDbLine
 10
284.3259039377717
 20
157.1369993482361
 30
0.0
 11
284.3259039377717
 21
136.1049489418361
 31
0.0
  0
LINE
  5
57D5
330
57D1
100
AcDbEntity
  8
DIM
 62
     0
370
    -2
100
AcDbLine
 10
376.1759039377716
 20
195.7618030774362
 30
0.0
 11
376.1759039377716
 21
136.1049489418361
 31
0.0
  0
LINE
  5
57D6
330
57D1
100
AcDbEntity
  8
DIM
 62
     0
370
    -2
100
AcDbLine
 10
285.3259039377717
 20
136.1049489418361
 30
0.0
 11
375.1759039377716
 21
136.1049489418361
 31
0.0
  0
INSERT
  5
57D7
330
57D1
100
AcDbEntity
  8
DIM
 62
     0
370
    -2
100
AcDbBlockReference
  2
_DOT
 10
284.3259039377717
 20
136.1049489418361
 30
0.0
 50
180.0
  0
INSERT
  5
57D8
330
57D1
100
AcDbEntity
  8
DIM
 62
     0
370
    -2
100
AcDbBlockReference
  2
_DOT
 10
376.1759039377716
 20
136.1049489418361
 30
0.0
  0
MTEXT
  5
57D9
330
57D1
100
AcDbEntity
  8
DIM
 62
     0
 48
0.05
100
AcDbMText
 10
330.2509027575716
 20
143.6049489418361
 30
0.0
 40
5.0
 41
0.0
 46
0.0
 71
     5
 72
     1
  1
\A1;\A1;92
  7
ＭＳ ゴシック
 73
     1
 44
1.0
  0
POINT
  5
57DA
330
57D1
100
AcDbEntity
  8
Defpoints
 62
     0
100
AcDbPoint
 10
284.3259039377717
 20
162.1369993482361
 30
0.0
  0
POINT
  5
57DB
330
57D1
100
AcDbEntity
  8
Defpoints
 62
     0
100
AcDbPoint
 10
376.1759039377716
 20
200.7618030774362
 30
0.0
  0
POINT
  5
57DC
330
57D1
100
AcDbEntity
  8
Defpoints
 62
     0
100
AcDbPoint
 10
376.1759039377716
 20
136.1049489418361
 30
0.0
  0
ENDBLK
  5
57D3
330
57D1
100
AcDbEntity
  8
0
100
AcDbBlockEnd
  0
BLOCK
  5
57DF
330
57DE
100
AcDbEntity
  8
0
100
AcDbBlockBegin
  2
*D39
 70
     1
 10
0.0
 20
0.0
 30
0.0
  3
*D39
  1
*D60
  0
LINE
  5
57E1
330
57DE
100
AcDbEntity
  8
DIM
 62
     0
370
    -2
100
AcDbLine
 10
691.9510316227854
 20
208.4187795150291
 30
0.0
 11
691.9510316227854
 21
159.382724754829
 31
0.0
  0
LINE
  5
57E2
330
57DE
100
AcDbEntity
  8
DIM
 62
     0
370
    -2
100
AcDbLine
 10
744.3625755573855
 20
200.718779515029
 30
0.0
 11
744.3625755573855
 21
159.382724754829
 31
0.0
  0
LINE
  5
57E3
330
57DE
100
AcDbEntity
  8
DIM
 62
     0
370
    -2
100
AcDbLine
 10
692.9510316227854
 20
159.382724754829
 30
0.0
 11
743.3625755573855
 21
159.382724754829
 31
0.0
  0
INSERT
  5
57E4
330
57DE
100
AcDbEntity
  8
DIM
 62
     0
370
    -2
100
AcDbBlockReference
  2
_DOT
 10
691.9510316227854
 20
159.382724754829
 30
0.0
 50
180.0
  0
INSERT
  5
57E5
330
57DE
100
AcDbEntity
  8
DIM
 62
     0
370
    -2
100
AcDbBlockReference
  2
_DOT
 10
744.3625755573855
 20
159.382724754829
 30
0.0
  0
MTEXT
  5
57E6
330
57DE
100
AcDbEntity
  8
DIM
 62
     0
 48
0.05
100
AcDbMText
 10
698.9487440449855
 20
175.6960580881624
 30
0.0
 40
5.0
 41
0.0
 46
0.0
 71
     5
 72
     1
  1
\A1;\A1;   1/2"  32-67\P3/4" {}  38-73\P 1"    51-86
  7
ＭＳ ゴシック
 73
     1
 44
1.0
  0
POINT
  5
57E7
330
57DE
100
AcDbEntity
  8
Defpoints
 62
     0
100
AcDbPoint
 10
691.9510316227854
 20
213.4187795150291
 30
0.0
  0
POINT
  5
57E8
330
57DE
100
AcDbEntity
  8
Defpoints
 62
     0
100
AcDbPoint
 10
744.3625755573855
 20
205.718779515029
 30
0.0
  0
POINT
  5
57E9
330
57DE
100
AcDbEntity
  8
Defpoints
 62
     0
100
AcDbPoint
 10
744.3625755573855
 20
159.382724754829
 30
0.0
  0
ENDBLK
  5
57E0
330
57DE
100
AcDbEntity
  8
0
100
AcDbBlockEnd
  0
BLOCK
  5
57EC
330
57EB
100
AcDbEntity
  8
0
100
AcDbBlockBegin
  2
*D40
 70
     1
 10
0.0
 20
0.0
 30
0.0
  3
*D40
  1
*D61
  0
LINE
  5
57EE
330
57EB
100
AcDbEntity
  8
DIM
 62
     0
370
    -2
100
AcDbLine
 10
700.8625755573855
 20
260.9187795150291
 30
0.0
 11
630.0868553781854
 21
260.9187795150291
 31
0.0
  0
LINE
  5
57EF
330
57EB
100
AcDbEntity
  8
DIM
 62
     0
370
    -2
100
AcDbLine
 10
700.8625755573855
 20
236.9187795150291
 30
0.0
 11
630.0868553781854
 21
236.9187795150291
 31
0.0
  0
LINE
  5
57F0
330
57EB
100
AcDbEntity
  8
DIM
 62
     0
370
    -2
100
AcDbLine
 10
630.0868553781854
 20
259.9187795150291
 30
0.0
 11
630.0868553781854
 21
237.9187795150291
 31
0.0
  0
INSERT
  5
57F1
330
57EB
100
AcDbEntity
  8
DIM
 62
     0
370
    -2
100
AcDbBlockReference
  2
_DOT
 10
630.0868553781854
 20
260.9187795150291
 30
0.0
 50
90.0
  0
INSERT
  5
57F2
330
57EB
100
AcDbEntity
  8
DIM
 62
     0
370
    -2
100
AcDbBlockReference
  2
_DOT
 10
630.0868553781854
 20
236.9187795150291
 30
0.0
 50
270.0
  0
MTEXT
  5
57F3
330
57EB
100
AcDbEntity
  8
DIM
 62
     0
 48
0.05
100
AcDbMText
 10
622.5868553781854
 20
248.9187794108291
 30
0.0
 40
5.0
 41
0.0
 46
0.0
 71
     5
 72
     1
  1
\A1;\A1;M24x1 {}
  7
ＭＳ ゴシック
 11
0.0
 21
1.0
 31
0.0
 73
     1
 44
1.0
  0
POINT
  5
57F4
330
57EB
100
AcDbEntity
  8
Defpoints
 62
     0
100
AcDbPoint
 10
705.8625755573855
 20
260.9187795150291
 30
0.0
  0
POINT
  5
57F5
330
57EB
100
AcDbEntity
  8
Defpoints
 62
     0
100
AcDbPoint
 10
705.8625755573855
 20
236.9187795150291
 30
0.0
  0
POINT
  5
57F6
330
57EB
100
AcDbEntity
  8
Defpoints
 62
     0
100
AcDbPoint
 10
630.0868553781854
 20
236.9187795150291
 30
0.0
  0
ENDBLK
  5
57ED
330
57EB
100
AcDbEntity
  8
0
100
AcDbBlockEnd
  0
BLOCK
  5
5800
330
57FF
100
AcDbEntity
  8
0
100
AcDbBlockBegin
  2
*D41
 70
     1
 10
0.0
 20
0.0
 30
0.0
  3
*D41
  1
*D62
  0
LINE
  5
5802
330
57FF
100
AcDbEntity
  8
DIM
 62
     0
 48
0.05
370
    -2
100
AcDbLine
 10
96.61949713836577
 20
268.7118255774362
 30
0.0
 11
39.64042108272168
 21
268.7118255774362
 31
0.0
  0
LINE
  5
5803
330
57FF
100
AcDbEntity
  8
DIM
 62
     0
 48
0.05
370
    -2
100
AcDbLine
 10
96.61949713836577
 20
182.3118255774362
 30
0.0
 11
39.64042108272167
 21
182.3118255774362
 31
0.0
  0
LINE
  5
5804
330
57FF
100
AcDbEntity
  8
DIM
 62
     0
 48
0.05
370
    -2
100
AcDbLine
 10
39.64042108272168
 20
267.7118255774362
 30
0.0
 11
39.64042108272167
 21
183.3118255774362
 31
0.0
  0
INSERT
  5
5805
330
57FF
100
AcDbEntity
  8
DIM
 62
     0
370
    -2
100
AcDbBlockReference
  2
_DOT
 10
39.64042108272168
 20
268.7118255774362
 30
0.0
 50
90.0
  0
INSERT
  5
5806
330
57FF
100
AcDbEntity
  8
DIM
 62
     0
370
    -2
100
AcDbBlockReference
  2
_DOT
 10
39.64042108272167
 20
182.3118255774362
 30
0.0
 50
270.0
  0
MTEXT
  5
5807
330
57FF
100
AcDbEntity
  8
DIM
 62
     0
 48
0.05
100
AcDbMText
 10
32.14042108272167
 20
225.5118255774362
 30
0.0
 40
5.0
 41
0.0
 46
0.0
 71
     5
 72
     1
  1
\A1;86
  7
ＭＳ ゴシック
 11
8.223874256482643E-17
 21
1.0
 31
0.0
 73
     1
 44
1.0
  0
POINT
  5
5808
330
57FF
100
AcDbEntity
  8
Defpoints
 62
     0
100
AcDbPoint
 10
101.6194971383658
 20
268.7118255774362
 30
0.0
  0
POINT
  5
5809
330
57FF
100
AcDbEntity
  8
Defpoints
 62
     0
100
AcDbPoint
 10
101.6194971383658
 20
182.3118255774362
 30
0.0
  0
POINT
  5
580A
330
57FF
100
AcDbEntity
  8
Defpoints
 62
     0
100
AcDbPoint
 10
39.64042108272167
 20
182.3118255774362
 30
0.0
  0
ENDBLK
  5
5801
330
57FF
100
AcDbEntity
  8
0
100
AcDbBlockEnd
  0
BLOCK
  5
5909
330
5908
100
AcDbEntity
  8
0
100
AcDbBlockBegin
  2
*D42
 70
     1
 10
0.0
 20
0.0
 30
0.0
  3
*D42
  1
*D64
  0
LINE
  5
590A
330
5908
100
AcDbEntity
  8
DIM
 62
     0
 48
0.05
370
    -2
100
AcDbLine
 10
28.33429503562536
 20
84.04805889166602
 30
0.0
 11
10.0
 21
84.04805889166602
 31
0.0
  0
LINE
  5
590B
330
5908
100
AcDbEntity
  8
DIM
 62
     0
 48
0.05
370
    -2
100
AcDbLine
 10
28.33429503562536
 20
19.04805889166602
 30
0.0
 11
10.0
 21
19.04805889166602
 31
0.0
  0
LINE
  5
590C
330
5908
100
AcDbEntity
  8
DIM
 62
     0
 48
0.05
370
    -2
100
AcDbLine
 10
10.0
 20
83.04805889166602
 30
0.0
 11
10.0
 21
20.04805889166602
 31
0.0
  0
INSERT
  5
590D
330
5908
100
AcDbEntity
  8
DIM
 62
     0
370
    -2
100
AcDbBlockReference
  2
_DOT
 10
10.0
 20
84.04805889166602
 30
0.0
 50
90.0
  0
INSERT
  5
590E
330
5908
100
AcDbEntity
  8
DIM
 62
     0
370
    -2
100
AcDbBlockReference
  2
_DOT
 10
10.0
 20
19.04805889166602
 30
0.0
 50
270.0
  0
MTEXT
  5
590F
330
5908
100
AcDbEntity
  8
DIM
 62
     0
 48
0.05
100
AcDbMText
 10
2.500000000000002
 20
51.54805889166602
 30
0.0
 40
5.0
 41
0.0
 46
0.0
 71
     5
 72
     1
  1
\A1;65
  7
ＭＳ ゴシック
 11
5.465713352000771E-17
 21
1.0
 31
0.0
 73
     1
 44
1.0
  0
POINT
  5
5910
330
5908
100
AcDbEntity
  8
Defpoints
 62
     0
100
AcDbPoint
 10
33.33429503562536
 20
84.04805889166602
 30
0.0
  0
POINT
  5
5911
330
5908
100
AcDbEntity
  8
Defpoints
 62
     0
100
AcDbPoint
 10
33.33429503562536
 20
19.04805889166602
 30
0.0
  0
POINT
  5
5912
330
5908
100
AcDbEntity
  8
Defpoints
 62
     0
100
AcDbPoint
 10
10.0
 20
19.04805889166602
 30
0.0
  0
ENDBLK
  5
5913
330
5908
100
AcDbEntity
  8
0
100
AcDbBlockEnd
  0
BLOCK
  5
59E0
330
59DF
100
AcDbEntity
  8
0
100
AcDbBlockBegin
  2
*D43
 70
     1
 10
0.0
 20
0.0
 30
0.0
  3
*D43
  1
*D65
  0
LINE
  5
59E2
330
59DF
100
AcDbEntity
  8
DIM
 62
     0
 48
0.05
370
    -2
100
AcDbLine
 10
190.0779541569914
 20
258.2777563461351
 30
0.0
 11
171.743659121366
 21
258.2777563461351
 31
0.0
  0
LINE
  5
59E3
330
59DF
100
AcDbEntity
  8
DIM
 62
     0
 48
0.05
370
    -2
100
AcDbLine
 10
190.0779541569914
 20
193.2777563461351
 30
0.0
 11
171.743659121366
 21
193.2777563461351
 31
0.0
  0
LINE
  5
59E4
330
59DF
100
AcDbEntity
  8
DIM
 62
     0
 48
0.05
370
    -2
100
AcDbLine
 10
171.743659121366
 20
257.2777563461351
 30
0.0
 11
171.743659121366
 21
194.2777563461351
 31
0.0
  0
INSERT
  5
59E5
330
59DF
100
AcDbEntity
  8
DIM
 62
     0
370
    -2
100
AcDbBlockReference
  2
_DOT
 10
171.743659121366
 20
258.2777563461351
 30
0.0
 50
90.0
  0
INSERT
  5
59E6
330
59DF
100
AcDbEntity
  8
DIM
 62
     0
370
    -2
100
AcDbBlockReference
  2
_DOT
 10
171.743659121366
 20
193.2777563461351
 30
0.0
 50
270.0
  0
MTEXT
  5
59E7
330
59DF
100
AcDbEntity
  8
DIM
 62
     0
 48
0.05
100
AcDbMText
 10
164.243659121366
 20
225.7777563461351
 30
0.0
 40
5.0
 41
0.0
 46
0.0
 71
     5
 72
     1
  1
\A1;65
  7
ＭＳ ゴシック
 11
0.0
 21
1.0
 31
0.0
 73
     1
 44
1.0
  0
POINT
  5
59E8
330
59DF
100
AcDbEntity
  8
Defpoints
 62
     0
100
AcDbPoint
 10
195.0779541569914
 20
258.2777563461351
 30
0.0
  0
POINT
  5
59E9
330
59DF
100
AcDbEntity
  8
Defpoints
 62
     0
100
AcDbPoint
 10
195.0779541569914
 20
193.2777563461351
 30
0.0
  0
POINT
  5
59EA
330
59DF
100
AcDbEntity
  8
Defpoints
 62
     0
100
AcDbPoint
 10
171.743659121366
 20
193.2777563461351
 30
0.0
  0
ENDBLK
  5
59E1
330
59DF
100
AcDbEntity
  8
0
100
AcDbBlockEnd
  0
BLOCK
  5
5B04
330
5B03
100
AcDbEntity
  8
0
100
AcDbBlockBegin
  2
*D44
 70
     1
 10
0.0
 20
0.0
 30
0.0
  3
*D44
  1
*D38
  0
LINE
  5
5B05
330
5B03
100
AcDbEntity
  8
DIM
 62
     0
 48
0.05
370
    -2
100
AcDbLine
 10
21.64397545500245
 20
92.43301302949158
 30
0.0
 11
10.00000000000003
 21
92.43301302949158
 31
0.0
  0
LINE
  5
5B06
330
5B03
100
AcDbEntity
  8
DIM
 62
     0
 48
0.05
370
    -2
100
AcDbLine
 10
21.64397545500245
 20
17.4330130294916
 30
0.0
 11
10.00000000000002
 21
17.4330130294916
 31
0.0
  0
LINE
  5
5B07
330
5B03
100
AcDbEntity
  8
DIM
 62
     0
 48
0.05
370
    -2
100
AcDbLine
 10
10.00000000000003
 20
91.43301302949158
 30
0.0
 11
10.00000000000002
 21
18.4330130294916
 31
0.0
  0
INSERT
  5
5B08
330
5B03
100
AcDbEntity
  8
DIM
 62
     0
370
    -2
100
AcDbBlockReference
  2
_DOT
 10
10.00000000000003
 20
92.43301302949158
 30
0.0
 50
90.0
  0
INSERT
  5
5B09
330
5B03
100
AcDbEntity
  8
DIM
 62
     0
370
    -2
100
AcDbBlockReference
  2
_DOT
 10
10.00000000000002
 20
17.4330130294916
 30
0.0
 50
270.0
  0
MTEXT
  5
5B0A
330
5B03
100
AcDbEntity
  8
DIM
 62
     0
 48
0.05
100
AcDbMText
 10
2.500000000000028
 20
54.9330130294916
 30
0.0
 40
5.0
 41
0.0
 46
0.0
 71
     5
 72
     1
  1
\A1;75
  7
ＭＳ ゴシック
 11
7.105427357601004E-17
 21
1.0
 31
0.0
 73
     1
 44
1.0
  0
POINT
  5
5B0B
330
5B03
100
AcDbEntity
  8
Defpoints
 62
     0
100
AcDbPoint
 10
26.64397545500245
 20
92.43301302949158
 30
0.0
  0
POINT
  5
5B0C
330
5B03
100
AcDbEntity
  8
Defpoints
 62
     0
100
AcDbPoint
 10
26.64397545500245
 20
17.4330130294916
 30
0.0
  0
POINT
  5
5B0D
330
5B03
100
AcDbEntity
  8
Defpoints
 62
     0
100
AcDbPoint
 10
10.00000000000003
 20
17.4330130294916
 30
0.0
  0
ENDBLK
  5
5B0E
330
5B03
100
AcDbEntity
  8
0
100
AcDbBlockEnd
  0
BLOCK
  5
5B61
330
5B60
100
AcDbEntity
  8
0
100
AcDbBlockBegin
  2
*D45
 70
     1
 10
0.0
 20
0.0
 30
0.0
  3
*D45
  1
*D68
  0
LINE
  5
5B63
330
5B60
100
AcDbEntity
  8
DIM
 62
     0
 48
0.05
370
    -2
100
AcDbLine
 10
189.3259039377717
 20
263.0118255774362
 30
0.0
 11
177.6819284827693
 21
263.0118255774362
 31
0.0
  0
LINE
  5
5B64
330
5B60
100
AcDbEntity
  8
DIM
 62
     0
 48
0.05
370
    -2
100
AcDbLine
 10
189.3259039377717
 20
188.0118255774362
 30
0.0
 11
177.6819284827693
 21
188.0118255774362
 31
0.0
  0
LINE
  5
5B65
330
5B60
100
AcDbEntity
  8
DIM
 62
     0
 48
0.05
370
    -2
100
AcDbLine
 10
177.6819284827693
 20
262.0118255774362
 30
0.0
 11
177.6819284827693
 21
189.0118255774362
 31
0.0
  0
INSERT
  5
5B66
330
5B60
100
AcDbEntity
  8
DIM
 62
     0
370
    -2
100
AcDbBlockReference
  2
_DOT
 10
177.6819284827693
 20
263.0118255774362
 30
0.0
 50
90.0
  0
INSERT
  5
5B67
330
5B60
100
AcDbEntity
  8
DIM
 62
     0
370
    -2
100
AcDbBlockReference
  2
_DOT
 10
177.6819284827693
 20
188.0118255774362
 30
0.0
 50
270.0
  0
MTEXT
  5
5B68
330
5B60
100
AcDbEntity
  8
DIM
 62
     0
 48
0.05
100
AcDbMText
 10
170.1819284827693
 20
225.5118255774362
 30
0.0
 40
5.0
 41
0.0
 46
0.0
 71
     5
 72
     1
  1
\A1;75
  7
ＭＳ ゴシック
 11
0.0
 21
1.0
 31
0.0
 73
     1
 44
1.0
  0
POINT
  5
5B69
330
5B60
100
AcDbEntity
  8
Defpoints
 62
     0
100
AcDbPoint
 10
194.3259039377717
 20
263.0118255774362
 30
0.0
  0
POINT
  5
5B6A
330
5B60
100
AcDbEntity
  8
Defpoints
 62
     0
100
AcDbPoint
 10
194.3259039377717
 20
188.0118255774362
 30
0.0
  0
POINT
  5
5B6B
330
5B60
100
AcDbEntity
  8
Defpoints
 62
     0
100
AcDbPoint
 10
177.6819284827693
 20
188.0118255774362
 30
0.0
  0
ENDBLK
  5
5B62
330
5B60
100
AcDbEntity
  8
0
100
AcDbBlockEnd
  0
BLOCK
  5
5C14
330
5C13
100
AcDbEntity
  8
0
100
AcDbBlockBegin
  2
*D46
 70
     1
 10
0.0
 20
0.0
 30
0.0
  3
*D46
  1
*D71
  0
LINE
  5
5C16
330
5C13
100
AcDbEntity
  8
DIM
 62
     0
 48
0.05
370
    -2
100
AcDbLine
 10
578.5076523031205
 20
375.3483545971408
 30
0.0
 11
578.5076523031205
 21
369.1792339197616
 31
0.0
  0
LINE
  5
5C17
330
5C13
100
AcDbEntity
  8
DIM
 62
     0
 48
0.05
370
    -2
100
AcDbLine
 10
603.2076523031205
 20
375.3483545971408
 30
0.0
 11
603.2076523031205
 21
369.1792339197616
 31
0.0
  0
LINE
  5
5C18
330
5C13
100
AcDbEntity
  8
DIM
 62
     0
 48
0.05
370
    -2
100
AcDbLine
 10
579.5076523031205
 20
369.1792339197616
 30
0.0
 11
602.2076523031205
 21
369.1792339197616
 31
0.0
  0
INSERT
  5
5C19
330
5C13
100
AcDbEntity
  8
DIM
 62
     0
370
    -2
100
AcDbBlockReference
  2
_DOT
 10
578.5076523031205
 20
369.1792339197616
 30
0.0
 50
180.0
  0
INSERT
  5
5C1A
330
5C13
100
AcDbEntity
  8
DIM
 62
     0
370
    -2
100
AcDbBlockReference
  2
_DOT
 10
603.2076523031205
 20
369.1792339197616
 30
0.0
  0
MTEXT
  5
5C1B
330
5C13
100
AcDbEntity
  8
DIM
 62
     0
 48
0.05
100
AcDbMText
 10
590.8576523031205
 20
376.6792339197616
 30
0.0
 40
5.0
 41
0.0
 46
0.0
 71
     5
 72
     1
  1
\A1;25
  7
ＭＳ ゴシック
 73
     1
 44
1.0
  0
POINT
  5
5C1C
330
5C13
100
AcDbEntity
  8
Defpoints
 62
     0
100
AcDbPoint
 10
578.5076523031205
 20
380.3483545971408
 30
0.0
  0
POINT
  5
5C1D
330
5C13
100
AcDbEntity
  8
Defpoints
 62
     0
100
AcDbPoint
 10
603.2076523031205
 20
380.3483545971408
 30
0.0
  0
POINT
  5
5C1E
330
5C13
100
AcDbEntity
  8
Defpoints
 62
     0
100
AcDbPoint
 10
603.2076523031205
 20
369.1792339197616
 30
0.0
  0
ENDBLK
  5
5C15
330
5C13
100
AcDbEntity
  8
0
100
AcDbBlockEnd
  0
BLOCK
  5
5C63
330
5C62
100
AcDbEntity
  8
0
100
AcDbBlockBegin
  2
*D48
 70
     1
 10
0.0
 20
0.0
 30
0.0
  3
*D48
  1
*D48
  0
LINE
  5
5C64
330
5C62
100
AcDbEntity
  8
DIM
 62
     0
 48
0.05
370
    -2
100
AcDbLine
 10
6.299970088779986
 20
102.1803192119461
 30
0.0
 11
6.299970088779986
 21
111.6305639611677
 31
0.0
  0
LINE
  5
5C65
330
5C62
100
AcDbEntity
  8
DIM
 62
     0
 48
0.05
370
    -2
100
AcDbLine
 10
32.7000299112199
 20
102.1803192119461
 30
0.0
 11
32.7000299112199
 21
111.6305639611677
 31
0.0
  0
LINE
  5
5C66
330
5C62
100
AcDbEntity
  8
DIM
 62
     0
 48
0.05
370
    -2
100
AcDbLine
 10
7.299970088779986
 20
111.6305639611677
 30
0.0
 11
31.7000299112199
 21
111.6305639611677
 31
0.0
  0
INSERT
  5
5C67
330
5C62
100
AcDbEntity
  8
DIM
 62
     0
370
    -2
100
AcDbBlockReference
  2
_DOT
 10
6.299970088779986
 20
111.6305639611677
 30
0.0
 50
180.0
  0
INSERT
  5
5C68
330
5C62
100
AcDbEntity
  8
DIM
 62
     0
370
    -2
100
AcDbBlockReference
  2
_DOT
 10
32.7000299112199
 20
111.6305639611677
 30
0.0
  0
MTEXT
  5
5C69
330
5C62
100
AcDbEntity
  8
DIM
 62
     0
 48
0.05
100
AcDbMText
 10
19.49991969884729
 20
119.6630639611677
 30
0.0
 40
5.0
 41
0.0
 46
0.0
 71
     5
 72
     1
  1
\A1;G3/4"
  7
ＭＳ ゴシック
 73
     1
 44
1.0
  0
POINT
  5
5C6A
330
5C62
100
AcDbEntity
  8
Defpoints
 62
     0
100
AcDbPoint
 10
6.299970088779986
 20
97.18031921194611
 30
0.0
  0
POINT
  5
5C6B
330
5C62
100
AcDbEntity
  8
Defpoints
 62
     0
100
AcDbPoint
 10
32.7000299112199
 20
97.18031921194611
 30
0.0
  0
POINT
  5
5C6C
330
5C62
100
AcDbEntity
  8
Defpoints
 62
     0
100
AcDbPoint
 10
32.7000299112199
 20
111.6305639611677
 30
0.0
  0
ENDBLK
  5
5C6D
330
5C62
100
AcDbEntity
  8
0
100
AcDbBlockEnd
  0
BLOCK
  5
5C72
330
5C71
100
AcDbEntity
  8
0
100
AcDbBlockBegin
  2
*D49
 70
     1
 10
0.0
 20
0.0
 30
0.0
  3
*D49
  1
*D49
  0
LINE
  5
5C73
330
5C71
100
AcDbEntity
  8
DIM
 62
     0
 48
0.05
370
    -2
100
AcDbLine
 10
6.299970088779987
 20
17.31388291452194
 30
0.0
 11
6.29997008877999
 21
0.5
 31
0.0
  0
LINE
  5
5C74
330
5C71
100
AcDbEntity
  8
DIM
 62
     0
 48
0.05
370
    -2
100
AcDbLine
 10
32.7000299112199
 20
17.31388291452194
 30
0.0
 11
32.7000299112199
 21
0.5
 31
0.0
  0
LINE
  5
5C75
330
5C71
100
AcDbEntity
  8
DIM
 62
     0
 48
0.05
370
    -2
100
AcDbLine
 10
7.29997008877999
 20
0.5
 30
0.0
 11
31.7000299112199
 21
0.5
 31
0.0
  0
INSERT
  5
5C76
330
5C71
100
AcDbEntity
  8
DIM
 62
     0
370
    -2
100
AcDbBlockReference
  2
_DOT
 10
6.29997008877999
 20
0.5
 30
0.0
 50
180.0
  0
INSERT
  5
5C77
330
5C71
100
AcDbEntity
  8
DIM
 62
     0
370
    -2
100
AcDbBlockReference
  2
_DOT
 10
32.7000299112199
 20
0.5
 30
0.0
  0
MTEXT
  5
5C78
330
5C71
100
AcDbEntity
  8
DIM
 62
     0
 48
0.05
100
AcDbMText
 10
19.49991969884729
 20
8.5325
 30
0.0
 40
5.0
 41
0.0
 46
0.0
 71
     5
 72
     1
  1
\A1;G3/4"
  7
ＭＳ ゴシック
 73
     1
 44
1.0
  0
POINT
  5
5C79
330
5C71
100
AcDbEntity
  8
Defpoints
 62
     0
100
AcDbPoint
 10
6.299970088779986
 20
22.31388291452194
 30
0.0
  0
POINT
  5
5C7A
330
5C71
100
AcDbEntity
  8
Defpoints
 62
     0
100
AcDbPoint
 10
32.7000299112199
 20
22.31388291452194
 30
0.0
  0
POINT
  5
5C7B
330
5C71
100
AcDbEntity
  8
Defpoints
 62
     0
100
AcDbPoint
 10
32.7000299112199
 20
0.5
 30
0.0
  0
ENDBLK
  5
5C7C
330
5C71
100
AcDbEntity
  8
0
100
AcDbBlockEnd
  0
BLOCK
  5
5C8B
330
5C8A
100
AcDbEntity
  8
0
100
AcDbBlockBegin
  2
*D50
 70
     1
 10
0.0
 20
0.0
 30
0.0
  3
*D50
  1
*D50
  0
LINE
  5
5C8D
330
5C8A
100
AcDbEntity
  8
DIM
 62
     0
 48
0.05
370
    -2
100
AcDbLine
 10
188.1215986177546
 20
404.4918972208615
 30
0.0
 11
188.1215986177546
 21
413.942141970083
 31
0.0
  0
LINE
  5
5C8E
330
5C8A
100
AcDbEntity
  8
DIM
 62
     0
 48
0.05
370
    -2
100
AcDbLine
 10
214.5216584401946
 20
404.4918972208615
 30
0.0
 11
214.5216584401946
 21
413.942141970083
 31
0.0
  0
LINE
  5
5C8F
330
5C8A
100
AcDbEntity
  8
DIM
 62
     0
 48
0.05
370
    -2
100
AcDbLine
 10
189.1215986177546
 20
413.942141970083
 30
0.0
 11
213.5216584401946
 21
413.942141970083
 31
0.0
  0
INSERT
  5
5C90
330
5C8A
100
AcDbEntity
  8
DIM
 62
     0
370
    -2
100
AcDbBlockReference
  2
_DOT
 10
188.1215986177546
 20
413.942141970083
 30
0.0
 50
180.0
  0
INSERT
  5
5C91
330
5C8A
100
AcDbEntity
  8
DIM
 62
     0
370
    -2
100
AcDbBlockReference
  2
_DOT
 10
214.5216584401946
 20
413.942141970083
 30
0.0
  0
MTEXT
  5
5C92
330
5C8A
100
AcDbEntity
  8
DIM
 62
     0
 48
0.05
100
AcDbMText
 10
201.3215482278219
 20
421.974641970083
 30
0.0
 40
5.0
 41
0.0
 46
0.0
 71
     5
 72
     1
  1
\A1;G3/4"
  7
ＭＳ ゴシック
 73
     1
 44
1.0
  0
POINT
  5
5C93
330
5C8A
100
AcDbEntity
  8
Defpoints
 62
     0
100
AcDbPoint
 10
188.1215986177546
 20
399.4918972208615
 30
0.0
  0
POINT
  5
5C94
330
5C8A
100
AcDbEntity
  8
Defpoints
 62
     0
100
AcDbPoint
 10
214.5216584401946
 20
399.4918972208615
 30
0.0
  0
POINT
  5
5C95
330
5C8A
100
AcDbEntity
  8
Defpoints
 62
     0
100
AcDbPoint
 10
214.5216584401946
 20
413.942141970083
 30
0.0
  0
ENDBLK
  5
5C8C
330
5C8A
100
AcDbEntity
  8
0
100
AcDbBlockEnd
  0
BLOCK
  5
5C97
330
5C96
100
AcDbEntity
  8
0
100
AcDbBlockBegin
  2
*D51
 70
     1
 10
0.0
 20
0.0
 30
0.0
  3
*D51
  1
*D51
  0
LINE
  5
5C99
330
5C96
100
AcDbEntity
  8
DIM
 62
     0
 48
0.05
370
    -2
100
AcDbLine
 10
188.1215986177546
 20
319.6254609234372
 30
0.0
 11
188.1215986177546
 21
302.8115780089153
 31
0.0
  0
LINE
  5
5C9A
330
5C96
100
AcDbEntity
  8
DIM
 62
     0
 48
0.05
370
    -2
100
AcDbLine
 10
214.5216584401946
 20
319.6254609234372
 30
0.0
 11
214.5216584401946
 21
302.8115780089153
 31
0.0
  0
LINE
  5
5C9B
330
5C96
100
AcDbEntity
  8
DIM
 62
     0
 48
0.05
370
    -2
100
AcDbLine
 10
189.1215986177546
 20
302.8115780089153
 30
0.0
 11
213.5216584401946
 21
302.8115780089153
 31
0.0
  0
INSERT
  5
5C9C
330
5C96
100
AcDbEntity
  8
DIM
 62
     0
370
    -2
100
AcDbBlockReference
  2
_DOT
 10
188.1215986177546
 20
302.8115780089153
 30
0.0
 50
180.0
  0
INSERT
  5
5C9D
330
5C96
100
AcDbEntity
  8
DIM
 62
     0
370
    -2
100
AcDbBlockReference
  2
_DOT
 10
214.5216584401946
 20
302.8115780089153
 30
0.0
  0
MTEXT
  5
5C9E
330
5C96
100
AcDbEntity
  8
DIM
 62
     0
 48
0.05
100
AcDbMText
 10
201.3215482278219
 20
310.8440780089153
 30
0.0
 40
5.0
 41
0.0
 46
0.0
 71
     5
 72
     1
  1
\A1;G3/4"
  7
ＭＳ ゴシック
 73
     1
 44
1.0
  0
POINT
  5
5C9F
330
5C96
100
AcDbEntity
  8
Defpoints
 62
     0
100
AcDbPoint
 10
188.1215986177546
 20
324.6254609234372
 30
0.0
  0
POINT
  5
5CA0
330
5C96
100
AcDbEntity
  8
Defpoints
 62
     0
100
AcDbPoint
 10
214.5216584401946
 20
324.6254609234372
 30
0.0
  0
POINT
  5
5CA1
330
5C96
100
AcDbEntity
  8
Defpoints
 62
     0
100
AcDbPoint
 10
214.5216584401946
 20
302.8115780089153
 30
0.0
  0
ENDBLK
  5
5C98
330
5C96
100
AcDbEntity
  8
0
100
AcDbBlockEnd
  0
BLOCK
  5
5CAC
330
5CAB
100
AcDbEntity
  8
0
100
AcDbBlockBegin
  2
*D52
 70
     1
 10
0.0
 20
0.0
 30
0.0
  3
*D52
  1
*D52
  0
LINE
  5
5CAE
330
5CAB
100
AcDbEntity
  8
DIM
 62
     0
 48
0.05
370
    -2
100
AcDbLine
 10
197.1258740265517
 20
267.9450437261484
 30
0.0
 11
197.1258740265517
 21
277.3952884753699
 31
0.0
  0
LINE
  5
5CAF
330
5CAB
100
AcDbEntity
  8
DIM
 62
     0
 48
0.05
370
    -2
100
AcDbLine
 10
223.5259338489916
 20
267.9450437261484
 30
0.0
 11
223.5259338489916
 21
277.3952884753699
 31
0.0
  0
LINE
  5
5CB0
330
5CAB
100
AcDbEntity
  8
DIM
 62
     0
 48
0.05
370
    -2
100
AcDbLine
 10
198.1258740265517
 20
277.3952884753699
 30
0.0
 11
222.5259338489916
 21
277.3952884753699
 31
0.0
  0
INSERT
  5
5CB1
330
5CAB
100
AcDbEntity
  8
DIM
 62
     0
370
    -2
100
AcDbBlockReference
  2
_DOT
 10
197.1258740265517
 20
277.3952884753699
 30
0.0
 50
180.0
  0
INSERT
  5
5CB2
330
5CAB
100
AcDbEntity
  8
DIM
 62
     0
370
    -2
100
AcDbBlockReference
  2
_DOT
 10
223.5259338489916
 20
277.3952884753699
 30
0.0
  0
MTEXT
  5
5CB3
330
5CAB
100
AcDbEntity
  8
DIM
 62
     0
 48
0.05
100
AcDbMText
 10
210.325823636619
 20
285.4277884753699
 30
0.0
 40
5.0
 41
0.0
 46
0.0
 71
     5
 72
     1
  1
\A1;G3/4"
  7
ＭＳ ゴシック
 73
     1
 44
1.0
  0
POINT
  5
5CB4
330
5CAB
100
AcDbEntity
  8
Defpoints
 62
     0
100
AcDbPoint
 10
197.1258740265517
 20
262.9450437261484
 30
0.0
  0
POINT
  5
5CB5
330
5CAB
100
AcDbEntity
  8
Defpoints
 62
     0
100
AcDbPoint
 10
223.5259338489916
 20
262.9450437261484
 30
0.0
  0
POINT
  5
5CB6
330
5CAB
100
AcDbEntity
  8
Defpoints
 62
     0
100
AcDbPoint
 10
223.5259338489916
 20
277.3952884753699
 30
0.0
  0
ENDBLK
  5
5CAD
330
5CAB
100
AcDbEntity
  8
0
100
AcDbBlockEnd
  0
BLOCK
  5
5CB8
330
5CB7
100
AcDbEntity
  8
0
100
AcDbBlockBegin
  2
*D53
 70
     1
 10
0.0
 20
0.0
 30
0.0
  3
*D53
  1
*D53
  0
LINE
  5
5CBA
330
5CB7
100
AcDbEntity
  8
DIM
 62
     0
 48
0.05
370
    -2
100
AcDbLine
 10
197.1258740265517
 20
183.0786074287241
 30
0.0
 11
197.1258740265517
 21
166.2647245142022
 31
0.0
  0
LINE
  5
5CBB
330
5CB7
100
AcDbEntity
  8
DIM
 62
     0
 48
0.05
370
    -2
100
AcDbLine
 10
223.5259338489916
 20
183.0786074287241
 30
0.0
 11
223.5259338489916
 21
166.2647245142022
 31
0.0
  0
LINE
  5
5CBC
330
5CB7
100
AcDbEntity
  8
DIM
 62
     0
 48
0.05
370
    -2
100
AcDbLine
 10
198.1258740265517
 20
166.2647245142022
 30
0.0
 11
222.5259338489916
 21
166.2647245142022
 31
0.0
  0
INSERT
  5
5CBD
330
5CB7
100
AcDbEntity
  8
DIM
 62
     0
370
    -2
100
AcDbBlockReference
  2
_DOT
 10
197.1258740265517
 20
166.2647245142022
 30
0.0
 50
180.0
  0
INSERT
  5
5CBE
330
5CB7
100
AcDbEntity
  8
DIM
 62
     0
370
    -2
100
AcDbBlockReference
  2
_DOT
 10
223.5259338489916
 20
166.2647245142022
 30
0.0
  0
MTEXT
  5
5CBF
330
5CB7
100
AcDbEntity
  8
DIM
 62
     0
 48
0.05
100
AcDbMText
 10
210.325823636619
 20
174.2972245142022
 30
0.0
 40
5.0
 41
0.0
 46
0.0
 71
     5
 72
     1
  1
\A1;G3/4"
  7
ＭＳ ゴシック
 73
     1
 44
1.0
  0
POINT
  5
5CC0
330
5CB7
100
AcDbEntity
  8
Defpoints
 62
     0
100
AcDbPoint
 10
197.1258740265517
 20
188.0786074287241
 30
0.0
  0
POINT
  5
5CC1
330
5CB7
100
AcDbEntity
  8
Defpoints
 62
     0
100
AcDbPoint
 10
223.5259338489916
 20
188.0786074287241
 30
0.0
  0
POINT
  5
5CC2
330
5CB7
100
AcDbEntity
  8
Defpoints
 62
     0
100
AcDbPoint
 10
223.5259338489916
 20
166.2647245142022
 30
0.0
  0
ENDBLK
  5
5CB9
330
5CB7
100
AcDbEntity
  8
0
100
AcDbBlockEnd
  0
BLOCK
  5
5CC7
330
5CC6
100
AcDbEntity
  8
0
100
AcDbBlockBegin
  2
*D54
 70
     1
 10
0.0
 20
0.0
 30
0.0
  3
*D54
  1
*D54
  0
LINE
  5
5CC9
330
5CC6
100
AcDbEntity
  8
DIM
 62
     0
 48
0.05
370
    -2
100
AcDbLine
 10
284.3259039377717
 20
157.1369993482361
 30
0.0
 11
284.3259039377717
 21
136.1049489418361
 31
0.0
  0
LINE
  5
5CCA
330
5CC6
100
AcDbEntity
  8
DIM
 62
     0
 48
0.05
370
    -2
100
AcDbLine
 10
210.3259039377716
 20
161.2647245142022
 30
0.0
 11
210.3259039377716
 21
136.1049489418361
 31
0.0
  0
LINE
  5
5CCB
330
5CC6
100
AcDbEntity
  8
DIM
 62
     0
 48
0.05
370
    -2
100
AcDbLine
 10
283.3259039377717
 20
136.1049489418361
 30
0.0
 11
211.3259039377716
 21
136.1049489418361
 31
0.0
  0
INSERT
  5
5CCC
330
5CC6
100
AcDbEntity
  8
DIM
 62
     0
370
    -2
100
AcDbBlockReference
  2
_DOT
 10
284.3259039377717
 20
136.1049489418361
 30
0.0
  0
INSERT
  5
5CCD
330
5CC6
100
AcDbEntity
  8
DIM
 62
     0
370
    -2
100
AcDbBlockReference
  2
_DOT
 10
210.3259039377716
 20
136.1049489418361
 30
0.0
 50
180.0
  0
MTEXT
  5
5CCE
330
5CC6
100
AcDbEntity
  8
DIM
 62
     0
 48
0.05
100
AcDbMText
 10
247.3259039377717
 20
143.6049489418361
 30
0.0
 40
5.0
 41
0.0
 46
0.0
 71
     5
 72
     1
  1
\A1;38-73
  7
ＭＳ ゴシック
 73
     1
 44
1.0
  0
POINT
  5
5CCF
330
5CC6
100
AcDbEntity
  8
Defpoints
 62
     0
100
AcDbPoint
 10
284.3259039377717
 20
162.1369993482361
 30
0.0
  0
POINT
  5
5CD0
330
5CC6
100
AcDbEntity
  8
Defpoints
 62
     0
100
AcDbPoint
 10
210.3259039377716
 20
166.2647245142022
 30
0.0
  0
POINT
  5
5CD1
330
5CC6
100
AcDbEntity
  8
Defpoints
 62
     0
100
AcDbPoint
 10
210.3259039377716
 20
136.1049489418361
 30
0.0
  0
ENDBLK
  5
5CC8
330
5CC6
100
AcDbEntity
  8
0
100
AcDbBlockEnd
  0
ENDSEC
  0
SECTION
  2
ENTITIES
  0
MTEXT
  5
177
330
A
100
AcDbEntity
  8
TEMPLATE
390
1D
100
AcDbMText
 10
15.84042890954615
 20
68.74635032628565
 30
0.0
 40
3.257682291666665
 41
0.0
 46
0.0
 71
     1
 72
     1
  1
品名
  7
ＭＳ ゴシック
 73
     1
 44
0.7828267384257843
  0
MTEXT
  5
178
330
A
100
AcDbEntity
  8
TEMPLATE
390
1D
100
AcDbMText
 10
15.84042890954615
 20
51.7463503262856
 30
0.0
 40
3.257682291666665
 41
0.0
 46
0.0
 71
     1
 72
     1
  1
仕様
  7
ＭＳ ゴシック
 73
     1
 44
0.7828267384257843
  0
LINE
  5
179
330
A
100
AcDbEntity
  8
TEMPLATE
390
1D
100
AcDbLine
 10
404.4404289094496
 20
53.42933470128568
 30
0.0
 11
14.44042890944975
 21
53.42933470128568
 31
0.0
  0
LWPOLYLINE
  5
17A
330
A
100
AcDbEntity
  8
TEMPLATE
390
1D
100
AcDbPolyline
 90
        5
 70
   128
 43
0.0
 10
404.4404289094496
 20
579.4293347012853
 10
14.44042890944975
 20
579.4293347012853
 10
14.44042890944975
 20
19.42933470128565
 10
404.4404289094496
 20
19.42933470128565
 10
404.4404289094496
 20
579.4293347012853
  0
LINE
  5
17B
330
A
100
AcDbEntity
  8
TEMPLATE
390
1D
100
AcDbLine
 10
404.4404289094496
 20
70.42933470128564
 30
0.0
 11
14.44042890944975
 21
70.42933470128564
 31
0.0
  0
LINE
  5
17C
330
A
100
AcDbEntity
  8
TEMPLATE
390
1D
100
AcDbLine
 10
404.4404289095464
 20
36.42933470128565
 30
0.0
 11
253.840428909546
 21
36.42933470128565
 31
0.0
  0
MTEXT
  5
17E
330
A
100
AcDbEntity
  8
TEMPLATE
390
1D
100
AcDbMText
 10
259.8147101599982
 20
30.44725580662403
 30
0.0
 40
4.8865234375
 41
0.0
 46
0.0
 71
     1
 72
     1
  1
大洋金物株式会社 ティーフォルム事業部
  7
ＭＳ ゴシック
 73
     1
 44
0.7828267384257843
  0
MTEXT
  5
180
330
A
100
AcDbEntity
  8
TEMPLATE
390
1D
100
AcDbMText
 10
366.240428909598
 20
46.02985813878564
 30
0.0
 40
4.8865234375
 41
0.0
 46
4.8865234375
 71
     1
 72
     1
  1
{1:2}
  7
ＭＳ ゴシック
 73
     1
 44
0.7828267384257843
1001
ACAD
1000
ACAD_MTEXT_DEFINED_HEIGHT_BEGIN
1070
    46
1040
4.8865234375
1000
ACAD_MTEXT_DEFINED_HEIGHT_END
  0
MTEXT
  5
181
330
A
100
AcDbEntity
  8
TEMPLATE
390
1D
100
AcDbMText
 10
355.640428909598
 20
51.7463503262856
 30
0.0
 40
3.257682291666665
 41
0.0
 46
0.0
 71
     1
 72
     1
  1
縮尺
  7
ＭＳ ゴシック
 73
     1
 44
0.7828267384257843
  0
LINE
  5
182
330
A
100
AcDbEntity
  8
TEMPLATE
390
1D
100
AcDbLine
 10
354.240428909598
 20
36.42933470128565
 30
0.0
 11
354.240428909598
 21
53.42933470128568
 31
0.0
  0
MTEXT
  5
183
330
A
100
AcDbEntity
  8
TEMPLATE
390
1D
100
AcDbMText
 10
305.440428909598
 20
51.7463503262856
 30
0.0
 40
3.257682291666665
 41
0.0
 46
0.0
 71
     1
 72
     1
  1
容量
  7
ＭＳ ゴシック
 73
     1
 44
0.7828267384257843
  0
LINE
  5
184
330
A
100
AcDbEntity
  8
TEMPLATE
390
1D
100
AcDbLine
 10
304.040428909598
 20
36.42933470128565
 30
0.0
 11
304.040428909598
 21
53.42933470128568
 31
0.0
  0
MTEXT
  5
185
330
A
100
AcDbEntity
  8
TEMPLATE
390
1D
100
AcDbMText
 10
255.240428909598
 20
68.74635032628565
 30
0.0
 40
3.257682291666665
 41
0.0
 46
0.0
 71
     1
 72
     1
  1
品番
  7
ＭＳ ゴシック
 73
     1
 44
0.7828267384257843
  0
MTEXT
  5
186
330
A
100
AcDbEntity
  8
TEMPLATE
390
1D
100
AcDbMText
 10
255.240428909598
 20
51.7463503262856
 30
0.0
 40
3.257682291666665
 41
0.0
 46
0.0
 71
     1
 72
     1
  1
重量
  7
ＭＳ ゴシック
 73
     1
 44
0.7828267384257843
  0
MTEXT
  5
187
330
A
100
AcDbEntity
  8
TEMPLATE
390
1D
100
AcDbMText
 10
265.840428909598
 20
63.02985813878564
 30
0.0
 40
4.8865234375
 41
0.0
 46
4.8865234375
 71
     1
 72
     1
  1
{FHT73-3029}
  7
ＭＳ ゴシック
 73
     1
 44
0.7828267384257843
1001
ACAD
1000
ACAD_MTEXT_DEFINED_HEIGHT_BEGIN
1070
    46
1040
4.8865234375
1000
ACAD_MTEXT_DEFINED_HEIGHT_END
  0
LINE
  5
188
330
A
100
AcDbEntity
  8
TEMPLATE
390
1D
100
AcDbLine
 10
253.840428909598
 20
19.42933470128565
 30
0.0
 11
253.840428909598
 21
70.42933470128564
 31
0.0
  0
MTEXT
  5
189
330
A
100
AcDbEntity
  8
TEMPLATE
390
1D
100
AcDbMText
 10
26.44042890954615
 20
63.02985813878564
 30
0.0
 40
4.8865234375
 41
0.0
 46
5.5071119140625
 71
     1
 72
     1
  1
{埋込ストップバルブ　-GROHE,Grotherm 3000-}
  7
ＭＳ ゴシック
 73
     1
 44
0.7828267384257843
1001
ACAD
1000
ACAD_MTEXT_DEFINED_HEIGHT_BEGIN
1070
    46
1040
5.5071119140625
1000
ACAD_MTEXT_DEFINED_HEIGHT_END
  0
INSERT
  5
6B5
330
A
100
AcDbEntity
  8
TEMPLATE
100
AcDbBlockReference
  2
名称未設定-1
 10
374.15014961769
 20
5.189353151330764
 30
0.0
 41
0.1524
 42
0.1524
 43
0.1524
  0
INSERT
  5
68C
330
A
100
AcDbEntity
  8
TEMPLATE
100
AcDbBlockReference
  2
block 2
 10
919.2743017702577
 20
8.373076514336368
 30
0.0
 41
0.3809999999999999
 42
0.3809999999999999
 43
0.3809999999999999
  0
LWPOLYLINE
  5
D69
330
A
100
AcDbEntity
  8
BORDER
 48
0.025
100
AcDbPolyline
 90
        4
 70
     1
 43
0.0
 10
0.0
 20
0.0
 10
0.0
 20
594.0
 10
420.0
 20
594.0
 10
420.0
 20
0.0
  0
INSERT
  5
1343
330
A
100
AcDbEntity
  8
TEMPLATE
100
AcDbBlockReference
  2
block 2
 10
2096.743470866468
 20
24.43532141229569
 30
0.0
 41
0.3809999999999999
 42
0.3809999999999999
 43
0.3809999999999999
  0
POINT
  5
3697
330
A
100
AcDbEntity
  8
Layer50
  6
HIDDEN2
 62
     7
100
AcDbPoint
 10
396.8678405503807
 20
449.3605456225488
 30
0.0
  0
POINT
  5
36AA
330
A
100
AcDbEntity
  8
Layer50
  6
HIDDEN2
 62
     7
100
AcDbPoint
 10
396.8678405503807
 20
469.8605456225488
 30
0.0
  0
POINT
  5
36B6
330
A
100
AcDbEntity
  8
Layer50
  6
HIDDEN2
 62
     7
100
AcDbPoint
 10
405.6628405503807
 20
460.6105456225488
 30
0.0
  0
POINT
  5
36BC
330
A
100
AcDbEntity
  8
Layer50
  6
HIDDEN2
 62
     7
100
AcDbPoint
 10
403.6628405503807
 20
460.6105456225488
 30
0.0
  0
MTEXT
  5
4530
102
{ACAD_XDICTIONARY
360
4532
102
}
330
A
100
AcDbEntity
  8
MODEL
 48
0.05
100
AcDbMText
 10
14.6329326238789
 20
17.30781899803597
 30
0.0
 40
4.0
 41
0.0
 46
4.0
 71
     1
 72
     1
  1
{20160725N}
  7
ＭＳ ゴシック
 73
     1
 44
1.0
1001
ACAD
1000
ACAD_MTEXT_DEFINED_HEIGHT_BEGIN
1070
    46
1040
4.0
1000
ACAD_MTEXT_DEFINED_HEIGHT_END
  0
LINE
  5
5708
330
A
100
AcDbEntity
  8
Layer2
  6
Continuous
 62
     7
100
AcDbLine
 10
298.0259039377715
 20
184.3118265774361
 30
0.0
 11
298.0259039377715
 21
266.7118245774362
 31
0.0
  0
SPLINE
  5
5709
330
A
100
AcDbEntity
  8
Layer2
  6
Continuous
 62
     7
100
AcDbSpline
210
0.0
220
0.0
230
1.0
 70
     8
 71
     3
 72
    22
 73
    18
 74
     0
 42
0.000000001
 43
0.0000000001
 40
0.0
 40
0.0
 40
0.0
 40
0.0
 40
0.125
 40
0.125
 40
0.25
 40
0.25
 40
0.375
 40
0.375
 40
0.5
 40
0.5
 40
0.625
 40
0.625
 40
0.75
 40
0.75
 40
0.875
 40
0.875
 40
1.0
 40
1.0
 40
1.0
 40
1.0
 10
300.0259039376924
 20
251.761823577463
 30
0.0
 10
299.8946039376924
 20
251.761823577463
 30
0.0
 10
299.7649909376923
 20
251.774629577463
 30
0.0
 10
299.5090739376924
 20
251.8253565774631
 30
0.0
 10
299.3816709376924
 20
251.863927577463
 30
0.0
 10
299.1404169376924
 20
251.9637815774632
 30
0.0
 10
299.0255209376924
 20
252.0250375774631
 30
0.0
 10
298.8073409376925
 20
252.1705045774631
 30
0.0
 10
298.7047519376924
 20
252.2545625774629
 30
0.0
 10
298.5188529376924
 20
252.4404325774632
 30
0.0
 10
298.4349049376924
 20
252.542935577463
 30
0.0
 10
298.2902529376925
 20
252.759585577463
 30
0.0
 10
298.2286439376926
 20
252.874549577463
 30
0.0
 10
298.1276869376925
 20
253.118263577463
 30
0.0
 10
298.0898489376923
 20
253.2435155774631
 30
0.0
 10
298.0389899376923
 20
253.4989065774629
 30
0.0
 10
298.0259039376924
 20
253.630702577463
 30
0.0
 10
298.0259039376924
 20
253.761823577463
 30
0.0
  0
LINE
  5
570A
330
A
100
AcDbEntity
  8
Layer2
  6
Continuous
 62
     7
100
AcDbLine
 10
315.9259039377716
 20
251.7618235774361
 30
0.0
 11
300.0259039377715
 21
251.7618235774361
 31
0.0
  0
SPLINE
  5
570B
330
A
100
AcDbEntity
  8
Layer2
  6
Continuous
 62
     7
100
AcDbSpline
210
0.0
220
0.0
230
1.0
 70
     8
 71
     3
 72
    16
 73
    12
 74
     0
 42
0.000000001
 43
0.0000000001
 40
0.0
 40
0.0
 40
0.0
 40
0.0
 40
0.125
 40
0.125
 40
0.25
 40
0.25
 40
0.5
 40
0.5
 40
0.75
 40
0.75
 40
1.0
 40
1.0
 40
1.0
 40
1.0
 10
317.9259039376925
 20
249.7618255774632
 30
0.0
 10
317.9259039376925
 20
249.8921705774629
 30
0.0
 10
317.9128769376925
 20
250.0245475774632
 30
0.0
 10
317.8617779376923
 20
250.280935577463
 30
0.0
 10
317.8240059376926
 20
250.4055195774629
 30
0.0
 10
317.6738619376924
 20
250.768394577463
 30
0.0
 10
317.5231329376925
 20
250.9934105774632
 30
0.0
 10
317.1540989376927
 20
251.3616625774632
 30
0.0
 10
316.9309059376924
 20
251.5104685774631
 30
0.0
 10
316.4497079376924
 20
251.7094935774631
 30
0.0
 10
316.1867499376926
 20
251.761823577463
 30
0.0
 10
315.9259039376925
 20
251.761823577463
 30
0.0
  0
SPLINE
  5
570C
330
A
100
AcDbEntity
  8
Layer2
  6
Continuous
 62
     7
100
AcDbSpline
210
0.0
220
0.0
230
1.0
 70
     8
 71
     3
 72
    20
 73
    16
 74
     0
 42
0.000000001
 43
0.0000000001
 40
0.0
 40
0.0
 40
0.0
 40
0.0
 40
0.25
 40
0.25
 40
0.375
 40
0.375
 40
0.5
 40
0.5
 40
0.625
 40
0.625
 40
0.75
 40
0.75
 40
0.875
 40
0.875
 40
1.0
 40
1.0
 40
1.0
 40
1.0
 10
298.0259039376924
 20
266.7118245774632
 30
0.0
 10
298.0259039376924
 20
266.974377577463
 30
0.0
 10
297.9744249376927
 20
267.2339755774632
 30
0.0
 10
297.8232039376926
 20
267.5989855774629
 30
0.0
 10
297.7616529376924
 20
267.7138985774629
 30
0.0
 10
297.6169639376926
 20
267.9306365774631
 30
0.0
 10
297.5329079376925
 20
268.0332635774632
 30
0.0
 10
297.3470759376924
 20
268.2190625774631
 30
0.0
 10
297.2443769376923
 20
268.3031995774631
 30
0.0
 10
297.0264409376923
 20
268.448510577463
 30
0.0
 10
296.9115769376926
 20
268.5097825774629
 30
0.0
 10
296.6701459376923
 20
268.6097235774632
 30
0.0
 10
296.5427929376924
 20
268.6482705774629
 30
0.0
 10
296.2870259376923
 20
268.6989865774631
 30
0.0
 10
296.1573719376925
 20
268.7118245774632
 30
0.0
 10
296.0259039376924
 20
268.7118245774632
 30
0.0
  0
LINE
  5
570D
330
A
100
AcDbEntity
  8
Layer2
  6
Continuous
 62
     7
100
AcDbLine
 10
317.9259039377716
 20
201.2618255774362
 30
0.0
 11
317.9259039377716
 21
249.7618255774362
 31
0.0
  0
LINE
  5
570E
330
A
100
AcDbEntity
  8
Layer2
  6
Continuous
 62
     7
100
AcDbLine
 10
296.0259039377715
 20
268.7118245774362
 30
0.0
 11
284.3259039377717
 21
268.7118255774362
 31
0.0
  0
LINE
  5
570F
330
A
100
AcDbEntity
  8
Layer2
  6
Continuous
 62
     7
100
AcDbLine
 10
284.3259039377717
 20
268.7118255774362
 30
0.0
 11
284.3259039377717
 21
182.3118255774361
 31
0.0
  0
SPLINE
  5
5710
330
A
100
AcDbEntity
  8
Layer2
  6
Continuous
 62
     7
100
AcDbSpline
210
0.0
220
0.0
230
1.0
 70
     8
 71
     3
 72
    18
 73
    14
 74
     0
 42
0.000000001
 43
0.0000000001
 40
0.0
 40
0.0
 40
0.0
 40
0.0
 40
0.125
 40
0.125
 40
0.25
 40
0.25
 40
0.375
 40
0.375
 40
0.5
 40
0.5
 40
0.75
 40
0.75
 40
1.0
 40
1.0
 40
1.0
 40
1.0
 10
298.0259039376924
 20
197.2618275774632
 30
0.0
 10
298.0259039376924
 20
197.3935955774631
 30
0.0
 10
298.0387989376927
 20
197.5233385774629
 30
0.0
 10
298.0895149376925
 20
197.7789085774631
 30
0.0
 10
298.1279959376925
 20
197.9060825774629
 30
0.0
 10
298.2281019376924
 20
198.1478435774629
 30
0.0
 10
298.2894119376924
 20
198.2626745774631
 30
0.0
 10
298.4345089376925
 20
198.480253577463
 30
0.0
 10
298.5188129376925
 20
198.583060577463
 30
0.0
 10
298.7950849376925
 20
198.859640577463
 30
0.0
 10
299.0170489376924
 20
199.0086995774632
 30
0.0
 10
299.5036189376924
 20
199.210305577463
 30
0.0
 10
299.7627969376927
 20
199.2618275774632
 30
0.0
 10
300.0259039376924
 20
199.2618275774632
 30
0.0
  0
LINE
  5
5711
330
A
100
AcDbEntity
  8
Layer2
  6
Continuous
 62
     7
100
AcDbLine
 10
300.0259039377715
 20
199.2618275774362
 30
0.0
 11
315.9259039377716
 21
199.2618275774362
 31
0.0
  0
SPLINE
  5
5712
330
A
100
AcDbEntity
  8
Layer2
  6
Continuous
 62
     7
100
AcDbSpline
210
0.0
220
0.0
230
1.0
 70
     8
 71
     3
 72
    18
 73
    14
 74
     0
 42
0.000000001
 43
0.0000000001
 40
0.0
 40
0.0
 40
0.0
 40
0.0
 40
0.125
 40
0.125
 40
0.25
 40
0.25
 40
0.5
 40
0.5
 40
0.75
 40
0.75
 40
0.875
 40
0.875
 40
1.0
 40
1.0
 40
1.0
 40
1.0
 10
315.9259039376925
 20
199.2618275774632
 30
0.0
 10
316.0571489376925
 20
199.2618275774632
 30
0.0
 10
316.1868739376923
 20
199.2746225774629
 30
0.0
 10
316.4433209376925
 20
199.3254995774632
 30
0.0
 10
316.5708509376923
 20
199.3641725774631
 30
0.0
 10
316.9327709376926
 20
199.514135577463
 30
0.0
 10
317.1558729376925
 20
199.6633525774632
 30
0.0
 10
317.5244919376923
 20
200.0320055774629
 30
0.0
 10
317.6737489376924
 20
200.2552815774629
 30
0.0
 10
317.8235619376924
 20
200.6169095774629
 30
0.0
 10
317.8622179376925
 20
200.7443155774629
 30
0.0
 10
317.9131509376925
 20
201.0010965774629
 30
0.0
 10
317.9259039376925
 20
201.1308015774629
 30
0.0
 10
317.9259039376925
 20
201.2618255774632
 30
0.0
  0
SPLINE
  5
5713
330
A
100
AcDbEntity
  8
Layer2
  6
Continuous
 62
     7
100
AcDbSpline
210
0.0
220
0.0
230
1.0
 70
     8
 71
     3
 72
    18
 73
    14
 74
     0
 42
0.000000001
 43
0.0000000001
 40
0.0
 40
0.0
 40
0.0
 40
0.0
 40
0.25
 40
0.25
 40
0.5
 40
0.5
 40
0.625
 40
0.625
 40
0.75
 40
0.75
 40
0.875
 40
0.875
 40
1.0
 40
1.0
 40
1.0
 40
1.0
 10
296.0259039376924
 20
182.3118265774631
 30
0.0
 10
296.2868069376923
 20
182.3118265774631
 30
0.0
 10
296.5501279376927
 20
182.3642395774631
 30
0.0
 10
297.0316829376925
 20
182.5635945774629
 30
0.0
 10
297.2549049376926
 20
182.712540577463
 30
0.0
 10
297.5319249376926
 20
182.989351577463
 30
0.0
 10
297.6164629376926
 20
183.0923165774632
 30
0.0
 10
297.7616519376925
 20
183.3096985774629
 30
0.0
 10
297.8231339376925
 20
183.424600577463
 30
0.0
 10
297.9236279376923
 20
183.666961577463
 30
0.0
 10
297.9620769376925
 20
183.7939275774631
 30
0.0
 10
298.0129159376925
 20
184.0495865774632
 30
0.0
 10
298.0259039376924
 20
184.1797355774631
 30
0.0
 10
298.0259039376924
 20
184.3118265774631
 30
0.0
  0
LINE
  5
5714
330
A
100
AcDbEntity
  8
Layer2
  6
Continuous
 62
     7
100
AcDbLine
 10
284.3259039377717
 20
182.3118255774361
 30
0.0
 11
296.0259039377715
 21
182.3118265774361
 31
0.0
  0
LINE
  5
5715
330
A
100
AcDbEntity
  8
Layer2
  6
Continuous
 62
     7
100
AcDbLine
 10
317.9259039377716
 20
239.7118244974362
 30
0.0
 11
318.8259039377717
 21
239.7118255774362
 31
0.0
  0
LINE
  5
5716
330
A
100
AcDbEntity
  8
Layer2
  6
Continuous
 62
     7
100
AcDbLine
 10
318.8259039377717
 20
239.7118255774362
 30
0.0
 11
318.8259039377717
 21
211.5118295774362
 31
0.0
  0
LINE
  5
5717
330
A
100
AcDbEntity
  8
Layer2
  6
Continuous
 62
     7
100
AcDbLine
 10
319.1759039377716
 20
239.1618215774362
 30
0.0
 11
318.8259039377717
 21
239.5118215774361
 31
0.0
  0
LINE
  5
5718
330
A
100
AcDbEntity
  8
Layer2
  6
Continuous
 62
     7
100
AcDbLine
 10
318.8259039377717
 20
211.3118255774361
 30
0.0
 11
317.9259039377716
 21
211.3118270174361
 31
0.0
  0
LINE
  5
5719
330
A
100
AcDbEntity
  8
Layer2
  6
Continuous
 62
     7
100
AcDbLine
 10
318.8259039377717
 20
211.5118295774362
 30
0.0
 11
318.8259039377717
 21
211.3118255774361
 31
0.0
  0
LINE
  5
571A
330
A
100
AcDbEntity
  8
Layer2
  6
Continuous
 62
     7
100
AcDbLine
 10
318.8259039377717
 20
211.5118295774362
 30
0.0
 11
319.1759039377716
 21
211.8618295774361
 31
0.0
  0
LINE
  5
571B
330
A
100
AcDbEntity
  8
Layer4
  6
Continuous
 62
     7
100
AcDbLine
 10
278.4032539377718
 20
237.0118215774361
 30
0.0
 11
284.3259039377717
 21
237.0118215774361
 31
0.0
  0
LINE
  5
571C
330
A
100
AcDbEntity
  8
Layer4
  6
Continuous
 62
     7
100
AcDbLine
 10
277.8259039377717
 20
236.0118205774361
 30
0.0
 11
278.4032539377718
 21
237.0118215774361
 31
0.0
  0
LINE
  5
571D
330
A
100
AcDbEntity
  8
Layer4
  6
Continuous
 62
     7
100
AcDbLine
 10
265.1259039377719
 20
236.0118205774361
 30
0.0
 11
277.8259039377717
 21
236.0118205774361
 31
0.0
  0
LINE
  5
571E
330
A
100
AcDbEntity
  8
Layer4
  6
Continuous
 62
     7
100
AcDbLine
 10
264.4042159377718
 20
237.2618215774361
 30
0.0
 11
265.1259039377719
 21
236.0118205774361
 31
0.0
  0
LINE
  5
571F
330
A
100
AcDbEntity
  8
Layer4
  6
Continuous
 62
     7
100
AcDbLine
 10
264.4042159377718
 20
237.2618215774361
 30
0.0
 11
260.7095669377718
 21
237.2618215774361
 31
0.0
  0
SPLINE
  5
5720
330
A
100
AcDbEntity
  8
Layer4
  6
Continuous
 62
     7
100
AcDbSpline
210
0.0
220
0.0
230
1.0
 70
     8
 71
     3
 72
    10
 73
     6
 74
     0
 42
0.000000001
 43
0.0000000001
 40
0.0
 40
0.0
 40
0.0
 40
0.0
 40
0.5
 40
0.5
 40
1.0
 40
1.0
 40
1.0
 40
1.0
 10
260.7095669376927
 20
237.261821577463
 30
0.0
 10
260.6008619376926
 20
237.261821577463
 30
0.0
 10
260.4919589376923
 20
237.2984415774629
 30
0.0
 10
260.3177229376925
 20
237.4323785774629
 30
0.0
 10
260.2550129376923
 20
237.5263895774631
 30
0.0
 10
260.2266039376923
 20
237.632411577463
 30
0.0
  0
LINE
  5
5721
330
A
100
AcDbEntity
  8
Layer4
  6
Continuous
 62
     7
100
AcDbLine
 10
259.3210939377718
 20
241.0118225774361
 30
0.0
 11
260.2266039377719
 21
237.6324115774361
 31
0.0
  0
LINE
  5
5722
330
A
100
AcDbEntity
  8
Layer4
  6
Continuous
 62
     7
100
AcDbLine
 10
249.8259039377717
 20
241.0118255774362
 30
0.0
 11
259.3210939377718
 21
241.0118225774361
 31
0.0
  0
LINE
  5
5723
330
A
100
AcDbEntity
  8
Layer4
  6
Continuous
 62
     7
100
AcDbLine
 10
249.8259039377717
 20
210.0118255774362
 30
0.0
 11
249.8259039377717
 21
241.0118255774362
 31
0.0
  0
LINE
  5
5724
330
A
100
AcDbEntity
  8
Layer4
  6
Continuous
 62
     7
100
AcDbLine
 10
284.3259039377717
 20
214.0118295774362
 30
0.0
 11
278.4032539377718
 21
214.0118295774362
 31
0.0
  0
LINE
  5
5725
330
A
100
AcDbEntity
  8
Layer4
  6
Continuous
 62
     7
100
AcDbLine
 10
278.4032539377718
 20
214.0118295774362
 30
0.0
 11
277.8259039377717
 21
215.0118305774362
 31
0.0
  0
LINE
  5
5726
330
A
100
AcDbEntity
  8
Layer4
  6
Continuous
 62
     7
100
AcDbLine
 10
277.8259039377717
 20
215.0118305774362
 30
0.0
 11
265.1259039377719
 21
215.0118305774362
 31
0.0
  0
LINE
  5
5727
330
A
100
AcDbEntity
  8
Layer4
  6
Continuous
 62
     7
100
AcDbLine
 10
265.1259039377719
 20
215.0118305774362
 30
0.0
 11
264.4042159377718
 21
213.7618295774362
 31
0.0
  0
LINE
  5
5728
330
A
100
AcDbEntity
  8
Layer4
  6
Continuous
 62
     7
100
AcDbLine
 10
260.7095669377718
 20
213.7618295774362
 30
0.0
 11
264.4042159377718
 21
213.7618295774362
 31
0.0
  0
SPLINE
  5
5729
330
A
100
AcDbEntity
  8
Layer4
  6
Continuous
 62
     7
100
AcDbSpline
210
0.0
220
0.0
230
1.0
 70
     8
 71
     3
 72
    10
 73
     6
 74
     0
 42
0.000000001
 43
0.0000000001
 40
0.0
 40
0.0
 40
0.0
 40
0.0
 40
0.5
 40
0.5
 40
1.0
 40
1.0
 40
1.0
 40
1.0
 10
260.2266039376923
 20
213.391239577463
 30
0.0
 10
260.2547579376924
 20
213.496309577463
 30
0.0
 10
260.3187829376925
 20
213.5921125774632
 30
0.0
 10
260.4910429376923
 20
213.7244805774632
 30
0.0
 10
260.5996379376925
 20
213.7618295774632
 30
0.0
 10
260.7095669376927
 20
213.7618295774632
 30
0.0
  0
LINE
  5
572A
330
A
100
AcDbEntity
  8
Layer4
  6
Continuous
 62
     7
100
AcDbLine
 10
260.2266039377719
 20
213.3912395774362
 30
0.0
 11
259.3210939377718
 21
210.0118285774362
 31
0.0
  0
LINE
  5
572B
330
A
100
AcDbEntity
  8
Layer4
  6
Continuous
 62
     7
100
AcDbLine
 10
259.3210939377718
 20
210.0118285774362
 30
0.0
 11
249.8259039377717
 21
210.0118255774362
 31
0.0
  0
LINE
  5
572C
330
A
100
AcDbEntity
  8
Layer4
  6
Continuous
 62
     7
100
AcDbLine
 10
284.3259039377717
 20
214.9318255774361
 30
0.0
 11
277.8720947781717
 21
214.9318255774361
 31
0.0
  0
LINE
  5
572D
330
A
100
AcDbEntity
  8
Layer4
  6
Continuous
 62
     7
100
AcDbLine
 10
284.3259039377717
 20
236.0918255774362
 30
0.0
 11
277.8720947781717
 21
236.0918255774362
 31
0.0
  0
LINE
  5
5761
330
A
100
AcDbEntity
  8
Layer4
  6
Continuous
 62
     7
100
AcDbLine
 10
264.4042159377718
 20
213.7618295774362
 30
0.0
 11
264.4042159377718
 21
237.2618215774361
 31
0.0
  0
LINE
  5
5762
330
A
100
AcDbEntity
  8
Layer4
  6
Continuous
 62
     7
100
AcDbLine
 10
265.1259039377719
 20
215.0118305774362
 30
0.0
 11
265.1259039377719
 21
236.0118205774361
 31
0.0
  0
LINE
  5
5763
330
A
100
AcDbEntity
  8
Layer4
  6
Continuous
 62
     7
100
AcDbLine
 10
260.388415309772
 20
213.9049294786362
 30
0.0
 11
260.388415309772
 21
237.0344349164362
 31
0.0
  0
LINE
  5
5764
330
A
100
AcDbEntity
  8
Layer4
  6
Continuous
 62
     7
100
AcDbLine
 10
259.3210939377718
 20
210.0118225774361
 30
0.0
 11
259.3210939377718
 21
241.0118225774361
 31
0.0
  0
LINE
  5
5765
330
A
100
AcDbEntity
  8
Layer4
  6
Continuous
 62
     7
100
AcDbLine
 10
277.8259039377717
 20
215.0118305774362
 30
0.0
 11
277.8259039377717
 21
236.0118205774361
 31
0.0
  0
LINE
  5
5766
330
A
100
AcDbEntity
  8
Layer1
  6
Continuous
 62
     7
100
AcDbLine
 10
319.1759039377716
 20
199.4618010774362
 30
0.0
 11
319.1759039377716
 21
251.5618500774361
 31
0.0
  0
LINE
  5
5767
330
A
100
AcDbEntity
  8
Layer1
  6
Continuous
 62
     7
100
AcDbLine
 10
376.1759039377716
 20
200.7618030774362
 30
0.0
 11
376.1759039377716
 21
250.2618510774362
 31
0.0
  0
ARC
  5
5768
330
A
100
AcDbEntity
  8
Layer1
  6
Continuous
 62
     7
100
AcDbCircle
 10
366.3266549377718
 20
199.7663670774361
 30
0.0
 40
0.504568704863879
100
AcDbArc
 50
257.8287964416808
 51
269.7973051194098
  0
ARC
  5
5769
330
A
100
AcDbEntity
  8
Layer1
  6
Continuous
 62
     7
100
AcDbCircle
 10
328.0251479377716
 20
199.7663670774361
 30
0.0
 40
0.5045671680086898
100
AcDbArc
 50
270.2030355414965
 51
280.1585185372929
  0
ARC
  5
576A
330
A
100
AcDbEntity
  8
Layer1
  6
Continuous
 62
     7
100
AcDbCircle
 10
323.6162969377719
 20
279.7734030774362
 30
0.0
 40
28.05882024664792
100
AcDbArc
 50
266.6737976942998
 51
273.3262084212998
  0
LINE
  5
576B
330
A
100
AcDbEntity
  8
Layer1
  6
Continuous
 62
     7
100
AcDbLine
 10
366.3248699377718
 20
199.2618030774362
 30
0.0
 11
374.6759039377716
 21
199.2618030774362
 31
0.0
  0
LINE
  5
576C
330
A
100
AcDbEntity
  8
Layer1
  6
Continuous
 62
     7
100
AcDbLine
 10
319.3759019377717
 20
199.2618030774362
 30
0.0
 11
328.0269359377717
 21
199.2618030774362
 31
0.0
  0
LINE
  5
576D
330
A
100
AcDbEntity
  8
Layer1
  6
Continuous
 62
     7
100
AcDbLine
 10
321.9883079377719
 20
251.7618510774362
 30
0.0
 11
319.3759019377717
 21
251.7618510774362
 31
0.0
  0
LINE
  5
576E
330
A
100
AcDbEntity
  8
Layer1
  6
Continuous
 62
     7
100
AcDbLine
 10
374.6759039377716
 20
251.7618510774362
 30
0.0
 11
325.2442859377716
 21
251.7618510774362
 31
0.0
  0
ARC
  5
576F
330
A
100
AcDbEntity
  8
Layer1
  6
Continuous
 62
     7
100
AcDbCircle
 10
319.3759019377717
 20
251.5618500774361
 30
0.0
 40
0.2000010000000608
100
AcDbArc
 50
90.0
 51
180.0
  0
ARC
  5
5770
330
A
100
AcDbEntity
  8
Layer1
  6
Continuous
 62
     7
100
AcDbCircle
 10
319.3759019377717
 20
199.4618010774362
 30
0.0
 40
0.1999980000000206
100
AcDbArc
 50
180.0
 51
270.0
  0
ARC
  5
5771
330
A
100
AcDbEntity
  8
Layer1
  6
Continuous
 62
     7
100
AcDbCircle
 10
374.6759039377716
 20
250.2618510774362
 30
0.0
 40
1.500000000000001
100
AcDbArc
 50
0.0
 51
90.0
  0
ARC
  5
5772
330
A
100
AcDbEntity
  8
Layer1
  6
Continuous
 62
     7
100
AcDbCircle
 10
374.6759039377716
 20
200.7618030774362
 30
0.0
 40
1.500000000000001
100
AcDbArc
 50
270.0
 51
0.0
  0
ARC
  5
5773
330
A
100
AcDbEntity
  8
Layer1
  6
Continuous
 62
     7
100
AcDbCircle
 10
361.3914299377716
 20
175.3002030774362
 30
0.0
 40
24.45415606535648
100
AcDbArc
 50
78.60960211199951
 51
81.34510991209916
  0
ARC
  5
5774
330
A
100
AcDbEntity
  8
Layer1
  6
Continuous
 62
     7
100
AcDbCircle
 10
332.884022937772
 20
175.7507580774362
 30
0.0
 40
23.99739920437094
100
AcDbArc
 50
98.53551983980068
 51
101.4254491745007
  0
ARC
  5
5775
330
A
100
AcDbEntity
  8
Layer1
  6
Continuous
 62
     7
100
AcDbCircle
 10
361.286903937772
 20
174.6052320774361
 30
0.0
 40
25.15710414065302
100
AcDbArc
 50
81.33405478810054
 51
85.8356083311006
  0
ARC
  5
5776
330
A
100
AcDbEntity
  8
Layer1
  6
Continuous
 62
     7
100
AcDbCircle
 10
333.0035609377719
 20
175.0819620774362
 30
0.0
 40
24.67653705421724
100
AcDbArc
 50
94.09965703070012
 51
98.57951845100038
  0
ARC
  5
5777
330
A
100
AcDbEntity
  8
Layer1
  6
Continuous
 62
     7
100
AcDbCircle
 10
361.2255839377717
 20
175.3544070774362
 30
0.0
 40
24.41375754285832
100
AcDbArc
 50
85.5664734613003
 51
87.79224192000012
  0
ARC
  5
5778
330
A
100
AcDbEntity
  8
Layer1
  6
Continuous
 62
     7
100
AcDbCircle
 10
361.2626669377719
 20
178.7434440776362
 30
0.0
 40
21.02601709767078
100
AcDbArc
 50
87.53745197110042
 51
89.59432325929998
  0
ARC
  5
5779
330
A
100
AcDbEntity
  8
Layer1
  6
Continuous
 62
     7
100
AcDbCircle
 10
333.1151879377717
 20
177.9053220774362
 30
0.0
 40
21.86424648910058
100
AcDbArc
 50
90.42072864009917
 51
92.51692122729922
  0
ARC
  5
577A
330
A
100
AcDbEntity
  8
Layer1
  6
Continuous
 62
     7
100
AcDbCircle
 10
333.0327839377719
 20
176.7564450774362
 30
0.0
 40
23.00877858764572
100
AcDbArc
 50
92.18628256060029
 51
94.47168698460078
  0
LINE
  5
577B
330
A
100
AcDbEntity
  8
Layer1
  6
Continuous
 62
     7
100
AcDbLine
 10
333.1708889377719
 20
199.7705670774362
 30
0.0
 11
361.1809139377719
 21
199.7705670774362
 31
0.0
  0
LINE
  5
577C
330
A
100
AcDbEntity
  8
Layer1
  6
Continuous
 62
     7
100
AcDbLine
 10
361.1809139377719
 20
199.7705670774362
 30
0.0
 11
361.4115381963716
 21
199.7689341394362
 31
0.0
  0
LINE
  5
577D
330
A
100
AcDbEntity
  8
Layer1
  6
Continuous
 62
     7
100
AcDbLine
 10
333.1708889377719
 20
199.7705670774362
 30
0.0
 11
332.9546380315719
 21
199.7689790968362
 31
0.0
  0
LINE
  5
577E
330
A
100
AcDbEntity
  8
Layer1
  6
Continuous
 62
     7
100
AcDbLine
 10
328.1303126221719
 20
199.2726076392362
 30
0.0
 11
328.1141395329719
 21
199.2697097278361
 31
0.0
  0
LINE
  5
577F
102
{ACAD_REACTORS
330
5CC5
102
}
330
A
100
AcDbEntity
  8
Layer51
  6
Continuous
 62
     7
100
AcDbLine
 10
284.3259039377717
 20
162.1369993482361
 30
0.0
 11
284.3259039377717
 21
192.5141255774362
 31
0.0
  0
HATCH
  5
5780
330
A
100
AcDbEntity
  8
Layer51
  6
Continuous
 62
     7
100
AcDbHatch
 10
0.0
 20
0.0
 30
0.0
210
0.0
220
0.0
230
1.0
  2
LINE
 70
     0
 71
     0
 91
        1
 92
        1
 93
        4
 72
     1
 10
278.3259050266997
 20
288.886651806649
 11
263.7017584938508
 21
288.886651806649
 72
     1
 10
263.7017584938508
 20
288.886651806649
 11
263.7017584938508
 21
258.5095255774631
 72
     1
 10
263.7017584938508
 20
258.5095255774631
 11
278.3259050266997
 21
258.5095255774631
 72
     1
 10
278.3259050266997
 20
258.5095255774631
 11
278.3259050266997
 21
288.886651806649
 97
        0
 75
     0
 76
     2
 52
45.0
 41
2.0
 77
     0
 78
     1
 53
45.0
 43
122.2150171921717
 44
-86.14403362836384
 45
-4.490128060534576
 46
4.490128060534576
 79
     0
 98
        0
  0
HATCH
  5
5781
330
A
100
AcDbEntity
  8
Layer51
  6
Continuous
 62
     7
100
AcDbHatch
 10
0.0
 20
0.0
 30
0.0
210
0.0
220
0.0
230
1.0
  2
LINE
 70
     0
 71
     0
 91
        1
 92
        1
 93
        5
 72
     1
 10
278.3259050266997
 20
288.886651806649
 11
278.3259050266997
 21
258.5095255774631
 72
     1
 10
278.3259050266997
 20
258.5095255774631
 11
284.3259039376924
 21
258.5095255774631
 72
     1
 10
284.3259039376926
 20
258.5095255774631
 11
284.3259039376926
 21
274.511825577463
 72
     1
 10
284.3259039376926
 20
274.5118255774627
 11
284.3259039376926
 21
288.886651806649
 72
     1
 10
284.3259039376926
 20
288.886651806649
 11
278.3259050267
 21
288.886651806649
 97
        0
 75
     0
 76
     2
 52
315.0
 41
2.0
 77
     0
 78
     1
 53
315.0
 43
122.2150171921717
 44
-86.14403362836384
 45
4.490128060534576
 46
4.490128060534576
 79
     0
 98
        0
  0
LINE
  5
5782
330
A
100
AcDbEntity
  8
Layer51
  6
Continuous
 62
     7
100
AcDbLine
 10
284.3259039377717
 20
258.5095255774361
 30
0.0
 11
284.3259039377717
 21
288.8866518066362
 31
0.0
  0
LINE
  5
5783
330
A
100
AcDbEntity
  8
Layer51
  6
Continuous
 62
     7
100
AcDbLine
 10
284.3259039377717
 20
258.5095255774361
 30
0.0
 11
263.7017584937716
 21
258.5095255774361
 31
0.0
  0
LINE
  5
5784
330
A
100
AcDbEntity
  8
Layer51
  6
Continuous
 62
     7
100
AcDbLine
 10
278.3259050267716
 20
258.5095255774361
 30
0.0
 11
278.3259050267716
 21
288.8866518066362
 31
0.0
  0
HATCH
  5
5785
330
A
100
AcDbEntity
  8
Layer51
  6
Continuous
 62
     7
100
AcDbHatch
 10
0.0
 20
0.0
 30
0.0
210
0.0
220
0.0
230
1.0
  2
LINE
 70
     0
 71
     0
 91
        1
 92
        1
 93
        4
 72
     1
 10
278.3259050266997
 20
162.1369993482772
 11
278.3259050266997
 21
192.514125577463
 72
     1
 10
278.3259050266997
 20
192.5141255774629
 11
263.7017584938508
 21
192.5141255774629
 72
     1
 10
263.7017584938508
 20
192.5141255774629
 11
263.7017584938508
 21
162.1369993482772
 72
     1
 10
263.7017584938508
 20
162.1369993482772
 11
278.3259050266997
 21
162.1369993482772
 97
        0
 75
     0
 76
     2
 52
45.0
 41
2.0
 77
     0
 78
     1
 53
45.0
 43
122.2150171921717
 44
-86.14403362836384
 45
-4.490128060534576
 46
4.490128060534576
 79
     0
 98
        0
  0
HATCH
  5
5786
330
A
100
AcDbEntity
  8
Layer51
  6
Continuous
 62
     7
100
AcDbHatch
 10
0.0
 20
0.0
 30
0.0
210
0.0
220
0.0
230
1.0
  2
LINE
 70
     0
 71
     0
 91
        1
 92
        1
 93
        5
 72
     1
 10
278.3259050266997
 20
162.1369993482772
 11
284.3259039376924
 21
162.1369993482772
 72
     1
 10
284.3259039376926
 20
162.1369993482772
 11
284.3259039376926
 21
176.5118255774632
 72
     1
 10
284.3259039376926
 20
176.5118255774632
 11
284.3259039376926
 21
192.5141255774629
 72
     1
 10
284.3259039376926
 20
192.5141255774629
 11
278.3259050267
 21
192.5141255774629
 72
     1
 10
278.3259050266997
 20
192.5141255774629
 11
278.3259050266997
 21
162.1369993482772
 97
        0
 75
     0
 76
     2
 52
315.0
 41
2.0
 77
     0
 78
     1
 53
315.0
 43
122.2150171921717
 44
-86.14403362836384
 45
4.490128060534576
 46
4.490128060534576
 79
     0
 98
        0
  0
LINE
  5
5787
330
A
100
AcDbEntity
  8
Layer51
  6
Continuous
 62
     7
100
AcDbLine
 10
284.3259039377717
 20
176.5118255774362
 30
0.0
 11
284.3259039377717
 21
162.1369993482361
 31
0.0
  0
LINE
  5
5788
330
A
100
AcDbEntity
  8
Layer51
  6
Continuous
 62
     7
100
AcDbLine
 10
284.3259039377717
 20
192.5141255774362
 30
0.0
 11
263.7017584937716
 21
192.5141255774362
 31
0.0
  0
LINE
  5
5789
330
A
100
AcDbEntity
  8
Layer51
  6
Continuous
 62
     7
100
AcDbLine
 10
278.3259050267716
 20
192.5141255774362
 30
0.0
 11
278.3259050267716
 21
162.1369993482361
 31
0.0
  0
LINE
  5
578A
330
A
100
AcDbEntity
  8
Layer4
  6
Continuous
 62
     7
100
AcDbLine
 10
278.4032539377718
 20
214.0118295774362
 30
0.0
 11
278.4032539377718
 21
237.0118215774361
 31
0.0
  0
CIRCLE
  5
578B
330
A
100
AcDbEntity
  8
Standard
  6
Continuous
 62
     7
100
AcDbCircle
 10
101.6194971383658
 20
225.5118255774362
 30
0.0
 40
26.25002469845776
  0
CIRCLE
  5
578C
102
{ACAD_REACTORS
330
57FE
102
}
330
A
100
AcDbEntity
  8
Standard
  6
Continuous
 62
     7
100
AcDbCircle
 10
101.6194971383658
 20
225.5118255774362
 30
0.0
 40
43.2
  0
LINE
  5
578D
330
A
100
AcDbEntity
  8
Standard
  6
Continuous
 62
     7
100
AcDbLine
 10
75.56947243996558
 20
405.9867627542566
 30
0.0
 11
127.6695218367657
 21
405.9867627542563
 31
0.0
  0
LINE
  5
578E
330
A
100
AcDbEntity
  8
Standard
  6
Continuous
 62
     7
100
AcDbLine
 10
126.3695218367658
 20
348.9867627542563
 30
0.0
 11
76.86947243996576
 21
348.9867627542566
 31
0.0
  0
LINE
  5
578F
330
A
100
AcDbEntity
  8
Standard
  6
Continuous
 62
     7
100
AcDbLine
 10
75.36947243996576
 20
405.7867627542565
 30
0.0
 11
75.36947243996576
 21
350.4867627542566
 31
0.0
  0
LINE
  5
5790
330
A
100
AcDbEntity
  8
Standard
  6
Continuous
 62
     7
100
AcDbLine
 10
127.8695218367658
 20
350.4867627542563
 30
0.0
 11
127.8695218367658
 21
405.7867627542563
 31
0.0
  0
ARC
  5
5791
330
A
100
AcDbEntity
  8
Standard
  6
Continuous
 62
     7
100
AcDbCircle
 10
127.6695218367657
 20
405.7867627542563
 30
0.0
 40
0.1999999999999988
100
AcDbArc
 50
0.0
 51
90.0
  0
ARC
  5
5792
330
A
100
AcDbEntity
  8
Standard
  6
Continuous
 62
     7
100
AcDbCircle
 10
75.56947243996558
 20
405.7867627542565
 30
0.0
 40
0.2000000000000058
100
AcDbArc
 50
90.0
 51
180.0
  0
ARC
  5
5793
330
A
100
AcDbEntity
  8
Standard
  6
Continuous
 62
     7
100
AcDbCircle
 10
76.86947243996576
 20
350.4867627542566
 30
0.0
 40
1.500000000000001
100
AcDbArc
 50
180.0
 51
270.0
  0
ARC
  5
5794
330
A
100
AcDbEntity
  8
Standard
  6
Continuous
 62
     7
100
AcDbCircle
 10
126.3695218367658
 20
350.4867627542563
 30
0.0
 40
1.500000000000001
100
AcDbArc
 50
270.0
 51
0.0
  0
LINE
  5
5795
330
A
100
AcDbEntity
  8
Standard
  6
Continuous
 62
     7
100
AcDbLine
 10
142.8194971383656
 20
427.1367627542564
 30
0.0
 11
60.41949713836567
 21
427.1367627542567
 31
0.0
  0
LINE
  5
5796
330
A
100
AcDbEntity
  8
Standard
  6
Continuous
 62
     7
100
AcDbLine
 10
144.8194971383656
 20
440.8367627542563
 30
0.0
 11
58.41949713836567
 21
440.8367627542565
 31
0.0
  0
LINE
  5
5797
330
A
100
AcDbEntity
  8
Standard
  6
Continuous
 62
     7
100
AcDbLine
 10
125.8694971383658
 20
407.2367627542563
 30
0.0
 11
77.36949713836577
 21
407.2367627542566
 31
0.0
  0
ARC
  5
5798
330
A
100
AcDbEntity
  8
Standard
  6
Continuous
 62
     7
100
AcDbCircle
 10
142.8194971383656
 20
429.1367627542564
 30
0.0
 40
1.999999999999995
100
AcDbArc
 50
270.0
 51
0.0
  0
ARC
  5
5799
330
A
100
AcDbEntity
  8
Standard
  6
Continuous
 62
     7
100
AcDbCircle
 10
60.41949713836567
 20
429.1367627542567
 30
0.0
 40
2.000000000000002
100
AcDbArc
 50
180.0
 51
270.0
  0
LINE
  5
579A
330
A
100
AcDbEntity
  8
Standard
  6
Continuous
 62
     7
100
AcDbLine
 10
144.8194971383656
 20
429.1367627542564
 30
0.0
 11
144.8194971383656
 21
440.8367627542563
 31
0.0
  0
LINE
  5
579B
330
A
100
AcDbEntity
  8
Standard
  6
Continuous
 62
     7
100
AcDbLine
 10
58.41949713836567
 20
440.8367627542565
 30
0.0
 11
58.41949713836567
 21
429.1367627542567
 31
0.0
  0
ARC
  5
579C
330
A
100
AcDbEntity
  8
Standard
  6
Continuous
 62
     7
100
AcDbCircle
 10
125.8694971383658
 20
409.2367627542563
 30
0.0
 40
2.000000000000002
100
AcDbArc
 50
270.0
 51
0.0
  0
ARC
  5
579D
330
A
100
AcDbEntity
  8
Standard
  6
Continuous
 62
     7
100
AcDbCircle
 10
77.36949713836577
 20
409.2367627542566
 30
0.0
 40
1.999999999999998
100
AcDbArc
 50
180.0
 51
270.0
  0
LINE
  5
579E
330
A
100
AcDbEntity
  8
Standard
  6
Continuous
 62
     7
100
AcDbLine
 10
127.8694971383658
 20
409.2367627542563
 30
0.0
 11
127.8694971383658
 21
425.1367627542564
 31
0.0
  0
LINE
  5
579F
330
A
100
AcDbEntity
  8
Standard
  6
Continuous
 62
     7
100
AcDbLine
 10
75.36949713836577
 20
425.1367627542567
 30
0.0
 11
75.36949713836577
 21
409.2367627542566
 31
0.0
  0
ARC
  5
57A0
330
A
100
AcDbEntity
  8
Standard
  6
Continuous
 62
     7
100
AcDbCircle
 10
129.8694971383658
 20
425.1367627542564
 30
0.0
 40
2.000000000000002
100
AcDbArc
 50
90.0
 51
180.0
  0
ARC
  5
57A1
330
A
100
AcDbEntity
  8
Standard
  6
Continuous
 62
     7
100
AcDbCircle
 10
73.36949713836577
 20
425.1367627542567
 30
0.0
 40
1.999999999999995
100
AcDbArc
 50
0.0
 51
90.0
  0
LINE
  5
57A2
330
A
100
AcDbEntity
  8
Standard
  6
Continuous
 62
     7
100
AcDbLine
 10
115.8194971383656
 20
406.3367627542563
 30
0.0
 11
87.41949713836573
 21
406.3367627542565
 31
0.0
  0
LINE
  5
57A3
330
A
100
AcDbEntity
  8
Standard
  6
Continuous
 62
     7
100
AcDbLine
 10
115.8194971383656
 20
406.3367627542563
 30
0.0
 11
115.8194971383656
 21
407.2367627542563
 31
0.0
  0
LINE
  5
57A4
330
A
100
AcDbEntity
  8
Standard
  6
Continuous
 62
     7
100
AcDbLine
 10
87.41949713836573
 20
407.2367627542566
 30
0.0
 11
87.41949713836573
 21
406.3367627542565
 31
0.0
  0
LINE
  5
57A5
330
A
100
AcDbEntity
  8
Standard
  6
Continuous
 62
     7
100
AcDbLine
 10
87.61949713836577
 20
406.3367627542565
 30
0.0
 11
87.96949713836568
 21
405.9867627542566
 31
0.0
  0
LINE
  5
57A6
330
A
100
AcDbEntity
  8
Standard
  6
Continuous
 62
     7
100
AcDbLine
 10
115.2694971383659
 20
405.9867627542563
 30
0.0
 11
115.6194971383658
 21
406.3367627542563
 31
0.0
  0
LINE
  5
57A7
330
A
100
AcDbEntity
  8
Layer4
  6
Continuous
 62
     7
100
AcDbLine
 10
113.1194931383658
 20
446.7594127542562
 30
0.0
 11
113.1194931383658
 21
440.8367627542563
 31
0.0
  0
LINE
  5
57A8
330
A
100
AcDbEntity
  8
Layer4
  6
Continuous
 62
     7
100
AcDbLine
 10
112.1194921383659
 20
447.3367627542563
 30
0.0
 11
113.1194931383658
 21
446.7594127542562
 31
0.0
  0
LINE
  5
57A9
330
A
100
AcDbEntity
  8
Layer4
  6
Continuous
 62
     7
100
AcDbLine
 10
112.1194921383659
 20
460.0367627542563
 30
0.0
 11
112.1194921383659
 21
447.3367627542563
 31
0.0
  0
LINE
  5
57AA
330
A
100
AcDbEntity
  8
Layer4
  6
Continuous
 62
     7
100
AcDbLine
 10
113.3694931383658
 20
460.7584507542564
 30
0.0
 11
112.1194921383659
 21
460.0367627542563
 31
0.0
  0
LINE
  5
57AB
330
A
100
AcDbEntity
  8
Layer4
  6
Continuous
 62
     7
100
AcDbLine
 10
113.3694931383658
 20
460.7584507542564
 30
0.0
 11
113.3694931383658
 21
464.4530997542562
 31
0.0
  0
SPLINE
  5
57AC
330
A
100
AcDbEntity
  8
Layer4
  6
Continuous
 62
     7
100
AcDbSpline
210
0.0
220
0.0
230
1.0
 70
     8
 71
     3
 72
    10
 73
     6
 74
     0
 42
0.000000001
 43
0.0000000001
 40
0.0
 40
0.0
 40
0.0
 40
0.0
 40
0.5
 40
0.5
 40
1.0
 40
1.0
 40
1.0
 40
1.0
 10
113.3694931383926
 20
464.4530997543355
 30
0.0
 10
113.3694931383926
 20
464.5618047543356
 30
0.0
 10
113.4061131383929
 20
464.6707077543357
 30
0.0
 10
113.5400501383925
 20
464.8449437543355
 30
0.0
 10
113.6340611383927
 20
464.9076537543357
 30
0.0
 10
113.7400831383926
 20
464.9360627543357
 30
0.0
  0
LINE
  5
57AD
330
A
100
AcDbEntity
  8
Layer4
  6
Continuous
 62
     7
100
AcDbLine
 10
117.1194941383657
 20
465.8415727542564
 30
0.0
 11
113.7400831383658
 21
464.9360627542563
 31
0.0
  0
LINE
  5
57AE
330
A
100
AcDbEntity
  8
Layer4
  6
Continuous
 62
     7
100
AcDbLine
 10
117.1194971383658
 20
475.3367627542563
 30
0.0
 11
117.1194941383657
 21
465.8415727542564
 31
0.0
  0
LINE
  5
57AF
330
A
100
AcDbEntity
  8
Layer4
  6
Continuous
 62
     7
100
AcDbLine
 10
86.11949713836577
 20
475.3367627542565
 30
0.0
 11
117.1194971383658
 21
475.3367627542563
 31
0.0
  0
LINE
  5
57B0
330
A
100
AcDbEntity
  8
Layer4
  6
Continuous
 62
     7
100
AcDbLine
 10
90.11950113836576
 20
440.8367627542563
 30
0.0
 11
90.11950113836576
 21
446.7594127542562
 31
0.0
  0
LINE
  5
57B1
330
A
100
AcDbEntity
  8
Layer4
  6
Continuous
 62
     7
100
AcDbLine
 10
90.11950113836576
 20
446.7594127542562
 30
0.0
 11
91.11950213836565
 21
447.3367627542563
 31
0.0
  0
LINE
  5
57B2
330
A
100
AcDbEntity
  8
Layer4
  6
Continuous
 62
     7
100
AcDbLine
 10
91.11950213836565
 20
447.3367627542563
 30
0.0
 11
91.11950213836565
 21
460.0367627542563
 31
0.0
  0
LINE
  5
57B3
330
A
100
AcDbEntity
  8
Layer4
  6
Continuous
 62
     7
100
AcDbLine
 10
91.11950213836565
 20
460.0367627542563
 30
0.0
 11
89.86950113836576
 21
460.7584507542564
 31
0.0
  0
LINE
  5
57B4
330
A
100
AcDbEntity
  8
Layer4
  6
Continuous
 62
     7
100
AcDbLine
 10
89.86950113836576
 20
464.4530997542562
 30
0.0
 11
89.86950113836576
 21
460.7584507542564
 31
0.0
  0
SPLINE
  5
57B5
330
A
100
AcDbEntity
  8
Layer4
  6
Continuous
 62
     7
100
AcDbSpline
210
0.0
220
0.0
230
1.0
 70
     8
 71
     3
 72
    10
 73
     6
 74
     0
 42
0.000000001
 43
0.0000000001
 40
0.0
 40
0.0
 40
0.0
 40
0.0
 40
0.5
 40
0.5
 40
1.0
 40
1.0
 40
1.0
 40
1.0
 10
89.4989111383926
 20
464.9360627543357
 30
0.0
 10
89.60398113839267
 20
464.9079087543356
 30
0.0
 10
89.69978413839283
 20
464.8438837543355
 30
0.0
 10
89.83215213839287
 20
464.6716237543357
 30
0.0
 10
89.8695011383926
 20
464.5630287543355
 30
0.0
 10
89.8695011383926
 20
464.4530997543355
 30
0.0
  0
LINE
  5
57B6
330
A
100
AcDbEntity
  8
Layer4
  6
Continuous
 62
     7
100
AcDbLine
 10
89.49891113836577
 20
464.9360627542563
 30
0.0
 11
86.11950013836588
 21
465.8415727542566
 31
0.0
  0
LINE
  5
57B7
330
A
100
AcDbEntity
  8
Layer4
  6
Continuous
 62
     7
100
AcDbLine
 10
86.11950013836588
 20
465.8415727542566
 30
0.0
 11
86.11949713836577
 21
475.3367627542565
 31
0.0
  0
LINE
  5
57B8
330
A
100
AcDbEntity
  8
Layer4
  6
Continuous
 62
     7
100
AcDbLine
 10
91.03949713836585
 20
440.8367627542563
 30
0.0
 11
91.03949713836585
 21
447.2905719138563
 31
0.0
  0
LINE
  5
57B9
330
A
100
AcDbEntity
  8
Layer4
  6
Continuous
 62
     7
100
AcDbLine
 10
112.1994971383657
 20
440.8367627542563
 30
0.0
 11
112.1994971383657
 21
447.2905719138563
 31
0.0
  0
LINE
  5
57BA
330
A
100
AcDbEntity
  8
Layer4
  6
Continuous
 62
     7
100
AcDbLine
 10
89.86950113836576
 20
460.7584507542564
 30
0.0
 11
113.3694931383658
 21
460.7584507542564
 31
0.0
  0
LINE
  5
57BB
330
A
100
AcDbEntity
  8
Layer4
  6
Continuous
 62
     7
100
AcDbLine
 10
91.11950213836565
 20
460.0367627542563
 30
0.0
 11
112.1194921383659
 21
460.0367627542563
 31
0.0
  0
LINE
  5
57BC
330
A
100
AcDbEntity
  8
Layer4
  6
Continuous
 62
     7
100
AcDbLine
 10
90.01260103956577
 20
464.7742513822562
 30
0.0
 11
113.1421064773659
 21
464.7742513822562
 31
0.0
  0
LINE
  5
57BD
330
A
100
AcDbEntity
  8
Layer4
  6
Continuous
 62
     7
100
AcDbLine
 10
86.11949413836567
 20
465.8415727542566
 30
0.0
 11
117.1194941383657
 21
465.8415727542564
 31
0.0
  0
LINE
  5
57BE
330
A
100
AcDbEntity
  8
Layer4
  6
Continuous
 62
     7
100
AcDbLine
 10
91.11950213836565
 20
447.3367627542563
 30
0.0
 11
112.1194921383659
 21
447.3367627542563
 31
0.0
  0
LINE
  5
57BF
330
A
100
AcDbEntity
  8
Layer4
  6
Continuous
 62
     7
100
AcDbLine
 10
90.11950113836576
 20
446.7594127542562
 30
0.0
 11
113.1194931383658
 21
446.7594127542562
 31
0.0
  0
DIMENSION
  5
57C1
330
A
100
AcDbEntity
  8
DIM
100
AcDbDimension
  2
*D38
 10
376.1759039377716
 20
136.1049489418361
 30
0.0
 11
330.2509027575716
 21
136.1049489418361
 31
0.0
 70
   160
  1
\A1;<>
 71
     5
 42
91.84999999999991
 73
     0
 74
     0
 75
     0
  3
tfrom線あり
100
AcDbAlignedDimension
 13
284.3259039377717
 23
162.1369993482361
 33
0.0
 14
376.1759039377716
 24
200.7618030774362
 34
0.0
100
AcDbRotatedDimension
  0
DIMENSION
  5
57FC
102
{ACAD_REACTORS
330
57FE
102
}
102
{ACAD_XDICTIONARY
360
57FD
102
}
330
A
100
AcDbEntity
  8
DIM
 48
0.05
100
AcDbDimension
  2
*D41
 10
39.64042108272167
 20
182.3118255774362
 30
0.0
 11
32.14042108272167
 21
225.5118255774362
 31
0.0
 70
    32
 71
     5
 42
86.39999999999998
 73
     0
 74
     0
 75
     0
  3
tfrom線あり
100
AcDbAlignedDimension
 13
101.6194971383658
 23
268.7118255774362
 33
0.0
 14
101.6194971383658
 24
182.3118255774362
 34
0.0
 50
90.0
100
AcDbRotatedDimension
  0
MTEXT
  5
5A8A
330
A
100
AcDbEntity
  8
TEMPLATE
390
1D
100
AcDbMText
 10
26.44042890954615
 20
45.69862922942457
 30
0.0
 40
4.8865234375
 41
0.0
 46
4.9598212890625
 71
     1
 72
     1
  1
{クローム}
  7
ＭＳ ゴシック
 73
     1
 44
0.7828267384257843
1001
ACAD
1000
ACAD_MTEXT_DEFINED_HEIGHT_BEGIN
1070
    46
1040
4.9598212890625
1000
ACAD_MTEXT_DEFINED_HEIGHT_END
  0
MTEXT
  5
5B1C
330
A
100
AcDbEntity
  8
DIM
390
1D
100
AcDbMText
 10
239.1320340836449
 20
291.4302533702632
 30
0.0
 40
4.8865234375
 41
0.0
 46
4.8865234375
 71
     1
 72
     1
  1
{\fＭＳ ゴシック|b0|i0|c1|p0;M24x1}
  7
ＭＳ ゴシック
 73
     1
 44
0.7828267384257843
1001
ACAD
1000
ACAD_MTEXT_DEFINED_HEIGHT_BEGIN
1070
    46
1040
4.8865234375
1000
ACAD_MTEXT_DEFINED_HEIGHT_END
  0
LINE
  5
5B1D
330
A
100
AcDbEntity
  8
DIM
 48
0.05
100
AcDbLine
 10
249.8259039377717
 20
230.7261089358656
 30
0.0
 11
236.2674439935961
 21
283.4560660260994
 31
0.0
  0
LINE
  5
5B1E
330
A
100
AcDbEntity
  8
DIM
 48
0.05
100
AcDbLine
 10
236.2674439935961
 20
283.4560660260994
 30
0.0
 11
257.2894733497718
 21
283.4560660260994
 31
0.0
  0
LINE
  5
5B1F
330
A
100
AcDbEntity
  8
MODEL
100
AcDbLine
 10
226.3259039377717
 20
263.0118255774362
 30
0.0
 11
194.3259039377717
 21
263.0118255774362
 31
0.0
  0
LINE
  5
5B20
330
A
100
AcDbEntity
  8
MODEL
100
AcDbLine
 10
228.8011039377718
 20
261.5818255774363
 30
0.0
 11
228.8011039377718
 21
247.1758255774364
 31
0.0
  0
LINE
  5
5B21
330
A
100
AcDbEntity
  8
MODEL
100
AcDbLine
 10
226.3259039377717
 20
263.0118255774362
 30
0.0
 11
228.8011039377718
 21
261.5818255774363
 31
0.0
  0
LINE
  5
5B22
330
A
100
AcDbEntity
  8
MODEL
100
AcDbLine
 10
194.3259039377717
 20
263.0118255774362
 30
0.0
 11
191.8507039377716
 21
261.5818255774363
 31
0.0
  0
LINE
  5
5B23
330
A
100
AcDbEntity
  8
MODEL
100
AcDbLine
 10
191.8507039377716
 20
261.5818255774363
 30
0.0
 11
191.8507039377716
 21
244.7218255774362
 31
0.0
  0
LINE
  5
5B24
330
A
100
AcDbEntity
  8
MODEL
100
AcDbLine
 10
228.8011039377718
 20
189.441825577436
 30
0.0
 11
228.8011039377718
 21
199.0118255774362
 31
0.0
  0
LINE
  5
5B25
330
A
100
AcDbEntity
  8
MODEL
100
AcDbLine
 10
226.3259039377717
 20
188.0118255774362
 30
0.0
 11
228.8011039377718
 21
189.441825577436
 31
0.0
  0
LINE
  5
5B26
330
A
100
AcDbEntity
  8
MODEL
100
AcDbLine
 10
226.3259039377717
 20
188.0118255774362
 30
0.0
 11
194.3259039377717
 21
188.0118255774362
 31
0.0
  0
LINE
  5
5B27
330
A
100
AcDbEntity
  8
MODEL
100
AcDbLine
 10
194.3259039377717
 20
188.0118255774362
 30
0.0
 11
191.8507039377716
 21
189.441825577436
 31
0.0
  0
LINE
  5
5B28
330
A
100
AcDbEntity
  8
MODEL
100
AcDbLine
 10
191.8507039377716
 20
189.441825577436
 30
0.0
 11
191.8507039377716
 21
205.0118255774362
 31
0.0
  0
LINE
  5
5B29
330
A
100
AcDbEntity
  8
MODEL
100
AcDbLine
 10
228.8011039377718
 20
189.441825577436
 30
0.0
 11
228.8011039377718
 21
203.8478255774364
 31
0.0
  0
LINE
  5
5B2A
330
A
100
AcDbEntity
  8
MODEL
100
AcDbLine
 10
201.0883039377717
 20
261.5818255774363
 30
0.0
 11
201.0883039377717
 21
244.7218255774362
 31
0.0
  0
LINE
  5
5B2B
330
A
100
AcDbEntity
  8
MODEL
100
AcDbLine
 10
219.5635039377714
 20
261.5818255774363
 30
0.0
 11
219.5635039377714
 21
244.7218255774362
 31
0.0
  0
LINE
  5
5B2C
330
A
100
AcDbEntity
  8
MODEL
100
AcDbLine
 10
219.5635039377714
 20
189.441825577436
 30
0.0
 11
219.5635039377714
 21
206.3018255774362
 31
0.0
  0
LINE
  5
5B2D
330
A
100
AcDbEntity
  8
MODEL
100
AcDbLine
 10
201.0883039377717
 20
189.441825577436
 30
0.0
 11
201.0883039377717
 21
206.3018255774362
 31
0.0
  0
LINE
  5
5B2E
330
A
100
AcDbEntity
  8
MODEL
100
AcDbLine
 10
212.3259039377717
 20
218.0118255774362
 30
0.0
 11
212.3259039377717
 21
224.2618255774362
 31
0.0
  0
LINE
  5
5B2F
330
A
100
AcDbEntity
  8
MODEL
100
AcDbLine
 10
208.3259039377717
 20
218.0118255774362
 30
0.0
 11
208.3259039377717
 21
224.2618255774362
 31
0.0
  0
LINE
  5
5B30
330
A
100
AcDbEntity
  8
MODEL
100
AcDbLine
 10
210.3259039377717
 20
233.0118255774362
 30
0.0
 11
212.3259039377717
 21
229.5478255774362
 31
0.0
  0
LINE
  5
5B31
330
A
100
AcDbEntity
  8
MODEL
100
AcDbLine
 10
210.3259039377717
 20
233.0118255774362
 30
0.0
 11
208.3259039377717
 21
229.5478255774362
 31
0.0
  0
LINE
  5
5B32
330
A
100
AcDbEntity
  8
MODEL
100
AcDbLine
 10
211.0759039377717
 20
225.5118255774362
 30
0.0
 11
211.0759039377717
 21
229.5478255774362
 31
0.0
  0
LINE
  5
5B33
330
A
100
AcDbEntity
  8
MODEL
100
AcDbLine
 10
209.5759039377717
 20
225.5118255774362
 30
0.0
 11
209.5759039377717
 21
229.5478255774362
 31
0.0
  0
LINE
  5
5B34
330
A
100
AcDbEntity
  8
MODEL
100
AcDbLine
 10
211.0759039377717
 20
225.5118255774362
 30
0.0
 11
212.3259039377717
 21
224.2618255774362
 31
0.0
  0
LINE
  5
5B35
330
A
100
AcDbEntity
  8
MODEL
100
AcDbLine
 10
209.5759039377717
 20
225.5118255774362
 30
0.0
 11
208.3259039377717
 21
224.2618255774362
 31
0.0
  0
LINE
  5
5B36
330
A
100
AcDbEntity
  8
MODEL
100
AcDbLine
 10
210.3259039377717
 20
220.0118255774362
 30
0.0
 11
208.3259039377717
 21
218.0118255774362
 31
0.0
  0
LINE
  5
5B37
330
A
100
AcDbEntity
  8
MODEL
100
AcDbLine
 10
210.3259039377717
 20
220.0118255774362
 30
0.0
 11
212.3259039377717
 21
218.0118255774362
 31
0.0
  0
LINE
  5
5B38
330
A
100
AcDbEntity
  8
MODEL
100
AcDbLine
 10
212.3259039377717
 20
229.5478255774362
 30
0.0
 11
211.0759039377717
 21
229.5478255774362
 31
0.0
  0
LINE
  5
5B39
330
A
100
AcDbEntity
  8
MODEL
100
AcDbLine
 10
209.5759039377717
 20
229.5478255774362
 30
0.0
 11
208.3259039377717
 21
229.5478255774362
 31
0.0
  0
LINE
  5
5B3A
330
A
100
AcDbEntity
  8
MODEL
100
AcDbLine
 10
190.8259039377717
 20
240.5118255774362
 30
0.0
 11
190.8259039377717
 21
210.5118255774362
 31
0.0
  0
LINE
  5
5B3B
330
A
100
AcDbEntity
  8
MODEL
100
AcDbLine
 10
191.5509039377716
 20
240.5118255774362
 30
0.0
 11
190.8259039377717
 21
240.5118255774362
 31
0.0
  0
LINE
  5
5B3C
330
A
100
AcDbEntity
  8
MODEL
100
AcDbLine
 10
191.5509039377716
 20
210.5118255774362
 30
0.0
 11
190.8259039377717
 21
210.5118255774362
 31
0.0
  0
LINE
  5
5B3D
330
A
100
AcDbEntity
  8
MODEL
100
AcDbLine
 10
224.2741039377719
 20
242.3278255774364
 30
0.0
 11
199.9271039377717
 21
242.3278255774364
 31
0.0
  0
LINE
  5
5B3E
330
A
100
AcDbEntity
  8
MODEL
100
AcDbLine
 10
219.5635039377714
 20
244.7218255774362
 30
0.0
 11
191.6951039377717
 21
244.7218255774362
 31
0.0
  0
LINE
  5
5B3F
330
A
100
AcDbEntity
  8
MODEL
100
AcDbLine
 10
243.3259039377717
 20
209.5118255774362
 30
0.0
 11
242.8259039377717
 21
209.0118255774362
 31
0.0
  0
LINE
  5
5B40
330
A
100
AcDbEntity
  8
MODEL
100
AcDbLine
 10
234.3259039377717
 20
242.8618255774363
 30
0.0
 11
234.3259039377717
 21
208.1618255774363
 31
0.0
  0
LINE
  5
5B41
330
A
100
AcDbEntity
  8
MODEL
100
AcDbLine
 10
243.3259039377717
 20
241.5118255774362
 30
0.0
 11
242.8259039377717
 21
242.0118255774362
 31
0.0
  0
LINE
  5
5B42
330
A
100
AcDbEntity
  8
MODEL
100
AcDbLine
 10
242.8259039377717
 20
242.0118255774362
 30
0.0
 11
242.8259039377717
 21
209.0118255774362
 31
0.0
  0
LINE
  5
5B43
330
A
100
AcDbEntity
  8
MODEL
100
AcDbLine
 10
219.5635039377714
 20
206.3018255774362
 30
0.0
 11
191.6951039377717
 21
206.3018255774362
 31
0.0
  0
LINE
  5
5B44
330
A
100
AcDbEntity
  8
MODEL
100
AcDbLine
 10
224.2741039377719
 20
208.6958255774364
 30
0.0
 11
199.9271039377717
 21
208.6958255774364
 31
0.0
  0
LINE
  5
5B45
330
A
100
AcDbEntity
  8
MODEL
100
AcDbLine
 10
242.8259039377717
 20
242.0118255774362
 30
0.0
 11
234.3259039377717
 21
242.0118255774362
 31
0.0
  0
LINE
  5
5B46
330
A
100
AcDbEntity
  8
MODEL
100
AcDbLine
 10
242.8259039377717
 20
209.0118255774362
 30
0.0
 11
234.3259039377717
 21
209.0118255774362
 31
0.0
  0
ARC
  5
5B47
330
A
100
AcDbEntity
  8
MODEL
100
AcDbCircle
 10
196.4694899377716
 20
254.8332375774363
 30
0.0
 40
8.178624
100
AcDbArc
 50
55.61582200000052
 51
115.6158740000009
  0
ARC
  5
5B48
330
A
100
AcDbEntity
  8
MODEL
100
AcDbCircle
 10
224.1823179377718
 20
254.8332375774363
 30
0.0
 40
8.178624
100
AcDbArc
 50
64.3844259999987
 51
124.3844790000009
  0
ARC
  5
5B49
330
A
100
AcDbEntity
  8
MODEL
100
AcDbCircle
 10
210.3259039377717
 20
232.4409635774362
 30
0.0
 40
30.570878
100
AcDbArc
 50
72.41214600000019
 51
107.588155
  0
ARC
  5
5B4A
330
A
100
AcDbEntity
  8
MODEL
100
AcDbCircle
 10
224.1823179377718
 20
196.1904135774364
 30
0.0
 40
8.178624
100
AcDbArc
 50
235.615668000002
 51
295.6157209999989
  0
ARC
  5
5B4B
330
A
100
AcDbEntity
  8
MODEL
100
AcDbCircle
 10
210.3259039377717
 20
218.5826875774362
 30
0.0
 40
30.570878
100
AcDbArc
 50
252.4119949999994
 51
287.5880049999999
  0
ARC
  5
5B4C
330
A
100
AcDbEntity
  8
MODEL
100
AcDbCircle
 10
196.4694899377716
 20
196.1904135774364
 30
0.0
 40
8.178624
100
AcDbArc
 50
244.3842790000012
 51
304.3843319999979
  0
ARC
  5
5B4D
330
A
100
AcDbEntity
  8
MODEL
100
AcDbCircle
 10
691.3259039377715
 20
225.5118255774361
 30
0.0
 40
500.0
100
AcDbArc
 50
177.7981469999999
 51
182.3497129999995
  0
ARC
  5
5B4E
330
A
100
AcDbEntity
  8
MODEL
100
AcDbCircle
 10
216.3259039377717
 20
225.5118255774362
 30
0.0
 40
25.0
100
AcDbArc
 50
299.9344389999994
 51
316.0545189999992
  0
ARC
  5
5B4F
330
A
100
AcDbEntity
  8
MODEL
100
AcDbCircle
 10
228.8011079377718
 20
228.5734095774362
 30
0.0
 40
18.603326
100
AcDbArc
 50
90.00014300000001
 51
119.772608
  0
ARC
  5
5B50
330
A
100
AcDbEntity
  8
MODEL
100
AcDbCircle
 10
216.3259039377717
 20
225.5118255774362
 30
0.0
 40
25.0
100
AcDbArc
 50
43.94562800000041
 51
60.06570800000097
  0
ARC
  5
5B51
330
A
100
AcDbEntity
  8
MODEL
100
AcDbCircle
 10
228.8011079377718
 20
222.4502415774361
 30
0.0
 40
18.603326
100
AcDbArc
 50
240.2275349999989
 51
270.0
  0
ARC
  5
5B52
330
A
100
AcDbEntity
  8
MODEL
100
AcDbCircle
 10
212.7637099377716
 20
225.5118255774362
 30
0.0
 40
20.377374
100
AcDbArc
 50
289.4931609999993
 51
70.50698600000032
  0
ARC
  5
5B53
330
A
100
AcDbEntity
  8
MODEL
100
AcDbCircle
 10
199.9270539377716
 20
257.6761935774364
 30
0.0
 40
15.349218
100
AcDbArc
 50
237.5668530000002
 51
270.0
  0
ARC
  5
5B54
330
A
100
AcDbEntity
  8
MODEL
100
AcDbCircle
 10
199.9270539377716
 20
193.3474575774364
 30
0.0
 40
15.349218
100
AcDbArc
 50
89.99985699999937
 51
122.432996
  0
DIMENSION
  5
5B55
330
A
100
AcDbEntity
  8
DIM
 48
0.05
100
AcDbDimension
  2
*D45
 10
177.6819284827693
 20
188.0118255774362
 30
0.0
 11
177.6819284827693
 21
225.5118255774362
 31
0.0
 70
   160
 71
     5
 42
75.0
 73
     0
 74
     0
 75
     0
  3
tfrom線あり
100
AcDbAlignedDimension
 13
194.3259039377717
 23
263.0118255774362
 33
0.0
 14
194.3259039377717
 24
188.0118255774362
 34
0.0
 50
90.0
100
AcDbRotatedDimension
  0
LINE
  5
5B5A
330
A
100
AcDbEntity
  8
MODEL
100
AcDbLine
 10
243.3259039377717
 20
242.0118255774362
 30
0.0
 11
243.3259039377717
 21
209.0118255774362
 31
0.0
  0
LINE
  5
5B5B
330
A
100
AcDbEntity
  8
MODEL
100
AcDbLine
 10
246.8259039377717
 20
242.0118255774362
 30
0.0
 11
243.3259039377717
 21
242.0118255774362
 31
0.0
  0
LINE
  5
5B5C
330
A
100
AcDbEntity
  8
MODEL
100
AcDbLine
 10
246.8259039377717
 20
209.0118255774362
 30
0.0
 11
243.3259039377717
 21
209.0118255774362
 31
0.0
  0
LINE
  5
5B5D
330
A
100
AcDbEntity
  8
MODEL
100
AcDbLine
 10
246.8259039377717
 20
242.0118255774362
 30
0.0
 11
246.8259039377717
 21
209.0118255774362
 31
0.0
  0
LINE
  5
5B5E
330
A
100
AcDbEntity
  8
MODEL
100
AcDbLine
 10
249.8259039377717
 20
237.8618255774363
 30
0.0
 11
246.8259039377717
 21
237.8618255774363
 31
0.0
  0
LINE
  5
5B5F
330
A
100
AcDbEntity
  8
MODEL
100
AcDbLine
 10
249.8259039377717
 20
213.1618255774363
 30
0.0
 11
246.8259039377717
 21
213.1618255774363
 31
0.0
  0
LINE
  5
5BBC
330
A
100
AcDbEntity
  8
MODEL
100
AcDbLine
 10
101.6194971383658
 20
496.3615627542565
 30
0.0
 11
117.6194971383658
 21
505.5991627542564
 31
0.0
  0
LINE
  5
5BBD
330
A
100
AcDbEntity
  8
MODEL
100
AcDbLine
 10
117.6194971383658
 20
505.5991627542564
 30
0.0
 11
117.6194971383658
 21
524.0743627542564
 31
0.0
  0
LINE
  5
5BBE
330
A
100
AcDbEntity
  8
MODEL
100
AcDbLine
 10
117.6194971383658
 20
524.0743627542564
 30
0.0
 11
101.6194971383658
 21
533.3119627542563
 31
0.0
  0
LINE
  5
5BBF
330
A
100
AcDbEntity
  8
MODEL
100
AcDbLine
 10
101.6194971383658
 20
533.3119627542563
 30
0.0
 11
85.61949713836576
 21
524.0743627542564
 31
0.0
  0
LINE
  5
5BC0
330
A
100
AcDbEntity
  8
MODEL
100
AcDbLine
 10
85.61949713836576
 20
524.0743627542564
 30
0.0
 11
85.61949713836576
 21
505.5991627542564
 31
0.0
  0
LINE
  5
5BC1
330
A
100
AcDbEntity
  8
MODEL
100
AcDbLine
 10
85.61949713836576
 20
505.5991627542564
 30
0.0
 11
101.6194971383658
 21
496.3615627542565
 31
0.0
  0
LINE
  5
5BC2
330
A
100
AcDbEntity
  8
MODEL
100
AcDbLine
 10
104.1194971383658
 20
533.6117627542563
 30
0.0
 11
104.1194971383658
 21
534.3367627542563
 31
0.0
  0
LINE
  5
5BC3
330
A
100
AcDbEntity
  8
MODEL
100
AcDbLine
 10
99.11949713836576
 20
533.6117627542563
 30
0.0
 11
99.11949713836576
 21
534.3367627542563
 31
0.0
  0
LINE
  5
5BC4
330
A
100
AcDbEntity
  8
MODEL
100
AcDbLine
 10
104.1194971383658
 20
534.3367627542563
 30
0.0
 11
99.11949713836576
 21
534.3367627542563
 31
0.0
  0
LINE
  5
5BC5
330
A
100
AcDbEntity
  8
MODEL
100
AcDbLine
 10
120.1194971383658
 20
492.0215627542563
 30
0.0
 11
120.1194971383658
 21
525.2355627542562
 31
0.0
  0
LINE
  5
5BC6
330
A
100
AcDbEntity
  8
MODEL
100
AcDbLine
 10
83.11949713836576
 20
492.0215627542563
 30
0.0
 11
83.11949713836576
 21
525.2355627542562
 31
0.0
  0
LINE
  5
5BC7
330
A
100
AcDbEntity
  8
MODEL
100
AcDbLine
 10
104.1194971383658
 20
533.6117627542563
 30
0.0
 11
99.11949713836576
 21
533.6117627542563
 31
0.0
  0
LINE
  5
5BC8
330
A
100
AcDbEntity
  8
MODEL
100
AcDbLine
 10
118.1194971383658
 20
481.8367627542563
 30
0.0
 11
85.11949713836576
 21
481.8367627542563
 31
0.0
  0
LINE
  5
5BC9
330
A
100
AcDbEntity
  8
MODEL
100
AcDbLine
 10
118.1194971383658
 20
478.3367627542563
 30
0.0
 11
118.1194971383658
 21
481.8367627542563
 31
0.0
  0
LINE
  5
5BCA
330
A
100
AcDbEntity
  8
MODEL
100
AcDbLine
 10
85.11949713836576
 20
478.3367627542563
 30
0.0
 11
85.11949713836576
 21
481.8367627542563
 31
0.0
  0
LINE
  5
5BCB
330
A
100
AcDbEntity
  8
MODEL
100
AcDbLine
 10
118.9694971383658
 20
490.8367627542563
 30
0.0
 11
84.27009713836593
 21
490.8367627542563
 31
0.0
  0
LINE
  5
5BCC
330
A
100
AcDbEntity
  8
MODEL
100
AcDbLine
 10
117.6194971383658
 20
481.8367627542563
 30
0.0
 11
118.1194971383658
 21
482.3367627542563
 31
0.0
  0
LINE
  5
5BCD
330
A
100
AcDbEntity
  8
MODEL
100
AcDbLine
 10
85.61949713836576
 20
481.8367627542563
 30
0.0
 11
85.11949713836576
 21
482.3367627542563
 31
0.0
  0
LINE
  5
5BCE
330
A
100
AcDbEntity
  8
MODEL
100
AcDbLine
 10
118.1194971383658
 20
482.3367627542563
 30
0.0
 11
85.11949713836576
 21
482.3367627542563
 31
0.0
  0
LINE
  5
5BCF
330
A
100
AcDbEntity
  8
MODEL
100
AcDbLine
 10
118.1194971383658
 20
482.3367627542563
 30
0.0
 11
118.1194971383658
 21
490.8367627542563
 31
0.0
  0
LINE
  5
5BD0
330
A
100
AcDbEntity
  8
MODEL
100
AcDbLine
 10
85.11949713836576
 20
482.3367627542563
 30
0.0
 11
85.11949713836576
 21
490.8367627542563
 31
0.0
  0
CIRCLE
  5
5BD1
330
A
100
AcDbEntity
  8
MODEL
100
AcDbCircle
 10
101.6194971383658
 20
514.8367627542563
 30
0.0
 40
16.0
  0
CIRCLE
  5
5BD2
330
A
100
AcDbEntity
  8
MODEL
100
AcDbCircle
 10
101.6194971383658
 20
514.8367627542563
 30
0.0
 40
13.2205
  0
CIRCLE
  5
5BD3
330
A
100
AcDbEntity
  8
MODEL
100
AcDbCircle
 10
101.6194971383658
 20
514.8367627542563
 30
0.0
 40
12.0585
  0
ARC
  5
5BD4
330
A
100
AcDbEntity
  8
MODEL
100
AcDbCircle
 10
101.6194971383658
 20
433.8367627542563
 30
0.0
 40
100.0
100
AcDbArc
 50
83.44644499999993
 51
88.56737699999998
  0
ARC
  5
5BD5
330
A
100
AcDbEntity
  8
MODEL
100
AcDbCircle
 10
112.1194971383658
 20
525.2356127542563
 30
0.0
 40
8.0
100
AcDbArc
 50
0.0001430000003875
 51
83.446738999999
  0
ARC
  5
5BD6
330
A
100
AcDbEntity
  8
MODEL
100
AcDbCircle
 10
91.11949713836576
 20
525.2356127542563
 30
0.0
 40
8.0
100
AcDbArc
 50
96.5534049999983
 51
180.0
  0
ARC
  5
5BD7
330
A
100
AcDbEntity
  8
MODEL
100
AcDbCircle
 10
101.6194971383658
 20
433.8367627542563
 30
0.0
 40
100.0
100
AcDbArc
 50
91.43246599999979
 51
96.55340499999978
  0
ARC
  5
5BD8
330
A
100
AcDbEntity
  8
MODEL
100
AcDbCircle
 10
101.6194971383658
 20
508.8367627542561
 30
0.0
 40
25.0
100
AcDbArc
 50
313.945628000001
 51
317.7315370000001
  0
ARC
  5
5BD9
330
A
100
AcDbEntity
  8
MODEL
100
AcDbCircle
 10
101.6194971383658
 20
508.8367627542561
 30
0.0
 40
25.0
100
AcDbArc
 50
222.2686199999999
 51
226.0545189999999
  0
ARC
  5
5BDA
330
A
100
AcDbEntity
  8
MODEL
100
AcDbCircle
 10
79.93172313836577
 20
505.5991527542564
 30
0.0
 40
5.687782
100
AcDbArc
 50
304.0878120000023
 51
0.0001570000005354
  0
ARC
  5
5BDB
330
A
100
AcDbEntity
  8
MODEL
100
AcDbCircle
 10
123.3072711383657
 20
505.5991527542564
 30
0.0
 40
5.687782
100
AcDbArc
 50
180.0
 51
235.9123339999999
  0
LINE
  5
5BDC
330
A
100
AcDbEntity
  8
MODEL
100
AcDbLine
 10
118.1194971383658
 20
478.3367627542563
 30
0.0
 11
85.11949713836576
 21
478.3367627542563
 31
0.0
  0
LINE
  5
5C0E
330
A
100
AcDbEntity
  8
MODEL
100
AcDbLine
 10
89.26949713836574
 20
475.3367627542563
 30
0.0
 11
89.26949713836574
 21
478.3367627542563
 31
0.0
  0
LINE
  5
5C0F
330
A
100
AcDbEntity
  8
MODEL
100
AcDbLine
 10
113.9694971383658
 20
475.3367627542563
 30
0.0
 11
113.9694971383658
 21
478.3367627542563
 31
0.0
  0
DIMENSION
  5
5CA5
330
A
100
AcDbEntity
  8
DIM
 48
0.05
100
AcDbDimension
  2
*D52
 10
223.5259338489916
 20
277.3952884753699
 30
0.0
 11
210.325823636619
 21
277.3952884753699
 31
0.0
 70
   160
  1
G3/4"
 71
     5
 42
26.40005982243991
 73
     0
 74
     0
 75
     0
  3
tfrom線あり
100
AcDbAlignedDimension
 13
197.1258740265517
 23
262.9450437261484
 33
0.0
 14
223.5259338489916
 24
262.9450437261484
 34
0.0
100
AcDbRotatedDimension
  0
LINE
  5
5CA6
330
A
100
AcDbEntity
  8
MODEL
  6
HIDDEN
 48
0.009
100
AcDbLine
 10
223.5259338489916
 20
262.9450437261484
 30
0.0
 11
223.5259338489916
 21
251.5826605298499
 31
0.0
  0
LINE
  5
5CA7
330
A
100
AcDbEntity
  8
MODEL
  6
HIDDEN
 48
0.009
100
AcDbLine
 10
197.1258740265517
 20
262.9450437261484
 30
0.0
 11
197.1258740265517
 21
251.5826605298499
 31
0.0
  0
DIMENSION
  5
5CA8
330
A
100
AcDbEntity
  8
DIM
 48
0.05
100
AcDbDimension
  2
*D53
 10
223.5259338489916
 20
166.2647245142022
 30
0.0
 11
210.325823636619
 21
166.2647245142022
 31
0.0
 70
   160
  1
G3/4"
 71
     5
 42
26.40005982243991
 73
     0
 74
     0
 75
     0
 52
-90.0
  3
tfrom線あり
100
AcDbAlignedDimension
 13
197.1258740265517
 23
188.0786074287241
 33
0.0
 14
223.5259338489916
 24
188.0786074287241
 34
0.0
100
AcDbRotatedDimension
  0
LINE
  5
5CA9
330
A
100
AcDbEntity
  8
MODEL
  6
HIDDEN
 48
0.009
100
AcDbLine
 10
223.5259338489916
 20
188.0786074287241
 30
0.0
 11
223.5259338489916
 21
199.4409906250225
 31
0.0
  0
LINE
  5
5CAA
330
A
100
AcDbEntity
  8
MODEL
  6
HIDDEN
 48
0.009
100
AcDbLine
 10
197.1258740265517
 20
188.0786074287241
 30
0.0
 11
197.1258740265517
 21
199.4409906250225
 31
0.0
  0
DIMENSION
  5
5CC3
102
{ACAD_REACTORS
330
5CC5
102
}
102
{ACAD_XDICTIONARY
360
5CC4
102
}
330
A
100
AcDbEntity
  8
DIM
 48
0.05
100
AcDbDimension
  2
*D54
 10
210.3259039377716
 20
136.1049489418361
 30
0.0
 11
247.3259039377717
 21
143.6049489418361
 31
0.0
 70
    32
  1
38-73
 71
     5
 42
74.00000000000009
 73
     0
 74
     0
 75
     0
  3
tfrom線あり
100
AcDbAlignedDimension
 13
284.3259039377717
 23
162.1369993482361
 33
0.0
 14
210.3259039377716
 24
166.2647245142022
 34
0.0
100
AcDbRotatedDimension
  0
VIEWPORT
  5
349
330
B
100
AcDbEntity
 67
     1
  8
0
100
AcDbViewport
 10
202.5
 20
128.5
 30
0.0
 40
486.0
 41
308.4
 68
     1
 69
     1
 12
202.5
 22
128.5
 13
0.0
 23
0.0
 14
0.5
 24
0.5
 15
0.0
 25
0.0
 16
0.0
 26
0.0
 36
1.0
 17
0.0
 27
0.0
 37
0.0
 42
50.0
 43
0.0
 44
0.0
 45
308.4
 50
0.0
 51
0.0
 72
   100
 90
   557152
  1

281
     0
 71
     1
 74
     0
110
0.0
120
0.0
130
0.0
111
1.0
121
0.0
131
0.0
112
0.0
122
1.0
132
0.0
 79
     0
146
0.0
170
     0
 61
     5
348
26C
292
     1
282
     1
141
0.0
142
0.0
 63
   256
  0
VIEWPORT
  5
34A
330
B
100
AcDbEntity
 67
     1
  8
0
100
AcDbViewport
 10
202.5
 20
128.5
 30
0.0
 40
324.0
 41
205.6
 68
     2
 69
     2
 12
986.6781359294573
 22
1427.077061889956
 13
0.0
 23
0.0
 14
0.5
 24
0.5
 15
0.0
 25
0.0
 16
0.0
 26
0.0
 36
1.0
 17
0.0
 27
0.0
 37
0.0
 42
50.0
 43
0.0
 44
0.0
 45
2890.021615685494
 50
0.0
 51
0.0
 72
   100
 90
   557152
  1

281
     0
 71
     1
 74
     0
110
0.0
120
0.0
130
0.0
111
1.0
121
0.0
131
0.0
112
0.0
122
1.0
132
0.0
 79
     0
146
0.0
170
     0
 61
     5
348
26C
292
     1
282
     1
141
0.0
142
0.0
 63
   256
  0
ENDSEC
  0
SECTION
  2
OBJECTS
  0
DICTIONARY
  5
19
330
0
100
AcDbDictionary
281
     1
  3
ACAD_COLOR
350
674
  3
ACAD_DETAILVIEWSTYLE
350
BBF
  3
ACAD_FIELDLIST
350
44C1
  3
ACAD_GROUP
350
1A
  3
ACAD_IMAGE_VARS
350
27B
  3
ACAD_LAYOUT
350
1E
  3
ACAD_MATERIAL
350
263
  3
ACAD_MLEADERSTYLE
350
336
  3
ACAD_MLINESTYLE
350
1B
  3
ACAD_PLOTSETTINGS
350
22
  3
ACAD_PLOTSTYLENAME
350
1F
  3
ACAD_SCALELIST
350
241
  3
ACAD_SECTIONVIEWSTYLE
350
BC0
  3
ACAD_TABLESTYLE
350
278
  3
ACAD_VISUALSTYLE
350
267
  3
ACDB_RECOMPOSE_DATA
350
5CE9
  3
AcDbVariableDictionary
350
330
  3
APPDATA
350
27A
  3
DimOffsetDictionary
350
E38
  0
SUN
  5
904
330
15
100
AcDbSun
 90
        1
290
     0
 63
     7
421
 16777215
 40
1.0
291
     1
 91
  2455826
 92
 54000000
292
     0
 70
     2
 71
   256
280
     1
  0
DICTIONARY
  5
2E1
330
2
100
AcDbDictionary
280
     1
281
     1
  3
ACAD_LAYERSTATES
360
2E2
  3
ACLYDICTIONARY
360
DDE
  0
DICTIONARY
  5
4532
330
4530
100
AcDbDictionary
280
     1
281
     1
  3
ACAD_FIELD
360
4539
  0
DICTIONARY
  5
57FD
330
57FC
100
AcDbDictionary
280
     1
281
     1
  3
ACAD_DIMASSOC
360
57FE
  0
DICTIONARY
  5
5CC4
330
5CC3
100
AcDbDictionary
280
     1
281
     1
  3
ACAD_DIMASSOC
360
5CC5
  0
DICTIONARY
  5
674
102
{ACAD_REACTORS
330
19
102
}
330
19
100
AcDbDictionary
281
     1
  0
DICTIONARY
  5
BBF
102
{ACAD_REACTORS
330
19
102
}
330
19
100
AcDbDictionary
281
     1
  0
FIELDLIST
  5
44C1
102
{ACAD_REACTORS
330
19
102
}
330
19
100
AcDbIdSet
 90
        2
330
4534
330
4531
100
AcDbFieldList
  0
DICTIONARY
  5
1A
102
{ACAD_REACTORS
330
19
102
}
330
19
100
AcDbDictionary
281
     1
  0
RASTERVARIABLES
  5
27B
102
{ACAD_REACTORS
330
19
102
}
330
19
100
AcDbRasterVariables
 90
        0
 70
     1
 71
     1
 72
     1
  0
DICTIONARY
  5
1E
102
{ACAD_REACTORS
330
19
102
}
330
19
100
AcDbDictionary
281
     1
  3
Layout1
350
21
  3
Model
350
20
  0
DICTIONARY
  5
263
102
{ACAD_REACTORS
330
19
102
}
330
19
100
AcDbDictionary
281
     1
  3
ByBlock
350
4D89
  3
ByLayer
350
264
  3
Global
350
266
  0
DICTIONARY
  5
336
102
{ACAD_REACTORS
330
19
102
}
330
19
100
AcDbDictionary
281
     1
  3
Standard
350
D59
  0
DICTIONARY
  5
1B
102
{ACAD_REACTORS
330
19
102
}
330
19
100
AcDbDictionary
281
     1
  3
Standard
350
1C
  0
DICTIONARY
  5
22
102
{ACAD_REACTORS
330
19
102
}
330
19
100
AcDbDictionary
281
     1
  0
ACDBDICTIONARYWDFLT
  5
1F
102
{ACAD_REACTORS
330
19
102
}
330
19
100
AcDbDictionary
281
     1
  3
Normal
350
1D
100
AcDbDictionaryWithDefault
340
1D
  0
DICTIONARY
  5
241
102
{ACAD_REACTORS
330
19
102
}
330
19
100
AcDbDictionary
281
     1
  3
A0
350
242
  3
A1
350
243
  3
A2
350
244
  3
A3
350
245
  3
A4
350
246
  3
A5
350
247
  3
A6
350
248
  3
A7
350
249
  3
A8
350
24A
  3
A9
350
24B
  3
B0
350
24C
  3
B1
350
24D
  3
B2
350
24E
  3
B3
350
24F
  3
B4
350
250
  3
B5
350
251
  3
B6
350
252
  3
B7
350
253
  3
B8
350
254
  3
B9
350
255
  3
C0
350
256
  3
C1
350
257
  3
C2
350
258
  3
C3
350
259
  3
C4
350
25A
  3
C5
350
25B
  3
C6
350
25C
  3
C7
350
25D
  3
C8
350
25E
  3
C9
350
25F
  3
D0
350
260
  3
D1
350
261
  3
D2
350
262
  0
DICTIONARY
  5
BC0
102
{ACAD_REACTORS
330
19
102
}
330
19
100
AcDbDictionary
281
     1
  0
DICTIONARY
  5
278
102
{ACAD_REACTORS
330
19
102
}
330
19
100
AcDbDictionary
281
     1
  3
Standard
350
279
  0
DICTIONARY
  5
267
102
{ACAD_REACTORS
330
19
102
}
330
19
100
AcDbDictionary
281
     1
  3
2dWireframe
350
26C
  3
3D Hidden
350
26E
  3
3dWireframe
350
26D
  3
Basic
350
26F
  3
Brighten
350
273
  3
ColorChange
350
277
  3
Conceptual
350
271
  3
Dim
350
272
  3
EdgeColorOff
350
8FE
  3
Facepattern
350
276
  3
Flat
350
268
  3
FlatWithEdges
350
269
  3
Gouraud
350
26A
  3
GouraudWithEdges
350
26B
  3
Hidden
350
8FB
  3
JitterOff
350
8FC
  3
Linepattern
350
275
  3
OverhangOff
350
8FD
  3
Realistic
350
270
  3
Shaded
350
903
  3
Shaded with edges
350
902
  3
Shades of Gray
350
8FF
  3
Sketchy
350
900
  3
Thicken
350
274
  3
Wireframe
350
8FA
  3
X-Ray
350
901
  0
XRECORD
  5
5CE9
102
{ACAD_REACTORS
330
19
102
}
330
19
100
AcDbXrecord
280
     1
 90
        1
330
279
  0
DICTIONARY
  5
330
102
{ACAD_REACTORS
330
19
102
}
330
19
100
AcDbDictionary
281
     1
  3
CANNOSCALE
350
331
  3
CMLEADERSTYLE
350
D5E
  3
CTABLESTYLE
350
335
  3
HPTRANSPARENCY
350
D52
  3
XCLIPFRAME
350
896
  0
DICTIONARY
  5
27A
102
{ACAD_REACTORS
330
19
102
}
330
19
100
AcDbDictionary
281
     1
  0
DICTIONARY
  5
E38
102
{ACAD_REACTORS
330
19
102
}
330
19
100
AcDbDictionary
281
     1
  3
DIMRAILANGLE
350
38B2
  3
DIMRAILFIRSTOFFSET
350
38B0
  3
DIMRAILOFFSET
350
38B1
  3
DIMRAILSENABLED
350
38B3
  0
DICTIONARY
  5
2E2
102
{ACAD_REACTORS
330
2E1
102
}
330
2E1
100
AcDbDictionary
281
     1
  3
ARGON_LAYERP_9
350
7AA
  0
DICTIONARY
  5
DDE
102
{ACAD_REACTORS
330
2E1
102
}
330
2E1
100
AcDbDictionary
281
     1
1001
ACAD
1000
<All
  0
DICTIONARY
  5
4539
102
{ACAD_REACTORS
330
4532
102
}
330
4532
100
AcDbDictionary
280
     1
281
     1
  3
TEXT
360
4531
  0
DIMASSOC
  5
57FE
102
{ACAD_REACTORS
330
57FD
102
}
330
57FD
100
AcDbDimAssoc
330
57FC
 90
        3
 70
     0
 71
     1
  1
AcDbOsnapPointRef
 72
     5
331
578C
 73
     0
 91
        0
 40
1.570796326794897
 10
0.0
 20
0.0
 30
0.0
 75
     0
  1
AcDbOsnapPointRef
 72
     5
331
578C
 73
     0
 91
        0
 40
4.71238898038469
 10
0.0
 20
0.0
 30
0.0
 75
     0
  0
DIMASSOC
  5
5CC5
102
{ACAD_REACTORS
330
5CC4
102
}
330
5CC4
100
AcDbDimAssoc
330
5CC3
 90
        1
 70
     0
 71
     1
  1
AcDbOsnapPointRef
 72
    13
331
577F
 73
     0
 91
        0
 40
0.0
 10
0.0
 20
0.0
 30
0.0
 75
     0
  0
LAYOUT
  5
21
102
{ACAD_REACTORS
330
1E
102
}
330
1E
100
AcDbPlotSettings
  1

  2
none_device
  4
ISO_A3_(420.00_x_297.00_MM)
  6

 40
7.5
 41
20.0
 42
7.5
 43
20.0
 44
420.0
 45
297.0
 46
0.0
 47
0.0
 48
0.0
 49
0.0
140
0.0
141
0.0
142
1.0
143
1.0
 70
     0
 72
     1
 73
     0
 74
     0
  7

 75
     0
 76
     0
 77
     2
 78
   300
147
1.0
148
0.0
149
0.0
100
AcDbLayout
  1
Layout1
 70
     0
 71
     0
 10
-7.5
 20
-20.0
 11
412.5
 21
277.0
 12
0.0
 22
0.0
 32
0.0
 14
0.0
 24
0.0
 34
0.0
 15
0.0
 25
0.0
 35
0.0
146
0.0
 13
0.0
 23
0.0
 33
0.0
 16
0.0
 26
0.0
 36
0.0
 17
0.0
 27
0.0
 37
0.0
 76
     0
330
B
331
349
  0
LAYOUT
  5
20
102
{ACAD_REACTORS
330
1E
102
}
330
1E
100
AcDbPlotSettings
  1

  2
none_device
  4
ISO_A3_(420.00_x_297.00_MM)
  6

 40
7.5
 41
20.0
 42
7.5
 43
20.0
 44
420.0
 45
297.0
 46
0.0
 47
0.0
 48
0.0
 49
0.0
140
0.0
141
0.0
142
1.0
143
1.0
 70
  1024
 72
     1
 73
     0
 74
     0
  7

 75
     0
 76
     0
 77
     2
 78
   300
147
1.0
148
0.0
149
0.0
100
AcDbLayout
  1
Model
 70
     0
 71
     1
 10
0.0
 20
0.0
 11
420.0
 21
594.0
 12
0.0
 22
0.0
 32
0.0
 14
0.0
 24
0.0
 34
-0.0000000000000142
 15
420.0
 25
594.0
 35
0.0000000000000071
146
0.0
 13
0.0
 23
0.0
 33
0.0
 16
0.0
 26
0.0
 36
0.0
 17
0.0
 27
0.0
 37
0.0
 76
     0
330
A
331
15
  0
MATERIAL
  5
4D89
102
{ACAD_REACTORS
330
263
102
}
330
263
100
AcDbMaterial
  1
ByBlock
 72
     1
 94
      127
  0
MATERIAL
  5
264
102
{ACAD_REACTORS
330
263
102
}
330
263
100
AcDbMaterial
  1
ByLayer
 72
     1
 94
      127
  0
MATERIAL
  5
266
102
{ACAD_REACTORS
330
263
102
}
330
263
100
AcDbMaterial
  1
Global
 72
     1
 94
      127
  0
MLEADERSTYLE
  5
D59
102
{ACAD_REACTORS
330
336
102
}
330
336
100
AcDbMLeaderStyle
170
     2
171
     1
172
     0
 90
        2
 40
0.0
 41
0.0
173
     1
 91
-1056964608
340
11
 92
       -2
290
     1
 42
2.0
291
     1
 43
8.0
  3
Standard
341
0
 44
4.0
300

342
17
174
     1
178
     6
175
     1
176
     0
 93
-1056964608
 45
4.0
292
     0
297
     0
 46
4.0
343
0
 94
-1056964608
 47
1.0
 49
1.0
140
1.0
293
     1
141
0.0
294
     1
177
     0
142
1.0
295
     0
296
     0
143
3.75
1001
ACAD_MLEADERVER
1070
     2
  0
MLINESTYLE
  5
1C
102
{ACAD_REACTORS
330
1B
102
}
330
1B
100
AcDbMlineStyle
  2
Standard
 70
     0
  3

 62
     0
 51
90.0
 52
90.0
 71
     2
 49
0.5
 62
   256
  6
BYLAYER
 49
-0.5
 62
   256
  6
BYLAYER
  0
ACDBPLACEHOLDER
  5
1D
102
{ACAD_REACTORS
330
1F
102
}
330
1F
  0
SCALE
  5
242
102
{ACAD_REACTORS
330
241
102
}
330
241
100
AcDbScale
 70
     0
300
1:1
140
1.0
141
1.0
290
     1
  0
SCALE
  5
243
102
{ACAD_REACTORS
330
241
102
}
330
241
100
AcDbScale
 70
     0
300
1:2
140
1.0
141
2.0
290
     0
  0
SCALE
  5
244
102
{ACAD_REACTORS
330
241
102
}
330
241
100
AcDbScale
 70
     0
300
1:4
140
1.0
141
4.0
290
     0
  0
SCALE
  5
245
102
{ACAD_REACTORS
330
241
102
}
330
241
100
AcDbScale
 70
     0
300
1:5
140
1.0
141
5.0
290
     0
  0
SCALE
  5
246
102
{ACAD_REACTORS
330
241
102
}
330
241
100
AcDbScale
 70
     0
300
1:8
140
1.0
141
8.0
290
     0
  0
SCALE
  5
247
102
{ACAD_REACTORS
330
241
102
}
330
241
100
AcDbScale
 70
     0
300
1:10
140
1.0
141
10.0
290
     0
  0
SCALE
  5
248
102
{ACAD_REACTORS
330
241
102
}
330
241
100
AcDbScale
 70
     0
300
1:16
140
1.0
141
16.0
290
     0
  0
SCALE
  5
249
102
{ACAD_REACTORS
330
241
102
}
330
241
100
AcDbScale
 70
     0
300
1:20
140
1.0
141
20.0
290
     0
  0
SCALE
  5
24A
102
{ACAD_REACTORS
330
241
102
}
330
241
100
AcDbScale
 70
     0
300
1:30
140
1.0
141
30.0
290
     0
  0
SCALE
  5
24B
102
{ACAD_REACTORS
330
241
102
}
330
241
100
AcDbScale
 70
     0
300
1:40
140
1.0
141
40.0
290
     0
  0
SCALE
  5
24C
102
{ACAD_REACTORS
330
241
102
}
330
241
100
AcDbScale
 70
     0
300
1:50
140
1.0
141
50.0
290
     0
  0
SCALE
  5
24D
102
{ACAD_REACTORS
330
241
102
}
330
241
100
AcDbScale
 70
     0
300
1:100
140
1.0
141
100.0
290
     0
  0
SCALE
  5
24E
102
{ACAD_REACTORS
330
241
102
}
330
241
100
AcDbScale
 70
     0
300
2:1
140
2.0
141
1.0
290
     0
  0
SCALE
  5
24F
102
{ACAD_REACTORS
330
241
102
}
330
241
100
AcDbScale
 70
     0
300
4:1
140
4.0
141
1.0
290
     0
  0
SCALE
  5
250
102
{ACAD_REACTORS
330
241
102
}
330
241
100
AcDbScale
 70
     0
300
8:1
140
8.0
141
1.0
290
     0
  0
SCALE
  5
251
102
{ACAD_REACTORS
330
241
102
}
330
241
100
AcDbScale
 70
     0
300
10:1
140
10.0
141
1.0
290
     0
  0
SCALE
  5
252
102
{ACAD_REACTORS
330
241
102
}
330
241
100
AcDbScale
 70
     0
300
100:1
140
100.0
141
1.0
290
     0
  0
SCALE
  5
253
102
{ACAD_REACTORS
330
241
102
}
330
241
100
AcDbScale
 70
     0
300
1/128" = 1'-0"
140
0.0078125
141
12.0
290
     0
  0
SCALE
  5
254
102
{ACAD_REACTORS
330
241
102
}
330
241
100
AcDbScale
 70
     0
300
1/64" = 1'-0"
140
0.015625
141
12.0
290
     0
  0
SCALE
  5
255
102
{ACAD_REACTORS
330
241
102
}
330
241
100
AcDbScale
 70
     0
300
1/32" = 1'-0"
140
0.03125
141
12.0
290
     0
  0
SCALE
  5
256
102
{ACAD_REACTORS
330
241
102
}
330
241
100
AcDbScale
 70
     0
300
1/16" = 1'-0"
140
0.0625
141
12.0
290
     0
  0
SCALE
  5
257
102
{ACAD_REACTORS
330
241
102
}
330
241
100
AcDbScale
 70
     0
300
3/32" = 1'-0"
140
0.09375
141
12.0
290
     0
  0
SCALE
  5
258
102
{ACAD_REACTORS
330
241
102
}
330
241
100
AcDbScale
 70
     0
300
1/8" = 1'-0"
140
0.125
141
12.0
290
     0
  0
SCALE
  5
259
102
{ACAD_REACTORS
330
241
102
}
330
241
100
AcDbScale
 70
     0
300
3/16" = 1'-0"
140
0.1875
141
12.0
290
     0
  0
SCALE
  5
25A
102
{ACAD_REACTORS
330
241
102
}
330
241
100
AcDbScale
 70
     0
300
1/4" = 1'-0"
140
0.25
141
12.0
290
     0
  0
SCALE
  5
25B
102
{ACAD_REACTORS
330
241
102
}
330
241
100
AcDbScale
 70
     0
300
3/8" = 1'-0"
140
0.375
141
12.0
290
     0
  0
SCALE
  5
25C
102
{ACAD_REACTORS
330
241
102
}
330
241
100
AcDbScale
 70
     0
300
1/2" = 1'-0"
140
0.5
141
12.0
290
     0
  0
SCALE
  5
25D
102
{ACAD_REACTORS
330
241
102
}
330
241
100
AcDbScale
 70
     0
300
3/4" = 1'-0"
140
0.75
141
12.0
290
     0
  0
SCALE
  5
25E
102
{ACAD_REACTORS
330
241
102
}
330
241
100
AcDbScale
 70
     0
300
1" = 1'-0"
140
1.0
141
12.0
290
     0
  0
SCALE
  5
25F
102
{ACAD_REACTORS
330
241
102
}
330
241
100
AcDbScale
 70
     0
300
1-1/2" = 1'-0"
140
1.5
141
12.0
290
     0
  0
SCALE
  5
260
102
{ACAD_REACTORS
330
241
102
}
330
241
100
AcDbScale
 70
     0
300
3" = 1'-0"
140
3.0
141
12.0
290
     0
  0
SCALE
  5
261
102
{ACAD_REACTORS
330
241
102
}
330
241
100
AcDbScale
 70
     0
300
6" = 1'-0"
140
6.0
141
12.0
290
     0
  0
SCALE
  5
262
102
{ACAD_REACTORS
330
241
102
}
330
241
100
AcDbScale
 70
     0
300
1'-0" = 1'-0"
140
12.0
141
12.0
290
     0
  0
TABLESTYLE
  5
279
102
{ACAD_REACTORS
330
278
102
}
102
{ACAD_XDICTIONARY
360
5CE7
102
}
330
278
100
AcDbTableStyle
  3
Standard
 70
     0
 71
     0
 40
0.06
 41
0.06
280
     0
281
     0
  7
Standard
140
4.5
170
     2
 62
     0
 63
   257
283
     0
 90
        4
 91
        0
  1

274
    -2
284
     1
 64
     0
275
    -2
285
     1
 65
     0
276
    -2
286
     1
 66
     0
277
    -2
287
     1
 67
     0
278
    -2
288
     1
 68
     0
279
    -2
289
     1
 69
     0
  7
Standard
140
6.0
170
     5
 62
     0
 63
   257
283
     0
 90
        4
 91
        0
  1

274
    -2
284
     1
 64
     0
275
    -2
285
     1
 65
     0
276
    -2
286
     1
 66
     0
277
    -2
287
     1
 67
     0
278
    -2
288
     1
 68
     0
279
    -2
289
     1
 69
     0
  7
Standard
140
4.5
170
     5
 62
     0
 63
   257
283
     0
 90
        4
 91
        0
  1

274
    -2
284
     1
 64
     0
275
    -2
285
     1
 65
     0
276
    -2
286
     1
 66
     0
277
    -2
287
     1
 67
     0
278
    -2
288
     1
 68
     0
279
    -2
289
     1
 69
     0
  0
VISUALSTYLE
  5
26C
102
{ACAD_REACTORS
330
267
102
}
330
267
100
AcDbVisualStyle
  2
2dWireframe
 70
     4
 71
     0
 72
     2
 73
     0
 90
        0
 40
-0.6
 41
-30.0
 62
     5
 63
     7
421
 16777215
 74
     1
 91
        4
 64
     7
 65
   257
 75
     1
175
     1
 42
1.0
 92
        0
 66
   257
 43
1.0
 76
     1
 77
     6
 78
     2
 67
     7
 79
     5
170
     0
171
     0
290
     0
174
     0
 93
        1
 44
0.0
173
     0
291
     0
 45
0.0
  0
VISUALSTYLE
  5
26E
102
{ACAD_REACTORS
330
267
102
}
330
267
100
AcDbVisualStyle
  2
3D Hidden
 70
     6
 71
     1
 72
     2
 73
     2
 90
        0
 40
-0.6
 41
-30.0
 62
     5
 63
     7
421
 16777215
 74
     2
 91
        2
 64
     7
 65
   257
 75
     2
175
     1
 42
40.0
 92
        0
 66
   257
 43
1.0
 76
     1
 77
     6
 78
     2
 67
     7
 79
     3
170
     0
171
     0
290
     0
174
     0
 93
        1
 44
0.0
173
     0
291
     0
 45
0.0
  0
VISUALSTYLE
  5
26D
102
{ACAD_REACTORS
330
267
102
}
330
267
100
AcDbVisualStyle
  2
3dWireframe
 70
     5
 71
     0
 72
     2
 73
     0
 90
        0
 40
-0.6
 41
-30.0
 62
     5
 63
     7
421
 16777215
 74
     1
 91
        4
 64
     7
 65
   257
 75
     1
175
     1
 42
1.0
 92
        0
 66
   257
 43
1.0
 76
     1
 77
     6
 78
     2
 67
     7
 79
     5
170
     0
171
     0
290
     0
174
     0
 93
        1
 44
0.0
173
     0
291
     0
 45
0.0
  0
VISUALSTYLE
  5
26F
102
{ACAD_REACTORS
330
267
102
}
330
267
100
AcDbVisualStyle
  2
Basic
 70
     7
 71
     1
 72
     0
 73
     1
 90
        0
 40
-0.6
 41
-30.0
 62
     5
 63
     7
421
 16777215
 74
     0
 91
        4
 64
     7
 65
   257
 75
     1
175
     1
 42
1.0
 92
        8
 66
     7
 43
1.0
 76
     1
 77
     6
 78
     2
 67
     7
 79
     5
170
     0
171
     0
290
     0
174
     0
 93
        1
 44
0.0
173
     0
291
     1
 45
0.0
  0
VISUALSTYLE
  5
273
102
{ACAD_REACTORS
330
267
102
}
330
267
100
AcDbVisualStyle
  2
Brighten
 70
    12
 71
     2
 72
     2
 73
     0
 90
        0
 40
-0.6
 41
-30.0
 62
     5
 63
     7
421
 16777215
 74
     1
 91
        4
 64
     7
 65
   257
 75
     1
175
     1
 42
1.0
 92
        8
 66
     7
 43
1.0
 76
     1
 77
     6
 78
     2
 67
     7
 79
     5
170
     0
171
     0
290
     0
174
     0
 93
        1
 44
50.0
173
     0
291
     1
 45
0.0
  0
VISUALSTYLE
  5
277
102
{ACAD_REACTORS
330
267
102
}
330
267
100
AcDbVisualStyle
  2
ColorChange
 70
    16
 71
     2
 72
     2
 73
     3
 90
        0
 40
-0.6
 41
-30.0
 62
     5
 63
     8
421
  8421504
 74
     1
 91
        4
 64
     7
 65
   257
 75
     1
175
     1
 42
1.0
 92
        8
 66
     8
424
  8421504
 43
1.0
 76
     1
 77
     6
 78
     2
 67
     7
 79
     5
170
     0
171
     0
290
     0
174
     0
 93
        1
 44
0.0
173
     0
291
     1
 45
0.0
  0
VISUALSTYLE
  5
271
102
{ACAD_REACTORS
330
267
102
}
330
267
100
AcDbVisualStyle
  2
Conceptual
 70
     9
 71
     3
 72
     2
 73
     0
 90
        0
 40
-0.6
 41
-30.0
 62
     5
 63
     7
421
 16777215
 74
     2
 91
        2
 64
     7
 65
   257
 75
     1
175
     1
 42
40.0
 92
        8
 66
     7
 43
1.0
 76
     1
 77
     6
 78
     2
 67
     7
 79
     3
170
     0
171
     0
290
     0
174
     0
 93
        1
 44
0.0
173
     0
291
     0
 45
0.0
  0
VISUALSTYLE
  5
272
102
{ACAD_REACTORS
330
267
102
}
330
267
100
AcDbVisualStyle
  2
Dim
 70
    11
 71
     2
 72
     2
 73
     0
 90
        0
 40
-0.6
 41
-30.0
 62
     5
 63
     7
421
 16777215
 74
     1
 91
        4
 64
     7
 65
   257
 75
     1
175
     1
 42
1.0
 92
        8
 66
     7
 43
1.0
 76
     1
 77
     6
 78
     2
 67
     7
 79
     5
170
     0
171
     0
290
     0
174
     0
 93
        1
 44
-50.0
173
     0
291
     1
 45
0.0
  0
VISUALSTYLE
  5
8FE
102
{ACAD_REACTORS
330
267
102
}
330
267
100
AcDbVisualStyle
  2
EdgeColorOff
 70
    22
 71
     2
 72
     2
 73
     0
 90
        0
 40
0.6
 41
30.0
 62
     5
 63
     7
421
 16777215
 74
     1
 91
        4
 64
     7
 65
   257
 75
     1
175
     1
 42
1.0
 92
        8
 66
     7
 43
1.0
 76
     1
 77
     6
 78
     2
 67
     7
 79
     5
170
     0
171
     0
290
     0
174
     0
 93
        1
 44
0.0
173
     0
291
     1
 45
0.0
  0
VISUALSTYLE
  5
276
102
{ACAD_REACTORS
330
267
102
}
330
267
100
AcDbVisualStyle
  2
Facepattern
 70
    15
 71
     2
 72
     2
 73
     0
 90
        0
 40
-0.6
 41
-30.0
 62
     5
 63
     7
421
 16777215
 74
     1
 91
        4
 64
     7
 65
   257
 75
     1
175
     1
 42
1.0
 92
        8
 66
     7
 43
1.0
 76
     1
 77
     6
 78
     2
 67
     7
 79
     5
170
     0
171
     0
290
     0
174
     0
 93
        1
 44
0.0
173
     0
291
     1
 45
0.0
  0
VISUALSTYLE
  5
268
102
{ACAD_REACTORS
330
267
102
}
330
267
100
AcDbVisualStyle
  2
Flat
 70
     0
 71
     2
 72
     1
 73
     1
 90
        2
 40
-0.6
 41
30.0
 62
     5
 63
     7
421
 16777215
 74
     0
 91
        4
 64
     7
 65
   257
 75
     1
175
     1
 42
1.0
 92
        8
 66
     7
 43
1.0
 76
     1
 77
     6
 78
     2
 67
     7
 79
     5
170
     0
171
     0
290
     0
174
     0
 93
       13
 44
0.0
173
     0
291
     1
 45
0.0
  0
VISUALSTYLE
  5
269
102
{ACAD_REACTORS
330
267
102
}
330
267
100
AcDbVisualStyle
  2
FlatWithEdges
 70
     1
 71
     2
 72
     1
 73
     1
 90
        2
 40
-0.6
 41
30.0
 62
     5
 63
     7
421
 16777215
 74
     1
 91
        4
 64
     7
 65
   257
 75
     1
175
     1
 42
1.0
 92
        0
 66
   257
 43
1.0
 76
     1
 77
     6
 78
     2
 67
     7
 79
     5
170
     0
171
     0
290
     0
174
     0
 93
       13
 44
0.0
173
     0
291
     1
 45
0.0
  0
VISUALSTYLE
  5
26A
102
{ACAD_REACTORS
330
267
102
}
330
267
100
AcDbVisualStyle
  2
Gouraud
 70
     2
 71
     2
 72
     2
 73
     1
 90
        2
 40
-0.6
 41
30.0
 62
     5
 63
     7
421
 16777215
 74
     0
 91
        4
 64
     7
 65
   257
 75
     1
175
     1
 42
1.0
 92
        0
 66
     7
 43
1.0
 76
     1
 77
     6
 78
     2
 67
     7
 79
     5
170
     0
171
     0
290
     0
174
     0
 93
       13
 44
0.0
173
     0
291
     1
 45
0.0
  0
VISUALSTYLE
  5
26B
102
{ACAD_REACTORS
330
267
102
}
330
267
100
AcDbVisualStyle
  2
GouraudWithEdges
 70
     3
 71
     2
 72
     2
 73
     1
 90
        2
 40
-0.6
 41
30.0
 62
     5
 63
     7
421
 16777215
 74
     1
 91
        4
 64
     7
 65
   257
 75
     1
175
     1
 42
1.0
 92
        0
 66
   257
 43
1.0
 76
     1
 77
     6
 78
     2
 67
     7
 79
     5
170
     0
171
     0
290
     0
174
     0
 93
       13
 44
0.0
173
     0
291
     1
 45
0.0
  0
VISUALSTYLE
  5
8FB
102
{ACAD_REACTORS
330
267
102
}
330
267
100
AcDbVisualStyle
  2
Hidden
 70
     6
 71
     1
 72
     2
 73
     2
 90
        0
 40
0.6
 41
30.0
 62
     5
 63
     7
421
 16777215
 74
     2
 91
        2
 64
     7
 65
   257
 75
     2
175
     1
 42
40.0
 92
        0
 66
   257
 43
1.0
 76
     1
 77
     6
 78
     2
 67
     7
 79
     3
170
     0
171
     0
290
     0
174
     0
 93
        1
 44
0.0
173
     0
291
     0
 45
0.0
  0
VISUALSTYLE
  5
8FC
102
{ACAD_REACTORS
330
267
102
}
330
267
100
AcDbVisualStyle
  2
JitterOff
 70
    20
 71
     2
 72
     2
 73
     0
 90
        0
 40
0.6
 41
30.0
 62
     5
 63
     7
421
 16777215
 74
     1
 91
        4
 64
     7
 65
   257
 75
     1
175
     1
 42
1.0
 92
       10
 66
     7
 43
1.0
 76
     1
 77
     6
 78
     2
 67
     7
 79
     5
170
     0
171
     0
290
     0
174
     0
 93
        1
 44
0.0
173
     0
291
     1
 45
0.0
  0
VISUALSTYLE
  5
275
102
{ACAD_REACTORS
330
267
102
}
330
267
100
AcDbVisualStyle
  2
Linepattern
 70
    14
 71
     2
 72
     2
 73
     0
 90
        0
 40
-0.6
 41
-30.0
 62
     5
 63
     7
421
 16777215
 74
     1
 91
        4
 64
     7
 65
   257
 75
     7
175
     7
 42
1.0
 92
        8
 66
     7
 43
1.0
 76
     1
 77
     6
 78
     2
 67
     7
 79
     5
170
     0
171
     0
290
     0
174
     0
 93
        1
 44
0.0
173
     0
291
     1
 45
0.0
  0
VISUALSTYLE
  5
8FD
102
{ACAD_REACTORS
330
267
102
}
330
267
100
AcDbVisualStyle
  2
OverhangOff
 70
    21
 71
     2
 72
     2
 73
     0
 90
        0
 40
0.6
 41
30.0
 62
     5
 63
     7
421
 16777215
 74
     1
 91
        4
 64
     7
 65
   257
 75
     1
175
     1
 42
1.0
 92
        9
 66
     7
 43
1.0
 76
     1
 77
     6
 78
     2
 67
     7
 79
     5
170
     0
171
     0
290
     0
174
     0
 93
        1
 44
0.0
173
     0
291
     1
 45
0.0
  0
VISUALSTYLE
  5
270
102
{ACAD_REACTORS
330
267
102
}
330
267
100
AcDbVisualStyle
  2
Realistic
 70
     8
 71
     2
 72
     2
 73
     0
 90
        0
 40
-0.6
 41
-30.0
 62
     5
 63
     7
421
 16777215
 74
     1
 91
        0
 64
     7
 65
   257
 75
     1
175
     1
 42
1.0
 92
        8
 66
     8
424
  7895160
 43
1.0
 76
     1
 77
     6
 78
     2
 67
     7
 79
     5
170
     0
171
     0
290
     0
174
     0
 93
       13
 44
0.0
173
     0
291
     0
 45
0.0
  0
VISUALSTYLE
  5
903
102
{ACAD_REACTORS
330
267
102
}
330
267
100
AcDbVisualStyle
  2
Shaded
 70
    27
 71
     2
 72
     2
 73
     1
 90
        2
 40
0.6
 41
30.0
 62
     5
 63
     7
421
 16777215
 74
     0
 91
        4
 64
     7
 65
   257
 75
     1
175
     1
 42
1.0
 92
        8
 66
   257
 43
1.0
 76
     1
 77
     6
 78
     2
 67
     8
425
  7895160
 79
     3
170
     0
171
     0
290
     0
174
     0
 93
        5
 44
0.0
173
     0
291
     0
 45
0.0
  0
VISUALSTYLE
  5
902
102
{ACAD_REACTORS
330
267
102
}
330
267
100
AcDbVisualStyle
  2
Shaded with edges
 70
    26
 71
     2
 72
     2
 73
     1
 90
        2
 40
0.6
 41
30.0
 62
     5
 63
     7
421
 16777215
 74
     1
 91
       10
 64
     7
 65
   257
 75
     2
175
     1
 42
1.0
 92
        8
 66
   257
 43
1.0
 76
     1
 77
     6
 78
     2
 67
     7
 79
     3
170
     0
171
     0
290
     0
174
     0
 93
        5
 44
0.0
173
     0
291
     0
 45
0.0
  0
VISUALSTYLE
  5
8FF
102
{ACAD_REACTORS
330
267
102
}
330
267
100
AcDbVisualStyle
  2
Shades of Gray
 70
    23
 71
     2
 72
     2
 73
     3
 90
        0
 40
0.6
 41
30.0
 62
     5
 63
     7
421
 16777215
 74
     2
 91
        2
 64
     7
 65
     7
 75
     1
175
     1
 42
40.0
 92
        8
 66
     7
 43
1.0
 76
     1
 77
     6
 78
     2
 67
     7
 79
     3
170
     0
171
     0
290
     0
174
     0
 93
        1
 44
0.0
173
     0
291
     0
 45
0.0
  0
VISUALSTYLE
  5
900
102
{ACAD_REACTORS
330
267
102
}
330
267
100
AcDbVisualStyle
  2
Sketchy
 70
    24
 71
     1
 72
     2
 73
     2
 90
        0
 40
0.6
 41
30.0
 62
     5
 63
     7
421
 16777215
 74
     2
 91
        2
 64
     7
 65
     7
 75
     1
175
     1
 42
40.0
 92
       11
 66
     7
 43
1.0
 76
     1
 77
     6
 78
     2
 67
     7
 79
     6
170
     0
171
     0
290
     0
174
     0
 93
        1
 44
0.0
173
     0
291
     0
 45
0.0
  0
VISUALSTYLE
  5
274
102
{ACAD_REACTORS
330
267
102
}
330
267
100
AcDbVisualStyle
  2
Thicken
 70
    13
 71
     2
 72
     2
 73
     0
 90
        0
 40
-0.6
 41
-30.0
 62
     5
 63
     7
421
 16777215
 74
     1
 91
        4
 64
     7
 65
   257
 75
     1
175
     1
 42
1.0
 92
       12
 66
     7
 43
1.0
 76
     1
 77
     6
 78
     2
 67
     7
 79
     5
170
     0
171
     0
290
     0
174
     0
 93
        1
 44
0.0
173
     0
291
     1
 45
0.0
  0
VISUALSTYLE
  5
8FA
102
{ACAD_REACTORS
330
267
102
}
330
267
100
AcDbVisualStyle
  2
Wireframe
 70
     5
 71
     0
 72
     2
 73
     0
 90
        0
 40
0.6
 41
30.0
 62
     5
 63
     7
421
 16777215
 74
     1
 91
        4
 64
     7
 65
   257
 75
     1
175
     1
 42
1.0
 92
        0
 66
   257
 43
1.0
 76
     1
 77
     6
 78
     2
 67
     7
 79
     3
170
     0
171
     0
290
     0
174
     0
 93
        1
 44
0.0
173
     0
291
     0
 45
0.0
  0
VISUALSTYLE
  5
901
102
{ACAD_REACTORS
330
267
102
}
330
267
100
AcDbVisualStyle
  2
X-Ray
 70
    25
 71
     2
 72
     2
 73
     1
 90
        1
 40
0.5
 41
30.0
 62
     5
 63
     7
421
 16777215
 74
     1
 91
        0
 64
     7
 65
   257
 75
     1
175
     1
 42
1.0
 92
        8
 66
     7
 43
1.0
 76
     1
 77
     6
 78
     2
 67
     7
 79
     3
170
     0
171
     0
290
     0
174
     0
 93
       13
 44
0.0
173
     0
291
     0
 45
0.0
  0
DICTIONARYVAR
  5
331
102
{ACAD_REACTORS
330
330
102
}
330
330
100
DictionaryVariables
280
     0
  1
1:1
  0
DICTIONARYVAR
  5
D5E
102
{ACAD_REACTORS
330
330
102
}
330
330
100
DictionaryVariables
280
     0
  1
Standard
  0
DICTIONARYVAR
  5
335
102
{ACAD_REACTORS
330
330
102
}
330
330
100
DictionaryVariables
280
     0
  1
Standard
  0
DICTIONARYVAR
  5
D52
102
{ACAD_REACTORS
330
330
102
}
330
330
100
DictionaryVariables
280
     0
  1
ByLayer
  0
DICTIONARYVAR
  5
896
102
{ACAD_REACTORS
330
330
102
}
330
330
100
DictionaryVariables
280
     0
  1
0
  0
DICTIONARYVAR
  5
38B2
102
{ACAD_REACTORS
330
E38
102
}
330
E38
100
DictionaryVariables
280
     0
  1
0.261799
  0
DICTIONARYVAR
  5
38B0
102
{ACAD_REACTORS
330
E38
102
}
330
E38
100
DictionaryVariables
280
     0
  1
0.400000
  0
DICTIONARYVAR
  5
38B1
102
{ACAD_REACTORS
330
E38
102
}
330
E38
100
DictionaryVariables
280
     0
  1
0.250000
  0
DICTIONARYVAR
  5
38B3
102
{ACAD_REACTORS
330
E38
102
}
330
E38
100
DictionaryVariables
280
     0
  1
1
  0
XRECORD
  5
7AA
102
{ACAD_REACTORS
330
2E2
102
}
330
2E2
100
AcDbXrecord
280
     1
 91
    34815
301

290
     0
302
HIDDEN
330
14
 90
        8
 62
     7
370
    -3
331
13
  1
Color_7
440
 33554687
330
4B
 90
        8
 62
     7
370
    20
331
13
  1
Color_7
440
 33554687
330
4C
 90
        8
 62
     3
370
    13
331
13
  1
Color_3
440
 33554687
330
4D
 90
        8
 62
     7
370
    20
331
13
  1
Color_7
440
 33554687
330
667
 90
        8
 62
     7
370
    -3
331
13
  1
Color_7
440
 33554687
330
0
 90
        8
 62
     8
370
    20
331
0
  1
Color_8
440
 33554687
330
D6B
 90
        0
 62
     4
370
    20
331
D6C
  1
Color_4
440
 33554687
330
D8C
 90
        0
 62
     7
370
    -3
331
13
  1
Color_7
440
 33554687
  0
FIELD
  5
4531
102
{ACAD_REACTORS
330
4539
102
}
330
4539
100
AcDbField
  1
_text
  2
{%<\_FldIdx 0>%N}
 90
        1
360
4534
 97
        0
 91
       63
 92
        0
 94
        8
 95
        2
 96
        0
300

 93
        1
  6
ACFD_FIELDTEXT_CHECKSUM
 93
        2
 90
        2
140
4538.0
 94
        0
300

302

304
ACVALUE_END
  7
ACFD_FIELD_VALUE
 93
        6
 90
        4
  1
{20160725N}
 94
        0
300

302

304
ACVALUE_END
301
{20160725N}
 98
       11
  0
DICTIONARY
  5
5CE7
330
279
100
AcDbDictionary
280
     1
281
     1
  3
ACAD_ROUNDTRIP_2008_TABLESTYLE_CELLSTYLEMAP
360
5CE8
  0
FIELD
  5
4534
330
4531
100
AcDbField
  1
AcVar
  2
\AcVar CreateDate \f "yyyyMMdd"
 90
        0
 97
        0
 91
       63
 92
        0
 94
        8
 95
        2
 96
        0
300

 93
        1
  6
Variable
 93
        2
 90
        4
  1
CreateDate
 94
        0
300

302

304
ACVALUE_END
  7
ACFD_FIELD_VALUE
 93
        6
 90
        8
 92
       16
310
E0070700000019000700280014000000
 94
        0
300
yyyyMMdd
302

304
ACVALUE_END
301
20160725
 98
        8
  0
CELLSTYLEMAP
  5
5CE8
102
{ACAD_REACTORS
330
5CE7
102
}
330
5CE7
100
AcDbCellStyleMap
 90
        3
300
CELLSTYLE
  1
TABLEFORMAT_BEGIN
 90
        5
170
     1
 91
        0
 92
    32768
 62
   257
 93
        1
300
CONTENTFORMAT
  1
CONTENTFORMAT_BEGIN
 90
        0
 91
        0
 92
        4
 93
        0
300

 40
0.0
140
1.0
 94
        5
 62
     0
340
17
144
6.0
309
CONTENTFORMAT_END
171
     1
301
MARGIN
  1
CELLMARGIN_BEGIN
 40
0.06
 40
0.06
 40
0.06
 40
0.06
 40
0.18
 40
0.18
309
CELLMARGIN_END
 94
        6
 95
        1
302
GRIDFORMAT
  1
GRIDFORMAT_BEGIN
 90
        0
 91
        1
 62
     0
 92
       -2
340
0
 93
        0
 40
0.045
309
GRIDFORMAT_END
 95
        2
302
GRIDFORMAT
  1
GRIDFORMAT_BEGIN
 90
        0
 91
        1
 62
     0
 92
       -2
340
0
 93
        0
 40
0.045
309
GRIDFORMAT_END
 95
        4
302
GRIDFORMAT
  1
GRIDFORMAT_BEGIN
 90
        0
 91
        1
 62
     0
 92
       -2
340
0
 93
        0
 40
0.045
309
GRIDFORMAT_END
 95
        8
302
GRIDFORMAT
  1
GRIDFORMAT_BEGIN
 90
        0
 91
        1
 62
     0
 92
       -2
340
0
 93
        0
 40
0.045
309
GRIDFORMAT_END
 95
       16
302
GRIDFORMAT
  1
GRIDFORMAT_BEGIN
 90
        0
 91
        1
 62
     0
 92
       -2
340
0
 93
        0
 40
0.045
309
GRIDFORMAT_END
 95
       32
302
GRIDFORMAT
  1
GRIDFORMAT_BEGIN
 90
        0
 91
        1
 62
     0
 92
       -2
340
0
 93
        0
 40
0.045
309
GRIDFORMAT_END
309
TABLEFORMAT_END
  1
CELLSTYLE_BEGIN
 90
        1
 91
        1
300
_TITLE
309
CELLSTYLE_END
300
CELLSTYLE
  1
TABLEFORMAT_BEGIN
 90
        5
170
     1
 91
        0
 92
        0
 62
   257
 93
        1
300
CONTENTFORMAT
  1
CONTENTFORMAT_BEGIN
 90
        0
 91
        0
 92
        4
 93
        0
300

 40
0.0
140
1.0
 94
        5
 62
     0
340
17
144
4.5
309
CONTENTFORMAT_END
171
     1
301
MARGIN
  1
CELLMARGIN_BEGIN
 40
0.06
 40
0.06
 40
0.06
 40
0.06
 40
0.18
 40
0.18
309
CELLMARGIN_END
 94
        6
 95
        1
302
GRIDFORMAT
  1
GRIDFORMAT_BEGIN
 90
        0
 91
        1
 62
     0
 92
       -2
340
0
 93
        0
 40
0.045
309
GRIDFORMAT_END
 95
        2
302
GRIDFORMAT
  1
GRIDFORMAT_BEGIN
 90
        0
 91
        1
 62
     0
 92
       -2
340
0
 93
        0
 40
0.045
309
GRIDFORMAT_END
 95
        4
302
GRIDFORMAT
  1
GRIDFORMAT_BEGIN
 90
        0
 91
        1
 62
     0
 92
       -2
340
0
 93
        0
 40
0.045
309
GRIDFORMAT_END
 95
        8
302
GRIDFORMAT
  1
GRIDFORMAT_BEGIN
 90
        0
 91
        1
 62
     0
 92
       -2
340
0
 93
        0
 40
0.045
309
GRIDFORMAT_END
 95
       16
302
GRIDFORMAT
  1
GRIDFORMAT_BEGIN
 90
        0
 91
        1
 62
     0
 92
       -2
340
0
 93
        0
 40
0.045
309
GRIDFORMAT_END
 95
       32
302
GRIDFORMAT
  1
GRIDFORMAT_BEGIN
 90
        0
 91
        1
 62
     0
 92
       -2
340
0
 93
        0
 40
0.045
309
GRIDFORMAT_END
309
TABLEFORMAT_END
  1
CELLSTYLE_BEGIN
 90
        2
 91
        1
300
_HEADER
309
CELLSTYLE_END
300
CELLSTYLE
  1
TABLEFORMAT_BEGIN
 90
        5
170
     1
 91
        0
 92
        0
 62
   257
 93
        1
300
CONTENTFORMAT
  1
CONTENTFORMAT_BEGIN
 90
        0
 91
        0
 92
        4
 93
        0
300

 40
0.0
140
1.0
 94
        2
 62
     0
340
17
144
4.5
309
CONTENTFORMAT_END
171
     1
301
MARGIN
  1
CELLMARGIN_BEGIN
 40
0.06
 40
0.06
 40
0.06
 40
0.06
 40
0.18
 40
0.18
309
CELLMARGIN_END
 94
        6
 95
        1
302
GRIDFORMAT
  1
GRIDFORMAT_BEGIN
 90
        0
 91
        1
 62
     0
 92
       -2
340
0
 93
        0
 40
0.045
309
GRIDFORMAT_END
 95
        2
302
GRIDFORMAT
  1
GRIDFORMAT_BEGIN
 90
        0
 91
        1
 62
     0
 92
       -2
340
0
 93
        0
 40
0.045
309
GRIDFORMAT_END
 95
        4
302
GRIDFORMAT
  1
GRIDFORMAT_BEGIN
 90
        0
 91
        1
 62
     0
 92
       -2
340
0
 93
        0
 40
0.045
309
GRIDFORMAT_END
 95
        8
302
GRIDFORMAT
  1
GRIDFORMAT_BEGIN
 90
        0
 91
        1
 62
     0
 92
       -2
340
0
 93
        0
 40
0.045
309
GRIDFORMAT_END
 95
       16
302
GRIDFORMAT
  1
GRIDFORMAT_BEGIN
 90
        0
 91
        1
 62
     0
 92
       -2
340
0
 93
        0
 40
0.045
309
GRIDFORMAT_END
 95
       32
302
GRIDFORMAT
  1
GRIDFORMAT_BEGIN
 90
        0
 91
        1
 62
     0
 92
       -2
340
0
 93
        0
 40
0.045
309
GRIDFORMAT_END
309
TABLEFORMAT_END
  1
CELLSTYLE_BEGIN
 90
        3
 91
        2
300
_DATA
309
CELLSTYLE_END
  0
ENDSEC
  0
EOF
