  0
SECTION
  2
HEADER
  9
$ACADVER
  1
AC1032
  9
$ACADMAINTVER
 90
      228
  9
$DWGCODEPAGE
  3
ANSI_932
  9
$LASTSAVEDBY
  1
T-HOWE-PC
  9
$REQUIREDVERSIONS
160
                 0
  9
$INSBASE
 10
0.0
 20
0.0
 30
0.0
  9
$EXTMIN
 10
0.0
 20
0.0
 30
0.0
  9
$EXTMAX
 10
630.0
 20
891.0
 30
0.0
  9
$LIMMIN
 10
0.0
 20
0.0
  9
$LIMMAX
 10
630.0
 20
891.0
  9
$ORTHOMODE
 70
     0
  9
$REGENMODE
 70
     1
  9
$FILLMODE
 70
     1
  9
$QTEXTMODE
 70
     0
  9
$MIRRTEXT
 70
     1
  9
$LTSCALE
 40
1.5
  9
$ATTMODE
 70
     1
  9
$TEXTSIZE
 40
2.5
  9
$TRACEWID
 40
1.0
  9
$TEXTSTYLE
  7
ＭＳ ゴシック
  9
$CLAYER
  8
DIM
  9
$CELTYPE
  6
ByLayer
  9
$CECOLOR
 62
   256
  9
$CELTSCALE
 40
1.0
  9
$DISPSILH
 70
     0
  9
$DIMSCALE
 40
1.0
  9
$DIMASZ
 40
3.0
  9
$DIMEXO
 40
10.0
  9
$DIMDLI
 40
1.0
  9
$DIMRND
 40
0.0
  9
$DIMDLE
 40
0.0
  9
$DIMEXE
 40
0.0
  9
$DIMTP
 40
0.0
  9
$DIMTM
 40
0.0
  9
$DIMTXT
 40
8.0
  9
$DIMCEN
 40
0.0
  9
$DIMTSZ
 40
0.0
  9
$DIMTOL
 70
     0
  9
$DIMLIM
 70
     0
  9
$DIMTIH
 70
     0
  9
$DIMTOH
 70
     0
  9
$DIMSE1
 70
     0
  9
$DIMSE2
 70
     0
  9
$DIMTAD
 70
     1
  9
$DIMZIN
 70
    11
  9
$DIMBLK
  1
DOT
  9
$DIMASO
 70
     1
  9
$DIMSHO
 70
     1
  9
$DIMPOST
  1
<>
  9
$DIMAPOST
  1
[]
  9
$DIMALT
 70
     0
  9
$DIMALTD
 70
     1
  9
$DIMALTF
 40
1.0
  9
$DIMLFAC
 40
1.0
  9
$DIMTOFL
 70
     0
  9
$DIMTVP
 40
0.0
  9
$DIMTIX
 70
     1
  9
$DIMSOXD
 70
     0
  9
$DIMSAH
 70
     0
  9
$DIMBLK1
  1

  9
$DIMBLK2
  1

  9
$DIMSTYLE
  2
tfrom線あり
  9
$DIMCLRD
 70
     0
  9
$DIMCLRE
 70
     0
  9
$DIMCLRT
 70
     0
  9
$DIMTFAC
 40
1.0
  9
$DIMGAP
 40
5.0
  9
$DIMJUST
 70
     0
  9
$DIMSD1
 70
     0
  9
$DIMSD2
 70
     0
  9
$DIMTOLJ
 70
     1
  9
$DIMTZIN
 70
    11
  9
$DIMALTZ
 70
    11
  9
$DIMALTTZ
 70
    11
  9
$DIMUPT
 70
     0
  9
$DIMDEC
 70
     0
  9
$DIMTDEC
 70
     1
  9
$DIMALTU
 70
     2
  9
$DIMALTTD
 70
     2
  9
$DIMTXSTY
  7
ＭＳ ゴシック
  9
$DIMAUNIT
 70
     0
  9
$DIMADEC
 70
     2
  9
$DIMALTRND
 40
0.0
  9
$DIMAZIN
 70
     0
  9
$DIMDSEP
 70
    46
  9
$DIMATFIT
 70
     0
  9
$DIMFRAC
 70
     2
  9
$DIMLDRBLK
  1
DOT
  9
$DIMLUNIT
 70
     2
  9
$DIMLWD
 70
    -2
  9
$DIMLWE
 70
    -2
  9
$DIMTMOVE
 70
     0
  9
$DIMFXL
 40
1.0
  9
$DIMFXLON
 70
     0
  9
$DIMJOGANG
 40
0.7853981633974483
  9
$DIMTFILL
 70
     0
  9
$DIMTFILLCLR
 70
     0
  9
$DIMARCSYM
 70
     0
  9
$DIMLTYPE
  6

  9
$DIMLTEX1
  6

  9
$DIMLTEX2
  6

  9
$DIMTXTDIRECTION
 70
     0
  9
$LUNITS
 70
     2
  9
$LUPREC
 70
     0
  9
$SKETCHINC
 40
0.1
  9
$FILLETRAD
 40
0.0
  9
$AUNITS
 70
     0
  9
$AUPREC
 70
     0
  9
$MENU
  1
acad
  9
$ELEVATION
 40
0.0
  9
$PELEVATION
 40
0.0
  9
$THICKNESS
 40
0.0
  9
$LIMCHECK
 70
     0
  9
$CHAMFERA
 40
0.0
  9
$CHAMFERB
 40
0.0
  9
$CHAMFERC
 40
0.0
  9
$CHAMFERD
 40
0.0
  9
$SKPOLY
 70
     0
  9
$TDCREATE
 40
2460178.902905092
  9
$TDUCREATE
 40
2460178.527905092
  9
$TDUPDATE
 40
2460179.677511574
  9
$TDUUPDATE
 40
2460179.302511574
  9
$TDINDWG
 40
0.7746064815
  9
$TDUSRTIMER
 40
0.7746064815
  9
$USRTIMER
 70
     1
  9
$ANGBASE
 50
0.0
  9
$ANGDIR
 70
     0
  9
$PDMODE
 70
     1
  9
$PDSIZE
 40
-2.0
  9
$PLINEWID
 40
0.0
  9
$SPLFRAME
 70
     0
  9
$SPLINETYPE
 70
     6
  9
$SPLINESEGS
 70
     8
  9
$HANDSEED
  5
18C1C
  9
$SURFTAB1
 70
     6
  9
$SURFTAB2
 70
     6
  9
$SURFTYPE
 70
     6
  9
$SURFU
 70
     6
  9
$SURFV
 70
     6
  9
$UCSBASE
  2

  9
$UCSNAME
  2

  9
$UCSORG
 10
0.0
 20
0.0
 30
0.0
  9
$UCSXDIR
 10
1.0
 20
0.0
 30
0.0
  9
$UCSYDIR
 10
0.0
 20
1.0
 30
0.0
  9
$UCSORTHOREF
  2

  9
$UCSORTHOVIEW
 70
     0
  9
$UCSORGTOP
 10
0.0
 20
0.0
 30
0.0
  9
$UCSORGBOTTOM
 10
0.0
 20
0.0
 30
0.0
  9
$UCSORGLEFT
 10
0.0
 20
0.0
 30
0.0
  9
$UCSORGRIGHT
 10
0.0
 20
0.0
 30
0.0
  9
$UCSORGFRONT
 10
0.0
 20
0.0
 30
0.0
  9
$UCSORGBACK
 10
0.0
 20
0.0
 30
0.0
  9
$PUCSBASE
  2

  9
$PUCSNAME
  2

  9
$PUCSORG
 10
0.0
 20
0.0
 30
0.0
  9
$PUCSXDIR
 10
1.0
 20
0.0
 30
0.0
  9
$PUCSYDIR
 10
0.0
 20
1.0
 30
0.0
  9
$PUCSORTHOREF
  2

  9
$PUCSORTHOVIEW
 70
     0
  9
$PUCSORGTOP
 10
0.0
 20
0.0
 30
0.0
  9
$PUCSORGBOTTOM
 10
0.0
 20
0.0
 30
0.0
  9
$PUCSORGLEFT
 10
0.0
 20
0.0
 30
0.0
  9
$PUCSORGRIGHT
 10
0.0
 20
0.0
 30
0.0
  9
$PUCSORGFRONT
 10
0.0
 20
0.0
 30
0.0
  9
$PUCSORGBACK
 10
0.0
 20
0.0
 30
0.0
  9
$USERI1
 70
     0
  9
$USERI2
 70
     0
  9
$USERI3
 70
     0
  9
$USERI4
 70
     0
  9
$USERI5
 70
     0
  9
$USERR1
 40
0.0
  9
$USERR2
 40
0.0
  9
$USERR3
 40
0.0
  9
$USERR4
 40
0.0
  9
$USERR5
 40
0.0
  9
$WORLDVIEW
 70
     1
  9
$SHADEDGE
 70
     3
  9
$SHADEDIF
 70
    70
  9
$TILEMODE
 70
     1
  9
$MAXACTVP
 70
    64
  9
$PINSBASE
 10
0.0
 20
0.0
 30
0.0
  9
$PLIMCHECK
 70
     0
  9
$PEXTMIN
 10
0.0
 20
0.0
 30
0.0
  9
$PEXTMAX
 10
0.0
 20
0.0
 30
0.0
  9
$PLIMMIN
 10
-7.5
 20
-20.0
  9
$PLIMMAX
 10
412.5
 20
277.0
  9
$UNITMODE
 70
     0
  9
$VISRETAIN
 70
     0
  9
$PLINEGEN
 70
     1
  9
$PSLTSCALE
 70
     0
  9
$TREEDEPTH
 70
  3020
  9
$CMLSTYLE
  2
Standard
  9
$CMLJUST
 70
     0
  9
$CMLSCALE
 40
1.0
  9
$PROXYGRAPHICS
 70
     0
  9
$MEASUREMENT
 70
     1
  9
$CELWEIGHT
370
    -1
  9
$ENDCAPS
280
     0
  9
$JOINSTYLE
280
     0
  9
$LWDISPLAY
290
     1
  9
$INSUNITS
 70
     4
  9
$HYPERLINKBASE
  1

  9
$STYLESHEET
  1
monochrome.ctb
  9
$XEDIT
290
     1
  9
$CEPSNTYPE
380
     0
  9
$PSTYLEMODE
290
     1
  9
$FINGERPRINTGUID
  2

  9
$VERSIONGUID
  2
{929A8858-301E-8044-9897-B5250C0834A8}
  9
$EXTNAMES
290
     1
  9
$PSVPSCALE
 40
0.0
  9
$OLESTARTUP
290
     0
  9
$SORTENTS
280
   127
  9
$INDEXCTL
280
     0
  9
$HIDETEXT
280
     1
  9
$XCLIPFRAME
280
     0
  9
$HALOGAP
280
     0
  9
$OBSCOLOR
 70
   257
  9
$OBSLTYPE
280
     0
  9
$INTERSECTIONDISPLAY
280
     0
  9
$INTERSECTIONCOLOR
 70
   257
  9
$DIMASSOC
280
     2
  9
$PROJECTNAME
  1

  9
$CAMERADISPLAY
290
     0
  9
$LENSLENGTH
 40
50.0
  9
$CAMERAHEIGHT
 40
0.0
  9
$STEPSPERSEC
 40
2.0
  9
$STEPSIZE
 40
6.0
  9
$3DDWFPREC
 40
2.0
  9
$PSOLWIDTH
 40
0.25
  9
$PSOLHEIGHT
 40
4.0
  9
$LOFTANG1
 40
1.570796326794897
  9
$LOFTANG2
 40
1.570796326794897
  9
$LOFTMAG1
 40
0.0
  9
$LOFTMAG2
 40
0.0
  9
$LOFTPARAM
 70
     7
  9
$LOFTNORMALS
280
     1
  9
$LATITUDE
 40
37.795
  9
$LONGITUDE
 40
-122.394
  9
$NORTHDIRECTION
 40
0.0
  9
$TIMEZONE
 70
 -8000
  9
$LIGHTGLYPHDISPLAY
280
     1
  9
$TILEMODELIGHTSYNCH
280
     1
  9
$CMATERIAL
347
264
  9
$SOLIDHIST
280
     1
  9
$SHOWHIST
280
     1
  9
$DWFFRAME
280
     2
  9
$DGNFRAME
280
     2
  9
$REALWORLDSCALE
290
     1
  9
$INTERFERECOLOR
 62
   256
  9
$INTERFEREOBJVS
345
270
  9
$INTERFEREVPVS
346
8FA
  9
$CSHADOW
280
     0
  9
$SHADOWPLANELOCATION
 40
0.0
  0
ENDSEC
  0
SECTION
  2
CLASSES
  0
CLASS
  1
IMAGE
  2
AcDbRasterImage
  3
ISM
 90
     2175
 91
        0
280
     0
281
     1
  0
CLASS
  1
DICTIONARYVAR
  2
AcDbDictionaryVar
  3
ObjectDBX Classes
 90
        0
 91
       22
280
     0
281
     0
  0
CLASS
  1
RASTERVARIABLES
  2
AcDbRasterVariables
  3
ISM
 90
        0
 91
        1
280
     0
281
     0
  0
CLASS
  1
IMAGEDEF
  2
AcDbRasterImageDef
  3
ISM
 90
        0
 91
        0
280
     0
281
     0
  0
CLASS
  1
IMAGEDEF_REACTOR
  2
AcDbRasterImageDefReactor
  3
ISM
 90
        1
 91
        0
280
     0
281
     0
  0
CLASS
  1
IDBUFFER
  2
AcDbIdBuffer
  3
ObjectDBX Classes
 90
        0
 91
        0
280
     0
281
     0
  0
CLASS
  1
SPATIAL_FILTER
  2
AcDbSpatialFilter
  3
ObjectDBX Classes
 90
        0
 91
        0
280
     0
281
     0
  0
CLASS
  1
SORTENTSTABLE
  2
AcDbSortentsTable
  3
ObjectDBX Classes
 90
        0
 91
        2
280
     0
281
     0
  0
CLASS
  1
LAYER_INDEX
  2
AcDbLayerIndex
  3
ObjectDBX Classes
 90
        0
 91
        0
280
     0
281
     0
  0
CLASS
  1
SPATIAL_INDEX
  2
AcDbSpatialIndex
  3
ObjectDBX Classes
 90
        0
 91
        0
280
     0
281
     0
  0
CLASS
  1
OBJECT_PTR
  2
CAseDLPNTableRecord
  3
ASE-LPNTableRecord
 90
        1
 91
        0
280
     0
281
     0
  0
CLASS
  1
PLOTSETTINGS
  2
AcDbPlotSettings
  3
ObjectDBX Classes
 90
        0
 91
        0
280
     0
281
     0
  0
CLASS
  1
ACDBDICTIONARYWDFLT
  2
AcDbDictionaryWithDefault
  3
ObjectDBX Classes
 90
        0
 91
        1
280
     0
281
     0
  0
CLASS
  1
SCALE
  2
AcDbScale
  3
ObjectDBX Classes
 90
     1153
 91
       33
280
     0
281
     0
  0
CLASS
  1
MATERIAL
  2
AcDbMaterial
  3
ObjectDBX Classes
 90
     1153
 91
        3
280
     0
281
     0
  0
CLASS
  1
VISUALSTYLE
  2
AcDbVisualStyle
  3
ObjectDBX Classes
 90
     4095
 91
       27
280
     0
281
     0
  0
CLASS
  1
TABLESTYLE
  2
AcDbTableStyle
  3
ObjectDBX Classes
 90
     4095
 91
        1
280
     0
281
     0
  0
CLASS
  1
DIMASSOC
  2
AcDbDimAssoc
  3
"AcDbDimAssoc|Product Desc:     AcDim ARX App For Dimension|Company:          Autodesk, Inc.|WEB Address:      www.autodesk.com"
 90
        0
 91
        2
280
     0
281
     0
  0
CLASS
  1
CELLSTYLEMAP
  2
AcDbCellStyleMap
  3
ObjectDBX Classes
 90
     1152
 91
        9
280
     0
281
     0
  0
CLASS
  1
SUN
  2
AcDbSun
  3
SCENEOE
 90
     1153
 91
        1
280
     0
281
     0
  0
CLASS
  1
MLEADERSTYLE
  2
AcDbMLeaderStyle
  3
ACDB_MLEADERSTYLE_CLASS
 90
     4095
 91
        1
280
     0
281
     0
  0
CLASS
  1
FIELD
  2
AcDbField
  3
ObjectDBX Classes
 90
     1152
 91
        2
280
     0
281
     0
  0
CLASS
  1
FIELDLIST
  2
AcDbFieldList
  3
ObjectDBX Classes
 90
     1152
 91
        1
280
     0
281
     0
  0
CLASS
  1
ACDBSECTIONVIEWSTYLE
  2
AcDbSectionViewStyle
  3
ObjectDBX Classes
 90
     1025
 91
        1
280
     0
281
     0
  0
CLASS
  1
ACDBDETAILVIEWSTYLE
  2
AcDbDetailViewStyle
  3
ObjectDBX Classes
 90
     1025
 91
        1
280
     0
281
     0
  0
CLASS
  1
SOLID_BACKGROUND
  2
AcDbSolidBackground
  3
SCENEOE
 90
     4095
 91
        1
280
     0
281
     0
  0
CLASS
  1
NPOCOLLECTION
  2
AcDbImpNonPersistentObjectsCollection
  3
ObjectDBX Classes
 90
     1153
 91
        1
280
     0
281
     0
  0
CLASS
  1
RAPIDRTRENDERSETTINGS
  2
AcDbRapidRTRenderSettings
  3
ObjectDBX Classes
 90
     1024
 91
        6
280
     0
281
     0
  0
ENDSEC
  0
SECTION
  2
TABLES
  0
TABLE
  2
VPORT
  5
7
330
0
100
AcDbSymbolTable
 70
     1
  0
VPORT
  5
15
330
7
100
AcDbSymbolTableRecord
100
AcDbViewportTableRecord
  2
*ACTIVE
 70
     0
 10
0.0
 20
0.0
 11
1.0
 21
1.0
 12
0.0
 22
0.0
 13
0.0
 23
0.0
 14
1.0
 24
1.0
 15
0.0
 25
0.0
 16
0.0
 26
0.0
 36
2189.244392363546
 17
315.0
 27
445.5
 37
-46.86809886248108
 40
893.7443531827515
 41
1.796610169491525
 42
50.0
 43
0.0
 44
0.0
 50
0.0
 51
0.0
 71
     0
 72
  2000
 73
     1
 74
     1
 75
     0
 76
     0
 77
     0
 78
     0
281
     1
 65
     1
110
0.0
120
0.0
130
0.0
111
1.0
121
0.0
131
0.0
112
0.0
122
1.0
132
0.0
 79
     0
146
0.0
348
3666
 60
     3
 61
     5
292
     1
282
     1
141
0.0
142
0.0
361
904
1001
ACAD_NAV_VCDISPLAY
1070
     3
  0
ENDTAB
  0
TABLE
  2
LTYPE
  5
4
330
0
100
AcDbSymbolTable
 70
     3
  0
LTYPE
  5
11
330
4
100
AcDbSymbolTableRecord
100
AcDbLinetypeTableRecord
  2
ByBlock
 70
     0
  3

 72
    65
 73
     0
 40
0.0
  0
LTYPE
  5
12
330
4
100
AcDbSymbolTableRecord
100
AcDbLinetypeTableRecord
  2
ByLayer
 70
     0
  3

 72
    65
 73
     0
 40
0.0
  0
LTYPE
  5
13
330
4
100
AcDbSymbolTableRecord
100
AcDbLinetypeTableRecord
  2
Continuous
 70
     0
  3
Solid line
 72
    65
 73
     0
 40
0.0
  0
LTYPE
  5
D6C
330
4
100
AcDbSymbolTableRecord
100
AcDbLinetypeTableRecord
  2
BORDER
 70
     0
  3
Border __  __  . __  __  . __  __  . __  __  . 
 72
    65
 73
     6
 40
44.45
 49
12.7
 74
     0
 49
-6.349999999999999
 74
     0
 49
12.7
 74
     0
 49
-6.349999999999999
 74
     0
 49
0.0
 74
     0
 49
-6.349999999999999
 74
     0
  0
ENDTAB
  0
TABLE
  2
LAYER
  5
2
102
{ACAD_XDICTIONARY
360
2E1
102
}
330
0
100
AcDbSymbolTable
 70
    18
  0
LAYER
  5
14
102
{ACAD_XDICTIONARY
360
18B8A
102
}
330
2
100
AcDbSymbolTableRecord
100
AcDbLayerTableRecord
  2
0
 70
     0
 62
     7
  6
Continuous
370
    -3
390
1D
347
266
348
0
  0
LAYER
  5
4B
102
{ACAD_XDICTIONARY
360
18B8C
102
}
330
2
100
AcDbSymbolTableRecord
100
AcDbLayerTableRecord
  2
TEMPLATE
 70
     0
 62
     7
  6
Continuous
370
    20
390
1D
347
266
348
0
  0
LAYER
  5
4C
102
{ACAD_XDICTIONARY
360
18B8E
102
}
330
2
100
AcDbSymbolTableRecord
100
AcDbLayerTableRecord
  2
DIM
 70
     0
 62
     3
  6
Continuous
370
    13
390
1D
347
266
348
0
  0
LAYER
  5
D6B
102
{ACAD_XDICTIONARY
360
18B90
102
}
330
2
100
AcDbSymbolTableRecord
100
AcDbLayerTableRecord
  2
BORDER
 70
     0
 62
     4
  6
BORDER
290
     0
370
    20
390
1D
347
266
348
0
1001
AcAecLayerStandard
1000

1000

  0
LAYER
  5
17710
102
{ACAD_XDICTIONARY
360
18B92
102
}
330
2
100
AcDbSymbolTableRecord
100
AcDbLayerTableRecord
  2
Standard
 70
     0
 62
     7
  6
Continuous
370
    -3
390
1D
347
266
348
0
  0
LAYER
  5
1866F
330
2
100
AcDbSymbolTableRecord
100
AcDbLayerTableRecord
  2
Defpoints
 70
     0
 62
     7
  6
Continuous
290
     0
370
    -3
390
1D
347
266
348
0
  0
LAYER
  5
18672
102
{ACAD_XDICTIONARY
360
18B94
102
}
330
2
100
AcDbSymbolTableRecord
100
AcDbLayerTableRecord
  2
MODEL
 70
     0
 62
     7
  6
Continuous
370
    20
390
1D
347
266
348
0
  0
LAYER
  5
18673
102
{ACAD_XDICTIONARY
360
18B96
102
}
330
2
100
AcDbSymbolTableRecord
100
AcDbLayerTableRecord
  2
64590238_GEH_THM
 70
     0
 62
     7
  6
Continuous
370
    -3
390
1D
347
266
348
0
  0
LAYER
  5
18674
102
{ACAD_XDICTIONARY
360
18B98
102
}
330
2
100
AcDbSymbolTableRecord
100
AcDbLayerTableRecord
  2
A4230839_222766_
 70
     0
 62
     7
  6
Continuous
370
    -3
390
1D
347
266
348
0
  0
LAYER
  5
18675
102
{ACAD_XDICTIONARY
360
18B9A
102
}
330
2
100
AcDbSymbolTableRecord
100
AcDbLayerTableRecord
  2
A4230486_HUELSE_
 70
     0
 62
     7
  6
Continuous
370
    -3
390
1D
347
266
348
0
  0
LAYER
  5
18676
102
{ACAD_XDICTIONARY
360
18B9C
102
}
330
2
100
AcDbSymbolTableRecord
100
AcDbLayerTableRecord
  2
406342038_GRIFF_
 70
     0
 62
     7
  6
Continuous
370
    -3
390
1D
347
266
348
0
  0
LAYER
  5
18677
102
{ACAD_XDICTIONARY
360
18B9E
102
}
330
2
100
AcDbSymbolTableRecord
100
AcDbLayerTableRecord
  2
A4226705_TASTE_B
 70
     0
 62
     7
  6
Continuous
370
    -3
390
1D
347
266
348
0
  0
LAYER
  5
18678
102
{ACAD_XDICTIONARY
360
18BA0
102
}
330
2
100
AcDbSymbolTableRecord
100
AcDbLayerTableRecord
  2
A4222321_ROSETTE
 70
     0
 62
     7
  6
Continuous
370
    -3
390
1D
347
266
348
0
  0
LAYER
  5
18679
102
{ACAD_XDICTIONARY
360
18BA2
102
}
330
2
100
AcDbSymbolTableRecord
100
AcDbLayerTableRecord
  2
64680238_KNOPF_U
 70
     0
 62
     7
  6
Continuous
370
    -3
390
1D
347
266
348
0
  0
LAYER
  5
1867A
102
{ACAD_XDICTIONARY
360
18BA4
102
}
330
2
100
AcDbSymbolTableRecord
100
AcDbLayerTableRecord
  2
05985231_SITZ__R
 70
     0
 62
     7
  6
Continuous
370
    -3
390
1D
347
266
348
0
  0
LAYER
  5
1867B
102
{ACAD_XDICTIONARY
360
18BA6
102
}
330
2
100
AcDbSymbolTableRecord
100
AcDbLayerTableRecord
  2
03035038_MUTTER_
 70
     0
 62
     7
  6
Continuous
370
    -3
390
1D
347
266
348
0
  0
LAYER
  5
1867C
102
{ACAD_XDICTIONARY
360
18BA8
102
}
330
2
100
AcDbSymbolTableRecord
100
AcDbLayerTableRecord
  2
400463031_KAPPE_
 70
     0
 62
     7
  6
Continuous
370
    -3
390
1D
347
266
348
0
  0
LAYER
  5
1867D
102
{ACAD_XDICTIONARY
360
18BAA
102
}
330
2
100
AcDbSymbolTableRecord
100
AcDbLayerTableRecord
  2
A4226725_CLIP_CL
 70
     0
 62
     7
  6
Continuous
370
    -3
390
1D
347
266
348
0
  0
ENDTAB
  0
TABLE
  2
STYLE
  5
3
330
0
100
AcDbSymbolTable
 70
     3
  0
STYLE
  5
17
330
3
100
AcDbSymbolTableRecord
100
AcDbTextStyleTableRecord
  2
Standard
 70
     0
 40
0.0
 41
1.0
 50
0.0
 71
     0
 42
2.5
  3
txt
  4
BIGFONT.SHX
  0
STYLE
  5
39
330
3
100
AcDbSymbolTableRecord
100
AcDbTextStyleTableRecord
  2
ＭＳ ゴシック
 70
     0
 40
0.0
 41
1.0
 50
0.0
 71
     0
 42
2.5
  3
msgothic.ttc
  4
ＭＳ ゴシック
1001
ACAD
1000
ＭＳ ゴシック
1071
        0
  0
ENDTAB
  0
TABLE
  2
VIEW
  5
5
330
0
100
AcDbSymbolTable
 70
     8
  0
ENDTAB
  0
TABLE
  2
UCS
  5
6
330
0
100
AcDbSymbolTable
 70
     0
  0
ENDTAB
  0
TABLE
  2
APPID
  5
8
330
0
100
AcDbSymbolTable
 70
     8
  0
APPID
  5
16
330
8
100
AcDbSymbolTableRecord
100
AcDbRegAppTableRecord
  2
ACAD
 70
     0
  0
APPID
  5
7AC
330
8
100
AcDbSymbolTableRecord
100
AcDbRegAppTableRecord
  2
AcAecLayerStandard
 70
     0
  0
APPID
  5
E29
330
8
100
AcDbSymbolTableRecord
100
AcDbRegAppTableRecord
  2
ACAD_MLEADERVER
 70
     0
  0
APPID
  5
18B87
330
8
100
AcDbSymbolTableRecord
100
AcDbRegAppTableRecord
  2
ACAD_EXEMPT_FROM_CAD_STANDARDS
 70
     0
  0
APPID
  5
18B89
330
8
100
AcDbSymbolTableRecord
100
AcDbRegAppTableRecord
  2
PE_URL
 70
     0
  0
APPID
  5
18BAE
330
8
100
AcDbSymbolTableRecord
100
AcDbRegAppTableRecord
  2
DCO15
 70
     0
  0
APPID
  5
18BBB
330
8
100
AcDbSymbolTableRecord
100
AcDbRegAppTableRecord
  2
ACAD_NAV_VCDISPLAY
 70
     0
  0
APPID
  5
18C12
330
8
100
AcDbSymbolTableRecord
100
AcDbRegAppTableRecord
  2
ACAD_PSEXT
 70
     0
  0
ENDTAB
  0
TABLE
  2
DIMSTYLE
  5
9
330
0
100
AcDbSymbolTable
 70
     3
100
AcDbDimStyleTable
 71
     1
340
57
  0
DIMSTYLE
105
18
330
9
100
AcDbSymbolTableRecord
100
AcDbDimStyleTableRecord
  2
Standard
 70
     0
340
17
  0
DIMSTYLE
105
57
102
{ACAD_REACTORS
330
18936
330
1898E
330
189A2
330
189A5
102
}
330
9
100
AcDbSymbolTableRecord
100
AcDbDimStyleTableRecord
  2
tfrom線あり
 70
     0
  3
<>
  4
[]
 41
3.0
 42
10.0
 43
1.0
 44
0.0
 73
     0
 74
     0
 77
     1
 78
    11
140
8.0
141
0.0
143
1.0
147
5.0
171
     1
174
     1
179
     2
271
     0
272
     1
276
     2
284
    11
285
    11
286
    11
289
     0
340
39
341
4E
342
4E
  0
ENDTAB
  0
TABLE
  2
BLOCK_RECORD
  5
1
330
0
100
AcDbSymbolTable
 70
    17
  0
BLOCK_RECORD
  5
A
102
{ACAD_XDICTIONARY
360
1733E
102
}
330
1
100
AcDbSymbolTableRecord
100
AcDbBlockTableRecord
  2
*MODEL_SPACE
340
20
 70
     0
280
     1
281
     0
  0
BLOCK_RECORD
  5
B
330
1
100
AcDbSymbolTableRecord
100
AcDbBlockTableRecord
  2
*PAPER_SPACE
340
21
 70
     0
280
     1
281
     0
  0
BLOCK_RECORD
  5
4E
330
1
100
AcDbSymbolTableRecord
100
AcDbBlockTableRecord
  2
_DOT
340
0
102
{BLKREFS
331
18735
331
18736
331
1879A
331
1879B
331
187BA
331
187BB
331
187C8
331
187C9
331
18B10
331
18B11
331
18B1C
331
18B1D
331
18B28
331
18B29
331
18B34
331
18B35
102
}
 70
     0
280
     1
281
     0
  0
BLOCK_RECORD
  5
68D
330
1
100
AcDbSymbolTableRecord
100
AcDbBlockTableRecord
  2
block 2
340
0
102
{BLKREFS
331
68C
331
1343
102
}
 70
     0
280
     1
281
     0
  0
BLOCK_RECORD
  5
17B56
330
1
100
AcDbSymbolTableRecord
100
AcDbBlockTableRecord
  2
*D2
340
0
 70
     0
280
     1
281
     0
  0
BLOCK_RECORD
  5
17B65
330
1
100
AcDbSymbolTableRecord
100
AcDbBlockTableRecord
  2
*D3
340
0
 70
     0
280
     1
281
     0
  0
BLOCK_RECORD
  5
17B73
330
1
100
AcDbSymbolTableRecord
100
AcDbBlockTableRecord
  2
*D4
340
0
 70
     0
280
     1
281
     0
  0
BLOCK_RECORD
  5
184C4
330
1
100
AcDbSymbolTableRecord
100
AcDbBlockTableRecord
  2
*D5
340
0
 70
     0
280
     1
281
     0
  0
BLOCK_RECORD
  5
186AB
330
1
100
AcDbSymbolTableRecord
100
AcDbBlockTableRecord
  2
SE1
340
0
102
{BLKREFS
331
18935
102
}
 70
     0
280
     1
281
     0
  0
BLOCK_RECORD
  5
18730
330
1
100
AcDbSymbolTableRecord
100
AcDbBlockTableRecord
  2
*D7
340
0
 70
     0
280
     1
281
     0
  0
BLOCK_RECORD
  5
18795
330
1
100
AcDbSymbolTableRecord
100
AcDbBlockTableRecord
  2
*D8
340
0
 70
     0
280
     1
281
     0
  0
BLOCK_RECORD
  5
187B5
330
1
100
AcDbSymbolTableRecord
100
AcDbBlockTableRecord
  2
*D9
340
0
 70
     0
280
     1
281
     0
  0
BLOCK_RECORD
  5
187C3
330
1
100
AcDbSymbolTableRecord
100
AcDbBlockTableRecord
  2
*D10
340
0
 70
     0
280
     1
281
     0
  0
BLOCK_RECORD
  5
18B0A
330
1
100
AcDbSymbolTableRecord
100
AcDbBlockTableRecord
  2
*D11
340
0
 70
     0
280
     1
281
     0
  0
BLOCK_RECORD
  5
18B16
330
1
100
AcDbSymbolTableRecord
100
AcDbBlockTableRecord
  2
*D12
340
0
 70
     0
280
     1
281
     0
  0
BLOCK_RECORD
  5
18B22
330
1
100
AcDbSymbolTableRecord
100
AcDbBlockTableRecord
  2
*D13
340
0
 70
     0
280
     1
281
     0
  0
BLOCK_RECORD
  5
18B2E
330
1
100
AcDbSymbolTableRecord
100
AcDbBlockTableRecord
  2
*D14
340
0
 70
     0
280
     1
281
     0
  0
ENDTAB
  0
ENDSEC
  0
SECTION
  2
BLOCKS
  0
BLOCK
  5
D
330
A
100
AcDbEntity
  8
0
390
1D
100
AcDbBlockBegin
  2
*MODEL_SPACE
 70
     0
 10
0.0
 20
0.0
 30
0.0
  3
*MODEL_SPACE
  1
*MODEL_SPACE
  0
ENDBLK
  5
E
330
A
100
AcDbEntity
  8
0
390
1D
100
AcDbBlockEnd
  0
BLOCK
  5
F
330
B
100
AcDbEntity
 67
     1
  8
0
390
1D
100
AcDbBlockBegin
  2
*PAPER_SPACE
 70
     0
 10
0.0
 20
0.0
 30
0.0
  3
*PAPER_SPACE
  1
*PAPER_SPACE
  0
ENDBLK
  5
10
330
B
100
AcDbEntity
 67
     1
  8
0
390
1D
100
AcDbBlockEnd
  0
BLOCK
  5
18B3F
330
4E
100
AcDbEntity
  8
0
390
1D
100
AcDbBlockBegin
  2
_DOT
 70
     0
 10
0.0
 20
0.0
 30
0.0
  3
_DOT
  1
_DOT
  0
POLYLINE
  5
18B41
330
4E
100
AcDbEntity
  8
0
  6
ByBlock
 62
     0
370
    -2
390
1D
100
AcDb2dPolyline
 66
     1
 10
0.0
 20
0.0
 30
0.0
 70
     1
 40
0.5
 41
0.5
  0
VERTEX
  5
18B42
330
18B41
100
AcDbEntity
  8
0
  6
ByBlock
 62
     0
370
    -2
390
1D
100
AcDbVertex
100
AcDb2dVertex
 10
-0.25
 20
0.0
 30
0.0
 42
1.0
  0
VERTEX
  5
18B43
330
18B41
100
AcDbEntity
  8
0
  6
ByBlock
 62
     0
370
    -2
390
1D
100
AcDbVertex
100
AcDb2dVertex
 10
0.25
 20
0.0
 30
0.0
 42
1.0
  0
SEQEND
  5
18B44
330
18B41
100
AcDbEntity
  8
0
390
1D
  0
LINE
  5
18B45
330
4E
100
AcDbEntity
  8
0
  6
ByBlock
 62
     0
370
    -2
390
1D
100
AcDbLine
 10
-0.5
 20
0.0
 30
0.0
 11
-1.0
 21
0.0
 31
0.0
  0
ENDBLK
  5
18B46
330
4E
100
AcDbEntity
  8
0
390
1D
100
AcDbBlockEnd
  0
BLOCK
  5
68E
330
68D
100
AcDbEntity
  8
0
100
AcDbBlockBegin
  2
block 2
 70
     0
 10
0.0
 20
0.0
 30
0.0
  3
block 2
  1
block 2
  0
ENDBLK
  5
6B0
330
68D
100
AcDbEntity
  8
0
100
AcDbBlockEnd
  0
BLOCK
  5
17B57
330
17B56
100
AcDbEntity
  8
0
100
AcDbBlockBegin
  2
*D2
 70
     1
 10
0.0
 20
0.0
 30
0.0
  3
*D2
  1

  0
LINE
  5
17B58
330
17B56
100
AcDbEntity
  8
0
  6
Continuous
 62
     0
370
    -2
100
AcDbLine
 10
123.5860671808
 20
489.8524004608
 30
0.0
 11
123.5860671808
 21
419.7417621476
 31
0.0
  0
LINE
  5
17B59
330
17B56
100
AcDbEntity
  8
0
  6
Continuous
 62
     0
370
    -2
100
AcDbLine
 10
144.0860574243998
 20
486.7426091095998
 30
0.0
 11
144.0860574243998
 21
419.7417621476
 31
0.0
  0
LINE
  5
17B5A
330
17B56
100
AcDbEntity
  8
0
  6
Continuous
 62
     0
370
    -2
100
AcDbLine
 10
123.5860671808
 20
419.9217621476
 30
0.0
 11
30.51452148680013
 21
419.9217621476
 31
0.0
  0
LINE
  5
17B5B
330
17B56
100
AcDbEntity
  8
0
  6
Continuous
 62
     0
370
    -2
100
AcDbLine
 10
123.7660671808
 20
419.9217621476
 30
0.0
 11
143.9060574243998
 21
419.9217621476
 31
0.0
  0
LINE
  5
17B5C
330
17B56
100
AcDbEntity
  8
0
  6
Continuous
 62
     0
370
    -2
100
AcDbLine
 10
143.9060574243998
 20
419.9217621476
 30
0.0
 11
123.7660671808
 21
419.9217621476
 31
0.0
  0
SOLID
  5
17B5D
330
17B56
100
AcDbEntity
  8
0
 62
     0
100
AcDbTrace
 10
123.7660671808
 20
419.9517621475999
 30
0.0
 11
123.7660671808
 21
419.8917621476
 31
0.0
 12
123.5860671808
 22
419.9217621476
 32
0.0
 13
123.5860671808
 23
419.9217621476
 33
0.0
  0
SOLID
  5
17B5E
330
17B56
100
AcDbEntity
  8
0
 62
     0
100
AcDbTrace
 10
143.9060574243998
 20
419.8917621476
 30
0.0
 11
143.9060574243998
 21
419.9517621475999
 31
0.0
 12
144.0860574243998
 22
419.9217621476
 32
0.0
 13
144.0860574243998
 23
419.9217621476
 33
0.0
  0
MTEXT
  5
17B5F
330
17B56
100
AcDbEntity
  8
0
 62
     0
100
AcDbMText
 10
30.42452148680013
 20
419.9217621476
 30
0.0
 40
0.18
 41
0.0
 46
0.0
 71
     5
 72
     1
  1
\A1;\A1;{}
 73
     1
 44
1.0
  0
POINT
  5
17B60
330
17B56
100
AcDbEntity
  8
Defpoints
 62
     0
100
AcDbPoint
 10
123.5860671808
 20
489.9149004608
 30
0.0
  0
POINT
  5
17B61
330
17B56
100
AcDbEntity
  8
Defpoints
 62
     0
100
AcDbPoint
 10
144.0860574243998
 20
486.8051091095998
 30
0.0
  0
POINT
  5
17B62
330
17B56
100
AcDbEntity
  8
Defpoints
 62
     0
100
AcDbPoint
 10
144.0860574243998
 20
419.9217621476
 30
0.0
  0
ENDBLK
  5
17B63
330
17B56
100
AcDbEntity
  8
0
100
AcDbBlockEnd
  0
BLOCK
  5
17B66
330
17B65
100
AcDbEntity
  8
0
100
AcDbBlockBegin
  2
*D3
 70
     1
 10
0.0
 20
0.0
 30
0.0
  3
*D3
  1

  0
LINE
  5
17B67
330
17B65
100
AcDbEntity
  8
0
  6
Continuous
 62
     0
370
    -2
100
AcDbLine
 10
27.23070333040005
 20
443.5245085895998
 30
0.0
 11
27.23070333040005
 21
331.9715356243999
 31
0.0
  0
LINE
  5
17B68
330
17B65
100
AcDbEntity
  8
0
  6
Continuous
 62
     0
370
    -2
100
AcDbLine
 10
188.8360254108001
 20
426.4705298296001
 30
0.0
 11
188.8360254108001
 21
331.9715356243999
 31
0.0
  0
LINE
  5
17B69
330
17B65
100
AcDbEntity
  8
0
  6
Continuous
 62
     0
370
    -2
100
AcDbLine
 10
27.41070333040005
 20
332.1515356243998
 30
0.0
 11
107.3883674911999
 21
332.1515356243998
 31
0.0
  0
LINE
  5
17B6A
330
17B65
100
AcDbEntity
  8
0
  6
Continuous
 62
     0
370
    -2
100
AcDbLine
 10
188.6560254108001
 20
332.1515356243998
 30
0.0
 11
108.6783674911999
 21
332.1515356243998
 31
0.0
  0
SOLID
  5
17B6B
330
17B65
100
AcDbEntity
  8
0
 62
     0
100
AcDbTrace
 10
27.41070333040005
 20
332.1815356243999
 30
0.0
 11
27.41070333040005
 21
332.1215356243999
 31
0.0
 12
27.23070333040005
 22
332.1515356243998
 32
0.0
 13
27.23070333040005
 23
332.1515356243998
 33
0.0
  0
SOLID
  5
17B6C
330
17B65
100
AcDbEntity
  8
0
 62
     0
100
AcDbTrace
 10
188.6560254108001
 20
332.1215356243999
 30
0.0
 11
188.6560254108001
 21
332.1815356243999
 31
0.0
 12
188.8360254108001
 22
332.1515356243998
 32
0.0
 13
188.8360254108001
 23
332.1515356243998
 33
0.0
  0
MTEXT
  5
17B6D
330
17B65
100
AcDbEntity
  8
0
 62
     0
100
AcDbMText
 10
108.0333674911999
 20
332.1515356243998
 30
0.0
 40
0.18
 41
0.0
 46
0.0
 71
     5
 72
     1
  1
\A1;\A1;161.6053
 73
     1
 44
1.0
  0
POINT
  5
17B6E
330
17B65
100
AcDbEntity
  8
Defpoints
 62
     0
100
AcDbPoint
 10
27.23070333040005
 20
443.5870085895998
 30
0.0
  0
POINT
  5
17B6F
330
17B65
100
AcDbEntity
  8
Defpoints
 62
     0
100
AcDbPoint
 10
188.8360254108001
 20
426.5330298296001
 30
0.0
  0
POINT
  5
17B70
330
17B65
100
AcDbEntity
  8
Defpoints
 62
     0
100
AcDbPoint
 10
188.8360254108001
 20
332.1515356243998
 30
0.0
  0
ENDBLK
  5
17B71
330
17B65
100
AcDbEntity
  8
0
100
AcDbBlockEnd
  0
BLOCK
  5
17B74
330
17B73
100
AcDbEntity
  8
0
100
AcDbBlockBegin
  2
*D4
 70
     1
 10
0.0
 20
0.0
 30
0.0
  3
*D4
  1

  0
LINE
  5
17B75
330
17B73
100
AcDbEntity
  8
0
  6
Continuous
 62
     0
370
    -2
100
AcDbLine
 10
122.8985623024
 20
298.4200000000001
 30
0.0
 11
257.7510952188001
 21
298.4200000000001
 31
0.0
  0
LINE
  5
17B76
330
17B73
100
AcDbEntity
  8
0
  6
Continuous
 62
     0
370
    -2
100
AcDbLine
 10
122.8985623024
 20
0.0
 30
0.0
 11
257.7510952188001
 21
0.0
 31
0.0
  0
LINE
  5
17B77
330
17B73
100
AcDbEntity
  8
0
  6
Continuous
 62
     0
370
    -2
100
AcDbLine
 10
257.5710952188001
 20
298.2400000000001
 30
0.0
 11
257.5710952188001
 21
149.3899940016
 31
0.0
  0
LINE
  5
17B78
330
17B73
100
AcDbEntity
  8
0
  6
Continuous
 62
     0
370
    -2
100
AcDbLine
 10
257.5710952188001
 20
0.18
 30
0.0
 11
257.5710952188001
 21
149.0299940016
 31
0.0
  0
SOLID
  5
17B79
330
17B73
100
AcDbEntity
  8
0
 62
     0
100
AcDbTrace
 10
257.6010952188001
 20
298.2400000000001
 30
0.0
 11
257.5410952188001
 21
298.2400000000001
 31
0.0
 12
257.5710952188001
 22
298.4200000000001
 32
0.0
 13
257.5710952188001
 23
298.4200000000001
 33
0.0
  0
SOLID
  5
17B7A
330
17B73
100
AcDbEntity
  8
0
 62
     0
100
AcDbTrace
 10
257.5410952188001
 20
0.18
 30
0.0
 11
257.6010952188001
 21
0.18
 31
0.0
 12
257.5710952188001
 22
0.0
 32
0.0
 13
257.5710952188001
 23
0.0
 33
0.0
  0
MTEXT
  5
17B7B
330
17B73
100
AcDbEntity
  8
0
 62
     0
100
AcDbMText
 10
257.5710952188001
 20
149.2099940016
 30
0.0
 40
0.18
 41
0.0
 46
0.0
 71
     5
 72
     1
  1
\A1;\A1;298.4200
 73
     1
 44
1.0
  0
POINT
  5
17B7C
330
17B73
100
AcDbEntity
  8
Defpoints
 62
     0
100
AcDbPoint
 10
122.8360623024
 20
298.4200000000001
 30
0.0
  0
POINT
  5
17B7D
330
17B73
100
AcDbEntity
  8
Defpoints
 62
     0
100
AcDbPoint
 10
122.8360623024
 20
0.0
 30
0.0
  0
POINT
  5
17B7E
330
17B73
100
AcDbEntity
  8
Defpoints
 62
     0
100
AcDbPoint
 10
257.5710952188001
 20
0.0
 30
0.0
  0
ENDBLK
  5
17B7F
330
17B73
100
AcDbEntity
  8
0
100
AcDbBlockEnd
  0
BLOCK
  5
184C5
330
184C4
100
AcDbEntity
  8
0
100
AcDbBlockBegin
  2
*D5
 70
     1
 10
0.0
 20
0.0
 30
0.0
  3
*D5
  1

  0
LINE
  5
184C6
330
184C4
100
AcDbEntity
  8
0
  6
Continuous
 62
     0
370
    -2
100
AcDbLine
 10
141.2652404330796
 20
353.1544749034787
 30
0.0
 11
141.2652404330796
 21
283.0438365902787
 31
0.0
  0
LINE
  5
184C7
330
184C4
100
AcDbEntity
  8
0
  6
Continuous
 62
     0
370
    -2
100
AcDbLine
 10
161.7652306766793
 20
350.0446835522786
 30
0.0
 11
161.7652306766793
 21
283.0438365902787
 31
0.0
  0
LINE
  5
184C8
330
184C4
100
AcDbEntity
  8
0
  6
Continuous
 62
     0
370
    -2
100
AcDbLine
 10
141.2652404330796
 20
283.2238365902787
 30
0.0
 11
48.19369473907986
 21
283.2238365902787
 31
0.0
  0
LINE
  5
184C9
330
184C4
100
AcDbEntity
  8
0
  6
Continuous
 62
     0
370
    -2
100
AcDbLine
 10
141.4452404330797
 20
283.2238365902787
 30
0.0
 11
161.5852306766793
 21
283.2238365902787
 31
0.0
  0
LINE
  5
184CA
330
184C4
100
AcDbEntity
  8
0
  6
Continuous
 62
     0
370
    -2
100
AcDbLine
 10
161.5852306766793
 20
283.2238365902787
 30
0.0
 11
141.4452404330797
 21
283.2238365902787
 31
0.0
  0
SOLID
  5
184CB
330
184C4
100
AcDbEntity
  8
0
 62
     0
100
AcDbTrace
 10
141.4452404330797
 20
283.2538365902786
 30
0.0
 11
141.4452404330797
 21
283.1938365902787
 31
0.0
 12
141.2652404330796
 22
283.2238365902787
 32
0.0
 13
141.2652404330796
 23
283.2238365902787
 33
0.0
  0
SOLID
  5
184CC
330
184C4
100
AcDbEntity
  8
0
 62
     0
100
AcDbTrace
 10
161.5852306766793
 20
283.1938365902787
 30
0.0
 11
161.5852306766793
 21
283.2538365902786
 31
0.0
 12
161.7652306766793
 22
283.2238365902787
 32
0.0
 13
161.7652306766793
 23
283.2238365902787
 33
0.0
  0
MTEXT
  5
184CD
330
184C4
100
AcDbEntity
  8
0
 62
     0
100
AcDbMText
 10
48.10369473907986
 20
283.2238365902787
 30
0.0
 40
0.18
 41
0.0
 46
0.0
 71
     5
 72
     1
  1
\A1;\A1;{}
 73
     1
 44
1.0
  0
POINT
  5
184CE
330
184C4
100
AcDbEntity
  8
Defpoints
 62
     0
100
AcDbPoint
 10
141.2652404330796
 20
353.2169749034787
 30
0.0
  0
POINT
  5
184CF
330
184C4
100
AcDbEntity
  8
Defpoints
 62
     0
100
AcDbPoint
 10
161.7652306766793
 20
350.1071835522786
 30
0.0
  0
POINT
  5
184D0
330
184C4
100
AcDbEntity
  8
Defpoints
 62
     0
100
AcDbPoint
 10
161.7652306766793
 20
283.2238365902787
 30
0.0
  0
ENDBLK
  5
184D1
330
184C4
100
AcDbEntity
  8
0
100
AcDbBlockEnd
  0
BLOCK
  5
186AC
330
186AB
100
AcDbEntity
  8
0
100
AcDbBlockBegin
  2
SE1
 70
     0
 10
0.0
 20
0.0
 30
0.0
  3
SE1
  1
SE1
  0
LINE
  5
186AD
330
186AB
100
AcDbEntity
  8
64590238_GEH_THM
  6
Continuous
 62
     7
100
AcDbLine
 10
550.8738498303999
 20
424.4538556839
 30
0.0
 11
565.8738528748999
 21
424.4538556839
 31
0.0
  0
LINE
  5
186AE
330
186AB
100
AcDbEntity
  8
64590238_GEH_THM
  6
Continuous
 62
     7
100
AcDbLine
 10
484.6355218783
 20
424.4538556839
 30
0.0
 11
550.8738498303999
 21
424.4538556839
 31
0.0
  0
LINE
  5
186AF
330
186AB
100
AcDbEntity
  8
64590238_GEH_THM
  6
Continuous
 62
     7
100
AcDbLine
 10
465.9427665652999
 20
424.4538556839
 30
0.0
 11
484.6355218783
 21
424.4538556839
 31
0.0
  0
ARC
  5
186B0
330
186AB
100
AcDbEntity
  8
64590238_GEH_THM
  6
Continuous
 62
     7
100
AcDbCircle
 10
466.170198568
 20
338.2294490582
 30
0.0
 40
86.22483392466646
100
AcDbArc
 50
77.63412776410001
 51
90.13333916240002
  0
LINE
  5
186B1
330
186AB
100
AcDbEntity
  8
64590238_GEH_THM
  6
Continuous
 62
     7
100
AcDbLine
 10
566.8738528748999
 20
394.4538556839
 30
0.0
 11
550.8738498303999
 21
394.4538556839
 31
0.0
  0
LINE
  5
186B2
330
186AB
100
AcDbEntity
  8
64590238_GEH_THM
  6
Continuous
 62
     7
100
AcDbLine
 10
550.8738498303999
 20
394.4538556839
 30
0.0
 11
490.2664806998
 21
394.4538556839
 31
0.0
  0
LINE
  5
186B3
330
186AB
100
AcDbEntity
  8
64590238_GEH_THM
  6
Continuous
 62
     7
100
AcDbLine
 10
490.2664806998
 20
394.4538556839
 30
0.0
 11
485.8738589719999
 21
394.4538556839
 31
0.0
  0
ARC
  5
186B4
330
186AB
100
AcDbEntity
  8
64590238_GEH_THM
  6
Continuous
 62
     7
100
AcDbCircle
 10
485.8738589719999
 20
389.4538556839
 30
0.0
 40
4.999999999999999
100
AcDbArc
 50
90.0
 51
134.914235082
  0
ARC
  5
186B5
330
186AB
100
AcDbEntity
  8
64590238_GEH_THM
  6
Continuous
 62
     7
100
AcDbCircle
 10
465.873858972
 20
404.4538556838999
 30
0.0
 40
20.0
100
AcDbArc
 50
32.5690031311
 51
180.0
  0
ARC
  5
186B6
330
186AB
100
AcDbEntity
  8
64590238_GEH_THM
  6
Continuous
 62
     7
100
AcDbCircle
 10
465.873858972
 20
404.4538556838999
 30
0.0
 40
20.0
100
AcDbArc
 50
24.2360549961
 51
30.13402558200001
  0
ARC
  5
186B7
330
186AB
100
AcDbEntity
  8
64590238_GEH_THM
  6
Continuous
 62
     7
100
AcDbCircle
 10
465.873858972
 20
404.4538556838999
 30
0.0
 40
20.0
100
AcDbArc
 50
4.716838565899999
 51
23.5510973211
  0
ARC
  5
186B8
330
186AB
100
AcDbEntity
  8
64590238_GEH_THM
  6
Continuous
 62
     7
100
AcDbCircle
 10
465.873858972
 20
404.4538556838999
 30
0.0
 40
20.0
100
AcDbArc
 50
0.0007212616
 51
4.197180226499999
  0
LINE
  5
186B9
330
186AB
100
AcDbEntity
  8
64590238_GEH_THM
  6
Continuous
 62
     7
100
AcDbLine
 10
433.0684999999999
 20
418.9538524255999
 30
0.0
 11
433.0684999999999
 21
389.9538524256
 31
0.0
  0
ARC
  5
186BA
330
186AB
100
AcDbEntity
  8
64590238_GEH_THM
  6
Continuous
 62
     7
100
AcDbCircle
 10
462.9827606294999
 20
404.4538487480999
 30
0.0
 40
19.21823442566646
100
AcDbArc
 50
128.6934939378
 51
231.3071615479
  0
LINE
  5
186BB
330
186AB
100
AcDbEntity
  8
64590238_GEH_THM
  6
Continuous
 62
     7
100
AcDbLine
 10
567.8738528749
 20
395.4487616589
 30
0.0
 11
567.8738528749
 21
422.4538556838999
 31
0.0
  0
ARC
  5
186BC
330
186AB
100
AcDbEntity
  8
64590238_GEH_THM
  6
Continuous
 62
     7
100
AcDbCircle
 10
466.0524617916
 20
405.6009841716
 30
0.0
 40
18.83939409734092
100
AcDbArc
 50
80.9953251842
 51
82.49332131440002
  0
ARC
  5
186BD
330
186AB
100
AcDbEntity
  8
64590238_GEH_THM
  6
Continuous
 62
     7
100
AcDbCircle
 10
565.8738528748999
 20
422.4538556838999
 30
0.0
 40
1.999999999999987
100
AcDbArc
 50
0.0
 51
90.0
  0
ARC
  5
186BE
330
186AB
100
AcDbEntity
  8
64590238_GEH_THM
  6
Continuous
 62
     7
100
AcDbCircle
 10
566.8738528748999
 20
395.4538556839
 30
0.0
 40
0.9999999999999992
100
AcDbArc
 50
270.0
 51
0.0188517009
  0
ARC
  5
186BF
330
186AB
100
AcDbEntity
  8
64590238_GEH_THM
  6
Continuous
 62
     7
100
AcDbCircle
 10
485.7777040604999
 20
389.5450431755
 30
0.0
 40
4.862821445367768
100
AcDbArc
 50
134.8724030662
 51
142.3481807176
  0
LINE
  5
186C0
330
186AB
100
AcDbEntity
  8
64590238_GEH_THM
  6
Continuous
 62
     7
100
AcDbLine
 10
450.9531365668
 20
389.4538528748999
 30
0.0
 11
450.9664780922
 21
389.4538528748999
 31
0.0
  0
LINE
  5
186C1
330
186AB
100
AcDbEntity
  8
64590238_GEH_THM
  6
Continuous
 62
     7
100
AcDbLine
 10
450.9662995205999
 20
419.4538528748999
 30
0.0
 11
450.9520371797
 21
419.4538528748999
 31
0.0
  0
LINE
  5
186C2
330
186AB
100
AcDbEntity
  8
64590238_GEH_THM
  6
Continuous
 62
     7
100
AcDbLine
 10
433.5684999999999
 20
389.4538524256
 30
0.0
 11
450.9531365668
 21
389.4538524256
 31
0.0
  0
LINE
  5
186C3
330
186AB
100
AcDbEntity
  8
64590238_GEH_THM
  6
Continuous
 62
     7
100
AcDbLine
 10
450.9520371797
 20
419.4538524256
 30
0.0
 11
433.5684999999999
 21
419.4538524256
 31
0.0
  0
ARC
  5
186C4
330
186AB
100
AcDbEntity
  8
64590238_GEH_THM
  6
Continuous
 62
     7
100
AcDbCircle
 10
433.5684999999999
 20
418.9538524255999
 30
0.0
 40
0.5000000000000005
100
AcDbArc
 50
90.0
 51
180.0
  0
ARC
  5
186C5
330
186AB
100
AcDbEntity
  8
64590238_GEH_THM
  6
Continuous
 62
     7
100
AcDbCircle
 10
433.5684999999999
 20
389.9538524256
 30
0.0
 40
0.5000000000000005
100
AcDbArc
 50
180.0
 51
270.0
  0
ARC
  5
186C6
330
186AB
100
AcDbEntity
  8
64590238_GEH_THM
  6
Continuous
 62
     7
100
AcDbCircle
 10
451.1700995812
 20
385.2835256676
 30
0.0
 40
4.175202932879607
100
AcDbArc
 50
56.97112003149999
 51
92.7665462899
  0
ARC
  5
186C7
330
186AB
100
AcDbEntity
  8
64590238_GEH_THM
  6
Continuous
 62
     7
100
AcDbCircle
 10
451.1700945449
 20
423.6234104512999
 30
0.0
 40
4.174461558199593
100
AcDbArc
 50
267.2324415442
 51
303.0484744166
  0
LINE
  5
186C8
330
186AB
100
AcDbEntity
  8
A4230839_222766_
  6
Continuous
 62
     7
100
AcDbLine
 10
486.5663589719999
 20
372.8479967901999
 30
0.0
 11
505.1813589719999
 21
372.8479967901999
 31
0.0
  0
LINE
  5
186C9
330
186AB
100
AcDbEntity
  8
A4230839_222766_
  6
Continuous
 62
     7
100
AcDbLine
 10
485.396358972
 20
374.0179967902
 30
0.0
 11
506.3513589719999
 21
374.0179967902
 31
0.0
  0
LINE
  5
186CA
330
186AB
100
AcDbEntity
  8
A4230839_222766_
  6
Continuous
 62
     7
100
AcDbLine
 10
485.396358972
 20
394.4310028336
 30
0.0
 11
485.396358972
 21
382.0479967902
 31
0.0
  0
LINE
  5
186CB
330
186AB
100
AcDbEntity
  8
A4230839_222766_
  6
Continuous
 62
     7
100
AcDbLine
 10
506.3513589719999
 20
382.0479967902
 30
0.0
 11
506.3513589719999
 21
394.4538556839
 31
0.0
  0
LINE
  5
186CC
330
186AB
100
AcDbEntity
  8
A4230839_222766_
  6
Continuous
 62
     7
100
AcDbLine
 10
485.396358972
 20
382.0479967902
 30
0.0
 11
485.396358972
 21
374.0179967902
 31
0.0
  0
LINE
  5
186CD
330
186AB
100
AcDbEntity
  8
A4230839_222766_
  6
Continuous
 62
     7
100
AcDbLine
 10
506.3513589719999
 20
374.0179967902
 30
0.0
 11
506.3513589719999
 21
382.0479967902
 31
0.0
  0
LINE
  5
186CE
330
186AB
100
AcDbEntity
  8
A4230839_222766_
  6
Continuous
 62
     7
100
AcDbLine
 10
485.396358972
 20
374.0179967902
 30
0.0
 11
486.5663589719999
 21
372.8479967901999
 31
0.0
  0
LINE
  5
186CF
330
186AB
100
AcDbEntity
  8
A4230839_222766_
  6
Continuous
 62
     7
100
AcDbLine
 10
505.1813589719999
 20
372.8479967901999
 30
0.0
 11
506.3513589719999
 21
374.0179967902
 31
0.0
  0
LINE
  5
186D0
330
186AB
100
AcDbEntity
  8
A4230839_222766_
  6
Continuous
 62
     7
100
AcDbLine
 10
486.5583589719999
 20
372.8559967902
 30
0.0
 11
486.5583589719999
 21
382.0479967902
 31
0.0
  0
LINE
  5
186D1
330
186AB
100
AcDbEntity
  8
A4230839_222766_
  6
Continuous
 62
     7
100
AcDbLine
 10
505.1893589719999
 20
372.8559967902
 30
0.0
 11
505.1893589719999
 21
382.0479967902
 31
0.0
  0
LINE
  5
186D2
330
186AB
100
AcDbEntity
  8
A4230839_222766_
  6
Continuous
 62
     7
100
AcDbLine
 10
506.3513589719999
 20
382.0479967902
 30
0.0
 11
485.396358972
 21
382.0479967902
 31
0.0
  0
LINE
  5
186D3
330
186AB
100
AcDbEntity
  8
A4230486_HUELSE_
  6
Continuous
 62
     7
100
AcDbLine
 10
501.4461215958999
 20
424.4538556839
 30
0.0
 11
501.4051666642999
 21
429.7779967901999
 31
0.0
  0
LINE
  5
186D4
330
186AB
100
AcDbEntity
  8
A4230486_HUELSE_
  6
Continuous
 62
     7
100
AcDbLine
 10
490.3425512796999
 20
429.7779967901999
 30
0.0
 11
490.3015963480999
 21
424.4538556839
 31
0.0
  0
LINE
  5
186D5
330
186AB
100
AcDbEntity
  8
05985231_SITZ__R
  6
Continuous
 62
     7
100
AcDbLine
 10
432.3685
 20
394.003852876
 30
0.0
 11
432.3685
 21
414.903852876
 31
0.0
  0
LINE
  5
186D6
330
186AB
100
AcDbEntity
  8
05985231_SITZ__R
  6
Continuous
 62
     7
100
AcDbLine
 10
433.0684999999999
 20
414.903852876
 30
0.0
 11
432.3685
 21
414.903852876
 31
0.0
  0
LINE
  5
186D7
330
186AB
100
AcDbEntity
  8
05985231_SITZ__R
  6
Continuous
 62
     7
100
AcDbLine
 10
432.3685
 20
394.003852876
 30
0.0
 11
433.0684999999999
 21
394.003852876
 31
0.0
  0
LINE
  5
186D8
330
186AB
100
AcDbEntity
  8
05985231_SITZ__R
  6
Continuous
 62
     7
100
AcDbLine
 10
432.3685
 20
414.903852876
 30
0.0
 11
432.2684999999999
 21
414.8204025012
 31
0.0
  0
LINE
  5
186D9
330
186AB
100
AcDbEntity
  8
05985231_SITZ__R
  6
Continuous
 62
     7
100
AcDbLine
 10
432.2684999999999
 20
394.0873032508
 30
0.0
 11
432.3685
 21
394.003852876
 31
0.0
  0
LINE
  5
186DA
330
186AB
100
AcDbEntity
  8
03035038_MUTTER_
  6
Continuous
 62
     7
100
AcDbLine
 10
428.7685
 20
414.3192339328
 30
0.0
 11
428.7685
 21
410.7038528759999
 31
0.0
  0
LINE
  5
186DB
330
186AB
100
AcDbEntity
  8
03035038_MUTTER_
  6
Continuous
 62
     7
100
AcDbLine
 10
432.2684999999999
 20
389.953852876
 30
0.0
 11
432.2684999999999
 21
418.9538528759999
 31
0.0
  0
LINE
  5
186DC
330
186AB
100
AcDbEntity
  8
03035038_MUTTER_
  6
Continuous
 62
     7
100
AcDbLine
 10
415.2684999999999
 20
389.953852876
 30
0.0
 11
415.2684999999999
 21
418.9538528759999
 31
0.0
  0
LINE
  5
186DD
330
186AB
100
AcDbEntity
  8
03035038_MUTTER_
  6
Continuous
 62
     7
100
AcDbLine
 10
418.7685
 20
414.3192339328
 30
0.0
 11
418.7685
 21
410.7038528759999
 31
0.0
  0
LINE
  5
186DE
330
186AB
100
AcDbEntity
  8
03035038_MUTTER_
  6
Continuous
 62
     7
100
AcDbLine
 10
418.7685
 20
398.203852876
 30
0.0
 11
418.7685
 21
394.5884718192
 31
0.0
  0
LINE
  5
186DF
330
186AB
100
AcDbEntity
  8
03035038_MUTTER_
  6
Continuous
 62
     7
100
AcDbLine
 10
418.7685
 20
388.3384718192
 30
0.0
 11
418.7685
 21
388.203852876
 31
0.0
  0
LINE
  5
186E0
330
186AB
100
AcDbEntity
  8
03035038_MUTTER_
  6
Continuous
 62
     7
100
AcDbLine
 10
418.7685
 20
420.703852876
 30
0.0
 11
418.7685
 21
420.5692339328
 31
0.0
  0
SPLINE
  5
186E1
330
186AB
100
AcDbEntity
  8
03035038_MUTTER_
  6
Continuous
 62
     7
100
AcDbSpline
210
0.0
220
0.0
230
1.0
 70
     8
 71
     3
 72
    14
 73
    10
 74
     0
 42
0.000000001
 43
0.0000000001
 40
0.0
 40
0.0
 40
0.0
 40
0.0
 40
0.2499999999999999
 40
0.2499999999999999
 40
0.5
 40
0.5
 40
0.75
 40
0.75
 40
1.0
 40
1.0
 40
1.0
 40
1.0
 10
418.768500000007
 20
420.5692339327603
 30
0.0
 10
417.7906934315537
 20
420.2219160841329
 30
0.0
 10
417.0938349373728
 20
419.7239887715496
 30
0.0
 10
416.1871529855033
 20
418.6340807069812
 30
0.0
 10
415.9732058851842
 20
418.0402065255763
 30
0.0
 10
415.9723387321424
 20
416.8518014221873
 30
0.0
 10
416.1796572904114
 20
416.2662476397903
 30
0.0
 10
417.0902557863348
 20
415.1659658966838
 30
0.0
 10
417.7917705988506
 20
414.6661691705101
 30
0.0
 10
418.768500000007
 20
414.3192339327603
 30
0.0
  0
SPLINE
  5
186E2
330
186AB
100
AcDbEntity
  8
03035038_MUTTER_
  6
Continuous
 62
     7
100
AcDbSpline
210
0.0
220
0.0
230
1.0
 70
     8
 71
     3
 72
    14
 73
    10
 74
     0
 42
0.000000001
 43
0.0000000001
 40
0.0
 40
0.0
 40
0.0
 40
0.0
 40
0.2500000000000001
 40
0.2500000000000001
 40
0.5000000000000001
 40
0.5000000000000001
 40
0.7500000000000002
 40
0.7500000000000002
 40
1.0
 40
1.0
 40
1.0
 40
1.0
 10
418.768500000007
 20
394.5884718192272
 30
0.0
 10
417.7906934315537
 20
394.2411539705998
 30
0.0
 10
417.0938349373728
 20
393.7432266580163
 30
0.0
 10
416.1871529855033
 20
392.6533185934482
 30
0.0
 10
415.973205885184
 20
392.0594444120431
 30
0.0
 10
415.9723387321423
 20
390.8710393086543
 30
0.0
 10
416.1796572904114
 20
390.2854855262573
 30
0.0
 10
417.0902557863348
 20
389.1852037831508
 30
0.0
 10
417.7917705988504
 20
388.6854070569768
 30
0.0
 10
418.768500000007
 20
388.3384718192272
 30
0.0
  0
SPLINE
  5
186E3
330
186AB
100
AcDbEntity
  8
03035038_MUTTER_
  6
Continuous
 62
     7
100
AcDbSpline
210
0.0
220
0.0
230
1.0
 70
     8
 71
     3
 72
    14
 73
    10
 74
     0
 42
0.000000001
 43
0.0000000001
 40
0.0
 40
0.0
 40
0.0
 40
0.0
 40
0.2500000000000001
 40
0.2500000000000001
 40
0.5000000000000001
 40
0.5000000000000001
 40
0.7500000000000002
 40
0.7500000000000002
 40
1.0
 40
1.0
 40
1.0
 40
1.0
 10
418.768500000007
 20
410.7038528759936
 30
0.0
 10
417.7928715572373
 20
410.0107645234816
 30
0.0
 10
417.0868928685898
 20
409.0032043556507
 30
0.0
 10
416.1811791041936
 20
406.8125589032769
 30
0.0
 10
415.9708767075036
 20
405.6283445997875
 30
0.0
 10
415.9746915456407
 20
403.248256590963
 30
0.0
 10
416.1899907881903
 20
402.0652329814195
 30
0.0
 10
417.0951771028287
 20
399.8932299415768
 30
0.0
 10
417.8002110643006
 20
398.8917272283437
 30
0.0
 10
418.768500000007
 20
398.2038528759937
 30
0.0
  0
LINE
  5
186E4
330
186AB
100
AcDbEntity
  8
03035038_MUTTER_
  6
Continuous
 62
     7
100
AcDbLine
 10
428.7685
 20
398.203852876
 30
0.0
 11
428.7685
 21
394.5884718192
 31
0.0
  0
LINE
  5
186E5
330
186AB
100
AcDbEntity
  8
03035038_MUTTER_
  6
Continuous
 62
     7
100
AcDbLine
 10
428.7685
 20
388.3384718192
 30
0.0
 11
428.7685
 21
388.203852876
 31
0.0
  0
LINE
  5
186E6
330
186AB
100
AcDbEntity
  8
03035038_MUTTER_
  6
Continuous
 62
     7
100
AcDbLine
 10
428.7685
 20
420.703852876
 30
0.0
 11
428.7685
 21
420.5692339328
 31
0.0
  0
LINE
  5
186E7
330
186AB
100
AcDbEntity
  8
03035038_MUTTER_
  6
Continuous
 62
     7
100
AcDbLine
 10
418.7685
 20
410.7038528759999
 30
0.0
 11
428.7685
 21
410.7038528759999
 31
0.0
  0
SPLINE
  5
186E8
330
186AB
100
AcDbEntity
  8
03035038_MUTTER_
  6
Continuous
 62
     7
100
AcDbSpline
210
0.0
220
0.0
230
1.0
 70
     8
 71
     3
 72
    14
 73
    10
 74
     0
 42
0.000000001
 43
0.0000000001
 40
0.0
 40
0.0
 40
0.0
 40
0.0
 40
0.25
 40
0.25
 40
0.5
 40
0.5
 40
0.75
 40
0.75
 40
1.0
 40
1.0
 40
1.0
 40
1.0
 10
428.7685000000069
 20
410.7038528759936
 30
0.0
 10
429.7441284427767
 20
410.0107645234816
 30
0.0
 10
430.450107131424
 20
409.0032043556507
 30
0.0
 10
431.3558208958203
 20
406.8125589032769
 30
0.0
 10
431.5661232925103
 20
405.6283445997875
 30
0.0
 10
431.5623084543733
 20
403.248256590963
 30
0.0
 10
431.3470092118235
 20
402.0652329814195
 30
0.0
 10
430.4418228971853
 20
399.8932299415768
 30
0.0
 10
429.7367889357133
 20
398.8917272283437
 30
0.0
 10
428.7685000000069
 20
398.2038528759937
 30
0.0
  0
LINE
  5
186E9
330
186AB
100
AcDbEntity
  8
03035038_MUTTER_
  6
Continuous
 62
     7
100
AcDbLine
 10
428.7685
 20
398.203852876
 30
0.0
 11
418.7685
 21
398.203852876
 31
0.0
  0
LINE
  5
186EA
330
186AB
100
AcDbEntity
  8
03035038_MUTTER_
  6
Continuous
 62
     7
100
AcDbLine
 10
418.7685
 20
394.5884718192
 30
0.0
 11
428.7685
 21
394.5884718192
 31
0.0
  0
SPLINE
  5
186EB
330
186AB
100
AcDbEntity
  8
03035038_MUTTER_
  6
Continuous
 62
     7
100
AcDbSpline
210
0.0
220
0.0
230
1.0
 70
     8
 71
     3
 72
    14
 73
    10
 74
     0
 42
0.000000001
 43
0.0000000001
 40
0.0
 40
0.0
 40
0.0
 40
0.0
 40
0.2500000000000001
 40
0.2500000000000001
 40
0.5000000000000001
 40
0.5000000000000001
 40
0.7500000000000002
 40
0.7500000000000002
 40
1.0
 40
1.0
 40
1.0
 40
1.0
 10
428.7685000000069
 20
394.5884718192272
 30
0.0
 10
429.7463065684602
 20
394.2411539705998
 30
0.0
 10
430.443165062641
 20
393.7432266580163
 30
0.0
 10
431.3498470145106
 20
392.6533185934481
 30
0.0
 10
431.5637941148297
 20
392.0594444120431
 30
0.0
 10
431.5646612678717
 20
390.8710393086542
 30
0.0
 10
431.3573427096025
 20
390.2854855262572
 30
0.0
 10
430.4467442136791
 20
389.1852037831508
 30
0.0
 10
429.7452294011633
 20
388.6854070569768
 30
0.0
 10
428.7685000000069
 20
388.3384718192272
 30
0.0
  0
LINE
  5
186EC
330
186AB
100
AcDbEntity
  8
03035038_MUTTER_
  6
Continuous
 62
     7
100
AcDbLine
 10
428.7685
 20
388.3384718192
 30
0.0
 11
418.7685
 21
388.3384718192
 31
0.0
  0
LINE
  5
186ED
330
186AB
100
AcDbEntity
  8
03035038_MUTTER_
  6
Continuous
 62
     7
100
AcDbLine
 10
418.7685
 20
420.5692339328
 30
0.0
 11
428.7685
 21
420.5692339328
 31
0.0
  0
SPLINE
  5
186EE
330
186AB
100
AcDbEntity
  8
03035038_MUTTER_
  6
Continuous
 62
     7
100
AcDbSpline
210
0.0
220
0.0
230
1.0
 70
     8
 71
     3
 72
    14
 73
    10
 74
     0
 42
0.000000001
 43
0.0000000001
 40
0.0
 40
0.0
 40
0.0
 40
0.0
 40
0.25
 40
0.25
 40
0.5
 40
0.5
 40
0.75
 40
0.75
 40
1.0
 40
1.0
 40
1.0
 40
1.0
 10
428.7685000000069
 20
420.5692339327603
 30
0.0
 10
429.7463065684602
 20
420.2219160841328
 30
0.0
 10
430.443165062641
 20
419.7239887715496
 30
0.0
 10
431.3498470145106
 20
418.6340807069812
 30
0.0
 10
431.5637941148297
 20
418.0402065255763
 30
0.0
 10
431.5646612678717
 20
416.8518014221873
 30
0.0
 10
431.3573427096026
 20
416.2662476397903
 30
0.0
 10
430.4467442136791
 20
415.1659658966838
 30
0.0
 10
429.7452294011633
 20
414.6661691705101
 30
0.0
 10
428.7685000000069
 20
414.3192339327603
 30
0.0
  0
LINE
  5
186EF
330
186AB
100
AcDbEntity
  8
03035038_MUTTER_
  6
Continuous
 62
     7
100
AcDbLine
 10
428.7685
 20
414.3192339328
 30
0.0
 11
418.7685
 21
414.3192339328
 31
0.0
  0
LINE
  5
186F0
330
186AB
100
AcDbEntity
  8
03035038_MUTTER_
  6
Continuous
 62
     7
100
AcDbLine
 10
428.7685
 20
420.703852876
 30
0.0
 11
418.7685
 21
420.703852876
 31
0.0
  0
ARC
  5
186F1
330
186AB
100
AcDbEntity
  8
03035038_MUTTER_
  6
Continuous
 62
     7
100
AcDbCircle
 10
426.1327988018
 20
411.0574504796
 30
0.0
 40
10.0
100
AcDbArc
 50
52.15190403220002
 51
74.7179936136
  0
ARC
  5
186F2
330
186AB
100
AcDbEntity
  8
03035038_MUTTER_
  6
Continuous
 62
     7
100
AcDbCircle
 10
426.1327988018
 20
397.8502552724
 30
0.0
 40
9.999999999999996
100
AcDbArc
 50
285.2820063864
 51
307.8480959678
  0
ARC
  5
186F3
330
186AB
100
AcDbEntity
  8
03035038_MUTTER_
  6
Continuous
 62
     7
100
AcDbCircle
 10
421.4042011982
 20
411.0574504796
 30
0.0
 40
10.0
100
AcDbArc
 50
105.2820063864
 51
127.8480959678
  0
ARC
  5
186F4
330
186AB
100
AcDbEntity
  8
03035038_MUTTER_
  6
Continuous
 62
     7
100
AcDbCircle
 10
421.4042011982
 20
397.8502552724
 30
0.0
 40
10.0
100
AcDbArc
 50
232.1519040322
 51
254.7179936136
  0
LINE
  5
186F5
330
186AB
100
AcDbEntity
  8
03035038_MUTTER_
  6
Continuous
 62
     7
100
AcDbLine
 10
418.7685
 20
388.203852876
 30
0.0
 11
428.7685
 21
388.203852876
 31
0.0
  0
LINE
  5
186F6
330
186AB
100
AcDbEntity
  8
400463031_KAPPE_
  6
Continuous
 62
     7
100
AcDbLine
 10
414.7506694998999
 20
390.453852876
 30
0.0
 11
415.2684999999999
 21
390.453852876
 31
0.0
  0
LINE
  5
186F7
330
186AB
100
AcDbEntity
  8
400463031_KAPPE_
  6
Continuous
 62
     7
100
AcDbLine
 10
415.2684999999999
 20
418.453852876
 30
0.0
 11
414.7506694998
 21
418.453852876
 31
0.0
  0
CIRCLE
  5
186F8
330
186AB
100
AcDbEntity
  8
406342038_GRIFF_
  6
Continuous
 62
     7
100
AcDbCircle
 10
465.873858972
 20
404.4538556838999
 30
0.0
 40
20.0
  0
LINE
  5
186F9
330
186AB
100
AcDbEntity
  8
406342038_GRIFF_
  6
Continuous
 62
     7
100
AcDbLine
 10
444.3738589719999
 20
402.9538556838999
 30
0.0
 11
444.3738589719999
 21
405.9538556838999
 31
0.0
  0
LINE
  5
186FA
330
186AB
100
AcDbEntity
  8
406342038_GRIFF_
  6
Continuous
 62
     7
100
AcDbLine
 10
444.873858972
 20
406.4538556838999
 30
0.0
 11
445.5268690226
 21
406.4538556838999
 31
0.0
  0
ARC
  5
186FB
330
186AB
100
AcDbEntity
  8
406342038_GRIFF_
  6
Continuous
 62
     7
100
AcDbCircle
 10
444.873858972
 20
402.9538556838999
 30
0.0
 40
0.499999999999997
100
AcDbArc
 50
180.0
 51
270.0
  0
ARC
  5
186FC
330
186AB
100
AcDbEntity
  8
406342038_GRIFF_
  6
Continuous
 62
     7
100
AcDbCircle
 10
444.873858972
 20
405.9538556838999
 30
0.0
 40
0.5000000000000005
100
AcDbArc
 50
90.0
 51
180.0
  0
LINE
  5
186FD
330
186AB
100
AcDbEntity
  8
406342038_GRIFF_
  6
Continuous
 62
     7
100
AcDbLine
 10
445.5268690226
 20
402.4538556838999
 30
0.0
 11
444.873858972
 21
402.4538556838999
 31
0.0
  0
ARC
  5
186FE
330
186AB
100
AcDbEntity
  8
406342038_GRIFF_
  6
Continuous
 62
     7
100
AcDbCircle
 10
445.5268690226
 20
401.9538556838999
 30
0.0
 40
0.4999999999999976
100
AcDbArc
 50
7.004726409099999
 51
90.0
  0
ARC
  5
186FF
330
186AB
100
AcDbEntity
  8
406342038_GRIFF_
  6
Continuous
 62
     7
100
AcDbCircle
 10
445.5268690226
 20
406.9538556838999
 30
0.0
 40
0.5
100
AcDbArc
 50
270.0
 51
352.9952735909
  0
CIRCLE
  5
18700
330
186AB
100
AcDbEntity
  8
406342038_GRIFF_
  6
Continuous
 62
     7
100
AcDbCircle
 10
465.873858972
 20
404.4538556838999
 30
0.0
 40
18.5
  0
ARC
  5
18701
330
186AB
100
AcDbEntity
  8
406342038_GRIFF_
  6
Continuous
 62
     7
100
AcDbCircle
 10
465.873858972
 20
404.4538556838999
 30
0.0
 40
18.48254626441848
100
AcDbArc
 50
282.4741179033002
 51
324.0190115363
  0
ARC
  5
18702
330
186AB
100
AcDbEntity
  8
406342038_GRIFF_
  6
Continuous
 62
     7
100
AcDbCircle
 10
465.873858972
 20
404.4538556838999
 30
0.0
 40
18.48227839566298
100
AcDbArc
 50
81.3859221182
 51
98.61407788180001
  0
ARC
  5
18703
330
186AB
100
AcDbEntity
  8
406342038_GRIFF_
  6
Continuous
 62
     7
100
AcDbCircle
 10
465.873858972
 20
404.4538556838999
 30
0.0
 40
18.48227839566298
100
AcDbArc
 50
258.1804202692999
 51
281.8195797307
  0
LINE
  5
18704
330
186AB
100
AcDbEntity
  8
406342038_GRIFF_
  6
Continuous
 62
     7
100
AcDbLine
 10
480.5874025735
 20
393.4713094195
 30
0.0
 11
480.5119489276999
 21
393.4713094195
 31
0.0
  0
SPLINE
  5
18705
330
186AB
100
AcDbEntity
  8
406342038_GRIFF_
  6
Continuous
 62
     7
100
AcDbSpline
210
0.0
220
0.0
230
1.0
 70
     8
 71
     3
 72
     8
 73
     4
 74
     0
 42
0.000000001
 43
0.0000000001
 40
0.0
 40
0.0
 40
0.0
 40
0.0
 40
1.0
 40
1.0
 40
1.0
 40
1.0
 10
480.8301569253326
 20
393.5950496746204
 30
0.0
 10
480.7742920721393
 20
393.518104622949
 30
0.0
 10
480.6824889781445
 20
393.4713094195054
 30
0.0
 10
480.5874025734802
 20
393.4713094195054
 30
0.0
  0
SPLINE
  5
18706
330
186AB
100
AcDbEntity
  8
406342038_GRIFF_
  6
Continuous
 62
     7
100
AcDbSpline
210
0.0
220
0.0
230
1.0
 70
     8
 71
     3
 72
    10
 73
     6
 74
     0
 42
0.000000001
 43
0.0000000001
 40
0.3565769302223272
 40
0.3565769302223272
 40
0.3565769302223272
 40
0.3565769302223272
 40
0.5
 40
0.5
 40
1.0
 40
1.0
 40
1.0
 40
1.0
 10
483.4424791571516
 20
399.3581298318418
 30
0.0
 10
483.4635176948513
 20
399.3417405576091
 30
0.0
 10
483.4823878269879
 20
399.3225823344765
 30
0.0
 10
483.553841819456
 20
399.226115181026
 30
0.0
 10
483.5716880015215
 20
399.1246674530231
 30
0.0
 10
483.5440526889156
 20
399.0345595651224
 30
0.0
  0
ARC
  5
18707
330
186AB
100
AcDbEntity
  8
406342038_GRIFF_
  6
Continuous
 62
     7
100
AcDbCircle
 10
465.873858972
 20
404.4538556838999
 30
0.0
 40
18.48254626441848
100
AcDbArc
 50
342.9496747166
 51
80.7371116032
  0
ARC
  5
18708
330
186AB
100
AcDbEntity
  8
406342038_GRIFF_
  6
Continuous
 62
     7
100
AcDbCircle
 10
468.6665922283
 20
421.9378220601999
 30
0.0
 40
0.7902042709440213
100
AcDbArc
 50
91.7759477052
 51
107.8880995007
  0
LINE
  5
18709
330
186AB
100
AcDbEntity
  8
406342038_GRIFF_
  6
Continuous
 62
     7
100
AcDbLine
 10
468.6421028719999
 20
422.7276467630999
 30
0.0
 11
468.8488942944999
 21
422.695392934
 31
0.0
  0
ARC
  5
1870A
330
186AB
100
AcDbEntity
  8
406342038_GRIFF_
  6
Continuous
 62
     7
100
AcDbCircle
 10
465.873858972
 20
404.4538556838999
 30
0.0
 40
18.48254626441848
100
AcDbArc
 50
99.26288839680001
 51
257.5258820967
  0
ARC
  5
1870B
330
186AB
100
AcDbEntity
  8
406342038_GRIFF_
  6
Continuous
 62
     7
100
AcDbCircle
 10
462.1096315757999
 20
387.1572695032
 30
0.0
 40
0.7941120788248175
100
AcDbArc
 50
268.4480039108
 51
284.5798331229
  0
LINE
  5
1870C
330
186AB
100
AcDbEntity
  8
406342038_GRIFF_
  6
Continuous
 62
     7
100
AcDbLine
 10
462.0881237415
 20
386.3634487383
 30
0.0
 11
461.8816553752999
 21
386.407614334
 31
0.0
  0
LINE
  5
1870D
330
186AB
100
AcDbEntity
  8
406342038_GRIFF_
  6
Continuous
 62
     7
100
AcDbLine
 10
469.8660625687
 20
386.407614334
 30
0.0
 11
469.6595942024999
 21
386.3634487383
 31
0.0
  0
ARC
  5
1870E
330
186AB
100
AcDbEntity
  8
406342038_GRIFF_
  6
Continuous
 62
     7
100
AcDbCircle
 10
469.6380863682
 20
387.1572695031
 30
0.0
 40
0.7941120787877156
100
AcDbArc
 50
255.4201668767
 51
271.5519960896
  0
LINE
  5
1870F
330
186AB
100
AcDbEntity
  8
406342038_GRIFF_
  6
Continuous
 62
     7
100
AcDbLine
 10
462.8988236494999
 20
422.695392934
 30
0.0
 11
463.105615072
 21
422.7276467630999
 31
0.0
  0
ARC
  5
18710
330
186AB
100
AcDbEntity
  8
406342038_GRIFF_
  6
Continuous
 62
     7
100
AcDbCircle
 10
463.0811257158
 20
421.9378220601999
 30
0.0
 40
0.7902042709815128
100
AcDbArc
 50
72.11190049959999
 51
88.22405229440002
  0
ARC
  5
18711
330
186AB
100
AcDbEntity
  8
A4226705_TASTE_B
  6
Continuous
 62
     7
100
AcDbCircle
 10
465.9138594692
 20
404.3538557586
 30
0.0
 40
20.00000000000007
100
AcDbArc
 50
332.5345270634
 51
22.6497266867
  0
ARC
  5
18712
330
186AB
100
AcDbEntity
  8
A4226705_TASTE_B
  6
Continuous
 62
     7
100
AcDbCircle
 10
483.2282408873999
 20
395.3423279597
 30
0.0
 40
0.4823680749606301
100
AcDbArc
 50
295.9547255647
 51
329.6600283144
  0
ARC
  5
18713
330
186AB
100
AcDbEntity
  8
A4226725_CLIP_CL
  6
Continuous
 62
     7
100
AcDbCircle
 10
449.687240843
 20
409.2240704226999
 30
0.0
 40
7.913521316273487
100
AcDbArc
 50
256.3822223315
 51
257.8259352886
  0
ARC
  5
18714
330
186AB
100
AcDbEntity
  8
A4226725_CLIP_CL
  6
Continuous
 62
     7
100
AcDbCircle
 10
465.873858972
 20
404.4538556838999
 30
0.0
 40
18.30000000000001
100
AcDbArc
 50
189.8181777050999
 51
170.1818222949
  0
ARC
  5
18715
330
186AB
100
AcDbEntity
  8
A4226725_CLIP_CL
  6
Continuous
 62
     7
100
AcDbCircle
 10
452.8590058518999
 20
402.2014700005
 30
0.0
 40
5.091682810285754
100
AcDbArc
 50
188.4197431900999
 51
189.8173165234
  0
ARC
  5
18716
330
186AB
100
AcDbEntity
  8
A4226725_CLIP_CL
  6
Continuous
 62
     7
100
AcDbCircle
 10
452.8590058518999
 20
406.7062413673
 30
0.0
 40
5.091682810329504
100
AcDbArc
 50
170.1826834766
 51
171.5802568099
  0
ARC
  5
18717
330
186AB
100
AcDbEntity
  8
A4226725_CLIP_CL
  6
Continuous
 62
     7
100
AcDbCircle
 10
449.5524635159999
 20
400.2697345055
 30
0.0
 40
7.312190544061204
100
AcDbArc
 50
102.1102077774
 51
103.6766482125
  0
ARC
  5
18718
330
186AB
100
AcDbEntity
  8
A4226725_CLIP_CL
  6
Continuous
 62
     7
100
AcDbCircle
 10
447.9590477137
 20
407.4192754705
 30
0.0
 40
0.1406548230563082
100
AcDbArc
 50
166.636208024
 51
198.3482669378
  0
ARC
  5
18719
330
186AB
100
AcDbEntity
  8
A4226725_CLIP_CL
  6
Continuous
 62
     7
100
AcDbCircle
 10
447.9927661926999
 20
401.4411677937999
 30
0.0
 40
0.1906037347200362
100
AcDbArc
 50
119.6637340874
 51
151.2983425485
  0
ARC
  5
1871A
330
186AB
100
AcDbEntity
  8
A4226725_CLIP_CL
  6
Continuous
 62
     7
100
AcDbCircle
 10
447.9928063785999
 20
407.4666782367
 30
0.0
 40
0.1907406400913087
100
AcDbArc
 50
208.7279702242
 51
240.3457960491
  0
SPLINE
  5
1871B
330
186AB
100
AcDbEntity
  8
A4226725_CLIP_CL
  6
Continuous
 62
     7
100
AcDbSpline
210
0.0
220
0.0
230
1.0
 70
     8
 71
     3
 72
    20
 73
    16
 74
     0
 42
0.000000001
 43
0.0000000001
 40
0.0
 40
0.0
 40
0.0
 40
0.0
 40
0.2997089934633306
 40
0.2997089934633306
 40
0.2997089934633306
 40
0.6013718668682171
 40
0.6013718668682171
 40
0.6013718668682171
 40
0.7887897968669834
 40
0.7887897968669834
 40
0.7887897968669834
 40
0.9458021757247635
 40
0.9458021757247635
 40
0.9458021757247635
 40
1.0
 40
1.0
 40
1.0
 40
1.0
 10
447.8255815059068
 20
401.5327050222273
 30
0.0
 10
447.8232272918488
 20
401.5276805918768
 30
0.0
 10
447.8214523283876
 20
401.5217969894546
 30
0.0
 10
447.8203209376427
 20
401.5151754448543
 30
0.0
 10
447.8191854708708
 20
401.5085300450171
 30
0.0
 10
447.8186854735481
 20
401.5010154809409
 30
0.0
 10
447.8188105380101
 20
401.4927166466885
 30
0.0
 10
447.8188885613833
 20
401.4875392923088
 30
0.0
 10
447.8192108625853
 20
401.4819669690149
 30
0.0
 10
447.8197385712781
 20
401.4761695182315
 30
0.0
 10
447.8201800965478
 20
401.4713188855721
 30
0.0
 10
447.8207755604328
 20
401.4662034897628
 30
0.0
 10
447.8214570011606
 20
401.4611725718133
 30
0.0
 10
447.8216950916829
 20
401.459414805021
 30
0.0
 10
447.8219447200863
 20
401.4576578617611
 30
0.0
 10
447.8222015227327
 20
401.4559259103426
 30
0.0
  0
ARC
  5
1871C
330
186AB
100
AcDbEntity
  8
A4226725_CLIP_CL
  6
Continuous
 62
     7
100
AcDbCircle
 10
435.189498934
 20
404.4538556838999
 30
0.0
 40
12.96722893385271
100
AcDbArc
 50
346.9836811935
 51
13.0163188065
  0
LINE
  5
1871D
330
186AB
100
AcDbEntity
  8
A4222321_ROSETTE
  6
Continuous
 62
     7
100
AcDbLine
 10
388.9685
 20
439.453852876
 30
0.0
 11
388.9685
 21
369.453852876
 31
0.0
  0
LINE
  5
1871E
330
186AB
100
AcDbEntity
  8
A4222321_ROSETTE
  6
Continuous
 62
     7
100
AcDbLine
 10
388.9685
 20
369.453852876
 30
0.0
 11
411.7514450638999
 21
369.453852876
 31
0.0
  0
LINE
  5
1871F
330
186AB
100
AcDbEntity
  8
A4222321_ROSETTE
  6
Continuous
 62
     7
100
AcDbLine
 10
411.7514450638999
 20
439.453852876
 30
0.0
 11
388.9685
 21
439.453852876
 31
0.0
  0
ARC
  5
18720
330
186AB
100
AcDbEntity
  8
A4222321_ROSETTE
  6
Continuous
 62
     7
100
AcDbCircle
 10
-35.0315
 20
404.4538528759999
 30
0.0
 40
450.0
100
AcDbArc
 50
1.782823040999999
 51
4.224274015699999
  0
ARC
  5
18721
330
186AB
100
AcDbEntity
  8
A4222321_ROSETTE
  6
Continuous
 62
     7
100
AcDbCircle
 10
-35.0315
 20
404.4538528759999
 30
0.0
 40
450.0000000000001
100
AcDbArc
 50
355.7757259843
 51
358.217176959
  0
ARC
  5
18722
330
186AB
100
AcDbEntity
  8
A4222321_ROSETTE
  6
Continuous
 62
     7
100
AcDbCircle
 10
411.7514450638999
 20
371.453852876
 30
0.0
 40
1.999999999999995
100
AcDbArc
 50
270.0
 51
355.7757259844
  0
ARC
  5
18723
330
186AB
100
AcDbEntity
  8
A4222321_ROSETTE
  6
Continuous
 62
     7
100
AcDbCircle
 10
411.7514450638999
 20
437.4538528759999
 30
0.0
 40
2.00000000000014
100
AcDbArc
 50
4.224274015599999
 51
90.0
  0
LINE
  5
18724
330
186AB
100
AcDbEntity
  8
64680238_KNOPF_U
  6
Continuous
 62
     7
100
AcDbLine
 10
488.7757713787
 20
429.7779967901999
 30
0.0
 11
502.9719465653
 21
429.7779967901999
 31
0.0
  0
LINE
  5
18725
330
186AB
100
AcDbEntity
  8
64680238_KNOPF_U
  6
Continuous
 62
     7
100
AcDbLine
 10
486.7757713787
 20
448.1546354487
 30
0.0
 11
504.9719465653
 21
448.1546354487
 31
0.0
  0
ARC
  5
18726
330
186AB
100
AcDbEntity
  8
64680238_KNOPF_U
  6
Continuous
 62
     7
100
AcDbCircle
 10
495.873858972
 20
424.7779967901999
 30
0.0
 40
28.0
100
AcDbArc
 50
70.7627384947
 51
109.2372615053
  0
ARC
  5
18727
330
186AB
100
AcDbEntity
  8
64680238_KNOPF_U
  6
Continuous
 62
     7
100
AcDbCircle
 10
504.5721504830999
 20
449.7038814241999
 30
0.0
 40
1.599999999999996
100
AcDbArc
 50
284.4699705644
 51
70.7627384947
  0
ARC
  5
18728
330
186AB
100
AcDbEntity
  8
64680238_KNOPF_U
  6
Continuous
 62
     7
100
AcDbCircle
 10
487.1755674609
 20
449.7038814241999
 30
0.0
 40
1.6
100
AcDbArc
 50
109.2372615053
 51
255.5300294356
  0
LINE
  5
18729
330
186AB
100
AcDbEntity
  8
64680238_KNOPF_U
  6
Continuous
 62
     7
100
AcDbLine
 10
503.4719465653
 20
430.2779967901999
 30
0.0
 11
503.4719465653
 21
448.1546354487
 31
0.0
  0
LINE
  5
1872A
330
186AB
100
AcDbEntity
  8
64680238_KNOPF_U
  6
Continuous
 62
     7
100
AcDbLine
 10
488.2757713786999
 20
448.1546354487
 30
0.0
 11
488.2757713786999
 21
430.2779967901999
 31
0.0
  0
ARC
  5
1872B
330
186AB
100
AcDbEntity
  8
64680238_KNOPF_U
  6
Continuous
 62
     7
100
AcDbCircle
 10
502.9719465653
 20
430.2779967901999
 30
0.0
 40
0.5000000000000005
100
AcDbArc
 50
270.0
 51
0.0
  0
ARC
  5
1872C
330
186AB
100
AcDbEntity
  8
64680238_KNOPF_U
  6
Continuous
 62
     7
100
AcDbCircle
 10
488.7757713787
 20
430.2779967901999
 30
0.0
 40
0.5000000000000005
100
AcDbArc
 50
180.0
 51
270.0
  0
ENDBLK
  5
1872D
330
186AB
100
AcDbEntity
  8
0
100
AcDbBlockEnd
  0
BLOCK
  5
18731
330
18730
100
AcDbEntity
  8
0
100
AcDbBlockBegin
  2
*D7
 70
     1
 10
0.0
 20
0.0
 30
0.0
  3
*D7
  1

  0
LINE
  5
18732
330
18730
100
AcDbEntity
  8
DIM
 62
     0
370
    -2
100
AcDbLine
 10
1.5
 20
352.7174121320184
 30
0.0
 11
1.5
 21
241.3079340338757
 31
0.0
  0
LINE
  5
18733
330
18730
100
AcDbEntity
  8
DIM
 62
     0
370
    -2
100
AcDbLine
 10
299.5
 20
352.717412131936
 30
0.0
 11
299.5
 21
241.3079340338757
 31
0.0
  0
LINE
  5
18734
330
18730
100
AcDbEntity
  8
DIM
 62
     0
370
    -2
100
AcDbLine
 10
4.5
 20
241.3079340338757
 30
0.0
 11
296.5
 21
241.3079340338757
 31
0.0
  0
INSERT
  5
18735
330
18730
100
AcDbEntity
  8
DIM
 62
     0
370
    -2
100
AcDbBlockReference
  2
_DOT
 10
1.5
 20
241.3079340338757
 30
0.0
 41
3.0
 42
3.0
 43
3.0
 50
180.0
  0
INSERT
  5
18736
330
18730
100
AcDbEntity
  8
DIM
 62
     0
370
    -2
100
AcDbBlockReference
  2
_DOT
 10
299.5
 20
241.3079340338757
 30
0.0
 41
3.0
 42
3.0
 43
3.0
  0
MTEXT
  5
18737
330
18730
100
AcDbEntity
  8
DIM
 62
     0
100
AcDbMText
 10
150.5
 20
250.3079340338757
 30
0.0
 40
8.0
 41
0.0
 46
0.0
 71
     5
 72
     1
  1
\A1;298
  7
ＭＳ ゴシック
 73
     1
 44
1.0
  0
POINT
  5
18738
330
18730
100
AcDbEntity
  8
Defpoints
 62
     0
100
AcDbPoint
 10
1.5
 20
362.7174121320184
 30
0.0
  0
POINT
  5
18739
330
18730
100
AcDbEntity
  8
Defpoints
 62
     0
100
AcDbPoint
 10
299.5
 20
362.717412131936
 30
0.0
  0
POINT
  5
1873A
330
18730
100
AcDbEntity
  8
Defpoints
 62
     0
100
AcDbPoint
 10
299.5
 20
241.3079340338757
 30
0.0
  0
ENDBLK
  5
1873B
330
18730
100
AcDbEntity
  8
0
100
AcDbBlockEnd
  0
BLOCK
  5
18796
330
18795
100
AcDbEntity
  8
0
100
AcDbBlockBegin
  2
*D8
 70
     1
 10
0.0
 20
0.0
 30
0.0
  3
*D8
  1

  0
LINE
  5
18797
330
18795
100
AcDbEntity
  8
DIM
 62
     0
370
    -2
100
AcDbLine
 10
67.21998181580011
 20
488.6227711040183
 30
0.0
 11
67.21998181580011
 21
527.7710525990001
 31
0.0
  0
LINE
  5
18798
330
18795
100
AcDbEntity
  8
DIM
 62
     0
370
    -2
100
AcDbLine
 10
232.2199798158003
 20
488.6227711040183
 30
0.0
 11
232.2199798158003
 21
527.7710525990001
 31
0.0
  0
LINE
  5
18799
330
18795
100
AcDbEntity
  8
DIM
 62
     0
370
    -2
100
AcDbLine
 10
70.21998181580011
 20
527.7710525990001
 30
0.0
 11
229.2199798158003
 21
527.7710525990001
 31
0.0
  0
INSERT
  5
1879A
330
18795
100
AcDbEntity
  8
DIM
 62
     0
370
    -2
100
AcDbBlockReference
  2
_DOT
 10
67.21998181580011
 20
527.7710525990001
 30
0.0
 41
3.0
 42
3.0
 43
3.0
 50
180.0
  0
INSERT
  5
1879B
330
18795
100
AcDbEntity
  8
DIM
 62
     0
370
    -2
100
AcDbBlockReference
  2
_DOT
 10
232.2199798158003
 20
527.7710525990001
 30
0.0
 41
3.0
 42
3.0
 43
3.0
  0
MTEXT
  5
1879C
330
18795
100
AcDbEntity
  8
DIM
 62
     0
100
AcDbMText
 10
149.7199808158002
 20
536.7710525990002
 30
0.0
 40
8.0
 41
0.0
 46
0.0
 71
     5
 72
     1
  1
\A1;150±15
  7
ＭＳ ゴシック
 73
     1
 44
1.0
  0
POINT
  5
1879D
330
18795
100
AcDbEntity
  8
Defpoints
 62
     0
100
AcDbPoint
 10
67.21998181580011
 20
478.6227711040183
 30
0.0
  0
POINT
  5
1879E
330
18795
100
AcDbEntity
  8
Defpoints
 62
     0
100
AcDbPoint
 10
232.2199798158003
 20
478.6227711040183
 30
0.0
  0
POINT
  5
1879F
330
18795
100
AcDbEntity
  8
Defpoints
 62
     0
100
AcDbPoint
 10
232.2199798158003
 20
527.7710525990001
 30
0.0
  0
ENDBLK
  5
187A0
330
18795
100
AcDbEntity
  8
0
100
AcDbBlockEnd
  0
BLOCK
  5
187B6
330
187B5
100
AcDbEntity
  8
0
100
AcDbBlockBegin
  2
*D9
 70
     1
 10
0.0
 20
0.0
 30
0.0
  3
*D9
  1

  0
LINE
  5
187B7
330
187B5
100
AcDbEntity
  8
DIM
 62
     0
370
    -2
100
AcDbLine
 10
448.1778575683891
 20
47.79953035992426
 30
0.0
 11
448.1778575683891
 21
26.95800948328267
 31
0.0
  0
LINE
  5
187B8
330
187B5
100
AcDbEntity
  8
DIM
 62
     0
370
    -2
100
AcDbLine
 10
555.083216540389
 20
91.09252748132437
 30
0.0
 11
555.083216540389
 21
26.95800948328267
 31
0.0
  0
LINE
  5
187B9
330
187B5
100
AcDbEntity
  8
DIM
 62
     0
370
    -2
100
AcDbLine
 10
451.1778575683891
 20
26.95800948328267
 30
0.0
 11
552.083216540389
 21
26.95800948328267
 31
0.0
  0
INSERT
  5
187BA
330
187B5
100
AcDbEntity
  8
DIM
 62
     0
370
    -2
100
AcDbBlockReference
  2
_DOT
 10
448.1778575683891
 20
26.95800948328267
 30
0.0
 41
3.0
 42
3.0
 43
3.0
 50
180.0
  0
INSERT
  5
187BB
330
187B5
100
AcDbEntity
  8
DIM
 62
     0
370
    -2
100
AcDbBlockReference
  2
_DOT
 10
555.083216540389
 20
26.95800948328267
 30
0.0
 41
3.0
 42
3.0
 43
3.0
  0
MTEXT
  5
187BC
330
187B5
100
AcDbEntity
  8
DIM
 62
     0
100
AcDbMText
 10
501.630537054389
 20
35.95800948328268
 30
0.0
 40
8.0
 41
0.0
 46
0.0
 71
     5
 72
     1
  1
\A1;107
  7
ＭＳ ゴシック
 73
     1
 44
1.0
  0
POINT
  5
187BD
330
187B5
100
AcDbEntity
  8
Defpoints
 62
     0
100
AcDbPoint
 10
448.1778575683891
 20
57.79953035992426
 30
0.0
  0
POINT
  5
187BE
330
187B5
100
AcDbEntity
  8
Defpoints
 62
     0
100
AcDbPoint
 10
555.083216540389
 20
101.0925274813244
 30
0.0
  0
POINT
  5
187BF
330
187B5
100
AcDbEntity
  8
Defpoints
 62
     0
100
AcDbPoint
 10
555.083216540389
 20
26.95800948328267
 30
0.0
  0
ENDBLK
  5
187C0
330
187B5
100
AcDbEntity
  8
0
100
AcDbBlockEnd
  0
BLOCK
  5
187C4
330
187C3
100
AcDbEntity
  8
0
100
AcDbBlockBegin
  2
*D10
 70
     1
 10
0.0
 20
0.0
 30
0.0
  3
*D10
  1

  0
LINE
  5
187C5
330
187C3
100
AcDbEntity
  8
DIM
 62
     0
370
    -2
100
AcDbLine
 10
448.1778575683891
 20
37.79953035992426
 30
0.0
 11
448.1778575683891
 21
1.5
 31
0.0
  0
LINE
  5
187C6
330
187C3
100
AcDbEntity
  8
DIM
 62
     0
370
    -2
100
AcDbLine
 10
610.1778575683892
 20
106.7682096048632
 30
0.0
 11
610.1778575683892
 21
1.5
 31
0.0
  0
LINE
  5
187C7
330
187C3
100
AcDbEntity
  8
DIM
 62
     0
370
    -2
100
AcDbLine
 10
451.1778575683891
 20
1.5
 30
0.0
 11
607.1778575683891
 21
1.5
 31
0.0
  0
INSERT
  5
187C8
330
187C3
100
AcDbEntity
  8
DIM
 62
     0
370
    -2
100
AcDbBlockReference
  2
_DOT
 10
448.1778575683891
 20
1.5
 30
0.0
 41
3.0
 42
3.0
 43
3.0
 50
180.0
  0
INSERT
  5
187C9
330
187C3
100
AcDbEntity
  8
DIM
 62
     0
370
    -2
100
AcDbBlockReference
  2
_DOT
 10
610.1778575683892
 20
1.5
 30
0.0
 41
3.0
 42
3.0
 43
3.0
  0
MTEXT
  5
187CA
330
187C3
100
AcDbEntity
  8
DIM
 62
     0
100
AcDbMText
 10
529.1778575683891
 20
10.5
 30
0.0
 40
8.0
 41
0.0
 46
0.0
 71
     5
 72
     1
  1
\A1;162
  7
ＭＳ ゴシック
 73
     1
 44
1.0
  0
POINT
  5
187CB
330
187C3
100
AcDbEntity
  8
Defpoints
 62
     0
100
AcDbPoint
 10
448.1778575683891
 20
47.79953035992426
 30
0.0
  0
POINT
  5
187CC
330
187C3
100
AcDbEntity
  8
Defpoints
 62
     0
100
AcDbPoint
 10
610.1778575683892
 20
116.7682096048632
 30
0.0
  0
POINT
  5
187CD
330
187C3
100
AcDbEntity
  8
Defpoints
 62
     0
100
AcDbPoint
 10
610.1778575683892
 20
1.5
 30
0.0
  0
ENDBLK
  5
187CE
330
187C3
100
AcDbEntity
  8
0
100
AcDbBlockEnd
  0
BLOCK
  5
18B0B
330
18B0A
100
AcDbEntity
  8
0
100
AcDbBlockBegin
  2
*D11
 70
     1
 10
0.0
 20
0.0
 30
0.0
  3
*D11
  1

  0
LINE
  5
18B0D
330
18B0A
100
AcDbEntity
  8
DIM
 62
     0
440
 16777216
370
    -2
100
AcDbLine
 10
226.8302158496854
 20
182.0296352583587
 30
0.0
 11
338.2396939478281
 21
182.0296352583587
 31
0.0
  0
LINE
  5
18B0E
330
18B0A
100
AcDbEntity
  8
DIM
 62
     0
440
 16777216
370
    -2
100
AcDbLine
 10
226.8302158497676
 20
480.0296352583586
 30
0.0
 11
338.239693947828
 21
480.0296352583586
 31
0.0
  0
LINE
  5
18B0F
330
18B0A
100
AcDbEntity
  8
DIM
 62
     0
440
 16777216
370
    -2
100
AcDbLine
 10
338.2396939478281
 20
185.0296352583587
 30
0.0
 11
338.239693947828
 21
477.0296352583586
 31
0.0
  0
INSERT
  5
18B10
330
18B0A
100
AcDbEntity
  8
DIM
 62
     0
440
 16777216
370
    -2
100
AcDbBlockReference
  2
_DOT
 10
338.2396939478281
 20
182.0296352583587
 30
0.0
 41
3.0
 42
3.0
 43
3.0
 50
270.0
  0
INSERT
  5
18B11
330
18B0A
100
AcDbEntity
  8
DIM
 62
     0
440
 16777216
370
    -2
100
AcDbBlockReference
  2
_DOT
 10
338.239693947828
 20
480.0296352583586
 30
0.0
 41
3.0
 42
3.0
 43
3.0
 50
90.00000000000003
  0
MTEXT
  5
18B12
330
18B0A
100
AcDbEntity
  8
DIM
 62
     0
440
 16777216
100
AcDbMText
 10
329.239693947828
 20
331.0296352583587
 30
0.0
 40
8.0
 41
0.0
 46
0.0
 71
     5
 72
     1
  1
\A1;298
  7
ＭＳ ゴシック
 11
-0.0000000000000004
 21
1.0
 31
0.0
 73
     1
 44
1.0
  0
POINT
  5
18B13
330
18B0A
100
AcDbEntity
  8
Defpoints
 62
     0
440
 16777216
100
AcDbPoint
 10
216.8302158496854
 20
182.0296352583587
 30
0.0
  0
POINT
  5
18B14
330
18B0A
100
AcDbEntity
  8
Defpoints
 62
     0
440
 16777216
100
AcDbPoint
 10
216.8302158497676
 20
480.0296352583586
 30
0.0
  0
POINT
  5
18B15
330
18B0A
100
AcDbEntity
  8
Defpoints
 62
     0
440
 16777216
100
AcDbPoint
 10
338.239693947828
 20
480.0296352583586
 30
0.0
  0
ENDBLK
  5
18B0C
330
18B0A
100
AcDbEntity
  8
0
100
AcDbBlockEnd
  0
BLOCK
  5
18B17
330
18B16
100
AcDbEntity
  8
0
100
AcDbBlockBegin
  2
*D12
 70
     1
 10
0.0
 20
0.0
 30
0.0
  3
*D12
  1

  0
LINE
  5
18B19
330
18B16
100
AcDbEntity
  8
DIM
 62
     0
440
 16777216
370
    -2
100
AcDbLine
 10
90.92485687768542
 20
247.7496170741588
 30
0.0
 11
63.18282991939345
 21
247.7496170741588
 31
0.0
  0
LINE
  5
18B1A
330
18B16
100
AcDbEntity
  8
DIM
 62
     0
440
 16777216
370
    -2
100
AcDbLine
 10
90.92485687768531
 20
412.749615074159
 30
0.0
 11
63.18282991939338
 21
412.749615074159
 31
0.0
  0
LINE
  5
18B1B
330
18B16
100
AcDbEntity
  8
DIM
 62
     0
440
 16777216
370
    -2
100
AcDbLine
 10
63.18282991939345
 20
250.7496170741589
 30
0.0
 11
63.18282991939338
 21
409.749615074159
 31
0.0
  0
INSERT
  5
18B1C
330
18B16
100
AcDbEntity
  8
DIM
 62
     0
440
 16777216
370
    -2
100
AcDbBlockReference
  2
_DOT
 10
63.18282991939345
 20
247.7496170741588
 30
0.0
 41
3.0
 42
3.0
 43
3.0
 50
270.0
  0
INSERT
  5
18B1D
330
18B16
100
AcDbEntity
  8
DIM
 62
     0
440
 16777216
370
    -2
100
AcDbBlockReference
  2
_DOT
 10
63.18282991939338
 20
412.749615074159
 30
0.0
 41
3.0
 42
3.0
 43
3.0
 50
90.00000000000003
  0
MTEXT
  5
18B1E
330
18B16
100
AcDbEntity
  8
DIM
 62
     0
440
 16777216
100
AcDbMText
 10
54.1828299193934
 20
330.2496160741589
 30
0.0
 40
8.0
 41
0.0
 46
0.0
 71
     5
 72
     1
  1
\A1;150±15
  7
ＭＳ ゴシック
 11
-0.0000000000000004
 21
1.0
 31
0.0
 73
     1
 44
1.0
  0
POINT
  5
18B1F
330
18B16
100
AcDbEntity
  8
Defpoints
 62
     0
440
 16777216
100
AcDbPoint
 10
100.9248568776854
 20
247.7496170741588
 30
0.0
  0
POINT
  5
18B20
330
18B16
100
AcDbEntity
  8
Defpoints
 62
     0
440
 16777216
100
AcDbPoint
 10
100.9248568776853
 20
412.749615074159
 30
0.0
  0
POINT
  5
18B21
330
18B16
100
AcDbEntity
  8
Defpoints
 62
     0
440
 16777216
100
AcDbPoint
 10
63.18282991939338
 20
412.749615074159
 30
0.0
  0
ENDBLK
  5
18B18
330
18B16
100
AcDbEntity
  8
0
100
AcDbBlockEnd
  0
BLOCK
  5
18B23
330
18B22
100
AcDbEntity
  8
0
100
AcDbBlockBegin
  2
*D13
 70
     1
 10
0.0
 20
0.0
 30
0.0
  3
*D13
  1

  0
LINE
  5
18B25
330
18B22
100
AcDbEntity
  8
DIM
 62
     0
440
 16777216
370
    -2
100
AcDbLine
 10
540.3805064363695
 20
614.2050460182371
 30
0.0
 11
555.9292317009122
 21
614.2050460182371
 31
0.0
  0
LINE
  5
18B26
330
18B22
100
AcDbEntity
  8
DIM
 62
     0
440
 16777216
370
    -2
100
AcDbLine
 10
525.4592837349544
 20
721.1104049902368
 30
0.0
 11
555.9292317009122
 21
721.1104049902368
 31
0.0
  0
LINE
  5
18B27
330
18B22
100
AcDbEntity
  8
DIM
 62
     0
440
 16777216
370
    -2
100
AcDbLine
 10
555.9292317009122
 20
617.205046018237
 30
0.0
 11
555.9292317009122
 21
718.1104049902367
 31
0.0
  0
INSERT
  5
18B28
330
18B22
100
AcDbEntity
  8
DIM
 62
     0
440
 16777216
370
    -2
100
AcDbBlockReference
  2
_DOT
 10
555.9292317009122
 20
614.2050460182371
 30
0.0
 41
3.0
 42
3.0
 43
3.0
 50
270.0
  0
INSERT
  5
18B29
330
18B22
100
AcDbEntity
  8
DIM
 62
     0
440
 16777216
370
    -2
100
AcDbBlockReference
  2
_DOT
 10
555.9292317009122
 20
721.1104049902368
 30
0.0
 41
3.0
 42
3.0
 43
3.0
 50
90.0
  0
MTEXT
  5
18B2A
330
18B22
100
AcDbEntity
  8
DIM
 62
     0
440
 16777216
100
AcDbMText
 10
546.9292317009121
 20
667.6577255042372
 30
0.0
 40
8.0
 41
0.0
 46
0.0
 71
     5
 72
     1
  1
\A1;107
  7
ＭＳ ゴシック
 11
0.0
 21
1.0
 31
0.0
 73
     1
 44
1.0
  0
POINT
  5
18B2B
330
18B22
100
AcDbEntity
  8
Defpoints
 62
     0
440
 16777216
100
AcDbPoint
 10
530.3805064363696
 20
614.2050460182371
 30
0.0
  0
POINT
  5
18B2C
330
18B22
100
AcDbEntity
  8
Defpoints
 62
     0
440
 16777216
100
AcDbPoint
 10
515.4592837349544
 20
721.1104049902368
 30
0.0
  0
POINT
  5
18B2D
330
18B22
100
AcDbEntity
  8
Defpoints
 62
     0
440
 16777216
100
AcDbPoint
 10
555.9292317009122
 20
721.1104049902368
 30
0.0
  0
ENDBLK
  5
18B24
330
18B22
100
AcDbEntity
  8
0
100
AcDbBlockEnd
  0
BLOCK
  5
18B2F
330
18B2E
100
AcDbEntity
  8
0
100
AcDbBlockBegin
  2
*D14
 70
     1
 10
0.0
 20
0.0
 30
0.0
  3
*D14
  1

  0
LINE
  5
18B31
330
18B2E
100
AcDbEntity
  8
DIM
 62
     0
440
 16777216
370
    -2
100
AcDbLine
 10
550.3805064363695
 20
614.2050460182371
 30
0.0
 11
578.5585734638302
 21
614.2050460182371
 31
0.0
  0
LINE
  5
18B32
330
18B2E
100
AcDbEntity
  8
DIM
 62
     0
440
 16777216
370
    -2
100
AcDbLine
 10
481.4118271914304
 20
776.2050460182371
 30
0.0
 11
578.5585734638302
 21
776.2050460182371
 31
0.0
  0
LINE
  5
18B33
330
18B2E
100
AcDbEntity
  8
DIM
 62
     0
440
 16777216
370
    -2
100
AcDbLine
 10
578.5585734638302
 20
617.205046018237
 30
0.0
 11
578.5585734638302
 21
773.2050460182371
 31
0.0
  0
INSERT
  5
18B34
330
18B2E
100
AcDbEntity
  8
DIM
 62
     0
440
 16777216
370
    -2
100
AcDbBlockReference
  2
_DOT
 10
578.5585734638302
 20
614.2050460182371
 30
0.0
 41
3.0
 42
3.0
 43
3.0
 50
270.0000000000001
  0
INSERT
  5
18B35
330
18B2E
100
AcDbEntity
  8
DIM
 62
     0
440
 16777216
370
    -2
100
AcDbBlockReference
  2
_DOT
 10
578.5585734638302
 20
776.2050460182371
 30
0.0
 41
3.0
 42
3.0
 43
3.0
 50
90.00000000000005
  0
MTEXT
  5
18B36
330
18B2E
100
AcDbEntity
  8
DIM
 62
     0
440
 16777216
100
AcDbMText
 10
569.5585734638302
 20
695.2050460182371
 30
0.0
 40
8.0
 41
0.0
 46
0.0
 71
     5
 72
     1
  1
\A1;162
  7
ＭＳ ゴシック
 11
-0.0000000000000007
 21
1.0
 31
0.0
 73
     1
 44
1.0
  0
POINT
  5
18B37
330
18B2E
100
AcDbEntity
  8
Defpoints
 62
     0
440
 16777216
100
AcDbPoint
 10
540.3805064363695
 20
614.2050460182371
 30
0.0
  0
POINT
  5
18B38
330
18B2E
100
AcDbEntity
  8
Defpoints
 62
     0
440
 16777216
100
AcDbPoint
 10
471.4118271914305
 20
776.2050460182371
 30
0.0
  0
POINT
  5
18B39
330
18B2E
100
AcDbEntity
  8
Defpoints
 62
     0
440
 16777216
100
AcDbPoint
 10
578.5585734638302
 20
776.2050460182371
 30
0.0
  0
ENDBLK
  5
18B30
330
18B2E
100
AcDbEntity
  8
0
100
AcDbBlockEnd
  0
ENDSEC
  0
SECTION
  2
ENTITIES
  0
MTEXT
  5
177
330
A
100
AcDbEntity
  8
TEMPLATE
390
1D
100
AcDbMText
 10
23.76064336431923
 20
103.1195254894285
 30
0.0
 40
4.886523437499998
 41
0.0
 46
0.0
 71
     1
 72
     1
  1
品名
  7
ＭＳ ゴシック
 73
     1
 44
0.7828267384257844
  0
MTEXT
  5
178
330
A
100
AcDbEntity
  8
TEMPLATE
390
1D
100
AcDbMText
 10
23.76064336431923
 20
77.61952548942841
 30
0.0
 40
4.886523437499998
 41
0.0
 46
0.0
 71
     1
 72
     1
  1
仕様
  7
ＭＳ ゴシック
 73
     1
 44
0.7828267384257844
  0
LINE
  5
179
330
A
100
AcDbEntity
  8
TEMPLATE
390
1D
100
AcDbLine
 10
606.6606433641744
 20
80.14400205192853
 30
0.0
 11
21.66064336417462
 21
80.14400205192853
 31
0.0
  0
LWPOLYLINE
  5
17A
330
A
100
AcDbEntity
  8
TEMPLATE
390
1D
100
AcDbPolyline
 90
        5
 70
   128
 43
0.0
 10
606.6606433641744
 20
869.1440020519278
 10
21.66064336417462
 20
869.1440020519278
 10
21.66064336417462
 20
29.14400205192847
 10
606.6606433641744
 20
29.14400205192847
 10
606.6606433641744
 20
869.1440020519278
  0
LINE
  5
17B
330
A
100
AcDbEntity
  8
TEMPLATE
390
1D
100
AcDbLine
 10
606.6606433641744
 20
105.6440020519285
 30
0.0
 11
21.66064336417462
 21
105.6440020519285
 31
0.0
  0
LINE
  5
17C
330
A
100
AcDbEntity
  8
TEMPLATE
390
1D
100
AcDbLine
 10
606.6606433643196
 20
54.64400205192847
 30
0.0
 11
380.760643364319
 21
54.64400205192847
 31
0.0
  0
MTEXT
  5
17E
330
A
100
AcDbEntity
  8
TEMPLATE
390
1D
100
AcDbMText
 10
389.7220652399973
 20
45.67088370993604
 30
0.0
 40
7.329785156250001
 41
0.0
 46
0.0
 71
     1
 72
     1
  1
大洋金物株式会社 ティーフォルム事業部
  7
ＭＳ ゴシック
 73
     1
 44
0.7828267384257844
  0
MTEXT
  5
180
330
A
100
AcDbEntity
  8
TEMPLATE
390
1D
100
AcDbMText
 10
549.360643364397
 20
69.04478720817846
 30
0.0
 40
7.329785156250001
 41
0.0
 46
7.329785156250001
 71
     1
 72
     1
  1
{1:3}
  7
ＭＳ ゴシック
 73
     1
 44
0.7828267384257844
1001
ACAD
1000
ACAD_MTEXT_DEFINED_HEIGHT_BEGIN
1070
    46
1040
7.329785156250001
1000
ACAD_MTEXT_DEFINED_HEIGHT_END
  0
MTEXT
  5
181
330
A
100
AcDbEntity
  8
TEMPLATE
390
1D
100
AcDbMText
 10
533.4606433643968
 20
77.61952548942841
 30
0.0
 40
4.886523437499998
 41
0.0
 46
0.0
 71
     1
 72
     1
  1
縮尺
  7
ＭＳ ゴシック
 73
     1
 44
0.7828267384257844
  0
LINE
  5
182
330
A
100
AcDbEntity
  8
TEMPLATE
390
1D
100
AcDbLine
 10
531.3606433643969
 20
54.64400205192847
 30
0.0
 11
531.3606433643969
 21
80.14400205192853
 31
0.0
  0
MTEXT
  5
183
330
A
100
AcDbEntity
  8
TEMPLATE
390
1D
100
AcDbMText
 10
458.1606433643968
 20
77.61952548942841
 30
0.0
 40
4.886523437499998
 41
0.0
 46
0.0
 71
     1
 72
     1
  1
容量
  7
ＭＳ ゴシック
 73
     1
 44
0.7828267384257844
  0
LINE
  5
184
330
A
100
AcDbEntity
  8
TEMPLATE
390
1D
100
AcDbLine
 10
456.0606433643969
 20
54.64400205192847
 30
0.0
 11
456.0606433643969
 21
80.14400205192853
 31
0.0
  0
MTEXT
  5
185
330
A
100
AcDbEntity
  8
TEMPLATE
390
1D
100
AcDbMText
 10
382.860643364397
 20
103.1195254894285
 30
0.0
 40
4.886523437499998
 41
0.0
 46
0.0
 71
     1
 72
     1
  1
品番
  7
ＭＳ ゴシック
 73
     1
 44
0.7828267384257844
  0
MTEXT
  5
186
330
A
100
AcDbEntity
  8
TEMPLATE
390
1D
100
AcDbMText
 10
382.860643364397
 20
77.61952548942841
 30
0.0
 40
4.886523437499998
 41
0.0
 46
0.0
 71
     1
 72
     1
  1
重量
  7
ＭＳ ゴシック
 73
     1
 44
0.7828267384257844
  0
MTEXT
  5
187
330
A
100
AcDbEntity
  8
TEMPLATE
390
1D
100
AcDbMText
 10
398.760643364397
 20
94.54478720817844
 30
0.0
 40
7.329785156250001
 41
0.0
 46
7.329785156250001
 71
     1
 72
     1
  1
{FHT73-3048}
  7
ＭＳ ゴシック
 73
     1
 44
0.7828267384257844
1001
ACAD
1000
ACAD_MTEXT_DEFINED_HEIGHT_BEGIN
1070
    46
1040
7.329785156250001
1000
ACAD_MTEXT_DEFINED_HEIGHT_END
  0
LINE
  5
188
330
A
100
AcDbEntity
  8
TEMPLATE
390
1D
100
AcDbLine
 10
380.760643364397
 20
29.14400205192847
 30
0.0
 11
380.760643364397
 21
105.6440020519285
 31
0.0
  0
MTEXT
  5
189
330
A
100
AcDbEntity
  8
TEMPLATE
390
1D
100
AcDbMText
 10
39.66064336431923
 20
94.54478720817844
 30
0.0
 40
6.9
 41
0.0
 46
8.0523
 71
     1
 72
     1
  1
{サーモスタットバス・シャワー混合栓　-GROHE, Grohtherm 1000 Cosmopolitan M-}
  7
ＭＳ ゴシック
 73
     1
 44
0.7828267384257844
1001
ACAD
1000
ACAD_MTEXT_DEFINED_HEIGHT_BEGIN
1070
    46
1040
8.0523
1000
ACAD_MTEXT_DEFINED_HEIGHT_END
  0
INSERT
  5
68C
330
A
100
AcDbEntity
  8
TEMPLATE
100
AcDbBlockReference
  2
block 2
 10
367.7097207081031
 20
3.349230605734546
 30
0.0
 41
0.1524
 42
0.1524
 43
0.1524
  0
LWPOLYLINE
  5
D69
330
A
100
AcDbEntity
  8
BORDER
100
AcDbPolyline
 90
        4
 70
     1
 43
0.0
 10
0.0
 20
0.0
 10
0.0
 20
891.0
 10
630.0
 20
891.0
 10
630.0
 20
0.0
  0
INSERT
  5
1343
330
A
100
AcDbEntity
  8
TEMPLATE
100
AcDbBlockReference
  2
block 2
 10
838.6973883465872
 20
9.774128564918274
 30
0.0
 41
0.1524
 42
0.1524
 43
0.1524
  0
MTEXT
  5
36AC
102
{ACAD_XDICTIONARY
360
36AE
102
}
330
A
100
AcDbEntity
  8
TEMPLATE
 48
0.05
100
AcDbMText
 10
22.06848147481188
 20
25.15049698669364
 30
0.0
 40
7.0
 41
0.0
 46
7.0
 71
     1
 72
     1
  1
20230821N
  7
ＭＳ ゴシック
 73
     1
 44
1.0
1001
ACAD
1000
ACAD_MTEXT_DEFINED_HEIGHT_BEGIN
1070
    46
1040
7.0
1000
ACAD_MTEXT_DEFINED_HEIGHT_END
  0
HATCH
  5
172F9
102
{ACAD_REACTORS
330
1730A
102
}
330
A
100
AcDbEntity
  8
TEMPLATE
100
AcDbHatch
 10
0.0
 20
0.0
 30
0.0
210
0.0
220
0.0
230
1.0
  2
SOLID
 70
     1
 71
     1
 91
        6
 92
        1
 93
        8
 72
     1
 10
580.3195574690817
 20
45.81237511424546
 11
580.3195574690817
 21
44.03955282504736
 72
     1
 10
580.3195574690817
 20
44.03955282504736
 11
577.5113800039879
 21
44.03955282504736
 72
     1
 10
577.5113800039879
 20
44.03955282504736
 11
577.5113800039879
 21
36.81237511467916
 72
     1
 10
577.5113800039879
 20
36.81237511467916
 11
575.0415960580052
 21
36.81237511467916
 72
     1
 10
575.0415960580052
 20
36.81237511467916
 11
575.0415960580052
 21
44.03955282504736
 72
     1
 10
575.0415960580052
 20
44.03955282504736
 11
572.2831856276421
 21
44.03955282504736
 72
     1
 10
572.2831856276421
 20
44.03955282504736
 11
572.2831856276421
 21
45.81237511424546
 72
     1
 10
572.2831856276421
 20
45.81237511424546
 11
580.3195574690817
 21
45.81237511424546
 97
        1
330
172FA
 92
        1
 93
        1
 72
     4
 94
        3
 73
     0
 74
     0
 95
       56
 96
       52
 40
0.0
 40
0.0
 40
0.0
 40
0.0
 40
1.0
 40
1.0
 40
1.0
 40
2.0
 40
2.0
 40
2.0
 40
3.0
 40
3.0
 40
3.0
 40
4.0
 40
4.0
 40
4.0
 40
5.0
 40
5.0
 40
5.0
 40
6.0
 40
6.0
 40
6.0
 40
7.0
 40
7.0
 40
7.0
 40
8.0
 40
8.0
 40
8.0
 40
9.0
 40
9.0
 40
9.0
 40
10.0
 40
10.0
 40
10.0
 40
11.0
 40
11.0
 40
11.0
 40
12.0
 40
12.0
 40
12.0
 40
13.0
 40
13.0
 40
13.0
 40
14.0
 40
14.0
 40
14.0
 40
15.0
 40
15.0
 40
15.0
 40
16.0
 40
16.0
 40
16.0
 40
17.0
 40
17.0
 40
17.0
 40
17.0
 10
584.0822130993691
 20
45.59806442612168
 10
584.4283729539446
 20
45.69550069232488
 10
584.875249681945
 20
45.61399880405779
 10
584.875249681945
 20
45.61399880405779
 10
584.875249681945
 20
45.61399880405779
 10
584.6605596038704
 20
44.96972771633077
 10
584.6605596038704
 20
44.96972771633077
 10
584.6605596038704
 20
44.96972771633077
 10
584.2218509183413
 20
45.07124800376957
 10
583.8834797162866
 20
44.80442528303579
 10
583.6205401632851
 20
44.59576081006296
 10
583.4501940753495
 20
44.04131587246591
 10
583.3848497355778
 20
43.83050896212374
 10
583.3848497355778
 20
43.83050896212374
 10
583.0935228874299
 20
42.93630916500407
 10
583.0935228874299
 20
42.93630916500407
 10
583.0935228874299
 20
42.93630916500407
 10
584.0487598325259
 20
42.93630916500407
 10
584.0487598325259
 20
42.93630916500407
 10
584.0487598325259
 20
42.93630916500407
 10
583.9001951911804
 20
42.37351764848811
 10
583.9001951911804
 20
42.37351764848811
 10
583.9001951911804
 20
42.37351764848811
 10
582.9371695935638
 20
42.37351764848811
 10
582.9371695935638
 20
42.37351764848811
 10
582.9371695935638
 20
42.37351764848811
 10
581.2141366561519
 20
36.81237511467916
 10
581.2141366561519
 20
36.81237511467916
 10
581.2141366561519
 20
36.81237511467916
 10
580.6746664630858
 20
36.81237511467916
 10
580.6746664630858
 20
36.81237511467916
 10
580.6746664630858
 20
36.81237511467916
 10
582.3992615944128
 20
42.37351764848811
 10
582.3992615944128
 20
42.37351764848811
 10
582.3992615944128
 20
42.37351764848811
 10
581.6886418993972
 20
42.37351764848811
 10
581.6886418993972
 20
42.37351764848811
 10
581.6886418993972
 20
42.37351764848811
 10
581.8376082477494
 20
42.93630916500407
 10
581.8376082477494
 20
42.93630916500407
 10
581.8376082477494
 20
42.93630916500407
 10
582.5556148882789
 20
42.93630916500407
 10
582.5556148882789
 20
42.93630916500407
 10
582.5556148882789
 20
42.93630916500407
 10
582.8095829847954
 20
43.71615636752356
 10
582.8095829847954
 20
43.71615636752356
 10
583.0149445334898
 20
44.36997915518984
 10
583.1891961062141
 20
44.72100412795849
 10
583.3385641615731
 20
44.98566209426688
 10
583.4863477059606
 20
45.25054323113452
 10
583.7788350410172
 20
45.51073778625616
 10
584.0822130993691
 20
45.59806442612168
 97
        0
 97
        1
330
17305
 92
        1
 93
        1
 72
     4
 94
        3
 73
     0
 74
     0
 95
       32
 96
       28
 40
0.0
 40
0.0
 40
0.0
 40
0.0
 40
1.0
 40
1.0
 40
1.0
 40
2.0
 40
2.0
 40
2.0
 40
3.0
 40
3.0
 40
3.0
 40
4.0
 40
4.0
 40
4.0
 40
5.0
 40
5.0
 40
5.0
 40
6.0
 40
6.0
 40
6.0
 40
7.0
 40
7.0
 40
7.0
 40
8.0
 40
8.0
 40
8.0
 40
9.0
 40
9.0
 40
9.0
 40
9.0
 10
585.394880012287
 20
42.5961972325865
 10
585.0701222143512
 20
42.17612328876155
 10
584.8200372855671
 20
41.79807236125814
 10
584.4151612568323
 20
40.60984535222243
 10
584.0429350809273
 20
39.52296009417805
 10
583.8060618492555
 20
38.73222216836346
 10
583.7702876085951
 20
37.76919657074652
 10
583.7430608003566
 20
37.05255127062911
 10
584.1794485120689
 20
36.81237511467916
 10
584.8192785056652
 20
36.81237511467916
 10
585.0950280487723
 20
36.81237511467916
 10
585.7908738527602
 20
36.82991632064247
 10
586.2864017626947
 20
37.44247487188884
 10
586.6332980801157
 20
37.87283697849896
 10
586.9530122234106
 20
38.3189549265978
 10
587.3816335996578
 20
39.78237355234213
 10
587.7383047875777
 20
41.00579455858404
 10
587.9852653285309
 20
41.79651016734281
 10
587.967009976778
 20
42.24671213667736
 10
587.967009976778
 20
42.24671213667736
 10
587.967009976778
 20
42.24671213667736
 10
587.967009976778
 20
42.24671213667736
 10
587.8506934812556
 20
42.99777033704319
 10
587.305398536591
 20
43.1564669217822
 10
586.9938524357677
 20
43.1564669217822
 10
586.6869929166901
 20
43.1564669217822
 10
585.8647433078982
 20
43.20955919784657
 10
585.394880012287
 20
42.5961972325865
 97
        0
 97
        1
330
17308
 92
        1
 93
        1
 72
     4
 94
        3
 73
     0
 74
     0
 95
       38
 96
       34
 40
0.0
 40
0.0
 40
0.0
 40
0.0
 40
1.0
 40
1.0
 40
1.0
 40
2.0
 40
2.0
 40
2.0
 40
3.0
 40
3.0
 40
3.0
 40
4.0
 40
4.0
 40
4.0
 40
5.0
 40
5.0
 40
5.0
 40
6.0
 40
6.0
 40
6.0
 40
7.0
 40
7.0
 40
7.0
 40
8.0
 40
8.0
 40
8.0
 40
9.0
 40
9.0
 40
9.0
 40
10.0
 40
10.0
 40
10.0
 40
11.0
 40
11.0
 40
11.0
 40
11.0
 10
589.9393467460162
 20
42.91472857191693
 10
589.9393467460162
 20
42.91472857191693
 10
590.4939702200607
 20
42.91472857191693
 10
590.4939702200607
 20
42.91472857191693
 10
590.4939702200607
 20
42.91472857191693
 10
590.2462062650937
 20
42.12146881878184
 10
590.2462062650937
 20
42.12146881878184
 10
590.4344729489438
 20
42.34414840288034
 10
590.7316022316344
 20
42.6407197591727
 10
590.9867754491711
 20
42.79026635097919
 10
591.3679507645053
 20
43.01294593507768
 10
591.5857652304103
 20
43.04231518068535
 10
591.8253165087942
 20
43.03646811203097
 10
591.8253165087942
 20
43.03646811203097
 10
591.591210592058
 20
42.28639186212602
 10
591.591210592058
 20
42.28639186212602
 10
591.4387404659245
 20
42.35095510493986
 10
590.9688771703129
 20
42.22805507791734
 10
590.6993317687555
 20
42.03416449597225
 10
590.4562543955343
 20
41.85933267979383
 10
590.2882069643595
 20
41.71056718494513
 10
590.0890941913261
 20
41.3365779616216
 10
589.8914989780961
 20
40.96203081189956
 10
589.7355473912369
 20
40.36480407807901
 10
589.4671624765877
 20
39.49841133265191
 10
589.4671624765877
 20
39.49841133265191
 10
588.6289784898597
 20
36.81237511467916
 10
588.6289784898597
 20
36.81237511467916
 10
588.6289784898597
 20
36.81237511467916
 10
588.0906911007581
 20
36.81237511467916
 10
588.0906911007581
 20
36.81237511467916
 10
588.0906911007581
 20
36.81237511467916
 10
589.9393467460162
 20
42.91472857191693
 10
589.9393467460162
 20
42.91472857191693
 97
        0
 97
        1
330
17306
 92
        1
 93
        1
 72
     4
 94
        3
 73
     0
 74
     0
 95
      104
 96
      100
 40
0.0
 40
0.0
 40
0.0
 40
0.0
 40
1.0
 40
1.0
 40
1.0
 40
2.0
 40
2.0
 40
2.0
 40
3.0
 40
3.0
 40
3.0
 40
4.0
 40
4.0
 40
4.0
 40
5.0
 40
5.0
 40
5.0
 40
6.0
 40
6.0
 40
6.0
 40
7.0
 40
7.0
 40
7.0
 40
8.0
 40
8.0
 40
8.0
 40
9.0
 40
9.0
 40
9.0
 40
10.0
 40
10.0
 40
10.0
 40
11.0
 40
11.0
 40
11.0
 40
12.0
 40
12.0
 40
12.0
 40
13.0
 40
13.0
 40
13.0
 40
14.0
 40
14.0
 40
14.0
 40
15.0
 40
15.0
 40
15.0
 40
16.0
 40
16.0
 40
16.0
 40
17.0
 40
17.0
 40
17.0
 40
18.0
 40
18.0
 40
18.0
 40
19.0
 40
19.0
 40
19.0
 40
20.0
 40
20.0
 40
20.0
 40
21.0
 40
21.0
 40
21.0
 40
22.0
 40
22.0
 40
22.0
 40
23.0
 40
23.0
 40
23.0
 40
24.0
 40
24.0
 40
24.0
 40
25.0
 40
25.0
 40
25.0
 40
26.0
 40
26.0
 40
26.0
 40
27.0
 40
27.0
 40
27.0
 40
28.0
 40
28.0
 40
28.0
 40
29.0
 40
29.0
 40
29.0
 40
30.0
 40
30.0
 40
30.0
 40
31.0
 40
31.0
 40
31.0
 40
32.0
 40
32.0
 40
32.0
 40
33.0
 40
33.0
 40
33.0
 40
33.0
 10
592.9921860953021
 20
42.91803149619497
 10
592.9921860953021
 20
42.91803149619497
 10
593.4764215749342
 20
42.91803149619497
 10
593.4764215749342
 20
42.91803149619497
 10
593.4764215749342
 20
42.91803149619497
 10
593.2317820077977
 20
42.12401296315815
 10
593.2317820077977
 20
42.12401296315815
 10
593.4441064779437
 20
42.4569388035653
 10
593.6346941356106
 20
42.6053249084632
 10
593.8879034522252
 20
42.79707305303871
 10
594.1418715487417
 20
42.9860985167904
 10
594.4433303402832
 20
43.02461775533059
 10
594.6525750567103
 20
43.02461775533059
 10
594.9116314419795
 20
43.02461775533059
 10
595.1617163707637
 20
42.97346706313235
 10
595.2931638302082
 20
42.68952716049804
 10
595.3939030206897
 20
42.46686989345536
 10
595.3985896024353
 20
42.44060271862234
 10
595.369800600282
 20
42.0010906190797
 10
595.6330972261784
 20
42.451694295421
 10
595.8275680515779
 20
42.6457857308695
 10
596.1581729181679
 20
42.83226705024478
 10
596.5051138697007
 20
43.02461775533059
 10
596.7073510305647
 20
43.03901225640729
 10
596.9423049954265
 20
43.00437618559953
 10
597.2884425329456
 20
42.9532478104571
 10
597.5093813866816
 20
42.8297452229244
 10
597.6248944681901
 20
42.45441697624481
 10
597.7408092567058
 20
42.08024921647379
 10
597.678187597758
 20
41.87955193246918
 10
597.5350460010043
 20
41.28388739256386
 10
597.4697016612327
 20
41.01260126064356
 10
597.3751666123011
 20
40.68411651436711
 10
597.2514854883209
 20
40.29325559675825
 10
597.2514854883209
 20
40.29325559675825
 10
596.1581729181679
 20
36.81237511467916
 10
596.1581729181679
 20
36.81237511467916
 10
596.1581729181679
 20
36.81237511467916
 10
595.5895343329975
 20
36.81237511467916
 10
595.5895343329975
 20
36.81237511467916
 10
595.5895343329975
 20
36.81237511467916
 10
596.5467574960716
 20
39.85548422757835
 10
596.5467574960716
 20
39.85548422757835
 10
596.7466736831187
 20
40.49218983334411
 10
596.8820043102957
 20
40.95716569370618
 10
596.9520352318129
 20
41.24869339535778
 10
597.0399197980767
 20
41.61234982178448
 10
597.0749129417798
 20
41.73234863153571
 10
597.0333139495209
 20
41.99702891489992
 10
596.9951964179876
 20
42.24340921239921
 10
596.8707118799938
 20
42.40384652750091
 10
596.6575839958343
 20
42.40384652750091
 10
596.4304410005492
 20
42.40384652750091
 10
596.2464591914384
 20
42.37856130312887
 10
595.9890096341962
 20
42.11992894192245
 10
595.7315154428426
 20
41.85933267979383
 10
595.5187446315782
 20
41.55343279412156
 10
595.3519023214237
 20
41.20162672439525
 10
595.1854170841643
 20
40.8476782172995
 10
595.0166108730878
 20
40.39903844188015
 10
594.8454836881942
 20
39.85548422757835
 10
594.8454836881942
 20
39.85548422757835
 10
593.8879034522252
 20
36.81237511467916
 10
593.8879034522252
 20
36.81237511467916
 10
593.8879034522252
 20
36.81237511467916
 10
593.3530975238491
 20
36.81237511467916
 10
593.3530975238491
 20
36.81237511467916
 10
593.3530975238491
 20
36.81237511467916
 10
594.4479722879174
 20
40.29169340284293
 10
594.4479722879174
 20
40.29169340284293
 10
594.5634853694261
 20
40.66197799488166
 10
594.6502540828931
 20
40.96379385931832
 10
594.7074303801933
 20
41.19968514052912
 10
594.804643475837
 20
41.60574397322828
 10
594.8318702840752
 20
41.88033302942674
 10
594.7583579018322
 20
42.12401296315815
 10
594.6860060064978
 20
42.36691179993202
 10
594.5588434217921
 20
42.42895321542549
 10
594.3464743175346
 20
42.42895321542549
 10
594.1683395770781
 20
42.42895321542549
 10
593.9944897113608
 20
42.3525172988552
 10
593.7961357182293
 20
42.20042656267251
 10
593.5464078623398
 20
42.00908012510374
 10
593.4464720858723
 20
41.85194573428018
 10
593.3239514488007
 20
41.66524124434543
 10
593.1586266984498
 20
41.41825838633597
 10
593.0812311484743
 20
41.25199631963583
 10
592.941615646558
 20
40.88715708924471
 10
592.8019555105301
 20
40.52017542148403
 10
592.6697492711836
 20
40.09311623915196
 10
592.5775351960687
 20
39.7977276868239
 10
592.5775351960687
 20
39.7977276868239
 10
591.6382549459647
 20
36.81237511467916
 10
591.6382549459647
 20
36.81237511467916
 10
591.6382549459647
 20
36.81237511467916
 10
591.0781861102723
 20
36.81237511467916
 10
591.0781861102723
 20
36.81237511467916
 10
591.0781861102723
 20
36.81237511467916
 10
592.9921860953021
 20
42.91803149619497
 10
592.9921860953021
 20
42.91803149619497
 97
        0
 97
        1
330
17307
 92
       16
 93
        1
 72
     4
 94
        3
 73
     0
 74
     0
 95
       29
 96
       25
 40
0.0
 40
0.0
 40
0.0
 40
0.0
 40
1.0
 40
1.0
 40
1.0
 40
2.0
 40
2.0
 40
2.0
 40
3.0
 40
3.0
 40
3.0
 40
4.0
 40
4.0
 40
4.0
 40
5.0
 40
5.0
 40
5.0
 40
6.0
 40
6.0
 40
6.0
 40
7.0
 40
7.0
 40
7.0
 40
8.0
 40
8.0
 40
8.0
 40
8.0
 10
584.3513791109763
 20
37.94925057801331
 10
584.3490135030472
 20
38.37439049353518
 10
584.4832282774278
 20
39.12973356864028
 10
584.82704484113
 20
40.1403837636178
 10
585.2953459428261
 20
41.50888795047953
 10
585.5761837746857
 20
42.00908012510374
 10
585.8219391946189
 20
42.25255920533161
 10
586.1809759904676
 20
42.60708795588196
 10
586.6636492761844
 20
42.62476306418077
 10
586.8060320930363
 20
42.60708795588196
 10
587.0086709609071
 20
42.58276236491495
 10
587.2949095203023
 20
42.45013210150577
 10
587.3120043851471
 20
42.00363476345613
 10
587.3256624233779
 20
41.621499814717
 10
587.2155500694051
 20
40.90583646506057
 10
586.8301345134438
 20
39.78237355234213
 10
586.3859358321552
 20
38.47687041437903
 10
586.1191131114213
 20
37.96366739614585
 10
585.9052264473606
 20
37.74000586158636
 10
585.502269685436
 20
37.32071301471897
 10
585.0701222143512
 20
37.36097298362186
 10
585.0063400684949
 20
37.36097298362186
 10
584.923499156872
 20
37.36097298362186
 10
584.3525395978846
 20
37.45086608491963
 10
584.3513791109763
 20
37.94925057801331
 97
        0
 97
        1
330
17309
 75
     0
 76
     1
 98
        1
 10
557.7769876859739
 20
21.56103299246715
450
        0
451
        0
460
0.0
461
0.0
452
        0
462
0.0
453
        0
470

1001
ACAD
1010
0.0
1020
0.0
1030
0.0
  0
POLYLINE
  5
172FA
102
{ACAD_REACTORS
330
172F9
330
1730A
102
}
330
A
100
AcDbEntity
  8
TEMPLATE
100
AcDb2dPolyline
 66
     1
 10
0.0
 20
0.0
 30
0.0
  0
VERTEX
  5
172FB
330
172FA
100
AcDbEntity
  8
TEMPLATE
100
AcDbVertex
100
AcDb2dVertex
 10
580.3195574690817
 20
45.81237511424546
 30
0.0
  0
VERTEX
  5
172FC
330
172FA
100
AcDbEntity
  8
TEMPLATE
100
AcDbVertex
100
AcDb2dVertex
 10
580.3195574690817
 20
44.03955282504736
 30
0.0
  0
VERTEX
  5
172FD
330
172FA
100
AcDbEntity
  8
TEMPLATE
100
AcDbVertex
100
AcDb2dVertex
 10
577.5113800039879
 20
44.03955282504736
 30
0.0
  0
VERTEX
  5
172FE
330
172FA
100
AcDbEntity
  8
TEMPLATE
100
AcDbVertex
100
AcDb2dVertex
 10
577.5113800039879
 20
36.81237511467916
 30
0.0
  0
VERTEX
  5
172FF
330
172FA
100
AcDbEntity
  8
TEMPLATE
100
AcDbVertex
100
AcDb2dVertex
 10
575.0415960580052
 20
36.81237511467916
 30
0.0
  0
VERTEX
  5
17300
330
172FA
100
AcDbEntity
  8
TEMPLATE
100
AcDbVertex
100
AcDb2dVertex
 10
575.0415960580052
 20
44.03955282504736
 30
0.0
  0
VERTEX
  5
17301
330
172FA
100
AcDbEntity
  8
TEMPLATE
100
AcDbVertex
100
AcDb2dVertex
 10
572.2831856276421
 20
44.03955282504736
 30
0.0
  0
VERTEX
  5
17302
330
172FA
100
AcDbEntity
  8
TEMPLATE
100
AcDbVertex
100
AcDb2dVertex
 10
572.2831856276421
 20
45.81237511424546
 30
0.0
  0
VERTEX
  5
17303
330
172FA
100
AcDbEntity
  8
TEMPLATE
100
AcDbVertex
100
AcDb2dVertex
 10
580.3195574690817
 20
45.81237511424546
 30
0.0
  0
SEQEND
  5
17304
330
172FA
100
AcDbEntity
  8
TEMPLATE
  0
SPLINE
  5
17305
102
{ACAD_REACTORS
330
172F9
330
1730A
102
}
330
A
100
AcDbEntity
  8
TEMPLATE
100
AcDbSpline
210
0.0
220
0.0
230
1.0
 70
     9
 71
     3
 72
    56
 73
    52
 74
     0
 42
0.000000001
 43
0.0000000001
 40
0.0
 40
0.0
 40
0.0
 40
0.0
 40
1.0
 40
1.0
 40
1.0
 40
2.0
 40
2.0
 40
2.0
 40
3.0
 40
3.0
 40
3.0
 40
4.0
 40
4.0
 40
4.0
 40
5.0
 40
5.0
 40
5.0
 40
6.0
 40
6.0
 40
6.0
 40
7.0
 40
7.0
 40
7.0
 40
8.0
 40
8.0
 40
8.0
 40
9.0
 40
9.0
 40
9.0
 40
10.0
 40
10.0
 40
10.0
 40
11.0
 40
11.0
 40
11.0
 40
12.0
 40
12.0
 40
12.0
 40
13.0
 40
13.0
 40
13.0
 40
14.0
 40
14.0
 40
14.0
 40
15.0
 40
15.0
 40
15.0
 40
16.0
 40
16.0
 40
16.0
 40
17.0
 40
17.0
 40
17.0
 40
17.0
 10
584.0822130993691
 20
45.59806442612168
 30
0.0
 10
584.4283729539446
 20
45.69550069232488
 30
0.0
 10
584.875249681945
 20
45.61399880405779
 30
0.0
 10
584.875249681945
 20
45.61399880405779
 30
0.0
 10
584.875249681945
 20
45.61399880405779
 30
0.0
 10
584.6605596038704
 20
44.96972771633077
 30
0.0
 10
584.6605596038704
 20
44.96972771633077
 30
0.0
 10
584.6605596038704
 20
44.96972771633077
 30
0.0
 10
584.2218509183413
 20
45.07124800376957
 30
0.0
 10
583.8834797162866
 20
44.80442528303579
 30
0.0
 10
583.6205401632851
 20
44.59576081006296
 30
0.0
 10
583.4501940753495
 20
44.04131587246591
 30
0.0
 10
583.3848497355778
 20
43.83050896212374
 30
0.0
 10
583.3848497355778
 20
43.83050896212374
 30
0.0
 10
583.0935228874299
 20
42.93630916500407
 30
0.0
 10
583.0935228874299
 20
42.93630916500407
 30
0.0
 10
583.0935228874299
 20
42.93630916500407
 30
0.0
 10
584.0487598325259
 20
42.93630916500407
 30
0.0
 10
584.0487598325259
 20
42.93630916500407
 30
0.0
 10
584.0487598325259
 20
42.93630916500407
 30
0.0
 10
583.9001951911804
 20
42.37351764848811
 30
0.0
 10
583.9001951911804
 20
42.37351764848811
 30
0.0
 10
583.9001951911804
 20
42.37351764848811
 30
0.0
 10
582.9371695935638
 20
42.37351764848811
 30
0.0
 10
582.9371695935638
 20
42.37351764848811
 30
0.0
 10
582.9371695935638
 20
42.37351764848811
 30
0.0
 10
581.2141366561519
 20
36.81237511467916
 30
0.0
 10
581.2141366561519
 20
36.81237511467916
 30
0.0
 10
581.2141366561519
 20
36.81237511467916
 30
0.0
 10
580.6746664630858
 20
36.81237511467916
 30
0.0
 10
580.6746664630858
 20
36.81237511467916
 30
0.0
 10
580.6746664630858
 20
36.81237511467916
 30
0.0
 10
582.3992615944128
 20
42.37351764848811
 30
0.0
 10
582.3992615944128
 20
42.37351764848811
 30
0.0
 10
582.3992615944128
 20
42.37351764848811
 30
0.0
 10
581.6886418993972
 20
42.37351764848811
 30
0.0
 10
581.6886418993972
 20
42.37351764848811
 30
0.0
 10
581.6886418993972
 20
42.37351764848811
 30
0.0
 10
581.8376082477494
 20
42.93630916500407
 30
0.0
 10
581.8376082477494
 20
42.93630916500407
 30
0.0
 10
581.8376082477494
 20
42.93630916500407
 30
0.0
 10
582.5556148882789
 20
42.93630916500407
 30
0.0
 10
582.5556148882789
 20
42.93630916500407
 30
0.0
 10
582.5556148882789
 20
42.93630916500407
 30
0.0
 10
582.8095829847954
 20
43.71615636752356
 30
0.0
 10
582.8095829847954
 20
43.71615636752356
 30
0.0
 10
583.0149445334898
 20
44.36997915518984
 30
0.0
 10
583.1891961062141
 20
44.72100412795849
 30
0.0
 10
583.3385641615731
 20
44.98566209426688
 30
0.0
 10
583.4863477059606
 20
45.25054323113452
 30
0.0
 10
583.7788350410172
 20
45.51073778625616
 30
0.0
 10
584.0822130993691
 20
45.59806442612168
 30
0.0
  0
SPLINE
  5
17306
102
{ACAD_REACTORS
330
172F9
330
1730A
102
}
330
A
100
AcDbEntity
  8
TEMPLATE
100
AcDbSpline
210
0.0
220
0.0
230
1.0
 70
    11
 71
     3
 72
    38
 73
    34
 74
     0
 42
0.000000001
 43
0.0000000001
 40
0.0
 40
0.0
 40
0.0
 40
0.0
 40
1.0
 40
1.0
 40
1.0
 40
2.0
 40
2.0
 40
2.0
 40
3.0
 40
3.0
 40
3.0
 40
4.0
 40
4.0
 40
4.0
 40
5.0
 40
5.0
 40
5.0
 40
6.0
 40
6.0
 40
6.0
 40
7.0
 40
7.0
 40
7.0
 40
8.0
 40
8.0
 40
8.0
 40
9.0
 40
9.0
 40
9.0
 40
10.0
 40
10.0
 40
10.0
 40
11.0
 40
11.0
 40
11.0
 40
11.0
 10
589.9393467460162
 20
42.91472857191693
 30
0.0
 10
589.9393467460162
 20
42.91472857191693
 30
0.0
 10
590.4939702200607
 20
42.91472857191693
 30
0.0
 10
590.4939702200607
 20
42.91472857191693
 30
0.0
 10
590.4939702200607
 20
42.91472857191693
 30
0.0
 10
590.2462062650937
 20
42.12146881878184
 30
0.0
 10
590.2462062650937
 20
42.12146881878184
 30
0.0
 10
590.4344729489438
 20
42.34414840288034
 30
0.0
 10
590.7316022316344
 20
42.6407197591727
 30
0.0
 10
590.9867754491711
 20
42.79026635097919
 30
0.0
 10
591.3679507645053
 20
43.01294593507768
 30
0.0
 10
591.5857652304103
 20
43.04231518068535
 30
0.0
 10
591.8253165087942
 20
43.03646811203097
 30
0.0
 10
591.8253165087942
 20
43.03646811203097
 30
0.0
 10
591.591210592058
 20
42.28639186212602
 30
0.0
 10
591.591210592058
 20
42.28639186212602
 30
0.0
 10
591.4387404659245
 20
42.35095510493986
 30
0.0
 10
590.9688771703129
 20
42.22805507791734
 30
0.0
 10
590.6993317687555
 20
42.03416449597225
 30
0.0
 10
590.4562543955343
 20
41.85933267979383
 30
0.0
 10
590.2882069643595
 20
41.71056718494513
 30
0.0
 10
590.0890941913261
 20
41.3365779616216
 30
0.0
 10
589.8914989780961
 20
40.96203081189956
 30
0.0
 10
589.7355473912369
 20
40.36480407807901
 30
0.0
 10
589.4671624765877
 20
39.49841133265191
 30
0.0
 10
589.4671624765877
 20
39.49841133265191
 30
0.0
 10
588.6289784898597
 20
36.81237511467916
 30
0.0
 10
588.6289784898597
 20
36.81237511467916
 30
0.0
 10
588.6289784898597
 20
36.81237511467916
 30
0.0
 10
588.0906911007581
 20
36.81237511467916
 30
0.0
 10
588.0906911007581
 20
36.81237511467916
 30
0.0
 10
588.0906911007581
 20
36.81237511467916
 30
0.0
 10
589.9393467460162
 20
42.91472857191693
 30
0.0
 10
589.9393467460162
 20
42.91472857191693
 30
0.0
  0
SPLINE
  5
17307
102
{ACAD_REACTORS
330
172F9
330
1730A
102
}
330
A
100
AcDbEntity
  8
TEMPLATE
100
AcDbSpline
210
0.0
220
0.0
230
1.0
 70
    11
 71
     3
 72
   104
 73
   100
 74
     0
 42
0.000000001
 43
0.0000000001
 40
0.0
 40
0.0
 40
0.0
 40
0.0
 40
1.0
 40
1.0
 40
1.0
 40
2.0
 40
2.0
 40
2.0
 40
3.0
 40
3.0
 40
3.0
 40
4.0
 40
4.0
 40
4.0
 40
5.0
 40
5.0
 40
5.0
 40
6.0
 40
6.0
 40
6.0
 40
7.0
 40
7.0
 40
7.0
 40
8.0
 40
8.0
 40
8.0
 40
9.0
 40
9.0
 40
9.0
 40
10.0
 40
10.0
 40
10.0
 40
11.0
 40
11.0
 40
11.0
 40
12.0
 40
12.0
 40
12.0
 40
13.0
 40
13.0
 40
13.0
 40
14.0
 40
14.0
 40
14.0
 40
15.0
 40
15.0
 40
15.0
 40
16.0
 40
16.0
 40
16.0
 40
17.0
 40
17.0
 40
17.0
 40
18.0
 40
18.0
 40
18.0
 40
19.0
 40
19.0
 40
19.0
 40
20.0
 40
20.0
 40
20.0
 40
21.0
 40
21.0
 40
21.0
 40
22.0
 40
22.0
 40
22.0
 40
23.0
 40
23.0
 40
23.0
 40
24.0
 40
24.0
 40
24.0
 40
25.0
 40
25.0
 40
25.0
 40
26.0
 40
26.0
 40
26.0
 40
27.0
 40
27.0
 40
27.0
 40
28.0
 40
28.0
 40
28.0
 40
29.0
 40
29.0
 40
29.0
 40
30.0
 40
30.0
 40
30.0
 40
31.0
 40
31.0
 40
31.0
 40
32.0
 40
32.0
 40
32.0
 40
33.0
 40
33.0
 40
33.0
 40
33.0
 10
592.9921860953021
 20
42.91803149619497
 30
0.0
 10
592.9921860953021
 20
42.91803149619497
 30
0.0
 10
593.4764215749342
 20
42.91803149619497
 30
0.0
 10
593.4764215749342
 20
42.91803149619497
 30
0.0
 10
593.4764215749342
 20
42.91803149619497
 30
0.0
 10
593.2317820077977
 20
42.12401296315815
 30
0.0
 10
593.2317820077977
 20
42.12401296315815
 30
0.0
 10
593.4441064779437
 20
42.4569388035653
 30
0.0
 10
593.6346941356106
 20
42.6053249084632
 30
0.0
 10
593.8879034522252
 20
42.79707305303871
 30
0.0
 10
594.1418715487417
 20
42.9860985167904
 30
0.0
 10
594.4433303402832
 20
43.02461775533059
 30
0.0
 10
594.6525750567103
 20
43.02461775533059
 30
0.0
 10
594.9116314419795
 20
43.02461775533059
 30
0.0
 10
595.1617163707637
 20
42.97346706313235
 30
0.0
 10
595.2931638302082
 20
42.68952716049804
 30
0.0
 10
595.3939030206897
 20
42.46686989345536
 30
0.0
 10
595.3985896024353
 20
42.44060271862234
 30
0.0
 10
595.369800600282
 20
42.0010906190797
 30
0.0
 10
595.6330972261784
 20
42.451694295421
 30
0.0
 10
595.8275680515779
 20
42.6457857308695
 30
0.0
 10
596.1581729181679
 20
42.83226705024478
 30
0.0
 10
596.5051138697007
 20
43.02461775533059
 30
0.0
 10
596.7073510305647
 20
43.03901225640729
 30
0.0
 10
596.9423049954265
 20
43.00437618559953
 30
0.0
 10
597.2884425329456
 20
42.9532478104571
 30
0.0
 10
597.5093813866816
 20
42.8297452229244
 30
0.0
 10
597.6248944681901
 20
42.45441697624481
 30
0.0
 10
597.7408092567058
 20
42.08024921647379
 30
0.0
 10
597.678187597758
 20
41.87955193246918
 30
0.0
 10
597.5350460010043
 20
41.28388739256386
 30
0.0
 10
597.4697016612327
 20
41.01260126064356
 30
0.0
 10
597.3751666123011
 20
40.68411651436711
 30
0.0
 10
597.2514854883209
 20
40.29325559675825
 30
0.0
 10
597.2514854883209
 20
40.29325559675825
 30
0.0
 10
596.1581729181679
 20
36.81237511467916
 30
0.0
 10
596.1581729181679
 20
36.81237511467916
 30
0.0
 10
596.1581729181679
 20
36.81237511467916
 30
0.0
 10
595.5895343329975
 20
36.81237511467916
 30
0.0
 10
595.5895343329975
 20
36.81237511467916
 30
0.0
 10
595.5895343329975
 20
36.81237511467916
 30
0.0
 10
596.5467574960716
 20
39.85548422757835
 30
0.0
 10
596.5467574960716
 20
39.85548422757835
 30
0.0
 10
596.7466736831187
 20
40.49218983334411
 30
0.0
 10
596.8820043102957
 20
40.95716569370618
 30
0.0
 10
596.9520352318129
 20
41.24869339535778
 30
0.0
 10
597.0399197980767
 20
41.61234982178448
 30
0.0
 10
597.0749129417798
 20
41.73234863153571
 30
0.0
 10
597.0333139495209
 20
41.99702891489992
 30
0.0
 10
596.9951964179876
 20
42.24340921239921
 30
0.0
 10
596.8707118799938
 20
42.40384652750091
 30
0.0
 10
596.6575839958343
 20
42.40384652750091
 30
0.0
 10
596.4304410005492
 20
42.40384652750091
 30
0.0
 10
596.2464591914384
 20
42.37856130312887
 30
0.0
 10
595.9890096341962
 20
42.11992894192245
 30
0.0
 10
595.7315154428426
 20
41.85933267979383
 30
0.0
 10
595.5187446315782
 20
41.55343279412156
 30
0.0
 10
595.3519023214237
 20
41.20162672439525
 30
0.0
 10
595.1854170841643
 20
40.8476782172995
 30
0.0
 10
595.0166108730878
 20
40.39903844188015
 30
0.0
 10
594.8454836881942
 20
39.85548422757835
 30
0.0
 10
594.8454836881942
 20
39.85548422757835
 30
0.0
 10
593.8879034522252
 20
36.81237511467916
 30
0.0
 10
593.8879034522252
 20
36.81237511467916
 30
0.0
 10
593.8879034522252
 20
36.81237511467916
 30
0.0
 10
593.3530975238491
 20
36.81237511467916
 30
0.0
 10
593.3530975238491
 20
36.81237511467916
 30
0.0
 10
593.3530975238491
 20
36.81237511467916
 30
0.0
 10
594.4479722879174
 20
40.29169340284293
 30
0.0
 10
594.4479722879174
 20
40.29169340284293
 30
0.0
 10
594.5634853694261
 20
40.66197799488166
 30
0.0
 10
594.6502540828931
 20
40.96379385931832
 30
0.0
 10
594.7074303801933
 20
41.19968514052912
 30
0.0
 10
594.804643475837
 20
41.60574397322828
 30
0.0
 10
594.8318702840752
 20
41.88033302942674
 30
0.0
 10
594.7583579018322
 20
42.12401296315815
 30
0.0
 10
594.6860060064978
 20
42.36691179993202
 30
0.0
 10
594.5588434217921
 20
42.42895321542549
 30
0.0
 10
594.3464743175346
 20
42.42895321542549
 30
0.0
 10
594.1683395770781
 20
42.42895321542549
 30
0.0
 10
593.9944897113608
 20
42.3525172988552
 30
0.0
 10
593.7961357182293
 20
42.20042656267251
 30
0.0
 10
593.5464078623398
 20
42.00908012510374
 30
0.0
 10
593.4464720858723
 20
41.85194573428018
 30
0.0
 10
593.3239514488007
 20
41.66524124434543
 30
0.0
 10
593.1586266984498
 20
41.41825838633597
 30
0.0
 10
593.0812311484743
 20
41.25199631963583
 30
0.0
 10
592.941615646558
 20
40.88715708924471
 30
0.0
 10
592.8019555105301
 20
40.52017542148403
 30
0.0
 10
592.6697492711836
 20
40.09311623915196
 30
0.0
 10
592.5775351960687
 20
39.7977276868239
 30
0.0
 10
592.5775351960687
 20
39.7977276868239
 30
0.0
 10
591.6382549459647
 20
36.81237511467916
 30
0.0
 10
591.6382549459647
 20
36.81237511467916
 30
0.0
 10
591.6382549459647
 20
36.81237511467916
 30
0.0
 10
591.0781861102723
 20
36.81237511467916
 30
0.0
 10
591.0781861102723
 20
36.81237511467916
 30
0.0
 10
591.0781861102723
 20
36.81237511467916
 30
0.0
 10
592.9921860953021
 20
42.91803149619497
 30
0.0
 10
592.9921860953021
 20
42.91803149619497
 30
0.0
  0
SPLINE
  5
17308
102
{ACAD_REACTORS
330
172F9
330
1730A
102
}
330
A
100
AcDbEntity
  8
TEMPLATE
100
AcDbSpline
210
0.0
220
0.0
230
1.0
 70
     9
 71
     3
 72
    32
 73
    28
 74
     0
 42
0.000000001
 43
0.0000000001
 40
0.0
 40
0.0
 40
0.0
 40
0.0
 40
1.0
 40
1.0
 40
1.0
 40
2.0
 40
2.0
 40
2.0
 40
3.0
 40
3.0
 40
3.0
 40
4.0
 40
4.0
 40
4.0
 40
5.0
 40
5.0
 40
5.0
 40
6.0
 40
6.0
 40
6.0
 40
7.0
 40
7.0
 40
7.0
 40
8.0
 40
8.0
 40
8.0
 40
9.0
 40
9.0
 40
9.0
 40
9.0
 10
585.394880012287
 20
42.5961972325865
 30
0.0
 10
585.0701222143512
 20
42.17612328876155
 30
0.0
 10
584.8200372855671
 20
41.79807236125814
 30
0.0
 10
584.4151612568323
 20
40.60984535222243
 30
0.0
 10
584.0429350809273
 20
39.52296009417805
 30
0.0
 10
583.8060618492555
 20
38.73222216836346
 30
0.0
 10
583.7702876085951
 20
37.76919657074652
 30
0.0
 10
583.7430608003566
 20
37.05255127062911
 30
0.0
 10
584.1794485120689
 20
36.81237511467916
 30
0.0
 10
584.8192785056652
 20
36.81237511467916
 30
0.0
 10
585.0950280487723
 20
36.81237511467916
 30
0.0
 10
585.7908738527602
 20
36.82991632064247
 30
0.0
 10
586.2864017626947
 20
37.44247487188884
 30
0.0
 10
586.6332980801157
 20
37.87283697849896
 30
0.0
 10
586.9530122234106
 20
38.3189549265978
 30
0.0
 10
587.3816335996578
 20
39.78237355234213
 30
0.0
 10
587.7383047875777
 20
41.00579455858404
 30
0.0
 10
587.9852653285309
 20
41.79651016734281
 30
0.0
 10
587.967009976778
 20
42.24671213667736
 30
0.0
 10
587.967009976778
 20
42.24671213667736
 30
0.0
 10
587.967009976778
 20
42.24671213667736
 30
0.0
 10
587.967009976778
 20
42.24671213667736
 30
0.0
 10
587.8506934812556
 20
42.99777033704319
 30
0.0
 10
587.305398536591
 20
43.1564669217822
 30
0.0
 10
586.9938524357677
 20
43.1564669217822
 30
0.0
 10
586.6869929166901
 20
43.1564669217822
 30
0.0
 10
585.8647433078982
 20
43.20955919784657
 30
0.0
 10
585.394880012287
 20
42.5961972325865
 30
0.0
  0
SPLINE
  5
17309
102
{ACAD_REACTORS
330
172F9
330
1730A
102
}
330
A
100
AcDbEntity
  8
TEMPLATE
100
AcDbSpline
210
0.0
220
0.0
230
1.0
 70
     9
 71
     3
 72
    29
 73
    25
 74
     0
 42
0.000000001
 43
0.0000000001
 40
0.0
 40
0.0
 40
0.0
 40
0.0
 40
1.0
 40
1.0
 40
1.0
 40
2.0
 40
2.0
 40
2.0
 40
3.0
 40
3.0
 40
3.0
 40
4.0
 40
4.0
 40
4.0
 40
5.0
 40
5.0
 40
5.0
 40
6.0
 40
6.0
 40
6.0
 40
7.0
 40
7.0
 40
7.0
 40
8.0
 40
8.0
 40
8.0
 40
8.0
 10
584.3513791109763
 20
37.94925057801331
 30
0.0
 10
584.3490135030472
 20
38.37439049353518
 30
0.0
 10
584.4832282774278
 20
39.12973356864028
 30
0.0
 10
584.82704484113
 20
40.1403837636178
 30
0.0
 10
585.2953459428261
 20
41.50888795047953
 30
0.0
 10
585.5761837746857
 20
42.00908012510374
 30
0.0
 10
585.8219391946189
 20
42.25255920533161
 30
0.0
 10
586.1809759904676
 20
42.60708795588196
 30
0.0
 10
586.6636492761844
 20
42.62476306418077
 30
0.0
 10
586.8060320930363
 20
42.60708795588196
 30
0.0
 10
587.0086709609071
 20
42.58276236491495
 30
0.0
 10
587.2949095203023
 20
42.45013210150577
 30
0.0
 10
587.3120043851471
 20
42.00363476345613
 30
0.0
 10
587.3256624233779
 20
41.621499814717
 30
0.0
 10
587.2155500694051
 20
40.90583646506057
 30
0.0
 10
586.8301345134438
 20
39.78237355234213
 30
0.0
 10
586.3859358321552
 20
38.47687041437903
 30
0.0
 10
586.1191131114213
 20
37.96366739614585
 30
0.0
 10
585.9052264473606
 20
37.74000586158636
 30
0.0
 10
585.502269685436
 20
37.32071301471897
 30
0.0
 10
585.0701222143512
 20
37.36097298362186
 30
0.0
 10
585.0063400684949
 20
37.36097298362186
 30
0.0
 10
584.923499156872
 20
37.36097298362186
 30
0.0
 10
584.3525395978846
 20
37.45086608491963
 30
0.0
 10
584.3513791109763
 20
37.94925057801331
 30
0.0
  0
MTEXT
  5
17353
330
A
100
AcDbEntity
  8
TEMPLATE
390
1D
100
AcDbMText
 10
39.66064336431923
 20
69.04478720817849
 30
0.0
 40
7.329785156250001
 41
0.0
 46
7.886848828125001
 71
     1
 72
     1
  1
{サーモスタット付き}
  7
ＭＳ ゴシック
 73
     1
 44
0.7828267384257844
1001
ACAD
1000
ACAD_MTEXT_DEFINED_HEIGHT_BEGIN
1070
    46
1040
7.886848828125001
1000
ACAD_MTEXT_DEFINED_HEIGHT_END
  0
INSERT
  5
18935
102
{ACAD_REACTORS
330
189A4
102
}
330
A
100
AcDbEntity
  8
MODEL
100
AcDbBlockReference
  2
SE1
 10
859.9355061051696
 20
225.2365460182371
 30
0.0
 50
90.00000000000003
  0
DIMENSION
  5
18936
330
A
100
AcDbEntity
  8
DIM
100
AcDbDimension
280
     0
  2
*D11
 10
338.239693947828
 20
480.0296352583586
 30
0.0
 11
329.239693947828
 21
331.0296352583587
 31
0.0
 70
    32
 71
     5
 42
298.0
 73
     0
 74
     0
 75
     0
 52
-270.0
  3
tfrom線あり
100
AcDbAlignedDimension
 13
216.8302158496854
 23
182.0296352583587
 33
0.0
 14
216.8302158497676
 24
480.0296352583586
 34
0.0
 50
90.00000000000001
100
AcDbRotatedDimension
1001
ACAD
1000
DSTYLE
1002
{
1070
   144
1040
1.0
1002
}
  0
LINE
  5
18938
330
A
100
AcDbEntity
  8
MODEL
100
AcDbLine
 10
465.3281552291696
 20
612.4545880182371
 30
0.0
 11
463.3946772291693
 21
613.2162040182367
 31
0.0
  0
LINE
  5
18939
330
A
100
AcDbEntity
  8
MODEL
100
AcDbLine
 10
445.4816532291694
 20
596.2250460182372
 30
0.0
 11
446.5016532291693
 21
595.2050460182371
 31
0.0
  0
LINE
  5
1893A
330
A
100
AcDbEntity
  8
MODEL
100
AcDbLine
 10
465.9616532291694
 20
607.2050460182371
 30
0.0
 11
465.9616532291694
 21
611.5241700182372
 31
0.0
  0
ARC
  5
1893B
330
A
100
AcDbEntity
  8
MODEL
100
AcDbCircle
 10
446.0016532291693
 20
611.5241700182372
 30
0.0
 40
0.9999999523619775
100
AcDbArc
 50
111.4999255325975
 51
180.0
  0
LINE
  5
1893C
330
A
100
AcDbEntity
  8
MODEL
100
AcDbLine
 10
445.0121752291694
 20
607.2050460182371
 30
0.0
 11
445.0121752291694
 21
596.705046018237
 31
0.0
  0
SPLINE
  5
1893D
330
A
100
AcDbEntity
  8
MODEL
100
AcDbSpline
210
0.0
220
0.0
230
1.0
 70
     8
 71
     3
 72
    12
 73
     8
 74
     0
 42
0.000000001
 43
0.0000000001
 40
0.0
 40
0.0
 40
0.0
 40
0.0
 40
0.1965001625311518
 40
0.4059215516307292
 40
0.6182476641356259
 40
0.840509014227727
 40
1.0
 40
1.0
 40
1.0
 40
1.0
 10
463.6582152290522
 20
613.1106940184194
 30
0.0
 10
463.6351092290524
 20
613.1295640184192
 30
0.0
 10
463.5707652290522
 20
613.1861400184192
 30
0.0
 10
463.4322832290523
 20
613.3464560184193
 30
0.0
 10
463.2823332290524
 20
613.5976000184195
 30
0.0
 10
463.1708932290522
 20
613.9055580184189
 30
0.0
 10
463.1483992290521
 20
614.1093220184196
 30
0.0
 10
463.1421032290522
 20
614.2016720184191
 30
0.0
  0
LINE
  5
1893E
330
A
100
AcDbEntity
  8
MODEL
100
AcDbLine
 10
465.9511332291693
 20
596.705046018237
 30
0.0
 11
465.9511332291693
 21
607.2050460182371
 31
0.0
  0
LINE
  5
1893F
330
A
100
AcDbEntity
  8
MODEL
100
AcDbLine
 10
465.4816532291694
 20
596.2250460182372
 30
0.0
 11
465.9511332291693
 21
596.705046018237
 31
0.0
  0
LINE
  5
18940
330
A
100
AcDbEntity
  8
MODEL
100
AcDbLine
 10
445.0121752291694
 20
596.705046018237
 30
0.0
 11
445.4816532291694
 21
596.2250460182372
 31
0.0
  0
SPLINE
  5
18941
330
A
100
AcDbEntity
  8
MODEL
100
AcDbSpline
210
0.0
220
0.0
230
1.0
 70
     8
 71
     3
 72
    10
 73
     6
 74
     0
 42
0.000000001
 43
0.0000000001
 40
0.0
 40
0.0
 40
0.0
 40
0.0
 40
0.4806041761865972
 40
0.4806041761865972
 40
1.0
 40
1.0
 40
1.0
 40
1.0
 10
463.4054232290521
 20
613.2118720184193
 30
0.0
 10
462.9817152290522
 20
613.3783500184189
 30
0.0
 10
462.4365452290523
 20
613.5476220184195
 30
0.0
 10
461.1064492290523
 20
613.8874960184192
 30
0.0
 10
460.2934812290522
 20
614.0614840184192
 30
0.0
 10
459.4158872290523
 20
614.2073840184192
 30
0.0
  0
SPLINE
  5
18942
330
A
100
AcDbEntity
  8
MODEL
100
AcDbSpline
210
0.0
220
0.0
230
1.0
 70
     8
 71
     3
 72
    10
 73
     6
 74
     0
 42
0.000000001
 43
0.0000000001
 40
0.0
 40
0.0
 40
0.0
 40
0.0
 40
0.5190569900414896
 40
0.5190569900414896
 40
1.0
 40
1.0
 40
1.0
 40
1.0
 10
451.5559392290523
 20
614.2089060184193
 30
0.0
 10
450.6744752290522
 20
614.0629080184193
 30
0.0
 10
449.8701412290524
 20
613.8907560184192
 30
0.0
 10
448.5210612290521
 20
613.5462880184193
 30
0.0
 10
447.9796112290522
 20
613.3782680184193
 30
0.0
 10
447.5576752290522
 20
613.2119920184189
 30
0.0
  0
LINE
  5
18943
330
A
100
AcDbEntity
  8
MODEL
100
AcDbLine
 10
447.5570632291696
 20
613.211648018237
 30
0.0
 11
445.6351532291695
 21
612.4545880182371
 31
0.0
  0
LINE
  5
18944
330
A
100
AcDbEntity
  8
MODEL
100
AcDbLine
 10
464.4616532291695
 20
595.2050460182371
 30
0.0
 11
465.4816532291694
 21
596.2250460182372
 31
0.0
  0
LINE
  5
18945
330
A
100
AcDbEntity
  8
MODEL
100
AcDbLine
 10
446.5016532291693
 20
595.2050460182371
 30
0.0
 11
464.4616532291695
 21
595.2050460182371
 31
0.0
  0
SPLINE
  5
18946
330
A
100
AcDbEntity
  8
MODEL
100
AcDbSpline
210
0.0
220
0.0
230
1.0
 70
     8
 71
     3
 72
    14
 73
    10
 74
     0
 42
0.000000001
 43
0.0000000001
 40
0.0
 40
0.0
 40
0.0
 40
0.0
 40
0.0930012651888558
 40
0.2742461583067556
 40
0.4439099607264293
 40
0.6063055167505733
 40
0.7687768523155592
 40
0.9398705817232924
 40
1.0
 40
1.0
 40
1.0
 40
1.0
 10
447.8194752290522
 20
614.2032520184192
 30
0.0
 10
447.8168212290522
 20
614.1355500184189
 30
0.0
 10
447.8027272290522
 20
613.9497140184187
 30
0.0
 10
447.7048832290523
 20
613.6509120184195
 30
0.0
 10
447.5576652290524
 20
613.3845180184192
 30
0.0
 10
447.4132792290523
 20
613.2071120184194
 30
0.0
 10
447.3016212290523
 20
613.1052160184188
 30
0.0
 10
447.2601492290523
 20
613.0764280184193
 30
0.0
 10
447.2551232290522
 20
613.0732720184195
 30
0.0
 10
447.2550752290523
 20
613.0732500184192
 30
0.0
  0
LINE
  5
18947
330
A
100
AcDbEntity
  8
MODEL
100
AcDbLine
 10
445.0016532291694
 20
611.5241700182372
 30
0.0
 11
445.0016532291694
 21
607.2050460182371
 31
0.0
  0
ARC
  5
18948
330
A
100
AcDbEntity
  8
MODEL
100
AcDbCircle
 10
464.9616532291695
 20
611.5241700182372
 30
0.0
 40
1.000000000000001
100
AcDbArc
 50
0.0
 51
68.49996784940145
  0
LINE
  5
18949
330
A
100
AcDbEntity
  8
MODEL
100
AcDbLine
 10
445.0016532291694
 20
610.2050460182371
 30
0.0
 11
465.9616532291694
 21
610.2050460182371
 31
0.0
  0
LINE
  5
1894A
330
A
100
AcDbEntity
  8
MODEL
100
AcDbLine
 10
446.1666532291694
 20
595.5400460182371
 30
0.0
 11
446.1666532291694
 21
610.2050460182371
 31
0.0
  0
LINE
  5
1894B
330
A
100
AcDbEntity
  8
MODEL
100
AcDbLine
 10
464.7966532291694
 20
595.5400460182371
 30
0.0
 11
464.7966532291694
 21
610.2050460182371
 31
0.0
  0
LINE
  5
1894C
330
A
100
AcDbEntity
  8
MODEL
100
AcDbLine
 10
445.0121752291694
 20
596.705046018237
 30
0.0
 11
465.9511332291693
 21
596.705046018237
 31
0.0
  0
LWPOLYLINE
  5
1894D
330
A
100
AcDbEntity
  8
MODEL
100
AcDbPolyline
 90
        2
 70
     0
 43
0.0
 10
119.9184726396854
 20
211.9501343677586
 10
105.7844925156853
 20
197.8161542549588
  0
LWPOLYLINE
  5
1894E
330
A
100
AcDbEntity
  8
MODEL
100
AcDbPolyline
 90
        2
 70
     0
 43
0.0
 10
119.0444409300854
 20
399.099615074159
 10
101.654256877685
 20
381.7094310357589
  0
LINE
  5
1894F
330
A
100
AcDbEntity
  8
MODEL
100
AcDbLine
 10
101.654256877685
 20
399.0996150741588
 30
0.0
 11
119.9248568776853
 21
399.099615074159
 31
0.0
  0
LWPOLYLINE
  5
18950
330
A
100
AcDbEntity
  8
MODEL
100
AcDbPolyline
 90
        2
 70
     0
 43
0.0
 10
119.9248568776853
 20
385.8378954029589
 10
101.654256877685
 20
367.5672954177589
  0
LWPOLYLINE
  5
18951
330
A
100
AcDbEntity
  8
MODEL
100
AcDbPolyline
 90
        2
 70
     0
 43
0.0
 10
119.9248568776853
 20
371.6957597849587
 10
101.654256877685
 20
353.4251597993589
  0
LWPOLYLINE
  5
18952
330
A
100
AcDbEntity
  8
MODEL
100
AcDbPolyline
 90
        2
 70
     0
 43
0.0
 10
119.9248568776853
 20
300.9850816945589
 10
101.6542568776852
 20
282.7144817089589
  0
LWPOLYLINE
  5
18953
330
A
100
AcDbEntity
  8
MODEL
100
AcDbPolyline
 90
        2
 70
     0
 43
0.0
 10
119.9248568776853
 20
315.1272173125587
 10
101.654256877685
 20
296.8566173269587
  0
LINE
  5
18954
330
A
100
AcDbEntity
  8
MODEL
100
AcDbLine
 10
101.6638726396852
 20
234.0996170741587
 30
0.0
 11
119.9184726396854
 21
234.0996170741587
 31
0.0
  0
LWPOLYLINE
  5
18955
330
A
100
AcDbEntity
  8
MODEL
100
AcDbPolyline
 90
        2
 70
     0
 43
0.0
 10
119.9248568776853
 20
442.406437875759
 10
103.918034063685
 20
426.3996150741591
  0
LWPOLYLINE
  5
18956
330
A
100
AcDbEntity
  8
MODEL
100
AcDbPolyline
 90
        2
 70
     0
 43
0.0
 10
119.9248568776853
 20
343.4114885489589
 10
101.654256877685
 20
325.1408885633587
  0
LWPOLYLINE
  5
18957
330
A
100
AcDbEntity
  8
MODEL
100
AcDbPolyline
 90
        2
 70
     0
 43
0.0
 10
119.9248568776853
 20
329.2693529305589
 10
101.654256877685
 20
310.9987529453588
  0
LWPOLYLINE
  5
18958
330
A
100
AcDbEntity
  8
MODEL
100
AcDbPolyline
 90
        2
 70
     0
 43
0.0
 10
119.9248568776853
 20
428.2643022573588
 10
118.060169693285
 20
426.3996150741591
  0
LWPOLYLINE
  5
18959
330
A
100
AcDbEntity
  8
MODEL
100
AcDbPolyline
 90
        2
 70
     0
 43
0.0
 10
119.9248568776853
 20
357.5536241669589
 10
101.654256877685
 20
339.2830241813585
  0
LINE
  5
1895A
330
A
100
AcDbEntity
  8
MODEL
100
AcDbLine
 10
119.9184726396853
 20
462.6817815633589
 30
0.0
 11
119.9184726396854
 21
197.8161542549588
 31
0.0
  0
LINE
  5
1895B
330
A
100
AcDbEntity
  8
MODEL
100
AcDbLine
 10
101.6702568776851
 20
426.3996150741591
 30
0.0
 11
119.9248568776853
 21
426.3996150741591
 31
0.0
  0
LWPOLYLINE
  5
1895C
330
A
100
AcDbEntity
  8
MODEL
100
AcDbPolyline
 90
        2
 70
     0
 43
0.0
 10
104.9023053008851
 20
399.0996150741588
 10
101.654256877685
 20
395.8515666537587
  0
LWPOLYLINE
  5
1895D
330
A
100
AcDbEntity
  8
MODEL
100
AcDbPolyline
 90
        2
 70
     0
 43
0.0
 10
119.9248568776853
 20
456.5485734937588
 10
101.6702568776851
 20
438.2939735081587
  0
LWPOLYLINE
  5
1895E
330
A
100
AcDbEntity
  8
MODEL
100
AcDbPolyline
 90
        2
 70
     0
 43
0.0
 10
119.9248568776854
 20
286.8429460761589
 10
101.6542568776852
 20
268.5723460909587
  0
LINE
  5
1895F
330
A
100
AcDbEntity
  8
MODEL
100
AcDbLine
 10
101.6478726396856
 20
261.3996170741589
 30
0.0
 11
119.9184726396854
 21
261.3996170741589
 31
0.0
  0
LWPOLYLINE
  5
18960
330
A
100
AcDbEntity
  8
MODEL
100
AcDbPolyline
 90
        2
 70
     0
 43
0.0
 10
111.9172256528851
 20
462.6830778933586
 10
101.6702568776851
 20
452.4361091261584
  0
LWPOLYLINE
  5
18961
330
A
100
AcDbEntity
  8
MODEL
100
AcDbPolyline
 90
        2
 70
     0
 43
0.0
 10
119.9184726396854
 20
226.0922699857588
 10
101.6638726396852
 20
207.8376700001589
  0
LWPOLYLINE
  5
18962
330
A
100
AcDbEntity
  8
MODEL
100
AcDbPolyline
 90
        2
 70
     0
 43
0.0
 10
113.7836841048854
 20
234.0996170741587
 10
101.6638726396852
 20
221.9798056185587
  0
LWPOLYLINE
  5
18963
330
A
100
AcDbEntity
  8
MODEL
100
AcDbPolyline
 90
        2
 70
     0
 43
0.0
 10
119.9248568776854
 20
272.7008104581587
 10
108.6236634848854
 20
261.3996170741589
  0
LINE
  5
18964
102
{ACAD_REACTORS
330
18990
102
}
330
A
100
AcDbEntity
  8
MODEL
100
AcDbLine
 10
100.9248568776854
 20
238.7696170741588
 30
0.0
 11
100.9248568776854
 21
256.7296170741588
 31
0.0
  0
LINE
  5
18965
330
A
100
AcDbEntity
  8
MODEL
100
AcDbLine
 10
115.9248568776854
 20
237.2696170741588
 30
0.0
 11
115.9248568776854
 21
258.6810577101587
 31
0.0
  0
LINE
  5
18966
330
A
100
AcDbEntity
  8
MODEL
100
AcDbLine
 10
112.9248568776854
 20
238.4346170741588
 30
0.0
 11
115.9248568776854
 21
238.4346170741588
 31
0.0
  0
LINE
  5
18967
330
A
100
AcDbEntity
  8
MODEL
100
AcDbLine
 10
112.9248568776854
 20
257.0646170741588
 30
0.0
 11
115.9248568776854
 21
257.0646170741588
 31
0.0
  0
LINE
  5
18968
330
A
100
AcDbEntity
  8
MODEL
100
AcDbLine
 10
117.2439808776855
 20
237.2696170741588
 30
0.0
 11
112.9248568776854
 21
237.2696170741588
 31
0.0
  0
ARC
  5
18969
330
A
100
AcDbEntity
  8
MODEL
100
AcDbCircle
 10
123.0610048776855
 20
269.8033830741588
 30
0.0
 40
14.55534058938426
100
AcDbArc
 50
232.6699925431983
 51
246.4437766101003
  0
ARC
  5
1896A
330
A
100
AcDbEntity
  8
MODEL
100
AcDbCircle
 10
106.0160568776853
 20
251.796299074159
 30
0.0
 40
12.15834559398058
100
AcDbArc
 50
359.9540440363995
 51
22.56054152649897
  0
ARC
  5
1896B
330
A
100
AcDbEntity
  8
MODEL
100
AcDbCircle
 10
154.4204528776852
 20
256.1930770741588
 30
0.0
 40
36.51292884234429
100
AcDbArc
 50
186.9315857285998
 51
199.1347679553
  0
LINE
  5
1896C
330
A
100
AcDbEntity
  8
MODEL
100
AcDbLine
 10
119.9248568776854
 20
242.3469130741587
 30
0.0
 11
118.1743988776855
 21
237.9031150741587
 31
0.0
  0
LINE
  5
1896D
330
A
100
AcDbEntity
  8
MODEL
100
AcDbLine
 10
114.8659568776854
 20
258.3318850741587
 30
0.0
 11
119.9248568776854
 21
260.0000590741588
 31
0.0
  0
ARC
  5
1896E
330
A
100
AcDbEntity
  8
MODEL
100
AcDbCircle
 10
117.2439808776855
 20
238.2696170741588
 30
0.0
 40
1.000000685363763
100
AcDbArc
 50
270.0
 51
338.4999678494019
  0
ARC
  5
1896F
330
A
100
AcDbEntity
  8
MODEL
100
AcDbCircle
 10
114.3186188776855
 20
259.7080750741588
 30
0.0
 40
1.471621747527979
100
AcDbArc
 50
266.7382368046919
 51
291.7464628520843
  0
LINE
  5
18970
330
A
100
AcDbEntity
  8
MODEL
100
AcDbLine
 10
112.9248568776854
 20
258.2296170741588
 30
0.0
 11
114.2353308776853
 21
258.2296170741588
 31
0.0
  0
LINE
  5
18971
102
{ACAD_REACTORS
330
18990
102
}
330
A
100
AcDbEntity
  8
MODEL
100
AcDbLine
 10
100.9248568776853
 20
421.729615074159
 30
0.0
 11
100.9248568776853
 21
403.769615074159
 31
0.0
  0
LINE
  5
18972
330
A
100
AcDbEntity
  8
MODEL
100
AcDbLine
 10
115.9248568776853
 20
423.229615074159
 30
0.0
 11
115.9248568776853
 21
403.3811530741586
 31
0.0
  0
LINE
  5
18973
330
A
100
AcDbEntity
  8
MODEL
100
AcDbLine
 10
117.2439808776854
 20
423.229615074159
 30
0.0
 11
112.9248568776853
 21
423.229615074159
 31
0.0
  0
ARC
  5
18974
330
A
100
AcDbEntity
  8
MODEL
100
AcDbCircle
 10
123.0610048776854
 20
390.695849074159
 30
0.0
 40
14.55534058938426
100
AcDbArc
 50
113.5562233899004
 51
127.3300074567989
  0
ARC
  5
18975
330
A
100
AcDbEntity
  8
MODEL
100
AcDbCircle
 10
106.0160568776852
 20
408.7029330741589
 30
0.0
 40
12.15834559398058
100
AcDbArc
 50
337.4394584735012
 51
0.0459559635995499
  0
ARC
  5
18976
330
A
100
AcDbEntity
  8
MODEL
100
AcDbCircle
 10
154.4204528776851
 20
404.306155074159
 30
0.0
 40
36.51292884234429
100
AcDbArc
 50
160.8652320446999
 51
173.0684142714009
  0
LINE
  5
18977
330
A
100
AcDbEntity
  8
MODEL
100
AcDbLine
 10
119.9248568776853
 20
418.1523190741587
 30
0.0
 11
118.1743988776853
 21
422.5961170741588
 31
0.0
  0
LINE
  5
18978
330
A
100
AcDbEntity
  8
MODEL
100
AcDbLine
 10
114.8659568776853
 20
402.167347074159
 30
0.0
 11
119.9248568776853
 21
400.499173074159
 31
0.0
  0
ARC
  5
18979
330
A
100
AcDbEntity
  8
MODEL
100
AcDbCircle
 10
117.2439808776854
 20
422.229615074159
 30
0.0
 40
1.000000685363763
100
AcDbArc
 50
21.50003215058927
 51
90.0
  0
ARC
  5
1897A
330
A
100
AcDbEntity
  8
MODEL
100
AcDbCircle
 10
114.3186188776855
 20
400.7911570741589
 30
0.0
 40
1.471621747527979
100
AcDbArc
 50
68.25353714791147
 51
93.26176319530814
  0
LINE
  5
1897B
330
A
100
AcDbEntity
  8
MODEL
100
AcDbLine
 10
112.9248568776853
 20
402.2696150741589
 30
0.0
 11
114.2353308776852
 21
402.2696150741589
 31
0.0
  0
LINE
  5
1897C
330
A
100
AcDbEntity
  8
MODEL
100
AcDbLine
 10
101.9448568776853
 20
422.7496150741585
 30
0.0
 11
100.9248568776853
 21
421.729615074159
 31
0.0
  0
LINE
  5
1897D
330
A
100
AcDbEntity
  8
MODEL
100
AcDbLine
 10
112.9248568776853
 20
423.2190930741585
 30
0.0
 11
102.4248568776853
 21
423.2190930741585
 31
0.0
  0
LINE
  5
1897E
330
A
100
AcDbEntity
  8
MODEL
100
AcDbLine
 10
102.4248568776853
 20
402.2801350741588
 30
0.0
 11
112.9248568776853
 21
402.2801350741588
 31
0.0
  0
LINE
  5
1897F
330
A
100
AcDbEntity
  8
MODEL
100
AcDbLine
 10
101.9448568776853
 20
402.749615074159
 30
0.0
 11
102.4248568776853
 21
402.2801350741588
 31
0.0
  0
LINE
  5
18980
330
A
100
AcDbEntity
  8
MODEL
100
AcDbLine
 10
102.4248568776853
 20
423.2190930741585
 30
0.0
 11
101.9448568776853
 21
422.7496150741585
 31
0.0
  0
LINE
  5
18981
330
A
100
AcDbEntity
  8
MODEL
100
AcDbLine
 10
100.9248568776853
 20
403.769615074159
 30
0.0
 11
101.9448568776853
 21
402.749615074159
 31
0.0
  0
LINE
  5
18982
330
A
100
AcDbEntity
  8
MODEL
100
AcDbLine
 10
101.2598568776854
 20
422.0646150741591
 30
0.0
 11
115.9248568776853
 21
422.0646150741591
 31
0.0
  0
LINE
  5
18983
330
A
100
AcDbEntity
  8
MODEL
100
AcDbLine
 10
101.2598568776854
 20
403.434615074159
 30
0.0
 11
115.9248568776853
 21
403.434615074159
 31
0.0
  0
LINE
  5
18984
330
A
100
AcDbEntity
  8
MODEL
100
AcDbLine
 10
101.9448568776854
 20
257.7496170741588
 30
0.0
 11
100.9248568776854
 21
256.7296170741588
 31
0.0
  0
LINE
  5
18985
330
A
100
AcDbEntity
  8
MODEL
100
AcDbLine
 10
112.9248568776854
 20
258.2190950741588
 30
0.0
 11
102.4248568776854
 21
258.2190950741588
 31
0.0
  0
LINE
  5
18986
330
A
100
AcDbEntity
  8
MODEL
100
AcDbLine
 10
102.4248568776854
 20
237.2801370741588
 30
0.0
 11
112.9248568776854
 21
237.2801370741588
 31
0.0
  0
LINE
  5
18987
330
A
100
AcDbEntity
  8
MODEL
100
AcDbLine
 10
101.9448568776854
 20
237.7496170741588
 30
0.0
 11
102.4248568776854
 21
237.2801370741588
 31
0.0
  0
LINE
  5
18988
330
A
100
AcDbEntity
  8
MODEL
100
AcDbLine
 10
102.4248568776854
 20
258.2190950741588
 30
0.0
 11
101.9448568776854
 21
257.7496170741588
 31
0.0
  0
LINE
  5
18989
330
A
100
AcDbEntity
  8
MODEL
100
AcDbLine
 10
100.9248568776854
 20
238.7696170741588
 30
0.0
 11
101.9448568776854
 21
237.7496170741588
 31
0.0
  0
LINE
  5
1898A
330
A
100
AcDbEntity
  8
MODEL
100
AcDbLine
 10
101.2598568776855
 20
257.0646170741588
 30
0.0
 11
115.9248568776854
 21
257.0646170741588
 31
0.0
  0
LINE
  5
1898B
330
A
100
AcDbEntity
  8
MODEL
100
AcDbLine
 10
101.2598568776855
 20
238.4346170741588
 30
0.0
 11
115.9248568776854
 21
238.4346170741588
 31
0.0
  0
LINE
  5
1898C
330
A
100
AcDbEntity
  8
MODEL
100
AcDbLine
 10
102.4248568776854
 20
258.2190950741588
 30
0.0
 11
102.4248568776854
 21
237.2801370741588
 31
0.0
  0
LINE
  5
1898D
330
A
100
AcDbEntity
  8
MODEL
100
AcDbLine
 10
102.4248568776853
 20
423.2190930741585
 30
0.0
 11
102.4248568776853
 21
402.2801350741588
 31
0.0
  0
DIMENSION
  5
1898E
102
{ACAD_XDICTIONARY
360
1898F
102
}
102
{ACAD_REACTORS
330
18990
102
}
330
A
100
AcDbEntity
  8
DIM
100
AcDbDimension
280
     0
  2
*D12
 10
63.18282991939338
 20
412.749615074159
 30
0.0
 11
54.1828299193934
 21
330.2496160741589
 31
0.0
 70
    32
  1
150±15
 71
     5
 42
164.9999980000002
 73
     0
 74
     0
 75
     0
 52
-270.0
  3
tfrom線あり
100
AcDbAlignedDimension
 13
100.9248568776854
 23
247.7496170741588
 33
0.0
 14
100.9248568776853
 24
412.749615074159
 34
0.0
 50
90.00000000000001
100
AcDbRotatedDimension
1001
ACAD
1000
DSTYLE
1002
{
1070
   144
1040
1.0
1002
}
  0
LINE
  5
18991
330
A
100
AcDbEntity
  8
MODEL
100
AcDbLine
 10
420.4736532291693
 20
614.2050460182371
 30
0.0
 11
490.4736532291694
 21
614.2050460182371
 31
0.0
  0
LWPOLYLINE
  5
18992
330
A
100
AcDbEntity
  8
MODEL
100
AcDbPolyline
 90
        2
 70
     0
 43
0.0
 10
389.3302810143695
 20
614.2050460182369
 10
407.5848809995695
 20
595.9504460182367
  0
LWPOLYLINE
  5
18993
330
A
100
AcDbEntity
  8
MODEL
100
AcDbPolyline
 90
        2
 70
     0
 43
0.0
 10
516.6095015771697
 20
614.2050460182371
 10
530.3805064363696
 20
600.4340411486367
  0
LWPOLYLINE
  5
18994
330
A
100
AcDbEntity
  8
MODEL
100
AcDbPolyline
 90
        2
 70
     0
 43
0.0
 10
417.6145522503695
 20
614.2050460182369
 10
435.8691522359694
 20
595.9504460182369
  0
LINE
  5
18995
330
A
100
AcDbEntity
  8
MODEL
100
AcDbLine
 10
469.1236532291695
 20
595.9344460182368
 30
0.0
 11
469.1236532291695
 21
614.2050460182371
 31
0.0
  0
LWPOLYLINE
  5
18996
330
A
100
AcDbEntity
  8
MODEL
100
AcDbPolyline
 90
        2
 70
     0
 43
0.0
 10
488.3252303411695
 20
614.2050460182371
 10
506.5958303263697
 20
595.9344460182368
  0
LWPOLYLINE
  5
18997
330
A
100
AcDbEntity
  8
MODEL
100
AcDbPolyline
 90
        2
 70
     0
 43
0.0
 10
502.4673659591694
 20
614.2050460182371
 10
520.7379659447695
 20
595.9344460182368
  0
LINE
  5
18998
102
{ACAD_REACTORS
330
189A4
102
}
330
A
100
AcDbEntity
  8
MODEL
100
AcDbLine
 10
489.8871160483695
 20
614.2050460182371
 30
0.0
 11
530.3805064363696
 21
614.2050460182371
 31
0.0
  0
LINE
  5
18999
330
A
100
AcDbEntity
  8
MODEL
100
AcDbLine
 10
379.9882628411693
 20
614.2050460182369
 30
0.0
 11
420.4816532291694
 21
614.2050460182371
 31
0.0
  0
LWPOLYLINE
  5
1899A
330
A
100
AcDbEntity
  8
MODEL
100
AcDbPolyline
 90
        2
 70
     0
 43
0.0
 10
403.4724166323694
 20
614.2050460182369
 10
421.7270166179695
 20
595.9504460182369
  0
LWPOLYLINE
  5
1899B
330
A
100
AcDbEntity
  8
MODEL
100
AcDbPolyline
 90
        2
 70
     0
 43
0.0
 10
469.1236532291695
 20
605.1223518870369
 10
478.3115590903693
 20
595.9344460182368
  0
LINE
  5
1899C
330
A
100
AcDbEntity
  8
MODEL
100
AcDbLine
 10
441.8236532291696
 20
595.9504460182369
 30
0.0
 11
441.8236532291696
 21
614.2050460182371
 31
0.0
  0
LWPOLYLINE
  5
1899D
330
A
100
AcDbEntity
  8
MODEL
100
AcDbPolyline
 90
        2
 70
     0
 43
0.0
 10
474.1830947227694
 20
614.2050460182371
 10
492.4536947083695
 20
595.9344460182368
  0
LWPOLYLINE
  5
1899E
330
A
100
AcDbEntity
  8
MODEL
100
AcDbPolyline
 90
        2
 70
     0
 43
0.0
 10
379.9882628411693
 20
609.404928569437
 10
393.4427453815694
 20
595.9504460182367
  0
LWPOLYLINE
  5
1899F
330
A
100
AcDbEntity
  8
MODEL
100
AcDbPolyline
 90
        2
 70
     0
 43
0.0
 10
431.7566878683694
 20
614.2050460182371
 10
441.8236532291696
 20
604.1380806498373
  0
LINE
  5
189A0
330
A
100
AcDbEntity
  8
DIM
100
AcDbLine
 10
422.9056197897681
 20
418.0481313821659
 30
0.0
 11
406.2110362370228
 21
431.5167421965616
 31
0.0
  0
LINE
  5
189A1
330
A
100
AcDbEntity
  8
DIM
100
AcDbLine
 10
406.2110362370228
 20
431.5167421965616
 30
0.0
 11
406.2110362370228
 21
455.8019347795293
 31
0.0
  0
DIMENSION
  5
189A2
102
{ACAD_XDICTIONARY
360
189A3
102
}
102
{ACAD_REACTORS
330
189A4
102
}
330
A
100
AcDbEntity
  8
DIM
100
AcDbDimension
280
     0
  2
*D13
 10
555.9292317009122
 20
721.1104049902368
 30
0.0
 11
546.9292317009121
 21
667.6577255042372
 31
0.0
 70
    32
 71
     5
 42
106.9053589719998
 73
     0
 74
     0
 75
     0
 52
-270.0
  3
tfrom線あり
100
AcDbAlignedDimension
 13
530.3805064363696
 23
614.2050460182371
 33
0.0
 14
515.4592837349544
 24
721.1104049902368
 34
0.0
 50
90.00000000000001
100
AcDbRotatedDimension
1001
ACAD
1000
DSTYLE
1002
{
1070
   144
1040
1.0
1002
}
  0
DIMENSION
  5
189A5
330
A
100
AcDbEntity
  8
DIM
100
AcDbDimension
280
     0
  2
*D14
 10
578.5585734638302
 20
776.2050460182371
 30
0.0
 11
569.5585734638302
 21
695.2050460182371
 31
0.0
 70
    32
 71
     5
 42
162.0
 73
     0
 74
     0
 75
     0
 52
-270.0
  3
tfrom線あり
100
AcDbAlignedDimension
 13
540.3805064363695
 23
614.2050460182371
 33
0.0
 14
471.4118271914305
 24
776.2050460182371
 34
0.0
 50
90.00000000000001
100
AcDbRotatedDimension
1001
ACAD
1000
DSTYLE
1002
{
1070
   144
1040
1.0
1002
}
  0
MTEXT
  5
189A7
330
A
100
AcDbEntity
  8
DIM
390
1D
100
AcDbMText
 10
395.4712779997933
 20
436.6543276228475
 30
0.0
 40
7.329785156250001
 41
0.0
 46
7.329785156250001
 71
     1
 72
     1
  1
{%%c70}
  7
ＭＳ ゴシック
 11
-0.0000000000000004
 21
1.0
 31
0.0
 73
     1
 44
0.7828267384257844
1001
ACAD
1000
ACAD_MTEXT_DEFINED_HEIGHT_BEGIN
1070
    46
1040
7.329785156250001
1000
ACAD_MTEXT_DEFINED_HEIGHT_END
  0
LINE
  5
189A8
330
A
100
AcDbEntity
  8
MODEL
100
AcDbLine
 10
435.4816504212693
 20
330.2496344107589
 30
0.0
 11
435.4816504212693
 21
345.2496728683587
 31
0.0
  0
LINE
  5
189A9
330
A
100
AcDbEntity
  8
MODEL
100
AcDbLine
 10
435.4816504212693
 20
315.2495976483586
 30
0.0
 11
435.4816504212693
 21
330.2496344107589
 31
0.0
  0
LINE
  5
189AA
330
A
100
AcDbEntity
  8
MODEL
100
AcDbLine
 10
435.4816504212693
 20
296.8529768500588
 30
0.0
 11
435.4816504212693
 21
315.2496352583588
 31
0.0
  0
LINE
  5
189AB
330
A
100
AcDbEntity
  8
MODEL
100
AcDbLine
 10
435.4816504212693
 20
345.2496352583589
 30
0.0
 11
435.4816504212693
 21
363.6462936660588
 31
0.0
  0
SPLINE
  5
189AC
330
A
100
AcDbEntity
  8
MODEL
100
AcDbSpline
210
0.0
220
0.0
230
1.0
 70
     8
 71
     3
 72
    21
 73
    17
 74
     0
 42
0.000000001
 43
0.0000000001
 40
0.0
 40
0.0
 40
0.0
 40
0.0
 40
0.03321860945278
 40
0.0660774165159793
 40
0.1308427115140623
 40
0.2573159687896694
 40
0.3813544747130674
 40
0.4431095386439871
 40
0.5049380201019727
 40
0.6285618105973496
 40
0.6906410932548576
 40
0.7528919368269042
 40
0.8783746190704933
 40
0.9417301042027983
 40
0.9708007414976199
 40
1.0
 40
1.0
 40
1.0
 40
1.0
 10
435.4816994201399
 20
364.2496910632138
 30
0.0
 10
435.4817506354685
 20
363.9375152270698
 30
0.0
 10
435.4817597198615
 20
363.3166634055893
 30
0.0
 10
435.4818566661878
 20
362.0911057523946
 30
0.0
 10
435.4823679615294
 20
360.0109787598127
 30
0.0
 10
435.485385937344
 20
357.1860438109831
 30
0.0
 10
435.5055643798157
 20
354.6805623474428
 30
0.0
 10
435.5615463056304
 20
352.9615605266503
 30
0.0
 10
435.6696430425729
 20
351.4508063892655
 30
0.0
 10
435.8612590721372
 20
350.1945551435
 30
0.0
 10
436.1582560993875
 20
349.189360806353
 30
0.0
 10
436.5149243044378
 20
348.3251612050902
 30
0.0
 10
436.9201167562747
 20
347.6647867370286
 30
0.0
 10
437.2196312144787
 20
347.3518572793542
 30
0.0
 10
437.3720898069566
 20
347.2617874236222
 30
0.0
 10
437.4450765144332
 20
347.2536919365986
 30
0.0
 10
437.4816339388263
 20
347.2496352583589
 30
0.0
  0
SPLINE
  5
189AD
330
A
100
AcDbEntity
  8
MODEL
100
AcDbSpline
210
0.0
220
0.0
230
1.0
 70
     8
 71
     3
 72
    21
 73
    17
 74
     0
 42
0.000000001
 43
0.0000000001
 40
0.0
 40
0.0
 40
0.0
 40
0.0
 40
0.0292840191021329
 40
0.0582701435842647
 40
0.1216256040763491
 40
0.2471082375173717
 40
0.3093590568789617
 40
0.3714383153925687
 40
0.4950620578076301
 40
0.5568905152204693
 40
0.6186455551334502
 40
0.7426840128160226
 40
0.8691572209039016
 40
0.9339224907132679
 40
0.9667875820098609
 40
1.0
 40
1.0
 40
1.0
 40
1.0
 10
437.4816383710851
 20
313.2496352583588
 30
0.0
 10
437.4439794553496
 20
313.2456248063335
 30
0.0
 10
437.3690207352356
 20
313.2376446990082
 30
0.0
 10
437.2213750921323
 20
313.1471630998043
 30
0.0
 10
436.9187453193907
 20
312.8345787383313
 30
0.0
 10
436.5151409043028
 20
312.174094313982
 30
0.0
 10
436.1582164089742
 20
311.3099124589017
 30
0.0
 10
435.8612821480571
 20
310.3047137735324
 30
0.0
 10
435.6696393593483
 20
309.0484643943051
 30
0.0
 10
435.5615469867093
 20
307.5377099225619
 30
0.0
 10
435.5055639698348
 20
305.8187083083664
 30
0.0
 10
435.4853862135247
 20
303.3132257800074
 30
0.0
 10
435.4823675401894
 20
300.4882944656209
 30
0.0
 10
435.4818572293751
 20
298.4081024424614
 30
0.0
 10
435.4817586872345
 20
297.1825537681147
 30
0.0
 10
435.4817502894848
 20
296.5616984401087
 30
0.0
 10
435.4816994254798
 20
296.2495794603132
 30
0.0
  0
LINE
  5
189AE
330
A
100
AcDbEntity
  8
MODEL
100
AcDbLine
 10
435.4816504212693
 20
363.6462935897589
 30
0.0
 11
435.4816527948691
 21
364.2496314578588
 31
0.0
  0
LINE
  5
189AF
330
A
100
AcDbEntity
  8
MODEL
100
AcDbLine
 10
435.4816527948693
 20
296.2496390588589
 30
0.0
 11
435.4816504212693
 21
296.8529769239589
 31
0.0
  0
ARC
  5
189B0
330
A
100
AcDbEntity
  8
MODEL
100
AcDbCircle
 10
437.4816149910693
 20
315.2495810229588
 30
0.0
 40
1.999964569942491
100
AcDbArc
 50
179.9995237096036
 51
270.0010150162984
  0
ARC
  5
189B1
330
A
100
AcDbEntity
  8
MODEL
100
AcDbCircle
 10
437.4816504212692
 20
345.2496352583589
 30
0.0
 40
1.999999999999984
100
AcDbArc
 50
90.0
 51
179.9996632977994
  0
LINE
  5
189B2
330
A
100
AcDbEntity
  8
MODEL
100
AcDbLine
 10
465.4816504212693
 20
346.2496728683589
 30
0.0
 11
465.4816504212693
 21
330.2496346226589
 31
0.0
  0
LINE
  5
189B3
330
A
100
AcDbEntity
  8
MODEL
100
AcDbLine
 10
465.4816504212693
 20
330.2496346226589
 30
0.0
 11
465.4816504212693
 21
314.2495976483587
 31
0.0
  0
LINE
  5
189B5
330
A
100
AcDbEntity
  8
MODEL
100
AcDbLine
 10
464.4816504212693
 20
313.2496352583589
 30
0.0
 11
437.4816504212692
 21
313.2496352583588
 31
0.0
  0
LINE
  5
189B6
330
A
100
AcDbEntity
  8
MODEL
100
AcDbLine
 10
464.4816501714692
 20
347.2496324485589
 30
0.0
 11
437.4816506707693
 21
347.2496324485588
 31
0.0
  0
ARC
  5
189B8
330
A
100
AcDbEntity
  8
MODEL
100
AcDbCircle
 10
464.4816873183692
 20
346.2496881507588
 30
0.0
 40
0.999963103458856
100
AcDbArc
 50
359.9980468622
 51
90.00212843749675
  0
ARC
  5
189B9
330
A
100
AcDbEntity
  8
MODEL
100
AcDbCircle
 10
464.4816504212693
 20
314.2496352583588
 30
0.0
 40
1.000000000000002
100
AcDbArc
 50
270.0
 51
359.998922553096
  0
LINE
  5
189BC
330
A
100
AcDbEntity
  8
MODEL
100
AcDbLine
 10
475.181650421269
 20
237.7496352583588
 30
0.0
 11
435.7816504212691
 21
237.7496352583588
 31
0.0
  0
LINE
  5
189BD
330
A
100
AcDbEntity
  8
MODEL
100
AcDbLine
 10
435.7816504212691
 20
422.7496352583588
 30
0.0
 11
475.181650421269
 21
422.7496352583588
 31
0.0
  0
LINE
  5
189BE
330
A
100
AcDbEntity
  8
MODEL
100
AcDbLine
 10
475.4816504212691
 20
238.0496352583588
 30
0.0
 11
475.4816504212692
 21
319.7721352583589
 31
0.0
  0
LINE
  5
189BF
330
A
100
AcDbEntity
  8
MODEL
100
AcDbLine
 10
475.4816504212692
 20
340.7271352583588
 30
0.0
 11
475.4816504212692
 21
422.4496352583586
 31
0.0
  0
LINE
  5
189C0
330
A
100
AcDbEntity
  8
MODEL
100
AcDbLine
 10
435.4816504212693
 20
296.2161376786588
 30
0.0
 11
435.4816504212691
 21
238.0496352583588
 31
0.0
  0
LINE
  5
189C1
330
A
100
AcDbEntity
  8
MODEL
100
AcDbLine
 10
435.4816504212693
 20
422.4496352583588
 30
0.0
 11
435.4816504212693
 21
364.2831328380588
 31
0.0
  0
ARC
  5
189C2
330
A
100
AcDbEntity
  8
MODEL
100
AcDbCircle
 10
475.181650421269
 20
238.0496352583588
 30
0.0
 40
0.2999999999999947
100
AcDbArc
 50
270.0
 51
0.0
  0
ARC
  5
189C3
330
A
100
AcDbEntity
  8
MODEL
100
AcDbCircle
 10
435.7816504212691
 20
238.0496352583588
 30
0.0
 40
0.3000000000000017
100
AcDbArc
 50
180.0
 51
270.0
  0
ARC
  5
189C4
330
A
100
AcDbEntity
  8
MODEL
100
AcDbCircle
 10
435.7816504212691
 20
422.4496352583588
 30
0.0
 40
0.2999999999999947
100
AcDbArc
 50
90.0
 51
180.0
  0
ARC
  5
189C5
330
A
100
AcDbEntity
  8
MODEL
100
AcDbCircle
 10
475.181650421269
 20
422.4496352583586
 30
0.0
 40
0.3000000000000017
100
AcDbArc
 50
0.0
 51
90.0
  0
LINE
  5
189C6
330
A
100
AcDbEntity
  8
MODEL
100
AcDbLine
 10
487.0875093149693
 20
320.9421352583587
 30
0.0
 11
487.0875093149693
 21
339.5571352583588
 31
0.0
  0
LINE
  5
189C7
330
A
100
AcDbEntity
  8
MODEL
100
AcDbLine
 10
485.9175093149691
 20
340.7271352583588
 30
0.0
 11
485.9175093149691
 21
319.7721352583589
 31
0.0
  0
LINE
  5
189C8
330
A
100
AcDbEntity
  8
MODEL
100
AcDbLine
 10
465.4816504212693
 20
319.7721352583589
 30
0.0
 11
477.8875093149691
 21
319.7721352583589
 31
0.0
  0
LINE
  5
189C9
330
A
100
AcDbEntity
  8
MODEL
100
AcDbLine
 10
477.8875093149691
 20
340.7271352583588
 30
0.0
 11
465.4816504212693
 21
340.7271352583588
 31
0.0
  0
LINE
  5
189CA
330
A
100
AcDbEntity
  8
MODEL
100
AcDbLine
 10
477.8875093149691
 20
319.7721352583589
 30
0.0
 11
485.9175093149691
 21
319.7721352583589
 31
0.0
  0
LINE
  5
189CB
330
A
100
AcDbEntity
  8
MODEL
100
AcDbLine
 10
485.9175093149691
 20
340.7271352583588
 30
0.0
 11
477.8875093149691
 21
340.7271352583588
 31
0.0
  0
LINE
  5
189CC
330
A
100
AcDbEntity
  8
MODEL
100
AcDbLine
 10
485.9175093149691
 20
319.7721352583589
 30
0.0
 11
487.0875093149693
 21
320.9421352583587
 31
0.0
  0
LINE
  5
189CD
330
A
100
AcDbEntity
  8
MODEL
100
AcDbLine
 10
487.0875093149693
 20
339.5571352583588
 30
0.0
 11
485.9175093149691
 21
340.7271352583588
 31
0.0
  0
LINE
  5
189CE
330
A
100
AcDbEntity
  8
MODEL
100
AcDbLine
 10
487.0795093149691
 20
320.9341352583587
 30
0.0
 11
477.8875093149691
 21
320.9341352583587
 31
0.0
  0
LINE
  5
189CF
330
A
100
AcDbEntity
  8
MODEL
100
AcDbLine
 10
487.0795093149691
 20
339.5651352583588
 30
0.0
 11
477.8875093149691
 21
339.5651352583588
 31
0.0
  0
LINE
  5
189D0
330
A
100
AcDbEntity
  8
MODEL
100
AcDbLine
 10
477.8875093149691
 20
340.7271352583588
 30
0.0
 11
477.8875093149691
 21
319.7721352583589
 31
0.0
  0
LINE
  5
189D1
330
A
100
AcDbEntity
  8
MODEL
100
AcDbLine
 10
435.4816504212693
 20
335.8218978822587
 30
0.0
 11
430.1575093149692
 21
335.7809429506586
 31
0.0
  0
LINE
  5
189D2
330
A
100
AcDbEntity
  8
MODEL
100
AcDbLine
 10
430.1575093149692
 20
324.7183275660587
 30
0.0
 11
435.4816504212693
 21
324.6773726344587
 31
0.0
  0
LINE
  5
189D3
330
A
100
AcDbEntity
  8
MODEL
100
AcDbLine
 10
462.1283687973691
 20
237.0296352583588
 30
0.0
 11
462.1283687973691
 21
237.7496352583588
 31
0.0
  0
LINE
  5
189D4
330
A
100
AcDbEntity
  8
MODEL
100
AcDbLine
 10
466.4584958163692
 20
237.0296352583588
 30
0.0
 11
466.4584958163692
 21
237.7496352583588
 31
0.0
  0
LINE
  5
189D5
330
A
100
AcDbEntity
  8
MODEL
100
AcDbLine
 10
465.8014671458691
 20
237.0296352583588
 30
0.0
 11
465.8014671458691
 21
237.7496352583588
 31
0.0
  0
LINE
  5
189D6
330
A
100
AcDbEntity
  8
MODEL
100
AcDbLine
 10
437.681650421269
 20
237.7496352583588
 30
0.0
 11
437.681650421269
 21
237.0296352583588
 31
0.0
  0
LINE
  5
189D7
330
A
100
AcDbEntity
  8
MODEL
100
AcDbLine
 10
473.2816504212691
 20
237.0296352583588
 30
0.0
 11
473.2816504212691
 21
237.7496352583588
 31
0.0
  0
LINE
  5
189D8
330
A
100
AcDbEntity
  8
MODEL
100
AcDbLine
 10
438.6561121057692
 20
422.7496352583588
 30
0.0
 11
438.6561121057692
 21
423.4496352583589
 31
0.0
  0
LINE
  5
189D9
330
A
100
AcDbEntity
  8
MODEL
100
AcDbLine
 10
452.6074682037691
 20
422.7496352583588
 30
0.0
 11
452.6074682037691
 21
423.4496352583589
 31
0.0
  0
LINE
  5
189DA
330
A
100
AcDbEntity
  8
MODEL
100
AcDbLine
 10
469.4330065192692
 20
422.7496352583588
 30
0.0
 11
469.4330065192692
 21
423.4496352583587
 31
0.0
  0
LINE
  5
189DB
330
A
100
AcDbEntity
  8
MODEL
100
AcDbLine
 10
473.4798434299691
 20
423.4496352583587
 30
0.0
 11
473.4798434299691
 21
422.7496352583588
 31
0.0
  0
LINE
  5
189DC
330
A
100
AcDbEntity
  8
MODEL
100
AcDbLine
 10
464.2598706793692
 20
423.4496352583587
 30
0.0
 11
464.2598706793692
 21
422.7496352583588
 31
0.0
  0
LINE
  5
189DD
330
A
100
AcDbEntity
  8
MODEL
100
AcDbLine
 10
446.2616776706692
 20
423.4496352583589
 30
0.0
 11
446.2616776706692
 21
422.7496352583588
 31
0.0
  0
LINE
  5
189DE
330
A
100
AcDbEntity
  8
MODEL
100
AcDbLine
 10
437.4816504212692
 20
423.4496352583589
 30
0.0
 11
437.4816504212692
 21
422.7496352583588
 31
0.0
  0
LINE
  5
189DF
330
A
100
AcDbEntity
  8
MODEL
100
AcDbLine
 10
473.4816504212693
 20
422.7496352583588
 30
0.0
 11
473.4816504212693
 21
423.4496352583587
 31
0.0
  0
LINE
  5
189E0
330
A
100
AcDbEntity
  8
MODEL
100
AcDbLine
 10
435.9816504212691
 20
237.0296352583588
 30
0.0
 11
474.9816504212691
 21
237.0296352583588
 31
0.0
  0
CIRCLE
  5
189E1
330
A
100
AcDbEntity
  8
MODEL
100
AcDbCircle
 10
455.4817656112692
 20
207.0296177918588
 30
0.0
 40
10.00002919661548
  0
LINE
  5
189E2
330
A
100
AcDbEntity
  8
MODEL
100
AcDbLine
 10
436.4816504212693
 20
181.0296352583588
 30
0.0
 11
474.4816504212693
 21
181.0296352583588
 31
0.0
  0
LINE
  5
189E3
330
A
100
AcDbEntity
  8
MODEL
100
AcDbLine
 10
464.1397159868692
 20
202.0296352583588
 30
0.0
 11
463.7156361963691
 21
202.0296352583588
 31
0.0
  0
LINE
  5
189E4
330
A
100
AcDbEntity
  8
MODEL
100
AcDbLine
 10
435.4816504212691
 20
236.5296352583588
 30
0.0
 11
435.4816504212693
 21
182.0296352583588
 31
0.0
  0
LINE
  5
189E5
330
A
100
AcDbEntity
  8
MODEL
100
AcDbLine
 10
475.4816504212692
 20
182.0296352583588
 30
0.0
 11
475.4816504212691
 21
236.5296352583588
 31
0.0
  0
ARC
  5
189E6
330
A
100
AcDbEntity
  8
MODEL
100
AcDbCircle
 10
435.9816504212691
 20
236.5296352583588
 30
0.0
 40
0.5000000000000005
100
AcDbArc
 50
90.0
 51
180.0
  0
ARC
  5
189E7
330
A
100
AcDbEntity
  8
MODEL
100
AcDbCircle
 10
474.9816504212691
 20
236.5296352583588
 30
0.0
 40
0.5000000000001601
100
AcDbArc
 50
0.0
 51
90.0
  0
ARC
  5
189E8
330
A
100
AcDbEntity
  8
MODEL
100
AcDbCircle
 10
474.4816504212693
 20
182.0296352583588
 30
0.0
 40
0.9999999999997511
100
AcDbArc
 50
270.0
 51
0.0
  0
ARC
  5
189E9
330
A
100
AcDbEntity
  8
MODEL
100
AcDbCircle
 10
436.4816504212693
 20
182.0296352583588
 30
0.0
 40
0.9999999999994908
100
AcDbArc
 50
180.0
 51
270.0
  0
LINE
  5
189EA
330
A
100
AcDbEntity
  8
MODEL
100
AcDbLine
 10
451.3405456995691
 20
215.4138666034588
 30
0.0
 11
451.3405456995691
 21
216.1296352583587
 31
0.0
  0
LINE
  5
189EB
330
A
100
AcDbEntity
  8
MODEL
100
AcDbLine
 10
465.0649507831693
 20
206.2296352583588
 30
0.0
 11
465.4452796423691
 21
206.2296352583588
 31
0.0
  0
LINE
  5
189EC
330
A
100
AcDbEntity
  8
MODEL
100
AcDbLine
 10
463.8349273238691
 20
202.2296352583588
 30
0.0
 11
464.2651585904691
 21
202.2296352583588
 31
0.0
  0
LINE
  5
189ED
330
A
100
AcDbEntity
  8
MODEL
100
AcDbLine
 10
458.2577243973691
 20
216.6296352583587
 30
0.0
 11
452.6979705693691
 21
216.6296352583587
 31
0.0
  0
SPLINE
  5
189EE
330
A
100
AcDbEntity
  8
MODEL
100
AcDbSpline
210
0.0
220
0.0
230
1.0
 70
     8
 71
     3
 72
     8
 73
     4
 74
     0
 42
0.000000001
 43
0.0000000001
 40
0.0874626253665032
 40
0.0874626253665032
 40
0.0874626253665032
 40
0.0874626253665032
 40
0.241798409665879
 40
0.241798409665879
 40
0.241798409665879
 40
0.241798409665879
 10
465.3165450376923
 20
206.4763469462761
 30
0.0
 10
465.3518151164708
 20
206.4279316453585
 30
0.0
 10
465.3967784635291
 20
206.3867549746411
 30
0.0
 10
465.4478145336977
 20
206.3541946449525
 30
0.0
  0
LINE
  5
189EF
330
A
100
AcDbEntity
  8
MODEL
100
AcDbLine
 10
446.3306585571693
 20
209.0296352583588
 30
0.0
 11
445.6687939736692
 21
209.0296352583588
 31
0.0
  0
LINE
  5
189F0
330
A
100
AcDbEntity
  8
MODEL
100
AcDbLine
 10
446.0868651761692
 20
204.2296352583587
 30
0.0
 11
446.4762083040691
 21
204.2296352583587
 31
0.0
  0
LINE
  5
189F1
330
A
100
AcDbEntity
  8
MODEL
100
AcDbLine
 10
445.6107129527692
 20
206.2296352583588
 30
0.0
 11
446.0868651761692
 21
206.2296352583588
 31
0.0
  0
LINE
  5
189F2
330
A
100
AcDbEntity
  8
MODEL
100
AcDbLine
 10
446.0868651761692
 20
204.2296352583587
 30
0.0
 11
445.8821415365693
 21
204.2296352583587
 31
0.0
  0
LINE
  5
189F3
330
A
100
AcDbEntity
  8
MODEL
100
AcDbLine
 10
445.5244598636692
 20
206.2296352583588
 30
0.0
 11
445.6107129527692
 21
206.2296352583588
 31
0.0
  0
LINE
  5
189F4
330
A
100
AcDbEntity
  8
MODEL
100
AcDbLine
 10
445.6107129527692
 20
206.2296352583588
 30
0.0
 11
445.6107129527692
 21
205.4661284996589
 31
0.0
  0
LINE
  5
189F5
330
A
100
AcDbEntity
  8
MODEL
100
AcDbLine
 10
451.8581837897691
 20
215.6601244470588
 30
0.0
 11
451.8581837897691
 21
216.3429474297588
 31
0.0
  0
LINE
  5
189F6
330
A
100
AcDbEntity
  8
MODEL
100
AcDbLine
 10
452.3572005264691
 20
216.4796352583588
 30
0.0
 11
452.3572005264691
 21
215.8501359692588
 31
0.0
  0
LINE
  5
189F7
330
A
100
AcDbEntity
  8
MODEL
100
AcDbLine
 10
464.4899707688693
 20
211.3597734533589
 30
0.0
 11
464.4899707688693
 21
210.1957982132588
 31
0.0
  0
LINE
  5
189F8
330
A
100
AcDbEntity
  8
MODEL
100
AcDbLine
 10
452.3572005264691
 20
216.4796352583588
 30
0.0
 11
458.7214478534691
 21
216.4796352583588
 31
0.0
  0
LINE
  5
189F9
330
A
100
AcDbEntity
  8
MODEL
100
AcDbLine
 10
465.4662957283692
 20
206.4796352583588
 30
0.0
 11
465.1883433330693
 21
206.4796352583588
 31
0.0
  0
LINE
  5
189FA
330
A
100
AcDbEntity
  8
MODEL
100
AcDbLine
 10
464.4900397326693
 20
210.1955898213589
 30
0.0
 11
464.4900397326693
 21
211.3596239165587
 31
0.0
  0
LINE
  5
189FB
330
A
100
AcDbEntity
  8
MODEL
100
AcDbLine
 10
465.1883433330693
 20
209.4248600980588
 30
0.0
 11
465.1883433330693
 21
206.4796352583588
 31
0.0
  0
LINE
  5
189FC
330
A
100
AcDbEntity
  8
MODEL
100
AcDbLine
 10
465.1883433330693
 20
206.4796352583588
 30
0.0
 11
465.0794683337691
 21
206.4796352583588
 31
0.0
  0
CIRCLE
  5
189FD
330
A
100
AcDbEntity
  8
MODEL
100
AcDbCircle
 10
455.5816504212693
 20
206.9296352583588
 30
0.0
 40
9.500000000000003
  0
SPLINE
  5
189FE
330
A
100
AcDbEntity
  8
MODEL
100
AcDbSpline
210
0.0
220
0.0
230
1.0
 70
    12
 71
     2
 72
     6
 73
     3
 74
     0
 42
0.000000001
 43
0.0000000001
 40
0.0
 40
0.0
 40
0.0
 40
1.0
 40
1.0
 40
1.0
 10
446.2043180524748
 20
208.4513571927508
 30
0.0
 41
1.0
 10
446.1539603011016
 20
208.4504170460755
 30
0.0
 41
1.0
 10
446.1038050989196
 20
208.4494112101576
 30
0.0
 41
1.0
  0
LINE
  5
189FF
330
A
100
AcDbEntity
  8
MODEL
100
AcDbLine
 10
446.2422347994691
 20
203.6296352583587
 30
0.0
 11
446.6732274406693
 21
203.6296352583587
 31
0.0
  0
LINE
  5
18A00
330
A
100
AcDbEntity
  8
MODEL
100
AcDbLine
 10
459.4429973364693
 20
198.1296352583587
 30
0.0
 11
458.9164500298691
 21
198.0341807128588
 31
0.0
  0
LINE
  5
18A01
330
A
100
AcDbEntity
  8
MODEL
100
AcDbLine
 10
460.0244404015692
 20
198.1296352583587
 30
0.0
 11
459.4429973364693
 21
198.1296352583587
 31
0.0
  0
ELLIPSE
  5
18A02
330
A
100
AcDbEntity
  8
MODEL
100
AcDbEllipse
 10
459.4578002739693
 20
201.5430174842588
 30
0.0
 11
6.999997444963616
 21
0.1208704216940924
 31
0.0
210
0.0
220
0.0
230
0.9999999999999998
 40
0.0494815199
 41
0.8521656508032364
 42
0.9316230666983036
  0
ARC
  5
18A03
330
A
100
AcDbEntity
  8
MODEL
100
AcDbCircle
 10
463.0645908820692
 20
201.6048485978588
 30
0.0
 40
0.3160492981505381
100
AcDbArc
 50
326.3748261193762
 51
348.9483167072977
  0
LINE
  5
18A04
330
A
100
AcDbEntity
  8
MODEL
100
AcDbLine
 10
445.7816504212691
 20
207.1564025880588
 30
0.0
 11
445.7816504212691
 21
208.1154091531589
 31
0.0
  0
ARC
  5
18A05
330
A
100
AcDbEntity
  8
MODEL
100
AcDbCircle
 10
446.1200842801693
 20
208.1113446706588
 30
0.0
 40
0.3384582646275182
100
AcDbArc
 50
92.7568787211018
 51
179.3119290773013
  0
ARC
  5
18A06
330
A
100
AcDbEntity
  8
MODEL
100
AcDbCircle
 10
446.1243131423692
 20
207.1613051741588
 30
0.0
 40
0.3426977907577584
100
AcDbArc
 50
180.8196932769116
 51
262.9529253511976
  0
LINE
  5
18A07
330
A
100
AcDbEntity
  8
MODEL
100
AcDbLine
 10
455.5992410694693
 20
197.4296515442588
 30
0.0
 11
452.4909044915692
 21
197.4296515442588
 31
0.0
  0
ARC
  5
18A08
330
A
100
AcDbEntity
  8
MODEL
100
AcDbCircle
 10
455.5216137716692
 20
206.9684344693588
 30
0.0
 40
9.861767300127773
100
AcDbArc
 50
199.7891612724
 51
249.5255596160994
  0
SPLINE
  5
18A09
330
A
100
AcDbEntity
  8
MODEL
100
AcDbSpline
210
0.0
220
0.0
230
1.0
 70
     8
 71
     3
 72
    12
 73
     8
 74
     0
 42
0.000000001
 43
0.0000000001
 40
0.0
 40
0.0
 40
0.0
 40
0.0
 40
0.4999999999999993
 40
0.4999999999999993
 40
0.7499999999999997
 40
0.7499999999999997
 40
1.0
 40
1.0
 40
1.0
 40
1.0
 10
452.0720711435704
 20
197.7296515442173
 30
0.0
 10
452.1358930248145
 20
197.7057225702554
 30
0.0
 10
452.1992417138057
 20
197.6802112938366
 30
0.0
 10
452.2919000142807
 20
197.6349672346418
 30
0.0
 10
452.3226278011724
 20
197.6187340948625
 30
0.0
 10
452.3808819741089
 20
197.5799481797418
 30
0.0
 10
452.4109265513327
 20
197.5564122128268
 30
0.0
 10
452.418576515654
 20
197.5298579820472
 30
0.0
  0
LINE
  5
18A0A
330
A
100
AcDbEntity
  8
MODEL
100
AcDbLine
 10
446.0750041378692
 20
203.6296352583587
 30
0.0
 11
446.2422347994691
 21
203.6296352583587
 31
0.0
  0
LINE
  5
18A0B
330
A
100
AcDbEntity
  8
MODEL
100
AcDbLine
 10
474.9816504212692
 20
423.4496352583587
 30
0.0
 11
435.9816504212693
 21
423.4496352583589
 31
0.0
  0
CIRCLE
  5
18A0C
330
A
100
AcDbEntity
  8
MODEL
100
AcDbCircle
 10
455.4815352311692
 20
453.4496527248587
 30
0.0
 40
10.00002919661548
  0
LINE
  5
18A0D
330
A
100
AcDbEntity
  8
MODEL
100
AcDbLine
 10
436.4816504212693
 20
479.4496352583586
 30
0.0
 11
474.4816504212693
 21
479.4496352583586
 31
0.0
  0
LINE
  5
18A0E
330
A
100
AcDbEntity
  8
MODEL
100
AcDbLine
 10
446.8235848556692
 20
458.4496352583586
 30
0.0
 11
447.2476646461691
 21
458.4496352583586
 31
0.0
  0
LINE
  5
18A0F
330
A
100
AcDbEntity
  8
MODEL
100
AcDbLine
 10
475.4816504212692
 20
423.9496352583587
 30
0.0
 11
475.4816504212692
 21
478.4496352583587
 31
0.0
  0
LINE
  5
18A10
330
A
100
AcDbEntity
  8
MODEL
100
AcDbLine
 10
435.4816504212693
 20
478.4496352583587
 30
0.0
 11
435.4816504212693
 21
423.9496352583588
 31
0.0
  0
ARC
  5
18A11
330
A
100
AcDbEntity
  8
MODEL
100
AcDbCircle
 10
474.9816504212692
 20
423.9496352583587
 30
0.0
 40
0.5000000000000005
100
AcDbArc
 50
270.0
 51
0.0
  0
ARC
  5
18A12
330
A
100
AcDbEntity
  8
MODEL
100
AcDbCircle
 10
435.9816504212693
 20
423.9496352583588
 30
0.0
 40
0.5000000000001601
100
AcDbArc
 50
180.0
 51
270.0
  0
ARC
  5
18A13
330
A
100
AcDbEntity
  8
MODEL
100
AcDbCircle
 10
436.4816504212693
 20
478.4496352583587
 30
0.0
 40
0.9999999999997511
100
AcDbArc
 50
90.0
 51
180.0
  0
ARC
  5
18A14
330
A
100
AcDbEntity
  8
MODEL
100
AcDbCircle
 10
474.4816504212693
 20
478.4496352583587
 30
0.0
 40
0.9999999999994908
100
AcDbArc
 50
0.0
 51
90.0
  0
LINE
  5
18A15
330
A
100
AcDbEntity
  8
MODEL
100
AcDbLine
 10
459.6227551428691
 20
445.0654039132588
 30
0.0
 11
459.6227551428691
 21
444.3496352583588
 31
0.0
  0
LINE
  5
18A16
330
A
100
AcDbEntity
  8
MODEL
100
AcDbLine
 10
445.8983500592692
 20
454.2496352583588
 30
0.0
 11
445.5180212000691
 21
454.2496352583588
 31
0.0
  0
LINE
  5
18A17
330
A
100
AcDbEntity
  8
MODEL
100
AcDbLine
 10
447.1283735186692
 20
458.2496352583588
 30
0.0
 11
446.698142252069
 21
458.2496352583588
 31
0.0
  0
LINE
  5
18A18
330
A
100
AcDbEntity
  8
MODEL
100
AcDbLine
 10
452.7055764451692
 20
443.8496352583588
 30
0.0
 11
458.2653302731691
 21
443.8496352583588
 31
0.0
  0
SPLINE
  5
18A19
330
A
100
AcDbEntity
  8
MODEL
100
AcDbSpline
210
0.0
220
0.0
230
1.0
 70
     8
 71
     3
 72
     8
 73
     4
 74
     0
 42
0.000000001
 43
0.0000000001
 40
0.0874626253664954
 40
0.0874626253664954
 40
0.0874626253664954
 40
0.0874626253664954
 40
0.241798409665834
 40
0.241798409665834
 40
0.241798409665834
 40
0.241798409665834
 10
445.6467558047982
 20
454.0029235704413
 30
0.0
 10
445.6114857260196
 20
454.0513388713593
 30
0.0
 10
445.5665223789615
 20
454.0925155420766
 30
0.0
 10
445.515486308793
 20
454.1250758717651
 30
0.0
  0
LINE
  5
18A1A
330
A
100
AcDbEntity
  8
MODEL
100
AcDbLine
 10
464.6326422853691
 20
451.4496352583586
 30
0.0
 11
465.2945068687691
 21
451.4496352583586
 31
0.0
  0
LINE
  5
18A1B
330
A
100
AcDbEntity
  8
MODEL
100
AcDbLine
 10
464.8764356663691
 20
456.2496352583588
 30
0.0
 11
464.4870925384691
 21
456.2496352583588
 31
0.0
  0
LINE
  5
18A1C
330
A
100
AcDbEntity
  8
MODEL
100
AcDbLine
 10
465.3525878896691
 20
454.2496352583588
 30
0.0
 11
464.8764356663691
 21
454.2496352583588
 31
0.0
  0
LINE
  5
18A1D
330
A
100
AcDbEntity
  8
MODEL
100
AcDbLine
 10
464.8764356663691
 20
456.2496352583588
 30
0.0
 11
465.0811593058691
 21
456.2496352583588
 31
0.0
  0
LINE
  5
18A1E
330
A
100
AcDbEntity
  8
MODEL
100
AcDbLine
 10
465.4388409788691
 20
454.2496352583588
 30
0.0
 11
465.3525878896691
 21
454.2496352583588
 31
0.0
  0
LINE
  5
18A1F
330
A
100
AcDbEntity
  8
MODEL
100
AcDbLine
 10
465.3525878896691
 20
454.2496352583588
 30
0.0
 11
465.3525878896691
 21
455.0131420170589
 31
0.0
  0
LINE
  5
18A20
330
A
100
AcDbEntity
  8
MODEL
100
AcDbLine
 10
459.1051170526692
 20
444.8191460696588
 30
0.0
 11
459.1051170526692
 21
444.1363230869586
 31
0.0
  0
LINE
  5
18A21
330
A
100
AcDbEntity
  8
MODEL
100
AcDbLine
 10
458.6061003159692
 20
443.9996352583588
 30
0.0
 11
458.6061003159692
 21
444.6291345474587
 31
0.0
  0
LINE
  5
18A22
330
A
100
AcDbEntity
  8
MODEL
100
AcDbLine
 10
446.4733300735692
 20
449.1194970633588
 30
0.0
 11
446.4733300735692
 21
450.2834723034587
 31
0.0
  0
LINE
  5
18A23
330
A
100
AcDbEntity
  8
MODEL
100
AcDbLine
 10
458.6061003159692
 20
443.9996352583588
 30
0.0
 11
452.2418529890692
 21
443.9996352583588
 31
0.0
  0
LINE
  5
18A24
330
A
100
AcDbEntity
  8
MODEL
100
AcDbLine
 10
445.4970051140692
 20
453.9996352583588
 30
0.0
 11
445.7749575093692
 21
453.9996352583588
 31
0.0
  0
LINE
  5
18A25
330
A
100
AcDbEntity
  8
MODEL
100
AcDbLine
 10
446.4732611097692
 20
450.2836806953588
 30
0.0
 11
446.4732611097692
 21
449.1196466001588
 31
0.0
  0
LINE
  5
18A26
330
A
100
AcDbEntity
  8
MODEL
100
AcDbLine
 10
445.7749575093692
 20
451.0544104186586
 30
0.0
 11
445.7749575093692
 21
453.9996352583588
 31
0.0
  0
LINE
  5
18A27
330
A
100
AcDbEntity
  8
MODEL
100
AcDbLine
 10
445.7749575093692
 20
453.9996352583588
 30
0.0
 11
445.8838325087691
 21
453.9996352583588
 31
0.0
  0
CIRCLE
  5
18A28
330
A
100
AcDbEntity
  8
MODEL
100
AcDbCircle
 10
455.3816504212691
 20
453.5496352583588
 30
0.0
 40
9.5
  0
SPLINE
  5
18A29
330
A
100
AcDbEntity
  8
MODEL
100
AcDbSpline
210
0.0
220
0.0
230
1.0
 70
    12
 71
     2
 72
     6
 73
     3
 74
     0
 42
0.000000001
 43
0.0000000001
 40
0.0
 40
0.0
 40
0.0
 40
1.0
 40
1.0
 40
1.0
 10
464.7589827900158
 20
452.0279133239671
 30
0.0
 41
1.0
 10
464.8093405413891
 20
452.0288534706421
 30
0.0
 41
1.0
 10
464.8594957435712
 20
452.0298593065598
 30
0.0
 41
1.0
  0
LINE
  5
18A2A
330
A
100
AcDbEntity
  8
MODEL
100
AcDbLine
 10
464.7210660430691
 20
456.8496352583588
 30
0.0
 11
464.2900734017691
 21
456.8496352583588
 31
0.0
  0
LINE
  5
18A2B
330
A
100
AcDbEntity
  8
MODEL
100
AcDbLine
 10
451.5203035059691
 20
462.3496352583588
 30
0.0
 11
452.0468508125691
 21
462.4450898038588
 31
0.0
  0
LINE
  5
18A2C
330
A
100
AcDbEntity
  8
MODEL
100
AcDbLine
 10
450.9388604408692
 20
462.3496352583588
 30
0.0
 11
451.5203035059691
 21
462.3496352583588
 31
0.0
  0
ELLIPSE
  5
18A2D
330
A
100
AcDbEntity
  8
MODEL
100
AcDbEllipse
 10
451.5055005685692
 20
458.9362530324588
 30
0.0
 11
-6.999997444954593
 21
-0.1208704216933153
 31
0.0
210
0.0
220
0.0
230
0.9999999999999996
 40
0.0494815199
 41
0.8521656508037338
 42
0.9316230666988595
  0
ARC
  5
18A2E
330
A
100
AcDbEntity
  8
MODEL
100
AcDbCircle
 10
447.8987099603691
 20
458.8744219188588
 30
0.0
 40
0.3160492981505168
100
AcDbArc
 50
146.3748261193948
 51
168.9483167072129
  0
LINE
  5
18A2F
330
A
100
AcDbEntity
  8
MODEL
100
AcDbLine
 10
465.1816504212691
 20
453.3228679286589
 30
0.0
 11
465.1816504212691
 21
452.3638613635589
 31
0.0
  0
ARC
  5
18A30
330
A
100
AcDbEntity
  8
MODEL
100
AcDbCircle
 10
464.8432165622692
 20
452.3679258460588
 30
0.0
 40
0.3384582646275182
100
AcDbArc
 50
272.7568787211021
 51
359.3119290773013
  0
ARC
  5
18A31
330
A
100
AcDbEntity
  8
MODEL
100
AcDbCircle
 10
464.8389877001692
 20
453.3179653425587
 30
0.0
 40
0.3426977907577584
100
AcDbArc
 50
0.8196932769116514
 51
82.95292535119761
  0
LINE
  5
18A32
330
A
100
AcDbEntity
  8
MODEL
100
AcDbLine
 10
455.3640597730691
 20
463.0496189724587
 30
0.0
 11
458.4723963508691
 21
463.0496189724587
 31
0.0
  0
ARC
  5
18A33
330
A
100
AcDbEntity
  8
MODEL
100
AcDbCircle
 10
455.441687070769
 20
453.5108360473588
 30
0.0
 40
9.861767300127763
100
AcDbArc
 50
19.78916127240001
 51
69.52555961610011
  0
SPLINE
  5
18A34
330
A
100
AcDbEntity
  8
MODEL
100
AcDbSpline
210
0.0
220
0.0
230
1.0
 70
     8
 71
     3
 72
    12
 73
     8
 74
     0
 42
0.000000001
 43
0.0000000001
 40
0.0
 40
0.0
 40
0.0
 40
0.0
 40
0.4999999999999993
 40
0.4999999999999993
 40
0.7499999999999997
 40
0.7499999999999997
 40
1.0
 40
1.0
 40
1.0
 40
1.0
 10
458.8912296989201
 20
462.7496189725001
 30
0.0
 10
458.8274078176761
 20
462.7735479464622
 30
0.0
 10
458.7640591286848
 20
462.7990592228811
 30
0.0
 10
458.6714008282098
 20
462.8443032820759
 30
0.0
 10
458.6406730413182
 20
462.860536421855
 30
0.0
 10
458.5824188683818
 20
462.8993223369758
 30
0.0
 10
458.5523742911578
 20
462.9228583038908
 30
0.0
 10
458.5447243268366
 20
462.9494125346703
 30
0.0
  0
LINE
  5
18A35
330
A
100
AcDbEntity
  8
MODEL
100
AcDbLine
 10
464.8882967046692
 20
456.8496352583588
 30
0.0
 11
464.7210660430691
 21
456.8496352583588
 31
0.0
  0
ARC
  5
18A36
330
A
100
AcDbEntity
  8
MODEL
100
AcDbCircle
 10
455.4816532302691
 20
405.2496140741587
 30
0.0
 40
35.0
100
AcDbArc
 50
304.8498989756998
 51
55.15010102429982
  0
ARC
  5
18A37
330
A
100
AcDbEntity
  8
MODEL
100
AcDbCircle
 10
455.4816532302691
 20
405.2496140741587
 30
0.0
 40
35.0
100
AcDbArc
 50
124.8499101824
 51
235.1500898176
  0
ARC
  5
18A38
330
A
100
AcDbEntity
  8
MODEL
100
AcDbCircle
 10
455.4816532291692
 20
255.2496564536588
 30
0.0
 40
35.0
100
AcDbArc
 50
304.8498989777999
 51
55.15010102219974
  0
ARC
  5
18A39
330
A
100
AcDbEntity
  8
MODEL
100
AcDbCircle
 10
455.4816532291692
 20
255.2496564536588
 30
0.0
 40
35.0
100
AcDbArc
 50
124.8499101803
 51
235.1500898197
  0
LINE
  5
18A3A
330
A
100
AcDbEntity
  8
MODEL
100
AcDbLine
 10
430.1575093149692
 20
323.1515476650587
 30
0.0
 11
430.1575093149692
 21
337.3477228516587
 31
0.0
  0
LINE
  5
18A3B
330
A
100
AcDbEntity
  8
MODEL
100
AcDbLine
 10
411.7808706564693
 20
339.3477228516587
 30
0.0
 11
411.7808706564693
 21
321.1515476650587
 31
0.0
  0
ARC
  5
18A3C
330
A
100
AcDbEntity
  8
MODEL
100
AcDbCircle
 10
435.1575093149691
 20
330.2496352583588
 30
0.0
 40
27.99999999999999
100
AcDbArc
 50
160.7627384947002
 51
199.2372615053003
  0
ARC
  5
18A3D
330
A
100
AcDbEntity
  8
MODEL
100
AcDbCircle
 10
410.2316246809691
 20
338.9479267694588
 30
0.0
 40
1.600000000000004
100
AcDbArc
 50
14.4699705643976
 51
160.7627384947027
  0
ARC
  5
18A3E
330
A
100
AcDbEntity
  8
MODEL
100
AcDbCircle
 10
410.2316246809691
 20
321.5513437472588
 30
0.0
 40
1.6
100
AcDbArc
 50
199.2372615052973
 51
345.5300294356023
  0
LINE
  5
18A3F
330
A
100
AcDbEntity
  8
MODEL
100
AcDbLine
 10
429.6575093149691
 20
337.8477228516587
 30
0.0
 11
411.7808706564693
 21
337.8477228516587
 31
0.0
  0
LINE
  5
18A40
330
A
100
AcDbEntity
  8
MODEL
100
AcDbLine
 10
411.7808706564693
 20
322.6515476650587
 30
0.0
 11
429.6575093149691
 21
322.6515476650587
 31
0.0
  0
ARC
  5
18A41
330
A
100
AcDbEntity
  8
MODEL
100
AcDbCircle
 10
429.6575093149691
 20
337.3477228516587
 30
0.0
 40
0.5000000000000005
100
AcDbArc
 50
0.0
 51
90.0
  0
ARC
  5
18A42
330
A
100
AcDbEntity
  8
MODEL
100
AcDbCircle
 10
429.6575093149691
 20
323.1515476650587
 30
0.0
 40
0.4999999999999997
100
AcDbArc
 50
270.0
 51
0.0
  0
SPLINE
  5
18A43
330
A
100
AcDbEntity
  8
MODEL
100
AcDbSpline
210
0.0
220
0.0
230
1.0
 70
     8
 71
     3
 72
    21
 73
    17
 74
     0
 42
0.000000001
 43
0.0000000001
 40
0.0
 40
0.0
 40
0.0
 40
0.0
 40
0.03321860945278
 40
0.0660774165159793
 40
0.1308427115140623
 40
0.2573159687896694
 40
0.3813544747130674
 40
0.4431095386439871
 40
0.5049380201019727
 40
0.6285618105973496
 40
0.6906410932548576
 40
0.7528919368269042
 40
0.8783746190704933
 40
0.9417301042027983
 40
0.9708007414976199
 40
1.0
 40
1.0
 40
1.0
 40
1.0
 10
196.8399579969163
 20
364.2496910632138
 30
0.0
 10
196.8450021940549
 20
363.93751522707
 30
0.0
 10
196.8550323568001
 20
363.3166634055893
 30
0.0
 10
196.9606669951365
 20
362.0911057523945
 30
0.0
 10
197.3070934039398
 20
360.0109787598129
 30
0.0
 10
198.2834063988915
 20
357.186043810983
 30
0.0
 10
199.8633280153142
 20
354.6805623474427
 30
0.0
 10
201.4378087797842
 20
352.9615605266504
 30
0.0
 10
203.2039519198789
 20
351.4508063892657
 30
0.0
 10
205.1687666603463
 20
350.1945551434999
 30
0.0
 10
207.2510842272894
 20
349.1893608063528
 30
0.0
 10
209.4048391805047
 20
348.3251612050902
 30
0.0
 10
211.6438671952455
 20
347.6647867370286
 30
0.0
 10
213.6478729200024
 20
347.3518572793542
 30
0.0
 10
214.7773859329809
 20
347.2617874236224
 30
0.0
 10
215.3199819178626
 20
347.2536919365985
 30
0.0
 10
215.5918959351746
 20
347.2496352583589
 30
0.0
  0
SPLINE
  5
18A44
330
A
100
AcDbEntity
  8
MODEL
100
AcDbSpline
210
0.0
220
0.0
230
1.0
 70
     8
 71
     3
 72
    21
 73
    17
 74
     0
 42
0.000000001
 43
0.0000000001
 40
0.0
 40
0.0
 40
0.0
 40
0.0
 40
0.0292840191021329
 40
0.0582701435842647
 40
0.1216256040763491
 40
0.2471082375173717
 40
0.3093590568789617
 40
0.3714383153925687
 40
0.4950620578076301
 40
0.5568905152204693
 40
0.6186455551334502
 40
0.7426840128160226
 40
0.8691572209039016
 40
0.9339224907132679
 40
0.9667875820098609
 40
1.0
 40
1.0
 40
1.0
 40
1.0
 10
215.5919090584366
 20
313.2496352583588
 30
0.0
 10
215.3193242569163
 20
313.2456248063336
 30
0.0
 10
214.776987846746
 20
313.2376446990082
 30
0.0
 10
213.6468534377008
 20
313.1471630998042
 30
0.0
 10
211.6440458928824
 20
312.8345787383312
 30
0.0
 10
209.4048109604494
 20
312.1740943139822
 30
0.0
 10
207.251089394051
 20
311.3099124589017
 30
0.0
 10
205.1687636798838
 20
310.3047137735323
 30
0.0
 10
203.2039522357198
 20
309.0484643943051
 30
0.0
 10
201.4378089716832
 20
307.5377099225619
 30
0.0
 10
199.8633265467573
 20
305.8187083083663
 30
0.0
 10
198.2834188233903
 20
303.3132257800074
 30
0.0
 10
197.307056631137
 20
300.4882944656211
 30
0.0
 10
196.9607098442688
 20
298.4081024424614
 30
0.0
 10
196.8549346375192
 20
297.1825537681148
 30
0.0
 10
196.8449688768267
 20
296.5616984401088
 30
0.0
 10
196.8399579969481
 20
296.2495794603131
 30
0.0
  0
LINE
  5
18A45
330
A
100
AcDbEntity
  8
MODEL
100
AcDbLine
 10
281.8302067080853
 20
313.2496352583588
 30
0.0
 11
215.5919090584853
 21
313.2496352583588
 31
0.0
  0
ARC
  5
18A46
330
A
100
AcDbEntity
  8
MODEL
100
AcDbCircle
 10
281.8301937573853
 20
330.2496136435587
 30
0.0
 40
17.0000159951969
100
AcDbArc
 50
270.0000436482001
 51
89.99995635189986
  0
LINE
  5
18A47
330
A
100
AcDbEntity
  8
MODEL
100
AcDbLine
 10
215.5918959351853
 20
347.2496352583589
 30
0.0
 11
281.8302067080853
 21
347.2496352583589
 31
0.0
  0
LINE
  5
18A48
330
A
100
AcDbEntity
  8
MODEL
100
AcDbLine
 10
196.8302158496853
 20
363.6462935897587
 30
0.0
 11
196.8399598440853
 21
364.2496314578587
 31
0.0
  0
LINE
  5
18A49
330
A
100
AcDbEntity
  8
MODEL
100
AcDbLine
 10
196.8399598439853
 20
296.2496390588588
 30
0.0
 11
196.8302158496853
 21
296.8529769239588
 31
0.0
  0
LINE
  5
18A4A
330
A
100
AcDbEntity
  8
MODEL
100
AcDbLine
 10
215.5919085521853
 20
313.2830494568587
 30
0.0
 11
215.5919090584853
 21
313.2496352583588
 31
0.0
  0
LINE
  5
18A4B
330
A
100
AcDbEntity
  8
MODEL
100
AcDbLine
 10
216.5302158496854
 20
237.7496352583588
 30
0.0
 11
177.1302158496853
 21
237.7496352583588
 31
0.0
  0
LINE
  5
18A4C
330
A
100
AcDbEntity
  8
MODEL
100
AcDbLine
 10
177.1302158496853
 20
422.7496352583588
 30
0.0
 11
216.5302158496853
 21
422.7496352583588
 31
0.0
  0
LINE
  5
18A4D
330
A
100
AcDbEntity
  8
MODEL
100
AcDbLine
 10
164.0248568776854
 20
390.7496140741587
 30
0.0
 11
164.0248568776854
 21
419.7496140741587
 31
0.0
  0
LINE
  5
18A4E
330
A
100
AcDbEntity
  8
MODEL
100
AcDbLine
 10
164.0248568776854
 20
269.7496598580588
 30
0.0
 11
164.0248568776854
 21
240.7496598580588
 31
0.0
  0
SPLINE
  5
18A4F
330
A
100
AcDbEntity
  8
MODEL
100
AcDbSpline
210
0.0
220
0.0
230
1.0
 70
     8
 71
     3
 72
    20
 73
    16
 74
     0
 42
0.000000001
 43
0.0000000001
 40
0.0
 40
0.0
 40
0.0
 40
0.0
 40
0.0306349489335319
 40
0.0616639838773477
 40
0.0956544324860994
 40
0.1270221140276981
 40
0.1620924111413736
 40
0.1968181503266602
 40
0.2283769220072537
 40
0.2627508330851453
 40
0.3245051708145558
 40
0.3548957189643318
 40
0.3838970574284929
 40
0.4126975968380648
 40
0.4159082549609662
 40
0.4159082549609662
 40
0.4159082549609662
 40
0.4159082549609662
 10
178.7270988448959
 20
269.8328562084139
 30
0.0
 10
179.1381840045282
 20
269.2614181974946
 30
0.0
 10
180.0549045446751
 20
267.9599295878425
 30
0.0
 10
181.5860132616738
 20
265.5282755973574
 30
0.0
 10
183.0920250830397
 20
262.715665502142
 30
0.0
 10
184.3327709457596
 20
259.3910940576926
 30
0.0
 10
184.933844684825
 20
255.7047635166546
 30
0.0
 10
184.5477433609447
 20
251.9640489741485
 30
0.0
 10
183.4301136294882
 20
248.5391554044239
 30
0.0
 10
181.4986916441023
 20
244.6972973717969
 30
0.0
 10
179.3911616989631
 20
241.565515764977
 30
0.0
 10
177.8408256503236
 20
239.445357440005
 30
0.0
 10
177.0598584780051
 20
238.4255226257038
 30
0.0
 10
176.8404327820124
 20
238.1408420612194
 30
0.0
 10
176.8302396937108
 20
238.1277346868631
 30
0.0
 10
176.8302643735915
 20
238.1277793979058
 30
0.0
  0
SPLINE
  5
18A50
330
A
100
AcDbEntity
  8
MODEL
100
AcDbSpline
210
0.0
220
0.0
230
1.0
 70
     8
 71
     3
 72
    10
 73
     6
 74
     0
 42
0.000000001
 43
0.0000000001
 40
0.9159101366975177
 40
0.9159101366975177
 40
0.9159101366975177
 40
0.9159101366975177
 40
0.9411383415606353
 40
0.9699019253324296
 40
1.0
 40
1.0
 40
1.0
 40
1.0
 10
176.8302701944019
 20
272.3715271318889
 30
0.0
 10
176.8304714307001
 20
272.3711550855447
 30
0.0
 10
176.9691662419655
 20
272.1908490318174
 30
0.0
 10
177.6170756527727
 20
271.3503774512754
 30
0.0
 10
178.3232179095567
 20
270.3942798281449
 30
0.0
 10
178.7270988448959
 20
269.8328562084139
 30
0.0
  0
SPLINE
  5
18A51
330
A
100
AcDbEntity
  8
MODEL
100
AcDbSpline
210
0.0
220
0.0
230
1.0
 70
     8
 71
     3
 72
     9
 73
     5
 74
     0
 42
0.000000001
 43
0.0000000001
 40
0.0
 40
0.0
 40
0.0
 40
0.0
 40
0.0624170196719203
 40
0.0895127971817902
 40
0.0895127971817902
 40
0.0895127971817902
 40
0.0895127971817902
 10
176.535277309534
 20
267.8058766320476
 30
0.0
 10
175.7787668122752
 20
268.8586917082033
 30
0.0
 10
174.9119593194301
 20
269.9851782027955
 30
0.0
 10
174.7102541754921
 20
270.2498610176497
 30
0.0
 10
174.7106210437934
 20
270.2496759155782
 30
0.0
  0
SPLINE
  5
18A52
330
A
100
AcDbEntity
  8
MODEL
100
AcDbSpline
210
0.0
220
0.0
230
1.0
 70
     8
 71
     3
 72
    20
 73
    16
 74
     0
 42
0.000000001
 43
0.0000000001
 40
0.5893150109767078
 40
0.5893150109767078
 40
0.5893150109767078
 40
0.5893150109767078
 40
0.5927004379556077
 40
0.6236465131087035
 40
0.6865424412387845
 40
0.7186787522332243
 40
0.7507173960294004
 40
0.7854225046187064
 40
0.8130842857308568
 40
0.8429213276528434
 40
0.8730104957713576
 40
0.9040983046148395
 40
0.9358184801577998
 40
0.9679180648864264
 40
1.0
 40
1.0
 40
1.0
 40
1.0
 10
174.710645715026
 20
240.2496551215293
 30
0.0
 10
174.7106823290495
 20
240.2496705185443
 30
0.0
 10
174.7207790121757
 20
240.2625446957191
 30
0.0
 10
175.0290762457385
 20
240.6651520869144
 30
0.0
 10
176.3645787160419
 20
242.4146343647429
 30
0.0
 10
178.1151069931511
 20
244.9582241814363
 30
0.0
 10
179.5485122766611
 20
247.2988004949294
 30
0.0
 10
180.8295885402849
 20
249.8713543386471
 30
0.0
 10
181.7536524571156
 20
252.6954477864534
 30
0.0
 10
182.0513108691268
 20
255.6151559581543
 30
0.0
 10
181.5602239387731
 20
258.6057041844418
 30
0.0
 10
180.4994621432336
 20
261.3619062209642
 30
0.0
 10
179.1685928283264
 20
263.8506418669252
 30
0.0
 10
177.7823975631949
 20
266.0408744169779
 30
0.0
 10
176.9241186994842
 20
267.2647366491174
 30
0.0
 10
176.535277309534
 20
267.8058766320476
 30
0.0
  0
LINE
  5
18A53
330
A
100
AcDbEntity
  8
MODEL
100
AcDbLine
 10
216.8302158496853
 20
355.0217147918586
 30
0.0
 11
216.8302158496853
 21
422.4496352583588
 31
0.0
  0
LINE
  5
18A54
330
A
100
AcDbEntity
  8
MODEL
100
AcDbLine
 10
216.8302158496854
 20
238.0496352583587
 30
0.0
 11
216.8302158496853
 21
305.4775557248589
 31
0.0
  0
LINE
  5
18A55
330
A
100
AcDbEntity
  8
MODEL
100
AcDbLine
 10
176.8302158496854
 20
238.1416720140588
 30
0.0
 11
176.8302158496854
 21
238.0496352583587
 31
0.0
  0
LINE
  5
18A56
330
A
100
AcDbEntity
  8
MODEL
100
AcDbLine
 10
176.8302158496853
 20
388.1314164784588
 30
0.0
 11
176.8302158496854
 21
272.3569595597588
 31
0.0
  0
LINE
  5
18A57
330
A
100
AcDbEntity
  8
MODEL
100
AcDbLine
 10
176.8302158496853
 20
422.4496352583588
 30
0.0
 11
176.8302158496853
 21
422.3667826797586
 31
0.0
  0
SPLINE
  5
18A58
330
A
100
AcDbEntity
  8
MODEL
100
AcDbSpline
210
0.0
220
0.0
230
1.0
 70
     8
 71
     3
 72
    19
 73
    15
 74
     0
 42
0.000000001
 43
0.0000000001
 40
0.0
 40
0.0
 40
0.0
 40
0.0
 40
0.095981175933177
 40
0.1770493682341869
 40
0.2457531336219882
 40
0.3037897751186169
 40
0.3912177148338792
 40
0.4217424439216864
 40
0.4533153481955255
 40
0.5357931876936775
 40
0.6486783918663134
 40
0.744812264803238
 40
0.8609426907278983
 40
1.0
 40
1.0
 40
1.0
 40
1.0
 10
222.7561639109208
 20
347.2496352583589
 30
0.0
 10
222.3816771155554
 20
347.2610168553261
 30
0.0
 10
221.7999909091462
 20
347.285911761406
 30
0.0
 10
220.9396114077182
 20
347.4727313732788
 30
0.0
 10
220.2606789483756
 20
347.7254869874501
 30
0.0
 10
219.596182397671
 20
348.080838333335
 30
0.0
 10
219.0953571838464
 20
348.4630855358888
 30
0.0
 10
218.7013106678099
 20
348.8588317263726
 30
0.0
 10
218.3412320399231
 20
349.2750878008595
 30
0.0
 10
217.8555416639368
 20
350.0016198129968
 30
0.0
 10
217.4055867224699
 20
351.0369846609952
 30
0.0
 10
217.0761659496104
 20
352.2400675581142
 30
0.0
 10
216.8652108789714
 20
353.6026250880141
 30
0.0
 10
216.8402631115771
 20
354.510287875213
 30
0.0
 10
216.8301738250548
 20
355.0978332515427
 30
0.0
  0
SPLINE
  5
18A59
330
A
100
AcDbEntity
  8
MODEL
100
AcDbSpline
210
0.0
220
0.0
230
1.0
 70
     8
 71
     3
 72
    17
 73
    13
 74
     0
 42
0.000000001
 43
0.0000000001
 40
0.0
 40
0.0
 40
0.0
 40
0.0
 40
0.1700783827210657
 40
0.2993675504087704
 40
0.3947404547719169
 40
0.4626052614051261
 40
0.5420638879479183
 40
0.6534647350630935
 40
0.7218734714648468
 40
0.8004201299067833
 40
0.8917961677222834
 40
1.0
 40
1.0
 40
1.0
 40
1.0
 10
216.8301738250548
 20
305.4014372651753
 30
0.0
 10
216.8454083440208
 20
306.1163813136341
 30
0.0
 10
216.8821237347199
 20
307.175749647367
 30
0.0
 10
217.1724676964576
 20
308.6931681059801
 30
0.0
 10
217.5261890840995
 20
309.7561712142468
 30
0.0
 10
217.9282869692747
 20
310.5967793644571
 30
0.0
 10
218.4515420413869
 20
311.3999531185937
 30
0.0
 10
219.1106279781396
 20
312.0762471955955
 30
0.0
 10
219.881218885773
 20
312.5945100796133
 30
0.0
 10
220.6575438397317
 20
312.9471527997326
 30
0.0
 10
221.6498601716738
 20
313.2016655071518
 30
0.0
 10
222.323154814185
 20
313.2348541709524
 30
0.0
 10
222.7561639109196
 20
313.2496352583588
 30
0.0
  0
ARC
  5
18A5A
330
A
100
AcDbEntity
  8
MODEL
100
AcDbCircle
 10
218.4502140213854
 20
264.1962985574588
 30
0.0
 40
49.16987413759038
100
AcDbArc
 50
93.33255019370012
 51
94.28895224850014
  0
LINE
  5
18A5B
330
A
100
AcDbEntity
  8
MODEL
100
AcDbLine
 10
164.5248568776854
 20
390.2496140741587
 30
0.0
 11
174.7134662737853
 21
390.2496140741587
 31
0.0
  0
LINE
  5
18A5C
330
A
100
AcDbEntity
  8
MODEL
100
AcDbLine
 10
174.7129578981853
 20
420.2496140741587
 30
0.0
 11
164.5248568776854
 21
420.2496140741587
 31
0.0
  0
LINE
  5
18A5D
330
A
100
AcDbEntity
  8
MODEL
100
AcDbLine
 10
164.5248568776854
 20
240.2496598580588
 30
0.0
 11
174.7208447854854
 21
240.2496598580588
 31
0.0
  0
LINE
  5
18A5E
330
A
100
AcDbEntity
  8
MODEL
100
AcDbLine
 10
174.7213389057854
 20
270.2496598580588
 30
0.0
 11
164.5248568776854
 21
270.2496598580588
 31
0.0
  0
ARC
  5
18A5F
330
A
100
AcDbEntity
  8
MODEL
100
AcDbCircle
 10
216.5302158496854
 20
238.0496352583587
 30
0.0
 40
0.2999999999999947
100
AcDbArc
 50
270.0
 51
0.0
  0
ARC
  5
18A60
330
A
100
AcDbEntity
  8
MODEL
100
AcDbCircle
 10
177.1302158496853
 20
238.0496352583587
 30
0.0
 40
0.3000000000000017
100
AcDbArc
 50
180.0
 51
270.0
  0
ARC
  5
18A61
330
A
100
AcDbEntity
  8
MODEL
100
AcDbCircle
 10
177.1302158496853
 20
422.4496352583588
 30
0.0
 40
0.2999999999999947
100
AcDbArc
 50
90.0
 51
180.0
  0
ARC
  5
18A62
330
A
100
AcDbEntity
  8
MODEL
100
AcDbCircle
 10
216.5302158496853
 20
422.4496352583588
 30
0.0
 40
0.3000000000000017
100
AcDbArc
 50
0.0
 51
90.0
  0
ARC
  5
18A63
330
A
100
AcDbEntity
  8
MODEL
100
AcDbCircle
 10
164.5248568776854
 20
419.7496140741587
 30
0.0
 40
0.5000000000000005
100
AcDbArc
 50
90.0
 51
180.0
  0
ARC
  5
18A64
330
A
100
AcDbEntity
  8
MODEL
100
AcDbCircle
 10
164.5248568776854
 20
390.7496140741587
 30
0.0
 40
0.5000000000000005
100
AcDbArc
 50
180.0
 51
270.0
  0
ARC
  5
18A65
330
A
100
AcDbEntity
  8
MODEL
100
AcDbCircle
 10
164.5248568776854
 20
269.7496598580588
 30
0.0
 40
0.5000000000000005
100
AcDbArc
 50
90.0
 51
180.0
  0
ARC
  5
18A66
330
A
100
AcDbEntity
  8
MODEL
100
AcDbCircle
 10
164.5248568776854
 20
240.7496598580588
 30
0.0
 40
0.5000000000000005
100
AcDbArc
 50
180.0
 51
270.0
  0
ARC
  5
18A67
330
A
100
AcDbEntity
  8
MODEL
100
AcDbCircle
 10
174.7088901212853
 20
388.1282874780587
 30
0.0
 40
2.12132423041156
100
AcDbArc
 50
0.0000970134003813
 51
89.99988896049949
  0
ARC
  5
18A68
330
A
100
AcDbEntity
  8
MODEL
100
AcDbCircle
 10
174.7088898031853
 20
422.3709405720588
 30
0.0
 40
2.121327964942337
100
AcDbArc
 50
270.0002089467
 51
359.9997983823972
  0
ARC
  5
18A69
330
A
100
AcDbEntity
  8
MODEL
100
AcDbCircle
 10
174.7033353977854
 20
238.1225167667588
 30
0.0
 40
2.129775663104278
100
AcDbArc
 50
0.223358396500196
 51
89.77095372199864
  0
ARC
  5
18A6A
330
A
100
AcDbEntity
  8
MODEL
100
AcDbCircle
 10
174.7032655002854
 20
272.3769106316589
 30
0.0
 40
2.129675103783268
100
AcDbArc
 50
270.2264727957993
 51
359.7794658800956
  0
LINE
  5
18A6B
330
A
100
AcDbEntity
  8
MODEL
100
AcDbLine
 10
179.0302158496854
 20
237.7496352583588
 30
0.0
 11
179.0302158496854
 21
237.0296352583587
 31
0.0
  0
LINE
  5
18A6C
330
A
100
AcDbEntity
  8
MODEL
100
AcDbLine
 10
214.6302158496853
 20
237.0296352583587
 30
0.0
 11
214.6302158496853
 21
237.7496352583588
 31
0.0
  0
LINE
  5
18A6D
330
A
100
AcDbEntity
  8
MODEL
100
AcDbLine
 10
179.0611675751853
 20
422.7496352583588
 30
0.0
 11
179.0611675751853
 21
423.4496352583589
 31
0.0
  0
LINE
  5
18A6E
330
A
100
AcDbEntity
  8
MODEL
100
AcDbLine
 10
185.4565768969853
 20
422.7496352583588
 30
0.0
 11
185.4565768969853
 21
423.4496352583589
 31
0.0
  0
LINE
  5
18A6F
330
A
100
AcDbEntity
  8
MODEL
100
AcDbLine
 10
203.2256251714854
 20
422.7496352583588
 30
0.0
 11
203.2256251714854
 21
423.4496352583589
 31
0.0
  0
LINE
  5
18A70
330
A
100
AcDbEntity
  8
MODEL
100
AcDbLine
 10
214.5992641241853
 20
422.7496352583588
 30
0.0
 11
214.5992641241853
 21
423.4496352583589
 31
0.0
  0
LINE
  5
18A71
330
A
100
AcDbEntity
  8
MODEL
100
AcDbLine
 10
212.2895852572854
 20
423.4496352583589
 30
0.0
 11
212.2895852572854
 21
422.7496352583588
 31
0.0
  0
LINE
  5
18A72
330
A
100
AcDbEntity
  8
MODEL
100
AcDbLine
 10
196.5751699292854
 20
423.4496352583589
 30
0.0
 11
196.5751699292854
 21
422.7496352583588
 31
0.0
  0
LINE
  5
18A73
330
A
100
AcDbEntity
  8
MODEL
100
AcDbLine
 10
181.1158005217853
 20
423.4496352583589
 30
0.0
 11
181.1158005217853
 21
422.7496352583588
 31
0.0
  0
LINE
  5
18A74
330
A
100
AcDbEntity
  8
MODEL
100
AcDbLine
 10
163.3248568776854
 20
265.6996564536587
 30
0.0
 11
163.3248568776854
 21
244.7996564536587
 31
0.0
  0
LINE
  5
18A75
330
A
100
AcDbEntity
  8
MODEL
100
AcDbLine
 10
164.0248568776854
 20
265.6996564536587
 30
0.0
 11
163.3248568776854
 21
265.6996564536587
 31
0.0
  0
LINE
  5
18A76
330
A
100
AcDbEntity
  8
MODEL
100
AcDbLine
 10
163.3248568776854
 20
244.7996564536587
 30
0.0
 11
164.0248568776854
 21
244.7996564536587
 31
0.0
  0
LINE
  5
18A77
330
A
100
AcDbEntity
  8
MODEL
100
AcDbLine
 10
163.3248568776854
 20
265.6996564536587
 30
0.0
 11
163.2248568776854
 21
265.6162060788589
 31
0.0
  0
LINE
  5
18A78
330
A
100
AcDbEntity
  8
MODEL
100
AcDbLine
 10
163.2248568776854
 20
244.8831068284588
 30
0.0
 11
163.3248568776854
 21
244.7996564536587
 31
0.0
  0
LINE
  5
18A79
330
A
100
AcDbEntity
  8
MODEL
100
AcDbLine
 10
163.3248568776853
 20
415.6996140741587
 30
0.0
 11
163.3248568776853
 21
394.7996140741587
 31
0.0
  0
LINE
  5
18A7A
330
A
100
AcDbEntity
  8
MODEL
100
AcDbLine
 10
164.0248568776854
 20
415.6996140741587
 30
0.0
 11
163.3248568776853
 21
415.6996140741587
 31
0.0
  0
LINE
  5
18A7B
330
A
100
AcDbEntity
  8
MODEL
100
AcDbLine
 10
163.3248568776853
 20
394.7996140741587
 30
0.0
 11
164.0248568776854
 21
394.7996140741587
 31
0.0
  0
LINE
  5
18A7C
330
A
100
AcDbEntity
  8
MODEL
100
AcDbLine
 10
163.3248568776853
 20
415.6996140741587
 30
0.0
 11
163.2248568776853
 21
415.6161636993586
 31
0.0
  0
LINE
  5
18A7D
330
A
100
AcDbEntity
  8
MODEL
100
AcDbLine
 10
163.2248568776853
 20
394.8830644489588
 30
0.0
 11
163.3248568776853
 21
394.7996140741587
 31
0.0
  0
LINE
  5
18A7E
330
A
100
AcDbEntity
  8
MODEL
100
AcDbLine
 10
159.7248568776854
 20
242.3369976799588
 30
0.0
 11
159.7248568776854
 21
240.2496564536587
 31
0.0
  0
LINE
  5
18A7F
330
A
100
AcDbEntity
  8
MODEL
100
AcDbLine
 10
163.2248568776854
 20
269.7496564536587
 30
0.0
 11
163.2248568776854
 21
240.7496564536587
 31
0.0
  0
LINE
  5
18A80
330
A
100
AcDbEntity
  8
MODEL
100
AcDbLine
 10
146.2248568776854
 20
269.7496564536586
 30
0.0
 11
146.2248568776854
 21
240.7496564536587
 31
0.0
  0
LINE
  5
18A81
330
A
100
AcDbEntity
  8
MODEL
100
AcDbLine
 10
149.7248568776854
 20
242.3369976799588
 30
0.0
 11
149.7248568776854
 21
240.2496564536587
 31
0.0
  0
LINE
  5
18A82
330
A
100
AcDbEntity
  8
MODEL
100
AcDbLine
 10
149.7248568776854
 20
270.2496564536586
 30
0.0
 11
149.7248568776854
 21
268.1623152272587
 31
0.0
  0
LINE
  5
18A83
330
A
100
AcDbEntity
  8
MODEL
100
AcDbLine
 10
149.7248568776854
 20
257.3369976799589
 30
0.0
 11
149.7248568776854
 21
253.1623152272587
 31
0.0
  0
ARC
  5
18A84
330
A
100
AcDbEntity
  8
MODEL
100
AcDbCircle
 10
153.5034163968854
 20
247.7496564536587
 30
0.0
 40
6.601089837288617
100
AcDbArc
 50
124.9187681794986
 51
235.0812318204991
  0
ARC
  5
18A85
330
A
100
AcDbEntity
  8
MODEL
100
AcDbCircle
 10
153.5034163968854
 20
262.7496564536587
 30
0.0
 40
6.601089837288617
100
AcDbArc
 50
124.9187681794987
 51
235.0812318204991
  0
LINE
  5
18A86
330
A
100
AcDbEntity
  8
MODEL
100
AcDbLine
 10
149.7248568776854
 20
270.2496564536586
 30
0.0
 11
146.9291281485854
 21
270.2496564536586
 31
0.0
  0
LINE
  5
18A87
330
A
100
AcDbEntity
  8
MODEL
100
AcDbLine
 10
149.7248568776854
 20
240.2496564536587
 30
0.0
 11
146.9291281485854
 21
240.2496564536587
 31
0.0
  0
LINE
  5
18A88
330
A
100
AcDbEntity
  8
MODEL
100
AcDbLine
 10
159.7248568776854
 20
270.2496564536587
 30
0.0
 11
159.7248568776854
 21
268.1623152272587
 31
0.0
  0
LINE
  5
18A89
330
A
100
AcDbEntity
  8
MODEL
100
AcDbLine
 10
159.7248568776854
 20
257.3369976799589
 30
0.0
 11
159.7248568776854
 21
253.1623152272587
 31
0.0
  0
LINE
  5
18A8A
330
A
100
AcDbEntity
  8
MODEL
100
AcDbLine
 10
149.7248568776854
 20
240.2496564536587
 30
0.0
 11
159.7248568776854
 21
240.2496564536587
 31
0.0
  0
LINE
  5
18A8B
330
A
100
AcDbEntity
  8
MODEL
100
AcDbLine
 10
162.5205856067854
 20
240.2496564536587
 30
0.0
 11
159.7248568776854
 21
240.2496564536587
 31
0.0
  0
LINE
  5
18A8C
330
A
100
AcDbEntity
  8
MODEL
100
AcDbLine
 10
159.7248568776854
 20
270.2496564536587
 30
0.0
 11
162.5205856067854
 21
270.2496564536587
 31
0.0
  0
LINE
  5
18A8D
330
A
100
AcDbEntity
  8
MODEL
100
AcDbLine
 10
159.7248568776854
 20
270.2496564536587
 30
0.0
 11
149.7248568776854
 21
270.2496564536586
 31
0.0
  0
LINE
  5
18A8E
330
A
100
AcDbEntity
  8
MODEL
100
AcDbLine
 10
149.7248568776854
 20
268.1623152272587
 30
0.0
 11
159.7248568776854
 21
268.1623152272587
 31
0.0
  0
ARC
  5
18A8F
330
A
100
AcDbEntity
  8
MODEL
100
AcDbCircle
 10
155.9462973584854
 20
262.7496564536587
 30
0.0
 40
6.601089837288617
100
AcDbArc
 50
304.9187681796008
 51
55.08123182040055
  0
LINE
  5
18A90
330
A
100
AcDbEntity
  8
MODEL
100
AcDbLine
 10
159.7248568776854
 20
257.3369976799589
 30
0.0
 11
149.7248568776854
 21
257.3369976799589
 31
0.0
  0
LINE
  5
18A91
330
A
100
AcDbEntity
  8
MODEL
100
AcDbLine
 10
149.7248568776854
 20
253.1623152272587
 30
0.0
 11
159.7248568776854
 21
253.1623152272587
 31
0.0
  0
ARC
  5
18A92
330
A
100
AcDbEntity
  8
MODEL
100
AcDbCircle
 10
155.9462973584854
 20
247.7496564536587
 30
0.0
 40
6.60108983728861
100
AcDbArc
 50
304.9187681796008
 51
55.08123182040027
  0
LINE
  5
18A93
330
A
100
AcDbEntity
  8
MODEL
100
AcDbLine
 10
159.7248568776854
 20
242.3369976799588
 30
0.0
 11
149.7248568776854
 21
242.3369976799588
 31
0.0
  0
ARC
  5
18A94
330
A
100
AcDbEntity
  8
MODEL
100
AcDbCircle
 10
157.0891556794854
 20
261.8532540572588
 30
0.0
 40
10.0
100
AcDbArc
 50
52.15190403220044
 51
57.10671649509922
  0
ARC
  5
18A95
330
A
100
AcDbEntity
  8
MODEL
100
AcDbCircle
 10
157.0891556794854
 20
248.6460588500589
 30
0.0
 40
9.999999999999996
100
AcDbArc
 50
302.8951749126997
 51
307.8480959677995
  0
ARC
  5
18A96
330
A
100
AcDbEntity
  8
MODEL
100
AcDbCircle
 10
152.3605580758854
 20
261.8532540572588
 30
0.0
 40
9.999999999999991
100
AcDbArc
 50
122.8951749126996
 51
127.8480959677998
  0
ARC
  5
18A97
330
A
100
AcDbEntity
  8
MODEL
100
AcDbCircle
 10
152.3605580758854
 20
248.6460588500589
 30
0.0
 40
10.0
100
AcDbArc
 50
232.1519040322005
 51
237.1067164950999
  0
LINE
  5
18A98
330
A
100
AcDbEntity
  8
MODEL
100
AcDbLine
 10
159.7248568776853
 20
392.3369553005587
 30
0.0
 11
159.7248568776853
 21
390.2496140741587
 31
0.0
  0
LINE
  5
18A99
330
A
100
AcDbEntity
  8
MODEL
100
AcDbLine
 10
163.2248568776853
 20
419.7496140741587
 30
0.0
 11
163.2248568776853
 21
390.7496140741587
 31
0.0
  0
LINE
  5
18A9A
330
A
100
AcDbEntity
  8
MODEL
100
AcDbLine
 10
146.2248568776853
 20
419.7496140741587
 30
0.0
 11
146.2248568776853
 21
390.7496140741587
 31
0.0
  0
LINE
  5
18A9B
330
A
100
AcDbEntity
  8
MODEL
100
AcDbLine
 10
149.7248568776853
 20
392.3369553005587
 30
0.0
 11
149.7248568776853
 21
390.2496140741587
 31
0.0
  0
LINE
  5
18A9C
330
A
100
AcDbEntity
  8
MODEL
100
AcDbLine
 10
149.7248568776853
 20
420.2496140741587
 30
0.0
 11
149.7248568776853
 21
418.1622728478587
 31
0.0
  0
LINE
  5
18A9D
330
A
100
AcDbEntity
  8
MODEL
100
AcDbLine
 10
149.7248568776853
 20
407.3369553005587
 30
0.0
 11
149.7248568776853
 21
403.1622728478588
 31
0.0
  0
ARC
  5
18A9E
330
A
100
AcDbEntity
  8
MODEL
100
AcDbCircle
 10
153.5034163968853
 20
397.7496140741587
 30
0.0
 40
6.601089837288621
100
AcDbArc
 50
124.9187681794984
 51
235.0812318204991
  0
ARC
  5
18A9F
330
A
100
AcDbEntity
  8
MODEL
100
AcDbCircle
 10
153.5034163968853
 20
412.7496140741587
 30
0.0
 40
6.601089837288617
100
AcDbArc
 50
124.9187681794984
 51
235.0812318204991
  0
LINE
  5
18AA0
330
A
100
AcDbEntity
  8
MODEL
100
AcDbLine
 10
149.7248568776853
 20
420.2496140741587
 30
0.0
 11
146.9291281485854
 21
420.2496140741587
 31
0.0
  0
LINE
  5
18AA1
330
A
100
AcDbEntity
  8
MODEL
100
AcDbLine
 10
149.7248568776853
 20
390.2496140741587
 30
0.0
 11
146.9291281485854
 21
390.2496140741587
 31
0.0
  0
LINE
  5
18AA2
330
A
100
AcDbEntity
  8
MODEL
100
AcDbLine
 10
159.7248568776853
 20
420.2496140741587
 30
0.0
 11
159.7248568776853
 21
418.1622728478587
 31
0.0
  0
LINE
  5
18AA3
330
A
100
AcDbEntity
  8
MODEL
100
AcDbLine
 10
159.7248568776853
 20
407.3369553005587
 30
0.0
 11
159.7248568776853
 21
403.1622728478588
 31
0.0
  0
LINE
  5
18AA4
330
A
100
AcDbEntity
  8
MODEL
100
AcDbLine
 10
149.7248568776853
 20
390.2496140741587
 30
0.0
 11
159.7248568776853
 21
390.2496140741587
 31
0.0
  0
LINE
  5
18AA5
330
A
100
AcDbEntity
  8
MODEL
100
AcDbLine
 10
159.7248568776853
 20
390.2496140741587
 30
0.0
 11
162.5205856067853
 21
390.2496140741587
 31
0.0
  0
LINE
  5
18AA6
330
A
100
AcDbEntity
  8
MODEL
100
AcDbLine
 10
159.7248568776853
 20
420.2496140741587
 30
0.0
 11
162.5205856067853
 21
420.2496140741587
 31
0.0
  0
LINE
  5
18AA7
330
A
100
AcDbEntity
  8
MODEL
100
AcDbLine
 10
159.7248568776853
 20
420.2496140741587
 30
0.0
 11
149.7248568776853
 21
420.2496140741587
 31
0.0
  0
LINE
  5
18AA8
330
A
100
AcDbEntity
  8
MODEL
100
AcDbLine
 10
149.7248568776853
 20
418.1622728478587
 30
0.0
 11
159.7248568776853
 21
418.1622728478587
 31
0.0
  0
ARC
  5
18AA9
330
A
100
AcDbEntity
  8
MODEL
100
AcDbCircle
 10
155.9462973584854
 20
412.7496140741587
 30
0.0
 40
6.601089837288602
100
AcDbArc
 50
304.9187681794998
 51
55.08123182039918
  0
LINE
  5
18AAA
330
A
100
AcDbEntity
  8
MODEL
100
AcDbLine
 10
159.7248568776853
 20
407.3369553005587
 30
0.0
 11
149.7248568776853
 21
407.3369553005587
 31
0.0
  0
LINE
  5
18AAB
330
A
100
AcDbEntity
  8
MODEL
100
AcDbLine
 10
149.7248568776853
 20
403.1622728478588
 30
0.0
 11
159.7248568776853
 21
403.1622728478588
 31
0.0
  0
ARC
  5
18AAC
330
A
100
AcDbEntity
  8
MODEL
100
AcDbCircle
 10
155.9462973584854
 20
397.7496140741587
 30
0.0
 40
6.601089837288613
100
AcDbArc
 50
304.9187681796008
 51
55.08123182040164
  0
LINE
  5
18AAD
330
A
100
AcDbEntity
  8
MODEL
100
AcDbLine
 10
159.7248568776853
 20
392.3369553005587
 30
0.0
 11
149.7248568776853
 21
392.3369553005587
 31
0.0
  0
ARC
  5
18AAE
330
A
100
AcDbEntity
  8
MODEL
100
AcDbCircle
 10
157.0891556794853
 20
411.8532116777587
 30
0.0
 40
10.0
100
AcDbArc
 50
52.15190403220044
 51
57.10671649509922
  0
ARC
  5
18AAF
330
A
100
AcDbEntity
  8
MODEL
100
AcDbCircle
 10
157.0891556794853
 20
398.6460164705587
 30
0.0
 40
9.999999999999991
100
AcDbArc
 50
302.8951749126997
 51
307.8480959678005
  0
ARC
  5
18AB0
330
A
100
AcDbEntity
  8
MODEL
100
AcDbCircle
 10
152.3605580758853
 20
411.8532116777587
 30
0.0
 40
9.999999999999991
100
AcDbArc
 50
122.8951749126996
 51
127.8480959677995
  0
ARC
  5
18AB1
330
A
100
AcDbEntity
  8
MODEL
100
AcDbCircle
 10
152.3605580758853
 20
398.6460164705587
 30
0.0
 40
10.0
100
AcDbArc
 50
232.1519040321997
 51
237.1067164950992
  0
LINE
  5
18AB2
330
A
100
AcDbEntity
  8
MODEL
100
AcDbLine
 10
145.7070263775853
 20
391.2496140741587
 30
0.0
 11
146.2248568776853
 21
391.2496140741587
 31
0.0
  0
LINE
  5
18AB3
330
A
100
AcDbEntity
  8
MODEL
100
AcDbLine
 10
146.2248568776853
 20
419.2496140741587
 30
0.0
 11
145.7070263775853
 21
419.2496140741587
 31
0.0
  0
LINE
  5
18AB4
330
A
100
AcDbEntity
  8
MODEL
100
AcDbLine
 10
145.7070263775854
 20
241.2496564536587
 30
0.0
 11
146.2248568776854
 21
241.2496564536587
 31
0.0
  0
LINE
  5
18AB5
330
A
100
AcDbEntity
  8
MODEL
100
AcDbLine
 10
146.2248568776854
 20
269.2496564536586
 30
0.0
 11
145.7070263775854
 21
269.2496564536586
 31
0.0
  0
LINE
  5
18AB6
330
A
100
AcDbEntity
  8
MODEL
100
AcDbLine
 10
177.3302158496854
 20
237.0296352583587
 30
0.0
 11
216.3302158496854
 21
237.0296352583587
 31
0.0
  0
ARC
  5
18AB7
330
A
100
AcDbEntity
  8
MODEL
100
AcDbCircle
 10
236.5534424236854
 20
233.0080387213588
 30
0.0
 40
19.79747237389135
100
AcDbArc
 50
175.0363114587001
 51
179.9420272581
  0
ARC
  5
18AB8
330
A
100
AcDbEntity
  8
MODEL
100
AcDbCircle
 10
236.5534424323854
 20
233.0481014827588
 30
0.0
 40
19.79747238253916
100
AcDbArc
 50
180.0579727430002
 51
184.9636885403003
  0
LINE
  5
18AB9
330
A
100
AcDbEntity
  8
MODEL
100
AcDbLine
 10
177.8302158496854
 20
181.0296352583587
 30
0.0
 11
215.8302158496854
 21
181.0296352583587
 31
0.0
  0
LINE
  5
18ABA
330
A
100
AcDbEntity
  8
MODEL
100
AcDbLine
 10
175.3302158496854
 20
189.5296352583587
 30
0.0
 11
175.3302158496854
 21
228.5296352583587
 31
0.0
  0
LINE
  5
18ABB
330
A
100
AcDbEntity
  8
MODEL
100
AcDbLine
 10
175.3302158496854
 20
228.5296352583587
 30
0.0
 11
175.3302158496854
 21
230.0296352583587
 31
0.0
  0
LINE
  5
18ABC
330
A
100
AcDbEntity
  8
MODEL
100
AcDbLine
 10
175.3302158496854
 20
189.5296352583587
 30
0.0
 11
175.3302158496854
 21
188.0296352583587
 31
0.0
  0
ARC
  5
18ABD
330
A
100
AcDbEntity
  8
MODEL
100
AcDbCircle
 10
216.3310629803854
 20
196.5301188971587
 30
0.0
 40
0.4992122882531544
100
AcDbArc
 50
359.9437283161001
 51
22.88515296681198
  0
ARC
  5
18ABE
330
A
100
AcDbEntity
  8
MODEL
100
AcDbCircle
 10
216.3310628415854
 20
217.5290851760588
 30
0.0
 40
0.4992126264044096
100
AcDbArc
 50
337.1148569375886
 51
0.056296633492644
  0
ARC
  5
18ABF
330
A
100
AcDbEntity
  8
MODEL
100
AcDbCircle
 10
233.3890497443854
 20
208.2289818744587
 30
0.0
 40
18.93178245458096
100
AcDbArc
 50
151.2519025665
 51
152.9233446639
  0
ARC
  5
18AC0
330
A
100
AcDbEntity
  8
MODEL
100
AcDbCircle
 10
232.6997772442853
 20
207.0084794484588
 30
0.0
 40
18.92549478653933
100
AcDbArc
 50
148.6796043311999
 51
212.1647730732998
  0
ARC
  5
18AC1
330
A
100
AcDbEntity
  8
MODEL
100
AcDbCircle
 10
223.5926492993854
 20
200.5045756343588
 30
0.0
 40
7.781555017185337
100
AcDbArc
 50
207.3181354001004
 51
209.0593612446012
  0
ARC
  5
18AC2
330
A
100
AcDbEntity
  8
MODEL
100
AcDbCircle
 10
348.3063248012854
 20
147.2576078609587
 30
0.0
 40
149.0205926590441
100
AcDbArc
 50
151.9490461134
 51
151.9499597283
  0
LINE
  5
18AC3
330
A
100
AcDbEntity
  8
MODEL
100
AcDbLine
 10
216.7912178727854
 20
196.7236855340587
 30
0.0
 11
216.7424268287854
 21
196.8157393487588
 31
0.0
  0
LINE
  5
18AC4
330
A
100
AcDbEntity
  8
MODEL
100
AcDbLine
 10
176.8302158496854
 20
187.0611385216587
 30
0.0
 11
176.8302158496854
 21
182.0296352583587
 31
0.0
  0
LINE
  5
18AC5
330
A
100
AcDbEntity
  8
MODEL
100
AcDbLine
 10
176.8302158496854
 20
236.5296352583587
 30
0.0
 11
176.8302158496854
 21
230.9981319950586
 31
0.0
  0
LINE
  5
18AC6
330
A
100
AcDbEntity
  8
MODEL
100
AcDbLine
 10
216.8302158496854
 20
234.7206709179588
 30
0.0
 11
216.8302158496854
 21
236.5296352583587
 31
0.0
  0
LINE
  5
18AC7
330
A
100
AcDbEntity
  8
MODEL
100
AcDbLine
 10
216.8302158496854
 20
217.5281836664588
 30
0.0
 11
216.8302158496854
 21
231.3354694202588
 31
0.0
  0
LINE
  5
18AC8
330
A
100
AcDbEntity
  8
MODEL
100
AcDbLine
 10
216.8302158496854
 20
182.0296352583587
 30
0.0
 11
216.8302158496854
 21
196.5310189654586
 31
0.0
  0
ARC
  5
18AC9
330
A
100
AcDbEntity
  8
MODEL
100
AcDbCircle
 10
216.3300363360854
 20
234.7210158262588
 30
0.0
 40
0.5001795137226682
100
AcDbArc
 50
350.6530330114965
 51
359.9985068307987
  0
ARC
  5
18ACA
330
A
100
AcDbEntity
  8
MODEL
100
AcDbCircle
 10
216.3300363521854
 20
231.3351243773588
 30
0.0
 40
0.5001794976366823
100
AcDbArc
 50
0.0014931725963056
 51
9.346967140894022
  0
ARC
  5
18ACB
330
A
100
AcDbEntity
  8
MODEL
100
AcDbCircle
 10
177.3302158496854
 20
236.5296352583587
 30
0.0
 40
0.5000000000000005
100
AcDbArc
 50
90.0
 51
180.0
  0
ARC
  5
18ACC
330
A
100
AcDbEntity
  8
MODEL
100
AcDbCircle
 10
216.3302158496854
 20
236.5296352583587
 30
0.0
 40
0.4999999999998443
100
AcDbArc
 50
0.0
 51
90.0
  0
ARC
  5
18ACD
330
A
100
AcDbEntity
  8
MODEL
100
AcDbCircle
 10
215.8302158496854
 20
182.0296352583587
 30
0.0
 40
0.9999999999997232
100
AcDbArc
 50
270.0
 51
0.0
  0
ARC
  5
18ACE
330
A
100
AcDbEntity
  8
MODEL
100
AcDbCircle
 10
177.8302158496854
 20
182.0296352583587
 30
0.0
 40
0.9999999999994978
100
AcDbArc
 50
180.0
 51
270.0
  0
LINE
  5
18ACF
330
A
100
AcDbEntity
  8
MODEL
100
AcDbLine
 10
175.8302158496854
 20
187.5296352583587
 30
0.0
 11
176.3340104372853
 21
187.5296352583587
 31
0.0
  0
LINE
  5
18AD0
330
A
100
AcDbEntity
  8
MODEL
100
AcDbLine
 10
176.3340104372853
 20
230.5296352583587
 30
0.0
 11
175.8302158496854
 21
230.5296352583587
 31
0.0
  0
ARC
  5
18AD1
330
A
100
AcDbEntity
  8
MODEL
100
AcDbCircle
 10
175.8302158496854
 20
230.0296352583587
 30
0.0
 40
0.5000000000000005
100
AcDbArc
 50
90.0
 51
180.0
  0
ARC
  5
18AD2
330
A
100
AcDbEntity
  8
MODEL
100
AcDbCircle
 10
175.8302158496854
 20
188.0296352583587
 30
0.0
 40
0.499999999999997
100
AcDbArc
 50
180.0
 51
270.0
  0
SPLINE
  5
18AD3
330
A
100
AcDbEntity
  8
MODEL
100
AcDbSpline
210
0.0
220
0.0
230
1.0
 70
     8
 71
     3
 72
    14
 73
    10
 74
     0
 42
0.000000001
 43
0.0000000001
 40
0.0
 40
0.0
 40
0.0
 40
0.0
 40
0.0741596540315211
 40
0.3245313959981898
 40
0.5205151317636173
 40
0.6839386834386035
 40
0.8217727715276074
 40
0.9344728016491643
 40
1.0
 40
1.0
 40
1.0
 40
1.0
 10
176.3358617560359
 20
187.5228654371005
 30
0.0
 10
176.3560660541223
 20
187.5249028090164
 30
0.0
 10
176.4322349408006
 20
187.5319728713603
 30
0.0
 10
176.562727522426
 20
187.4813713275242
 30
0.0
 10
176.6845137152608
 20
187.3915549221915
 30
0.0
 10
176.7611717824714
 20
187.2917282810279
 30
0.0
 10
176.8040445717529
 20
187.1982280995925
 30
0.0
 10
176.8242084130587
 20
187.1197220540193
 30
0.0
 10
176.8273583636529
 20
187.0783530342939
 30
0.0
 10
176.8285717282653
 20
187.0604522272355
 30
0.0
  0
SPLINE
  5
18AD4
330
A
100
AcDbEntity
  8
MODEL
100
AcDbSpline
210
0.0
220
0.0
230
1.0
 70
     8
 71
     3
 72
    13
 73
     9
 74
     0
 42
0.000000001
 43
0.0000000001
 40
0.0
 40
0.0
 40
0.0
 40
0.0
 40
0.0415863801566611
 40
0.2256565943275885
 40
0.410629025912537
 40
0.6406656665701135
 40
0.8799474875604872
 40
1.0
 40
1.0
 40
1.0
 40
1.0
 10
176.8285875881697
 20
230.998679818224
 30
0.0
 10
176.8279997225366
 20
230.9873014658944
 30
0.0
 10
176.8249339293559
 20
230.934415461778
 30
0.0
 10
176.7961070780486
 20
230.8313272801059
 30
0.0
 10
176.71923527603
 20
230.7022370501215
 30
0.0
 10
176.5950762361645
 20
230.59463699587
 30
0.0
 10
176.4518258130679
 20
230.5318559096038
 30
0.0
 10
176.3671124131754
 20
230.5367518525575
 30
0.0
 10
176.334302965111
 20
230.5391098552969
 30
0.0
  0
LINE
  5
18AD5
330
A
100
AcDbEntity
  8
MODEL
100
AcDbLine
 10
216.8702158496853
 20
197.9561220837588
 30
0.0
 11
216.8702158496853
 21
215.9296352583587
 31
0.0
  0
ARC
  5
18AD6
330
A
100
AcDbEntity
  8
MODEL
100
AcDbCircle
 10
216.3784636734854
 20
197.9250549238588
 30
0.0
 40
0.4909383578082435
100
AcDbArc
 50
268.044506469891
 51
3.560051192099138
  0
ARC
  5
18AD7
330
A
100
AcDbEntity
  8
MODEL
100
AcDbCircle
 10
216.3728585717854
 20
215.9351952708587
 30
0.0
 40
0.4929261731049502
100
AcDbArc
 50
26.27052590230295
 51
106.6764998679047
  0
LINE
  5
18AD8
330
A
100
AcDbEntity
  8
MODEL
100
AcDbLine
 10
216.3302158496853
 20
423.4496352583589
 30
0.0
 11
177.3302158496853
 21
423.4496352583589
 31
0.0
  0
ARC
  5
18AD9
330
A
100
AcDbEntity
  8
MODEL
100
AcDbCircle
 10
236.5534424236853
 20
427.4712317953587
 30
0.0
 40
19.79747237389145
100
AcDbArc
 50
180.0579727419
 51
184.9636885413001
  0
ARC
  5
18ADA
330
A
100
AcDbEntity
  8
MODEL
100
AcDbCircle
 10
236.5534424323854
 20
427.4311690339586
 30
0.0
 40
19.79747238253873
100
AcDbArc
 50
175.0363114596996
 51
179.9420272570001
  0
LINE
  5
18ADB
330
A
100
AcDbEntity
  8
MODEL
100
AcDbLine
 10
215.8302158496854
 20
479.4496352583588
 30
0.0
 11
177.8302158496854
 21
479.4496352583588
 31
0.0
  0
LINE
  5
18ADC
330
A
100
AcDbEntity
  8
MODEL
100
AcDbLine
 10
175.3302158496853
 20
431.9496352583588
 30
0.0
 11
175.3302158496853
 21
430.4496352583588
 31
0.0
  0
LINE
  5
18ADD
330
A
100
AcDbEntity
  8
MODEL
100
AcDbLine
 10
175.3302158496853
 20
431.9496352583588
 30
0.0
 11
175.3302158496854
 21
470.9496352583588
 31
0.0
  0
LINE
  5
18ADE
330
A
100
AcDbEntity
  8
MODEL
100
AcDbLine
 10
175.3302158496854
 20
470.9496352583588
 30
0.0
 11
175.3302158496854
 21
472.4496352583588
 31
0.0
  0
ARC
  5
18ADF
330
A
100
AcDbEntity
  8
MODEL
100
AcDbCircle
 10
216.3310628415853
 20
442.9501853406587
 30
0.0
 40
0.4992126264033711
100
AcDbArc
 50
359.9437033664029
 51
22.88514306239055
  0
ARC
  5
18AE0
330
A
100
AcDbEntity
  8
MODEL
100
AcDbCircle
 10
233.4846636904853
 20
454.5988464216587
 30
0.0
 40
19.03975719144607
100
AcDbArc
 50
152.5254579793998
 51
152.9198321330997
  0
ARC
  5
18AE1
330
A
100
AcDbEntity
  8
MODEL
100
AcDbCircle
 10
223.5453230815853
 20
446.8997037855586
 30
0.0
 40
7.728072824241941
100
AcDbArc
 50
209.0681079385987
 51
209.0694879837984
  0
ARC
  5
18AE2
330
A
100
AcDbEntity
  8
MODEL
100
AcDbCircle
 10
347.0353797265853
 20
394.3531435442588
 30
0.0
 40
147.5813015751373
100
AcDbArc
 50
151.9484472919
 51
152.1637099794
  0
ARC
  5
18AE3
330
A
100
AcDbEntity
  8
MODEL
100
AcDbCircle
 10
232.7677437431853
 20
453.4207409585587
 30
0.0
 40
18.98798719980542
100
AcDbArc
 50
148.7691901175003
 51
212.4381231848
  0
ARC
  5
18AE4
330
A
100
AcDbEntity
  8
MODEL
100
AcDbCircle
 10
216.3310629803854
 20
463.9491516195588
 30
0.0
 40
0.4992122882526819
100
AcDbArc
 50
337.1148470331972
 51
0.056271683886731
  0
LINE
  5
18AE5
330
A
100
AcDbEntity
  8
MODEL
100
AcDbLine
 10
216.8302158496853
 20
463.9482515512587
 30
0.0
 11
216.8302158496854
 21
478.4496352583588
 31
0.0
  0
LINE
  5
18AE6
330
A
100
AcDbEntity
  8
MODEL
100
AcDbLine
 10
216.8302158496853
 20
429.1438010964586
 30
0.0
 11
216.8302158496853
 21
442.9510868502587
 31
0.0
  0
LINE
  5
18AE7
330
A
100
AcDbEntity
  8
MODEL
100
AcDbLine
 10
216.8302158496853
 20
423.9496352583588
 30
0.0
 11
216.8302158496853
 21
425.7585995987588
 31
0.0
  0
LINE
  5
18AE8
330
A
100
AcDbEntity
  8
MODEL
100
AcDbLine
 10
176.8302158496853
 20
429.4811385216588
 30
0.0
 11
176.8302158496853
 21
423.9496352583588
 31
0.0
  0
LINE
  5
18AE9
330
A
100
AcDbEntity
  8
MODEL
100
AcDbLine
 10
176.8302158496854
 20
478.4496352583588
 30
0.0
 11
176.8302158496854
 21
473.4181319950588
 31
0.0
  0
ARC
  5
18AEA
330
A
100
AcDbEntity
  8
MODEL
100
AcDbCircle
 10
216.3300363360853
 20
425.7582546904586
 30
0.0
 40
0.5001795137225841
100
AcDbArc
 50
0.0014931692014056
 51
9.346966988504926
  0
ARC
  5
18AEB
330
A
100
AcDbEntity
  8
MODEL
100
AcDbCircle
 10
216.3300363521853
 20
429.1441461393588
 30
0.0
 40
0.5001794976410272
100
AcDbArc
 50
350.6530328591879
 51
359.9985068272865
  0
ARC
  5
18AEC
330
A
100
AcDbEntity
  8
MODEL
100
AcDbCircle
 10
216.3302158496853
 20
423.9496352583588
 30
0.0
 40
0.5000000000000005
100
AcDbArc
 50
270.0
 51
0.0
  0
ARC
  5
18AED
330
A
100
AcDbEntity
  8
MODEL
100
AcDbCircle
 10
177.3302158496853
 20
423.9496352583588
 30
0.0
 40
0.5000000000001565
100
AcDbArc
 50
180.0
 51
270.0
  0
ARC
  5
18AEE
330
A
100
AcDbEntity
  8
MODEL
100
AcDbCircle
 10
177.8302158496854
 20
478.4496352583588
 30
0.0
 40
0.9999999999997511
100
AcDbArc
 50
90.0
 51
180.0
  0
ARC
  5
18AEF
330
A
100
AcDbEntity
  8
MODEL
100
AcDbCircle
 10
215.8302158496854
 20
478.4496352583588
 30
0.0
 40
0.9999999999994944
100
AcDbArc
 50
0.0
 51
90.0
  0
LINE
  5
18AF0
330
A
100
AcDbEntity
  8
MODEL
100
AcDbLine
 10
176.3340104372853
 20
472.9496352583588
 30
0.0
 11
175.8302158496854
 21
472.9496352583588
 31
0.0
  0
LINE
  5
18AF1
330
A
100
AcDbEntity
  8
MODEL
100
AcDbLine
 10
175.8302158496853
 20
429.9496352583588
 30
0.0
 11
176.3340104372853
 21
429.9496352583588
 31
0.0
  0
ARC
  5
18AF2
330
A
100
AcDbEntity
  8
MODEL
100
AcDbCircle
 10
175.8302158496853
 20
430.4496352583588
 30
0.0
 40
0.499999999999997
100
AcDbArc
 50
180.0
 51
270.0
  0
ARC
  5
18AF3
330
A
100
AcDbEntity
  8
MODEL
100
AcDbCircle
 10
175.8302158496854
 20
472.4496352583588
 30
0.0
 40
0.5000000000000005
100
AcDbArc
 50
90.0
 51
180.0
  0
SPLINE
  5
18AF4
330
A
100
AcDbEntity
  8
MODEL
100
AcDbSpline
210
0.0
220
0.0
230
1.0
 70
     8
 71
     3
 72
    13
 73
     9
 74
     0
 42
0.000000001
 43
0.0000000001
 40
0.0
 40
0.0
 40
0.0
 40
0.0
 40
0.0415863794892387
 40
0.2256565951341956
 40
0.4106290277726324
 40
0.640665668330724
 40
0.8799474893957928
 40
1.0
 40
1.0
 40
1.0
 40
1.0
 10
176.8285875881849
 20
473.4186798182206
 30
0.0
 10
176.8279997225623
 20
473.4073014660749
 30
0.0
 10
176.8249339293792
 20
473.3544154617676
 30
0.0
 10
176.7961070779343
 20
473.2513272796055
 30
0.0
 10
176.7192352753399
 20
473.1222370492436
 30
0.0
 10
176.5950762350161
 20
473.0146369952031
 30
0.0
 10
176.4518258122145
 20
472.9518559093861
 30
0.0
 10
176.3671124127576
 20
472.9567518525098
 30
0.0
 10
176.3343029652034
 20
472.9591098552806
 30
0.0
  0
SPLINE
  5
18AF5
330
A
100
AcDbEntity
  8
MODEL
100
AcDbSpline
210
0.0
220
0.0
230
1.0
 70
     8
 71
     3
 72
    14
 73
    10
 74
     0
 42
0.000000001
 43
0.0000000001
 40
0.0
 40
0.0
 40
0.0
 40
0.0
 40
0.0741596520670728
 40
0.3245313945497545
 40
0.5205151301605172
 40
0.6839386826348765
 40
0.8217727706122774
 40
0.9344728010588351
 40
1.0
 40
1.0
 40
1.0
 40
1.0
 10
176.3358617561165
 20
429.9428654372069
 30
0.0
 10
176.3560660536619
 20
429.9449028091058
 30
0.0
 10
176.432234939982
 20
429.9519728715773
 30
0.0
 10
176.5627275213578
 20
429.9013713280615
 30
0.0
 10
176.6845137145998
 20
429.8115549228731
 30
0.0
 10
176.7611717820693
 20
429.7117282817239
 30
0.0
 10
176.8040445715714
 20
429.6182281001235
 30
0.0
 10
176.824208413003
 20
429.5397220543787
 30
0.0
 10
176.827358363642
 20
429.4983530344496
 30
0.0
 10
176.8285717282765
 20
429.4804522272322
 30
0.0
  0
LINE
  5
18AF6
330
A
100
AcDbEntity
  8
MODEL
100
AcDbLine
 10
216.8702158496853
 20
444.5496352583587
 30
0.0
 11
216.8702158496853
 21
462.5231484329585
 31
0.0
  0
SPLINE
  5
18AF7
330
A
100
AcDbEntity
  8
MODEL
100
AcDbSpline
210
0.0
220
0.0
230
1.0
 70
     8
 71
     3
 72
    10
 73
     6
 74
     0
 42
0.000000001
 43
0.0000000001
 40
0.0
 40
0.0
 40
0.0
 40
0.0
 40
0.0236105102186381
 40
0.5912480259131382
 40
1.0
 40
1.0
 40
1.0
 40
1.0
 10
216.8449400755735
 20
444.3962373711384
 30
0.0
 10
216.8456498122011
 20
444.3977492650834
 30
0.0
 10
216.8609544266905
 20
444.4303863988942
 30
0.0
 10
216.8698690057929
 20
444.5003985591027
 30
0.0
 10
216.8689374223202
 20
444.5577747077443
 30
0.0
 10
216.867547995366
 20
444.5866466373503
 30
0.0
  0
ARC
  5
18AF8
330
A
100
AcDbEntity
  8
MODEL
100
AcDbCircle
 10
216.3756945176852
 20
444.5443730705587
 30
0.0
 40
0.4920727375323874
100
AcDbArc
 50
269.0196894814125
 51
342.4796622036809
  0
ARC
  5
18AF9
330
A
100
AcDbEntity
  8
MODEL
100
AcDbCircle
 10
216.3781368757853
 20
462.5561223169587
 30
0.0
 40
0.4887749412692485
100
AcDbArc
 50
356.0625566773024
 51
92.30523108689615
  0
LINE
  5
18AFA
330
A
100
AcDbEntity
  8
MODEL
100
AcDbLine
 10
119.9248568776853
 20
370.2496140741587
 30
0.0
 11
119.9248568776853
 21
440.2496140741587
 31
0.0
  0
LINE
  5
18AFB
330
A
100
AcDbEntity
  8
MODEL
100
AcDbLine
 10
119.9248568776853
 20
370.2496140741587
 30
0.0
 11
142.7078019415853
 21
370.2496140741587
 31
0.0
  0
LINE
  5
18AFC
330
A
100
AcDbEntity
  8
MODEL
100
AcDbLine
 10
142.7078019415853
 20
440.2496140741587
 30
0.0
 11
119.9248568776853
 21
440.2496140741587
 31
0.0
  0
ARC
  5
18AFD
330
A
100
AcDbEntity
  8
MODEL
100
AcDbCircle
 10
-304.0751431223143
 20
405.2496140741587
 30
0.0
 40
450.0000000000001
100
AcDbArc
 50
1.78282304099994
 51
4.224274015700037
  0
ARC
  5
18AFE
330
A
100
AcDbEntity
  8
MODEL
100
AcDbCircle
 10
-304.0751431223143
 20
405.2496140741587
 30
0.0
 40
450.0000000000001
100
AcDbArc
 50
355.7757259842999
 51
358.217176959
  0
ARC
  5
18AFF
330
A
100
AcDbEntity
  8
MODEL
100
AcDbCircle
 10
142.7078019415853
 20
372.2496140741587
 30
0.0
 40
2.000000000000002
100
AcDbArc
 50
270.0
 51
355.7757259844025
  0
ARC
  5
18B00
330
A
100
AcDbEntity
  8
MODEL
100
AcDbCircle
 10
142.7078019415853
 20
438.2496140741586
 30
0.0
 40
2.00000000000014
100
AcDbArc
 50
4.224274015603803
 51
90.0
  0
SPLINE
  5
18B01
330
A
100
AcDbEntity
  8
MODEL
100
AcDbSpline
210
0.0
220
0.0
230
1.0
 70
     8
 71
     3
 72
     8
 73
     4
 74
     0
 42
0.000000001
 43
0.0000000001
 40
0.4012581135554262
 40
0.4012581135554262
 40
0.4012581135554262
 40
0.4012581135554262
 40
1.0
 40
1.0
 40
1.0
 40
1.0
 10
179.2391714768936
 20
479.4496327221876
 30
0.0
 10
179.1929628978702
 20
479.449670230966
 30
0.0
 10
179.1048309896037
 20
479.4496710763561
 30
0.0
 10
178.974775752094
 20
479.4496352583585
 30
0.0
  0
LINE
  5
18B02
330
A
100
AcDbEntity
  8
MODEL
100
AcDbLine
 10
119.9248568776854
 20
220.2496564536588
 30
0.0
 11
119.9248568776853
 21
290.2496564536587
 31
0.0
  0
LINE
  5
18B03
330
A
100
AcDbEntity
  8
MODEL
100
AcDbLine
 10
119.9248568776854
 20
220.2496564536588
 30
0.0
 11
142.7078019415853
 21
220.2496564536588
 31
0.0
  0
LINE
  5
18B04
330
A
100
AcDbEntity
  8
MODEL
100
AcDbLine
 10
142.7078019415852
 20
290.2496564536587
 30
0.0
 11
119.9248568776853
 21
290.2496564536587
 31
0.0
  0
ARC
  5
18B05
330
A
100
AcDbEntity
  8
MODEL
100
AcDbCircle
 10
-304.0751431223143
 20
255.2496564536588
 30
0.0
 40
450.0
100
AcDbArc
 50
1.782823040999934
 51
4.224274015700031
  0
ARC
  5
18B06
330
A
100
AcDbEntity
  8
MODEL
100
AcDbCircle
 10
-304.0751431223143
 20
255.2496564536588
 30
0.0
 40
450.0000000000001
100
AcDbArc
 50
355.7757259842999
 51
358.217176959
  0
ARC
  5
18B07
330
A
100
AcDbEntity
  8
MODEL
100
AcDbCircle
 10
142.7078019415853
 20
222.2496564536588
 30
0.0
 40
2.000000000000002
100
AcDbArc
 50
270.0
 51
355.7757259843992
  0
ARC
  5
18B08
330
A
100
AcDbEntity
  8
MODEL
100
AcDbCircle
 10
142.7078019415853
 20
288.2496564536586
 30
0.0
 40
2.000000000000141
100
AcDbArc
 50
4.224274015603803
 51
90.00000000000325
  0
CIRCLE
  5
18B09
330
A
100
AcDbEntity
  8
MODEL
100
AcDbCircle
 10
226.8302158496853
 20
330.2496352583588
 30
0.0
 40
10.29829151108909
  0
MTEXT
  5
18B3A
330
A
100
AcDbEntity
  8
DIM
390
1D
100
AcDbMText
 10
451.5393282572591
 20
562.0367073853085
 30
0.0
 40
7.329785156250001
 41
0.0
 46
8.3706146484375
 71
     1
 72
     1
  1
{G1/2"}
  7
ＭＳ ゴシック
 11
-0.0000000000000004
 21
1.0
 31
0.0
 73
     1
 44
0.7828267384257844
1001
ACAD
1000
ACAD_MTEXT_DEFINED_HEIGHT_BEGIN
1070
    46
1040
8.3706146484375
1000
ACAD_MTEXT_DEFINED_HEIGHT_END
  0
MTEXT
  5
18B3B
330
A
100
AcDbEntity
  8
DIM
390
1D
100
AcDbMText
 10
451.9257287937293
 20
588.1057090961899
 30
0.0
 40
7.329785156250001
 41
0.0
 46
7.329785156250001
 71
     1
 72
     1
  1
{▶}
  7
ＭＳ ゴシック
 11
-0.0000000000000004
 21
1.0
 31
0.0
 73
     1
 44
0.7828267384257844
1001
ACAD
1000
ACAD_MTEXT_DEFINED_HEIGHT_BEGIN
1070
    46
1040
7.329785156250001
1000
ACAD_MTEXT_DEFINED_HEIGHT_END
  0
MTEXT
  5
18B4A
330
A
100
AcDbEntity
  8
DIM
390
1D
100
AcDbMText
 10
503.1342274767121
 20
710.4851893500501
 30
0.0
 40
7.329785156250001
 41
0.0
 46
8.3706146484375
 71
     1
 72
     1
  1
{G1/2"}
  7
ＭＳ ゴシック
 11
-0.0000000000000004
 21
1.0
 31
0.0
 73
     1
 44
0.7828267384257844
1001
ACAD
1000
ACAD_MTEXT_DEFINED_HEIGHT_BEGIN
1070
    46
1040
8.3706146484375
1000
ACAD_MTEXT_DEFINED_HEIGHT_END
  0
MTEXT
  5
18B4B
330
A
100
AcDbEntity
  8
DIM
390
1D
100
AcDbMText
 10
493.0295255792151
 20
724.9662600656963
 30
0.0
 40
7.329785156250001
 41
0.0
 46
7.329785156250001
 71
     1
 72
     1
  1
{▶}
  7
ＭＳ ゴシック
 73
     1
 44
0.7828267384257844
1001
ACAD
1000
ACAD_MTEXT_DEFINED_HEIGHT_BEGIN
1070
    46
1040
7.329785156250001
1000
ACAD_MTEXT_DEFINED_HEIGHT_END
  0
MTEXT
  5
18B52
330
A
100
AcDbEntity
  8
TEMPLATE
390
1D
100
AcDbMText
 10
39.66064336431926
 20
57.16890865099916
 30
0.0
 40
7.329785156250001
 41
0.0
 46
7.43973193359375
 71
     1
 72
     1
  1
{クローム}
  7
ＭＳ ゴシック
 73
     1
 44
0.7828267384257844
1001
ACAD
1000
ACAD_MTEXT_DEFINED_HEIGHT_BEGIN
1070
    46
1040
7.43973193359375
1000
ACAD_MTEXT_DEFINED_HEIGHT_END
  0
MTEXT
  5
18BF8
330
A
100
AcDbEntity
  8
TEMPLATE
390
1D
100
AcDbMText
 10
40.11562898822648
 20
121.6525323235642
 30
0.0
 40
7.32978515625
 41
0.0
 46
8.55385927734375
 71
     1
 72
     1
  1
■流量 0.3Mpa時 18.0L/min
  7
ＭＳ ゴシック
 73
     1
 44
0.7828267384257844
1001
ACAD
1000
ACAD_MTEXT_DEFINED_HEIGHT_BEGIN
1070
    46
1040
14.25643212890625
1000
ACAD_MTEXT_DEFINED_HEIGHT_END
  0
VIEWPORT
  5
349
330
B
100
AcDbEntity
 67
     1
  8
0
348
26C
100
AcDbViewport
 10
202.5
 20
128.5
 30
0.0
 40
486.0
 41
308.4
 68
     1
 69
     1
 12
202.5
 22
128.5
 13
0.0
 23
0.0
 14
0.5
 24
0.5
 15
0.0
 25
0.0
 16
0.0
 26
0.0
 36
1.0
 17
0.0
 27
0.0
 37
0.0
 42
50.0
 43
0.0
 44
0.0
 45
308.4
 50
0.0
 51
0.0
 72
   100
 90
   557152
  1

281
     0
 71
     1
 74
     0
110
0.0
120
0.0
130
0.0
111
1.0
121
0.0
131
0.0
112
0.0
122
1.0
132
0.0
 79
     0
146
0.0
170
     0
 61
     5
292
     1
282
     1
141
0.0
142
0.0
  0
VIEWPORT
  5
34A
330
B
100
AcDbEntity
 67
     1
  8
0
348
26C
100
AcDbViewport
 10
202.5
 20
128.5
 30
0.0
 40
324.0
 41
205.6
 68
     2
 69
     2
 12
986.6781359294572
 22
1427.077061889956
 13
0.0
 23
0.0
 14
0.5
 24
0.5
 15
0.0
 25
0.0
 16
0.0
 26
0.0
 36
1.0
 17
0.0
 27
0.0
 37
0.0
 42
50.0
 43
0.0
 44
0.0
 45
2890.021615685494
 50
0.0
 51
0.0
 72
   100
 90
   557152
  1

281
     0
 71
     1
 74
     0
110
0.0
120
0.0
130
0.0
111
1.0
121
0.0
131
0.0
112
0.0
122
1.0
132
0.0
 79
     0
146
0.0
170
     0
 61
     5
292
     1
282
     1
141
0.0
142
0.0
  0
ENDSEC
  0
SECTION
  2
OBJECTS
  0
DICTIONARY
  5
19
330
0
100
AcDbDictionary
281
     1
  3
ACAD_BACKGROUND
350
18B81
  3
ACAD_CIP_PREVIOUS_PRODUCT_INFO
350
18B85
  3
ACAD_COLOR
350
674
  3
ACAD_DETAILVIEWSTYLE
350
BBF
  3
ACAD_FIELDLIST
350
36B0
  3
ACAD_GROUP
350
1A
  3
ACAD_IMAGE_VARS
350
27B
  3
ACAD_LAYOUT
350
1E
  3
ACAD_MATERIAL
350
263
  3
ACAD_MLEADERSTYLE
350
336
  3
ACAD_MLINESTYLE
350
1B
  3
ACAD_PLOTSETTINGS
350
22
  3
ACAD_PLOTSTYLENAME
350
1F
  3
ACAD_RENDER_RAPIDRT_SETTINGS
350
18C03
  3
ACAD_SCALELIST
350
241
  3
ACAD_SECTIONVIEWSTYLE
350
BC0
  3
ACAD_TABLESTYLE
350
278
  3
ACAD_VISUALSTYLE
350
267
  3
ACDB_RECOMPOSE_DATA
350
18C1B
  3
AcDbVariableDictionary
350
330
  3
APPDATA
350
27A
  3
ASE_INDEX_DICTIONARY
350
18BAD
  3
CENTERLINE
350
366B
  3
DimOffsetDictionary
350
E38
  0
SUN
  5
904
330
15
100
AcDbSun
 90
        1
290
     1
 63
     7
421
 16777215
 40
1.0
291
     1
 91
  2455826
 92
 54000000
292
     0
 70
     0
 71
   256
280
     1
  0
DICTIONARY
  5
2E1
330
2
100
AcDbDictionary
280
     1
281
     1
  3
ACAD_LAYERSTATES
360
2E2
  3
ACLYDICTIONARY
360
DDE
  0
DICTIONARY
  5
18B8A
330
14
100
AcDbDictionary
280
     1
281
     1
  3
ADSK_XREC_LAYER_RECONCILED
360
18B8B
  0
DICTIONARY
  5
18B8C
330
4B
100
AcDbDictionary
280
     1
281
     1
  3
ADSK_XREC_LAYER_RECONCILED
360
18B8D
  0
DICTIONARY
  5
18B8E
330
4C
100
AcDbDictionary
280
     1
281
     1
  3
ADSK_XREC_LAYER_RECONCILED
360
18B8F
  0
DICTIONARY
  5
18B90
330
D6B
100
AcDbDictionary
280
     1
281
     1
  3
ADSK_XREC_LAYER_RECONCILED
360
18B91
  0
DICTIONARY
  5
18B92
330
17710
100
AcDbDictionary
280
     1
281
     1
  3
ADSK_XREC_LAYER_RECONCILED
360
18B93
  0
DICTIONARY
  5
18B94
330
18672
100
AcDbDictionary
280
     1
281
     1
  3
ADSK_XREC_LAYER_RECONCILED
360
18B95
  0
DICTIONARY
  5
18B96
330
18673
100
AcDbDictionary
280
     1
281
     1
  3
ADSK_XREC_LAYER_RECONCILED
360
18B97
  0
DICTIONARY
  5
18B98
330
18674
100
AcDbDictionary
280
     1
281
     1
  3
ADSK_XREC_LAYER_RECONCILED
360
18B99
  0
DICTIONARY
  5
18B9A
330
18675
100
AcDbDictionary
280
     1
281
     1
  3
ADSK_XREC_LAYER_RECONCILED
360
18B9B
  0
DICTIONARY
  5
18B9C
330
18676
100
AcDbDictionary
280
     1
281
     1
  3
ADSK_XREC_LAYER_RECONCILED
360
18B9D
  0
DICTIONARY
  5
18B9E
330
18677
100
AcDbDictionary
280
     1
281
     1
  3
ADSK_XREC_LAYER_RECONCILED
360
18B9F
  0
DICTIONARY
  5
18BA0
330
18678
100
AcDbDictionary
280
     1
281
     1
  3
ADSK_XREC_LAYER_RECONCILED
360
18BA1
  0
DICTIONARY
  5
18BA2
330
18679
100
AcDbDictionary
280
     1
281
     1
  3
ADSK_XREC_LAYER_RECONCILED
360
18BA3
  0
DICTIONARY
  5
18BA4
330
1867A
100
AcDbDictionary
280
     1
281
     1
  3
ADSK_XREC_LAYER_RECONCILED
360
18BA5
  0
DICTIONARY
  5
18BA6
330
1867B
100
AcDbDictionary
280
     1
281
     1
  3
ADSK_XREC_LAYER_RECONCILED
360
18BA7
  0
DICTIONARY
  5
18BA8
330
1867C
100
AcDbDictionary
280
     1
281
     1
  3
ADSK_XREC_LAYER_RECONCILED
360
18BA9
  0
DICTIONARY
  5
18BAA
330
1867D
100
AcDbDictionary
280
     1
281
     1
  3
ADSK_XREC_LAYER_RECONCILED
360
18BAB
  0
DICTIONARY
  5
1733E
330
A
100
AcDbDictionary
280
     1
281
     1
  3
ACAD_SORTENTS
360
1733F
  0
DICTIONARY
  5
36AE
330
36AC
100
AcDbDictionary
280
     1
281
     1
  3
ACAD_FIELD
360
18B53
  0
DICTIONARY
  5
1898F
330
1898E
100
AcDbDictionary
280
     1
281
     1
  3
ACAD_DIMASSOC
360
18990
  0
DICTIONARY
  5
189A3
330
189A2
100
AcDbDictionary
280
     1
281
     1
  3
ACAD_DIMASSOC
360
189A4
  0
DICTIONARY
  5
18B81
102
{ACAD_REACTORS
330
19
102
}
330
19
100
AcDbDictionary
281
     1
  0
XRECORD
  5
18B85
102
{ACAD_REACTORS
330
19
102
}
330
19
100
AcDbXrecord
280
     1
300
ACD
300
2023
300

  0
DICTIONARY
  5
674
102
{ACAD_REACTORS
330
19
102
}
330
19
100
AcDbDictionary
281
     1
  0
DICTIONARY
  5
BBF
102
{ACAD_REACTORS
330
19
102
}
330
19
100
AcDbDictionary
281
     1
  3
Metric50
350
18B7B
  0
FIELDLIST
  5
36B0
102
{ACAD_REACTORS
330
19
102
}
330
19
100
AcDbIdSet
 90
        2
330
36AD
330
36B1
100
AcDbFieldList
  0
DICTIONARY
  5
1A
102
{ACAD_REACTORS
330
19
102
}
330
19
100
AcDbDictionary
281
     1
  3
*A1
350
1730A
  0
RASTERVARIABLES
  5
27B
102
{ACAD_REACTORS
330
19
102
}
330
19
100
AcDbRasterVariables
 90
        0
 70
     1
 71
     1
 72
     1
  0
DICTIONARY
  5
1E
102
{ACAD_REACTORS
330
19
102
}
330
19
100
AcDbDictionary
281
     1
  3
Layout1
350
21
  3
Model
350
20
  0
DICTIONARY
  5
263
102
{ACAD_REACTORS
330
19
102
}
330
19
100
AcDbDictionary
281
     1
  3
ByBlock
350
265
  3
ByLayer
350
264
  3
Global
350
266
  0
DICTIONARY
  5
336
102
{ACAD_REACTORS
330
19
102
}
330
19
100
AcDbDictionary
281
     1
  3
Standard
350
D59
  0
DICTIONARY
  5
1B
102
{ACAD_REACTORS
330
19
102
}
330
19
100
AcDbDictionary
281
     1
  3
Standard
350
1C
  0
DICTIONARY
  5
22
102
{ACAD_REACTORS
330
19
102
}
330
19
100
AcDbDictionary
281
     1
  0
ACDBDICTIONARYWDFLT
  5
1F
102
{ACAD_REACTORS
330
19
102
}
330
19
100
AcDbDictionary
281
     1
  3
Normal
350
1D
100
AcDbDictionaryWithDefault
340
1D
  0
DICTIONARY
  5
18C03
102
{ACAD_REACTORS
330
19
102
}
330
19
100
AcDbDictionary
281
     1
  3
Coffee-Break Quality
350
18C07
  3
High
350
18C06
  3
Low
350
18C04
  3
Lunch Quality
350
18C08
  3
Medium
350
18C05
  3
Overnight Quality
350
18C09
  0
DICTIONARY
  5
241
102
{ACAD_REACTORS
330
19
102
}
330
19
100
AcDbDictionary
281
     1
  3
A0
350
242
  3
A1
350
243
  3
A2
350
244
  3
A3
350
245
  3
A4
350
246
  3
A5
350
247
  3
A6
350
248
  3
A7
350
249
  3
A8
350
24A
  3
A9
350
24B
  3
B0
350
24C
  3
B1
350
24D
  3
B2
350
24E
  3
B3
350
24F
  3
B4
350
250
  3
B5
350
251
  3
B6
350
252
  3
B7
350
253
  3
B8
350
254
  3
B9
350
255
  3
C0
350
256
  3
C1
350
257
  3
C2
350
258
  3
C3
350
259
  3
C4
350
25A
  3
C5
350
25B
  3
C6
350
25C
  3
C7
350
25D
  3
C8
350
25E
  3
C9
350
25F
  3
D0
350
260
  3
D1
350
261
  3
D2
350
262
  0
DICTIONARY
  5
BC0
102
{ACAD_REACTORS
330
19
102
}
330
19
100
AcDbDictionary
281
     1
  3
Metric50
350
18B7A
  0
DICTIONARY
  5
278
102
{ACAD_REACTORS
330
19
102
}
330
19
100
AcDbDictionary
281
     1
  3
Standard
350
279
  0
DICTIONARY
  5
267
102
{ACAD_REACTORS
330
19
102
}
330
19
100
AcDbDictionary
281
     1
  3
*A1
350
3666
  3
2dWireframe
350
26C
  3
3D Hidden
350
26E
  3
3dWireframe
350
26D
  3
Basic
350
26F
  3
Brighten
350
273
  3
ColorChange
350
277
  3
Conceptual
350
271
  3
Dim
350
272
  3
EdgeColorOff
350
8FE
  3
Facepattern
350
276
  3
Flat
350
268
  3
FlatWithEdges
350
269
  3
Gouraud
350
26A
  3
GouraudWithEdges
350
26B
  3
Hidden
350
8FB
  3
JitterOff
350
8FC
  3
Linepattern
350
275
  3
OverhangOff
350
8FD
  3
Realistic
350
270
  3
Shaded
350
903
  3
Shaded with edges
350
902
  3
Shades of Gray
350
8FF
  3
Sketchy
350
900
  3
Thicken
350
274
  3
Wireframe
350
8FA
  3
X-Ray
350
901
  0
XRECORD
  5
18C1B
102
{ACAD_REACTORS
330
19
102
}
330
19
100
AcDbXrecord
280
     1
 90
        1
330
279
  0
DICTIONARY
  5
330
102
{ACAD_REACTORS
330
19
102
}
330
19
100
AcDbDictionary
281
     1
  3
CANNOSCALE
350
331
  3
CMLEADERSTYLE
350
D5E
  3
CTABLESTYLE
350
335
  3
CVIEWDETAILSTYLE
350
18BB7
  3
CVIEWSECTIONSTYLE
350
18BB8
  3
HPTRANSPARENCY
350
D52
  3
LAYEREVAL
350
18BB9
  3
LAYERNOTIFY
350
18BBA
  0
DICTIONARY
  5
27A
102
{ACAD_REACTORS
330
19
102
}
330
19
100
AcDbDictionary
281
     1
  0
DICTIONARY
  5
18BAD
102
{ACAD_REACTORS
330
19
102
}
330
19
100
AcDbDictionary
281
     1
  3
ASEBlockHierarchyIndexRecord
350
18BAF
1001
DCO15
1040
2106126633.0
  0
DICTIONARY
  5
366B
102
{ACAD_REACTORS
330
19
102
}
330
19
100
AcDbDictionary
281
     1
  3
CLEXTENSION
350
36AB
  0
DICTIONARY
  5
E38
102
{ACAD_REACTORS
330
19
102
}
330
19
100
AcDbDictionary
281
     1
  3
DIMRAILANGLE
350
36A9
  3
DIMRAILFIRSTOFFSET
350
36A7
  3
DIMRAILOFFSET
350
36A8
  3
DIMRAILSENABLED
350
36AA
  0
DICTIONARY
  5
2E2
102
{ACAD_REACTORS
330
2E1
102
}
330
2E1
100
AcDbDictionary
281
     1
  0
DICTIONARY
  5
DDE
102
{ACAD_REACTORS
330
2E1
102
}
330
2E1
100
AcDbDictionary
281
     1
1001
ACAD
1000
<All
  0
XRECORD
  5
18B8B
102
{ACAD_REACTORS
330
18B8A
102
}
330
18B8A
100
AcDbXrecord
280
     1
290
     1
  0
XRECORD
  5
18B8D
102
{ACAD_REACTORS
330
18B8C
102
}
330
18B8C
100
AcDbXrecord
280
     1
290
     1
  0
XRECORD
  5
18B8F
102
{ACAD_REACTORS
330
18B8E
102
}
330
18B8E
100
AcDbXrecord
280
     1
290
     1
  0
XRECORD
  5
18B91
102
{ACAD_REACTORS
330
18B90
102
}
330
18B90
100
AcDbXrecord
280
     1
290
     1
  0
XRECORD
  5
18B93
102
{ACAD_REACTORS
330
18B92
102
}
330
18B92
100
AcDbXrecord
280
     1
290
     1
  0
XRECORD
  5
18B95
102
{ACAD_REACTORS
330
18B94
102
}
330
18B94
100
AcDbXrecord
280
     1
290
     1
  0
XRECORD
  5
18B97
102
{ACAD_REACTORS
330
18B96
102
}
330
18B96
100
AcDbXrecord
280
     1
290
     1
  0
XRECORD
  5
18B99
102
{ACAD_REACTORS
330
18B98
102
}
330
18B98
100
AcDbXrecord
280
     1
290
     1
  0
XRECORD
  5
18B9B
102
{ACAD_REACTORS
330
18B9A
102
}
330
18B9A
100
AcDbXrecord
280
     1
290
     1
  0
XRECORD
  5
18B9D
102
{ACAD_REACTORS
330
18B9C
102
}
330
18B9C
100
AcDbXrecord
280
     1
290
     1
  0
XRECORD
  5
18B9F
102
{ACAD_REACTORS
330
18B9E
102
}
330
18B9E
100
AcDbXrecord
280
     1
290
     1
  0
XRECORD
  5
18BA1
102
{ACAD_REACTORS
330
18BA0
102
}
330
18BA0
100
AcDbXrecord
280
     1
290
     1
  0
XRECORD
  5
18BA3
102
{ACAD_REACTORS
330
18BA2
102
}
330
18BA2
100
AcDbXrecord
280
     1
290
     1
  0
XRECORD
  5
18BA5
102
{ACAD_REACTORS
330
18BA4
102
}
330
18BA4
100
AcDbXrecord
280
     1
290
     1
  0
XRECORD
  5
18BA7
102
{ACAD_REACTORS
330
18BA6
102
}
330
18BA6
100
AcDbXrecord
280
     1
290
     1
  0
XRECORD
  5
18BA9
102
{ACAD_REACTORS
330
18BA8
102
}
330
18BA8
100
AcDbXrecord
280
     1
290
     1
  0
XRECORD
  5
18BAB
102
{ACAD_REACTORS
330
18BAA
102
}
330
18BAA
100
AcDbXrecord
280
     1
290
     1
  0
SORTENTSTABLE
  5
1733F
102
{ACAD_REACTORS
330
1733E
102
}
330
1733E
100
AcDbSortentsTable
330
A
331
172F9
  5
172B7
331
172FA
  5
172F8
331
17305
  5
172F9
331
17306
  5
172FA
331
17307
  5
17305
331
17308
  5
17306
331
17309
  5
17307
331
17353
  5
1734E
  0
DICTIONARY
  5
18B53
102
{ACAD_REACTORS
330
36AE
102
}
330
36AE
100
AcDbDictionary
280
     1
281
     1
  3
TEXT
360
36AD
  0
DIMASSOC
  5
18990
102
{ACAD_REACTORS
330
1898F
102
}
330
1898F
100
AcDbDimAssoc
330
1898E
 90
        3
 70
     0
 71
     1
  1
AcDbOsnapPointRef
 72
     2
331
18964
 73
     0
 91
        0
 40
0.5
 10
0.0
 20
0.0
 30
0.0
 75
     0
  1
AcDbOsnapPointRef
 72
     2
331
18971
 73
     0
 91
        0
 40
0.5
 10
0.0
 20
0.0
 30
0.0
 75
     0
  0
DIMASSOC
  5
189A4
102
{ACAD_REACTORS
330
189A3
102
}
330
189A3
100
AcDbDimAssoc
330
189A2
 90
        1
 70
     0
 71
     1
  1
AcDbOsnapPointRef
 72
     1
331
18998
 73
     0
 91
        0
 40
0.0
 10
0.0
 20
0.0
 30
0.0
 75
     0
  0
ACDBDETAILVIEWSTYLE
  5
18B7B
102
{ACAD_REACTORS
330
BBF
102
}
330
BBF
100
AcDbModelDocViewStyle
 70
     0
  3
Metric50
290
     0
300
Metric50
 90
        0
100
AcDbDetailViewStyle
 70
     0
 71
     0
 90
        3
 71
     1
340
17
 62
   256
 40
5.0
340
0
 62
   256
 40
5.0
300

 40
0.0
280
     1
 71
     2
340
13
 90
       25
 62
   256
 71
     3
340
17
 62
   256
 40
5.0
 90
        0
 40
15.0
 90
        1
300
%<\AcVar ViewDetailId>% (%<\AcVar ViewScale \f "%sn">%)
 71
     4
340
13
 90
       25
 62
   256
340
13
 90
       25
 62
   256
280
     0
  0
GROUP
  5
1730A
102
{ACAD_REACTORS
330
1A
102
}
330
1A
100
AcDbGroup
300

 70
     1
 71
     1
340
172F9
340
172FA
340
17305
340
17306
340
17307
340
17308
340
17309
  0
LAYOUT
  5
21
102
{ACAD_REACTORS
330
1E
102
}
330
1E
100
AcDbPlotSettings
  1

  2
none_device
  4
ISO_A3_(420.00_x_297.00_MM)
  6

 40
7.5
 41
20.0
 42
7.5
 43
20.0
 44
420.0
 45
297.0
 46
0.0
 47
0.0
 48
0.0
 49
0.0
140
0.0
141
0.0
142
1.0
143
1.0
 70
     0
 72
     1
 73
     0
 74
     0
  7

 75
     0
147
1.0
 76
     0
 77
     2
 78
   300
148
0.0
149
0.0
100
AcDbLayout
  1
Layout1
 70
     0
 71
     1
 10
-7.5
 20
-20.0
 11
412.5
 21
277.0
 12
0.0
 22
0.0
 32
0.0
 14
0.0
 24
0.0
 34
0.0
 15
0.0
 25
0.0
 35
0.0
146
0.0
 13
0.0
 23
0.0
 33
0.0
 16
1.0
 26
0.0
 36
0.0
 17
0.0
 27
1.0
 37
0.0
 76
     0
330
B
331
349
  0
LAYOUT
  5
20
102
{ACAD_REACTORS
330
1E
102
}
330
1E
100
AcDbPlotSettings
  1
BATCH EXPORT TFORM
  2
Adobe PDF
  4
A4
  6

 40
0.0
 41
0.010498046875
 42
0.0901641845703125
 43
0.0
 44
210.0
 45
297.0
 46
0.0
 47
0.0585099356515002
 48
0.0
 49
0.0
140
0.0
141
0.0
142
1.0
143
3.001288613049789
 70
  3764
 72
     1
 73
     0
 74
     2
  7
monochrome.ctb
 75
     0
147
0.3331902155800471
 76
     0
 77
     4
 78
   300
148
0.0
149
0.0
100
AcDbLayout
  1
Model
 70
     0
 71
     0
 10
0.0
 20
0.0
 11
630.0
 21
891.0
 12
0.0
 22
0.0
 32
0.0
 14
0.0
 24
0.0
 34
-0.0000000000000071
 15
630.0
 25
891.0
 35
0.0000000000000142
146
0.0
 13
0.0
 23
0.0
 33
0.0
 16
0.0
 26
0.0
 36
0.0
 17
0.0
 27
0.0
 37
0.0
 76
     0
330
A
331
15
1001
ACAD_PSEXT
1000
Adobe PDF
1000
Adobe PDF Converter
1000
Documents\*.pdf
1000

1070
     0
  0
MATERIAL
  5
265
102
{ACAD_REACTORS
330
263
102
}
330
263
100
AcDbMaterial
  1
ByBlock
  0
MATERIAL
  5
264
102
{ACAD_REACTORS
330
263
102
}
330
263
100
AcDbMaterial
  1
ByLayer
  0
MATERIAL
  5
266
102
{ACAD_REACTORS
330
263
102
}
330
263
100
AcDbMaterial
  1
Global
  0
MLEADERSTYLE
  5
D59
102
{ACAD_REACTORS
330
336
102
}
330
336
100
AcDbMLeaderStyle
179
     2
170
     2
171
     1
172
     0
 90
        2
 40
0.0
 41
0.0
173
     1
 91
-1056964608
340
11
 92
       -2
290
     1
 42
2.0
291
     1
 43
8.0
  3
Standard
 44
4.0
300

342
17
174
     1
178
     6
175
     1
176
     0
 93
-1056964608
 45
4.0
292
     0
297
     0
 46
4.0
 94
-1056964608
 47
1.0
 49
1.0
140
1.0
293
     1
141
0.0
294
     1
177
     0
142
1.0
295
     0
296
     0
143
3.75
271
     0
272
     9
273
     9
298
     0
1001
ACAD_MLEADERVER
1070
     2
  0
MLINESTYLE
  5
1C
102
{ACAD_REACTORS
330
1B
102
}
330
1B
100
AcDbMlineStyle
  2
STANDARD
 70
     0
  3

 62
     0
 51
90.0
 52
90.0
 71
     2
 49
0.5
 62
   256
  6
BYLAYER
 49
-0.5
 62
   256
  6
BYLAYER
  0
ACDBPLACEHOLDER
  5
1D
102
{ACAD_REACTORS
330
1F
102
}
330
1F
  0
RAPIDRTRENDERSETTINGS
  5
18C07
102
{ACAD_REACTORS
330
18C03
102
}
330
18C03
100
AcDbRenderSettings
 90
        2
  1
Coffee-Break Quality
290
     1
290
     0
290
     1
290
     1
  1

  1
Renders for 10 minutes
 90
        3
100
AcDbRapidRTRenderSettings
 90
        3
 70
     1
 90
        1
 90
       10
 70
     1
 70
     2
 40
3.0
 40
3.0
290
     1
  0
RAPIDRTRENDERSETTINGS
  5
18C06
102
{ACAD_REACTORS
330
18C03
102
}
330
18C03
100
AcDbRenderSettings
 90
        2
  1
High
290
     1
290
     0
290
     1
290
     1
  1

  1
Applies 10 rendering levels
 90
        2
100
AcDbRapidRTRenderSettings
 90
        3
 70
     0
 90
       10
 90
        1
 70
     2
 70
     2
 40
3.0
 40
3.0
290
     1
  0
RAPIDRTRENDERSETTINGS
  5
18C04
102
{ACAD_REACTORS
330
18C03
102
}
330
18C03
100
AcDbRenderSettings
 90
        2
  1
Low
290
     1
290
     0
290
     1
290
     1
  1

  1
Applies 1 rendering level
 90
        0
100
AcDbRapidRTRenderSettings
 90
        3
 70
     0
 90
        1
 90
        1
 70
     0
 70
     2
 40
3.0
 40
3.0
290
     1
  0
RAPIDRTRENDERSETTINGS
  5
18C08
102
{ACAD_REACTORS
330
18C03
102
}
330
18C03
100
AcDbRenderSettings
 90
        2
  1
Lunch Quality
290
     1
290
     0
290
     1
290
     1
  1

  1
Renders for 60 minutes
 90
        4
100
AcDbRapidRTRenderSettings
 90
        3
 70
     1
 90
        1
 90
       60
 70
     2
 70
     2
 40
3.0
 40
3.0
290
     1
  0
RAPIDRTRENDERSETTINGS
  5
18C05
102
{ACAD_REACTORS
330
18C03
102
}
330
18C03
100
AcDbRenderSettings
 90
        2
  1
Medium
290
     1
290
     0
290
     1
290
     1
  1

  1
Applies 5 rendering levels
 90
        1
100
AcDbRapidRTRenderSettings
 90
        3
 70
     0
 90
        5
 90
        1
 70
     1
 70
     2
 40
3.0
 40
3.0
290
     1
  0
RAPIDRTRENDERSETTINGS
  5
18C09
102
{ACAD_REACTORS
330
18C03
102
}
330
18C03
100
AcDbRenderSettings
 90
        2
  1
Overnight Quality
290
     1
290
     0
290
     1
290
     1
  1

  1
Renders for 12 hours
 90
        5
100
AcDbRapidRTRenderSettings
 90
        3
 70
     1
 90
        1
 90
      720
 70
     2
 70
     2
 40
3.0
 40
3.0
290
     1
  0
SCALE
  5
242
102
{ACAD_REACTORS
330
241
102
}
330
241
100
AcDbScale
 70
     0
300
1:1
140
1.0
141
1.0
290
     1
  0
SCALE
  5
243
102
{ACAD_REACTORS
330
241
102
}
330
241
100
AcDbScale
 70
     0
300
1:2
140
1.0
141
2.0
290
     0
  0
SCALE
  5
244
102
{ACAD_REACTORS
330
241
102
}
330
241
100
AcDbScale
 70
     0
300
1:4
140
1.0
141
4.0
290
     0
  0
SCALE
  5
245
102
{ACAD_REACTORS
330
241
102
}
330
241
100
AcDbScale
 70
     0
300
1:5
140
1.0
141
5.0
290
     0
  0
SCALE
  5
246
102
{ACAD_REACTORS
330
241
102
}
330
241
100
AcDbScale
 70
     0
300
1:8
140
1.0
141
8.0
290
     0
  0
SCALE
  5
247
102
{ACAD_REACTORS
330
241
102
}
330
241
100
AcDbScale
 70
     0
300
1:10
140
1.0
141
10.0
290
     0
  0
SCALE
  5
248
102
{ACAD_REACTORS
330
241
102
}
330
241
100
AcDbScale
 70
     0
300
1:16
140
1.0
141
16.0
290
     0
  0
SCALE
  5
249
102
{ACAD_REACTORS
330
241
102
}
330
241
100
AcDbScale
 70
     0
300
1:20
140
1.0
141
20.0
290
     0
  0
SCALE
  5
24A
102
{ACAD_REACTORS
330
241
102
}
330
241
100
AcDbScale
 70
     0
300
1:30
140
1.0
141
30.0
290
     0
  0
SCALE
  5
24B
102
{ACAD_REACTORS
330
241
102
}
330
241
100
AcDbScale
 70
     0
300
1:40
140
1.0
141
40.0
290
     0
  0
SCALE
  5
24C
102
{ACAD_REACTORS
330
241
102
}
330
241
100
AcDbScale
 70
     0
300
1:50
140
1.0
141
50.0
290
     0
  0
SCALE
  5
24D
102
{ACAD_REACTORS
330
241
102
}
330
241
100
AcDbScale
 70
     0
300
1:100
140
1.0
141
100.0
290
     0
  0
SCALE
  5
24E
102
{ACAD_REACTORS
330
241
102
}
330
241
100
AcDbScale
 70
     0
300
2:1
140
2.0
141
1.0
290
     0
  0
SCALE
  5
24F
102
{ACAD_REACTORS
330
241
102
}
330
241
100
AcDbScale
 70
     0
300
4:1
140
4.0
141
1.0
290
     0
  0
SCALE
  5
250
102
{ACAD_REACTORS
330
241
102
}
330
241
100
AcDbScale
 70
     0
300
8:1
140
8.0
141
1.0
290
     0
  0
SCALE
  5
251
102
{ACAD_REACTORS
330
241
102
}
330
241
100
AcDbScale
 70
     0
300
10:1
140
10.0
141
1.0
290
     0
  0
SCALE
  5
252
102
{ACAD_REACTORS
330
241
102
}
330
241
100
AcDbScale
 70
     0
300
100:1
140
100.0
141
1.0
290
     0
  0
SCALE
  5
253
102
{ACAD_REACTORS
330
241
102
}
330
241
100
AcDbScale
 70
     0
300
1/128" = 1'-0"
140
0.0078125
141
12.0
290
     0
  0
SCALE
  5
254
102
{ACAD_REACTORS
330
241
102
}
330
241
100
AcDbScale
 70
     0
300
1/64" = 1'-0"
140
0.015625
141
12.0
290
     0
  0
SCALE
  5
255
102
{ACAD_REACTORS
330
241
102
}
330
241
100
AcDbScale
 70
     0
300
1/32" = 1'-0"
140
0.03125
141
12.0
290
     0
  0
SCALE
  5
256
102
{ACAD_REACTORS
330
241
102
}
330
241
100
AcDbScale
 70
     0
300
1/16" = 1'-0"
140
0.0625
141
12.0
290
     0
  0
SCALE
  5
257
102
{ACAD_REACTORS
330
241
102
}
330
241
100
AcDbScale
 70
     0
300
3/32" = 1'-0"
140
0.09375
141
12.0
290
     0
  0
SCALE
  5
258
102
{ACAD_REACTORS
330
241
102
}
330
241
100
AcDbScale
 70
     0
300
1/8" = 1'-0"
140
0.125
141
12.0
290
     0
  0
SCALE
  5
259
102
{ACAD_REACTORS
330
241
102
}
330
241
100
AcDbScale
 70
     0
300
3/16" = 1'-0"
140
0.1875
141
12.0
290
     0
  0
SCALE
  5
25A
102
{ACAD_REACTORS
330
241
102
}
330
241
100
AcDbScale
 70
     0
300
1/4" = 1'-0"
140
0.25
141
12.0
290
     0
  0
SCALE
  5
25B
102
{ACAD_REACTORS
330
241
102
}
330
241
100
AcDbScale
 70
     0
300
3/8" = 1'-0"
140
0.375
141
12.0
290
     0
  0
SCALE
  5
25C
102
{ACAD_REACTORS
330
241
102
}
330
241
100
AcDbScale
 70
     0
300
1/2" = 1'-0"
140
0.5
141
12.0
290
     0
  0
SCALE
  5
25D
102
{ACAD_REACTORS
330
241
102
}
330
241
100
AcDbScale
 70
     0
300
3/4" = 1'-0"
140
0.75
141
12.0
290
     0
  0
SCALE
  5
25E
102
{ACAD_REACTORS
330
241
102
}
330
241
100
AcDbScale
 70
     0
300
1" = 1'-0"
140
1.0
141
12.0
290
     0
  0
SCALE
  5
25F
102
{ACAD_REACTORS
330
241
102
}
330
241
100
AcDbScale
 70
     0
300
1-1/2" = 1'-0"
140
1.5
141
12.0
290
     0
  0
SCALE
  5
260
102
{ACAD_REACTORS
330
241
102
}
330
241
100
AcDbScale
 70
     0
300
3" = 1'-0"
140
3.0
141
12.0
290
     0
  0
SCALE
  5
261
102
{ACAD_REACTORS
330
241
102
}
330
241
100
AcDbScale
 70
     0
300
6" = 1'-0"
140
6.0
141
12.0
290
     0
  0
SCALE
  5
262
102
{ACAD_REACTORS
330
241
102
}
330
241
100
AcDbScale
 70
     0
300
1'-0" = 1'-0"
140
12.0
141
12.0
290
     0
  0
ACDBSECTIONVIEWSTYLE
  5
18B7A
102
{ACAD_REACTORS
330
BC0
102
}
330
BC0
100
AcDbModelDocViewStyle
 70
     0
  3
Metric50
290
     0
300
Metric50
 90
        0
100
AcDbSectionViewStyle
 70
     0
 71
     0
 90
      102
 71
     1
340
17
 62
   256
 40
5.0
340
0
340
0
 62
   256
 40
5.0
300
I, O, Q, S, X, Z
 40
10.0
 90
        0
 40
2.5
 90
        0
 71
     2
340
13
 90
       25
 62
   256
340
13
 90
       50
 62
   256
 40
5.0
 40
2.5
 40
5.0
 71
     3
340
17
 62
   256
 40
5.0
 90
        0
 40
15.0
 90
        1
300
%<\AcVar ViewSectionStartId>%-%<\AcVar ViewSectionEndId>% (%<\AcVar ViewScale \f "%sn">%)
 71
     4
 62
   256
 62
   257
300
ANSI31
 40
1.0
 90
        0
290
     0
290
     0
 90
        6
 40
0.0
 40
1.570796326794896
 40
0.2617993877991494
 40
1.308996938995747
 40
-0.2617993877991494
 40
1.832595714594046
  0
TABLESTYLE
  5
279
102
{ACAD_XDICTIONARY
360
18B72
102
}
102
{ACAD_REACTORS
330
278
102
}
330
278
100
AcDbTableStyle
280
     0
  3
Standard
 70
     0
 71
     0
 40
0.06
 41
0.06
280
     0
281
     0
  7
Standard
140
4.5
170
     2
 62
     0
 63
     7
283
     0
 90
        4
 91
        0
  1

274
    -2
284
     1
 64
     0
275
    -2
285
     1
 65
     0
276
    -2
286
     1
 66
     0
277
    -2
287
     1
 67
     0
278
    -2
288
     1
 68
     0
279
    -2
289
     1
 69
     0
  7
Standard
140
6.0
170
     5
 62
     0
 63
     7
283
     0
 90
        4
 91
        0
  1

274
    -2
284
     1
 64
     0
275
    -2
285
     1
 65
     0
276
    -2
286
     1
 66
     0
277
    -2
287
     1
 67
     0
278
    -2
288
     1
 68
     0
279
    -2
289
     1
 69
     0
  7
Standard
140
4.5
170
     5
 62
     0
 63
     7
283
     0
 90
        4
 91
        0
  1

274
    -2
284
     1
 64
     0
275
    -2
285
     1
 65
     0
276
    -2
286
     1
 66
     0
277
    -2
287
     1
 67
     0
278
    -2
288
     1
 68
     0
279
    -2
289
     1
 69
     0
  0
VISUALSTYLE
  5
3666
102
{ACAD_REACTORS
330
267
102
}
330
267
100
AcDbVisualStyle
  2

 70
    10
177
     3
291
     0
 70
    58
 90
        0
176
     1
 90
        2
176
     1
 90
        0
176
     1
 90
        0
176
     1
 40
0.6
176
     1
 40
30.0
176
     1
 62
     7
420
 16777215
176
     1
 90
        1
176
     1
 90
        4
176
     1
 62
     7
176
     1
 62
   257
176
     1
 90
        1
176
     1
 90
        1
176
     1
 40
1.0
176
     1
 90
        8
176
     1
 62
     7
176
     1
 40
1.0
176
     1
 90
        1
176
     1
 90
        6
176
     1
 90
        2
176
     1
 62
     7
176
     1
 90
        5
176
     1
 90
        0
176
     1
 90
        0
176
     1
290
     0
176
     1
 90
        1
176
     1
 40
0.0
176
     1
 90
        0
176
     1
290
     0
176
     1
290
     1
176
     1
290
     1
176
     1
290
     0
176
     1
290
     0
176
     1
290
     0
176
     1
290
     0
176
     1
290
     0
176
     1
290
     0
176
     1
 90
       50
176
     1
 40
0.0
176
     1
 40
1.0
176
     1
 90
        0
176
     1
 62
    18
420
        0
176
     1
 90
       50
176
     1
 90
        3
176
     1
 62
     5
420
      255
176
     1
290
     0
176
     1
 90
       50
176
     1
 90
       50
176
     1
 90
       50
176
     1
290
     0
176
     1
 90
       50
176
     1
 62
   256
176
     0
 40
1.0
176
     0
 90
        2
176
     1
  1
strokes_ogs.tif
176
     1
290
     0
176
     1
 40
1.0
176
     1
 40
1.0
176
     1
  0
VISUALSTYLE
  5
26C
102
{ACAD_REACTORS
330
267
102
}
330
267
100
AcDbVisualStyle
  2

 70
     4
177
     3
291
     0
 70
    58
 90
        0
176
     1
 90
        2
176
     1
 90
        0
176
     1
 90
        0
176
     1
 40
0.6
176
     1
 40
30.0
176
     1
 62
     7
420
 16777215
176
     1
 90
        1
176
     1
 90
        4
176
     1
 62
     7
176
     1
 62
   257
176
     1
 90
        1
176
     1
 90
        1
176
     1
 40
1.0
176
     1
 90
        0
176
     1
 62
   257
176
     1
 40
1.0
176
     1
 90
        1
176
     1
 90
        6
176
     1
 90
        2
176
     1
 62
     7
176
     1
 90
        5
176
     1
 90
        0
176
     1
 90
        0
176
     1
290
     0
176
     1
 90
        1
176
     1
 40
0.0
176
     1
 90
        0
176
     1
290
     1
176
     1
290
     1
176
     1
290
     0
176
     1
290
     0
176
     1
290
     0
176
     1
290
     0
176
     1
290
     0
176
     1
290
     0
176
     1
290
     0
176
     1
 90
       50
176
     1
 40
0.0
176
     1
 40
1.0
176
     1
 90
        0
176
     1
 62
    18
420
        0
176
     1
 90
       50
176
     1
 90
        3
176
     1
 62
     5
420
      255
176
     1
290
     0
176
     1
 90
       50
176
     1
 90
       50
176
     1
 90
       50
176
     1
290
     0
176
     1
 90
       50
176
     1
 62
   256
176
     0
 40
1.0
176
     0
 90
        2
176
     1
  1
strokes_ogs.tif
176
     1
290
     0
176
     1
 40
1.0
176
     1
 40
1.0
176
     1
  0
VISUALSTYLE
  5
26E
102
{ACAD_REACTORS
330
267
102
}
330
267
100
AcDbVisualStyle
  2

 70
     6
177
     3
291
     0
 70
    58
 90
        1
176
     1
 90
        2
176
     1
 90
        2
176
     1
 90
        0
176
     1
 40
0.6
176
     1
 40
30.0
176
     1
 62
     7
420
 16777215
176
     1
 90
        2
176
     1
 90
        2
176
     1
 62
     7
176
     1
 62
   257
176
     1
 90
        2
176
     1
 90
        1
176
     1
 40
40.0
176
     1
 90
        0
176
     1
 62
   257
176
     1
 40
1.0
176
     1
 90
        1
176
     1
 90
        6
176
     1
 90
        2
176
     1
 62
     7
176
     1
 90
        3
176
     1
 90
        0
176
     1
 90
        0
176
     1
290
     0
176
     1
 90
        1
176
     1
 40
0.0
176
     1
 90
        0
176
     1
290
     0
176
     1
290
     1
176
     1
290
     1
176
     1
290
     0
176
     1
290
     0
176
     1
290
     0
176
     1
290
     0
176
     1
290
     0
176
     1
290
     0
176
     1
 90
       50
176
     1
 40
0.0
176
     1
 40
1.0
176
     1
 90
        0
176
     1
 62
    18
420
        0
176
     1
 90
       50
176
     1
 90
        3
176
     1
 62
     5
420
      255
176
     1
290
     0
176
     1
 90
       50
176
     1
 90
       50
176
     1
 90
       50
176
     1
290
     0
176
     1
 90
       50
176
     1
 62
   256
176
     0
 40
1.0
176
     0
 90
        2
176
     1
  1
strokes_ogs.tif
176
     1
290
     0
176
     1
 40
1.0
176
     1
 40
1.0
176
     1
  0
VISUALSTYLE
  5
26D
102
{ACAD_REACTORS
330
267
102
}
330
267
100
AcDbVisualStyle
  2

 70
     5
177
     3
291
     0
 70
    58
 90
        0
176
     1
 90
        2
176
     1
 90
        0
176
     1
 90
        0
176
     1
 40
0.6
176
     1
 40
30.0
176
     1
 62
     7
420
 16777215
176
     1
 90
        1
176
     1
 90
        4
176
     1
 62
     7
176
     1
 62
   257
176
     1
 90
        1
176
     1
 90
        1
176
     1
 40
1.0
176
     1
 90
        0
176
     1
 62
   257
176
     1
 40
1.0
176
     1
 90
        1
176
     1
 90
        6
176
     1
 90
        2
176
     1
 62
     7
176
     1
 90
        5
176
     1
 90
        0
176
     1
 90
        0
176
     1
290
     0
176
     1
 90
        1
176
     1
 40
0.0
176
     1
 90
        0
176
     1
290
     0
176
     1
290
     1
176
     1
290
     1
176
     1
290
     0
176
     1
290
     0
176
     1
290
     0
176
     1
290
     0
176
     1
290
     0
176
     1
290
     0
176
     1
 90
       50
176
     1
 40
0.0
176
     1
 40
1.0
176
     1
 90
        0
176
     1
 62
    18
420
        0
176
     1
 90
       50
176
     1
 90
        3
176
     1
 62
     5
420
      255
176
     1
290
     0
176
     1
 90
       50
176
     1
 90
       50
176
     1
 90
       50
176
     1
290
     0
176
     1
 90
       50
176
     1
 62
   256
176
     0
 40
1.0
176
     0
 90
        2
176
     1
  1
strokes_ogs.tif
176
     1
290
     0
176
     1
 40
1.0
176
     1
 40
1.0
176
     1
  0
VISUALSTYLE
  5
26F
102
{ACAD_REACTORS
330
267
102
}
330
267
100
AcDbVisualStyle
  2

 70
     7
177
     3
291
     1
 70
    58
 90
        1
176
     1
 90
        0
176
     1
 90
        1
176
     1
 90
        0
176
     1
 40
0.6
176
     1
 40
30.0
176
     1
 62
     7
420
 16777215
176
     1
 90
        0
176
     1
 90
        4
176
     1
 62
     7
176
     1
 62
   257
176
     1
 90
        1
176
     1
 90
        1
176
     1
 40
1.0
176
     1
 90
        8
176
     1
 62
     7
176
     1
 40
1.0
176
     1
 90
        1
176
     1
 90
        6
176
     1
 90
        2
176
     1
 62
     7
176
     1
 90
        5
176
     1
 90
        0
176
     1
 90
        0
176
     1
290
     0
176
     1
 90
        1
176
     1
 40
0.0
176
     1
 90
        0
176
     1
290
     0
176
     1
290
     1
176
     1
290
     1
176
     1
290
     0
176
     1
290
     0
176
     1
290
     0
176
     1
290
     0
176
     1
290
     0
176
     1
290
     0
176
     1
 90
       50
176
     1
 40
0.0
176
     1
 40
1.0
176
     1
 90
        0
176
     1
 62
    18
420
        0
176
     1
 90
       50
176
     1
 90
        3
176
     1
 62
     5
420
      255
176
     1
290
     0
176
     1
 90
       50
176
     1
 90
       50
176
     1
 90
       50
176
     1
290
     0
176
     1
 90
       50
176
     1
 62
   256
176
     0
 40
1.0
176
     0
 90
        2
176
     1
  1
strokes_ogs.tif
176
     1
290
     0
176
     1
 40
1.0
176
     1
 40
1.0
176
     1
  0
VISUALSTYLE
  5
273
102
{ACAD_REACTORS
330
267
102
}
330
267
100
AcDbVisualStyle
  2

 70
    12
177
     3
291
     1
 70
    58
 90
        2
176
     1
 90
        2
176
     1
 90
        0
176
     1
 90
        0
176
     1
 40
0.6
176
     1
 40
30.0
176
     1
 62
     7
420
 16777215
176
     1
 90
        1
176
     1
 90
        4
176
     1
 62
     7
176
     1
 62
   257
176
     1
 90
        1
176
     1
 90
        1
176
     1
 40
1.0
176
     1
 90
        8
176
     1
 62
     7
176
     1
 40
1.0
176
     1
 90
        1
176
     1
 90
        6
176
     1
 90
        2
176
     1
 62
     7
176
     1
 90
        5
176
     1
 90
        0
176
     1
 90
        0
176
     1
290
     0
176
     1
 90
        1
176
     1
 40
50.0
176
     1
 90
        0
176
     1
290
     0
176
     1
290
     1
176
     1
290
     1
176
     1
290
     0
176
     1
290
     0
176
     1
290
     0
176
     1
290
     0
176
     1
290
     0
176
     1
290
     0
176
     1
 90
       50
176
     1
 40
0.0
176
     1
 40
1.0
176
     1
 90
        0
176
     1
 62
    18
420
        0
176
     1
 90
       50
176
     1
 90
        3
176
     1
 62
     5
420
      255
176
     1
290
     0
176
     1
 90
       50
176
     1
 90
       50
176
     1
 90
       50
176
     1
290
     0
176
     1
 90
       50
176
     1
 62
   256
176
     0
 40
1.0
176
     0
 90
        2
176
     1
  1
strokes_ogs.tif
176
     1
290
     0
176
     1
 40
1.0
176
     1
 40
1.0
176
     1
  0
VISUALSTYLE
  5
277
102
{ACAD_REACTORS
330
267
102
}
330
267
100
AcDbVisualStyle
  2

 70
    16
177
     3
291
     1
 70
    58
 90
        2
176
     1
 90
        2
176
     1
 90
        3
176
     1
 90
        0
176
     1
 40
0.6
176
     1
 40
30.0
176
     1
 62
     8
420
  8421504
176
     1
 90
        1
176
     1
 90
        4
176
     1
 62
     7
176
     1
 62
   257
176
     1
 90
        1
176
     1
 90
        1
176
     1
 40
1.0
176
     1
 90
        8
176
     1
 62
     8
420
  8421504
176
     1
 40
1.0
176
     1
 90
        1
176
     1
 90
        6
176
     1
 90
        2
176
     1
 62
     7
176
     1
 90
        5
176
     1
 90
        0
176
     1
 90
        0
176
     1
290
     0
176
     1
 90
        1
176
     1
 40
0.0
176
     1
 90
        0
176
     1
290
     0
176
     1
290
     1
176
     1
290
     1
176
     1
290
     0
176
     1
290
     0
176
     1
290
     0
176
     1
290
     0
176
     1
290
     0
176
     1
290
     0
176
     1
 90
       50
176
     1
 40
0.0
176
     1
 40
1.0
176
     1
 90
        0
176
     1
 62
    18
420
        0
176
     1
 90
       50
176
     1
 90
        3
176
     1
 62
     5
420
      255
176
     1
290
     0
176
     1
 90
       50
176
     1
 90
       50
176
     1
 90
       50
176
     1
290
     0
176
     1
 90
       50
176
     1
 62
   256
176
     0
 40
1.0
176
     0
 90
        2
176
     1
  1
strokes_ogs.tif
176
     1
290
     0
176
     1
 40
1.0
176
     1
 40
1.0
176
     1
  0
VISUALSTYLE
  5
271
102
{ACAD_REACTORS
330
267
102
}
330
267
100
AcDbVisualStyle
  2

 70
     9
177
     3
291
     0
 70
    58
 90
        3
176
     1
 90
        2
176
     1
 90
        0
176
     1
 90
        0
176
     1
 40
0.6
176
     1
 40
30.0
176
     1
 62
     7
420
 16777215
176
     1
 90
        2
176
     1
 90
        2
176
     1
 62
     7
176
     1
 62
   257
176
     1
 90
        1
176
     1
 90
        1
176
     1
 40
40.0
176
     1
 90
        8
176
     1
 62
     7
176
     1
 40
1.0
176
     1
 90
        1
176
     1
 90
        6
176
     1
 90
        2
176
     1
 62
     7
176
     1
 90
        3
176
     1
 90
        0
176
     1
 90
        0
176
     1
290
     0
176
     1
 90
        1
176
     1
 40
0.0
176
     1
 90
        0
176
     1
290
     0
176
     1
290
     1
176
     1
290
     1
176
     1
290
     0
176
     1
290
     0
176
     1
290
     0
176
     1
290
     0
176
     1
290
     0
176
     1
290
     0
176
     1
 90
       50
176
     1
 40
0.0
176
     1
 40
1.0
176
     1
 90
        0
176
     1
 62
    18
420
        0
176
     1
 90
       50
176
     1
 90
        3
176
     1
 62
     5
420
      255
176
     1
290
     0
176
     1
 90
       50
176
     1
 90
       50
176
     1
 90
       50
176
     1
290
     0
176
     1
 90
       50
176
     1
 62
   256
176
     0
 40
1.0
176
     0
 90
        2
176
     1
  1
strokes_ogs.tif
176
     1
290
     0
176
     1
 40
1.0
176
     1
 40
1.0
176
     1
  0
VISUALSTYLE
  5
272
102
{ACAD_REACTORS
330
267
102
}
330
267
100
AcDbVisualStyle
  2

 70
    11
177
     3
291
     1
 70
    58
 90
        2
176
     1
 90
        2
176
     1
 90
        0
176
     1
 90
        0
176
     1
 40
0.6
176
     1
 40
30.0
176
     1
 62
     7
420
 16777215
176
     1
 90
        1
176
     1
 90
        4
176
     1
 62
     7
176
     1
 62
   257
176
     1
 90
        1
176
     1
 90
        1
176
     1
 40
1.0
176
     1
 90
        8
176
     1
 62
     7
176
     1
 40
1.0
176
     1
 90
        1
176
     1
 90
        6
176
     1
 90
        2
176
     1
 62
     7
176
     1
 90
        5
176
     1
 90
        0
176
     1
 90
        0
176
     1
290
     0
176
     1
 90
        1
176
     1
 40
-50.0
176
     1
 90
        0
176
     1
290
     0
176
     1
290
     1
176
     1
290
     1
176
     1
290
     0
176
     1
290
     0
176
     1
290
     0
176
     1
290
     0
176
     1
290
     0
176
     1
290
     0
176
     1
 90
       50
176
     1
 40
0.0
176
     1
 40
1.0
176
     1
 90
        0
176
     1
 62
    18
420
        0
176
     1
 90
       50
176
     1
 90
        3
176
     1
 62
     5
420
      255
176
     1
290
     0
176
     1
 90
       50
176
     1
 90
       50
176
     1
 90
       50
176
     1
290
     0
176
     1
 90
       50
176
     1
 62
   256
176
     0
 40
1.0
176
     0
 90
        2
176
     1
  1
strokes_ogs.tif
176
     1
290
     0
176
     1
 40
1.0
176
     1
 40
1.0
176
     1
  0
VISUALSTYLE
  5
8FE
102
{ACAD_REACTORS
330
267
102
}
330
267
100
AcDbVisualStyle
  2

 70
    22
177
     3
291
     1
 70
    58
 90
        2
176
     1
 90
        2
176
     1
 90
        0
176
     1
 90
        0
176
     1
 40
0.6
176
     1
 40
30.0
176
     1
 62
     7
420
 16777215
176
     1
 90
        1
176
     1
 90
        4
176
     1
 62
     7
176
     1
 62
   257
176
     1
 90
        1
176
     1
 90
        1
176
     1
 40
1.0
176
     1
 90
        8
176
     1
 62
     7
176
     1
 40
1.0
176
     1
 90
        1
176
     1
 90
        6
176
     1
 90
        2
176
     1
 62
     7
176
     1
 90
        5
176
     1
 90
        0
176
     1
 90
        0
176
     1
290
     0
176
     1
 90
        1
176
     1
 40
0.0
176
     1
 90
        0
176
     1
290
     0
176
     1
290
     1
176
     1
290
     1
176
     1
290
     0
176
     1
290
     0
176
     1
290
     0
176
     1
290
     0
176
     1
290
     0
176
     1
290
     0
176
     1
 90
       50
176
     1
 40
0.0
176
     1
 40
1.0
176
     1
 90
        0
176
     1
 62
    18
420
        0
176
     1
 90
       50
176
     1
 90
        3
176
     1
 62
     5
420
      255
176
     1
290
     0
176
     1
 90
       50
176
     1
 90
       50
176
     1
 90
       50
176
     1
290
     0
176
     1
 90
       50
176
     1
 62
   256
176
     0
 40
1.0
176
     0
 90
        2
176
     1
  1
strokes_ogs.tif
176
     1
290
     0
176
     1
 40
1.0
176
     1
 40
1.0
176
     1
  0
VISUALSTYLE
  5
276
102
{ACAD_REACTORS
330
267
102
}
330
267
100
AcDbVisualStyle
  2

 70
    15
177
     3
291
     1
 70
    58
 90
        2
176
     1
 90
        2
176
     1
 90
        0
176
     1
 90
        0
176
     1
 40
0.6
176
     1
 40
30.0
176
     1
 62
     7
420
 16777215
176
     1
 90
        1
176
     1
 90
        4
176
     1
 62
     7
176
     1
 62
   257
176
     1
 90
        1
176
     1
 90
        1
176
     1
 40
1.0
176
     1
 90
        8
176
     1
 62
     7
176
     1
 40
1.0
176
     1
 90
        1
176
     1
 90
        6
176
     1
 90
        2
176
     1
 62
     7
176
     1
 90
        5
176
     1
 90
        0
176
     1
 90
        0
176
     1
290
     0
176
     1
 90
        1
176
     1
 40
0.0
176
     1
 90
        0
176
     1
290
     0
176
     1
290
     1
176
     1
290
     1
176
     1
290
     0
176
     1
290
     0
176
     1
290
     0
176
     1
290
     0
176
     1
290
     0
176
     1
290
     0
176
     1
 90
       50
176
     1
 40
0.0
176
     1
 40
1.0
176
     1
 90
        0
176
     1
 62
    18
420
        0
176
     1
 90
       50
176
     1
 90
        3
176
     1
 62
     5
420
      255
176
     1
290
     0
176
     1
 90
       50
176
     1
 90
       50
176
     1
 90
       50
176
     1
290
     0
176
     1
 90
       50
176
     1
 62
   256
176
     0
 40
1.0
176
     0
 90
        2
176
     1
  1
strokes_ogs.tif
176
     1
290
     0
176
     1
 40
1.0
176
     1
 40
1.0
176
     1
  0
VISUALSTYLE
  5
268
102
{ACAD_REACTORS
330
267
102
}
330
267
100
AcDbVisualStyle
  2

 70
     0
177
     3
291
     1
 70
    58
 90
        2
176
     1
 90
        1
176
     1
 90
        1
176
     1
 90
        2
176
     1
 40
0.6
176
     1
 40
30.0
176
     1
 62
     7
420
 16777215
176
     1
 90
        0
176
     1
 90
        4
176
     1
 62
     7
176
     1
 62
   257
176
     1
 90
        1
176
     1
 90
        1
176
     1
 40
1.0
176
     1
 90
        8
176
     1
 62
     7
176
     1
 40
1.0
176
     1
 90
        1
176
     1
 90
        6
176
     1
 90
        2
176
     1
 62
     7
176
     1
 90
        5
176
     1
 90
        0
176
     1
 90
        0
176
     1
290
     0
176
     1
 90
       13
176
     1
 40
0.0
176
     1
 90
        0
176
     1
290
     0
176
     1
290
     1
176
     1
290
     1
176
     1
290
     0
176
     1
290
     0
176
     1
290
     0
176
     1
290
     0
176
     1
290
     0
176
     1
290
     0
176
     1
 90
       50
176
     1
 40
0.0
176
     1
 40
1.0
176
     1
 90
        0
176
     1
 62
    18
420
        0
176
     1
 90
       50
176
     1
 90
        3
176
     1
 62
     5
420
      255
176
     1
290
     0
176
     1
 90
       50
176
     1
 90
       50
176
     1
 90
       50
176
     1
290
     0
176
     1
 90
       50
176
     1
 62
   256
176
     0
 40
1.0
176
     0
 90
        2
176
     1
  1
strokes_ogs.tif
176
     1
290
     0
176
     1
 40
1.0
176
     1
 40
1.0
176
     1
  0
VISUALSTYLE
  5
269
102
{ACAD_REACTORS
330
267
102
}
330
267
100
AcDbVisualStyle
  2

 70
     1
177
     3
291
     1
 70
    58
 90
        2
176
     1
 90
        1
176
     1
 90
        1
176
     1
 90
        2
176
     1
 40
0.6
176
     1
 40
30.0
176
     1
 62
     7
420
 16777215
176
     1
 90
        1
176
     1
 90
        4
176
     1
 62
     7
176
     1
 62
   257
176
     1
 90
        1
176
     1
 90
        1
176
     1
 40
1.0
176
     1
 90
        0
176
     1
 62
   257
176
     1
 40
1.0
176
     1
 90
        1
176
     1
 90
        6
176
     1
 90
        2
176
     1
 62
     7
176
     1
 90
        5
176
     1
 90
        0
176
     1
 90
        0
176
     1
290
     0
176
     1
 90
       13
176
     1
 40
0.0
176
     1
 90
        0
176
     1
290
     0
176
     1
290
     1
176
     1
290
     1
176
     1
290
     0
176
     1
290
     0
176
     1
290
     0
176
     1
290
     0
176
     1
290
     0
176
     1
290
     0
176
     1
 90
       50
176
     1
 40
0.0
176
     1
 40
1.0
176
     1
 90
        0
176
     1
 62
    18
420
        0
176
     1
 90
       50
176
     1
 90
        3
176
     1
 62
     5
420
      255
176
     1
290
     0
176
     1
 90
       50
176
     1
 90
       50
176
     1
 90
       50
176
     1
290
     0
176
     1
 90
       50
176
     1
 62
   256
176
     0
 40
1.0
176
     0
 90
        2
176
     1
  1
strokes_ogs.tif
176
     1
290
     0
176
     1
 40
1.0
176
     1
 40
1.0
176
     1
  0
VISUALSTYLE
  5
26A
102
{ACAD_REACTORS
330
267
102
}
330
267
100
AcDbVisualStyle
  2

 70
     2
177
     3
291
     1
 70
    58
 90
        2
176
     1
 90
        2
176
     1
 90
        1
176
     1
 90
        2
176
     1
 40
0.6
176
     1
 40
30.0
176
     1
 62
     7
420
 16777215
176
     1
 90
        0
176
     1
 90
        4
176
     1
 62
     7
176
     1
 62
   257
176
     1
 90
        1
176
     1
 90
        1
176
     1
 40
1.0
176
     1
 90
        0
176
     1
 62
     7
176
     1
 40
1.0
176
     1
 90
        1
176
     1
 90
        6
176
     1
 90
        2
176
     1
 62
     7
176
     1
 90
        5
176
     1
 90
        0
176
     1
 90
        0
176
     1
290
     0
176
     1
 90
       13
176
     1
 40
0.0
176
     1
 90
        0
176
     1
290
     0
176
     1
290
     1
176
     1
290
     1
176
     1
290
     0
176
     1
290
     0
176
     1
290
     0
176
     1
290
     0
176
     1
290
     0
176
     1
290
     0
176
     1
 90
       50
176
     1
 40
0.0
176
     1
 40
1.0
176
     1
 90
        0
176
     1
 62
    18
420
        0
176
     1
 90
       50
176
     1
 90
        3
176
     1
 62
     5
420
      255
176
     1
290
     0
176
     1
 90
       50
176
     1
 90
       50
176
     1
 90
       50
176
     1
290
     0
176
     1
 90
       50
176
     1
 62
   256
176
     0
 40
1.0
176
     0
 90
        2
176
     1
  1
strokes_ogs.tif
176
     1
290
     0
176
     1
 40
1.0
176
     1
 40
1.0
176
     1
  0
VISUALSTYLE
  5
26B
102
{ACAD_REACTORS
330
267
102
}
330
267
100
AcDbVisualStyle
  2

 70
     3
177
     3
291
     1
 70
    58
 90
        2
176
     1
 90
        2
176
     1
 90
        1
176
     1
 90
        2
176
     1
 40
0.6
176
     1
 40
30.0
176
     1
 62
     7
420
 16777215
176
     1
 90
        1
176
     1
 90
        4
176
     1
 62
     7
176
     1
 62
   257
176
     1
 90
        1
176
     1
 90
        1
176
     1
 40
1.0
176
     1
 90
        0
176
     1
 62
   257
176
     1
 40
1.0
176
     1
 90
        1
176
     1
 90
        6
176
     1
 90
        2
176
     1
 62
     7
176
     1
 90
        5
176
     1
 90
        0
176
     1
 90
        0
176
     1
290
     0
176
     1
 90
       13
176
     1
 40
0.0
176
     1
 90
        0
176
     1
290
     0
176
     1
290
     1
176
     1
290
     1
176
     1
290
     0
176
     1
290
     0
176
     1
290
     0
176
     1
290
     0
176
     1
290
     0
176
     1
290
     0
176
     1
 90
       50
176
     1
 40
0.0
176
     1
 40
1.0
176
     1
 90
        0
176
     1
 62
    18
420
        0
176
     1
 90
       50
176
     1
 90
        3
176
     1
 62
     5
420
      255
176
     1
290
     0
176
     1
 90
       50
176
     1
 90
       50
176
     1
 90
       50
176
     1
290
     0
176
     1
 90
       50
176
     1
 62
   256
176
     0
 40
1.0
176
     0
 90
        2
176
     1
  1
strokes_ogs.tif
176
     1
290
     0
176
     1
 40
1.0
176
     1
 40
1.0
176
     1
  0
VISUALSTYLE
  5
8FB
102
{ACAD_REACTORS
330
267
102
}
330
267
100
AcDbVisualStyle
  2

 70
     6
177
     3
291
     0
 70
    58
 90
        1
176
     1
 90
        2
176
     1
 90
        2
176
     1
 90
        0
176
     1
 40
0.6
176
     1
 40
30.0
176
     1
 62
     7
420
 16777215
176
     1
 90
        2
176
     1
 90
        2
176
     1
 62
     7
176
     1
 62
   257
176
     1
 90
        2
176
     1
 90
        1
176
     1
 40
40.0
176
     1
 90
        0
176
     1
 62
   257
176
     1
 40
1.0
176
     1
 90
        1
176
     1
 90
        6
176
     1
 90
        2
176
     1
 62
     7
176
     1
 90
        3
176
     1
 90
        0
176
     1
 90
        0
176
     1
290
     0
176
     1
 90
        1
176
     1
 40
0.0
176
     1
 90
        0
176
     1
290
     0
176
     1
290
     1
176
     1
290
     1
176
     1
290
     0
176
     1
290
     0
176
     1
290
     0
176
     1
290
     0
176
     1
290
     0
176
     1
290
     0
176
     1
 90
       50
176
     1
 40
0.0
176
     1
 40
1.0
176
     1
 90
        0
176
     1
 62
    18
420
        0
176
     1
 90
       50
176
     1
 90
        3
176
     1
 62
     5
420
      255
176
     1
290
     0
176
     1
 90
       50
176
     1
 90
       50
176
     1
 90
       50
176
     1
290
     0
176
     1
 90
       50
176
     1
 62
   256
176
     0
 40
1.0
176
     0
 90
        2
176
     1
  1
strokes_ogs.tif
176
     1
290
     0
176
     1
 40
1.0
176
     1
 40
1.0
176
     1
  0
VISUALSTYLE
  5
8FC
102
{ACAD_REACTORS
330
267
102
}
330
267
100
AcDbVisualStyle
  2

 70
    20
177
     3
291
     1
 70
    58
 90
        2
176
     1
 90
        2
176
     1
 90
        0
176
     1
 90
        0
176
     1
 40
0.6
176
     1
 40
30.0
176
     1
 62
     7
420
 16777215
176
     1
 90
        1
176
     1
 90
        4
176
     1
 62
     7
176
     1
 62
   257
176
     1
 90
        1
176
     1
 90
        1
176
     1
 40
1.0
176
     1
 90
       10
176
     1
 62
     7
176
     1
 40
1.0
176
     1
 90
        1
176
     1
 90
        6
176
     1
 90
        2
176
     1
 62
     7
176
     1
 90
        5
176
     1
 90
        0
176
     1
 90
        0
176
     1
290
     0
176
     1
 90
        1
176
     1
 40
0.0
176
     1
 90
        0
176
     1
290
     0
176
     1
290
     1
176
     1
290
     1
176
     1
290
     0
176
     1
290
     0
176
     1
290
     0
176
     1
290
     0
176
     1
290
     0
176
     1
290
     0
176
     1
 90
       50
176
     1
 40
0.0
176
     1
 40
1.0
176
     1
 90
        0
176
     1
 62
    18
420
        0
176
     1
 90
       50
176
     1
 90
        3
176
     1
 62
     5
420
      255
176
     1
290
     0
176
     1
 90
       50
176
     1
 90
       50
176
     1
 90
       50
176
     1
290
     0
176
     1
 90
       50
176
     1
 62
   256
176
     0
 40
1.0
176
     0
 90
        2
176
     1
  1
strokes_ogs.tif
176
     1
290
     0
176
     1
 40
1.0
176
     1
 40
1.0
176
     1
  0
VISUALSTYLE
  5
275
102
{ACAD_REACTORS
330
267
102
}
330
267
100
AcDbVisualStyle
  2

 70
    14
177
     3
291
     1
 70
    58
 90
        2
176
     1
 90
        2
176
     1
 90
        0
176
     1
 90
        0
176
     1
 40
0.6
176
     1
 40
30.0
176
     1
 62
     7
420
 16777215
176
     1
 90
        1
176
     1
 90
        4
176
     1
 62
     7
176
     1
 62
   257
176
     1
 90
        7
176
     1
 90
        7
176
     1
 40
1.0
176
     1
 90
        8
176
     1
 62
     7
176
     1
 40
1.0
176
     1
 90
        1
176
     1
 90
        6
176
     1
 90
        2
176
     1
 62
     7
176
     1
 90
        5
176
     1
 90
        0
176
     1
 90
        0
176
     1
290
     0
176
     1
 90
        1
176
     1
 40
0.0
176
     1
 90
        0
176
     1
290
     0
176
     1
290
     1
176
     1
290
     1
176
     1
290
     0
176
     1
290
     0
176
     1
290
     0
176
     1
290
     0
176
     1
290
     0
176
     1
290
     0
176
     1
 90
       50
176
     1
 40
0.0
176
     1
 40
1.0
176
     1
 90
        0
176
     1
 62
    18
420
        0
176
     1
 90
       50
176
     1
 90
        3
176
     1
 62
     5
420
      255
176
     1
290
     0
176
     1
 90
       50
176
     1
 90
       50
176
     1
 90
       50
176
     1
290
     0
176
     1
 90
       50
176
     1
 62
   256
176
     0
 40
1.0
176
     0
 90
        2
176
     1
  1
strokes_ogs.tif
176
     1
290
     0
176
     1
 40
1.0
176
     1
 40
1.0
176
     1
  0
VISUALSTYLE
  5
8FD
102
{ACAD_REACTORS
330
267
102
}
330
267
100
AcDbVisualStyle
  2

 70
    21
177
     3
291
     1
 70
    58
 90
        2
176
     1
 90
        2
176
     1
 90
        0
176
     1
 90
        0
176
     1
 40
0.6
176
     1
 40
30.0
176
     1
 62
     7
420
 16777215
176
     1
 90
        1
176
     1
 90
        4
176
     1
 62
     7
176
     1
 62
   257
176
     1
 90
        1
176
     1
 90
        1
176
     1
 40
1.0
176
     1
 90
        9
176
     1
 62
     7
176
     1
 40
1.0
176
     1
 90
        1
176
     1
 90
        6
176
     1
 90
        2
176
     1
 62
     7
176
     1
 90
        5
176
     1
 90
        0
176
     1
 90
        0
176
     1
290
     0
176
     1
 90
        1
176
     1
 40
0.0
176
     1
 90
        0
176
     1
290
     0
176
     1
290
     1
176
     1
290
     1
176
     1
290
     0
176
     1
290
     0
176
     1
290
     0
176
     1
290
     0
176
     1
290
     0
176
     1
290
     0
176
     1
 90
       50
176
     1
 40
0.0
176
     1
 40
1.0
176
     1
 90
        0
176
     1
 62
    18
420
        0
176
     1
 90
       50
176
     1
 90
        3
176
     1
 62
     5
420
      255
176
     1
290
     0
176
     1
 90
       50
176
     1
 90
       50
176
     1
 90
       50
176
     1
290
     0
176
     1
 90
       50
176
     1
 62
   256
176
     0
 40
1.0
176
     0
 90
        2
176
     1
  1
strokes_ogs.tif
176
     1
290
     0
176
     1
 40
1.0
176
     1
 40
1.0
176
     1
  0
VISUALSTYLE
  5
270
102
{ACAD_REACTORS
330
267
102
}
330
267
100
AcDbVisualStyle
  2

 70
     8
177
     3
291
     0
 70
    58
 90
        2
176
     1
 90
        2
176
     1
 90
        0
176
     1
 90
        0
176
     1
 40
0.6
176
     1
 40
30.0
176
     1
 62
     7
420
 16777215
176
     1
 90
        1
176
     1
 90
        0
176
     1
 62
     7
176
     1
 62
   257
176
     1
 90
        1
176
     1
 90
        1
176
     1
 40
1.0
176
     1
 90
        8
176
     1
 62
     8
420
  7895160
176
     1
 40
1.0
176
     1
 90
        1
176
     1
 90
        6
176
     1
 90
        2
176
     1
 62
     7
176
     1
 90
        5
176
     1
 90
        0
176
     1
 90
        0
176
     1
290
     0
176
     1
 90
       13
176
     1
 40
0.0
176
     1
 90
        0
176
     1
290
     0
176
     1
290
     1
176
     1
290
     1
176
     1
290
     0
176
     1
290
     0
176
     1
290
     0
176
     1
290
     0
176
     1
290
     0
176
     1
290
     0
176
     1
 90
       50
176
     1
 40
0.0
176
     1
 40
1.0
176
     1
 90
        0
176
     1
 62
    18
420
        0
176
     1
 90
       50
176
     1
 90
        3
176
     1
 62
     5
420
      255
176
     1
290
     0
176
     1
 90
       50
176
     1
 90
       50
176
     1
 90
       50
176
     1
290
     0
176
     1
 90
       50
176
     1
 62
   256
176
     0
 40
1.0
176
     0
 90
        2
176
     1
  1
strokes_ogs.tif
176
     1
290
     0
176
     1
 40
1.0
176
     1
 40
1.0
176
     1
  0
VISUALSTYLE
  5
903
102
{ACAD_REACTORS
330
267
102
}
330
267
100
AcDbVisualStyle
  2

 70
    27
177
     3
291
     0
 70
    58
 90
        2
176
     1
 90
        2
176
     1
 90
        1
176
     1
 90
        2
176
     1
 40
0.6
176
     1
 40
30.0
176
     1
 62
     7
420
 16777215
176
     1
 90
        0
176
     1
 90
        4
176
     1
 62
     7
176
     1
 62
   257
176
     1
 90
        1
176
     1
 90
        1
176
     1
 40
1.0
176
     1
 90
        8
176
     1
 62
   257
176
     1
 40
1.0
176
     1
 90
        1
176
     1
 90
        6
176
     1
 90
        2
176
     1
 62
     8
420
  7895160
176
     1
 90
        3
176
     1
 90
        0
176
     1
 90
        0
176
     1
290
     0
176
     1
 90
        5
176
     1
 40
0.0
176
     1
 90
        0
176
     1
290
     0
176
     1
290
     1
176
     1
290
     1
176
     1
290
     0
176
     1
290
     0
176
     1
290
     0
176
     1
290
     0
176
     1
290
     0
176
     1
290
     0
176
     1
 90
       50
176
     1
 40
0.0
176
     1
 40
1.0
176
     1
 90
        0
176
     1
 62
    18
420
        0
176
     1
 90
       50
176
     1
 90
        3
176
     1
 62
     5
420
      255
176
     1
290
     0
176
     1
 90
       50
176
     1
 90
       50
176
     1
 90
       50
176
     1
290
     0
176
     1
 90
       50
176
     1
 62
   256
176
     0
 40
1.0
176
     0
 90
        2
176
     1
  1
strokes_ogs.tif
176
     1
290
     0
176
     1
 40
1.0
176
     1
 40
1.0
176
     1
  0
VISUALSTYLE
  5
902
102
{ACAD_REACTORS
330
267
102
}
330
267
100
AcDbVisualStyle
  2

 70
    26
177
     3
291
     0
 70
    58
 90
        2
176
     1
 90
        2
176
     1
 90
        1
176
     1
 90
        2
176
     1
 40
0.6
176
     1
 40
30.0
176
     1
 62
     7
420
 16777215
176
     1
 90
        1
176
     1
 90
       10
176
     1
 62
     7
176
     1
 62
   257
176
     1
 90
        2
176
     1
 90
        1
176
     1
 40
1.0
176
     1
 90
        8
176
     1
 62
   257
176
     1
 40
1.0
176
     1
 90
        1
176
     1
 90
        6
176
     1
 90
        2
176
     1
 62
     7
176
     1
 90
        3
176
     1
 90
        0
176
     1
 90
        0
176
     1
290
     0
176
     1
 90
        5
176
     1
 40
0.0
176
     1
 90
        0
176
     1
290
     0
176
     1
290
     1
176
     1
290
     1
176
     1
290
     0
176
     1
290
     0
176
     1
290
     0
176
     1
290
     0
176
     1
290
     0
176
     1
290
     0
176
     1
 90
       50
176
     1
 40
0.0
176
     1
 40
1.0
176
     1
 90
        0
176
     1
 62
    18
420
        0
176
     1
 90
       50
176
     1
 90
        3
176
     1
 62
     5
420
      255
176
     1
290
     0
176
     1
 90
       50
176
     1
 90
       50
176
     1
 90
       50
176
     1
290
     0
176
     1
 90
       50
176
     1
 62
   256
176
     0
 40
1.0
176
     0
 90
        2
176
     1
  1
strokes_ogs.tif
176
     1
290
     0
176
     1
 40
1.0
176
     1
 40
1.0
176
     1
  0
VISUALSTYLE
  5
8FF
102
{ACAD_REACTORS
330
267
102
}
330
267
100
AcDbVisualStyle
  2

 70
    23
177
     3
291
     0
 70
    58
 90
        2
176
     1
 90
        2
176
     1
 90
        3
176
     1
 90
        0
176
     1
 40
0.6
176
     1
 40
30.0
176
     1
 62
     7
420
 16777215
176
     1
 90
        2
176
     1
 90
        2
176
     1
 62
     7
176
     1
 62
     7
176
     1
 90
        1
176
     1
 90
        1
176
     1
 40
40.0
176
     1
 90
        8
176
     1
 62
     7
176
     1
 40
1.0
176
     1
 90
        1
176
     1
 90
        6
176
     1
 90
        2
176
     1
 62
     7
176
     1
 90
        3
176
     1
 90
        0
176
     1
 90
        0
176
     1
290
     0
176
     1
 90
        1
176
     1
 40
0.0
176
     1
 90
        0
176
     1
290
     0
176
     1
290
     1
176
     1
290
     1
176
     1
290
     0
176
     1
290
     0
176
     1
290
     0
176
     1
290
     0
176
     1
290
     0
176
     1
290
     0
176
     1
 90
       50
176
     1
 40
0.0
176
     1
 40
1.0
176
     1
 90
        0
176
     1
 62
    18
420
        0
176
     1
 90
       50
176
     1
 90
        3
176
     1
 62
     5
420
      255
176
     1
290
     0
176
     1
 90
       50
176
     1
 90
       50
176
     1
 90
       50
176
     1
290
     0
176
     1
 90
       50
176
     1
 62
   256
176
     0
 40
1.0
176
     0
 90
        2
176
     1
  1
strokes_ogs.tif
176
     1
290
     0
176
     1
 40
1.0
176
     1
 40
1.0
176
     1
  0
VISUALSTYLE
  5
900
102
{ACAD_REACTORS
330
267
102
}
330
267
100
AcDbVisualStyle
  2

 70
    24
177
     3
291
     0
 70
    58
 90
        1
176
     1
 90
        2
176
     1
 90
        2
176
     1
 90
        0
176
     1
 40
0.6
176
     1
 40
30.0
176
     1
 62
     7
420
 16777215
176
     1
 90
        2
176
     1
 90
        2
176
     1
 62
     7
176
     1
 62
     7
176
     1
 90
        1
176
     1
 90
        1
176
     1
 40
40.0
176
     1
 90
       11
176
     1
 62
     7
176
     1
 40
1.0
176
     1
 90
        1
176
     1
 90
        6
176
     1
 90
        2
176
     1
 62
     7
176
     1
 90
        6
176
     1
 90
        0
176
     1
 90
        0
176
     1
290
     0
176
     1
 90
        1
176
     1
 40
0.0
176
     1
 90
        0
176
     1
290
     0
176
     1
290
     1
176
     1
290
     1
176
     1
290
     0
176
     1
290
     0
176
     1
290
     0
176
     1
290
     0
176
     1
290
     0
176
     1
290
     0
176
     1
 90
       50
176
     1
 40
0.0
176
     1
 40
1.0
176
     1
 90
        0
176
     1
 62
    18
420
        0
176
     1
 90
       50
176
     1
 90
        3
176
     1
 62
     5
420
      255
176
     1
290
     0
176
     1
 90
       50
176
     1
 90
       50
176
     1
 90
       50
176
     1
290
     0
176
     1
 90
       50
176
     1
 62
   256
176
     0
 40
1.0
176
     0
 90
        2
176
     1
  1
strokes_ogs.tif
176
     1
290
     0
176
     1
 40
1.0
176
     1
 40
1.0
176
     1
  0
VISUALSTYLE
  5
274
102
{ACAD_REACTORS
330
267
102
}
330
267
100
AcDbVisualStyle
  2

 70
    13
177
     3
291
     1
 70
    58
 90
        2
176
     1
 90
        2
176
     1
 90
        0
176
     1
 90
        0
176
     1
 40
0.6
176
     1
 40
30.0
176
     1
 62
     7
420
 16777215
176
     1
 90
        1
176
     1
 90
        4
176
     1
 62
     7
176
     1
 62
   257
176
     1
 90
        1
176
     1
 90
        1
176
     1
 40
1.0
176
     1
 90
       12
176
     1
 62
     7
176
     1
 40
1.0
176
     1
 90
        1
176
     1
 90
        6
176
     1
 90
        2
176
     1
 62
     7
176
     1
 90
        5
176
     1
 90
        0
176
     1
 90
        0
176
     1
290
     0
176
     1
 90
        1
176
     1
 40
0.0
176
     1
 90
        0
176
     1
290
     0
176
     1
290
     1
176
     1
290
     1
176
     1
290
     0
176
     1
290
     0
176
     1
290
     0
176
     1
290
     0
176
     1
290
     0
176
     1
290
     0
176
     1
 90
       50
176
     1
 40
0.0
176
     1
 40
1.0
176
     1
 90
        0
176
     1
 62
    18
420
        0
176
     1
 90
       50
176
     1
 90
        3
176
     1
 62
     5
420
      255
176
     1
290
     0
176
     1
 90
       50
176
     1
 90
       50
176
     1
 90
       50
176
     1
290
     0
176
     1
 90
       50
176
     1
 62
   256
176
     0
 40
1.0
176
     0
 90
        2
176
     1
  1
strokes_ogs.tif
176
     1
290
     0
176
     1
 40
1.0
176
     1
 40
1.0
176
     1
  0
VISUALSTYLE
  5
8FA
102
{ACAD_REACTORS
330
267
102
}
330
267
100
AcDbVisualStyle
  2

 70
     5
177
     3
291
     0
 70
    58
 90
        0
176
     1
 90
        2
176
     1
 90
        0
176
     1
 90
        0
176
     1
 40
0.6
176
     1
 40
30.0
176
     1
 62
     7
420
 16777215
176
     1
 90
        1
176
     1
 90
        4
176
     1
 62
     7
176
     1
 62
   257
176
     1
 90
        1
176
     1
 90
        1
176
     1
 40
1.0
176
     1
 90
        0
176
     1
 62
   257
176
     1
 40
1.0
176
     1
 90
        1
176
     1
 90
        6
176
     1
 90
        2
176
     1
 62
     7
176
     1
 90
        3
176
     1
 90
        0
176
     1
 90
        0
176
     1
290
     0
176
     1
 90
        1
176
     1
 40
0.0
176
     1
 90
        0
176
     1
290
     0
176
     1
290
     1
176
     1
290
     1
176
     1
290
     0
176
     1
290
     0
176
     1
290
     0
176
     1
290
     0
176
     1
290
     0
176
     1
290
     0
176
     1
 90
       50
176
     1
 40
0.0
176
     1
 40
1.0
176
     1
 90
        0
176
     1
 62
    18
420
        0
176
     1
 90
       50
176
     1
 90
        3
176
     1
 62
     5
420
      255
176
     1
290
     0
176
     1
 90
       50
176
     1
 90
       50
176
     1
 90
       50
176
     1
290
     0
176
     1
 90
       50
176
     1
 62
   256
176
     0
 40
1.0
176
     0
 90
        2
176
     1
  1
strokes_ogs.tif
176
     1
290
     0
176
     1
 40
1.0
176
     1
 40
1.0
176
     1
  0
VISUALSTYLE
  5
901
102
{ACAD_REACTORS
330
267
102
}
330
267
100
AcDbVisualStyle
  2

 70
    25
177
     3
291
     0
 70
    58
 90
        2
176
     1
 90
        2
176
     1
 90
        1
176
     1
 90
        1
176
     1
 40
0.5
176
     1
 40
30.0
176
     1
 62
     7
420
 16777215
176
     1
 90
        1
176
     1
 90
        0
176
     1
 62
     7
176
     1
 62
   257
176
     1
 90
        1
176
     1
 90
        1
176
     1
 40
1.0
176
     1
 90
        8
176
     1
 62
     7
176
     1
 40
1.0
176
     1
 90
        1
176
     1
 90
        6
176
     1
 90
        2
176
     1
 62
     7
176
     1
 90
        3
176
     1
 90
        0
176
     1
 90
        0
176
     1
290
     0
176
     1
 90
       13
176
     1
 40
0.0
176
     1
 90
        0
176
     1
290
     0
176
     1
290
     1
176
     1
290
     1
176
     1
290
     0
176
     1
290
     0
176
     1
290
     0
176
     1
290
     0
176
     1
290
     0
176
     1
290
     0
176
     1
 90
       50
176
     1
 40
0.0
176
     1
 40
1.0
176
     1
 90
        0
176
     1
 62
    18
420
        0
176
     1
 90
       50
176
     1
 90
        3
176
     1
 62
     5
420
      255
176
     1
290
     0
176
     1
 90
       50
176
     1
 90
       50
176
     1
 90
       50
176
     1
290
     0
176
     1
 90
       50
176
     1
 62
   256
176
     0
 40
1.0
176
     0
 90
        2
176
     1
  1
strokes_ogs.tif
176
     1
290
     0
176
     1
 40
1.0
176
     1
 40
1.0
176
     1
  0
DICTIONARYVAR
  5
331
102
{ACAD_REACTORS
330
330
102
}
330
330
100
DictionaryVariables
280
     0
  1
1:1
  0
DICTIONARYVAR
  5
D5E
102
{ACAD_REACTORS
330
330
102
}
330
330
100
DictionaryVariables
280
     0
  1
STANDARD
  0
DICTIONARYVAR
  5
335
102
{ACAD_REACTORS
330
330
102
}
330
330
100
DictionaryVariables
280
     0
  1
STANDARD
  0
DICTIONARYVAR
  5
18BB7
102
{ACAD_REACTORS
330
330
102
}
330
330
100
DictionaryVariables
280
     0
  1
Metric50
  0
DICTIONARYVAR
  5
18BB8
102
{ACAD_REACTORS
330
330
102
}
330
330
100
DictionaryVariables
280
     0
  1
Metric50
  0
DICTIONARYVAR
  5
D52
102
{ACAD_REACTORS
330
330
102
}
330
330
100
DictionaryVariables
280
     0
  1
ByLayer
  0
DICTIONARYVAR
  5
18BB9
102
{ACAD_REACTORS
330
330
102
}
330
330
100
DictionaryVariables
280
     0
  1
1
  0
DICTIONARYVAR
  5
18BBA
102
{ACAD_REACTORS
330
330
102
}
330
330
100
DictionaryVariables
280
     0
  1
15
  0
XRECORD
  5
18BAF
102
{ACAD_REACTORS
330
18BAD
102
}
330
18BAD
100
AcDbXrecord
280
     1
330
18935
330
68C
330
1343
330
18735
330
18736
330
1879A
330
1879B
330
187BA
330
187BB
330
187C8
330
187C9
330
18B10
330
18B11
330
18B1C
330
18B1D
330
18B28
330
18B29
330
18B34
330
18B35
  0
DICTIONARYVAR
  5
36AB
102
{ACAD_REACTORS
330
366B
102
}
330
366B
100
DictionaryVariables
280
     0
  1
0.250000
  0
DICTIONARYVAR
  5
36A9
102
{ACAD_REACTORS
330
E38
102
}
330
E38
100
DictionaryVariables
280
     0
  1
0.261799
  0
DICTIONARYVAR
  5
36A7
102
{ACAD_REACTORS
330
E38
102
}
330
E38
100
DictionaryVariables
280
     0
  1
0.400000
  0
DICTIONARYVAR
  5
36A8
102
{ACAD_REACTORS
330
E38
102
}
330
E38
100
DictionaryVariables
280
     0
  1
0.250000
  0
DICTIONARYVAR
  5
36AA
102
{ACAD_REACTORS
330
E38
102
}
330
E38
100
DictionaryVariables
280
     0
  1
1
  0
FIELD
  5
36AD
102
{ACAD_REACTORS
330
18B53
102
}
330
18B53
100
AcDbField
  1
_text
  2
%<\_FldIdx 0>%N
 90
        1
360
36B1
 97
        0
 91
       63
 92
        0
 94
       13
 95
        2
 96
        0
300

 93
        1
  6
ACFD_FIELDTEXT_CHECKSUM
 93
        2
 90
        2
140
2520.0
 94
        0
300

302

304
ACVALUE_END
  7
ACFD_FIELD_VALUE
 93
        3
 90
        0
 94
        0
300

302

304
ACVALUE_END
301

 98
        0
  0
DICTIONARY
  5
18B72
330
279
100
AcDbDictionary
280
     1
281
     1
  3
ACAD_ROUNDTRIP_2008_TABLESTYLE_CELLSTYLEMAP
360
18C1A
  0
FIELD
  5
36B1
330
36AD
100
AcDbField
  1
AcVar
  2
\AcVar Date \f "yyyyMMdd"
 90
        0
 97
        0
 91
       32
 92
        0
 94
       59
 95
        2
 96
        0
300

 93
        1
  6
Variable
 93
        2
 90
        4
  1
Date
 94
        0
300

302

304
ACVALUE_END
  7
ACFD_FIELD_VALUE
 93
        4
 90
        8
 92
       16
310
E7070800010015001500280019000000
 94
        0
300
yyyyMMdd
302
20230821
304
ACVALUE_END
301
20230821
 98
        8
  0
CELLSTYLEMAP
  5
18C1A
102
{ACAD_REACTORS
330
18B72
102
}
330
18B72
100
AcDbCellStyleMap
 90
        3
300
CELLSTYLE
  1
TABLEFORMAT_BEGIN
 90
        5
170
     1
 91
        0
 92
    32768
 62
   257
 93
        1
300
CONTENTFORMAT
  1
CONTENTFORMAT_BEGIN
 90
        0
 91
        0
 92
        4
 93
        0
300

 40
0.0
140
1.0
 94
        5
 62
     0
340
17
144
6.0
309
CONTENTFORMAT_END
171
     1
301
MARGIN
  1
CELLMARGIN_BEGIN
 40
0.06
 40
0.06
 40
0.06
 40
0.06
 40
0.18
 40
0.18
309
CELLMARGIN_END
 94
        6
 95
        1
302
GRIDFORMAT
  1
GRIDFORMAT_BEGIN
 90
        0
 91
        1
 62
     0
 92
       -2
340
0
 93
        0
 40
0.045
309
GRIDFORMAT_END
 95
        2
302
GRIDFORMAT
  1
GRIDFORMAT_BEGIN
 90
        0
 91
        1
 62
     0
 92
       -2
340
0
 93
        0
 40
0.045
309
GRIDFORMAT_END
 95
        4
302
GRIDFORMAT
  1
GRIDFORMAT_BEGIN
 90
        0
 91
        1
 62
     0
 92
       -2
340
0
 93
        0
 40
0.045
309
GRIDFORMAT_END
 95
        8
302
GRIDFORMAT
  1
GRIDFORMAT_BEGIN
 90
        0
 91
        1
 62
     0
 92
       -2
340
0
 93
        0
 40
0.045
309
GRIDFORMAT_END
 95
       16
302
GRIDFORMAT
  1
GRIDFORMAT_BEGIN
 90
        0
 91
        1
 62
     0
 92
       -2
340
0
 93
        0
 40
0.045
309
GRIDFORMAT_END
 95
       32
302
GRIDFORMAT
  1
GRIDFORMAT_BEGIN
 90
        0
 91
        1
 62
     0
 92
       -2
340
0
 93
        0
 40
0.045
309
GRIDFORMAT_END
309
TABLEFORMAT_END
  1
CELLSTYLE_BEGIN
 90
        1
 91
        1
300
_TITLE
309
CELLSTYLE_END
300
CELLSTYLE
  1
TABLEFORMAT_BEGIN
 90
        5
170
     1
 91
        0
 92
        0
 62
   257
 93
        1
300
CONTENTFORMAT
  1
CONTENTFORMAT_BEGIN
 90
        0
 91
        0
 92
        4
 93
        0
300

 40
0.0
140
1.0
 94
        5
 62
     0
340
17
144
4.5
309
CONTENTFORMAT_END
171
     1
301
MARGIN
  1
CELLMARGIN_BEGIN
 40
0.06
 40
0.06
 40
0.06
 40
0.06
 40
0.18
 40
0.18
309
CELLMARGIN_END
 94
        6
 95
        1
302
GRIDFORMAT
  1
GRIDFORMAT_BEGIN
 90
        0
 91
        1
 62
     0
 92
       -2
340
0
 93
        0
 40
0.045
309
GRIDFORMAT_END
 95
        2
302
GRIDFORMAT
  1
GRIDFORMAT_BEGIN
 90
        0
 91
        1
 62
     0
 92
       -2
340
0
 93
        0
 40
0.045
309
GRIDFORMAT_END
 95
        4
302
GRIDFORMAT
  1
GRIDFORMAT_BEGIN
 90
        0
 91
        1
 62
     0
 92
       -2
340
0
 93
        0
 40
0.045
309
GRIDFORMAT_END
 95
        8
302
GRIDFORMAT
  1
GRIDFORMAT_BEGIN
 90
        0
 91
        1
 62
     0
 92
       -2
340
0
 93
        0
 40
0.045
309
GRIDFORMAT_END
 95
       16
302
GRIDFORMAT
  1
GRIDFORMAT_BEGIN
 90
        0
 91
        1
 62
     0
 92
       -2
340
0
 93
        0
 40
0.045
309
GRIDFORMAT_END
 95
       32
302
GRIDFORMAT
  1
GRIDFORMAT_BEGIN
 90
        0
 91
        1
 62
     0
 92
       -2
340
0
 93
        0
 40
0.045
309
GRIDFORMAT_END
309
TABLEFORMAT_END
  1
CELLSTYLE_BEGIN
 90
        2
 91
        1
300
_HEADER
309
CELLSTYLE_END
300
CELLSTYLE
  1
TABLEFORMAT_BEGIN
 90
        5
170
     1
 91
        0
 92
        0
 62
   257
 93
        1
300
CONTENTFORMAT
  1
CONTENTFORMAT_BEGIN
 90
        0
 91
        0
 92
        4
 93
        0
300

 40
0.0
140
1.0
 94
        2
 62
     0
340
17
144
4.5
309
CONTENTFORMAT_END
171
     1
301
MARGIN
  1
CELLMARGIN_BEGIN
 40
0.06
 40
0.06
 40
0.06
 40
0.06
 40
0.18
 40
0.18
309
CELLMARGIN_END
 94
        6
 95
        1
302
GRIDFORMAT
  1
GRIDFORMAT_BEGIN
 90
        0
 91
        1
 62
     0
 92
       -2
340
0
 93
        0
 40
0.045
309
GRIDFORMAT_END
 95
        2
302
GRIDFORMAT
  1
GRIDFORMAT_BEGIN
 90
        0
 91
        1
 62
     0
 92
       -2
340
0
 93
        0
 40
0.045
309
GRIDFORMAT_END
 95
        4
302
GRIDFORMAT
  1
GRIDFORMAT_BEGIN
 90
        0
 91
        1
 62
     0
 92
       -2
340
0
 93
        0
 40
0.045
309
GRIDFORMAT_END
 95
        8
302
GRIDFORMAT
  1
GRIDFORMAT_BEGIN
 90
        0
 91
        1
 62
     0
 92
       -2
340
0
 93
        0
 40
0.045
309
GRIDFORMAT_END
 95
       16
302
GRIDFORMAT
  1
GRIDFORMAT_BEGIN
 90
        0
 91
        1
 62
     0
 92
       -2
340
0
 93
        0
 40
0.045
309
GRIDFORMAT_END
 95
       32
302
GRIDFORMAT
  1
GRIDFORMAT_BEGIN
 90
        0
 91
        1
 62
     0
 92
       -2
340
0
 93
        0
 40
0.045
309
GRIDFORMAT_END
309
TABLEFORMAT_END
  1
CELLSTYLE_BEGIN
 90
        3
 91
        2
300
_DATA
309
CELLSTYLE_END
  0
ENDSEC
  0
SECTION
  2
ACDSDATA
 70
     2
 71
     8
  0
ACDSSCHEMA
 90
        0
  1
AcDb_Thumbnail_Schema
  2
AcDbDs::ID
280
    10
 91
        8
  2
Thumbnail_Data
280
    15
 91
        0
101
ACDSRECORD
 95
        0
 90
        1
  2
AcDbDs::TreatedAsObjectData
280
     1
291
     1
101
ACDSRECORD
 95
        0
 90
        2
  2
AcDbDs::Legacy
280
     1
291
     1
101
ACDSRECORD
  1
AcDbDs::ID
 90
        3
  2
AcDs:Indexable
280
     1
291
     1
101
ACDSRECORD
  1
AcDbDs::ID
 90
        4
  2
AcDbDs::HandleAttribute
280
     7
282
     1
  0
ACDSSCHEMA
 90
        1
  1
AcDbDs::TreatedAsObjectDataSchema
  2
AcDbDs::TreatedAsObjectData
280
     1
 91
        0
  0
ACDSSCHEMA
 90
        2
  1
AcDbDs::LegacySchema
  2
AcDbDs::Legacy
280
     1
 91
        0
  0
ACDSSCHEMA
 90
        3
  1
AcDbDs::IndexedPropertySchema
  2
AcDs:Indexable
280
     1
 91
        0
  0
ACDSSCHEMA
 90
        4
  1
AcDbDs::HandleAttributeSchema
  2
AcDbDs::HandleAttribute
280
     7
 91
        1
284
     1
  0
ACDSRECORD
 90
        0
  2
AcDbDs::ID
280
    10
320
20
  2
Thumbnail_Data
280
    15
 94
     1588
310
89504E470D0A1A0A0000000D49484452000001000000008E080200000051DD412D000005FB4944415478DAED9DCD76AB201446F1AEBE88193533F3FE0FD1CE9C358FE21DD8CB75012A28289CB3F7202B4DB549031FE7870374FDE76074F01EBF9C57FAE7CB79BD7FBE9C1F83378ABF7DFEAD063A5502D0D3AE7C5191FCA1BD
310
41338A2C0080CF8742CBFEB3E216C3E35F60A0C705FAD0DCD2B044E7B8400C00AA4100800000108078980400D5027893FC015C20000400F88A0800F0151100E00261D9412F1A6B8164E0542E50DC8100D4613B3DE57D0880C8F5BB7F0EEFF13BFE96C94C41BBA1CA57440062229CC13EC632AAF0150982214C673ABE040400
310
0800000100280C8299088340108C0068D7EAF819BF36F2FDF36FED0549F9505C20684C06BE12FC4931341003F3008DF188D8D9C5767D7F766C3293A16E0201346D0122A29DDF4EEFCF8E3DCCEB3D7EF786DDD01040CB16C00F09ECF3F3A33BA5103269BD5D833DDB71FDED8FDB3511DBE101A510329197DDC3954700000800
310
92BDC121AD6E14014085D838D80900D6FC7E660610804C19A40442FB1A200B24D5EE4B6BD7E5909F715524E703C8445EBB2675FA79762C75D9242E10B464077635C0D7850054C700A0D70512DFDD335643200068D5E7C120E002012000005C20911EFFAE93E35CD099CE663FE70531DDD8CDCF1F46FBCE702C8A6FC3E3B78F
310
CE938D2BEDA35D16D33F87F946FB3CF88E2C8A97498BEDFA78BE7EC6AFE5A37DD15EE0AF060EDE05C4004DB2AD01675D9873817DE46B2406685B03CEA37DB25CFBBB7CDDBF1EB00000080084660B1000EDAA375B800068572008D6E8AE50E18C05004000000800B2B85564816857C59005A25D010100200000040080000010
310
000002009003B540A7F0571B2E57A02731992969F14A70A16396E52FEC0E2D93ECED1ADC957F1AA787791DA851EBC62EF5F046E7AD73ADFDE58C309994980863C1210290EFE154BBAB823D359E7D1F104091EE55D5001F8C2B821B040102C8E6DED430B86E1CEFC5D88F00AE3002753A1B85244A164826A9EDEA6C4455E788
310
5BC2FF210B2493D42C50CCB66AD7E8C13FD677ED7DF188B00039FD9F6097725EB9ACCF2D77789EC549774700F9DD7DDF0824B91F453BE5AF1D18C31F80CD4011C0491FE9DBED6AEBAE51554205047096B98627663817EF78B0289E76DD098EC9162000F9EDBA36C96A2DC02D6128075EE0025DED703B1D6EA98ADAFA221102
310
16A06CEFAF018C0002B8AE9F39A510F57C369DF1092ED03D1660B763E17B6001245B004000C400FBD7F3A5E102B5C75AA97DD239BBCBE29CC8EBB348B484F74F39B44C8E95431F084C970756C7D88AC82D247C5D2DDF71A9BD9362A01C5AEA487FA41C3AD5B19965B3DD05CFE431D7FE38B10A02281203D0B17081947278C1
310
E1EE2D67C26596C22080AB8DC0E14450E45A82B90A753712F0ABFF9D2098A42D0238161C87FB5F52EF2F94904992C45DD9026280563AFA2BB57B258DA9620206CAA165F23E94CFC1B7C605D21B045B0DEC7A3838DF08406604ECF46F0C0202D06501EA54668C680101E4B100776D0474409C5992A164816472200B64362B70
310
6ED93DF782315E551648910548ADF162CE150BA088C94C6B4600B0004A4C44033BC30102281556FA67D46DEF0CE73FB92CFCADE7F00E04A0512ACB7E5FE8A8C698F824581E87DB460C90B3A3EF2E6DB9E583B12D0A16E08A51D6BAFB381B0840A305A87CC77D16C5E302156CD726AA414BD460530E2D931267845565040001
310
E48F01EA0FD3C9FC208082DD6BDBBDBE7D0066DF0A82E09BA36447039DE97A3344EE75B56432D3C3244729B40202A8C24AFC0FB5CD60362B2956FF94799D7CEBBBB205B8406DD0E32A94C9162000DA15100000020040000008009A852C10EDAA1AB240B42B6841F544D89999540A10B0000058007D637FAEBF0008E066EA77
310
63760F9CAC6A5040008D75FDFA577BED7E544211620080E374FDE7A0E45FB57B83E2BEB7EB13E2021DC79F0893110364BF46D549F14A77874E8D016E944ACC5B475E63D7AF11391003E0E180320BD0682F893153A9D710052180B087A05990CC03681FECEBDFFFF09AAF827268992869D7C89D8236AEE18C30992CB34082CD
310
7DE4BF56E1D1970880F017708100B0008CF4800500B2055880DC71B0DFD86B490FFF5731AF88B95D4997F80B9D14E4C1B593599C0000000049454E44AE426082
  0
ENDSEC
  0
EOF
