  0
SECTION
  2
HEADER
  9
$ACADVER
  1
AC1021
  9
$ACADMAINTVER
 70
    25
  9
$DWGCODEPAGE
  3
ANSI_932
  9
$LASTSAVEDBY
  1
T-HOWE-PC
  9
$INSBASE
 10
0.0
 20
0.0
 30
0.0
  9
$EXTMIN
 10
0.0
 20
0.0
 30
-0.0000000000000071
  9
$EXTMAX
 10
1050.0
 20
1485.0
 30
0.0000000000000142
  9
$LIMMIN
 10
0.0
 20
0.0
  9
$LIMMAX
 10
1050.0
 20
1485.0
  9
$ORTHOMODE
 70
     0
  9
$REGENMODE
 70
     1
  9
$FILLMODE
 70
     1
  9
$QTEXTMODE
 70
     0
  9
$MIRRTEXT
 70
     1
  9
$LTSCALE
 40
2.5
  9
$ATTMODE
 70
     1
  9
$TEXTSIZE
 40
2.5
  9
$TRACEWID
 40
1.0
  9
$TEXTSTYLE
  7
ＭＳ ゴシック
  9
$CLAYER
  8
DIM
  9
$CELTYPE
  6
ByLayer
  9
$CECOLOR
 62
   256
  9
$CELTSCALE
 40
1.0
  9
$DISPSILH
 70
     0
  9
$DIMSCALE
 40
1.0
  9
$DIMASZ
 40
3.0
  9
$DIMEXO
 40
10.0
  9
$DIMDLI
 40
0.9999999999999999
  9
$DIMRND
 40
0.0
  9
$DIMDLE
 40
0.0
  9
$DIMEXE
 40
0.0
  9
$DIMTP
 40
0.0
  9
$DIMTM
 40
0.0
  9
$DIMTXT
 40
12.0
  9
$DIMCEN
 40
0.0
  9
$DIMTSZ
 40
0.0
  9
$DIMTOL
 70
     0
  9
$DIMLIM
 70
     0
  9
$DIMTIH
 70
     0
  9
$DIMTOH
 70
     0
  9
$DIMSE1
 70
     0
  9
$DIMSE2
 70
     0
  9
$DIMTAD
 70
     1
  9
$DIMZIN
 70
    11
  9
$DIMBLK
  1
DOT
  9
$DIMASO
 70
     1
  9
$DIMSHO
 70
     1
  9
$DIMPOST
  1
<>
  9
$DIMAPOST
  1
[]
  9
$DIMALT
 70
     0
  9
$DIMALTD
 70
     1
  9
$DIMALTF
 40
1.0
  9
$DIMLFAC
 40
1.0
  9
$DIMTOFL
 70
     0
  9
$DIMTVP
 40
0.0
  9
$DIMTIX
 70
     1
  9
$DIMSOXD
 70
     0
  9
$DIMSAH
 70
     0
  9
$DIMBLK1
  1

  9
$DIMBLK2
  1

  9
$DIMSTYLE
  2
tfrom線あり
  9
$DIMCLRD
 70
     0
  9
$DIMCLRE
 70
     0
  9
$DIMCLRT
 70
     0
  9
$DIMTFAC
 40
1.0
  9
$DIMGAP
 40
10.0
  9
$DIMJUST
 70
     0
  9
$DIMSD1
 70
     0
  9
$DIMSD2
 70
     0
  9
$DIMTOLJ
 70
     1
  9
$DIMTZIN
 70
    11
  9
$DIMALTZ
 70
    11
  9
$DIMALTTZ
 70
    11
  9
$DIMUPT
 70
     0
  9
$DIMDEC
 70
     0
  9
$DIMTDEC
 70
     1
  9
$DIMALTU
 70
     2
  9
$DIMALTTD
 70
     2
  9
$DIMTXSTY
  7
ＭＳ ゴシック
  9
$DIMAUNIT
 70
     0
  9
$DIMADEC
 70
     2
  9
$DIMALTRND
 40
0.0
  9
$DIMAZIN
 70
     0
  9
$DIMDSEP
 70
    46
  9
$DIMATFIT
 70
     0
  9
$DIMFRAC
 70
     2
  9
$DIMLDRBLK
  1
DOT
  9
$DIMLUNIT
 70
     2
  9
$DIMLWD
 70
    -2
  9
$DIMLWE
 70
    -2
  9
$DIMTMOVE
 70
     0
  9
$DIMFXL
 40
1.0
  9
$DIMFXLON
 70
     0
  9
$DIMJOGANG
 40
0.7853981633974483
  9
$DIMTFILL
 70
     0
  9
$DIMTFILLCLR
 70
     0
  9
$DIMARCSYM
 70
     0
  9
$DIMLTYPE
  6

  9
$DIMLTEX1
  6

  9
$DIMLTEX2
  6

  9
$LUNITS
 70
     2
  9
$LUPREC
 70
     0
  9
$SKETCHINC
 40
0.1
  9
$FILLETRAD
 40
0.0
  9
$AUNITS
 70
     0
  9
$AUPREC
 70
     0
  9
$MENU
  1
acad
  9
$ELEVATION
 40
0.0
  9
$PELEVATION
 40
0.0
  9
$THICKNESS
 40
0.0
  9
$LIMCHECK
 70
     0
  9
$CHAMFERA
 40
0.0
  9
$CHAMFERB
 40
0.0
  9
$CHAMFERC
 40
0.0
  9
$CHAMFERD
 40
0.0
  9
$SKPOLY
 70
     0
  9
$TDCREATE
 40
2447893.375
  9
$TDUCREATE
 40
0.0
  9
$TDUPDATE
 40
2459398.691148484
  9
$TDUUPDATE
 40
2459398.316148484
  9
$TDINDWG
 40
0.1562921644
  9
$TDUSRTIMER
 40
0.0076117361
  9
$USRTIMER
 70
     1
  9
$ANGBASE
 50
0.0
  9
$ANGDIR
 70
     0
  9
$PDMODE
 70
     1
  9
$PDSIZE
 40
-2.0
  9
$PLINEWID
 40
0.0
  9
$SPLFRAME
 70
     0
  9
$SPLINETYPE
 70
     6
  9
$SPLINESEGS
 70
     8
  9
$HANDSEED
  5
3BF8
  9
$SURFTAB1
 70
     6
  9
$SURFTAB2
 70
     6
  9
$SURFTYPE
 70
     6
  9
$SURFU
 70
     6
  9
$SURFV
 70
     6
  9
$UCSBASE
  2

  9
$UCSNAME
  2

  9
$UCSORG
 10
0.0
 20
0.0
 30
0.0
  9
$UCSXDIR
 10
1.0
 20
0.0
 30
0.0
  9
$UCSYDIR
 10
0.0
 20
1.0
 30
0.0
  9
$UCSORTHOREF
  2

  9
$UCSORTHOVIEW
 70
     0
  9
$UCSORGTOP
 10
0.0
 20
0.0
 30
0.0
  9
$UCSORGBOTTOM
 10
0.0
 20
0.0
 30
0.0
  9
$UCSORGLEFT
 10
0.0
 20
0.0
 30
0.0
  9
$UCSORGRIGHT
 10
0.0
 20
0.0
 30
0.0
  9
$UCSORGFRONT
 10
0.0
 20
0.0
 30
0.0
  9
$UCSORGBACK
 10
0.0
 20
0.0
 30
0.0
  9
$PUCSBASE
  2

  9
$PUCSNAME
  2

  9
$PUCSORG
 10
0.0
 20
0.0
 30
0.0
  9
$PUCSXDIR
 10
1.0
 20
0.0
 30
0.0
  9
$PUCSYDIR
 10
0.0
 20
1.0
 30
0.0
  9
$PUCSORTHOREF
  2

  9
$PUCSORTHOVIEW
 70
     0
  9
$PUCSORGTOP
 10
0.0
 20
0.0
 30
0.0
  9
$PUCSORGBOTTOM
 10
0.0
 20
0.0
 30
0.0
  9
$PUCSORGLEFT
 10
0.0
 20
0.0
 30
0.0
  9
$PUCSORGRIGHT
 10
0.0
 20
0.0
 30
0.0
  9
$PUCSORGFRONT
 10
0.0
 20
0.0
 30
0.0
  9
$PUCSORGBACK
 10
0.0
 20
0.0
 30
0.0
  9
$USERI1
 70
     0
  9
$USERI2
 70
     0
  9
$USERI3
 70
     0
  9
$USERI4
 70
     0
  9
$USERI5
 70
     0
  9
$USERR1
 40
0.0
  9
$USERR2
 40
0.0
  9
$USERR3
 40
0.0
  9
$USERR4
 40
0.0
  9
$USERR5
 40
0.0
  9
$WORLDVIEW
 70
     1
  9
$SHADEDGE
 70
     3
  9
$SHADEDIF
 70
    70
  9
$TILEMODE
 70
     1
  9
$MAXACTVP
 70
    64
  9
$PINSBASE
 10
0.0
 20
0.0
 30
0.0
  9
$PLIMCHECK
 70
     0
  9
$PEXTMIN
 10
0.0
 20
0.0
 30
0.0
  9
$PEXTMAX
 10
0.0
 20
0.0
 30
0.0
  9
$PLIMMIN
 10
-7.5
 20
-20.0
  9
$PLIMMAX
 10
412.5
 20
277.0
  9
$UNITMODE
 70
     0
  9
$VISRETAIN
 70
     0
  9
$PLINEGEN
 70
     1
  9
$PSLTSCALE
 70
     0
  9
$TREEDEPTH
 70
  3020
  9
$CMLSTYLE
  2
Standard
  9
$CMLJUST
 70
     0
  9
$CMLSCALE
 40
1.0
  9
$PROXYGRAPHICS
 70
     0
  9
$MEASUREMENT
 70
     1
  9
$CELWEIGHT
370
    -1
  9
$ENDCAPS
280
     0
  9
$JOINSTYLE
280
     0
  9
$LWDISPLAY
290
     1
  9
$INSUNITS
 70
     4
  9
$HYPERLINKBASE
  1

  9
$STYLESHEET
  1

  9
$XEDIT
290
     1
  9
$CEPSNTYPE
380
     0
  9
$PSTYLEMODE
290
     1
  9
$FINGERPRINTGUID
  2

  9
$VERSIONGUID
  2

  9
$EXTNAMES
290
     1
  9
$PSVPSCALE
 40
0.0
  9
$OLESTARTUP
290
     0
  9
$SORTENTS
280
   127
  9
$INDEXCTL
280
     0
  9
$HIDETEXT
280
     1
  9
$XCLIPFRAME
290
     0
  9
$HALOGAP
280
     0
  9
$OBSCOLOR
 70
   257
  9
$OBSLTYPE
280
     0
  9
$INTERSECTIONDISPLAY
280
     0
  9
$INTERSECTIONCOLOR
 70
   257
  9
$DIMASSOC
280
     2
  9
$PROJECTNAME
  1

  9
$CAMERADISPLAY
290
     0
  9
$LENSLENGTH
 40
50.0
  9
$CAMERAHEIGHT
 40
0.0
  9
$STEPSPERSEC
 40
2.0
  9
$STEPSIZE
 40
6.0
  9
$3DDWFPREC
 40
2.0
  9
$PSOLWIDTH
 40
0.25
  9
$PSOLHEIGHT
 40
4.0
  9
$LOFTANG1
 40
1.570796326794897
  9
$LOFTANG2
 40
1.570796326794897
  9
$LOFTMAG1
 40
0.0
  9
$LOFTMAG2
 40
0.0
  9
$LOFTPARAM
 70
     7
  9
$LOFTNORMALS
280
     1
  9
$LATITUDE
 40
37.795
  9
$LONGITUDE
 40
-122.394
  9
$NORTHDIRECTION
 40
0.0
  9
$TIMEZONE
 70
 -8000
  9
$LIGHTGLYPHDISPLAY
280
     1
  9
$TILEMODELIGHTSYNCH
280
     1
  9
$SOLIDHIST
280
     1
  9
$SHOWHIST
280
     1
  9
$DWFFRAME
280
     2
  9
$DGNFRAME
280
     2
  9
$REALWORLDSCALE
290
     1
  9
$INTERFERECOLOR
 62
   256
  9
$CSHADOW
280
     0
  9
$SHADOWPLANELOCATION
 40
0.0
  0
ENDSEC
  0
SECTION
  2
CLASSES
  0
CLASS
  1
LWPOLYLINE
  2
AcDbPolyline
  3
ObjectDBX Classes
 90
        0
 91
        1
280
     0
281
     1
  0
CLASS
  1
IMAGE
  2
AcDbRasterImage
  3
ISM
 90
      127
 91
        4
280
     0
281
     1
  0
CLASS
  1
OLE2FRAME
  2
AcDbOle2Frame
  3
ObjectDBX Classes
 90
        0
 91
        1
280
     0
281
     1
  0
CLASS
  1
HATCH
  2
AcDbHatch
  3
ObjectDBX Classes
 90
        0
 91
        1
280
     0
281
     1
  0
CLASS
  1
DICTIONARYVAR
  2
AcDbDictionaryVar
  3
ObjectDBX Classes
 90
        0
 91
        3
280
     0
281
     0
  0
CLASS
  1
RASTERVARIABLES
  2
AcDbRasterVariables
  3
ISM
 90
        0
 91
        3
280
     0
281
     0
  0
CLASS
  1
IMAGEDEF
  2
AcDbRasterImageDef
  3
ISM
 90
        0
 91
        3
280
     0
281
     0
  0
CLASS
  1
IMAGEDEF_REACTOR
  2
AcDbRasterImageDefReactor
  3
ISM
 90
        1
 91
        3
280
     0
281
     0
  0
CLASS
  1
IDBUFFER
  2
AcDbIdBuffer
  3
ObjectDBX Classes
 90
        0
 91
        3
280
     0
281
     0
  0
CLASS
  1
SPATIAL_FILTER
  2
AcDbSpatialFilter
  3
ObjectDBX Classes
 90
        0
 91
        3
280
     0
281
     0
  0
CLASS
  1
XRECORD
  2
AcDbXrecord
  3
ObjectDBX Classes
 90
        0
 91
        1
280
     0
281
     0
  0
CLASS
  1
SORTENTSTABLE
  2
AcDbSortentsTable
  3
ObjectDBX Classes
 90
        0
 91
        3
280
     0
281
     0
  0
CLASS
  1
LAYER_INDEX
  2
AcDbLayerIndex
  3
ObjectDBX Classes
 90
        0
 91
        3
280
     0
281
     0
  0
CLASS
  1
SPATIAL_INDEX
  2
AcDbSpatialIndex
  3
AutoCAD 2000
 90
        0
 91
        3
280
     0
281
     0
  0
CLASS
  1
OBJECT_PTR
  2
CAseDLPNTableRecord
  3
ASE-LPNTableRecord
 90
        1
 91
        3
280
     0
281
     0
  0
CLASS
  1
LAYOUT
  2
AcDbLayout
  3
ObjectDBX Classes
 90
        0
 91
        1
280
     0
281
     0
  0
CLASS
  1
PLOTSETTINGS
  2
AcDbPlotSettings
  3
ObjectDBX Classes
 90
        0
 91
        3
280
     0
281
     0
  0
CLASS
  1
ACDBDICTIONARYWDFLT
  2
AcDbDictionaryWithDefault
  3
ObjectDBX Classes
 90
        0
 91
        3
280
     0
281
     0
  0
CLASS
  1
ACDBPLACEHOLDER
  2
AcDbPlaceHolder
  3
ObjectDBX Classes
 90
        0
 91
        1
280
     0
281
     0
  0
CLASS
  1
SCALE
  2
AcDbScale
  3
ObjectDBX Classes
 90
     1153
 91
        3
280
     0
281
     0
  0
CLASS
  1
MATERIAL
  2
AcDbMaterial
  3
ObjectDBX Classes
 90
     1153
 91
        3
280
     0
281
     0
  0
CLASS
  1
VISUALSTYLE
  2
AcDbVisualStyle
  3
ObjectDBX Classes
 90
     4095
 91
        3
280
     0
281
     0
  0
CLASS
  1
TABLESTYLE
  2
AcDbTableStyle
  3
ObjectDBX Classes
 90
     4095
 91
        3
280
     0
281
     0
  0
CLASS
  1
DIMASSOC
  2
AcDbDimAssoc
  3
"AcDbDimAssoc|Product Desc:     AcDim ARX App For Dimension|Company:          Autodesk, Inc.|WEB Address:      www.autodesk.com"
 90
        0
 91
        3
280
     0
281
     0
  0
CLASS
  1
CELLSTYLEMAP
  2
AcDbCellStyleMap
  3
ObjectDBX Classes
 90
     1152
 91
        3
280
     0
281
     0
  0
CLASS
  1
SUN
  2
AcDbSun
  3
SCENEOE
 90
     1153
 91
        3
280
     0
281
     0
  0
CLASS
  1
MLEADERSTYLE
  2
AcDbMLeaderStyle
  3
ACDB_MLEADERSTYLE_CLASS
 90
     4095
 91
        3
280
     0
281
     0
  0
CLASS
  1
FIELD
  2
AcDbField
  3
ObjectDBX Classes
 90
     1152
 91
        3
280
     0
281
     0
  0
CLASS
  1
FIELDLIST
  2
AcDbFieldList
  3
ObjectDBX Classes
 90
     1152
 91
        3
280
     0
281
     0
  0
ENDSEC
  0
SECTION
  2
TABLES
  0
TABLE
  2
VPORT
  5
7
330
0
100
AcDbSymbolTable
 70
     1
  0
VPORT
  5
15
330
7
100
AcDbSymbolTableRecord
100
AcDbViewportTableRecord
  2
*ACTIVE
 70
     0
 10
0.0
 20
0.0
 11
1.0
 21
1.0
 12
616.0201356709001
 22
668.901285469834
 13
0.0
 23
0.0
 14
1.0
 24
1.0
 15
0.0
 25
0.0
 16
0.0
 26
0.0
 36
1.0
 17
-91.02013567090012
 27
73.59871453016603
 37
-46.86809886248109
 40
1514.7
 41
2.227596017069701
 42
50.0
 43
0.0
 44
0.0
 50
0.0
 51
0.0
 71
    16
 72
  2000
 73
     1
 74
     1
 75
     0
 76
     0
 77
     0
 78
     0
281
     0
 65
     1
110
0.0
120
0.0
130
0.0
111
1.0
121
0.0
131
0.0
112
0.0
122
1.0
132
0.0
 79
     0
146
0.0
348
26C
 60
     3
 61
     5
292
     1
282
     1
141
0.0
142
0.0
 63
   256
361
904
  0
ENDTAB
  0
TABLE
  2
LTYPE
  5
4
330
0
100
AcDbSymbolTable
 70
     4
  0
LTYPE
  5
11
330
4
100
AcDbSymbolTableRecord
100
AcDbLinetypeTableRecord
  2
ByBlock
 70
     0
  3

 72
    65
 73
     0
 40
0.0
  0
LTYPE
  5
12
330
4
100
AcDbSymbolTableRecord
100
AcDbLinetypeTableRecord
  2
ByLayer
 70
     0
  3

 72
    65
 73
     0
 40
0.0
  0
LTYPE
  5
13
330
4
100
AcDbSymbolTableRecord
100
AcDbLinetypeTableRecord
  2
Continuous
 70
     0
  3
Solid line
 72
    65
 73
     0
 40
0.0
  0
LTYPE
  5
D6C
330
4
100
AcDbSymbolTableRecord
100
AcDbLinetypeTableRecord
  2
BORDER
 70
     0
  3
Border __  __  . __  __  . __  __  . __  __  . 
 72
    65
 73
     6
 40
44.45
 49
12.7
 74
     0
 49
-6.35
 74
     0
 49
12.7
 74
     0
 49
-6.35
 74
     0
 49
0.0
 74
     0
 49
-6.35
 74
     0
  0
LTYPE
  5
D6D
330
4
100
AcDbSymbolTableRecord
100
AcDbLinetypeTableRecord
  2
HIDDEN
 70
     0
  3
Hidden _ _ _ _ _ _ _ _ _ _ _ _ _ _ _ _ _ _ _ _ 
 72
    65
 73
     2
 40
9.524999999999999
 49
6.35
 74
     0
 49
-3.175
 74
     0
  0
LTYPE
  5
3306
330
4
100
AcDbSymbolTableRecord
100
AcDbLinetypeTableRecord
  2
CENTER
 70
     0
  3
 Center _____  _  _____  _  _____  _  _____  _ 
 72
    65
 73
     4
 40
50.8
 49
31.75
 74
     0
 49
-6.35
 74
     0
 49
6.35
 74
     0
 49
-6.35
 74
     0
  0
ENDTAB
  0
TABLE
  2
LAYER
  5
2
102
{ACAD_XDICTIONARY
360
2E1
102
}
330
0
100
AcDbSymbolTable
 70
    14
  0
LAYER
  5
14
330
2
100
AcDbSymbolTableRecord
100
AcDbLayerTableRecord
  2
0
 70
     0
 62
     7
  6
Continuous
370
    -3
390
1D
347
266
  0
LAYER
  5
4B
330
2
100
AcDbSymbolTableRecord
100
AcDbLayerTableRecord
  2
TEMPLATE
 70
     0
 62
     7
  6
Continuous
370
    20
390
1D
347
266
  0
LAYER
  5
4C
330
2
100
AcDbSymbolTableRecord
100
AcDbLayerTableRecord
  2
DIM
 70
     0
 62
     3
  6
Continuous
370
    13
390
1D
347
266
  0
LAYER
  5
4D
330
2
100
AcDbSymbolTableRecord
100
AcDbLayerTableRecord
  2
MODEL
 70
     0
 62
     7
  6
Continuous
370
    20
390
1D
347
266
  0
LAYER
  5
88C
330
2
100
AcDbSymbolTableRecord
100
AcDbLayerTableRecord
  2
HIDDEN
 70
     0
 62
     8
  6
HIDDEN
370
    20
390
1D
347
266
1001
AcAecLayerStandard
1000

1000

  0
LAYER
  5
D6B
330
2
100
AcDbSymbolTableRecord
100
AcDbLayerTableRecord
  2
BORDER
 70
     0
 62
     4
  6
BORDER
290
     0
370
    20
390
1D
347
266
1001
AcAecLayerStandard
1000

1000

  0
LAYER
  5
D8C
330
2
100
AcDbSymbolTableRecord
100
AcDbLayerTableRecord
  2
Defpoints
 70
     0
 62
     7
  6
Continuous
290
     0
370
    -3
390
1D
347
266
  0
LAYER
  5
1793
330
2
100
AcDbSymbolTableRecord
100
AcDbLayerTableRecord
  2
Standard
 70
     0
 62
     7
  6
Continuous
370
    -3
390
1D
347
266
  0
LAYER
  5
3303
330
2
100
AcDbSymbolTableRecord
100
AcDbLayerTableRecord
  2
_0-0_FRF74-0901
 70
     0
 62
     7
  6
Continuous
370
    -3
390
1D
347
266
  0
LAYER
  5
3304
330
2
100
AcDbSymbolTableRecord
100
AcDbLayerTableRecord
  2
_0-1_
 70
     0
 62
     7
  6
Continuous
370
    -3
390
1D
347
266
  0
LAYER
  5
3305
330
2
100
AcDbSymbolTableRecord
100
AcDbLayerTableRecord
  2
_0-2_
 70
     0
 62
     7
  6
Continuous
370
    -3
390
1D
347
266
  0
LAYER
  5
37EE
330
2
100
AcDbSymbolTableRecord
100
AcDbLayerTableRecord
  2
Layer1
 70
     0
 62
     7
  6
Continuous
370
    -3
390
1D
347
266
  0
LAYER
  5
37F0
330
2
100
AcDbSymbolTableRecord
100
AcDbLayerTableRecord
  2
Default
 70
     0
 62
     7
  6
Continuous
370
    -3
390
1D
347
266
  0
LAYER
  5
37F2
330
2
100
AcDbSymbolTableRecord
100
AcDbLayerTableRecord
  2
Layer3
 70
     0
 62
     7
  6
Continuous
370
    -3
390
1D
347
266
  0
ENDTAB
  0
TABLE
  2
STYLE
  5
3
330
0
100
AcDbSymbolTable
 70
     4
  0
STYLE
  5
17
330
3
100
AcDbSymbolTableRecord
100
AcDbTextStyleTableRecord
  2
Standard
 70
     0
 40
0.0
 41
1.0
 50
0.0
 71
     0
 42
2.5
  3
txt
  4
BIGFONT.SHX
  0
STYLE
  5
39
330
3
100
AcDbSymbolTableRecord
100
AcDbTextStyleTableRecord
  2
ＭＳ ゴシック
 70
     0
 40
0.0
 41
1.0
 50
0.0
 71
     0
 42
2.5
  3
msgothic.ttc
  4
ＭＳ ゴシック
1001
ACAD
1000
ＭＳ ゴシック
1071
        0
  0
STYLE
  5
37F6
330
3
100
AcDbSymbolTableRecord
100
AcDbTextStyleTableRecord
  2
SEACAD_Arial
 70
     0
 40
0.0
 41
1.0
 50
0.0
 71
     0
 42
2.5
  3
arial.ttf
  4

1001
ACAD
1000
Arial
1071
        0
  0
STYLE
  5
37F7
330
3
100
AcDbSymbolTableRecord
100
AcDbTextStyleTableRecord
  2
SEACAD_Solid_Edge_ANSI1_Symbols
 70
     0
 40
0.0
 41
1.0
 50
0.0
 71
     0
 42
2.5
  3
semeca1.ttf
  4

1001
ACAD
1000
Solid Edge ANSI1 Symbols
1071
        0
  0
ENDTAB
  0
TABLE
  2
VIEW
  5
5
330
0
100
AcDbSymbolTable
 70
     0
  0
ENDTAB
  0
TABLE
  2
UCS
  5
6
330
0
100
AcDbSymbolTable
 70
     0
  0
ENDTAB
  0
TABLE
  2
APPID
  5
8
330
0
100
AcDbSymbolTable
 70
     4
  0
APPID
  5
16
330
8
100
AcDbSymbolTableRecord
100
AcDbRegAppTableRecord
  2
ACAD
 70
     0
  0
APPID
  5
7AC
330
8
100
AcDbSymbolTableRecord
100
AcDbRegAppTableRecord
  2
AcAecLayerStandard
 70
     0
  0
APPID
  5
E29
330
8
100
AcDbSymbolTableRecord
100
AcDbRegAppTableRecord
  2
ACAD_MLEADERVER
 70
     0
  0
APPID
  5
3BE8
330
8
100
AcDbSymbolTableRecord
100
AcDbRegAppTableRecord
  2
PLOTTRANSPARENCY
 70
     0
  0
ENDTAB
  0
TABLE
  2
DIMSTYLE
  5
9
330
0
100
AcDbSymbolTable
 70
     4
100
AcDbDimStyleTable
  0
DIMSTYLE
105
18
102
{ACAD_REACTORS
330
392B
330
3938
330
3942
102
}
330
9
100
AcDbSymbolTableRecord
100
AcDbDimStyleTableRecord
  2
Standard
 70
     0
178
     0
340
17
  0
DIMSTYLE
105
57
102
{ACAD_REACTORS
330
3B29
330
3B48
330
3B5E
102
}
330
9
100
AcDbSymbolTableRecord
100
AcDbDimStyleTableRecord
  2
tfrom線あり
 70
     0
  3
<>
  4
[]
 41
3.0
 42
10.0
 43
0.9999999999999999
 44
0.0
 73
     0
 74
     0
 77
     1
 78
    11
140
12.0
141
0.0
143
1.0
147
10.0
171
     1
174
     1
178
     0
179
     2
271
     0
272
     1
276
     2
284
    11
285
    11
286
    11
289
     0
340
39
341
4E
342
4E
  0
DIMSTYLE
105
313D
330
9
100
AcDbSymbolTableRecord
100
AcDbDimStyleTableRecord
  2
tform線あり
 70
     0
  3
<>
  4
[]
 41
9.999389648437498
 42
25.0
 43
0.9999999999999999
 44
0.0
 73
     0
 74
     0
 77
     1
 78
    11
140
24.4326171875
141
0.0
143
1.0
146
0.8
147
10.0
171
     1
172
     1
174
     1
178
     0
179
     2
271
     1
272
     1
276
     2
284
    11
285
    11
286
    11
289
     0
340
39
341
4E
342
4E
  0
DIMSTYLE
105
37F3
330
9
100
AcDbSymbolTableRecord
100
AcDbDimStyleTableRecord
  2
ISO-25
 70
     0
 41
2.5
 42
0.625
 43
3.75
 44
1.25
 73
     0
 74
     0
 77
     1
 78
     8
140
2.5
141
2.5
143
0.0393700787
147
0.625
171
     3
172
     1
178
     0
271
     2
272
     2
274
     3
278
    44
283
     0
284
     8
340
17
  0
ENDTAB
  0
TABLE
  2
BLOCK_RECORD
  5
1
330
0
100
AcDbSymbolTable
 70
    62
  0
BLOCK_RECORD
  5
A
102
{ACAD_XDICTIONARY
360
24B4
102
}
330
1
100
AcDbSymbolTableRecord
100
AcDbBlockTableRecord
  2
*MODEL_SPACE
340
20
 70
     0
280
     1
281
     0
  0
BLOCK_RECORD
  5
B
330
1
100
AcDbSymbolTableRecord
100
AcDbBlockTableRecord
  2
*PAPER_SPACE
340
21
 70
     0
280
     1
281
     0
  0
BLOCK_RECORD
  5
4E
330
1
100
AcDbSymbolTableRecord
100
AcDbBlockTableRecord
  2
_DOT
340
0
102
{BLKREFS
331
251F
331
2520
331
252B
331
252C
331
30DC
331
30DD
331
310A
331
310B
331
3118
331
3119
331
312B
331
312C
331
3162
331
3163
331
3174
331
3175
331
318A
331
318B
331
319C
331
319D
331
31AB
331
31AC
331
31B8
331
31B9
331
31C7
331
31C8
331
31DE
331
31DF
331
31ED
331
31EE
331
31FA
331
31FB
331
3207
331
3208
331
321A
331
321B
331
3229
331
322A
331
3239
331
323A
331
3250
331
3251
331
3262
331
3263
331
327A
331
327B
331
328B
331
328C
331
329A
331
329B
331
337F
331
3380
331
338E
331
338F
331
339D
331
339E
331
33AC
331
33AD
331
33BD
331
33BE
331
33CA
331
33CB
331
33DA
331
33DB
331
33E8
331
33E9
331
36DE
331
36DF
331
36EA
331
36EB
331
36F6
331
36F7
331
3702
331
3703
331
370E
331
370F
331
371A
331
371B
331
3727
331
3728
331
3735
331
3736
331
3747
331
3748
331
3756
331
3757
331
376D
331
376E
331
3786
331
3787
331
379E
331
379F
331
37B9
331
37BA
331
37D2
331
37D3
331
3B33
331
3B32
331
3B43
331
3B42
331
3B50
331
3B4F
331
3B69
331
0
331
3B7D
331
3B7C
331
3BD9
331
3BD8
102
}
 70
     0
280
     1
281
     0
  0
BLOCK_RECORD
  5
68D
330
1
100
AcDbSymbolTableRecord
100
AcDbBlockTableRecord
  2
block 2
340
0
102
{BLKREFS
331
68C
331
1343
331
353F
102
}
 70
     0
280
     1
281
     0
  0
BLOCK_RECORD
  5
2519
330
1
100
AcDbSymbolTableRecord
100
AcDbBlockTableRecord
  2
*D2
340
0
 70
     0
280
     1
281
     0
  0
BLOCK_RECORD
  5
2525
330
1
100
AcDbSymbolTableRecord
100
AcDbBlockTableRecord
  2
*D3
340
0
 70
     0
280
     1
281
     0
  0
BLOCK_RECORD
  5
30D6
330
1
100
AcDbSymbolTableRecord
100
AcDbBlockTableRecord
  2
*D4
340
0
 70
     0
280
     1
281
     0
  0
BLOCK_RECORD
  5
3103
330
1
100
AcDbSymbolTableRecord
100
AcDbBlockTableRecord
  2
*D5
340
0
 70
     0
280
     1
281
     0
  0
BLOCK_RECORD
  5
3112
330
1
100
AcDbSymbolTableRecord
100
AcDbBlockTableRecord
  2
*D6
340
0
 70
     0
280
     1
281
     0
  0
BLOCK_RECORD
  5
3125
330
1
100
AcDbSymbolTableRecord
100
AcDbBlockTableRecord
  2
*D7
340
0
 70
     0
280
     1
281
     0
  0
BLOCK_RECORD
  5
315D
330
1
100
AcDbSymbolTableRecord
100
AcDbBlockTableRecord
  2
*D8
340
0
 70
     0
280
     1
281
     0
  0
BLOCK_RECORD
  5
316C
330
1
100
AcDbSymbolTableRecord
100
AcDbBlockTableRecord
  2
*D9
340
0
 70
     0
280
     1
281
     0
  0
BLOCK_RECORD
  5
3185
330
1
100
AcDbSymbolTableRecord
100
AcDbBlockTableRecord
  2
*D10
340
0
 70
     0
280
     1
281
     0
  0
BLOCK_RECORD
  5
3194
330
1
100
AcDbSymbolTableRecord
100
AcDbBlockTableRecord
  2
*D11
340
0
 70
     0
280
     1
281
     0
  0
BLOCK_RECORD
  5
31A6
330
1
100
AcDbSymbolTableRecord
100
AcDbBlockTableRecord
  2
*D12
340
0
 70
     0
280
     1
281
     0
  0
BLOCK_RECORD
  5
31B3
330
1
100
AcDbSymbolTableRecord
100
AcDbBlockTableRecord
  2
*D13
340
0
 70
     0
280
     1
281
     0
  0
BLOCK_RECORD
  5
31C2
330
1
100
AcDbSymbolTableRecord
100
AcDbBlockTableRecord
  2
*D14
340
0
 70
     0
280
     1
281
     0
  0
BLOCK_RECORD
  5
31D9
330
1
100
AcDbSymbolTableRecord
100
AcDbBlockTableRecord
  2
*D15
340
0
 70
     0
280
     1
281
     0
  0
BLOCK_RECORD
  5
31E8
330
1
100
AcDbSymbolTableRecord
100
AcDbBlockTableRecord
  2
*D16
340
0
 70
     0
280
     1
281
     0
  0
BLOCK_RECORD
  5
31F5
330
1
100
AcDbSymbolTableRecord
100
AcDbBlockTableRecord
  2
*D17
340
0
 70
     0
280
     1
281
     0
  0
BLOCK_RECORD
  5
3202
330
1
100
AcDbSymbolTableRecord
100
AcDbBlockTableRecord
  2
*D18
340
0
 70
     0
280
     1
281
     0
  0
BLOCK_RECORD
  5
3212
330
1
100
AcDbSymbolTableRecord
100
AcDbBlockTableRecord
  2
*D19
340
0
 70
     0
280
     1
281
     0
  0
BLOCK_RECORD
  5
3224
330
1
100
AcDbSymbolTableRecord
100
AcDbBlockTableRecord
  2
*D20
340
0
 70
     0
280
     1
281
     0
  0
BLOCK_RECORD
  5
3233
330
1
100
AcDbSymbolTableRecord
100
AcDbBlockTableRecord
  2
*D21
340
0
 70
     0
280
     1
281
     0
  0
BLOCK_RECORD
  5
324B
330
1
100
AcDbSymbolTableRecord
100
AcDbBlockTableRecord
  2
*D22
340
0
 70
     0
280
     1
281
     0
  0
BLOCK_RECORD
  5
325A
330
1
100
AcDbSymbolTableRecord
100
AcDbBlockTableRecord
  2
*D23
340
0
 70
     0
280
     1
281
     0
  0
BLOCK_RECORD
  5
3275
330
1
100
AcDbSymbolTableRecord
100
AcDbBlockTableRecord
  2
*D24
340
0
 70
     0
280
     1
281
     0
  0
BLOCK_RECORD
  5
3286
330
1
100
AcDbSymbolTableRecord
100
AcDbBlockTableRecord
  2
*D25
340
0
 70
     0
280
     1
281
     0
  0
BLOCK_RECORD
  5
3295
330
1
100
AcDbSymbolTableRecord
100
AcDbBlockTableRecord
  2
*D26
340
0
 70
     0
280
     1
281
     0
  0
BLOCK_RECORD
  5
337A
330
1
100
AcDbSymbolTableRecord
100
AcDbBlockTableRecord
  2
*D27
340
0
 70
     0
280
     1
281
     0
  0
BLOCK_RECORD
  5
3389
330
1
100
AcDbSymbolTableRecord
100
AcDbBlockTableRecord
  2
*D28
340
0
 70
     0
280
     1
281
     0
  0
BLOCK_RECORD
  5
3398
330
1
100
AcDbSymbolTableRecord
100
AcDbBlockTableRecord
  2
*D29
340
0
 70
     0
280
     1
281
     0
  0
BLOCK_RECORD
  5
33A7
330
1
100
AcDbSymbolTableRecord
100
AcDbBlockTableRecord
  2
*D30
340
0
 70
     0
280
     1
281
     0
  0
BLOCK_RECORD
  5
33B8
330
1
100
AcDbSymbolTableRecord
100
AcDbBlockTableRecord
  2
*D31
340
0
 70
     0
280
     1
281
     0
  0
BLOCK_RECORD
  5
33C5
330
1
100
AcDbSymbolTableRecord
100
AcDbBlockTableRecord
  2
*D32
340
0
 70
     0
280
     1
281
     0
  0
BLOCK_RECORD
  5
33D4
330
1
100
AcDbSymbolTableRecord
100
AcDbBlockTableRecord
  2
*D33
340
0
 70
     0
280
     1
281
     0
  0
BLOCK_RECORD
  5
33E1
330
1
100
AcDbSymbolTableRecord
100
AcDbBlockTableRecord
  2
*D34
340
0
 70
     0
280
     1
281
     0
  0
BLOCK_RECORD
  5
36D8
330
1
100
AcDbSymbolTableRecord
100
AcDbBlockTableRecord
  2
*D35
340
0
 70
     0
280
     1
281
     0
  0
BLOCK_RECORD
  5
36E4
330
1
100
AcDbSymbolTableRecord
100
AcDbBlockTableRecord
  2
*D36
340
0
 70
     0
280
     1
281
     0
  0
BLOCK_RECORD
  5
36F0
330
1
100
AcDbSymbolTableRecord
100
AcDbBlockTableRecord
  2
*D37
340
0
 70
     0
280
     1
281
     0
  0
BLOCK_RECORD
  5
36FC
330
1
100
AcDbSymbolTableRecord
100
AcDbBlockTableRecord
  2
*D38
340
0
 70
     0
280
     1
281
     0
  0
BLOCK_RECORD
  5
3708
330
1
100
AcDbSymbolTableRecord
100
AcDbBlockTableRecord
  2
*D39
340
0
 70
     0
280
     1
281
     0
  0
BLOCK_RECORD
  5
3714
330
1
100
AcDbSymbolTableRecord
100
AcDbBlockTableRecord
  2
*D40
340
0
 70
     0
280
     1
281
     0
  0
BLOCK_RECORD
  5
3720
330
1
100
AcDbSymbolTableRecord
100
AcDbBlockTableRecord
  2
*D41
340
0
 70
     0
280
     1
281
     0
  0
BLOCK_RECORD
  5
372D
330
1
100
AcDbSymbolTableRecord
100
AcDbBlockTableRecord
  2
*D42
340
0
 70
     0
280
     1
281
     0
  0
BLOCK_RECORD
  5
3741
330
1
100
AcDbSymbolTableRecord
100
AcDbBlockTableRecord
  2
*D43
340
0
 70
     0
280
     1
281
     0
  0
BLOCK_RECORD
  5
3750
330
1
100
AcDbSymbolTableRecord
100
AcDbBlockTableRecord
  2
*D44
340
0
 70
     0
280
     1
281
     0
  0
BLOCK_RECORD
  5
3765
330
1
100
AcDbSymbolTableRecord
100
AcDbBlockTableRecord
  2
*D45
340
0
 70
     0
280
     1
281
     0
  0
BLOCK_RECORD
  5
3780
330
1
100
AcDbSymbolTableRecord
100
AcDbBlockTableRecord
  2
*D46
340
0
 70
     0
280
     1
281
     0
  0
BLOCK_RECORD
  5
3798
330
1
100
AcDbSymbolTableRecord
100
AcDbBlockTableRecord
  2
*D47
340
0
 70
     0
280
     1
281
     0
  0
BLOCK_RECORD
  5
37B1
330
1
100
AcDbSymbolTableRecord
100
AcDbBlockTableRecord
  2
*D48
340
0
 70
     0
280
     1
281
     0
  0
BLOCK_RECORD
  5
37CC
330
1
100
AcDbSymbolTableRecord
100
AcDbBlockTableRecord
  2
*D49
340
0
 70
     0
280
     1
281
     0
  0
BLOCK_RECORD
  5
392C
330
1
100
AcDbSymbolTableRecord
100
AcDbBlockTableRecord
  2
DMBLK1
340
0
 70
     0
280
     1
281
     0
  0
BLOCK_RECORD
  5
3939
330
1
100
AcDbSymbolTableRecord
100
AcDbBlockTableRecord
  2
DMBLK2
340
0
 70
     0
280
     1
281
     0
  0
BLOCK_RECORD
  5
3943
330
1
100
AcDbSymbolTableRecord
100
AcDbBlockTableRecord
  2
DMBLK3
340
0
 70
     0
280
     1
281
     0
  0
BLOCK_RECORD
  5
3AFB
330
1
100
AcDbSymbolTableRecord
100
AcDbBlockTableRecord
  2
*D54
340
0
 70
     0
280
     1
281
     0
  0
BLOCK_RECORD
  5
3B08
330
1
100
AcDbSymbolTableRecord
100
AcDbBlockTableRecord
  2
*D55
340
0
 70
     0
280
     1
281
     0
  0
BLOCK_RECORD
  5
3B16
330
1
100
AcDbSymbolTableRecord
100
AcDbBlockTableRecord
  2
*D56
340
0
 70
     0
280
     1
281
     0
  0
BLOCK_RECORD
  5
3B2C
330
1
100
AcDbSymbolTableRecord
100
AcDbBlockTableRecord
  2
*D57
340
0
 70
     0
280
     1
281
     0
  0
BLOCK_RECORD
  5
3B3C
330
1
100
AcDbSymbolTableRecord
100
AcDbBlockTableRecord
  2
*D58
340
0
 70
     0
280
     1
281
     0
  0
BLOCK_RECORD
  5
3B49
330
1
100
AcDbSymbolTableRecord
100
AcDbBlockTableRecord
  2
*D59
340
0
 70
     0
280
     1
281
     0
  0
BLOCK_RECORD
  5
3B61
330
1
100
AcDbSymbolTableRecord
100
AcDbBlockTableRecord
  2
*D60
340
0
 70
     0
280
     1
281
     0
  0
BLOCK_RECORD
  5
3B76
330
1
100
AcDbSymbolTableRecord
100
AcDbBlockTableRecord
  2
*D61
340
0
 70
     0
280
     1
281
     0
  0
BLOCK_RECORD
  5
3BD2
330
1
100
AcDbSymbolTableRecord
100
AcDbBlockTableRecord
  2
*D62
340
0
 70
     0
280
     1
281
     0
  0
ENDTAB
  0
ENDSEC
  0
SECTION
  2
BLOCKS
  0
BLOCK
  5
D
330
A
100
AcDbEntity
  8
0
390
1D
100
AcDbBlockBegin
  2
*MODEL_SPACE
 70
     0
 10
0.0
 20
0.0
 30
0.0
  3
*MODEL_SPACE
  1
*MODEL_SPACE
  0
ENDBLK
  5
E
330
A
100
AcDbEntity
  8
0
390
1D
100
AcDbBlockEnd
  0
BLOCK
  5
F
330
B
100
AcDbEntity
 67
     1
  8
0
390
1D
100
AcDbBlockBegin
  2
*PAPER_SPACE
 70
     0
 10
0.0
 20
0.0
 30
0.0
  3
*PAPER_SPACE
  1
*PAPER_SPACE
  0
ENDBLK
  5
10
330
B
100
AcDbEntity
 67
     1
  8
0
390
1D
100
AcDbBlockEnd
  0
BLOCK
  5
E30
330
4E
100
AcDbEntity
  8
0
390
1D
100
AcDbBlockBegin
  2
_DOT
 70
     0
 10
0.0
 20
0.0
 30
0.0
  3
_DOT
  1
_DOT
  0
POLYLINE
  5
E32
330
4E
100
AcDbEntity
  8
0
  6
ByBlock
 62
     0
370
    -2
390
1D
100
AcDb2dPolyline
 66
     1
 10
0.0
 20
0.0
 30
0.0
 70
     1
 40
0.5
 41
0.5
  0
VERTEX
  5
E33
330
E32
100
AcDbEntity
  8
0
  6
ByBlock
 62
     0
370
    -2
390
1D
100
AcDbVertex
100
AcDb2dVertex
 10
-0.25
 20
0.0
 30
0.0
 42
1.0
  0
VERTEX
  5
E34
330
E32
100
AcDbEntity
  8
0
  6
ByBlock
 62
     0
370
    -2
390
1D
100
AcDbVertex
100
AcDb2dVertex
 10
0.25
 20
0.0
 30
0.0
 42
1.0
  0
SEQEND
  5
E35
330
E32
100
AcDbEntity
  8
0
390
1D
  0
LINE
  5
E36
330
4E
100
AcDbEntity
  8
0
  6
ByBlock
 62
     0
370
    -2
390
1D
100
AcDbLine
 10
-0.5
 20
0.0
 30
0.0
 11
-1.0
 21
0.0
 31
0.0
  0
ENDBLK
  5
E37
330
4E
100
AcDbEntity
  8
0
390
1D
100
AcDbBlockEnd
  0
BLOCK
  5
68E
330
68D
100
AcDbEntity
  8
0
100
AcDbBlockBegin
  2
block 2
 70
     0
 10
0.0
 20
0.0
 30
0.0
  3
block 2
  1
block 2
  0
ENDBLK
  5
6B0
330
68D
100
AcDbEntity
  8
0
100
AcDbBlockEnd
  0
BLOCK
  5
251A
330
2519
100
AcDbEntity
  8
0
100
AcDbBlockBegin
  2
*D2
 70
     1
 10
0.0
 20
0.0
 30
0.0
  3
*D2
  1

  0
LINE
  5
251C
330
2519
100
AcDbEntity
  8
DIM
 62
     0
370
    -2
100
AcDbLine
 10
-567.8247143025919
 20
798.5395136778114
 30
0.0
 11
-567.8247143025919
 21
963.9051262249235
 31
0.0
  0
LINE
  5
251D
330
2519
100
AcDbEntity
  8
DIM
 62
     0
370
    -2
100
AcDbLine
 10
-282.3797295001614
 20
798.5395136778114
 30
0.0
 11
-282.3797295001614
 21
963.9051262249235
 31
0.0
  0
LINE
  5
251E
330
2519
100
AcDbEntity
  8
DIM
 62
     0
370
    -2
100
AcDbLine
 10
-564.8247143025919
 20
963.9051262249235
 30
0.0
 11
-285.3797295001614
 21
963.9051262249235
 31
0.0
  0
INSERT
  5
251F
330
2519
100
AcDbEntity
  8
DIM
 62
     0
370
    -2
100
AcDbBlockReference
  2
_DOT
 10
-567.8247143025919
 20
963.9051262249235
 30
0.0
 41
3.0
 42
3.0
 43
3.0
 50
180.0
  0
INSERT
  5
2520
330
2519
100
AcDbEntity
  8
DIM
 62
     0
370
    -2
100
AcDbBlockReference
  2
_DOT
 10
-282.3797295001614
 20
963.9051262249235
 30
0.0
 41
3.0
 42
3.0
 43
3.0
  0
MTEXT
  5
2521
330
2519
100
AcDbEntity
  8
DIM
 62
     0
100
AcDbMText
 10
-425.1022219013776
 20
979.9073770689901
 30
0.0
 40
12.0
 41
0.0
 46
0.0
 71
     5
 72
     1
  1
\A1;285
  7
ＭＳ ゴシック
 73
     1
 44
1.0
  0
POINT
  5
2522
330
2519
100
AcDbEntity
  8
Defpoints
 62
     0
100
AcDbPoint
 10
-567.8247143025919
 20
788.5395136778114
 30
0.0
  0
POINT
  5
2523
330
2519
100
AcDbEntity
  8
Defpoints
 62
     0
100
AcDbPoint
 10
-282.3797295001614
 20
788.5395136778114
 30
0.0
  0
POINT
  5
2524
330
2519
100
AcDbEntity
  8
Defpoints
 62
     0
100
AcDbPoint
 10
-282.3797295001614
 20
963.9051262249235
 30
0.0
  0
ENDBLK
  5
251B
330
2519
100
AcDbEntity
  8
0
100
AcDbBlockEnd
  0
BLOCK
  5
2526
330
2525
100
AcDbEntity
  8
0
100
AcDbBlockBegin
  2
*D3
 70
     1
 10
0.0
 20
0.0
 30
0.0
  3
*D3
  1

  0
LINE
  5
2528
330
2525
100
AcDbEntity
  8
DIM
 62
     0
370
    -2
100
AcDbLine
 10
-519.8195003638384
 20
778.5395136778114
 30
0.0
 11
-519.8195003638384
 21
571.7928496048629
 31
0.0
  0
LINE
  5
2529
330
2525
100
AcDbEntity
  8
DIM
 62
     0
370
    -2
100
AcDbLine
 10
-330.3849434389158
 20
778.5395136778114
 30
0.0
 11
-330.3849434389158
 21
571.7928496048629
 31
0.0
  0
LINE
  5
252A
330
2525
100
AcDbEntity
  8
DIM
 62
     0
370
    -2
100
AcDbLine
 10
-516.8195003638384
 20
571.7928496048629
 30
0.0
 11
-333.3849434389158
 21
571.7928496048629
 31
0.0
  0
INSERT
  5
252B
330
2525
100
AcDbEntity
  8
DIM
 62
     0
370
    -2
100
AcDbBlockReference
  2
_DOT
 10
-519.8195003638384
 20
571.7928496048629
 30
0.0
 41
3.0
 42
3.0
 43
3.0
 50
180.0
  0
INSERT
  5
252C
330
2525
100
AcDbEntity
  8
DIM
 62
     0
370
    -2
100
AcDbBlockReference
  2
_DOT
 10
-330.3849434389158
 20
571.7928496048629
 30
0.0
 41
3.0
 42
3.0
 43
3.0
  0
MTEXT
  5
252D
330
2525
100
AcDbEntity
  8
DIM
 62
     0
100
AcDbMText
 10
-425.1022219013771
 20
587.7951004489295
 30
0.0
 40
12.0
 41
0.0
 46
0.0
 71
     5
 72
     1
  1
\A1;189
  7
ＭＳ ゴシック
 73
     1
 44
1.0
  0
POINT
  5
252E
330
2525
100
AcDbEntity
  8
Defpoints
 62
     0
100
AcDbPoint
 10
-519.8195003638384
 20
788.5395136778114
 30
0.0
  0
POINT
  5
252F
330
2525
100
AcDbEntity
  8
Defpoints
 62
     0
100
AcDbPoint
 10
-330.3849434389158
 20
788.5395136778114
 30
0.0
  0
POINT
  5
2530
330
2525
100
AcDbEntity
  8
Defpoints
 62
     0
100
AcDbPoint
 10
-330.3849434389158
 20
571.7928496048629
 30
0.0
  0
ENDBLK
  5
2527
330
2525
100
AcDbEntity
  8
0
100
AcDbBlockEnd
  0
BLOCK
  5
30D7
330
30D6
100
AcDbEntity
  8
0
100
AcDbBlockBegin
  2
*D4
 70
     1
 10
0.0
 20
0.0
 30
0.0
  3
*D4
  1

  0
LINE
  5
30D9
330
30D6
100
AcDbEntity
  8
DIM
 62
     0
370
    -2
100
AcDbLine
 10
147.0662751128732
 20
1084.028452388392
 30
0.0
 11
147.0662751128732
 21
1141.941990061633
 31
0.0
  0
LINE
  5
30DA
330
30D6
100
AcDbEntity
  8
DIM
 62
     0
370
    -2
100
AcDbLine
 10
596.5669665115358
 20
1084.52776099934
 30
0.0
 11
596.5669665115358
 21
1141.941990061633
 31
0.0
  0
LINE
  5
30DB
330
30D6
100
AcDbEntity
  8
DIM
 62
     0
370
    -2
100
AcDbLine
 10
150.0662751128732
 20
1141.941990061633
 30
0.0
 11
593.5669665115358
 21
1141.941990061633
 31
0.0
  0
INSERT
  5
30DC
330
30D6
100
AcDbEntity
  8
DIM
 62
     0
370
    -2
100
AcDbBlockReference
  2
_DOT
 10
147.0662751128732
 20
1141.941990061633
 30
0.0
 41
3.0
 42
3.0
 43
3.0
 50
180.0
  0
INSERT
  5
30DD
330
30D6
100
AcDbEntity
  8
DIM
 62
     0
370
    -2
100
AcDbBlockReference
  2
_DOT
 10
596.5669665115358
 20
1141.941990061633
 30
0.0
 41
3.0
 42
3.0
 43
3.0
  0
MTEXT
  5
30DE
330
30D6
100
AcDbEntity
  8
DIM
 62
     0
100
AcDbMText
 10
371.8166208122045
 20
1157.941990061633
 30
0.0
 40
12.0
 41
0.0
 46
0.0
 71
     5
 72
     1
  1
\A1;450
  7
ＭＳ ゴシック
 73
     1
 44
1.0
  0
POINT
  5
30DF
330
30D6
100
AcDbEntity
  8
Defpoints
 62
     0
100
AcDbPoint
 10
147.0662751128732
 20
1074.028452388392
 30
0.0
  0
POINT
  5
30E0
330
30D6
100
AcDbEntity
  8
Defpoints
 62
     0
100
AcDbPoint
 10
596.5669665115358
 20
1074.52776099934
 30
0.0
  0
POINT
  5
30E1
330
30D6
100
AcDbEntity
  8
Defpoints
 62
     0
100
AcDbPoint
 10
596.5669665115358
 20
1141.941990061633
 30
0.0
  0
ENDBLK
  5
30D8
330
30D6
100
AcDbEntity
  8
0
100
AcDbBlockEnd
  0
BLOCK
  5
3104
330
3103
100
AcDbEntity
  8
0
100
AcDbBlockBegin
  2
*D5
 70
     1
 10
0.0
 20
0.0
 30
0.0
  3
*D5
  1

  0
LINE
  5
3106
330
3103
100
AcDbEntity
  8
DIM
 62
     0
370
    -2
100
AcDbLine
 10
607.0662751224838
 20
964.3256488546513
 30
0.0
 11
656.2148230745822
 21
964.3256488546513
 31
0.0
  0
LINE
  5
3107
330
3103
100
AcDbEntity
  8
DIM
 62
     0
370
    -2
100
AcDbLine
 10
607.0662751224838
 20
964.3256488546513
 30
0.0
 11
656.2148230745822
 21
964.3256488546513
 31
0.0
  0
LINE
  5
3108
330
3103
100
AcDbEntity
  8
DIM
 62
     0
370
    -2
100
AcDbLine
 10
656.2148230745822
 20
961.3256488546513
 30
0.0
 11
656.2148230745822
 21
958.3256488546513
 31
0.0
  0
LINE
  5
3109
330
3103
100
AcDbEntity
  8
DIM
 62
     0
370
    -2
100
AcDbLine
 10
656.2148230745822
 20
967.3256488546513
 30
0.0
 11
656.2148230745822
 21
970.3256488546513
 31
0.0
  0
INSERT
  5
310A
330
3103
100
AcDbEntity
  8
DIM
 62
     0
370
    -2
100
AcDbBlockReference
  2
_DOT
 10
656.2148230745822
 20
964.3256488546513
 30
0.0
 41
3.0
 42
3.0
 43
3.0
 50
90.0
  0
INSERT
  5
310B
330
3103
100
AcDbEntity
  8
DIM
 62
     0
370
    -2
100
AcDbBlockReference
  2
_DOT
 10
656.2148230745822
 20
964.3256488546513
 30
0.0
 41
3.0
 42
3.0
 43
3.0
 50
270.0
  0
MTEXT
  5
310C
330
3103
100
AcDbEntity
  8
DIM
 62
     0
100
AcDbMText
 10
640.2148230745822
 20
964.3256488546513
 30
0.0
 40
12.0
 41
0.0
 46
0.0
 71
     5
 72
     1
  1
\A1;0
  7
ＭＳ ゴシック
 11
6.123233995736766E-17
 21
1.0
 31
0.0
 73
     1
 44
1.0
  0
POINT
  5
310D
330
3103
100
AcDbEntity
  8
Defpoints
 62
     0
100
AcDbPoint
 10
597.0662751224838
 20
964.3256488546513
 30
0.0
  0
POINT
  5
310E
330
3103
100
AcDbEntity
  8
Defpoints
 62
     0
100
AcDbPoint
 10
597.0662751224838
 20
964.3256488546513
 30
0.0
  0
POINT
  5
311E
330
3103
100
AcDbEntity
  8
Defpoints
 62
     0
100
AcDbPoint
 10
656.2148230745822
 20
964.3256488546513
 30
0.0
  0
ENDBLK
  5
3105
330
3103
100
AcDbEntity
  8
0
100
AcDbBlockEnd
  0
BLOCK
  5
3113
330
3112
100
AcDbEntity
  8
0
100
AcDbBlockBegin
  2
*D6
 70
     1
 10
0.0
 20
0.0
 30
0.0
  3
*D6
  1

  0
LINE
  5
3115
330
3112
100
AcDbEntity
  8
DIM
 62
     0
370
    -2
100
AcDbLine
 10
607.0662751224838
 20
631.2732379989609
 30
0.0
 11
656.2148230745822
 21
631.2732379989609
 31
0.0
  0
LINE
  5
3116
330
3112
100
AcDbEntity
  8
DIM
 62
     0
370
    -2
100
AcDbLine
 10
606.5669665115358
 20
690.7739293892953
 30
0.0
 11
656.2148230745822
 21
690.7739293892953
 31
0.0
  0
LINE
  5
3117
330
3112
100
AcDbEntity
  8
DIM
 62
     0
370
    -2
100
AcDbLine
 10
656.2148230745822
 20
634.2732379989609
 30
0.0
 11
656.2148230745822
 21
687.7739293892953
 31
0.0
  0
INSERT
  5
3118
330
3112
100
AcDbEntity
  8
DIM
 62
     0
370
    -2
100
AcDbBlockReference
  2
_DOT
 10
656.2148230745822
 20
631.2732379989609
 30
0.0
 41
3.0
 42
3.0
 43
3.0
 50
270.0
  0
INSERT
  5
3119
330
3112
100
AcDbEntity
  8
DIM
 62
     0
370
    -2
100
AcDbBlockReference
  2
_DOT
 10
656.2148230745822
 20
690.7739293892953
 30
0.0
 41
3.0
 42
3.0
 43
3.0
 50
90.0
  0
MTEXT
  5
311A
330
3112
100
AcDbEntity
  8
DIM
 62
     0
100
AcDbMText
 10
640.2148230745822
 20
661.0235836941281
 30
0.0
 40
12.0
 41
0.0
 46
0.0
 71
     5
 72
     1
  1
\A1;60
  7
ＭＳ ゴシック
 11
0.0
 21
1.0
 31
0.0
 73
     1
 44
1.0
  0
POINT
  5
311B
330
3112
100
AcDbEntity
  8
Defpoints
 62
     0
100
AcDbPoint
 10
597.0662751224838
 20
631.2732379989609
 30
0.0
  0
POINT
  5
311C
330
3112
100
AcDbEntity
  8
Defpoints
 62
     0
100
AcDbPoint
 10
596.5669665115358
 20
690.7739293892953
 30
0.0
  0
POINT
  5
311D
330
3112
100
AcDbEntity
  8
Defpoints
 62
     0
100
AcDbPoint
 10
656.2148230745822
 20
690.7739293892953
 30
0.0
  0
ENDBLK
  5
3114
330
3112
100
AcDbEntity
  8
0
100
AcDbBlockEnd
  0
BLOCK
  5
3126
330
3125
100
AcDbEntity
  8
0
100
AcDbBlockBegin
  2
*D7
 70
     1
 10
0.0
 20
0.0
 30
0.0
  3
*D7
  1

  0
LINE
  5
3128
330
3125
100
AcDbEntity
  8
DIM
 62
     0
370
    -2
100
AcDbLine
 10
607.0662751224838
 20
964.3256488546513
 30
0.0
 11
656.2148230745822
 21
964.3256488546513
 31
0.0
  0
LINE
  5
3129
330
3125
100
AcDbEntity
  8
DIM
 62
     0
370
    -2
100
AcDbLine
 10
607.0662751224838
 20
1064.325648854651
 30
0.0
 11
656.2148230745822
 21
1064.325648854651
 31
0.0
  0
LINE
  5
312A
330
3125
100
AcDbEntity
  8
DIM
 62
     0
370
    -2
100
AcDbLine
 10
656.2148230745822
 20
967.3256488546513
 30
0.0
 11
656.2148230745822
 21
1061.325648854651
 31
0.0
  0
INSERT
  5
312B
330
3125
100
AcDbEntity
  8
DIM
 62
     0
370
    -2
100
AcDbBlockReference
  2
_DOT
 10
656.2148230745822
 20
964.3256488546513
 30
0.0
 41
3.0
 42
3.0
 43
3.0
 50
270.0
  0
INSERT
  5
312C
330
3125
100
AcDbEntity
  8
DIM
 62
     0
370
    -2
100
AcDbBlockReference
  2
_DOT
 10
656.2148230745822
 20
1064.325648854651
 30
0.0
 41
3.0
 42
3.0
 43
3.0
 50
90.0
  0
MTEXT
  5
312D
330
3125
100
AcDbEntity
  8
DIM
 62
     0
100
AcDbMText
 10
640.2148230745822
 20
1014.325648854651
 30
0.0
 40
12.0
 41
0.0
 46
0.0
 71
     5
 72
     1
  1
\A1;100
  7
ＭＳ ゴシック
 11
0.0
 21
1.0
 31
0.0
 73
     1
 44
1.0
  0
POINT
  5
312E
330
3125
100
AcDbEntity
  8
Defpoints
 62
     0
100
AcDbPoint
 10
597.0662751224838
 20
964.3256488546513
 30
0.0
  0
POINT
  5
312F
330
3125
100
AcDbEntity
  8
Defpoints
 62
     0
100
AcDbPoint
 10
597.0662751224838
 20
1064.325648854651
 30
0.0
  0
POINT
  5
3130
330
3125
100
AcDbEntity
  8
Defpoints
 62
     0
100
AcDbPoint
 10
656.2148230745822
 20
1064.325648854651
 30
0.0
  0
ENDBLK
  5
3127
330
3125
100
AcDbEntity
  8
0
100
AcDbBlockEnd
  0
BLOCK
  5
315E
330
315D
100
AcDbEntity
  8
0
100
AcDbBlockBegin
  2
*D8
 70
     1
 10
0.0
 20
0.0
 30
0.0
  3
*D8
  1

  0
LINE
  5
315F
330
315D
100
AcDbEntity
  8
MODEL
 62
     0
370
    -2
100
AcDbLine
 10
77.46863124430365
 20
82.92988067839394
 30
0.0
 11
34.44636569035583
 21
82.92988067839394
 31
0.0
  0
LINE
  5
3160
330
315D
100
AcDbEntity
  8
MODEL
 62
     0
370
    -2
100
AcDbLine
 10
77.46863124430365
 20
182.9298806783939
 30
0.0
 11
34.44636569035583
 21
182.9298806783939
 31
0.0
  0
LINE
  5
3161
330
315D
100
AcDbEntity
  8
MODEL
 62
     0
370
    -2
100
AcDbLine
 10
34.44636569035583
 20
92.92927032683144
 30
0.0
 11
34.44636569035583
 21
172.9304910299564
 31
0.0
  0
INSERT
  5
3162
330
315D
100
AcDbEntity
  8
MODEL
 62
     0
370
    -2
100
AcDbBlockReference
  2
_DOT
 10
34.44636569035583
 20
82.92988067839394
 30
0.0
 41
9.999389648437498
 42
9.999389648437498
 43
9.999389648437498
 50
270.0
  0
INSERT
  5
3163
330
315D
100
AcDbEntity
  8
MODEL
 62
     0
370
    -2
100
AcDbBlockReference
  2
_DOT
 10
34.44636569035583
 20
182.9298806783939
 30
0.0
 41
9.999389648437498
 42
9.999389648437498
 43
9.999389648437498
 50
90.0
  0
MTEXT
  5
3164
330
315D
100
AcDbEntity
  8
MODEL
 62
     0
100
AcDbMText
 10
12.22547426232032
 20
132.9298806783939
 30
0.0
 40
24.4326171875
 41
0.0
 46
0.0
 71
     5
 72
     1
  1
\A1;100
  7
ＭＳ ゴシック
 11
7.105427357601002E-17
 21
1.0
 31
0.0
 73
     1
 44
1.0
  0
POINT
  5
3165
330
315D
100
AcDbEntity
  8
Defpoints
 62
     0
100
AcDbPoint
 10
102.4686312443037
 20
82.92988067839394
 30
0.0
  0
POINT
  5
3166
330
315D
100
AcDbEntity
  8
Defpoints
 62
     0
100
AcDbPoint
 10
102.4686312443037
 20
182.9298806783939
 30
0.0
  0
POINT
  5
3167
330
315D
100
AcDbEntity
  8
Defpoints
 62
     0
100
AcDbPoint
 10
34.44636569035583
 20
182.9298806783939
 30
0.0
  0
ENDBLK
  5
3168
330
315D
100
AcDbEntity
  8
0
100
AcDbBlockEnd
  0
BLOCK
  5
316D
330
316C
100
AcDbEntity
  8
0
100
AcDbBlockBegin
  2
*D9
 70
     1
 10
0.0
 20
0.0
 30
0.0
  3
*D9
  1

  0
LINE
  5
316E
330
316C
100
AcDbEntity
  8
MODEL
 62
     0
370
    -2
100
AcDbLine
 10
75.46863124430365
 20
184.9298806783939
 30
0.0
 11
34.44636569035583
 21
184.9298806783939
 31
0.0
  0
LINE
  5
316F
330
316C
100
AcDbEntity
  8
MODEL
 62
     0
370
    -2
100
AcDbLine
 10
77.46863124430365
 20
182.9298806783939
 30
0.0
 11
34.44636569035583
 21
182.9298806783939
 31
0.0
  0
LINE
  5
3170
330
316C
100
AcDbEntity
  8
MODEL
 62
     0
370
    -2
100
AcDbLine
 10
34.44636569035583
 20
184.9298806783939
 30
0.0
 11
34.44636569035583
 21
237.5650617118577
 31
0.0
  0
LINE
  5
3171
330
316C
100
AcDbEntity
  8
MODEL
 62
     0
370
    -2
100
AcDbLine
 10
34.44636569035583
 20
184.9298806783939
 30
0.0
 11
34.44636569035583
 21
182.9298806783939
 31
0.0
  0
LINE
  5
3172
330
316C
100
AcDbEntity
  8
MODEL
 62
     0
370
    -2
100
AcDbLine
 10
34.44636569035583
 20
194.9292703268314
 30
0.0
 11
34.44636569035583
 21
204.9286599752689
 31
0.0
  0
LINE
  5
3173
330
316C
100
AcDbEntity
  8
MODEL
 62
     0
370
    -2
100
AcDbLine
 10
34.44636569035583
 20
172.9304910299564
 30
0.0
 11
34.44636569035583
 21
162.9311013815189
 31
0.0
  0
INSERT
  5
3174
330
316C
100
AcDbEntity
  8
MODEL
 62
     0
370
    -2
100
AcDbBlockReference
  2
_DOT
 10
34.44636569035583
 20
184.9298806783939
 30
0.0
 41
9.999389648437498
 42
9.999389648437498
 43
9.999389648437498
 50
270.0
  0
INSERT
  5
3175
330
316C
100
AcDbEntity
  8
MODEL
 62
     0
370
    -2
100
AcDbBlockReference
  2
_DOT
 10
34.44636569035583
 20
182.9298806783939
 30
0.0
 41
9.999389648437498
 42
9.999389648437498
 43
9.999389648437498
 50
90.0
  0
MTEXT
  5
3176
330
316C
100
AcDbEntity
  8
MODEL
 62
     0
100
AcDbMText
 10
12.22547426232032
 20
221.2468608435633
 30
0.0
 40
24.4326171875
 41
0.0
 46
0.0
 71
     5
 72
     1
  1
\A1;2
  7
ＭＳ ゴシック
 11
0.0
 21
1.0
 31
0.0
 73
     1
 44
1.0
  0
POINT
  5
3177
330
316C
100
AcDbEntity
  8
Defpoints
 62
     0
100
AcDbPoint
 10
100.4686312443037
 20
184.9298806783939
 30
0.0
  0
POINT
  5
3178
330
316C
100
AcDbEntity
  8
Defpoints
 62
     0
100
AcDbPoint
 10
102.4686312443037
 20
182.9298806783939
 30
0.0
  0
POINT
  5
3179
330
316C
100
AcDbEntity
  8
Defpoints
 62
     0
100
AcDbPoint
 10
34.44636569035583
 20
182.9298806783939
 30
0.0
  0
ENDBLK
  5
317A
330
316C
100
AcDbEntity
  8
0
100
AcDbBlockEnd
  0
BLOCK
  5
3186
330
3185
100
AcDbEntity
  8
0
100
AcDbBlockBegin
  2
*D10
 70
     1
 10
0.0
 20
0.0
 30
0.0
  3
*D10
  1

  0
LINE
  5
3187
330
3185
100
AcDbEntity
  8
MODEL
 62
     0
370
    -2
100
AcDbLine
 10
102.4686312443037
 20
57.92988067839394
 30
0.0
 11
102.4686312443037
 21
4.99969482421875
 31
0.0
  0
LINE
  5
3188
330
3185
100
AcDbEntity
  8
MODEL
 62
     0
370
    -2
100
AcDbLine
 10
402.4686312443055
 20
57.92988067839633
 30
0.0
 11
402.4686312443055
 21
4.99969482421875
 31
0.0
  0
LINE
  5
3189
330
3185
100
AcDbEntity
  8
MODEL
 62
     0
370
    -2
100
AcDbLine
 10
112.4680208927412
 20
4.99969482421875
 30
0.0
 11
392.469241595868
 21
4.99969482421875
 31
0.0
  0
INSERT
  5
318A
330
3185
100
AcDbEntity
  8
MODEL
 62
     0
370
    -2
100
AcDbBlockReference
  2
_DOT
 10
102.4686312443037
 20
4.99969482421875
 30
0.0
 41
9.999389648437498
 42
9.999389648437498
 43
9.999389648437498
 50
180.0
  0
INSERT
  5
318B
330
3185
100
AcDbEntity
  8
MODEL
 62
     0
370
    -2
100
AcDbBlockReference
  2
_DOT
 10
402.4686312443055
 20
4.99969482421875
 30
0.0
 41
9.999389648437498
 42
9.999389648437498
 43
9.999389648437498
  0
MTEXT
  5
318C
330
3185
100
AcDbEntity
  8
MODEL
 62
     0
100
AcDbMText
 10
252.4686312443046
 20
27.22058625225426
 30
0.0
 40
24.4326171875
 41
0.0
 46
0.0
 71
     5
 72
     1
  1
\A1;300
  7
ＭＳ ゴシック
 73
     1
 44
1.0
  0
POINT
  5
318D
330
3185
100
AcDbEntity
  8
Defpoints
 62
     0
100
AcDbPoint
 10
102.4686312443037
 20
82.92988067839394
 30
0.0
  0
POINT
  5
318E
330
3185
100
AcDbEntity
  8
Defpoints
 62
     0
100
AcDbPoint
 10
402.4686312443055
 20
82.92988067839633
 30
0.0
  0
POINT
  5
318F
330
3185
100
AcDbEntity
  8
Defpoints
 62
     0
100
AcDbPoint
 10
402.4686312443055
 20
4.99969482421875
 30
0.0
  0
ENDBLK
  5
3190
330
3185
100
AcDbEntity
  8
0
100
AcDbBlockEnd
  0
BLOCK
  5
3195
330
3194
100
AcDbEntity
  8
0
100
AcDbBlockBegin
  2
*D11
 70
     1
 10
0.0
 20
0.0
 30
0.0
  3
*D11
  1

  0
LINE
  5
3196
330
3194
100
AcDbEntity
  8
MODEL
 62
     0
370
    -2
100
AcDbLine
 10
102.4686312443037
 20
57.92988067839394
 30
0.0
 11
102.4686312443037
 21
4.99969482421875
 31
0.0
  0
LINE
  5
3197
330
3194
100
AcDbEntity
  8
MODEL
 62
     0
370
    -2
100
AcDbLine
 10
100.4686312443037
 20
57.92988067839394
 30
0.0
 11
100.4686312443037
 21
4.99969482421875
 31
0.0
  0
LINE
  5
3198
330
3194
100
AcDbEntity
  8
MODEL
 62
     0
370
    -2
100
AcDbLine
 10
100.4686312443037
 20
4.99969482421875
 30
0.0
 11
47.83345021083994
 21
4.99969482421875
 31
0.0
  0
LINE
  5
3199
330
3194
100
AcDbEntity
  8
MODEL
 62
     0
370
    -2
100
AcDbLine
 10
102.4686312443037
 20
4.99969482421875
 30
0.0
 11
100.4686312443037
 21
4.99969482421875
 31
0.0
  0
LINE
  5
319A
330
3194
100
AcDbEntity
  8
MODEL
 62
     0
370
    -2
100
AcDbLine
 10
112.4680208927412
 20
4.99969482421875
 30
0.0
 11
122.4674105411787
 21
4.99969482421875
 31
0.0
  0
LINE
  5
319B
330
3194
100
AcDbEntity
  8
MODEL
 62
     0
370
    -2
100
AcDbLine
 10
90.46924159586615
 20
4.99969482421875
 30
0.0
 11
80.46985194742865
 21
4.99969482421875
 31
0.0
  0
INSERT
  5
319C
330
3194
100
AcDbEntity
  8
MODEL
 62
     0
370
    -2
100
AcDbBlockReference
  2
_DOT
 10
102.4686312443037
 20
4.99969482421875
 30
0.0
 41
9.999389648437498
 42
9.999389648437498
 43
9.999389648437498
 50
180.0
  0
INSERT
  5
319D
330
3194
100
AcDbEntity
  8
MODEL
 62
     0
370
    -2
100
AcDbBlockReference
  2
_DOT
 10
100.4686312443037
 20
4.99969482421875
 30
0.0
 41
9.999389648437498
 42
9.999389648437498
 43
9.999389648437498
  0
MTEXT
  5
319E
330
3194
100
AcDbEntity
  8
MODEL
 62
     0
100
AcDbMText
 10
64.1516510791343
 20
27.22058625225426
 30
0.0
 40
24.4326171875
 41
0.0
 46
0.0
 71
     5
 72
     1
  1
\A1;2
  7
ＭＳ ゴシック
 73
     1
 44
1.0
  0
POINT
  5
319F
330
3194
100
AcDbEntity
  8
Defpoints
 62
     0
100
AcDbPoint
 10
102.4686312443037
 20
82.92988067839394
 30
0.0
  0
POINT
  5
31A0
330
3194
100
AcDbEntity
  8
Defpoints
 62
     0
100
AcDbPoint
 10
100.4686312443037
 20
82.92988067839394
 30
0.0
  0
POINT
  5
31A1
330
3194
100
AcDbEntity
  8
Defpoints
 62
     0
100
AcDbPoint
 10
100.4686312443037
 20
4.99969482421875
 30
0.0
  0
ENDBLK
  5
31A2
330
3194
100
AcDbEntity
  8
0
100
AcDbBlockEnd
  0
BLOCK
  5
31A7
330
31A6
100
AcDbEntity
  8
0
100
AcDbBlockBegin
  2
*D12
 70
     1
 10
0.0
 20
0.0
 30
0.0
  3
*D12
  1

  0
LINE
  5
31A8
330
31A6
100
AcDbEntity
  8
MODEL
 62
     0
370
    -2
100
AcDbLine
 10
439.4686312443046
 20
70.92988067839883
 30
0.0
 11
490.4721213719877
 21
70.92988067839883
 31
0.0
  0
LINE
  5
31A9
330
31A6
100
AcDbEntity
  8
MODEL
 62
     0
370
    -2
100
AcDbLine
 10
439.4686312443037
 20
194.9298806783964
 30
0.0
 11
490.4721213719877
 21
194.9298806783964
 31
0.0
  0
LINE
  5
31AA
330
31A6
100
AcDbEntity
  8
MODEL
 62
     0
370
    -2
100
AcDbLine
 10
490.4721213719877
 20
80.92927032683633
 30
0.0
 11
490.4721213719877
 21
184.9304910299589
 31
0.0
  0
INSERT
  5
31AB
330
31A6
100
AcDbEntity
  8
MODEL
 62
     0
370
    -2
100
AcDbBlockReference
  2
_DOT
 10
490.4721213719877
 20
70.92988067839883
 30
0.0
 41
9.999389648437498
 42
9.999389648437498
 43
9.999389648437498
 50
270.0
  0
INSERT
  5
31AC
330
31A6
100
AcDbEntity
  8
MODEL
 62
     0
370
    -2
100
AcDbBlockReference
  2
_DOT
 10
490.4721213719877
 20
194.9298806783964
 30
0.0
 41
9.999389648437498
 42
9.999389648437498
 43
9.999389648437498
 50
90.0
  0
MTEXT
  5
31AD
330
31A6
100
AcDbEntity
  8
MODEL
 62
     0
100
AcDbMText
 10
468.2512299439521
 20
132.9298806783976
 30
0.0
 40
24.4326171875
 41
0.0
 46
0.0
 71
     5
 72
     1
  1
\A1;124
  7
ＭＳ ゴシック
 11
0.0
 21
1.0
 31
0.0
 73
     1
 44
1.0
  0
POINT
  5
31AE
330
31A6
100
AcDbEntity
  8
Defpoints
 62
     0
100
AcDbPoint
 10
414.4686312443046
 20
70.92988067839883
 30
0.0
  0
POINT
  5
31AF
330
31A6
100
AcDbEntity
  8
Defpoints
 62
     0
100
AcDbPoint
 10
414.4686312443037
 20
194.9298806783964
 30
0.0
  0
POINT
  5
31B0
330
31A6
100
AcDbEntity
  8
Defpoints
 62
     0
100
AcDbPoint
 10
490.4721213719877
 20
194.9298806783964
 30
0.0
  0
ENDBLK
  5
31B1
330
31A6
100
AcDbEntity
  8
0
100
AcDbBlockEnd
  0
BLOCK
  5
31B4
330
31B3
100
AcDbEntity
  8
0
100
AcDbBlockBegin
  2
*D13
 70
     1
 10
0.0
 20
0.0
 30
0.0
  3
*D13
  1

  0
LINE
  5
31B5
330
31B3
100
AcDbEntity
  8
MODEL
 62
     0
370
    -2
100
AcDbLine
 10
414.4686312443037
 20
219.9298806783964
 30
0.0
 11
414.4686312443037
 21
246.5755122777377
 31
0.0
  0
LINE
  5
31B6
330
31B3
100
AcDbEntity
  8
MODEL
 62
     0
370
    -2
100
AcDbLine
 10
404.4686312443037
 20
219.9298806783963
 30
0.0
 11
404.4686312443037
 21
246.5755122777377
 31
0.0
  0
LINE
  5
31B7
330
31B3
100
AcDbEntity
  8
MODEL
 62
     0
370
    -2
100
AcDbLine
 10
404.4692415958662
 20
246.5755122777377
 30
0.0
 11
414.4680208927412
 21
246.5755122777377
 31
0.0
  0
INSERT
  5
31B8
330
31B3
100
AcDbEntity
  8
MODEL
 62
     0
370
    -2
100
AcDbBlockReference
  2
_DOT
 10
414.4686312443037
 20
246.5755122777377
 30
0.0
 41
9.999389648437498
 42
9.999389648437498
 43
9.999389648437498
  0
INSERT
  5
31B9
330
31B3
100
AcDbEntity
  8
MODEL
 62
     0
370
    -2
100
AcDbBlockReference
  2
_DOT
 10
404.4686312443037
 20
246.5755122777377
 30
0.0
 41
9.999389648437498
 42
9.999389648437498
 43
9.999389648437498
 50
180.0
  0
MTEXT
  5
31BA
330
31B3
100
AcDbEntity
  8
MODEL
 62
     0
100
AcDbMText
 10
409.4686312443037
 20
268.7964037057732
 30
0.0
 40
24.4326171875
 41
0.0
 46
0.0
 71
     5
 72
     1
  1
\A1;10
  7
ＭＳ ゴシック
 73
     1
 44
1.0
  0
POINT
  5
31BB
330
31B3
100
AcDbEntity
  8
Defpoints
 62
     0
100
AcDbPoint
 10
414.4686312443037
 20
194.9298806783964
 30
0.0
  0
POINT
  5
31BC
330
31B3
100
AcDbEntity
  8
Defpoints
 62
     0
100
AcDbPoint
 10
404.4686312443037
 20
194.9298806783963
 30
0.0
  0
POINT
  5
31BD
330
31B3
100
AcDbEntity
  8
Defpoints
 62
     0
100
AcDbPoint
 10
404.4686312443037
 20
246.5755122777377
 30
0.0
  0
ENDBLK
  5
31BE
330
31B3
100
AcDbEntity
  8
0
100
AcDbBlockEnd
  0
BLOCK
  5
31C3
330
31C2
100
AcDbEntity
  8
0
100
AcDbBlockBegin
  2
*D14
 70
     1
 10
0.0
 20
0.0
 30
0.0
  3
*D14
  1

  0
LINE
  5
31C4
330
31C2
100
AcDbEntity
  8
MODEL
 62
     0
370
    -2
100
AcDbLine
 10
100.4686312443037
 20
219.9298806783939
 30
0.0
 11
100.4686312443037
 21
246.5755122777377
 31
0.0
  0
LINE
  5
31C5
330
31C2
100
AcDbEntity
  8
MODEL
 62
     0
370
    -2
100
AcDbLine
 10
404.4686312443037
 20
219.9298806783963
 30
0.0
 11
404.4686312443037
 21
246.5755122777377
 31
0.0
  0
LINE
  5
31C6
330
31C2
100
AcDbEntity
  8
MODEL
 62
     0
370
    -2
100
AcDbLine
 10
110.4680208927412
 20
246.5755122777377
 30
0.0
 11
394.4692415958662
 21
246.5755122777377
 31
0.0
  0
INSERT
  5
31C7
330
31C2
100
AcDbEntity
  8
MODEL
 62
     0
370
    -2
100
AcDbBlockReference
  2
_DOT
 10
100.4686312443037
 20
246.5755122777377
 30
0.0
 41
9.999389648437498
 42
9.999389648437498
 43
9.999389648437498
 50
180.0
  0
INSERT
  5
31C8
330
31C2
100
AcDbEntity
  8
MODEL
 62
     0
370
    -2
100
AcDbBlockReference
  2
_DOT
 10
404.4686312443037
 20
246.5755122777377
 30
0.0
 41
9.999389648437498
 42
9.999389648437498
 43
9.999389648437498
  0
MTEXT
  5
31C9
330
31C2
100
AcDbEntity
  8
MODEL
 62
     0
100
AcDbMText
 10
252.4686312443037
 20
268.7964037057732
 30
0.0
 40
24.4326171875
 41
0.0
 46
0.0
 71
     5
 72
     1
  1
\A1;304
  7
ＭＳ ゴシック
 73
     1
 44
1.0
  0
POINT
  5
31CA
330
31C2
100
AcDbEntity
  8
Defpoints
 62
     0
100
AcDbPoint
 10
100.4686312443037
 20
194.9298806783939
 30
0.0
  0
POINT
  5
31CB
330
31C2
100
AcDbEntity
  8
Defpoints
 62
     0
100
AcDbPoint
 10
404.4686312443037
 20
194.9298806783963
 30
0.0
  0
POINT
  5
31CC
330
31C2
100
AcDbEntity
  8
Defpoints
 62
     0
100
AcDbPoint
 10
404.4686312443037
 20
246.5755122777377
 30
0.0
  0
ENDBLK
  5
31CD
330
31C2
100
AcDbEntity
  8
0
100
AcDbBlockEnd
  0
BLOCK
  5
31DA
330
31D9
100
AcDbEntity
  8
0
100
AcDbBlockBegin
  2
*D15
 70
     1
 10
0.0
 20
0.0
 30
0.0
  3
*D15
  1

  0
LINE
  5
31DB
330
31D9
100
AcDbEntity
  8
MODEL
 62
     0
370
    -2
100
AcDbLine
 10
606.4389341413166
 20
55.92988067839633
 30
0.0
 11
606.4389341413166
 21
4.99969482421875
 31
0.0
  0
LINE
  5
31DC
330
31D9
100
AcDbEntity
  8
MODEL
 62
     0
370
    -2
100
AcDbLine
 10
836.4389341413216
 20
55.92988067839633
 30
0.0
 11
836.4389341413216
 21
4.99969482421875
 31
0.0
  0
LINE
  5
31DD
330
31D9
100
AcDbEntity
  8
MODEL
 62
     0
370
    -2
100
AcDbLine
 10
616.4383237897541
 20
4.99969482421875
 30
0.0
 11
826.4395444928841
 21
4.99969482421875
 31
0.0
  0
INSERT
  5
31DE
330
31D9
100
AcDbEntity
  8
MODEL
 62
     0
370
    -2
100
AcDbBlockReference
  2
_DOT
 10
606.4389341413166
 20
4.99969482421875
 30
0.0
 41
9.999389648437498
 42
9.999389648437498
 43
9.999389648437498
 50
180.0
  0
INSERT
  5
31DF
330
31D9
100
AcDbEntity
  8
MODEL
 62
     0
370
    -2
100
AcDbBlockReference
  2
_DOT
 10
836.4389341413216
 20
4.99969482421875
 30
0.0
 41
9.999389648437498
 42
9.999389648437498
 43
9.999389648437498
  0
MTEXT
  5
31E0
330
31D9
100
AcDbEntity
  8
MODEL
 62
     0
100
AcDbMText
 10
721.4389341413191
 20
27.22058625225426
 30
0.0
 40
24.4326171875
 41
0.0
 46
0.0
 71
     5
 72
     1
  1
\A1;230
  7
ＭＳ ゴシック
 73
     1
 44
1.0
  0
POINT
  5
31E1
330
31D9
100
AcDbEntity
  8
Defpoints
 62
     0
100
AcDbPoint
 10
606.4389341413166
 20
80.92988067839633
 30
0.0
  0
POINT
  5
31E2
330
31D9
100
AcDbEntity
  8
Defpoints
 62
     0
100
AcDbPoint
 10
836.4389341413216
 20
80.92988067839633
 30
0.0
  0
POINT
  5
31E3
330
31D9
100
AcDbEntity
  8
Defpoints
 62
     0
100
AcDbPoint
 10
836.4389341413216
 20
4.99969482421875
 30
0.0
  0
ENDBLK
  5
31E4
330
31D9
100
AcDbEntity
  8
0
100
AcDbBlockEnd
  0
BLOCK
  5
31E9
330
31E8
100
AcDbEntity
  8
0
100
AcDbBlockBegin
  2
*D16
 70
     1
 10
0.0
 20
0.0
 30
0.0
  3
*D16
  1

  0
LINE
  5
31EA
330
31E8
100
AcDbEntity
  8
MODEL
 62
     0
370
    -2
100
AcDbLine
 10
414.4686312443037
 20
219.9298806783964
 30
0.0
 11
414.4686312443037
 21
304.2571218851058
 31
0.0
  0
LINE
  5
31EB
330
31E8
100
AcDbEntity
  8
MODEL
 62
     0
370
    -2
100
AcDbLine
 10
90.46863124430365
 20
219.9298806783939
 30
0.0
 11
90.46863124430365
 21
304.2571218851058
 31
0.0
  0
LINE
  5
31EC
330
31E8
100
AcDbEntity
  8
MODEL
 62
     0
370
    -2
100
AcDbLine
 10
404.4692415958662
 20
304.2571218851058
 30
0.0
 11
100.4680208927412
 21
304.2571218851058
 31
0.0
  0
INSERT
  5
31ED
330
31E8
100
AcDbEntity
  8
MODEL
 62
     0
370
    -2
100
AcDbBlockReference
  2
_DOT
 10
414.4686312443037
 20
304.2571218851058
 30
0.0
 41
9.999389648437498
 42
9.999389648437498
 43
9.999389648437498
  0
INSERT
  5
31EE
330
31E8
100
AcDbEntity
  8
MODEL
 62
     0
370
    -2
100
AcDbBlockReference
  2
_DOT
 10
90.46863124430365
 20
304.2571218851058
 30
0.0
 41
9.999389648437498
 42
9.999389648437498
 43
9.999389648437498
 50
180.0
  0
MTEXT
  5
31EF
330
31E8
100
AcDbEntity
  8
MODEL
 62
     0
100
AcDbMText
 10
252.4686312443037
 20
326.4780133131413
 30
0.0
 40
24.4326171875
 41
0.0
 46
0.0
 71
     5
 72
     1
  1
\A1;324
  7
ＭＳ ゴシック
 73
     1
 44
1.0
  0
POINT
  5
31F0
330
31E8
100
AcDbEntity
  8
Defpoints
 62
     0
100
AcDbPoint
 10
414.4686312443037
 20
194.9298806783964
 30
0.0
  0
POINT
  5
31F1
330
31E8
100
AcDbEntity
  8
Defpoints
 62
     0
100
AcDbPoint
 10
90.46863124430365
 20
194.9298806783939
 30
0.0
  0
POINT
  5
31F2
330
31E8
100
AcDbEntity
  8
Defpoints
 62
     0
100
AcDbPoint
 10
90.46863124430365
 20
304.2571218851058
 30
0.0
  0
ENDBLK
  5
31F3
330
31E8
100
AcDbEntity
  8
0
100
AcDbBlockEnd
  0
BLOCK
  5
31F6
330
31F5
100
AcDbEntity
  8
0
100
AcDbBlockBegin
  2
*D17
 70
     1
 10
0.0
 20
0.0
 30
0.0
  3
*D17
  1

  0
LINE
  5
31F7
330
31F5
100
AcDbEntity
  8
MODEL
 62
     0
370
    -2
100
AcDbLine
 10
848.4389341413166
 20
219.9298806783963
 30
0.0
 11
848.4389341413166
 21
246.5755122777377
 31
0.0
  0
LINE
  5
31F8
330
31F5
100
AcDbEntity
  8
MODEL
 62
     0
370
    -2
100
AcDbLine
 10
838.4389341413166
 20
219.9298806783963
 30
0.0
 11
838.4389341413166
 21
246.5755122777377
 31
0.0
  0
LINE
  5
31F9
330
31F5
100
AcDbEntity
  8
MODEL
 62
     0
370
    -2
100
AcDbLine
 10
838.4395444928791
 20
246.5755122777377
 30
0.0
 11
848.4383237897541
 21
246.5755122777377
 31
0.0
  0
INSERT
  5
31FA
330
31F5
100
AcDbEntity
  8
MODEL
 62
     0
370
    -2
100
AcDbBlockReference
  2
_DOT
 10
848.4389341413166
 20
246.5755122777377
 30
0.0
 41
9.999389648437498
 42
9.999389648437498
 43
9.999389648437498
  0
INSERT
  5
31FB
330
31F5
100
AcDbEntity
  8
MODEL
 62
     0
370
    -2
100
AcDbBlockReference
  2
_DOT
 10
838.4389341413166
 20
246.5755122777377
 30
0.0
 41
9.999389648437498
 42
9.999389648437498
 43
9.999389648437498
 50
180.0
  0
MTEXT
  5
31FC
330
31F5
100
AcDbEntity
  8
MODEL
 62
     0
100
AcDbMText
 10
843.4389341413166
 20
268.7964037057732
 30
0.0
 40
24.4326171875
 41
0.0
 46
0.0
 71
     5
 72
     1
  1
\A1;10
  7
ＭＳ ゴシック
 73
     1
 44
1.0
  0
POINT
  5
31FD
330
31F5
100
AcDbEntity
  8
Defpoints
 62
     0
100
AcDbPoint
 10
848.4389341413166
 20
194.9298806783963
 30
0.0
  0
POINT
  5
31FE
330
31F5
100
AcDbEntity
  8
Defpoints
 62
     0
100
AcDbPoint
 10
838.4389341413166
 20
194.9298806783963
 30
0.0
  0
POINT
  5
31FF
330
31F5
100
AcDbEntity
  8
Defpoints
 62
     0
100
AcDbPoint
 10
838.4389341413166
 20
246.5755122777377
 30
0.0
  0
ENDBLK
  5
3200
330
31F5
100
AcDbEntity
  8
0
100
AcDbBlockEnd
  0
BLOCK
  5
3203
330
3202
100
AcDbEntity
  8
0
100
AcDbBlockBegin
  2
*D18
 70
     1
 10
0.0
 20
0.0
 30
0.0
  3
*D18
  1

  0
LINE
  5
3204
330
3202
100
AcDbEntity
  8
MODEL
 62
     0
370
    -2
100
AcDbLine
 10
838.4389341413166
 20
219.9298806783963
 30
0.0
 11
838.4389341413166
 21
246.5755122777377
 31
0.0
  0
LINE
  5
3205
330
3202
100
AcDbEntity
  8
MODEL
 62
     0
370
    -2
100
AcDbLine
 10
606.4389341413166
 20
219.9298806783964
 30
0.0
 11
606.4389341413166
 21
246.5755122777377
 31
0.0
  0
LINE
  5
3206
330
3202
100
AcDbEntity
  8
MODEL
 62
     0
370
    -2
100
AcDbLine
 10
828.4395444928791
 20
246.5755122777377
 30
0.0
 11
616.4383237897541
 21
246.5755122777377
 31
0.0
  0
INSERT
  5
3207
330
3202
100
AcDbEntity
  8
MODEL
 62
     0
370
    -2
100
AcDbBlockReference
  2
_DOT
 10
838.4389341413166
 20
246.5755122777377
 30
0.0
 41
9.999389648437498
 42
9.999389648437498
 43
9.999389648437498
  0
INSERT
  5
3208
330
3202
100
AcDbEntity
  8
MODEL
 62
     0
370
    -2
100
AcDbBlockReference
  2
_DOT
 10
606.4389341413166
 20
246.5755122777377
 30
0.0
 41
9.999389648437498
 42
9.999389648437498
 43
9.999389648437498
 50
180.0
  0
MTEXT
  5
3209
330
3202
100
AcDbEntity
  8
MODEL
 62
     0
100
AcDbMText
 10
722.4389341413166
 20
268.7964037057732
 30
0.0
 40
24.4326171875
 41
0.0
 46
0.0
 71
     5
 72
     1
  1
\A1;232
  7
ＭＳ ゴシック
 73
     1
 44
1.0
  0
POINT
  5
320A
330
3202
100
AcDbEntity
  8
Defpoints
 62
     0
100
AcDbPoint
 10
838.4389341413166
 20
194.9298806783963
 30
0.0
  0
POINT
  5
320B
330
3202
100
AcDbEntity
  8
Defpoints
 62
     0
100
AcDbPoint
 10
606.4389341413166
 20
194.9298806783964
 30
0.0
  0
POINT
  5
320C
330
3202
100
AcDbEntity
  8
Defpoints
 62
     0
100
AcDbPoint
 10
606.4389341413166
 20
246.5755122777377
 30
0.0
  0
ENDBLK
  5
320D
330
3202
100
AcDbEntity
  8
0
100
AcDbBlockEnd
  0
BLOCK
  5
3213
330
3212
100
AcDbEntity
  8
0
100
AcDbBlockBegin
  2
*D19
 70
     1
 10
0.0
 20
0.0
 30
0.0
  3
*D19
  1

  0
LINE
  5
3214
330
3212
100
AcDbEntity
  8
MODEL
 62
     0
370
    -2
100
AcDbLine
 10
838.4389341413216
 20
55.92988067839633
 30
0.0
 11
838.4389341413216
 21
4.99969482421875
 31
0.0
  0
LINE
  5
3215
330
3212
100
AcDbEntity
  8
MODEL
 62
     0
370
    -2
100
AcDbLine
 10
836.4389341413216
 20
57.92988067839633
 30
0.0
 11
836.4389341413216
 21
4.99969482421875
 31
0.0
  0
LINE
  5
3216
330
3212
100
AcDbEntity
  8
MODEL
 62
     0
370
    -2
100
AcDbLine
 10
838.4389341413216
 20
4.99969482421875
 30
0.0
 11
891.0741151747854
 21
4.99969482421875
 31
0.0
  0
LINE
  5
3217
330
3212
100
AcDbEntity
  8
MODEL
 62
     0
370
    -2
100
AcDbLine
 10
838.4389341413216
 20
4.99969482421875
 30
0.0
 11
836.4389341413216
 21
4.99969482421875
 31
0.0
  0
LINE
  5
3218
330
3212
100
AcDbEntity
  8
MODEL
 62
     0
370
    -2
100
AcDbLine
 10
848.4383237897591
 20
4.99969482421875
 30
0.0
 11
858.4377134381966
 21
4.99969482421875
 31
0.0
  0
LINE
  5
3219
330
3212
100
AcDbEntity
  8
MODEL
 62
     0
370
    -2
100
AcDbLine
 10
826.4395444928841
 20
4.99969482421875
 30
0.0
 11
816.4401548444466
 21
4.99969482421875
 31
0.0
  0
INSERT
  5
321A
330
3212
100
AcDbEntity
  8
MODEL
 62
     0
370
    -2
100
AcDbBlockReference
  2
_DOT
 10
838.4389341413216
 20
4.99969482421875
 30
0.0
 41
9.999389648437498
 42
9.999389648437498
 43
9.999389648437498
 50
180.0
  0
INSERT
  5
321B
330
3212
100
AcDbEntity
  8
MODEL
 62
     0
370
    -2
100
AcDbBlockReference
  2
_DOT
 10
836.4389341413216
 20
4.99969482421875
 30
0.0
 41
9.999389648437498
 42
9.999389648437498
 43
9.999389648437498
  0
MTEXT
  5
321C
330
3212
100
AcDbEntity
  8
MODEL
 62
     0
100
AcDbMText
 10
874.755914306491
 20
27.22058625225426
 30
0.0
 40
24.4326171875
 41
0.0
 46
0.0
 71
     5
 72
     1
  1
\A1;2
  7
ＭＳ ゴシック
 73
     1
 44
1.0
  0
POINT
  5
321D
330
3212
100
AcDbEntity
  8
Defpoints
 62
     0
100
AcDbPoint
 10
838.4389341413216
 20
80.92988067839633
 30
0.0
  0
POINT
  5
321E
330
3212
100
AcDbEntity
  8
Defpoints
 62
     0
100
AcDbPoint
 10
836.4389341413216
 20
82.92988067839633
 30
0.0
  0
POINT
  5
321F
330
3212
100
AcDbEntity
  8
Defpoints
 62
     0
100
AcDbPoint
 10
836.4389341413216
 20
4.99969482421875
 30
0.0
  0
ENDBLK
  5
3220
330
3212
100
AcDbEntity
  8
0
100
AcDbBlockEnd
  0
BLOCK
  5
3225
330
3224
100
AcDbEntity
  8
0
100
AcDbBlockBegin
  2
*D20
 70
     1
 10
0.0
 20
0.0
 30
0.0
  3
*D20
  1

  0
LINE
  5
3226
330
3224
100
AcDbEntity
  8
MODEL
 62
     0
370
    -2
100
AcDbLine
 10
596.4389341413166
 20
219.9298806783964
 30
0.0
 11
596.4389341413166
 21
304.2571218851058
 31
0.0
  0
LINE
  5
3227
330
3224
100
AcDbEntity
  8
MODEL
 62
     0
370
    -2
100
AcDbLine
 10
848.4389341413166
 20
219.9298806783963
 30
0.0
 11
848.4389341413166
 21
304.2571218851058
 31
0.0
  0
LINE
  5
3228
330
3224
100
AcDbEntity
  8
MODEL
 62
     0
370
    -2
100
AcDbLine
 10
606.4383237897541
 20
304.2571218851058
 30
0.0
 11
838.4395444928791
 21
304.2571218851058
 31
0.0
  0
INSERT
  5
3229
330
3224
100
AcDbEntity
  8
MODEL
 62
     0
370
    -2
100
AcDbBlockReference
  2
_DOT
 10
596.4389341413166
 20
304.2571218851058
 30
0.0
 41
9.999389648437498
 42
9.999389648437498
 43
9.999389648437498
 50
180.0
  0
INSERT
  5
322A
330
3224
100
AcDbEntity
  8
MODEL
 62
     0
370
    -2
100
AcDbBlockReference
  2
_DOT
 10
848.4389341413166
 20
304.2571218851058
 30
0.0
 41
9.999389648437498
 42
9.999389648437498
 43
9.999389648437498
  0
MTEXT
  5
322B
330
3224
100
AcDbEntity
  8
MODEL
 62
     0
100
AcDbMText
 10
722.4389341413166
 20
326.4780133131413
 30
0.0
 40
24.4326171875
 41
0.0
 46
0.0
 71
     5
 72
     1
  1
\A1;252
  7
ＭＳ ゴシック
 73
     1
 44
1.0
  0
POINT
  5
322C
330
3224
100
AcDbEntity
  8
Defpoints
 62
     0
100
AcDbPoint
 10
596.4389341413166
 20
194.9298806783964
 30
0.0
  0
POINT
  5
322D
330
3224
100
AcDbEntity
  8
Defpoints
 62
     0
100
AcDbPoint
 10
848.4389341413166
 20
194.9298806783963
 30
0.0
  0
POINT
  5
322E
330
3224
100
AcDbEntity
  8
Defpoints
 62
     0
100
AcDbPoint
 10
848.4389341413166
 20
304.2571218851058
 30
0.0
  0
ENDBLK
  5
322F
330
3224
100
AcDbEntity
  8
0
100
AcDbBlockEnd
  0
BLOCK
  5
3234
330
3233
100
AcDbEntity
  8
0
100
AcDbBlockBegin
  2
*D21
 70
     1
 10
0.0
 20
0.0
 30
0.0
  3
*D21
  1

  0
LINE
  5
3235
330
3233
100
AcDbEntity
  8
MODEL
 62
     0
370
    -2
100
AcDbLine
 10
873.4389341413166
 20
80.92988067839633
 30
0.0
 11
913.9885058499835
 21
80.92988067839633
 31
0.0
  0
LINE
  5
3236
330
3233
100
AcDbEntity
  8
MODEL
 62
     0
370
    -2
100
AcDbLine
 10
873.4389341413166
 20
70.92988067839883
 30
0.0
 11
913.9885058499835
 21
70.92988067839883
 31
0.0
  0
LINE
  5
3237
330
3233
100
AcDbEntity
  8
MODEL
 62
     0
370
    -2
100
AcDbLine
 10
913.9885058499835
 20
80.92988067839633
 30
0.0
 11
913.9885058499835
 21
148.3466117969263
 31
0.0
  0
LINE
  5
3238
330
3233
100
AcDbEntity
  8
MODEL
 62
     0
370
    -2
100
AcDbLine
 10
913.9885058499835
 20
70.93049102995883
 30
0.0
 11
913.9885058499835
 21
60.93110138152133
 31
0.0
  0
INSERT
  5
3239
330
3233
100
AcDbEntity
  8
MODEL
 62
     0
370
    -2
100
AcDbBlockReference
  2
_DOT
 10
913.9885058499835
 20
80.92988067839633
 30
0.0
 41
9.999389648437498
 42
9.999389648437498
 43
9.999389648437498
 50
90.0
  0
INSERT
  5
323A
330
3233
100
AcDbEntity
  8
MODEL
 62
     0
370
    -2
100
AcDbBlockReference
  2
_DOT
 10
913.9885058499835
 20
70.92988067839883
 30
0.0
 41
9.999389648437498
 42
9.999389648437498
 43
9.999389648437498
 50
270.0
  0
MTEXT
  5
323B
330
3233
100
AcDbEntity
  8
MODEL
 62
     0
100
AcDbMText
 10
891.767614421948
 20
124.6376358860989
 30
0.0
 40
24.4326171875
 41
0.0
 46
0.0
 71
     5
 72
     1
  1
\A1;10
  7
ＭＳ ゴシック
 11
0.0
 21
1.0
 31
0.0
 73
     1
 44
1.0
  0
POINT
  5
323C
330
3233
100
AcDbEntity
  8
Defpoints
 62
     0
100
AcDbPoint
 10
848.4389341413166
 20
80.92988067839633
 30
0.0
  0
POINT
  5
323D
330
3233
100
AcDbEntity
  8
Defpoints
 62
     0
100
AcDbPoint
 10
848.4389341413166
 20
70.92988067839883
 30
0.0
  0
POINT
  5
323E
330
3233
100
AcDbEntity
  8
Defpoints
 62
     0
100
AcDbPoint
 10
913.9885058499835
 20
70.92988067839883
 30
0.0
  0
ENDBLK
  5
323F
330
3233
100
AcDbEntity
  8
0
100
AcDbBlockEnd
  0
BLOCK
  5
324C
330
324B
100
AcDbEntity
  8
0
100
AcDbBlockBegin
  2
*D22
 70
     1
 10
0.0
 20
0.0
 30
0.0
  3
*D22
  1

  0
LINE
  5
324D
330
324B
100
AcDbEntity
  8
MODEL
 62
     0
370
    -2
100
AcDbLine
 10
873.4389341413162
 20
451.5960059905728
 30
0.0
 11
923.0961142228703
 21
451.5960059905728
 31
0.0
  0
LINE
  5
324E
330
324B
100
AcDbEntity
  8
MODEL
 62
     0
370
    -2
100
AcDbLine
 10
873.4389341413162
 20
651.5960059905728
 30
0.0
 11
923.0961142228703
 21
651.5960059905728
 31
0.0
  0
LINE
  5
324F
330
324B
100
AcDbEntity
  8
MODEL
 62
     0
370
    -2
100
AcDbLine
 10
923.0961142228703
 20
461.5953956390103
 30
0.0
 11
923.0961142228703
 21
641.5966163421353
 31
0.0
  0
INSERT
  5
3250
330
324B
100
AcDbEntity
  8
MODEL
 62
     0
370
    -2
100
AcDbBlockReference
  2
_DOT
 10
923.0961142228703
 20
451.5960059905728
 30
0.0
 41
9.999389648437498
 42
9.999389648437498
 43
9.999389648437498
 50
270.0
  0
INSERT
  5
3251
330
324B
100
AcDbEntity
  8
MODEL
 62
     0
370
    -2
100
AcDbBlockReference
  2
_DOT
 10
923.0961142228703
 20
651.5960059905728
 30
0.0
 41
9.999389648437498
 42
9.999389648437498
 43
9.999389648437498
 50
90.0
  0
MTEXT
  5
3252
330
324B
100
AcDbEntity
  8
MODEL
 62
     0
100
AcDbMText
 10
900.8752227948347
 20
551.5960059905728
 30
0.0
 40
24.4326171875
 41
0.0
 46
0.0
 71
     5
 72
     1
  1
\A1;200
  7
ＭＳ ゴシック
 11
0.0
 21
1.0
 31
0.0
 73
     1
 44
1.0
  0
POINT
  5
3253
330
324B
100
AcDbEntity
  8
Defpoints
 62
     0
100
AcDbPoint
 10
848.4389341413162
 20
451.5960059905728
 30
0.0
  0
POINT
  5
3254
330
324B
100
AcDbEntity
  8
Defpoints
 62
     0
100
AcDbPoint
 10
848.4389341413162
 20
651.5960059905728
 30
0.0
  0
POINT
  5
3255
330
324B
100
AcDbEntity
  8
Defpoints
 62
     0
100
AcDbPoint
 10
923.0961142228703
 20
651.5960059905728
 30
0.0
  0
ENDBLK
  5
3256
330
324B
100
AcDbEntity
  8
0
100
AcDbBlockEnd
  0
BLOCK
  5
325B
330
325A
100
AcDbEntity
  8
0
100
AcDbBlockBegin
  2
*D23
 70
     1
 10
0.0
 20
0.0
 30
0.0
  3
*D23
  1

  0
LINE
  5
325C
330
325A
100
AcDbEntity
  8
MODEL
 62
     0
370
    -2
100
AcDbLine
 10
873.4389341413162
 20
651.5960059905728
 30
0.0
 11
923.0961142228703
 21
651.5960059905728
 31
0.0
  0
LINE
  5
325D
330
325A
100
AcDbEntity
  8
MODEL
 62
     0
370
    -2
100
AcDbLine
 10
873.4389341413162
 20
661.5960059905728
 30
0.0
 11
923.0961142228703
 21
661.5960059905728
 31
0.0
  0
LINE
  5
325E
330
325A
100
AcDbEntity
  8
MODEL
 62
     0
370
    -2
100
AcDbLine
 10
923.0961142228703
 20
661.5960059905728
 30
0.0
 11
923.0961142228703
 21
731.5125845212121
 31
0.0
  0
LINE
  5
325F
330
325A
100
AcDbEntity
  8
MODEL
 62
     0
370
    -2
100
AcDbLine
 10
923.0961142228703
 20
651.5960059905728
 30
0.0
 11
923.0961142228703
 21
661.5960059905728
 31
0.0
  0
LINE
  5
3260
330
325A
100
AcDbEntity
  8
MODEL
 62
     0
370
    -2
100
AcDbLine
 10
923.0961142228703
 20
641.5966163421353
 30
0.0
 11
923.0961142228703
 21
631.5972266936978
 31
0.0
  0
LINE
  5
3261
330
325A
100
AcDbEntity
  8
MODEL
 62
     0
370
    -2
100
AcDbLine
 10
923.0961142228703
 20
671.5953956390103
 30
0.0
 11
923.0961142228703
 21
681.5947852874478
 31
0.0
  0
INSERT
  5
3262
330
325A
100
AcDbEntity
  8
MODEL
 62
     0
370
    -2
100
AcDbBlockReference
  2
_DOT
 10
923.0961142228703
 20
651.5960059905728
 30
0.0
 41
9.999389648437498
 42
9.999389648437498
 43
9.999389648437498
 50
90.0
  0
INSERT
  5
3263
330
325A
100
AcDbEntity
  8
MODEL
 62
     0
370
    -2
100
AcDbBlockReference
  2
_DOT
 10
923.0961142228703
 20
661.5960059905728
 30
0.0
 41
9.999389648437498
 42
9.999389648437498
 43
9.999389648437498
 50
270.0
  0
MTEXT
  5
3264
330
325A
100
AcDbEntity
  8
MODEL
 62
     0
100
AcDbMText
 10
900.8752227948347
 20
707.8036086103848
 30
0.0
 40
24.4326171875
 41
0.0
 46
0.0
 71
     5
 72
     1
  1
\A1;10
  7
ＭＳ ゴシック
 11
0.0
 21
1.0
 31
0.0
 73
     1
 44
1.0
  0
POINT
  5
3265
330
325A
100
AcDbEntity
  8
Defpoints
 62
     0
100
AcDbPoint
 10
848.4389341413162
 20
651.5960059905728
 30
0.0
  0
POINT
  5
3266
330
325A
100
AcDbEntity
  8
Defpoints
 62
     0
100
AcDbPoint
 10
848.4389341413162
 20
661.5960059905728
 30
0.0
  0
POINT
  5
3267
330
325A
100
AcDbEntity
  8
Defpoints
 62
     0
100
AcDbPoint
 10
923.0961142228703
 20
661.5960059905728
 30
0.0
  0
ENDBLK
  5
3268
330
325A
100
AcDbEntity
  8
0
100
AcDbBlockEnd
  0
BLOCK
  5
3276
330
3275
100
AcDbEntity
  8
0
100
AcDbBlockBegin
  2
*D24
 70
     1
 10
0.0
 20
0.0
 30
0.0
  3
*D24
  1

  0
LINE
  5
3277
330
3275
100
AcDbEntity
  8
MODEL
 62
     0
370
    -2
100
AcDbLine
 10
404.4686312443032
 20
676.5960059905726
 30
0.0
 11
404.4686312443032
 21
718.692882178668
 31
0.0
  0
LINE
  5
3278
330
3275
100
AcDbEntity
  8
MODEL
 62
     0
370
    -2
100
AcDbLine
 10
394.4686312443037
 20
686.5960059905726
 30
0.0
 11
394.4686312443037
 21
718.692882178668
 31
0.0
  0
LINE
  5
3279
330
3275
100
AcDbEntity
  8
MODEL
 62
     0
370
    -2
100
AcDbLine
 10
394.4692415958657
 20
718.692882178668
 30
0.0
 11
404.4680208927412
 21
718.692882178668
 31
0.0
  0
INSERT
  5
327A
330
3275
100
AcDbEntity
  8
MODEL
 62
     0
370
    -2
100
AcDbBlockReference
  2
_DOT
 10
404.4686312443032
 20
718.692882178668
 30
0.0
 41
9.999389648437498
 42
9.999389648437498
 43
9.999389648437498
  0
INSERT
  5
327B
330
3275
100
AcDbEntity
  8
MODEL
 62
     0
370
    -2
100
AcDbBlockReference
  2
_DOT
 10
394.4686312443037
 20
718.692882178668
 30
0.0
 41
9.999389648437498
 42
9.999389648437498
 43
9.999389648437498
 50
180.0
  0
MTEXT
  5
327C
330
3275
100
AcDbEntity
  8
MODEL
 62
     0
100
AcDbMText
 10
399.4686312443034
 20
740.9137736067036
 30
0.0
 40
24.4326171875
 41
0.0
 46
0.0
 71
     5
 72
     1
  1
\A1;10
  7
ＭＳ ゴシック
 73
     1
 44
1.0
  0
POINT
  5
327D
330
3275
100
AcDbEntity
  8
Defpoints
 62
     0
100
AcDbPoint
 10
404.4686312443032
 20
651.5960059905726
 30
0.0
  0
POINT
  5
327E
330
3275
100
AcDbEntity
  8
Defpoints
 62
     0
100
AcDbPoint
 10
394.4686312443037
 20
661.5960059905726
 30
0.0
  0
POINT
  5
327F
330
3275
100
AcDbEntity
  8
Defpoints
 62
     0
100
AcDbPoint
 10
394.4686312443037
 20
718.692882178668
 30
0.0
  0
ENDBLK
  5
3280
330
3275
100
AcDbEntity
  8
0
100
AcDbBlockEnd
  0
BLOCK
  5
3287
330
3286
100
AcDbEntity
  8
0
100
AcDbBlockBegin
  2
*D25
 70
     1
 10
0.0
 20
0.0
 30
0.0
  3
*D25
  1

  0
LINE
  5
3288
330
3286
100
AcDbEntity
  8
MODEL
 62
     0
370
    -2
100
AcDbLine
 10
255.4686312443037
 20
676.4206752899072
 30
0.0
 11
255.4686312443037
 21
718.692882178668
 31
0.0
  0
LINE
  5
3289
330
3286
100
AcDbEntity
  8
MODEL
 62
     0
370
    -2
100
AcDbLine
 10
249.4686312443032
 20
676.4206752899072
 30
0.0
 11
249.4686312443032
 21
718.692882178668
 31
0.0
  0
LINE
  5
328A
330
3286
100
AcDbEntity
  8
MODEL
 62
     0
370
    -2
100
AcDbLine
 10
245.4692415958662
 20
718.692882178668
 30
0.0
 11
259.4680208927407
 21
718.692882178668
 31
0.0
  0
INSERT
  5
328B
330
3286
100
AcDbEntity
  8
MODEL
 62
     0
370
    -2
100
AcDbBlockReference
  2
_DOT
 10
255.4686312443037
 20
718.692882178668
 30
0.0
 41
9.999389648437498
 42
9.999389648437498
 43
9.999389648437498
  0
INSERT
  5
328C
330
3286
100
AcDbEntity
  8
MODEL
 62
     0
370
    -2
100
AcDbBlockReference
  2
_DOT
 10
249.4686312443032
 20
718.692882178668
 30
0.0
 41
9.999389648437498
 42
9.999389648437498
 43
9.999389648437498
 50
180.0
  0
MTEXT
  5
328D
330
3286
100
AcDbEntity
  8
MODEL
 62
     0
100
AcDbMText
 10
252.4686312443034
 20
740.909190772418
 30
0.0
 40
24.4326171875
 41
0.0
 46
0.0
 71
     5
 72
     1
  1
\A1;6
  7
ＭＳ ゴシック
 73
     1
 44
1.0
  0
POINT
  5
328E
330
3286
100
AcDbEntity
  8
Defpoints
 62
     0
100
AcDbPoint
 10
255.4686312443037
 20
651.4206752899072
 30
0.0
  0
POINT
  5
328F
330
3286
100
AcDbEntity
  8
Defpoints
 62
     0
100
AcDbPoint
 10
249.4686312443032
 20
651.4206752899072
 30
0.0
  0
POINT
  5
3290
330
3286
100
AcDbEntity
  8
Defpoints
 62
     0
100
AcDbPoint
 10
249.4686312443032
 20
718.692882178668
 30
0.0
  0
ENDBLK
  5
3291
330
3286
100
AcDbEntity
  8
0
100
AcDbBlockEnd
  0
BLOCK
  5
3296
330
3295
100
AcDbEntity
  8
0
100
AcDbBlockBegin
  2
*D26
 70
     1
 10
0.0
 20
0.0
 30
0.0
  3
*D26
  1

  0
LINE
  5
3297
330
3295
100
AcDbEntity
  8
MODEL
 62
     0
370
    -2
100
AcDbLine
 10
255.4686312443041
 20
426.4206752899076
 30
0.0
 11
255.4686312443041
 21
391.1728870272543
 31
0.0
  0
LINE
  5
3298
330
3295
100
AcDbEntity
  8
MODEL
 62
     0
370
    -2
100
AcDbLine
 10
100.4686312443037
 20
426.5960059905726
 30
0.0
 11
100.4686312443037
 21
391.1728870272543
 31
0.0
  0
LINE
  5
3299
330
3295
100
AcDbEntity
  8
MODEL
 62
     0
370
    -2
100
AcDbLine
 10
245.4692415958666
 20
391.1728870272543
 30
0.0
 11
110.4680208927412
 21
391.1728870272543
 31
0.0
  0
INSERT
  5
329A
330
3295
100
AcDbEntity
  8
MODEL
 62
     0
370
    -2
100
AcDbBlockReference
  2
_DOT
 10
255.4686312443041
 20
391.1728870272543
 30
0.0
 41
9.999389648437498
 42
9.999389648437498
 43
9.999389648437498
  0
INSERT
  5
329B
330
3295
100
AcDbEntity
  8
MODEL
 62
     0
370
    -2
100
AcDbBlockReference
  2
_DOT
 10
100.4686312443037
 20
391.1728870272543
 30
0.0
 41
9.999389648437498
 42
9.999389648437498
 43
9.999389648437498
 50
180.0
  0
MTEXT
  5
329C
330
3295
100
AcDbEntity
  8
MODEL
 62
     0
100
AcDbMText
 10
177.9686312443039
 20
413.3937784552898
 30
0.0
 40
24.4326171875
 41
0.0
 46
0.0
 71
     5
 72
     1
  1
\A1;155
  7
ＭＳ ゴシック
 73
     1
 44
1.0
  0
POINT
  5
329D
330
3295
100
AcDbEntity
  8
Defpoints
 62
     0
100
AcDbPoint
 10
255.4686312443041
 20
451.4206752899076
 30
0.0
  0
POINT
  5
329E
330
3295
100
AcDbEntity
  8
Defpoints
 62
     0
100
AcDbPoint
 10
100.4686312443037
 20
451.5960059905726
 30
0.0
  0
POINT
  5
329F
330
3295
100
AcDbEntity
  8
Defpoints
 62
     0
100
AcDbPoint
 10
100.4686312443037
 20
391.1728870272543
 30
0.0
  0
ENDBLK
  5
32A0
330
3295
100
AcDbEntity
  8
0
100
AcDbBlockEnd
  0
BLOCK
  5
337B
330
337A
100
AcDbEntity
  8
0
100
AcDbBlockBegin
  2
*D27
 70
     1
 10
0.0
 20
0.0
 30
0.0
  3
*D27
  1
*D10
  0
LINE
  5
337C
330
337A
100
AcDbEntity
  8
DIM
 62
     0
370
    -2
100
AcDbLine
 10
478.7027820698986
 20
557.2797391469912
 30
0.0
 11
478.7027820698986
 21
543.7325970844594
 31
0.0
  0
LINE
  5
337D
330
337A
100
AcDbEntity
  8
DIM
 62
     0
370
    -2
100
AcDbLine
 10
542.202783165134
 20
557.2797391469912
 30
0.0
 11
542.202783165134
 21
543.7325970844594
 31
0.0
  0
LINE
  5
337E
330
337A
100
AcDbEntity
  8
DIM
 62
     0
370
    -2
100
AcDbLine
 10
481.7027820698986
 20
543.7325970844594
 30
0.0
 11
539.202783165134
 21
543.7325970844594
 31
0.0
  0
INSERT
  5
337F
330
337A
100
AcDbEntity
  8
DIM
 62
     0
370
    -2
100
AcDbBlockReference
  2
_DOT
 10
478.7027820698986
 20
543.7325970844594
 30
0.0
 41
3.0
 42
3.0
 43
3.0
 50
180.0
  0
INSERT
  5
3380
330
337A
100
AcDbEntity
  8
DIM
 62
     0
370
    -2
100
AcDbBlockReference
  2
_DOT
 10
542.202783165134
 20
543.7325970844594
 30
0.0
 41
3.0
 42
3.0
 43
3.0
  0
MTEXT
  5
3381
330
337A
100
AcDbEntity
  8
DIM
 62
     0
100
AcDbMText
 10
510.4527826175163
 20
559.7325970844594
 30
0.0
 40
12.0
 41
0.0
 46
0.0
 71
     5
 72
     1
  1
\A1;64
  7
ＭＳ ゴシック
 73
     1
 44
1.0
  0
POINT
  5
3382
330
337A
100
AcDbEntity
  8
Defpoints
 62
     0
100
AcDbPoint
 10
478.7027820698986
 20
567.2797391469912
 30
0.0
  0
POINT
  5
3383
330
337A
100
AcDbEntity
  8
Defpoints
 62
     0
100
AcDbPoint
 10
542.202783165134
 20
567.2797391469912
 30
0.0
  0
POINT
  5
3384
330
337A
100
AcDbEntity
  8
Defpoints
 62
     0
100
AcDbPoint
 10
542.202783165134
 20
543.7325970844594
 30
0.0
  0
ENDBLK
  5
3385
330
337A
100
AcDbEntity
  8
0
100
AcDbBlockEnd
  0
BLOCK
  5
338A
330
3389
100
AcDbEntity
  8
0
100
AcDbBlockBegin
  2
*D28
 70
     1
 10
0.0
 20
0.0
 30
0.0
  3
*D28
  1
*D11
  0
LINE
  5
338B
330
3389
100
AcDbEntity
  8
DIM
 62
     0
370
    -2
100
AcDbLine
 10
352.0422941896623
 20
559.2797393332556
 30
0.0
 11
352.0422941896623
 21
543.7325970844593
 31
0.0
  0
LINE
  5
338C
330
3389
100
AcDbEntity
  8
DIM
 62
     0
370
    -2
100
AcDbLine
 10
57.04229418966236
 20
559.2797393332556
 30
0.0
 11
57.04229418966236
 21
543.7325970844593
 31
0.0
  0
LINE
  5
338D
330
3389
100
AcDbEntity
  8
DIM
 62
     0
370
    -2
100
AcDbLine
 10
349.0422941896623
 20
543.7325970844593
 30
0.0
 11
60.04229418966236
 21
543.7325970844593
 31
0.0
  0
INSERT
  5
338E
330
3389
100
AcDbEntity
  8
DIM
 62
     0
370
    -2
100
AcDbBlockReference
  2
_DOT
 10
352.0422941896623
 20
543.7325970844593
 30
0.0
 41
3.0
 42
3.0
 43
3.0
  0
INSERT
  5
338F
330
3389
100
AcDbEntity
  8
DIM
 62
     0
370
    -2
100
AcDbBlockReference
  2
_DOT
 10
57.04229418966236
 20
543.7325970844593
 30
0.0
 41
3.0
 42
3.0
 43
3.0
 50
180.0
  0
MTEXT
  5
3390
330
3389
100
AcDbEntity
  8
DIM
 62
     0
100
AcDbMText
 10
204.5422941896623
 20
559.7348479285258
 30
0.0
 40
12.0
 41
0.0
 46
0.0
 71
     5
 72
     1
  1
\A1;295
  7
ＭＳ ゴシック
 73
     1
 44
1.0
  0
POINT
  5
3391
330
3389
100
AcDbEntity
  8
Defpoints
 62
     0
100
AcDbPoint
 10
352.0422941896623
 20
569.2797393332556
 30
0.0
  0
POINT
  5
3392
330
3389
100
AcDbEntity
  8
Defpoints
 62
     0
100
AcDbPoint
 10
57.04229418966236
 20
569.2797393332556
 30
0.0
  0
POINT
  5
3393
330
3389
100
AcDbEntity
  8
Defpoints
 62
     0
100
AcDbPoint
 10
57.04229418966236
 20
543.7325970844593
 30
0.0
  0
ENDBLK
  5
3394
330
3389
100
AcDbEntity
  8
0
100
AcDbBlockEnd
  0
BLOCK
  5
3399
330
3398
100
AcDbEntity
  8
0
100
AcDbBlockBegin
  2
*D29
 70
     1
 10
0.0
 20
0.0
 30
0.0
  3
*D29
  1
*D12
  0
LINE
  5
339A
330
3398
100
AcDbEntity
  8
DIM
 62
     0
370
    -2
100
AcDbLine
 10
468.7027820698986
 20
592.2797395195205
 30
0.0
 11
411.1179012829069
 21
592.2797395195205
 31
0.0
  0
LINE
  5
339B
330
3398
100
AcDbEntity
  8
DIM
 62
     0
370
    -2
100
AcDbLine
 10
468.7027820698986
 20
567.2797391469912
 30
0.0
 11
411.1179012829069
 21
567.2797391469912
 31
0.0
  0
LINE
  5
339C
330
3398
100
AcDbEntity
  8
DIM
 62
     0
370
    -2
100
AcDbLine
 10
411.1179012829069
 20
589.2797395195205
 30
0.0
 11
411.1179012829069
 21
570.2797391469912
 31
0.0
  0
INSERT
  5
339D
330
3398
100
AcDbEntity
  8
DIM
 62
     0
370
    -2
100
AcDbBlockReference
  2
_DOT
 10
411.1179012829069
 20
592.2797395195205
 30
0.0
 41
3.0
 42
3.0
 43
3.0
 50
90.0
  0
INSERT
  5
339E
330
3398
100
AcDbEntity
  8
DIM
 62
     0
370
    -2
100
AcDbBlockReference
  2
_DOT
 10
411.1179012829069
 20
567.2797391469912
 30
0.0
 41
3.0
 42
3.0
 43
3.0
 50
270.0
  0
MTEXT
  5
339F
330
3398
100
AcDbEntity
  8
DIM
 62
     0
100
AcDbMText
 10
395.1156504388403
 20
579.7797393332556
 30
0.0
 40
12.0
 41
0.0
 46
0.0
 71
     5
 72
     1
  1
\A1;25
  7
ＭＳ ゴシック
 11
0.0
 21
1.0
 31
0.0
 73
     1
 44
1.0
  0
POINT
  5
33A0
330
3398
100
AcDbEntity
  8
Defpoints
 62
     0
100
AcDbPoint
 10
478.7027820698986
 20
592.2797395195205
 30
0.0
  0
POINT
  5
33A1
330
3398
100
AcDbEntity
  8
Defpoints
 62
     0
100
AcDbPoint
 10
478.7027820698986
 20
567.2797391469912
 30
0.0
  0
POINT
  5
33A2
330
3398
100
AcDbEntity
  8
Defpoints
 62
     0
100
AcDbPoint
 10
411.1179012829069
 20
567.2797391469912
 30
0.0
  0
ENDBLK
  5
33A3
330
3398
100
AcDbEntity
  8
0
100
AcDbBlockEnd
  0
BLOCK
  5
33A8
330
33A7
100
AcDbEntity
  8
0
100
AcDbBlockBegin
  2
*D30
 70
     1
 10
0.0
 20
0.0
 30
0.0
  3
*D30
  1
*D13
  0
LINE
  5
33A9
330
33A7
100
AcDbEntity
  8
DIM
 62
     0
370
    -2
100
AcDbLine
 10
329.5422941896623
 20
374.7769023987335
 30
0.0
 11
329.5422941896623
 21
423.6490358977292
 31
0.0
  0
LINE
  5
33AA
330
33A7
100
AcDbEntity
  8
DIM
 62
     0
370
    -2
100
AcDbLine
 10
79.54229418966239
 20
374.7769023987335
 30
0.0
 11
79.54229418966239
 21
423.6490358977292
 31
0.0
  0
LINE
  5
33AB
330
33A7
100
AcDbEntity
  8
DIM
 62
     0
370
    -2
100
AcDbLine
 10
326.5422941896623
 20
423.6490358977292
 30
0.0
 11
82.54229418966239
 21
423.6490358977292
 31
0.0
  0
INSERT
  5
33AC
330
33A7
100
AcDbEntity
  8
DIM
 62
     0
370
    -2
100
AcDbBlockReference
  2
_DOT
 10
329.5422941896623
 20
423.6490358977292
 30
0.0
 41
3.0
 42
3.0
 43
3.0
  0
INSERT
  5
33AD
330
33A7
100
AcDbEntity
  8
DIM
 62
     0
370
    -2
100
AcDbBlockReference
  2
_DOT
 10
79.54229418966239
 20
423.6490358977292
 30
0.0
 41
3.0
 42
3.0
 43
3.0
 50
180.0
  0
MTEXT
  5
33AE
330
33A7
100
AcDbEntity
  8
DIM
 62
     0
100
AcDbMText
 10
204.5422941896623
 20
439.6512867417957
 30
0.0
 40
12.0
 41
0.0
 46
0.0
 71
     5
 72
     1
  1
\A1;250
  7
ＭＳ ゴシック
 73
     1
 44
1.0
  0
POINT
  5
33AF
330
33A7
100
AcDbEntity
  8
Defpoints
 62
     0
100
AcDbPoint
 10
329.5422941896623
 20
364.7769023987335
 30
0.0
  0
POINT
  5
33B0
330
33A7
100
AcDbEntity
  8
Defpoints
 62
     0
100
AcDbPoint
 10
79.54229418966239
 20
364.7769023987335
 30
0.0
  0
POINT
  5
33B1
330
33A7
100
AcDbEntity
  8
Defpoints
 62
     0
100
AcDbPoint
 10
79.54229418966239
 20
423.6490358977292
 30
0.0
  0
ENDBLK
  5
33B2
330
33A7
100
AcDbEntity
  8
0
100
AcDbBlockEnd
  0
BLOCK
  5
33B9
330
33B8
100
AcDbEntity
  8
0
100
AcDbBlockBegin
  2
*D31
 70
     1
 10
0.0
 20
0.0
 30
0.0
  3
*D31
  1

  0
LINE
  5
33BA
330
33B8
100
AcDbEntity
  8
DIM
 62
     0
370
    -2
100
AcDbLine
 10
46.88797933207438
 20
360.7769034418146
 30
0.0
 11
36.80301136233147
 21
360.7769034418146
 31
0.0
  0
LINE
  5
33BB
330
33B8
100
AcDbEntity
  8
DIM
 62
     0
370
    -2
100
AcDbLine
 10
52.70838898090351
 20
407.7769034418146
 30
0.0
 11
36.80301136233147
 21
407.7769034418146
 31
0.0
  0
LINE
  5
33BC
330
33B8
100
AcDbEntity
  8
DIM
 62
     0
370
    -2
100
AcDbLine
 10
36.80301136233147
 20
363.7769034418146
 30
0.0
 11
36.80301136233147
 21
404.7769034418146
 31
0.0
  0
INSERT
  5
33BD
330
33B8
100
AcDbEntity
  8
DIM
 62
     0
370
    -2
100
AcDbBlockReference
  2
_DOT
 10
36.80301136233147
 20
360.7769034418146
 30
0.0
 41
3.0
 42
3.0
 43
3.0
 50
270.0
  0
INSERT
  5
33BE
330
33B8
100
AcDbEntity
  8
DIM
 62
     0
370
    -2
100
AcDbBlockReference
  2
_DOT
 10
36.80301136233147
 20
407.7769034418146
 30
0.0
 41
3.0
 42
3.0
 43
3.0
 50
90.0
  0
MTEXT
  5
33BF
330
33B8
100
AcDbEntity
  8
DIM
 62
     0
100
AcDbMText
 10
20.80076051826497
 20
384.2769034418146
 30
0.0
 40
12.0
 41
0.0
 46
0.0
 71
     5
 72
     1
  1
\A1;47
  7
ＭＳ ゴシック
 11
0.0
 21
1.0
 31
0.0
 73
     1
 44
1.0
  0
POINT
  5
33C0
330
33B8
100
AcDbEntity
  8
Defpoints
 62
     0
100
AcDbPoint
 10
56.88797933207438
 20
360.7769034418146
 30
0.0
  0
POINT
  5
33C1
330
33B8
100
AcDbEntity
  8
Defpoints
 62
     0
100
AcDbPoint
 10
62.70838898090351
 20
407.7769034418146
 30
0.0
  0
POINT
  5
33C2
330
33B8
100
AcDbEntity
  8
Defpoints
 62
     0
100
AcDbPoint
 10
36.80301136233147
 20
407.7769034418146
 30
0.0
  0
ENDBLK
  5
33C3
330
33B8
100
AcDbEntity
  8
0
100
AcDbBlockEnd
  0
BLOCK
  5
33C6
330
33C5
100
AcDbEntity
  8
0
100
AcDbBlockBegin
  2
*D32
 70
     1
 10
0.0
 20
0.0
 30
0.0
  3
*D32
  1

  0
LINE
  5
33C7
330
33C5
100
AcDbEntity
  8
DIM
 62
     0
370
    -2
100
AcDbLine
 10
57.04230074617327
 20
374.3617515882332
 30
0.0
 11
57.04230074617327
 21
431.9799075852275
 31
0.0
  0
LINE
  5
33C8
330
33C5
100
AcDbEntity
  8
DIM
 62
     0
370
    -2
100
AcDbLine
 10
69.04230074617328
 20
422.1788163409922
 30
0.0
 11
69.04230074617328
 21
431.9799075852275
 31
0.0
  0
LINE
  5
33C9
330
33C5
100
AcDbEntity
  8
DIM
 62
     0
370
    -2
100
AcDbLine
 10
60.04230074617327
 20
431.9799075852275
 30
0.0
 11
66.04230074617328
 21
431.9799075852275
 31
0.0
  0
INSERT
  5
33CA
330
33C5
100
AcDbEntity
  8
DIM
 62
     0
370
    -2
100
AcDbBlockReference
  2
_DOT
 10
57.04230074617327
 20
431.9799075852275
 30
0.0
 41
3.0
 42
3.0
 43
3.0
 50
180.0
  0
INSERT
  5
33CB
330
33C5
100
AcDbEntity
  8
DIM
 62
     0
370
    -2
100
AcDbBlockReference
  2
_DOT
 10
69.04230074617328
 20
431.9799075852275
 30
0.0
 41
3.0
 42
3.0
 43
3.0
  0
MTEXT
  5
33CC
330
33C5
100
AcDbEntity
  8
DIM
 62
     0
100
AcDbMText
 10
63.04230074617328
 20
447.982158429294
 30
0.0
 40
12.0
 41
0.0
 46
0.0
 71
     5
 72
     1
  1
\A1;12
  7
ＭＳ ゴシック
 73
     1
 44
1.0
  0
POINT
  5
33CD
330
33C5
100
AcDbEntity
  8
Defpoints
 62
     0
100
AcDbPoint
 10
57.04230074617327
 20
364.3617515882332
 30
0.0
  0
POINT
  5
33CE
330
33C5
100
AcDbEntity
  8
Defpoints
 62
     0
100
AcDbPoint
 10
69.04230074617328
 20
412.1788163409922
 30
0.0
  0
POINT
  5
33CF
330
33C5
100
AcDbEntity
  8
Defpoints
 62
     0
100
AcDbPoint
 10
69.04230074617328
 20
431.9799075852275
 30
0.0
  0
ENDBLK
  5
33D0
330
33C5
100
AcDbEntity
  8
0
100
AcDbBlockEnd
  0
BLOCK
  5
33D5
330
33D4
100
AcDbEntity
  8
0
100
AcDbBlockBegin
  2
*D33
 70
     1
 10
0.0
 20
0.0
 30
0.0
  3
*D33
  1

  0
LINE
  5
33D6
330
33D4
100
AcDbEntity
  8
DIM
 62
     0
370
    -2
100
AcDbLine
 10
69.04230074617328
 20
422.1788163409922
 30
0.0
 11
69.04230074617328
 21
431.9799075852275
 31
0.0
  0
LINE
  5
33D7
330
33D4
100
AcDbEntity
  8
DIM
 62
     0
370
    -2
100
AcDbLine
 10
90.04230074617328
 20
422.1788163409922
 30
0.0
 11
90.04230074617328
 21
431.9799075852275
 31
0.0
  0
LINE
  5
33D8
330
33D4
100
AcDbEntity
  8
DIM
 62
     0
370
    -2
100
AcDbLine
 10
66.04230074617328
 20
431.9799075852275
 30
0.0
 11
63.04230074617328
 21
431.9799075852275
 31
0.0
  0
LINE
  5
33D9
330
33D4
100
AcDbEntity
  8
DIM
 62
     0
370
    -2
100
AcDbLine
 10
93.04230074617328
 20
431.9799075852275
 30
0.0
 11
96.04230074617328
 21
431.9799075852275
 31
0.0
  0
INSERT
  5
33DA
330
33D4
100
AcDbEntity
  8
DIM
 62
     0
370
    -2
100
AcDbBlockReference
  2
_DOT
 10
69.04230074617328
 20
431.9799075852275
 30
0.0
 41
3.0
 42
3.0
 43
3.0
  0
INSERT
  5
33DB
330
33D4
100
AcDbEntity
  8
DIM
 62
     0
370
    -2
100
AcDbBlockReference
  2
_DOT
 10
90.04230074617328
 20
431.9799075852275
 30
0.0
 41
3.0
 42
3.0
 43
3.0
 50
180.0
  0
MTEXT
  5
33DC
330
33D4
100
AcDbEntity
  8
DIM
 62
     0
100
AcDbMText
 10
79.54230074617328
 20
447.982158429294
 30
0.0
 40
12.0
 41
0.0
 46
0.0
 71
     5
 72
     1
  1
\A1;21
  7
ＭＳ ゴシック
 73
     1
 44
1.0
  0
POINT
  5
33DD
330
33D4
100
AcDbEntity
  8
Defpoints
 62
     0
100
AcDbPoint
 10
69.04230074617328
 20
412.1788163409922
 30
0.0
  0
POINT
  5
33DE
330
33D4
100
AcDbEntity
  8
Defpoints
 62
     0
100
AcDbPoint
 10
90.04230074617328
 20
412.1788163409922
 30
0.0
  0
POINT
  5
352B
330
33D4
100
AcDbEntity
  8
Defpoints
 62
     0
100
AcDbPoint
 10
90.04230074617328
 20
431.9799075852275
 30
0.0
  0
ENDBLK
  5
33DF
330
33D4
100
AcDbEntity
  8
0
100
AcDbBlockEnd
  0
BLOCK
  5
33E2
330
33E1
100
AcDbEntity
  8
0
100
AcDbBlockBegin
  2
*D34
 70
     1
 10
0.0
 20
0.0
 30
0.0
  3
*D34
  1

  0
LINE
  5
33E3
330
33E1
100
AcDbEntity
  8
DIM
 62
     0
370
    -2
100
AcDbLine
 10
468.7027820698986
 20
592.2797395195205
 30
0.0
 11
427.579780330526
 21
592.2797395195205
 31
0.0
  0
LINE
  5
33E4
330
33E1
100
AcDbEntity
  8
DIM
 62
     0
370
    -2
100
AcDbLine
 10
468.7027820698986
 20
579.7797395195205
 30
0.0
 11
427.579780330526
 21
579.7797395195205
 31
0.0
  0
LINE
  5
33E5
330
33E1
100
AcDbEntity
  8
DIM
 62
     0
370
    -2
100
AcDbLine
 10
427.579780330526
 20
592.2797395195205
 30
0.0
 11
427.579780330526
 21
647.0425255642874
 31
0.0
  0
LINE
  5
33E6
330
33E1
100
AcDbEntity
  8
DIM
 62
     0
370
    -2
100
AcDbLine
 10
427.579780330526
 20
589.2797395195205
 30
0.0
 11
427.579780330526
 21
582.7797395195205
 31
0.0
  0
LINE
  5
33E7
330
33E1
100
AcDbEntity
  8
DIM
 62
     0
370
    -2
100
AcDbLine
 10
427.579780330526
 20
589.2797395195205
 30
0.0
 11
427.579780330526
 21
586.2797395195205
 31
0.0
  0
INSERT
  5
33E8
330
33E1
100
AcDbEntity
  8
DIM
 62
     0
370
    -2
100
AcDbBlockReference
  2
_DOT
 10
427.579780330526
 20
592.2797395195205
 30
0.0
 41
3.0
 42
3.0
 43
3.0
 50
90.0
  0
INSERT
  5
33E9
330
33E1
100
AcDbEntity
  8
DIM
 62
     0
370
    -2
100
AcDbBlockReference
  2
_DOT
 10
427.579780330526
 20
579.7797395195205
 30
0.0
 41
3.0
 42
3.0
 43
3.0
 50
270.0
  0
MTEXT
  5
33EA
330
33E1
100
AcDbEntity
  8
DIM
 62
     0
100
AcDbMText
 10
411.5775294864594
 20
622.661132541904
 30
0.0
 40
12.0
 41
0.0
 46
0.0
 71
     5
 72
     1
  1
\A1;12.5
  7
ＭＳ ゴシック
 11
0.0
 21
1.0
 31
0.0
 73
     1
 44
1.0
  0
POINT
  5
33EB
330
33E1
100
AcDbEntity
  8
Defpoints
 62
     0
100
AcDbPoint
 10
478.7027820698986
 20
592.2797395195205
 30
0.0
  0
POINT
  5
33EC
330
33E1
100
AcDbEntity
  8
Defpoints
 62
     0
100
AcDbPoint
 10
478.7027820698986
 20
579.7797395195205
 30
0.0
  0
POINT
  5
33ED
330
33E1
100
AcDbEntity
  8
Defpoints
 62
     0
100
AcDbPoint
 10
427.579780330526
 20
579.7797395195205
 30
0.0
  0
ENDBLK
  5
33EE
330
33E1
100
AcDbEntity
  8
0
100
AcDbBlockEnd
  0
BLOCK
  5
36D9
330
36D8
100
AcDbEntity
  8
0
100
AcDbBlockBegin
  2
*D35
 70
     1
 10
0.0
 20
0.0
 30
0.0
  3
*D35
  1

  0
LINE
  5
36DB
330
36D8
100
AcDbEntity
  8
DIM
 62
     0
370
    -2
100
AcDbLine
 10
1664.88135349847
 20
691.4504752985948
 30
0.0
 11
1664.88135349847
 21
677.903333236063
 31
0.0
  0
LINE
  5
36DC
330
36D8
100
AcDbEntity
  8
DIM
 62
     0
370
    -2
100
AcDbLine
 10
1728.381354593706
 20
691.4504752985948
 30
0.0
 11
1728.381354593706
 21
677.903333236063
 31
0.0
  0
LINE
  5
36DD
330
36D8
100
AcDbEntity
  8
DIM
 62
     0
370
    -2
100
AcDbLine
 10
1667.88135349847
 20
677.903333236063
 30
0.0
 11
1725.381354593706
 21
677.903333236063
 31
0.0
  0
INSERT
  5
36DE
330
36D8
100
AcDbEntity
  8
DIM
 62
     0
370
    -2
100
AcDbBlockReference
  2
_DOT
 10
1664.88135349847
 20
677.903333236063
 30
0.0
 41
3.0
 42
3.0
 43
3.0
 50
180.0
  0
INSERT
  5
36DF
330
36D8
100
AcDbEntity
  8
DIM
 62
     0
370
    -2
100
AcDbBlockReference
  2
_DOT
 10
1728.381354593706
 20
677.903333236063
 30
0.0
 41
3.0
 42
3.0
 43
3.0
  0
MTEXT
  5
36E0
330
36D8
100
AcDbEntity
  8
DIM
 62
     0
100
AcDbMText
 10
1696.631354046088
 20
693.903333236063
 30
0.0
 40
12.0
 41
0.0
 46
0.0
 71
     5
 72
     1
  1
\A1;64
  7
ＭＳ ゴシック
 73
     1
 44
1.0
  0
POINT
  5
36E1
330
36D8
100
AcDbEntity
  8
Defpoints
 62
     0
100
AcDbPoint
 10
1664.88135349847
 20
701.4504752985948
 30
0.0
  0
POINT
  5
36E2
330
36D8
100
AcDbEntity
  8
Defpoints
 62
     0
100
AcDbPoint
 10
1728.381354593706
 20
701.4504752985948
 30
0.0
  0
POINT
  5
36E3
330
36D8
100
AcDbEntity
  8
Defpoints
 62
     0
100
AcDbPoint
 10
1728.381354593706
 20
677.903333236063
 30
0.0
  0
ENDBLK
  5
36DA
330
36D8
100
AcDbEntity
  8
0
100
AcDbBlockEnd
  0
BLOCK
  5
36E5
330
36E4
100
AcDbEntity
  8
0
100
AcDbBlockBegin
  2
*D36
 70
     1
 10
0.0
 20
0.0
 30
0.0
  3
*D36
  1

  0
LINE
  5
36E7
330
36E4
100
AcDbEntity
  8
DIM
 62
     0
370
    -2
100
AcDbLine
 10
1538.220865618234
 20
693.4504754848592
 30
0.0
 11
1538.220865618234
 21
677.9033332360628
 31
0.0
  0
LINE
  5
36E8
330
36E4
100
AcDbEntity
  8
DIM
 62
     0
370
    -2
100
AcDbLine
 10
1243.220865618234
 20
693.4504754848592
 30
0.0
 11
1243.220865618234
 21
677.9033332360628
 31
0.0
  0
LINE
  5
36E9
330
36E4
100
AcDbEntity
  8
DIM
 62
     0
370
    -2
100
AcDbLine
 10
1535.220865618234
 20
677.9033332360628
 30
0.0
 11
1246.220865618234
 21
677.9033332360628
 31
0.0
  0
INSERT
  5
36EA
330
36E4
100
AcDbEntity
  8
DIM
 62
     0
370
    -2
100
AcDbBlockReference
  2
_DOT
 10
1538.220865618234
 20
677.9033332360628
 30
0.0
 41
3.0
 42
3.0
 43
3.0
  0
INSERT
  5
36EB
330
36E4
100
AcDbEntity
  8
DIM
 62
     0
370
    -2
100
AcDbBlockReference
  2
_DOT
 10
1243.220865618234
 20
677.9033332360628
 30
0.0
 41
3.0
 42
3.0
 43
3.0
 50
180.0
  0
MTEXT
  5
36EC
330
36E4
100
AcDbEntity
  8
DIM
 62
     0
100
AcDbMText
 10
1390.720865618234
 20
693.9055840801294
 30
0.0
 40
12.0
 41
0.0
 46
0.0
 71
     5
 72
     1
  1
\A1;295
  7
ＭＳ ゴシック
 73
     1
 44
1.0
  0
POINT
  5
36ED
330
36E4
100
AcDbEntity
  8
Defpoints
 62
     0
100
AcDbPoint
 10
1538.220865618234
 20
703.4504754848592
 30
0.0
  0
POINT
  5
36EE
330
36E4
100
AcDbEntity
  8
Defpoints
 62
     0
100
AcDbPoint
 10
1243.220865618234
 20
703.4504754848592
 30
0.0
  0
POINT
  5
36EF
330
36E4
100
AcDbEntity
  8
Defpoints
 62
     0
100
AcDbPoint
 10
1243.220865618234
 20
677.9033332360628
 30
0.0
  0
ENDBLK
  5
36E6
330
36E4
100
AcDbEntity
  8
0
100
AcDbBlockEnd
  0
BLOCK
  5
36F1
330
36F0
100
AcDbEntity
  8
0
100
AcDbBlockBegin
  2
*D37
 70
     1
 10
0.0
 20
0.0
 30
0.0
  3
*D37
  1

  0
LINE
  5
36F3
330
36F0
100
AcDbEntity
  8
DIM
 62
     0
370
    -2
100
AcDbLine
 10
1654.88135349847
 20
726.4504756711241
 30
0.0
 11
1597.296472711478
 21
726.4504756711241
 31
0.0
  0
LINE
  5
36F4
330
36F0
100
AcDbEntity
  8
DIM
 62
     0
370
    -2
100
AcDbLine
 10
1654.88135349847
 20
701.4504752985948
 30
0.0
 11
1597.296472711478
 21
701.4504752985948
 31
0.0
  0
LINE
  5
36F5
330
36F0
100
AcDbEntity
  8
DIM
 62
     0
370
    -2
100
AcDbLine
 10
1597.296472711478
 20
723.4504756711241
 30
0.0
 11
1597.296472711478
 21
704.4504752985948
 31
0.0
  0
INSERT
  5
36F6
330
36F0
100
AcDbEntity
  8
DIM
 62
     0
370
    -2
100
AcDbBlockReference
  2
_DOT
 10
1597.296472711478
 20
726.4504756711241
 30
0.0
 41
3.0
 42
3.0
 43
3.0
 50
90.0
  0
INSERT
  5
36F7
330
36F0
100
AcDbEntity
  8
DIM
 62
     0
370
    -2
100
AcDbBlockReference
  2
_DOT
 10
1597.296472711478
 20
701.4504752985948
 30
0.0
 41
3.0
 42
3.0
 43
3.0
 50
270.0
  0
MTEXT
  5
36F8
330
36F0
100
AcDbEntity
  8
DIM
 62
     0
100
AcDbMText
 10
1581.294221867412
 20
713.9504754848592
 30
0.0
 40
12.0
 41
0.0
 46
0.0
 71
     5
 72
     1
  1
\A1;25
  7
ＭＳ ゴシック
 11
0.0
 21
1.0
 31
0.0
 73
     1
 44
1.0
  0
POINT
  5
36F9
330
36F0
100
AcDbEntity
  8
Defpoints
 62
     0
100
AcDbPoint
 10
1664.88135349847
 20
726.4504756711241
 30
0.0
  0
POINT
  5
36FA
330
36F0
100
AcDbEntity
  8
Defpoints
 62
     0
100
AcDbPoint
 10
1664.88135349847
 20
701.4504752985948
 30
0.0
  0
POINT
  5
36FB
330
36F0
100
AcDbEntity
  8
Defpoints
 62
     0
100
AcDbPoint
 10
1597.296472711478
 20
701.4504752985948
 30
0.0
  0
ENDBLK
  5
36F2
330
36F0
100
AcDbEntity
  8
0
100
AcDbBlockEnd
  0
BLOCK
  5
36FD
330
36FC
100
AcDbEntity
  8
0
100
AcDbBlockBegin
  2
*D38
 70
     1
 10
0.0
 20
0.0
 30
0.0
  3
*D38
  1

  0
LINE
  5
36FF
330
36FC
100
AcDbEntity
  8
DIM
 62
     0
370
    -2
100
AcDbLine
 10
1515.720865618234
 20
508.947638550337
 30
0.0
 11
1515.720865618234
 21
557.8197720493329
 31
0.0
  0
LINE
  5
3700
330
36FC
100
AcDbEntity
  8
DIM
 62
     0
370
    -2
100
AcDbLine
 10
1265.720865618234
 20
508.947638550337
 30
0.0
 11
1265.720865618234
 21
557.8197720493329
 31
0.0
  0
LINE
  5
3701
330
36FC
100
AcDbEntity
  8
DIM
 62
     0
370
    -2
100
AcDbLine
 10
1512.720865618234
 20
557.8197720493329
 30
0.0
 11
1268.720865618234
 21
557.8197720493329
 31
0.0
  0
INSERT
  5
3702
330
36FC
100
AcDbEntity
  8
DIM
 62
     0
370
    -2
100
AcDbBlockReference
  2
_DOT
 10
1515.720865618234
 20
557.8197720493329
 30
0.0
 41
3.0
 42
3.0
 43
3.0
  0
INSERT
  5
3703
330
36FC
100
AcDbEntity
  8
DIM
 62
     0
370
    -2
100
AcDbBlockReference
  2
_DOT
 10
1265.720865618234
 20
557.8197720493329
 30
0.0
 41
3.0
 42
3.0
 43
3.0
 50
180.0
  0
MTEXT
  5
3704
330
36FC
100
AcDbEntity
  8
DIM
 62
     0
100
AcDbMText
 10
1390.720865618234
 20
573.8220228933994
 30
0.0
 40
12.0
 41
0.0
 46
0.0
 71
     5
 72
     1
  1
\A1;250
  7
ＭＳ ゴシック
 73
     1
 44
1.0
  0
POINT
  5
3705
330
36FC
100
AcDbEntity
  8
Defpoints
 62
     0
100
AcDbPoint
 10
1515.720865618234
 20
498.947638550337
 30
0.0
  0
POINT
  5
3706
330
36FC
100
AcDbEntity
  8
Defpoints
 62
     0
100
AcDbPoint
 10
1265.720865618234
 20
498.947638550337
 30
0.0
  0
POINT
  5
3707
330
36FC
100
AcDbEntity
  8
Defpoints
 62
     0
100
AcDbPoint
 10
1265.720865618234
 20
557.8197720493329
 30
0.0
  0
ENDBLK
  5
36FE
330
36FC
100
AcDbEntity
  8
0
100
AcDbBlockEnd
  0
BLOCK
  5
3709
330
3708
100
AcDbEntity
  8
0
100
AcDbBlockBegin
  2
*D39
 70
     1
 10
0.0
 20
0.0
 30
0.0
  3
*D39
  1

  0
LINE
  5
370B
330
3708
100
AcDbEntity
  8
DIM
 62
     0
370
    -2
100
AcDbLine
 10
1233.066550760646
 20
494.9476395934182
 30
0.0
 11
1222.981582790903
 21
494.9476395934182
 31
0.0
  0
LINE
  5
370C
330
3708
100
AcDbEntity
  8
DIM
 62
     0
370
    -2
100
AcDbLine
 10
1238.886960409475
 20
541.9476395934182
 30
0.0
 11
1222.981582790903
 21
541.9476395934182
 31
0.0
  0
LINE
  5
370D
330
3708
100
AcDbEntity
  8
DIM
 62
     0
370
    -2
100
AcDbLine
 10
1222.981582790903
 20
497.9476395934182
 30
0.0
 11
1222.981582790903
 21
538.9476395934182
 31
0.0
  0
INSERT
  5
370E
330
3708
100
AcDbEntity
  8
DIM
 62
     0
370
    -2
100
AcDbBlockReference
  2
_DOT
 10
1222.981582790903
 20
494.9476395934182
 30
0.0
 41
3.0
 42
3.0
 43
3.0
 50
270.0
  0
INSERT
  5
370F
330
3708
100
AcDbEntity
  8
DIM
 62
     0
370
    -2
100
AcDbBlockReference
  2
_DOT
 10
1222.981582790903
 20
541.9476395934182
 30
0.0
 41
3.0
 42
3.0
 43
3.0
 50
90.0
  0
MTEXT
  5
3710
330
3708
100
AcDbEntity
  8
DIM
 62
     0
100
AcDbMText
 10
1206.979331946837
 20
518.4476395934182
 30
0.0
 40
12.0
 41
0.0
 46
0.0
 71
     5
 72
     1
  1
\A1;47
  7
ＭＳ ゴシック
 11
0.0
 21
1.0
 31
0.0
 73
     1
 44
1.0
  0
POINT
  5
3711
330
3708
100
AcDbEntity
  8
Defpoints
 62
     0
100
AcDbPoint
 10
1243.066550760646
 20
494.9476395934182
 30
0.0
  0
POINT
  5
3712
330
3708
100
AcDbEntity
  8
Defpoints
 62
     0
100
AcDbPoint
 10
1248.886960409475
 20
541.9476395934182
 30
0.0
  0
POINT
  5
3713
330
3708
100
AcDbEntity
  8
Defpoints
 62
     0
100
AcDbPoint
 10
1222.981582790903
 20
541.9476395934182
 30
0.0
  0
ENDBLK
  5
370A
330
3708
100
AcDbEntity
  8
0
100
AcDbBlockEnd
  0
BLOCK
  5
3715
330
3714
100
AcDbEntity
  8
0
100
AcDbBlockBegin
  2
*D40
 70
     1
 10
0.0
 20
0.0
 30
0.0
  3
*D40
  1

  0
LINE
  5
3717
330
3714
100
AcDbEntity
  8
DIM
 62
     0
370
    -2
100
AcDbLine
 10
1243.220872174745
 20
508.5324877398368
 30
0.0
 11
1243.220872174745
 21
566.1506437368311
 31
0.0
  0
LINE
  5
3718
330
3714
100
AcDbEntity
  8
DIM
 62
     0
370
    -2
100
AcDbLine
 10
1255.220872174745
 20
556.3495524925958
 30
0.0
 11
1255.220872174745
 21
566.1506437368311
 31
0.0
  0
LINE
  5
3719
330
3714
100
AcDbEntity
  8
DIM
 62
     0
370
    -2
100
AcDbLine
 10
1246.220872174745
 20
566.1506437368311
 30
0.0
 11
1252.220872174745
 21
566.1506437368311
 31
0.0
  0
INSERT
  5
371A
330
3714
100
AcDbEntity
  8
DIM
 62
     0
370
    -2
100
AcDbBlockReference
  2
_DOT
 10
1243.220872174745
 20
566.1506437368311
 30
0.0
 41
3.0
 42
3.0
 43
3.0
 50
180.0
  0
INSERT
  5
371B
330
3714
100
AcDbEntity
  8
DIM
 62
     0
370
    -2
100
AcDbBlockReference
  2
_DOT
 10
1255.220872174745
 20
566.1506437368311
 30
0.0
 41
3.0
 42
3.0
 43
3.0
  0
MTEXT
  5
371C
330
3714
100
AcDbEntity
  8
DIM
 62
     0
100
AcDbMText
 10
1249.220872174745
 20
582.1528945808976
 30
0.0
 40
12.0
 41
0.0
 46
0.0
 71
     5
 72
     1
  1
\A1;12
  7
ＭＳ ゴシック
 73
     1
 44
1.0
  0
POINT
  5
371D
330
3714
100
AcDbEntity
  8
Defpoints
 62
     0
100
AcDbPoint
 10
1243.220872174745
 20
498.5324877398368
 30
0.0
  0
POINT
  5
371E
330
3714
100
AcDbEntity
  8
Defpoints
 62
     0
100
AcDbPoint
 10
1255.220872174745
 20
546.3495524925958
 30
0.0
  0
POINT
  5
371F
330
3714
100
AcDbEntity
  8
Defpoints
 62
     0
100
AcDbPoint
 10
1255.220872174745
 20
566.1506437368311
 30
0.0
  0
ENDBLK
  5
3716
330
3714
100
AcDbEntity
  8
0
100
AcDbBlockEnd
  0
BLOCK
  5
3721
330
3720
100
AcDbEntity
  8
0
100
AcDbBlockBegin
  2
*D41
 70
     1
 10
0.0
 20
0.0
 30
0.0
  3
*D41
  1

  0
LINE
  5
3723
330
3720
100
AcDbEntity
  8
DIM
 62
     0
370
    -2
100
AcDbLine
 10
1255.220872174745
 20
556.3495524925958
 30
0.0
 11
1255.220872174745
 21
566.1506437368311
 31
0.0
  0
LINE
  5
3724
330
3720
100
AcDbEntity
  8
DIM
 62
     0
370
    -2
100
AcDbLine
 10
1276.220872174745
 20
556.3495524925958
 30
0.0
 11
1276.220872174745
 21
566.1506437368311
 31
0.0
  0
LINE
  5
3725
330
3720
100
AcDbEntity
  8
DIM
 62
     0
370
    -2
100
AcDbLine
 10
1252.220872174745
 20
566.1506437368311
 30
0.0
 11
1249.220872174745
 21
566.1506437368311
 31
0.0
  0
LINE
  5
3726
330
3720
100
AcDbEntity
  8
DIM
 62
     0
370
    -2
100
AcDbLine
 10
1279.220872174745
 20
566.1506437368311
 30
0.0
 11
1282.220872174745
 21
566.1506437368311
 31
0.0
  0
INSERT
  5
3727
330
3720
100
AcDbEntity
  8
DIM
 62
     0
370
    -2
100
AcDbBlockReference
  2
_DOT
 10
1255.220872174745
 20
566.1506437368311
 30
0.0
 41
3.0
 42
3.0
 43
3.0
  0
INSERT
  5
3728
330
3720
100
AcDbEntity
  8
DIM
 62
     0
370
    -2
100
AcDbBlockReference
  2
_DOT
 10
1276.220872174745
 20
566.1506437368311
 30
0.0
 41
3.0
 42
3.0
 43
3.0
 50
180.0
  0
MTEXT
  5
3729
330
3720
100
AcDbEntity
  8
DIM
 62
     0
100
AcDbMText
 10
1265.720872174745
 20
582.1528945808976
 30
0.0
 40
12.0
 41
0.0
 46
0.0
 71
     5
 72
     1
  1
\A1;21
  7
ＭＳ ゴシック
 73
     1
 44
1.0
  0
POINT
  5
372A
330
3720
100
AcDbEntity
  8
Defpoints
 62
     0
100
AcDbPoint
 10
1255.220872174745
 20
546.3495524925958
 30
0.0
  0
POINT
  5
372B
330
3720
100
AcDbEntity
  8
Defpoints
 62
     0
100
AcDbPoint
 10
1276.220872174745
 20
546.3495524925958
 30
0.0
  0
POINT
  5
372C
330
3720
100
AcDbEntity
  8
Defpoints
 62
     0
100
AcDbPoint
 10
1276.220872174745
 20
566.1506437368311
 30
0.0
  0
ENDBLK
  5
3722
330
3720
100
AcDbEntity
  8
0
100
AcDbBlockEnd
  0
BLOCK
  5
372E
330
372D
100
AcDbEntity
  8
0
100
AcDbBlockBegin
  2
*D42
 70
     1
 10
0.0
 20
0.0
 30
0.0
  3
*D42
  1

  0
LINE
  5
3730
330
372D
100
AcDbEntity
  8
DIM
 62
     0
370
    -2
100
AcDbLine
 10
1654.88135349847
 20
726.4504756711241
 30
0.0
 11
1613.758351759097
 21
726.4504756711241
 31
0.0
  0
LINE
  5
3731
330
372D
100
AcDbEntity
  8
DIM
 62
     0
370
    -2
100
AcDbLine
 10
1654.88135349847
 20
713.9504756711241
 30
0.0
 11
1613.758351759097
 21
713.9504756711241
 31
0.0
  0
LINE
  5
3732
330
372D
100
AcDbEntity
  8
DIM
 62
     0
370
    -2
100
AcDbLine
 10
1613.758351759097
 20
726.4504756711241
 30
0.0
 11
1613.758351759097
 21
781.213261715891
 31
0.0
  0
LINE
  5
3733
330
372D
100
AcDbEntity
  8
DIM
 62
     0
370
    -2
100
AcDbLine
 10
1613.758351759097
 20
723.4504756711241
 30
0.0
 11
1613.758351759097
 21
716.9504756711241
 31
0.0
  0
LINE
  5
3734
330
372D
100
AcDbEntity
  8
DIM
 62
     0
370
    -2
100
AcDbLine
 10
1613.758351759097
 20
723.4504756711241
 30
0.0
 11
1613.758351759097
 21
720.4504756711241
 31
0.0
  0
INSERT
  5
3735
330
372D
100
AcDbEntity
  8
DIM
 62
     0
370
    -2
100
AcDbBlockReference
  2
_DOT
 10
1613.758351759097
 20
726.4504756711241
 30
0.0
 41
3.0
 42
3.0
 43
3.0
 50
90.0
  0
INSERT
  5
3736
330
372D
100
AcDbEntity
  8
DIM
 62
     0
370
    -2
100
AcDbBlockReference
  2
_DOT
 10
1613.758351759097
 20
713.9504756711241
 30
0.0
 41
3.0
 42
3.0
 43
3.0
 50
270.0
  0
MTEXT
  5
3737
330
372D
100
AcDbEntity
  8
DIM
 62
     0
100
AcDbMText
 10
1597.756100915031
 20
756.8318686935075
 30
0.0
 40
12.0
 41
0.0
 46
0.0
 71
     5
 72
     1
  1
\A1;12.5
  7
ＭＳ ゴシック
 11
0.0
 21
1.0
 31
0.0
 73
     1
 44
1.0
  0
POINT
  5
3738
330
372D
100
AcDbEntity
  8
Defpoints
 62
     0
100
AcDbPoint
 10
1664.88135349847
 20
726.4504756711241
 30
0.0
  0
POINT
  5
3739
330
372D
100
AcDbEntity
  8
Defpoints
 62
     0
100
AcDbPoint
 10
1664.88135349847
 20
713.9504756711241
 30
0.0
  0
POINT
  5
373A
330
372D
100
AcDbEntity
  8
Defpoints
 62
     0
100
AcDbPoint
 10
1613.758351759097
 20
713.9504756711241
 30
0.0
  0
ENDBLK
  5
372F
330
372D
100
AcDbEntity
  8
0
100
AcDbBlockEnd
  0
BLOCK
  5
3742
330
3741
100
AcDbEntity
  8
0
100
AcDbBlockBegin
  2
*D43
 70
     1
 10
0.0
 20
0.0
 30
0.0
  3
*D43
  1

  0
LINE
  5
3744
330
3741
100
AcDbEntity
  8
DIM
 62
     0
370
    -2
100
AcDbLine
 10
729.2853962745387
 20
941.0362390743442
 30
0.0
 11
729.2853962745387
 21
1040.296402806122
 31
0.0
  0
LINE
  5
3745
330
3741
100
AcDbEntity
  8
DIM
 62
     0
370
    -2
100
AcDbLine
 10
119.2853962745385
 20
941.0362390743442
 30
0.0
 11
119.2853962745385
 21
1040.296402806122
 31
0.0
  0
LINE
  5
3746
330
3741
100
AcDbEntity
  8
DIM
 62
     0
370
    -2
100
AcDbLine
 10
726.2853962745387
 20
1040.296402806122
 30
0.0
 11
122.2853962745385
 21
1040.296402806122
 31
0.0
  0
INSERT
  5
3747
330
3741
100
AcDbEntity
  8
DIM
 62
     0
370
    -2
100
AcDbBlockReference
  2
_DOT
 10
729.2853962745387
 20
1040.296402806122
 30
0.0
 41
3.0
 42
3.0
 43
3.0
  0
INSERT
  5
3748
330
3741
100
AcDbEntity
  8
DIM
 62
     0
370
    -2
100
AcDbBlockReference
  2
_DOT
 10
119.2853962745385
 20
1040.296402806122
 30
0.0
 41
3.0
 42
3.0
 43
3.0
 50
180.0
  0
MTEXT
  5
3749
330
3741
100
AcDbEntity
  8
DIM
 62
     0
100
AcDbMText
 10
424.2853962745386
 20
1056.298653650189
 30
0.0
 40
12.0
 41
0.0
 46
0.0
 71
     5
 72
     1
  1
\A1;610
  7
ＭＳ ゴシック
 73
     1
 44
1.0
  0
POINT
  5
374A
330
3741
100
AcDbEntity
  8
Defpoints
 62
     0
100
AcDbPoint
 10
729.2853962745387
 20
931.0362390743442
 30
0.0
  0
POINT
  5
374B
330
3741
100
AcDbEntity
  8
Defpoints
 62
     0
100
AcDbPoint
 10
119.2853962745385
 20
931.0362390743442
 30
0.0
  0
POINT
  5
374C
330
3741
100
AcDbEntity
  8
Defpoints
 62
     0
100
AcDbPoint
 10
119.2853962745385
 20
1040.296402806122
 30
0.0
  0
ENDBLK
  5
3743
330
3741
100
AcDbEntity
  8
0
100
AcDbBlockEnd
  0
BLOCK
  5
3751
330
3750
100
AcDbEntity
  8
0
100
AcDbBlockBegin
  2
*D44
 70
     1
 10
0.0
 20
0.0
 30
0.0
  3
*D44
  1

  0
LINE
  5
3753
330
3750
100
AcDbEntity
  8
DIM
 62
     0
370
    -2
100
AcDbLine
 10
144.2853962745385
 20
950.1043440015635
 30
0.0
 11
144.2853962745385
 21
993.1334108527697
 31
0.0
  0
LINE
  5
3754
330
3750
100
AcDbEntity
  8
DIM
 62
     0
370
    -2
100
AcDbLine
 10
704.2853962745387
 20
951.8651528231478
 30
0.0
 11
704.2853962745387
 21
993.1334108527697
 31
0.0
  0
LINE
  5
3755
330
3750
100
AcDbEntity
  8
DIM
 62
     0
370
    -2
100
AcDbLine
 10
147.2853962745385
 20
993.1334108527697
 30
0.0
 11
701.2853962745387
 21
993.1334108527697
 31
0.0
  0
INSERT
  5
3756
330
3750
100
AcDbEntity
  8
DIM
 62
     0
370
    -2
100
AcDbBlockReference
  2
_DOT
 10
144.2853962745385
 20
993.1334108527697
 30
0.0
 41
3.0
 42
3.0
 43
3.0
 50
180.0
  0
INSERT
  5
3757
330
3750
100
AcDbEntity
  8
DIM
 62
     0
370
    -2
100
AcDbBlockReference
  2
_DOT
 10
704.2853962745387
 20
993.1334108527697
 30
0.0
 41
3.0
 42
3.0
 43
3.0
  0
MTEXT
  5
3758
330
3750
100
AcDbEntity
  8
DIM
 62
     0
100
AcDbMText
 10
424.2853962745386
 20
1009.135661696836
 30
0.0
 40
12.0
 41
0.0
 46
0.0
 71
     5
 72
     1
  1
\A1;560
  7
ＭＳ ゴシック
 73
     1
 44
1.0
  0
POINT
  5
3759
330
3750
100
AcDbEntity
  8
Defpoints
 62
     0
100
AcDbPoint
 10
144.2853962745385
 20
940.1043440015635
 30
0.0
  0
POINT
  5
375A
330
3750
100
AcDbEntity
  8
Defpoints
 62
     0
100
AcDbPoint
 10
704.2853962745387
 20
941.8651528231478
 30
0.0
  0
POINT
  5
375B
330
3750
100
AcDbEntity
  8
Defpoints
 62
     0
100
AcDbPoint
 10
704.2853962745387
 20
993.1334108527697
 30
0.0
  0
ENDBLK
  5
3752
330
3750
100
AcDbEntity
  8
0
100
AcDbBlockEnd
  0
BLOCK
  5
3766
330
3765
100
AcDbEntity
  8
0
100
AcDbBlockBegin
  2
*D45
 70
     1
 10
0.0
 20
0.0
 30
0.0
  3
*D45
  1

  0
LINE
  5
3768
330
3765
100
AcDbEntity
  8
DIM
 62
     0
370
    -2
100
AcDbLine
 10
582.2889918991259
 20
573.9931564234433
 30
0.0
 11
587.3811493241988
 21
573.9931564234433
 31
0.0
  0
LINE
  5
3769
330
3765
100
AcDbEntity
  8
DIM
 62
     0
370
    -2
100
AcDbLine
 10
582.2889918991259
 20
586.9931568662872
 30
0.0
 11
587.3811493241988
 21
586.9931568662872
 31
0.0
  0
LINE
  5
376A
330
3765
100
AcDbEntity
  8
DIM
 62
     0
370
    -2
100
AcDbLine
 10
587.3811493241988
 20
573.9931564234433
 30
0.0
 11
587.3811493241988
 21
518.0712794695856
 31
0.0
  0
LINE
  5
376B
330
3765
100
AcDbEntity
  8
DIM
 62
     0
370
    -2
100
AcDbLine
 10
587.3811493241988
 20
576.9931564234433
 30
0.0
 11
587.3811493241988
 21
583.9931568662872
 31
0.0
  0
LINE
  5
376C
330
3765
100
AcDbEntity
  8
DIM
 62
     0
370
    -2
100
AcDbLine
 10
587.3811493241988
 20
576.9931564234433
 30
0.0
 11
587.3811493241988
 21
579.9931564234433
 31
0.0
  0
INSERT
  5
376D
330
3765
100
AcDbEntity
  8
DIM
 62
     0
370
    -2
100
AcDbBlockReference
  2
_DOT
 10
587.3811493241988
 20
573.9931564234433
 30
0.0
 41
3.0
 42
3.0
 43
3.0
 50
270.0
  0
INSERT
  5
376E
330
3765
100
AcDbEntity
  8
DIM
 62
     0
370
    -2
100
AcDbBlockReference
  2
_DOT
 10
587.3811493241988
 20
586.9931568662872
 30
0.0
 41
3.0
 42
3.0
 43
3.0
 50
90.0
  0
MTEXT
  5
376F
330
3765
100
AcDbEntity
  8
DIM
 62
     0
100
AcDbMText
 10
571.3788984801322
 20
539.161188185354
 30
0.0
 40
12.0
 41
0.0
 46
0.0
 71
     5
 72
     1
  1
\A1;%%c13
  7
ＭＳ ゴシック
 11
0.0
 21
1.0
 31
0.0
 73
     1
 44
1.0
  0
POINT
  5
3770
330
3765
100
AcDbEntity
  8
Defpoints
 62
     0
100
AcDbPoint
 10
572.2889918991259
 20
573.9931564234433
 30
0.0
  0
POINT
  5
3772
330
3765
100
AcDbEntity
  8
Defpoints
 62
     0
100
AcDbPoint
 10
572.2889918991259
 20
586.9931568662872
 30
0.0
  0
POINT
  5
3773
330
3765
100
AcDbEntity
  8
Defpoints
 62
     0
100
AcDbPoint
 10
587.3811493241988
 20
586.9931568662872
 30
0.0
  0
ENDBLK
  5
3767
330
3765
100
AcDbEntity
  8
0
100
AcDbBlockEnd
  0
BLOCK
  5
3781
330
3780
100
AcDbEntity
  8
0
100
AcDbBlockBegin
  2
*D46
 70
     1
 10
0.0
 20
0.0
 30
0.0
  3
*D46
  1

  0
LINE
  5
3783
330
3780
100
AcDbEntity
  8
DIM
 62
     0
370
    -2
100
AcDbLine
 10
738.8159265854324
 20
646.7931575529514
 30
0.0
 11
776.7153982025533
 21
646.7931575529514
 31
0.0
  0
LINE
  5
3784
330
3780
100
AcDbEntity
  8
DIM
 62
     0
370
    -2
100
AcDbLine
 10
722.8159349138391
 20
572.4931568721253
 30
0.0
 11
776.7153982025533
 21
572.4931568721253
 31
0.0
  0
LINE
  5
3785
330
3780
100
AcDbEntity
  8
DIM
 62
     0
370
    -2
100
AcDbLine
 10
776.7153982025533
 20
643.7931575529514
 30
0.0
 11
776.7153982025533
 21
575.4931568721253
 31
0.0
  0
INSERT
  5
3786
330
3780
100
AcDbEntity
  8
DIM
 62
     0
370
    -2
100
AcDbBlockReference
  2
_DOT
 10
776.7153982025533
 20
646.7931575529514
 30
0.0
 41
3.0
 42
3.0
 43
3.0
 50
90.0
  0
INSERT
  5
3787
330
3780
100
AcDbEntity
  8
DIM
 62
     0
370
    -2
100
AcDbBlockReference
  2
_DOT
 10
776.7153982025533
 20
572.4931568721253
 30
0.0
 41
3.0
 42
3.0
 43
3.0
 50
270.0
  0
MTEXT
  5
3788
330
3780
100
AcDbEntity
  8
DIM
 62
     0
100
AcDbMText
 10
760.7131473584867
 20
609.6431572125383
 30
0.0
 40
12.0
 41
0.0
 46
0.0
 71
     5
 72
     1
  1
\A1;74.3
  7
ＭＳ ゴシック
 11
0.0
 21
1.0
 31
0.0
 73
     1
 44
1.0
  0
POINT
  5
3789
330
3780
100
AcDbEntity
  8
Defpoints
 62
     0
100
AcDbPoint
 10
728.8159265854324
 20
646.7931575529514
 30
0.0
  0
POINT
  5
378A
330
3780
100
AcDbEntity
  8
Defpoints
 62
     0
100
AcDbPoint
 10
712.8159349138391
 20
572.4931568721253
 30
0.0
  0
POINT
  5
378B
330
3780
100
AcDbEntity
  8
Defpoints
 62
     0
100
AcDbPoint
 10
776.7153982025533
 20
572.4931568721253
 30
0.0
  0
ENDBLK
  5
3782
330
3780
100
AcDbEntity
  8
0
100
AcDbBlockEnd
  0
BLOCK
  5
3799
330
3798
100
AcDbEntity
  8
0
100
AcDbBlockBegin
  2
*D47
 70
     1
 10
0.0
 20
0.0
 30
0.0
  3
*D47
  1

  0
LINE
  5
379B
330
3798
100
AcDbEntity
  8
DIM
 62
     0
370
    -2
100
AcDbLine
 10
829.0322721466976
 20
921.395112732318
 30
0.0
 11
815.6092438229844
 21
921.395112732318
 31
0.0
  0
LINE
  5
379C
330
3798
100
AcDbEntity
  8
DIM
 62
     0
370
    -2
100
AcDbLine
 10
829.0322721466976
 20
902.3951040300399
 30
0.0
 11
815.6092438229844
 21
902.3951040300399
 31
0.0
  0
LINE
  5
379D
330
3798
100
AcDbEntity
  8
DIM
 62
     0
370
    -2
100
AcDbLine
 10
815.6092438229844
 20
918.395112732318
 30
0.0
 11
815.6092438229844
 21
905.3951040300399
 31
0.0
  0
INSERT
  5
379E
330
3798
100
AcDbEntity
  8
DIM
 62
     0
370
    -2
100
AcDbBlockReference
  2
_DOT
 10
815.6092438229844
 20
921.395112732318
 30
0.0
 41
3.0
 42
3.0
 43
3.0
 50
90.0
  0
INSERT
  5
379F
330
3798
100
AcDbEntity
  8
DIM
 62
     0
370
    -2
100
AcDbBlockReference
  2
_DOT
 10
815.6092438229844
 20
902.3951040300399
 30
0.0
 41
3.0
 42
3.0
 43
3.0
 50
270.0
  0
MTEXT
  5
37A0
330
3798
100
AcDbEntity
  8
DIM
 62
     0
100
AcDbMText
 10
799.6069929789178
 20
911.8951083811789
 30
0.0
 40
12.0
 41
0.0
 46
0.0
 71
     5
 72
     1
  1
\A1;%%c19
  7
ＭＳ ゴシック
 11
0.0
 21
1.0
 31
0.0
 73
     1
 44
1.0
  0
POINT
  5
37A1
330
3798
100
AcDbEntity
  8
Defpoints
 62
     0
100
AcDbPoint
 10
839.0322721466976
 20
921.395112732318
 30
0.0
  0
POINT
  5
37A2
330
3798
100
AcDbEntity
  8
Defpoints
 62
     0
100
AcDbPoint
 10
839.0322721466976
 20
902.3951040300399
 30
0.0
  0
POINT
  5
37A3
330
3798
100
AcDbEntity
  8
Defpoints
 62
     0
100
AcDbPoint
 10
815.6092438229844
 20
902.3951040300399
 30
0.0
  0
ENDBLK
  5
379A
330
3798
100
AcDbEntity
  8
0
100
AcDbBlockEnd
  0
BLOCK
  5
37B2
330
37B1
100
AcDbEntity
  8
0
100
AcDbBlockBegin
  2
*D48
 70
     1
 10
0.0
 20
0.0
 30
0.0
  3
*D48
  1

  0
LINE
  5
37B4
330
37B1
100
AcDbEntity
  8
DIM
 62
     0
370
    -2
100
AcDbLine
 10
897.7442715014201
 20
943.4731633760343
 30
0.0
 11
897.7442715014201
 21
968.3305787163404
 31
0.0
  0
LINE
  5
37B5
330
37B1
100
AcDbEntity
  8
DIM
 62
     0
370
    -2
100
AcDbLine
 10
911.2442721822465
 20
943.9731550476276
 30
0.0
 11
911.2442721822465
 21
968.3305787163404
 31
0.0
  0
LINE
  5
37B6
330
37B1
100
AcDbEntity
  8
DIM
 62
     0
370
    -2
100
AcDbLine
 10
911.2442721822465
 20
968.3305787163404
 30
0.0
 11
966.0070582270132
 21
968.3305787163404
 31
0.0
  0
LINE
  5
37B7
330
37B1
100
AcDbEntity
  8
DIM
 62
     0
370
    -2
100
AcDbLine
 10
900.7442715014201
 20
968.3305787163404
 30
0.0
 11
908.2442721822465
 21
968.3305787163404
 31
0.0
  0
LINE
  5
37B8
330
37B1
100
AcDbEntity
  8
DIM
 62
     0
370
    -2
100
AcDbLine
 10
908.2442721822465
 20
968.3305787163404
 30
0.0
 11
905.2442721822465
 21
968.3305787163404
 31
0.0
  0
INSERT
  5
37B9
330
37B1
100
AcDbEntity
  8
DIM
 62
     0
370
    -2
100
AcDbBlockReference
  2
_DOT
 10
897.7442715014201
 20
968.3305787163404
 30
0.0
 41
3.0
 42
3.0
 43
3.0
 50
180.0
  0
INSERT
  5
37BA
330
37B1
100
AcDbEntity
  8
DIM
 62
     0
370
    -2
100
AcDbBlockReference
  2
_DOT
 10
911.2442721822465
 20
968.3305787163404
 30
0.0
 41
3.0
 42
3.0
 43
3.0
  0
MTEXT
  5
37BB
330
37B1
100
AcDbEntity
  8
DIM
 62
     0
100
AcDbMText
 10
941.6256652046299
 20
984.3328295604069
 30
0.0
 40
12.0
 41
0.0
 46
0.0
 71
     5
 72
     1
  1
\A1;13.5
  7
ＭＳ ゴシック
 73
     1
 44
1.0
  0
POINT
  5
37BC
330
37B1
100
AcDbEntity
  8
Defpoints
 62
     0
100
AcDbPoint
 10
897.7442715014201
 20
933.4731633760343
 30
0.0
  0
POINT
  5
37BD
330
37B1
100
AcDbEntity
  8
Defpoints
 62
     0
100
AcDbPoint
 10
911.2442721822465
 20
933.9731550476276
 30
0.0
  0
POINT
  5
37BE
330
37B1
100
AcDbEntity
  8
Defpoints
 62
     0
100
AcDbPoint
 10
911.2442721822465
 20
968.3305787163404
 30
0.0
  0
ENDBLK
  5
37B3
330
37B1
100
AcDbEntity
  8
0
100
AcDbBlockEnd
  0
BLOCK
  5
37CD
330
37CC
100
AcDbEntity
  8
0
100
AcDbBlockBegin
  2
*D49
 70
     1
 10
0.0
 20
0.0
 30
0.0
  3
*D49
  1

  0
LINE
  5
37CF
330
37CC
100
AcDbEntity
  8
DIM
 62
     0
370
    -2
100
AcDbLine
 10
936.2442721822465
 20
936.8950919899016
 30
0.0
 11
983.2189711464875
 21
936.8950919899016
 31
0.0
  0
LINE
  5
37D0
330
37CC
100
AcDbEntity
  8
DIM
 62
     0
370
    -2
100
AcDbLine
 10
936.2442721822465
 20
886.8950949701339
 30
0.0
 11
983.2189711464875
 21
886.8950949701339
 31
0.0
  0
LINE
  5
37D1
330
37CC
100
AcDbEntity
  8
DIM
 62
     0
370
    -2
100
AcDbLine
 10
983.2189711464875
 20
933.8950919899016
 30
0.0
 11
983.2189711464875
 21
889.8950949701339
 31
0.0
  0
INSERT
  5
37D2
330
37CC
100
AcDbEntity
  8
DIM
 62
     0
370
    -2
100
AcDbBlockReference
  2
_DOT
 10
983.2189711464875
 20
936.8950919899016
 30
0.0
 41
3.0
 42
3.0
 43
3.0
 50
90.0
  0
INSERT
  5
37D3
330
37CC
100
AcDbEntity
  8
DIM
 62
     0
370
    -2
100
AcDbBlockReference
  2
_DOT
 10
983.2189711464875
 20
886.8950949701339
 30
0.0
 41
3.0
 42
3.0
 43
3.0
 50
270.0
  0
MTEXT
  5
37D4
330
37CC
100
AcDbEntity
  8
DIM
 62
     0
100
AcDbMText
 10
967.216720302421
 20
911.8950934800177
 30
0.0
 40
12.0
 41
0.0
 46
0.0
 71
     5
 72
     1
  1
\A1;%%c50
  7
ＭＳ ゴシック
 11
0.0
 21
1.0
 31
0.0
 73
     1
 44
1.0
  0
POINT
  5
37D5
330
37CC
100
AcDbEntity
  8
Defpoints
 62
     0
100
AcDbPoint
 10
926.2442721822465
 20
936.8950919899016
 30
0.0
  0
POINT
  5
37D6
330
37CC
100
AcDbEntity
  8
Defpoints
 62
     0
100
AcDbPoint
 10
926.2442721822465
 20
886.8950949701339
 30
0.0
  0
POINT
  5
37D7
330
37CC
100
AcDbEntity
  8
Defpoints
 62
     0
100
AcDbPoint
 10
983.2189711464875
 20
886.8950949701339
 30
0.0
  0
ENDBLK
  5
37CE
330
37CC
100
AcDbEntity
  8
0
100
AcDbBlockEnd
  0
BLOCK
  5
392D
330
392C
100
AcDbEntity
  8
0
100
AcDbBlockBegin
  2
DMBLK1
 70
     0
 10
0.0
 20
0.0
 30
0.0
  3
DMBLK1
  1
DMBLK1
  0
LINE
  5
392E
330
392C
100
AcDbEntity
  8
Layer3
  6
Continuous
 62
     0
370
    -2
100
AcDbLine
 10
52.99359277869998
 20
278.5028026199
 30
0.0
 11
25.94629331139998
 21
278.5028026199
 31
0.0
  0
LINE
  5
392F
330
392C
100
AcDbEntity
  8
Layer3
  6
Continuous
 62
     0
370
    -2
100
AcDbLine
 10
52.99359277869998
 20
48.50280261989997
 30
0.0
 11
25.94629331139998
 21
48.50280261989997
 31
0.0
  0
LINE
  5
3930
330
392C
100
AcDbEntity
  8
Layer3
  6
Continuous
 62
     0
370
    -2
100
AcDbLine
 10
26.12629331139998
 20
278.3228026199
 30
0.0
 11
26.12629331139998
 21
163.6828005337
 31
0.0
  0
LINE
  5
3931
330
392C
100
AcDbEntity
  8
Layer3
  6
Continuous
 62
     0
370
    -2
100
AcDbLine
 10
26.12629331139998
 20
48.68280261989997
 30
0.0
 11
26.12629331139998
 21
163.3228005337
 31
0.0
  0
SOLID
  5
3932
330
392C
100
AcDbEntity
  8
Layer3
 62
     0
100
AcDbTrace
 10
26.15629331139998
 20
278.3228026199
 30
0.0
 11
26.09629331139998
 21
278.3228026199
 31
0.0
 12
26.12629331139998
 22
278.5028026199
 32
0.0
 13
26.12629331139998
 23
278.5028026199
 33
0.0
  0
SOLID
  5
3933
330
392C
100
AcDbEntity
  8
Layer3
 62
     0
100
AcDbTrace
 10
26.09629331139998
 20
48.68280261989997
 30
0.0
 11
26.15629331139998
 21
48.68280261989997
 31
0.0
 12
26.12629331139998
 22
48.50280261989997
 32
0.0
 13
26.12629331139998
 23
48.50280261989997
 33
0.0
  0
MTEXT
  5
3934
330
392C
100
AcDbEntity
  8
Layer3
 62
     0
100
AcDbMText
 10
26.12629331139998
 20
163.5028005337
 30
0.0
 40
0.18
 41
0.0
 46
0.0
 71
     5
 72
     1
  1
\A1;\A1;230.0000 %%P5
 73
     1
 44
1.0
  0
POINT
  5
3935
330
392C
100
AcDbEntity
  8
Defpoints
 62
     0
100
AcDbPoint
 10
53.05609277869998
 20
278.5028026199
 30
0.0
  0
POINT
  5
3936
330
392C
100
AcDbEntity
  8
Defpoints
 62
     0
100
AcDbPoint
 10
53.05609277869998
 20
48.50280261989997
 30
0.0
  0
POINT
  5
3987
330
392C
100
AcDbEntity
  8
Defpoints
 62
     0
100
AcDbPoint
 10
26.12629331139997
 20
48.50280261989997
 30
0.0
  0
ENDBLK
  5
3937
330
392C
100
AcDbEntity
  8
0
100
AcDbBlockEnd
  0
BLOCK
  5
393A
330
3939
100
AcDbEntity
  8
0
100
AcDbBlockBegin
  2
DMBLK2
 70
     0
 10
0.0
 20
0.0
 30
0.0
  3
DMBLK2
  1
DMBLK2
  0
LINE
  5
393B
330
3939
100
AcDbEntity
  8
Layer3
  6
Continuous
 62
     0
370
    -2
100
AcDbLine
 10
62.83109277869998
 20
52.99212393879998
 30
0.0
 11
62.83109277869998
 21
85.83454832439999
 31
0.0
  0
LINE
  5
393C
330
3939
100
AcDbEntity
  8
Layer3
  6
Continuous
 62
     0
370
    -2
100
AcDbLine
 10
68.28109277869997
 20
52.84557820119998
 30
0.0
 11
68.28109277869997
 21
85.83454832439999
 31
0.0
  0
LINE
  5
393D
330
3939
100
AcDbEntity
  8
Layer3
  6
Continuous
 62
     0
370
    -2
100
AcDbLine
 10
68.28109277869997
 20
85.65454832439998
 30
0.0
 11
73.45009782459998
 21
85.65454832439998
 31
0.0
  0
LINE
  5
393E
330
3939
100
AcDbEntity
  8
Layer3
  6
Continuous
 62
     0
370
    -2
100
AcDbLine
 10
63.01109277869998
 20
85.65454832439998
 30
0.0
 11
68.10109277869996
 21
85.65454832439998
 31
0.0
  0
LINE
  5
393F
330
3939
100
AcDbEntity
  8
Layer3
  6
Continuous
 62
     0
370
    -2
100
AcDbLine
 10
68.10109277869996
 20
85.65454832439998
 30
0.0
 11
63.01109277869998
 21
85.65454832439998
 31
0.0
  0
SOLID
  5
3940
330
3939
100
AcDbEntity
  8
Layer3
 62
     0
100
AcDbTrace
 10
63.01109277869998
 20
85.68454832439998
 30
0.0
 11
63.01109277869998
 21
85.62454832439998
 31
0.0
 12
62.83109277869998
 22
85.65454832439998
 32
0.0
 13
62.83109277869998
 23
85.65454832439998
 33
0.0
  0
SOLID
  5
3988
330
3939
100
AcDbEntity
  8
Layer3
 62
     0
100
AcDbTrace
 10
68.10109277869996
 20
85.62454832439998
 30
0.0
 11
68.10109277869996
 21
85.68454832439998
 31
0.0
 12
68.28109277869997
 22
85.65454832439998
 32
0.0
 13
68.28109277869997
 23
85.65454832439998
 33
0.0
  0
MTEXT
  5
3989
330
3939
100
AcDbEntity
  8
Layer3
 62
     0
100
AcDbMText
 10
74.10409782459998
 20
85.65454832439998
 30
0.0
 40
0.18
 41
0.0
 46
0.0
 71
     5
 72
     1
  1
\A1;\A1;%%C 5.4500
 73
     1
 44
1.0
  0
POINT
  5
398A
330
3939
100
AcDbEntity
  8
Defpoints
 62
     0
100
AcDbPoint
 10
62.83109277869998
 20
52.92962393879998
 30
0.0
  0
POINT
  5
398B
330
3939
100
AcDbEntity
  8
Defpoints
 62
     0
100
AcDbPoint
 10
68.28109277869997
 20
52.78307820119998
 30
0.0
  0
POINT
  5
398C
330
3939
100
AcDbEntity
  8
Defpoints
 62
     0
100
AcDbPoint
 10
68.28109277869997
 20
85.65454832439998
 30
0.0
  0
ENDBLK
  5
3941
330
3939
100
AcDbEntity
  8
0
100
AcDbBlockEnd
  0
BLOCK
  5
3944
330
3943
100
AcDbEntity
  8
0
100
AcDbBlockBegin
  2
DMBLK3
 70
     0
 10
0.0
 20
0.0
 30
0.0
  3
DMBLK3
  1
DMBLK3
  0
LINE
  5
3945
330
3943
100
AcDbEntity
  8
Layer3
  6
Continuous
 62
     0
370
    -2
100
AcDbLine
 10
53.05609277869998
 20
53.21698916039998
 30
0.0
 11
53.05609277869998
 21
70.43017416559998
 31
0.0
  0
LINE
  5
3946
330
3943
100
AcDbEntity
  8
Layer3
  6
Continuous
 62
     0
370
    -2
100
AcDbLine
 10
65.58670896179997
 20
51.93719899769997
 30
0.0
 11
65.58670896179997
 21
70.43017416559998
 31
0.0
  0
LINE
  5
3947
330
3943
100
AcDbEntity
  8
Layer3
  6
Continuous
 62
     0
370
    -2
100
AcDbLine
 10
53.05609277869998
 20
70.25017416559997
 30
0.0
 11
48.41335471859998
 21
70.25017416559997
 31
0.0
  0
LINE
  5
3948
330
3943
100
AcDbEntity
  8
Layer3
  6
Continuous
 62
     0
370
    -2
100
AcDbLine
 10
53.23609277869998
 20
70.25017416559997
 30
0.0
 11
65.40670896179996
 21
70.25017416559997
 31
0.0
  0
LINE
  5
3949
330
3943
100
AcDbEntity
  8
Layer3
  6
Continuous
 62
     0
370
    -2
100
AcDbLine
 10
65.40670896179996
 20
70.25017416559997
 30
0.0
 11
53.23609277869998
 21
70.25017416559997
 31
0.0
  0
SOLID
  5
394A
330
3943
100
AcDbEntity
  8
Layer3
 62
     0
100
AcDbTrace
 10
53.23609277869998
 20
70.28017416559997
 30
0.0
 11
53.23609277869998
 21
70.22017416559997
 31
0.0
 12
53.05609277869998
 22
70.25017416559997
 32
0.0
 13
53.05609277869998
 23
70.25017416559997
 33
0.0
  0
SOLID
  5
394B
330
3943
100
AcDbEntity
  8
Layer3
 62
     0
100
AcDbTrace
 10
65.40670896179996
 20
70.22017416559997
 30
0.0
 11
65.40670896179996
 21
70.28017416559997
 31
0.0
 12
65.58670896179997
 22
70.25017416559997
 32
0.0
 13
65.58670896179997
 23
70.25017416559997
 33
0.0
  0
MTEXT
  5
398D
330
3943
100
AcDbEntity
  8
Layer3
 62
     0
100
AcDbMText
 10
47.82835471859998
 20
70.25017416559997
 30
0.0
 40
0.18
 41
0.0
 46
0.0
 71
     5
 72
     1
  1
\A1;\A1;12.5306
 73
     1
 44
1.0
  0
POINT
  5
398E
330
3943
100
AcDbEntity
  8
Defpoints
 62
     0
100
AcDbPoint
 10
53.05609277869998
 20
53.15448916039998
 30
0.0
  0
POINT
  5
398F
330
3943
100
AcDbEntity
  8
Defpoints
 62
     0
100
AcDbPoint
 10
65.58670896179997
 20
51.87469899769997
 30
0.0
  0
POINT
  5
3990
330
3943
100
AcDbEntity
  8
Defpoints
 62
     0
100
AcDbPoint
 10
65.58670896179997
 20
70.25017416559997
 30
0.0
  0
ENDBLK
  5
394C
330
3943
100
AcDbEntity
  8
0
100
AcDbBlockEnd
  0
BLOCK
  5
3AFC
330
3AFB
100
AcDbEntity
  8
0
100
AcDbBlockBegin
  2
*D54
 70
     1
 10
0.0
 20
0.0
 30
0.0
  3
*D54
  1

  0
LINE
  5
3AFE
330
3AFB
100
AcDbEntity
  8
MODEL
  6
Continuous
 62
     0
370
    -2
100
AcDbLine
 10
353.9245217172099
 20
1272.530487588034
 30
0.0
 11
246.0878238480091
 21
1272.530487588034
 31
0.0
  0
LINE
  5
3AFF
330
3AFB
100
AcDbEntity
  8
MODEL
  6
Continuous
 62
     0
370
    -2
100
AcDbLine
 10
353.9245217172099
 20
352.5304875880335
 30
0.0
 11
246.0878238480091
 21
352.5304875880335
 31
0.0
  0
LINE
  5
3B00
330
3AFB
100
AcDbEntity
  8
MODEL
  6
Continuous
 62
     0
370
    -2
100
AcDbLine
 10
246.2678238480091
 20
1272.350487588034
 30
0.0
 11
246.2678238480091
 21
812.7104792432335
 31
0.0
  0
LINE
  5
3B01
330
3AFB
100
AcDbEntity
  8
MODEL
  6
Continuous
 62
     0
370
    -2
100
AcDbLine
 10
246.2678238480091
 20
352.7104875880335
 30
0.0
 11
246.2678238480091
 21
812.3504792432334
 31
0.0
  0
SOLID
  5
3B02
330
3AFB
100
AcDbEntity
  8
MODEL
 62
     0
100
AcDbTrace
 10
246.2978238480091
 20
1272.350487588034
 30
0.0
 11
246.2378238480091
 21
1272.350487588034
 31
0.0
 12
246.2678238480091
 22
1272.530487588034
 32
0.0
 13
246.2678238480091
 23
1272.530487588034
 33
0.0
  0
SOLID
  5
3B03
330
3AFB
100
AcDbEntity
  8
MODEL
 62
     0
100
AcDbTrace
 10
246.2378238480091
 20
352.7104875880335
 30
0.0
 11
246.2978238480091
 21
352.7104875880335
 31
0.0
 12
246.2678238480091
 22
352.5304875880335
 32
0.0
 13
246.2678238480091
 23
352.5304875880335
 33
0.0
  0
MTEXT
  5
3B04
330
3AFB
100
AcDbEntity
  8
MODEL
 62
     0
100
AcDbMText
 10
246.2678238480091
 20
812.5304792432335
 30
0.0
 40
0.18
 41
0.0
 46
0.0
 71
     5
 72
     1
  1
\A1;\A1;920.0000 %%P5
 73
     1
 44
1.0
  0
POINT
  5
3B05
330
3AFB
100
AcDbEntity
  8
Defpoints
 62
     0
100
AcDbPoint
 10
353.9870217172099
 20
1272.530487588034
 30
0.0
  0
POINT
  5
3B06
330
3AFB
100
AcDbEntity
  8
Defpoints
 62
     0
100
AcDbPoint
 10
353.9870217172099
 20
352.5304875880335
 30
0.0
  0
POINT
  5
3B07
330
3AFB
100
AcDbEntity
  8
Defpoints
 62
     0
100
AcDbPoint
 10
246.2678238480091
 20
352.5304875880335
 30
0.0
  0
ENDBLK
  5
3AFD
330
3AFB
100
AcDbEntity
  8
0
100
AcDbBlockEnd
  0
BLOCK
  5
3B09
330
3B08
100
AcDbEntity
  8
0
100
AcDbBlockBegin
  2
*D55
 70
     1
 10
0.0
 20
0.0
 30
0.0
  3
*D55
  1

  0
LINE
  5
3B0B
330
3B08
100
AcDbEntity
  8
MODEL
  6
Continuous
 62
     0
370
    -2
100
AcDbLine
 10
393.0870217172094
 20
370.3002728636335
 30
0.0
 11
393.0870217172094
 21
501.3174704060335
 31
0.0
  0
LINE
  5
3B0C
330
3B08
100
AcDbEntity
  8
MODEL
  6
Continuous
 62
     0
370
    -2
100
AcDbLine
 10
414.8870217172096
 20
369.7140899132335
 30
0.0
 11
414.8870217172096
 21
501.3174704060335
 31
0.0
  0
LINE
  5
3B0D
330
3B08
100
AcDbEntity
  8
MODEL
  6
Continuous
 62
     0
370
    -2
100
AcDbLine
 10
414.8870217172096
 20
501.1374704060335
 30
0.0
 11
437.4800419008092
 21
501.1374704060335
 31
0.0
  0
LINE
  5
3B0E
330
3B08
100
AcDbEntity
  8
MODEL
  6
Continuous
 62
     0
370
    -2
100
AcDbLine
 10
393.2670217172094
 20
501.1374704060335
 30
0.0
 11
414.7070217172096
 21
501.1374704060335
 31
0.0
  0
LINE
  5
3B0F
330
3B08
100
AcDbEntity
  8
MODEL
  6
Continuous
 62
     0
370
    -2
100
AcDbLine
 10
414.7070217172096
 20
501.1374704060335
 30
0.0
 11
393.2670217172094
 21
501.1374704060335
 31
0.0
  0
SOLID
  5
3B10
330
3B08
100
AcDbEntity
  8
MODEL
 62
     0
100
AcDbTrace
 10
393.2670217172094
 20
501.1674704060334
 30
0.0
 11
393.2670217172094
 21
501.1074704060335
 31
0.0
 12
393.0870217172094
 22
501.1374704060335
 32
0.0
 13
393.0870217172094
 23
501.1374704060335
 33
0.0
  0
SOLID
  5
3B11
330
3B08
100
AcDbEntity
  8
MODEL
 62
     0
100
AcDbTrace
 10
414.7070217172096
 20
501.1074704060335
 30
0.0
 11
414.7070217172096
 21
501.1674704060334
 31
0.0
 12
414.8870217172096
 22
501.1374704060335
 32
0.0
 13
414.8870217172096
 23
501.1374704060335
 33
0.0
  0
MTEXT
  5
3B12
330
3B08
100
AcDbEntity
  8
MODEL
 62
     0
100
AcDbMText
 10
438.1790419008091
 20
501.1374704060335
 30
0.0
 40
0.18
 41
0.0
 46
0.0
 71
     5
 72
     1
  1
\A1;\A1;%%C 21.8000
 73
     1
 44
1.0
  0
POINT
  5
3B13
330
3B08
100
AcDbEntity
  8
Defpoints
 62
     0
100
AcDbPoint
 10
393.0870217172094
 20
370.2377728636335
 30
0.0
  0
POINT
  5
3B14
330
3B08
100
AcDbEntity
  8
Defpoints
 62
     0
100
AcDbPoint
 10
414.8870217172096
 20
369.6515899132335
 30
0.0
  0
POINT
  5
3B15
330
3B08
100
AcDbEntity
  8
Defpoints
 62
     0
100
AcDbPoint
 10
414.8870217172096
 20
501.1374704060335
 30
0.0
  0
ENDBLK
  5
3B0A
330
3B08
100
AcDbEntity
  8
0
100
AcDbBlockEnd
  0
BLOCK
  5
3B17
330
3B16
100
AcDbEntity
  8
0
100
AcDbBlockBegin
  2
*D56
 70
     1
 10
0.0
 20
0.0
 30
0.0
  3
*D56
  1

  0
LINE
  5
3B19
330
3B16
100
AcDbEntity
  8
MODEL
  6
Continuous
 62
     0
370
    -2
100
AcDbLine
 10
353.9870217172099
 20
371.1997337500335
 30
0.0
 11
353.9870217172099
 21
439.6999737708334
 31
0.0
  0
LINE
  5
3B1A
330
3B16
100
AcDbEntity
  8
MODEL
  6
Continuous
 62
     0
370
    -2
100
AcDbLine
 10
404.1094864496097
 20
366.0805730992334
 30
0.0
 11
404.1094864496097
 21
439.6999737708334
 31
0.0
  0
LINE
  5
3B1B
330
3B16
100
AcDbEntity
  8
MODEL
  6
Continuous
 62
     0
370
    -2
100
AcDbLine
 10
353.9870217172099
 20
439.5199737708334
 30
0.0
 11
333.6610694768094
 21
439.5199737708334
 31
0.0
  0
LINE
  5
3B1C
330
3B16
100
AcDbEntity
  8
MODEL
  6
Continuous
 62
     0
370
    -2
100
AcDbLine
 10
354.1670217172099
 20
439.5199737708334
 30
0.0
 11
403.9294864496097
 21
439.5199737708334
 31
0.0
  0
LINE
  5
3B1D
330
3B16
100
AcDbEntity
  8
MODEL
  6
Continuous
 62
     0
370
    -2
100
AcDbLine
 10
403.9294864496097
 20
439.5199737708334
 30
0.0
 11
354.1670217172099
 21
439.5199737708334
 31
0.0
  0
SOLID
  5
3B1E
330
3B16
100
AcDbEntity
  8
MODEL
 62
     0
100
AcDbTrace
 10
354.1670217172099
 20
439.5499737708334
 30
0.0
 11
354.1670217172099
 21
439.4899737708334
 31
0.0
 12
353.9870217172099
 22
439.5199737708334
 32
0.0
 13
353.9870217172099
 23
439.5199737708334
 33
0.0
  0
SOLID
  5
3B1F
330
3B16
100
AcDbEntity
  8
MODEL
 62
     0
100
AcDbTrace
 10
403.9294864496097
 20
439.4899737708334
 30
0.0
 11
403.9294864496097
 21
439.5499737708334
 31
0.0
 12
404.1094864496097
 22
439.5199737708334
 32
0.0
 13
404.1094864496097
 23
439.5199737708334
 33
0.0
  0
MTEXT
  5
3B20
330
3B16
100
AcDbEntity
  8
MODEL
 62
     0
100
AcDbMText
 10
333.0760694768094
 20
439.5199737708334
 30
0.0
 40
0.18
 41
0.0
 46
0.0
 71
     5
 72
     1
  1
\A1;\A1;50.1225
 73
     1
 44
1.0
  0
POINT
  5
3B21
330
3B16
100
AcDbEntity
  8
Defpoints
 62
     0
100
AcDbPoint
 10
353.9870217172099
 20
371.1372337500335
 30
0.0
  0
POINT
  5
3B22
330
3B16
100
AcDbEntity
  8
Defpoints
 62
     0
100
AcDbPoint
 10
404.1094864496097
 20
366.0180730992334
 30
0.0
  0
POINT
  5
3B23
330
3B16
100
AcDbEntity
  8
Defpoints
 62
     0
100
AcDbPoint
 10
404.1094864496097
 20
439.5199737708334
 30
0.0
  0
ENDBLK
  5
3B18
330
3B16
100
AcDbEntity
  8
0
100
AcDbBlockEnd
  0
BLOCK
  5
3B2D
330
3B2C
100
AcDbEntity
  8
0
100
AcDbBlockBegin
  2
*D57
 70
     1
 10
0.0
 20
0.0
 30
0.0
  3
*D57
  1

  0
LINE
  5
3B2F
330
3B2C
100
AcDbEntity
  8
DIM
 62
     0
370
    -2
100
AcDbLine
 10
716.6743083459443
 20
1227.283403662002
 30
0.0
 11
579.1582635025912
 21
1227.283403662002
 31
0.0
  0
LINE
  5
3B30
330
3B2C
100
AcDbEntity
  8
DIM
 62
     0
370
    -2
100
AcDbLine
 10
716.6743083459443
 20
307.2834036620019
 30
0.0
 11
579.1582635025912
 21
307.2834036620019
 31
0.0
  0
LINE
  5
3B31
330
3B2C
100
AcDbEntity
  8
DIM
 62
     0
370
    -2
100
AcDbLine
 10
579.1582635025912
 20
1224.283403662002
 30
0.0
 11
579.1582635025912
 21
310.2834036620019
 31
0.0
  0
INSERT
  5
3B32
330
3B2C
100
AcDbEntity
  8
DIM
 62
     0
370
    -2
100
AcDbBlockReference
  2
_DOT
 10
579.1582635025912
 20
1227.283403662002
 30
0.0
 41
3.0
 42
3.0
 43
3.0
 50
90.0
  0
INSERT
  5
3B33
330
3B2C
100
AcDbEntity
  8
DIM
 62
     0
370
    -2
100
AcDbBlockReference
  2
_DOT
 10
579.1582635025912
 20
307.2834036620019
 30
0.0
 41
3.0
 42
3.0
 43
3.0
 50
270.0
  0
MTEXT
  5
3B34
330
3B2C
100
AcDbEntity
  8
DIM
 62
     0
100
AcDbMText
 10
563.1560126585247
 20
767.283403662002
 30
0.0
 40
12.0
 41
0.0
 46
0.0
 71
     5
 72
     1
  1
\A1;920±5
  7
ＭＳ ゴシック
 11
0.0
 21
1.0
 31
0.0
 73
     1
 44
1.0
  0
POINT
  5
3B35
330
3B2C
100
AcDbEntity
  8
Defpoints
 62
     0
100
AcDbPoint
 10
726.6743083459443
 20
1227.283403662002
 30
0.0
  0
POINT
  5
3B36
330
3B2C
100
AcDbEntity
  8
Defpoints
 62
     0
100
AcDbPoint
 10
726.6743083459443
 20
307.2834036620019
 30
0.0
  0
POINT
  5
3B37
330
3B2C
100
AcDbEntity
  8
Defpoints
 62
     0
100
AcDbPoint
 10
579.1582635025912
 20
307.2834036620019
 30
0.0
  0
ENDBLK
  5
3B2E
330
3B2C
100
AcDbEntity
  8
0
100
AcDbBlockEnd
  0
BLOCK
  5
3B3D
330
3B3C
100
AcDbEntity
  8
0
100
AcDbBlockBegin
  2
*D58
 70
     1
 10
0.0
 20
0.0
 30
0.0
  3
*D58
  1

  0
LINE
  5
3B3F
330
3B3C
100
AcDbEntity
  8
DIM
 62
     0
370
    -2
100
AcDbLine
 10
348.8953550197464
 20
270.8794569382929
 30
0.0
 11
348.8953550197464
 21
261.4637177633285
 31
0.0
  0
LINE
  5
3B40
330
3B3C
100
AcDbEntity
  8
DIM
 62
     0
370
    -2
100
AcDbLine
 10
398.8953550197464
 20
270.8794569382929
 30
0.0
 11
398.8953550197464
 21
261.4637177633285
 31
0.0
  0
LINE
  5
3B41
330
3B3C
100
AcDbEntity
  8
DIM
 62
     0
370
    -2
100
AcDbLine
 10
351.8953550197464
 20
261.4637177633285
 30
0.0
 11
395.8953550197464
 21
261.4637177633285
 31
0.0
  0
INSERT
  5
3B42
330
3B3C
100
AcDbEntity
  8
DIM
 62
     0
370
    -2
100
AcDbBlockReference
  2
_DOT
 10
348.8953550197464
 20
261.4637177633285
 30
0.0
 41
3.0
 42
3.0
 43
3.0
 50
180.0
  0
INSERT
  5
3B43
330
3B3C
100
AcDbEntity
  8
DIM
 62
     0
370
    -2
100
AcDbBlockReference
  2
_DOT
 10
398.8953550197464
 20
261.4637177633285
 30
0.0
 41
3.0
 42
3.0
 43
3.0
  0
MTEXT
  5
3B44
330
3B3C
100
AcDbEntity
  8
DIM
 62
     0
100
AcDbMText
 10
373.8953550197464
 20
277.465968607395
 30
0.0
 40
12.0
 41
0.0
 46
0.0
 71
     5
 72
     1
  1
\A1;50
  7
ＭＳ ゴシック
 73
     1
 44
1.0
  0
POINT
  5
3B45
330
3B3C
100
AcDbEntity
  8
Defpoints
 62
     0
100
AcDbPoint
 10
348.8953550197464
 20
280.8794569382929
 30
0.0
  0
POINT
  5
3B46
330
3B3C
100
AcDbEntity
  8
Defpoints
 62
     0
100
AcDbPoint
 10
398.8953550197464
 20
280.8794569382929
 30
0.0
  0
POINT
  5
3B47
330
3B3C
100
AcDbEntity
  8
Defpoints
 62
     0
100
AcDbPoint
 10
398.8953550197464
 20
261.4637177633285
 30
0.0
  0
ENDBLK
  5
3B3E
330
3B3C
100
AcDbEntity
  8
0
100
AcDbBlockEnd
  0
BLOCK
  5
3B4A
330
3B49
100
AcDbEntity
  8
0
100
AcDbBlockBegin
  2
*D59
 70
     1
 10
0.0
 20
0.0
 30
0.0
  3
*D59
  1

  0
LINE
  5
3B4C
330
3B49
100
AcDbEntity
  8
DIM
 62
     0
370
    -2
100
AcDbLine
 10
726.7368083459443
 20
224.8242656781247
 30
0.0
 11
726.7368083459443
 21
198.5659618600567
 31
0.0
  0
LINE
  5
3B4D
330
3B49
100
AcDbEntity
  8
DIM
 62
     0
370
    -2
100
AcDbLine
 10
776.7368083459445
 20
312.1206657007394
 30
0.0
 11
776.7368083459445
 21
198.5659618600567
 31
0.0
  0
LINE
  5
3B4E
330
3B49
100
AcDbEntity
  8
DIM
 62
     0
370
    -2
100
AcDbLine
 10
729.7368083459443
 20
198.5659618600567
 30
0.0
 11
773.7368083459445
 21
198.5659618600567
 31
0.0
  0
INSERT
  5
3B4F
330
3B49
100
AcDbEntity
  8
DIM
 62
     0
370
    -2
100
AcDbBlockReference
  2
_DOT
 10
726.7368083459443
 20
198.5659618600567
 30
0.0
 41
3.0
 42
3.0
 43
3.0
 50
180.0
  0
INSERT
  5
3B50
330
3B49
100
AcDbEntity
  8
DIM
 62
     0
370
    -2
100
AcDbBlockReference
  2
_DOT
 10
776.7368083459445
 20
198.5659618600567
 30
0.0
 41
3.0
 42
3.0
 43
3.0
  0
MTEXT
  5
3B51
330
3B49
100
AcDbEntity
  8
DIM
 62
     0
100
AcDbMText
 10
751.7368083459444
 20
214.5682127041232
 30
0.0
 40
12.0
 41
0.0
 46
0.0
 71
     5
 72
     1
  1
\A1;50
  7
ＭＳ ゴシック
 73
     1
 44
1.0
  0
POINT
  5
3B52
330
3B49
100
AcDbEntity
  8
Defpoints
 62
     0
100
AcDbPoint
 10
726.7368083459443
 20
234.8242656781247
 30
0.0
  0
POINT
  5
3B53
330
3B49
100
AcDbEntity
  8
Defpoints
 62
     0
100
AcDbPoint
 10
776.7368083459445
 20
322.1206657007394
 30
0.0
  0
POINT
  5
3B54
330
3B49
100
AcDbEntity
  8
Defpoints
 62
     0
100
AcDbPoint
 10
776.7368083459445
 20
198.5659618600567
 30
0.0
  0
ENDBLK
  5
3B4B
330
3B49
100
AcDbEntity
  8
0
100
AcDbBlockEnd
  0
BLOCK
  5
3B62
330
3B61
100
AcDbEntity
  8
0
100
AcDbBlockBegin
  2
*D60
 70
     1
 10
0.0
 20
0.0
 30
0.0
  3
*D60
  1

  0
LINE
  5
3B64
330
3B61
100
AcDbEntity
  8
DIM
 62
     0
370
    -2
100
AcDbLine
 10
765.8368083459437
 20
459.5037767106967
 30
0.0
 11
765.8368083459437
 21
462.4435079198005
 31
0.0
  0
LINE
  5
3B65
330
3B61
100
AcDbEntity
  8
DIM
 62
     0
370
    -2
100
AcDbLine
 10
787.6368083459439
 20
459.5037767106967
 30
0.0
 11
787.6368083459439
 21
462.4435079198005
 31
0.0
  0
LINE
  5
3B66
330
3B61
100
AcDbEntity
  8
DIM
 62
     0
370
    -2
100
AcDbLine
 10
787.6368083459439
 20
462.4435079198005
 30
0.0
 11
835.8766482859214
 21
462.4435079198005
 31
0.0
  0
LINE
  5
3B67
330
3B61
100
AcDbEntity
  8
DIM
 62
     0
370
    -2
100
AcDbLine
 10
768.8368083459437
 20
462.4435079198005
 30
0.0
 11
784.6368083459439
 21
462.4435079198005
 31
0.0
  0
LINE
  5
3B68
330
3B61
100
AcDbEntity
  8
DIM
 62
     0
370
    -2
100
AcDbLine
 10
784.6368083459439
 20
462.4435079198005
 30
0.0
 11
781.6368083459439
 21
462.4435079198005
 31
0.0
  0
INSERT
  5
3B69
330
3B61
100
AcDbEntity
  8
DIM
 62
     0
370
    -2
100
AcDbBlockReference
  2
_DOT
 10
765.8368083459437
 20
462.4435079198005
 30
0.0
 41
3.0
 42
3.0
 43
3.0
 50
180.0
  0
INSERT
  5
3B6A
330
3B61
100
AcDbEntity
  8
DIM
 62
     0
370
    -2
100
AcDbBlockReference
  2
_DOT
 10
787.6368083459439
 20
462.4435079198005
 30
0.0
 41
3.0
 42
3.0
 43
3.0
  0
MTEXT
  5
3B6B
330
3B61
100
AcDbEntity
  8
DIM
 62
     0
100
AcDbMText
 10
814.7567283159327
 20
478.445758763867
 30
0.0
 40
12.0
 41
0.0
 46
0.0
 71
     5
 72
     1
  1
\A1;%%c22
  7
ＭＳ ゴシック
 73
     1
 44
1.0
  0
POINT
  5
3B6C
330
3B61
100
AcDbEntity
  8
Defpoints
 62
     0
100
AcDbPoint
 10
765.8368083459437
 20
469.5037767106967
 30
0.0
  0
POINT
  5
3B6D
330
3B61
100
AcDbEntity
  8
Defpoints
 62
     0
100
AcDbPoint
 10
787.6368083459439
 20
469.5037767106967
 30
0.0
  0
POINT
  5
3B6E
330
3B61
100
AcDbEntity
  8
Defpoints
 62
     0
100
AcDbPoint
 10
787.6368083459439
 20
462.4435079198005
 30
0.0
  0
ENDBLK
  5
3B63
330
3B61
100
AcDbEntity
  8
0
100
AcDbBlockEnd
  0
BLOCK
  5
3B77
330
3B76
100
AcDbEntity
  8
0
100
AcDbBlockBegin
  2
*D61
 70
     1
 10
0.0
 20
0.0
 30
0.0
  3
*D61
  1

  0
LINE
  5
3B79
330
3B76
100
AcDbEntity
  8
DIM
 62
     0
370
    -2
100
AcDbLine
 10
353.9870217172099
 20
1312.359057351789
 30
0.0
 11
353.9870217172099
 21
1350.622613539556
 31
0.0
  0
LINE
  5
3B7A
330
3B76
100
AcDbEntity
  8
DIM
 62
     0
370
    -2
100
AcDbLine
 10
470.9870217172099
 20
1312.359057351789
 30
0.0
 11
470.9870217172099
 21
1350.622613539556
 31
0.0
  0
LINE
  5
3B7B
330
3B76
100
AcDbEntity
  8
DIM
 62
     0
370
    -2
100
AcDbLine
 10
356.9870217172099
 20
1350.622613539556
 30
0.0
 11
467.9870217172099
 21
1350.622613539556
 31
0.0
  0
INSERT
  5
3B7C
330
3B76
100
AcDbEntity
  8
DIM
 62
     0
370
    -2
100
AcDbBlockReference
  2
_DOT
 10
353.9870217172099
 20
1350.622613539556
 30
0.0
 41
3.0
 42
3.0
 43
3.0
 50
180.0
  0
INSERT
  5
3B7D
330
3B76
100
AcDbEntity
  8
DIM
 62
     0
370
    -2
100
AcDbBlockReference
  2
_DOT
 10
470.9870217172099
 20
1350.622613539556
 30
0.0
 41
3.0
 42
3.0
 43
3.0
  0
MTEXT
  5
3B7E
330
3B76
100
AcDbEntity
  8
DIM
 62
     0
100
AcDbMText
 10
412.4870217172099
 20
1366.624864383622
 30
0.0
 40
12.0
 41
0.0
 46
0.0
 71
     5
 72
     1
  1
\A1;117
  7
ＭＳ ゴシック
 73
     1
 44
1.0
  0
POINT
  5
3B7F
330
3B76
100
AcDbEntity
  8
Defpoints
 62
     0
100
AcDbPoint
 10
353.9870217172099
 20
1302.359057351789
 30
0.0
  0
POINT
  5
3B80
330
3B76
100
AcDbEntity
  8
Defpoints
 62
     0
100
AcDbPoint
 10
470.9870217172099
 20
1302.359057351789
 30
0.0
  0
POINT
  5
3B81
330
3B76
100
AcDbEntity
  8
Defpoints
 62
     0
100
AcDbPoint
 10
470.9870217172099
 20
1350.622613539556
 30
0.0
  0
ENDBLK
  5
3B78
330
3B76
100
AcDbEntity
  8
0
100
AcDbBlockEnd
  0
BLOCK
  5
3BD3
330
3BD2
100
AcDbEntity
  8
0
100
AcDbBlockBegin
  2
*D62
 70
     1
 10
0.0
 20
0.0
 30
0.0
  3
*D62
  1

  0
LINE
  5
3BD5
330
3BD2
100
AcDbEntity
  8
DIM
 62
     0
370
    -2
100
AcDbLine
 10
716.7368083459443
 20
1246.127733286802
 30
0.0
 11
552.2635555766437
 21
1246.127733286802
 31
0.0
  0
LINE
  5
3BD6
330
3BD2
100
AcDbEntity
  8
DIM
 62
     0
370
    -2
100
AcDbLine
 10
716.7368083459443
 20
288.346261507602
 30
0.0
 11
552.2635555766436
 21
288.346261507602
 31
0.0
  0
LINE
  5
3BD7
330
3BD2
100
AcDbEntity
  8
DIM
 62
     0
370
    -2
100
AcDbLine
 10
552.2635555766437
 20
1243.127733286802
 30
0.0
 11
552.2635555766436
 21
291.346261507602
 31
0.0
  0
INSERT
  5
3BD8
330
3BD2
100
AcDbEntity
  8
DIM
 62
     0
370
    -2
100
AcDbBlockReference
  2
_DOT
 10
552.2635555766437
 20
1246.127733286802
 30
0.0
 41
3.0
 42
3.0
 43
3.0
 50
90.0
  0
INSERT
  5
3BD9
330
3BD2
100
AcDbEntity
  8
DIM
 62
     0
370
    -2
100
AcDbBlockReference
  2
_DOT
 10
552.2635555766436
 20
288.346261507602
 30
0.0
 41
3.0
 42
3.0
 43
3.0
 50
270.0
  0
MTEXT
  5
3BDA
330
3BD2
100
AcDbEntity
  8
DIM
 62
     0
100
AcDbMText
 10
536.2613047325772
 20
767.236997397202
 30
0.0
 40
12.0
 41
0.0
 46
0.0
 71
     5
 72
     1
  1
\A1;958
  7
ＭＳ ゴシック
 11
1.186980966654412E-16
 21
1.0
 31
0.0
 73
     1
 44
1.0
  0
POINT
  5
3BDB
330
3BD2
100
AcDbEntity
  8
Defpoints
 62
     0
100
AcDbPoint
 10
726.7368083459443
 20
1246.127733286802
 30
0.0
  0
POINT
  5
3BDC
330
3BD2
100
AcDbEntity
  8
Defpoints
 62
     0
100
AcDbPoint
 10
726.7368083459443
 20
288.346261507602
 30
0.0
  0
POINT
  5
3BDD
330
3BD2
100
AcDbEntity
  8
Defpoints
 62
     0
100
AcDbPoint
 10
552.2635555766436
 20
288.346261507602
 30
0.0
  0
ENDBLK
  5
3BD4
330
3BD2
100
AcDbEntity
  8
0
100
AcDbBlockEnd
  0
ENDSEC
  0
SECTION
  2
ENTITIES
  0
MTEXT
  5
177
330
A
100
AcDbEntity
  8
TEMPLATE
390
1D
100
AcDbMText
 10
39.60107227386538
 20
171.8658758157141
 30
0.0
 40
8.144205729166663
 41
0.0
 46
0.0
 71
     1
 72
     1
  1
品名
  7
ＭＳ ゴシック
 73
     1
 44
0.7828267384257843
  0
MTEXT
  5
178
330
A
100
AcDbEntity
  8
TEMPLATE
390
1D
100
AcDbMText
 10
39.60107227386538
 20
129.365875815714
 30
0.0
 40
8.144205729166663
 41
0.0
 46
0.0
 71
     1
 72
     1
  1
仕様
  7
ＭＳ ゴシック
 73
     1
 44
0.7828267384257843
  0
LINE
  5
179
330
A
100
AcDbEntity
  8
TEMPLATE
390
1D
100
AcDbLine
 10
1011.101072273624
 20
133.5733367532142
 30
0.0
 11
36.10107227362437
 21
133.5733367532142
 31
0.0
  0
LWPOLYLINE
  5
17A
330
A
100
AcDbEntity
  8
TEMPLATE
390
1D
100
AcDbPolyline
 90
        5
 70
   128
 43
0.0
 10
1011.101072273624
 20
1448.573336753213
 10
36.10107227362437
 20
1448.573336753213
 10
36.10107227362437
 20
48.57333675321413
 10
1011.101072273624
 20
48.57333675321413
 10
1011.101072273624
 20
1448.573336753213
  0
LINE
  5
17B
330
A
100
AcDbEntity
  8
TEMPLATE
390
1D
100
AcDbLine
 10
1011.101072273624
 20
176.0733367532141
 30
0.0
 11
36.10107227362437
 21
176.0733367532141
 31
0.0
  0
LINE
  5
17C
330
A
100
AcDbEntity
  8
TEMPLATE
390
1D
100
AcDbLine
 10
1011.101072273866
 20
91.07333675321412
 30
0.0
 11
634.601072273865
 21
91.07333675321412
 31
0.0
  0
MTEXT
  5
17E
330
A
100
AcDbEntity
  8
TEMPLATE
390
1D
100
AcDbMText
 10
649.5367753999956
 20
76.11813951656006
 30
0.0
 40
12.21630859375
 41
0.0
 46
0.0
 71
     1
 72
     1
  1
大洋金物株式会社 ティーフォルム事業部
  7
ＭＳ ゴシック
 73
     1
 44
0.7828267384257843
  0
MTEXT
  5
180
330
A
100
AcDbEntity
  8
TEMPLATE
390
1D
100
AcDbMText
 10
915.601072273995
 20
115.0746453469641
 30
0.0
 40
12.21630859375
 41
0.0
 46
12.21630859375
 71
     1
 72
     1
  1
{1:5}
  7
ＭＳ ゴシック
 73
     1
 44
0.7828267384257843
1001
ACAD
1000
ACAD_MTEXT_DEFINED_HEIGHT_BEGIN
1070
    46
1040
12.21630859375
1000
ACAD_MTEXT_DEFINED_HEIGHT_END
  0
MTEXT
  5
181
330
A
100
AcDbEntity
  8
TEMPLATE
390
1D
100
AcDbMText
 10
889.101072273995
 20
129.365875815714
 30
0.0
 40
8.144205729166663
 41
0.0
 46
0.0
 71
     1
 72
     1
  1
縮尺
  7
ＭＳ ゴシック
 73
     1
 44
0.7828267384257843
  0
LINE
  5
182
330
A
100
AcDbEntity
  8
TEMPLATE
390
1D
100
AcDbLine
 10
885.601072273995
 20
91.07333675321412
 30
0.0
 11
885.601072273995
 21
133.5733367532142
 31
0.0
  0
MTEXT
  5
183
330
A
100
AcDbEntity
  8
TEMPLATE
390
1D
100
AcDbMText
 10
763.601072273995
 20
129.365875815714
 30
0.0
 40
8.144205729166663
 41
0.0
 46
0.0
 71
     1
 72
     1
  1
容量
  7
ＭＳ ゴシック
 73
     1
 44
0.7828267384257843
  0
LINE
  5
184
330
A
100
AcDbEntity
  8
TEMPLATE
390
1D
100
AcDbLine
 10
760.101072273995
 20
91.07333675321412
 30
0.0
 11
760.101072273995
 21
133.5733367532142
 31
0.0
  0
MTEXT
  5
185
330
A
100
AcDbEntity
  8
TEMPLATE
390
1D
100
AcDbMText
 10
638.101072273995
 20
171.8658758157141
 30
0.0
 40
8.144205729166663
 41
0.0
 46
0.0
 71
     1
 72
     1
  1
品番
  7
ＭＳ ゴシック
 73
     1
 44
0.7828267384257843
  0
MTEXT
  5
186
330
A
100
AcDbEntity
  8
TEMPLATE
390
1D
100
AcDbMText
 10
638.101072273995
 20
129.365875815714
 30
0.0
 40
8.144205729166663
 41
0.0
 46
0.0
 71
     1
 72
     1
  1
重量
  7
ＭＳ ゴシック
 73
     1
 44
0.7828267384257843
  0
LINE
  5
188
330
A
100
AcDbEntity
  8
TEMPLATE
390
1D
100
AcDbLine
 10
634.601072273995
 20
48.57333675321413
 30
0.0
 11
634.601072273995
 21
176.0733367532141
 31
0.0
  0
INSERT
  5
68C
330
A
100
AcDbEntity
  8
TEMPLATE
100
AcDbBlockReference
  2
block 2
 10
919.2743017702577
 20
8.373076514336368
 30
0.0
 41
0.3809999999999999
 42
0.3809999999999999
 43
0.3809999999999999
  0
LWPOLYLINE
  5
D69
330
A
100
AcDbEntity
  8
BORDER
100
AcDbPolyline
 90
        4
 70
     1
 43
0.0
 10
0.0
 20
0.0
 10
0.0
 20
1485.0
 10
1050.0
 20
1485.0
 10
1050.0
 20
0.0
  0
INSERT
  5
1343
330
A
100
AcDbEntity
  8
TEMPLATE
100
AcDbBlockReference
  2
block 2
 10
2096.743470866468
 20
24.43532141229569
 30
0.0
 41
0.3809999999999999
 42
0.3809999999999999
 43
0.3809999999999999
  0
MTEXT
  5
16ED
330
A
100
AcDbEntity
  8
TEMPLATE
390
1D
100
AcDbMText
 10
664.601072273995
 20
157.5746453469641
 30
0.0
 40
12.21630859375
 41
0.0
 46
12.21630859375
 71
     1
 72
     1
  1
{FHT73-3314-001}
  7
ＭＳ ゴシック
 73
     1
 44
0.7828267384257843
1001
ACAD
1000
ACAD_MTEXT_DEFINED_HEIGHT_BEGIN
1070
    46
1040
12.21630859375
1000
ACAD_MTEXT_DEFINED_HEIGHT_END
  0
MTEXT
  5
16EE
330
A
100
AcDbEntity
  8
TEMPLATE
390
1D
100
AcDbMText
 10
66.10107227386538
 20
157.5746453469641
 30
0.0
 40
12.21630859375
 41
0.0
 46
14.25719746223193
 71
     1
 72
     1
  1
{スライドシャワーバー　-GROHE, ShowerSystem-}
  7
ＭＳ ゴシック
 73
     1
 44
0.7828267384257843
1001
ACAD
1000
ACAD_MTEXT_DEFINED_HEIGHT_BEGIN
1070
    46
1040
14.25719746223193
1000
ACAD_MTEXT_DEFINED_HEIGHT_END
  0
MTEXT
  5
16EF
330
A
100
AcDbEntity
  8
TEMPLATE
390
1D
100
AcDbMText
 10
63.19199414128968
 20
112.841166511426
 30
0.0
 40
12.21630859375
 41
0.0
 46
13.27055143084663
 71
     1
 72
     1
  1
{シャワーフック高さ・角度調整可}
  7
ＭＳ ゴシック
 73
     1
 44
0.9331787841240657
1001
ACAD
1000
ACAD_MTEXT_DEFINED_HEIGHT_BEGIN
1070
    46
1040
13.27055143084663
1000
ACAD_MTEXT_DEFINED_HEIGHT_END
  0
MTEXT
  5
16F0
102
{ACAD_XDICTIONARY
360
16F1
102
}
330
A
100
AcDbEntity
  8
TEMPLATE
100
AcDbMText
 10
37.3643282742853
 20
41.93086052571419
 30
0.0
 40
11.0
 41
0.0
 46
11.0
 71
     1
 72
     1
  1
{20210702N}
  7
ＭＳ ゴシック
 73
     1
 44
1.0
1001
ACAD
1000
ACAD_MTEXT_DEFINED_HEIGHT_BEGIN
1070
    46
1040
11.0
1000
ACAD_MTEXT_DEFINED_HEIGHT_END
  0
HATCH
  5
2492
102
{ACAD_REACTORS
330
24A3
102
}
330
A
100
AcDbEntity
  8
TEMPLATE
100
AcDbHatch
 10
0.0
 20
0.0
 30
0.0
210
0.0
220
0.0
230
1.0
  2
SOLID
 70
     1
 71
     1
 91
        6
 92
        1
 93
        8
 72
     1
 10
967.3017148351717
 20
76.58153313569332
 11
967.3017148351717
 21
73.6268293203631
 72
     1
 10
967.3017148351717
 20
73.6268293203631
 11
962.6214190600165
 21
73.6268293203631
 72
     1
 10
962.6214190600165
 20
73.6268293203631
 11
962.6214190600165
 21
61.58153313641628
 72
     1
 10
962.6214190600165
 20
61.58153313641628
 11
958.5051124833788
 21
61.58153313641628
 72
     1
 10
958.5051124833788
 20
61.58153313641628
 11
958.5051124833788
 21
73.6268293203631
 72
     1
 10
958.5051124833788
 20
73.6268293203631
 11
953.9077617661067
 21
73.6268293203631
 72
     1
 10
953.9077617661067
 20
73.6268293203631
 11
953.9077617661067
 21
76.58153313569332
 72
     1
 10
953.9077617661067
 20
76.58153313569332
 11
967.3017148351717
 21
76.58153313569332
 97
        1
330
2493
 92
        1
 93
        1
 72
     4
 94
        3
 73
     0
 74
     1
 95
       56
 96
       52
 40
0.0
 40
0.0
 40
0.0
 40
0.0
 40
1.0
 40
1.0
 40
1.0
 40
2.0
 40
2.0
 40
2.0
 40
3.0
 40
3.0
 40
3.0
 40
4.0
 40
4.0
 40
4.0
 40
5.0
 40
5.0
 40
5.0
 40
6.0
 40
6.0
 40
6.0
 40
7.0
 40
7.0
 40
7.0
 40
8.0
 40
8.0
 40
8.0
 40
9.0
 40
9.0
 40
9.0
 40
10.0
 40
10.0
 40
10.0
 40
11.0
 40
11.0
 40
11.0
 40
12.0
 40
12.0
 40
12.0
 40
13.0
 40
13.0
 40
13.0
 40
14.0
 40
14.0
 40
14.0
 40
15.0
 40
15.0
 40
15.0
 40
16.0
 40
16.0
 40
16.0
 40
17.0
 40
17.0
 40
17.0
 40
17.0
 10
973.5728075523182
 20
76.22434865548715
 10
974.1497406432779
 20
76.38674243249227
 10
974.8945351899454
 20
76.2509059520473
 10
974.8945351899454
 20
76.2509059520473
 10
974.8945351899454
 20
76.2509059520473
 10
974.5367183931537
 20
75.17712080583556
 10
974.5367183931537
 20
75.17712080583556
 10
974.5367183931537
 20
75.17712080583556
 10
973.8055372506058
 20
75.3463212849002
 10
973.2415852471802
 20
74.90161675034386
 10
972.8033526588458
 20
74.55384262872275
 10
972.5194425122852
 20
73.6297677327276
 10
972.4105352793329
 20
73.2784228821572
 10
972.4105352793329
 20
73.2784228821572
 10
971.9249905324193
 20
71.78808988695778
 10
971.9249905324193
 20
71.78808988695778
 10
971.9249905324193
 20
71.78808988695778
 10
973.5170521075795
 20
71.78808988695778
 10
973.5170521075795
 20
71.78808988695778
 10
973.5170521075795
 20
71.78808988695778
 10
973.2694443720036
 20
70.85010402609774
 10
973.2694443720036
 20
70.85010402609774
 10
973.2694443720036
 20
70.85010402609774
 10
971.6644017093092
 20
70.85010402609774
 10
971.6644017093092
 20
70.85010402609774
 10
971.6644017093092
 20
70.85010402609774
 10
968.7926801469564
 20
61.58153313641628
 10
968.7926801469564
 20
61.58153313641628
 10
968.7926801469564
 20
61.58153313641628
 10
967.8935631585125
 20
61.58153313641628
 10
967.8935631585125
 20
61.58153313641628
 10
967.8935631585125
 20
61.58153313641628
 10
970.7678883773913
 20
70.85010402609774
 10
970.7678883773913
 20
70.85010402609774
 10
970.7678883773913
 20
70.85010402609774
 10
969.5835222190324
 20
70.85010402609774
 10
969.5835222190324
 20
70.85010402609774
 10
969.5835222190324
 20
70.85010402609774
 10
969.8317994662855
 20
71.78808988695778
 10
969.8317994662855
 20
71.78808988695778
 10
969.8317994662855
 20
71.78808988695778
 10
971.0284772005014
 20
71.78808988695778
 10
971.0284772005014
 20
71.78808988695778
 10
971.0284772005014
 20
71.78808988695778
 10
971.4517573613628
 20
73.08783522449019
 10
971.4517573613628
 20
73.08783522449019
 10
971.7940266091862
 20
74.17753987060073
 10
972.0844458970603
 20
74.76258149188186
 10
972.3333926559915
 20
75.20367810239571
 10
972.579698563304
 20
75.64514666384179
 10
973.0671774550653
 20
76.07880425571142
 10
973.5728075523182
 20
76.22434865548715
 97
        1
330
249E
 92
        1
 93
        1
 72
     4
 94
        3
 73
     0
 74
     1
 95
       32
 96
       28
 40
0.0
 40
0.0
 40
0.0
 40
0.0
 40
1.0
 40
1.0
 40
1.0
 40
2.0
 40
2.0
 40
2.0
 40
3.0
 40
3.0
 40
3.0
 40
4.0
 40
4.0
 40
4.0
 40
5.0
 40
5.0
 40
5.0
 40
6.0
 40
6.0
 40
6.0
 40
7.0
 40
7.0
 40
7.0
 40
8.0
 40
8.0
 40
8.0
 40
9.0
 40
9.0
 40
9.0
 40
9.0
 10
975.760585740514
 20
71.22123666626197
 10
975.2193227439554
 20
70.52111342655351
 10
974.8025145293147
 20
69.89102854738113
 10
974.1277211480899
 20
67.91065019898832
 10
973.5073441882485
 20
66.09917476891434
 10
973.1125554687958
 20
64.78127822588988
 10
973.0529317343623
 20
63.17623556319532
 10
973.007553720631
 20
61.98182672966618
 10
973.7348665734851
 20
61.58153313641628
 10
974.801249896145
 20
61.58153313641628
 10
975.2608324679911
 20
61.58153313641628
 10
976.420575474637
 20
61.61076847968843
 10
977.2464553245279
 20
62.6316993984324
 10
977.8246158535619
 20
63.34896957611602
 10
978.3574727590537
 20
64.092499489614
 10
979.0718417194655
 20
66.53153053252123
 10
979.6662936993323
 20
68.57056554292433
 10
980.0778946009211
 20
69.88842489085562
 10
980.0474690146664
 20
70.63876150641318
 10
980.0474690146664
 20
70.63876150641318
 10
980.0474690146664
 20
70.63876150641318
 10
980.0474690146664
 20
70.63876150641318
 10
979.8536081887958
 20
71.89052517368981
 10
978.9447832810217
 20
72.155019481588
 10
978.4255397796494
 20
72.155019481588
 10
977.914107247853
 20
72.155019481588
 10
976.5436912332004
 20
72.24350660836194
 10
975.760585740514
 20
71.22123666626197
 97
        1
330
24A1
 92
        1
 93
        1
 72
     4
 94
        3
 73
     0
 74
     1
 95
       38
 96
       34
 40
0.0
 40
0.0
 40
0.0
 40
0.0
 40
1.0
 40
1.0
 40
1.0
 40
2.0
 40
2.0
 40
2.0
 40
3.0
 40
3.0
 40
3.0
 40
4.0
 40
4.0
 40
4.0
 40
5.0
 40
5.0
 40
5.0
 40
6.0
 40
6.0
 40
6.0
 40
7.0
 40
7.0
 40
7.0
 40
8.0
 40
8.0
 40
8.0
 40
9.0
 40
9.0
 40
9.0
 40
10.0
 40
10.0
 40
10.0
 40
11.0
 40
11.0
 40
11.0
 40
11.0
 10
983.3346969633965
 20
71.75212223181256
 10
983.3346969633965
 20
71.75212223181256
 10
984.2590694201378
 20
71.75212223181256
 10
984.2590694201378
 20
71.75212223181256
 10
984.2590694201378
 20
71.75212223181256
 10
983.8461294951928
 20
70.43002264325406
 10
983.8461294951928
 20
70.43002264325406
 10
984.1599073016093
 20
70.80115528341824
 10
984.6551227727603
 20
71.29544087723889
 10
985.080411468655
 20
71.54468519691622
 10
985.7157036608785
 20
71.9158178370804
 10
986.0787277707202
 20
71.96476657975995
 10
986.4779799013602
 20
71.9550214653359
 10
986.4779799013602
 20
71.9550214653359
 10
986.0878033734668
 20
70.70489438216094
 10
986.0878033734668
 20
70.70489438216094
 10
985.8336864965765
 20
70.81249978685082
 10
985.0505810038919
 20
70.60766640847999
 10
984.6013386679622
 20
70.28451543857147
 10
984.196209712594
 20
69.9931290782742
 10
983.9161306606354
 20
69.74518658685963
 10
983.584276038913
 20
69.12187121465354
 10
983.2549506835301
 20
68.49762596511695
 10
982.9950313720981
 20
67.50224807541616
 10
982.5477231810162
 20
66.05826016637073
 10
982.5477231810162
 20
66.05826016637073
 10
981.1507498698027
 20
61.58153313641628
 10
981.1507498698027
 20
61.58153313641628
 10
981.1507498698027
 20
61.58153313641628
 10
980.2536042212994
 20
61.58153313641628
 10
980.2536042212994
 20
61.58153313641628
 10
980.2536042212994
 20
61.58153313641628
 10
983.3346969633965
 20
71.75212223181256
 10
983.3346969633965
 20
71.75212223181256
 97
        1
330
249F
 92
        1
 93
        1
 72
     4
 94
        3
 73
     0
 74
     1
 95
      104
 96
      100
 40
0.0
 40
0.0
 40
0.0
 40
0.0
 40
1.0
 40
1.0
 40
1.0
 40
2.0
 40
2.0
 40
2.0
 40
3.0
 40
3.0
 40
3.0
 40
4.0
 40
4.0
 40
4.0
 40
5.0
 40
5.0
 40
5.0
 40
6.0
 40
6.0
 40
6.0
 40
7.0
 40
7.0
 40
7.0
 40
8.0
 40
8.0
 40
8.0
 40
9.0
 40
9.0
 40
9.0
 40
10.0
 40
10.0
 40
10.0
 40
11.0
 40
11.0
 40
11.0
 40
12.0
 40
12.0
 40
12.0
 40
13.0
 40
13.0
 40
13.0
 40
14.0
 40
14.0
 40
14.0
 40
15.0
 40
15.0
 40
15.0
 40
16.0
 40
16.0
 40
16.0
 40
17.0
 40
17.0
 40
17.0
 40
18.0
 40
18.0
 40
18.0
 40
19.0
 40
19.0
 40
19.0
 40
20.0
 40
20.0
 40
20.0
 40
21.0
 40
21.0
 40
21.0
 40
22.0
 40
22.0
 40
22.0
 40
23.0
 40
23.0
 40
23.0
 40
24.0
 40
24.0
 40
24.0
 40
25.0
 40
25.0
 40
25.0
 40
26.0
 40
26.0
 40
26.0
 40
27.0
 40
27.0
 40
27.0
 40
28.0
 40
28.0
 40
28.0
 40
29.0
 40
29.0
 40
29.0
 40
30.0
 40
30.0
 40
30.0
 40
31.0
 40
31.0
 40
31.0
 40
32.0
 40
32.0
 40
32.0
 40
33.0
 40
33.0
 40
33.0
 40
33.0
 10
988.4227625455403
 20
71.75762710560934
 10
988.4227625455403
 20
71.75762710560934
 10
989.2298216782599
 20
71.75762710560934
 10
989.2298216782599
 20
71.75762710560934
 10
989.2298216782599
 20
71.75762710560934
 10
988.8220890663658
 20
70.43426288388127
 10
988.8220890663658
 20
70.43426288388127
 10
989.1759631832754
 20
70.98913928455974
 10
989.4936092793876
 20
71.23644945938958
 10
989.9156248070792
 20
71.55602970034877
 10
990.3389049679397
 20
71.87107213993494
 10
990.841336287175
 20
71.93527087083527
 10
991.19007748122
 20
71.93527087083527
 10
991.6218381233355
 20
71.93527087083527
 10
992.0386463379762
 20
71.85001971717159
 10
992.2577254370497
 20
71.37678654611435
 10
992.4256240878528
 20
71.00569110104331
 10
992.4334350574288
 20
70.96191247632157
 10
992.3854533871734
 20
70.22939231041721
 10
992.8242810970003
 20
70.9803984376527
 10
993.1483991393322
 20
71.30388416340014
 10
993.6994072503155
 20
71.6146863623591
 10
994.2776421695378
 20
71.93527087083527
 10
994.6147041043112
 20
71.95926170596317
 10
995.0062940457472
 20
71.90153492128334
 10
995.5831899416123
 20
71.8163209627129
 10
995.9514213645059
 20
71.61048331682503
 10
996.1439431670203
 20
70.98493623902573
 10
996.3371344812128
 20
70.3613233060739
 10
996.2327650496334
 20
70.02682783273289
 10
995.9941957217104
 20
69.03405359955758
 10
995.8852884887581
 20
68.58191004635688
 10
995.7277300738713
 20
68.03443546922952
 10
995.5215948672374
 20
67.38300060654797
 10
995.5215948672374
 20
67.38300060654797
 10
993.6994072503155
 20
61.58153313641628
 10
993.6994072503155
 20
61.58153313641628
 10
993.6994072503155
 20
61.58153313641628
 10
992.7516762750327
 20
61.58153313641628
 10
992.7516762750327
 20
61.58153313641628
 10
992.7516762750327
 20
61.58153313641628
 10
994.3470482134887
 20
66.65338165791485
 10
994.3470482134887
 20
66.65338165791485
 10
994.6802418585673
 20
67.71455766752453
 10
994.9057929038624
 20
68.48951743479464
 10
995.0225111063917
 20
68.97539693754726
 10
995.1689853834976
 20
69.58149098159171
 10
995.2273072896694
 20
69.78148899784378
 10
995.157975635904
 20
70.22262280345092
 10
995.0944464166821
 20
70.63325663261634
 10
994.886972186692
 20
70.9006521577858
 10
994.5317590464272
 20
70.9006521577858
 10
994.1531873876181
 20
70.9006521577858
 10
993.8465510391004
 20
70.85851011716579
 10
993.4174684436964
 20
70.42745618182173
 10
992.9883114581078
 20
69.9931290782742
 10
992.6336934393337
 20
69.48329593548695
 10
992.3556229224093
 20
68.8969524859431
 10
992.0781475269766
 20
68.30703830744997
 10
991.7968038418492
 20
67.55930534841795
 10
991.5115918670269
 20
66.65338165791485
 10
991.5115918670269
 20
66.65338165791485
 10
989.9156248070792
 20
61.58153313641628
 10
989.9156248070792
 20
61.58153313641628
 10
989.9156248070792
 20
61.58153313641628
 10
989.0242815931185
 20
61.58153313641628
 10
989.0242815931185
 20
61.58153313641628
 10
989.0242815931185
 20
61.58153313641628
 10
990.8490728665654
 20
67.38039695002249
 10
990.8490728665654
 20
67.38039695002249
 10
991.0415946690798
 20
67.99753793675379
 10
991.1862091915252
 20
68.50056437748145
 10
991.281503020359
 20
68.89371651283278
 10
991.4435248464313
 20
69.57048123399818
 10
991.4889028601626
 20
70.0281296609956
 10
991.3663822230899
 20
70.43426288388127
 10
991.2457957308659
 20
70.83909427850418
 10
991.0338580896903
 20
70.94249663765996
 10
990.6799095825943
 20
70.94249663765996
 10
990.3830183485004
 20
70.94249663765996
 10
990.0932685723044
 20
70.81510344337633
 10
989.7626785837517
 20
70.56161888307173
 10
989.3464654906027
 20
70.24270815379049
 10
989.1799058631566
 20
69.98081750241784
 10
988.9757048013705
 20
69.66964335252672
 10
988.7001635507856
 20
69.25800525584427
 10
988.571170967494
 20
68.98090181134404
 10
988.3384784643001
 20
68.37283642735878
 10
988.1057115709198
 20
67.76120031442431
 10
987.8853678386756
 20
67.04943501053751
 10
987.7316777134836
 20
66.55712075665758
 10
987.7316777134836
 20
66.55712075665758
 10
986.1662106299771
 20
61.58153313641628
 10
986.1662106299771
 20
61.58153313641628
 10
986.1662106299771
 20
61.58153313641628
 10
985.2327625704909
 20
61.58153313641628
 10
985.2327625704909
 20
61.58153313641628
 10
985.2327625704909
 20
61.58153313641628
 10
988.4227625455403
 20
71.75762710560934
 10
988.4227625455403
 20
71.75762710560934
 97
        1
330
24A0
 92
       16
 93
        1
 72
     4
 94
        3
 73
     0
 74
     1
 95
       29
 96
       25
 40
0.0
 40
0.0
 40
0.0
 40
0.0
 40
1.0
 40
1.0
 40
1.0
 40
2.0
 40
2.0
 40
2.0
 40
3.0
 40
3.0
 40
3.0
 40
4.0
 40
4.0
 40
4.0
 40
5.0
 40
5.0
 40
5.0
 40
6.0
 40
6.0
 40
6.0
 40
7.0
 40
7.0
 40
7.0
 40
8.0
 40
8.0
 40
8.0
 40
8.0
 10
974.0214175716626
 20
63.47632557530645
 10
974.0174748917814
 20
64.18489210117616
 10
974.241166182416
 20
65.44379722635136
 10
974.8141937885864
 20
67.12821421798066
 10
975.594695624746
 20
69.4090545294168
 10
976.0627586778462
 20
70.24270815379049
 10
976.4723510444016
 20
70.64850662083717
 10
977.0707457041487
 20
71.23938787175408
 10
977.8752011803442
 20
71.2688463855855
 10
978.1125058750974
 20
71.23938787175408
 10
978.450237321548
 20
71.19884522014263
 10
978.9273015872075
 20
70.97779478112719
 10
978.9557930286153
 20
70.23363255104445
 10
978.978556425667
 20
69.59674096981257
 10
978.7950358357118
 20
68.4039687203852
 10
978.152676575776
 20
66.53153053252123
 10
977.4123454402959
 20
64.35569196924934
 10
976.967640905739
 20
63.50035360552755
 10
976.6111631323035
 20
63.12758438126156
 10
975.9395685290963
 20
62.42876296981586
 10
975.2193227439554
 20
62.49586291798744
 10
975.1130191675281
 20
62.49586291798744
 10
974.9749509814899
 20
62.49586291798744
 10
974.0233517165104
 20
62.64568475348372
 10
974.0214175716626
 20
63.47632557530645
 97
        1
330
24A2
 75
     0
 76
     1
 98
        1
 10
929.7307651966601
 20
36.16262959939627
1001
ACAD
1010
0.0
1020
0.0
1030
0.0
  0
POLYLINE
  5
2493
102
{ACAD_REACTORS
330
2492
330
24A3
102
}
330
A
100
AcDbEntity
  8
TEMPLATE
100
AcDb2dPolyline
 66
     1
 10
0.0
 20
0.0
 30
0.0
  0
VERTEX
  5
2494
330
2493
100
AcDbEntity
  8
TEMPLATE
100
AcDbVertex
100
AcDb2dVertex
 10
967.3017148351717
 20
76.58153313569332
 30
0.0
  0
VERTEX
  5
2495
330
2493
100
AcDbEntity
  8
TEMPLATE
100
AcDbVertex
100
AcDb2dVertex
 10
967.3017148351717
 20
73.6268293203631
 30
0.0
  0
VERTEX
  5
2496
330
2493
100
AcDbEntity
  8
TEMPLATE
100
AcDbVertex
100
AcDb2dVertex
 10
962.6214190600165
 20
73.6268293203631
 30
0.0
  0
VERTEX
  5
2497
330
2493
100
AcDbEntity
  8
TEMPLATE
100
AcDbVertex
100
AcDb2dVertex
 10
962.6214190600165
 20
61.58153313641628
 30
0.0
  0
VERTEX
  5
2498
330
2493
100
AcDbEntity
  8
TEMPLATE
100
AcDbVertex
100
AcDb2dVertex
 10
958.5051124833788
 20
61.58153313641628
 30
0.0
  0
VERTEX
  5
2499
330
2493
100
AcDbEntity
  8
TEMPLATE
100
AcDbVertex
100
AcDb2dVertex
 10
958.5051124833788
 20
73.6268293203631
 30
0.0
  0
VERTEX
  5
249A
330
2493
100
AcDbEntity
  8
TEMPLATE
100
AcDbVertex
100
AcDb2dVertex
 10
953.9077617661067
 20
73.6268293203631
 30
0.0
  0
VERTEX
  5
249B
330
2493
100
AcDbEntity
  8
TEMPLATE
100
AcDbVertex
100
AcDb2dVertex
 10
953.9077617661067
 20
76.58153313569332
 30
0.0
  0
VERTEX
  5
249C
330
2493
100
AcDbEntity
  8
TEMPLATE
100
AcDbVertex
100
AcDb2dVertex
 10
967.3017148351717
 20
76.58153313569332
 30
0.0
  0
SEQEND
  5
249D
330
2493
100
AcDbEntity
  8
TEMPLATE
  0
SPLINE
  5
249E
102
{ACAD_REACTORS
330
2492
330
24A3
102
}
330
A
100
AcDbEntity
  8
TEMPLATE
100
AcDbSpline
210
0.0
220
0.0
230
1.0
 70
    11
 71
     3
 72
    56
 73
    52
 74
     0
 42
0.000000001
 43
0.0000000001
 40
0.0
 40
0.0
 40
0.0
 40
0.0
 40
1.0
 40
1.0
 40
1.0
 40
2.0
 40
2.0
 40
2.0
 40
3.0
 40
3.0
 40
3.0
 40
4.0
 40
4.0
 40
4.0
 40
5.0
 40
5.0
 40
5.0
 40
6.0
 40
6.0
 40
6.0
 40
7.0
 40
7.0
 40
7.0
 40
8.0
 40
8.0
 40
8.0
 40
9.0
 40
9.0
 40
9.0
 40
10.0
 40
10.0
 40
10.0
 40
11.0
 40
11.0
 40
11.0
 40
12.0
 40
12.0
 40
12.0
 40
13.0
 40
13.0
 40
13.0
 40
14.0
 40
14.0
 40
14.0
 40
15.0
 40
15.0
 40
15.0
 40
16.0
 40
16.0
 40
16.0
 40
17.0
 40
17.0
 40
17.0
 40
17.0
 10
973.5728075523182
 20
76.22434865548715
 30
0.0
 10
974.1497406432779
 20
76.38674243249227
 30
0.0
 10
974.8945351899454
 20
76.2509059520473
 30
0.0
 10
974.8945351899454
 20
76.2509059520473
 30
0.0
 10
974.8945351899454
 20
76.2509059520473
 30
0.0
 10
974.5367183931537
 20
75.17712080583556
 30
0.0
 10
974.5367183931537
 20
75.17712080583556
 30
0.0
 10
974.5367183931537
 20
75.17712080583556
 30
0.0
 10
973.8055372506058
 20
75.3463212849002
 30
0.0
 10
973.2415852471802
 20
74.90161675034386
 30
0.0
 10
972.8033526588458
 20
74.55384262872275
 30
0.0
 10
972.5194425122852
 20
73.6297677327276
 30
0.0
 10
972.4105352793329
 20
73.2784228821572
 30
0.0
 10
972.4105352793329
 20
73.2784228821572
 30
0.0
 10
971.9249905324193
 20
71.78808988695778
 30
0.0
 10
971.9249905324193
 20
71.78808988695778
 30
0.0
 10
971.9249905324193
 20
71.78808988695778
 30
0.0
 10
973.5170521075795
 20
71.78808988695778
 30
0.0
 10
973.5170521075795
 20
71.78808988695778
 30
0.0
 10
973.5170521075795
 20
71.78808988695778
 30
0.0
 10
973.2694443720036
 20
70.85010402609774
 30
0.0
 10
973.2694443720036
 20
70.85010402609774
 30
0.0
 10
973.2694443720036
 20
70.85010402609774
 30
0.0
 10
971.6644017093092
 20
70.85010402609774
 30
0.0
 10
971.6644017093092
 20
70.85010402609774
 30
0.0
 10
971.6644017093092
 20
70.85010402609774
 30
0.0
 10
968.7926801469564
 20
61.58153313641628
 30
0.0
 10
968.7926801469564
 20
61.58153313641628
 30
0.0
 10
968.7926801469564
 20
61.58153313641628
 30
0.0
 10
967.8935631585125
 20
61.58153313641628
 30
0.0
 10
967.8935631585125
 20
61.58153313641628
 30
0.0
 10
967.8935631585125
 20
61.58153313641628
 30
0.0
 10
970.7678883773913
 20
70.85010402609774
 30
0.0
 10
970.7678883773913
 20
70.85010402609774
 30
0.0
 10
970.7678883773913
 20
70.85010402609774
 30
0.0
 10
969.5835222190324
 20
70.85010402609774
 30
0.0
 10
969.5835222190324
 20
70.85010402609774
 30
0.0
 10
969.5835222190324
 20
70.85010402609774
 30
0.0
 10
969.8317994662855
 20
71.78808988695778
 30
0.0
 10
969.8317994662855
 20
71.78808988695778
 30
0.0
 10
969.8317994662855
 20
71.78808988695778
 30
0.0
 10
971.0284772005014
 20
71.78808988695778
 30
0.0
 10
971.0284772005014
 20
71.78808988695778
 30
0.0
 10
971.0284772005014
 20
71.78808988695778
 30
0.0
 10
971.4517573613628
 20
73.08783522449019
 30
0.0
 10
971.4517573613628
 20
73.08783522449019
 30
0.0
 10
971.7940266091862
 20
74.17753987060073
 30
0.0
 10
972.0844458970603
 20
74.76258149188186
 30
0.0
 10
972.3333926559915
 20
75.20367810239571
 30
0.0
 10
972.579698563304
 20
75.64514666384179
 30
0.0
 10
973.0671774550653
 20
76.07880425571142
 30
0.0
 10
973.5728075523182
 20
76.22434865548715
 30
0.0
  0
SPLINE
  5
249F
102
{ACAD_REACTORS
330
2492
330
24A3
102
}
330
A
100
AcDbEntity
  8
TEMPLATE
100
AcDbSpline
210
0.0
220
0.0
230
1.0
 70
    11
 71
     3
 72
    38
 73
    34
 74
     0
 42
0.000000001
 43
0.0000000001
 40
0.0
 40
0.0
 40
0.0
 40
0.0
 40
1.0
 40
1.0
 40
1.0
 40
2.0
 40
2.0
 40
2.0
 40
3.0
 40
3.0
 40
3.0
 40
4.0
 40
4.0
 40
4.0
 40
5.0
 40
5.0
 40
5.0
 40
6.0
 40
6.0
 40
6.0
 40
7.0
 40
7.0
 40
7.0
 40
8.0
 40
8.0
 40
8.0
 40
9.0
 40
9.0
 40
9.0
 40
10.0
 40
10.0
 40
10.0
 40
11.0
 40
11.0
 40
11.0
 40
11.0
 10
983.3346969633965
 20
71.75212223181256
 30
0.0
 10
983.3346969633965
 20
71.75212223181256
 30
0.0
 10
984.2590694201378
 20
71.75212223181256
 30
0.0
 10
984.2590694201378
 20
71.75212223181256
 30
0.0
 10
984.2590694201378
 20
71.75212223181256
 30
0.0
 10
983.8461294951928
 20
70.43002264325406
 30
0.0
 10
983.8461294951928
 20
70.43002264325406
 30
0.0
 10
984.1599073016093
 20
70.80115528341824
 30
0.0
 10
984.6551227727603
 20
71.29544087723889
 30
0.0
 10
985.080411468655
 20
71.54468519691622
 30
0.0
 10
985.7157036608785
 20
71.9158178370804
 30
0.0
 10
986.0787277707202
 20
71.96476657975995
 30
0.0
 10
986.4779799013602
 20
71.9550214653359
 30
0.0
 10
986.4779799013602
 20
71.9550214653359
 30
0.0
 10
986.0878033734668
 20
70.70489438216094
 30
0.0
 10
986.0878033734668
 20
70.70489438216094
 30
0.0
 10
985.8336864965765
 20
70.81249978685082
 30
0.0
 10
985.0505810038919
 20
70.60766640847999
 30
0.0
 10
984.6013386679622
 20
70.28451543857147
 30
0.0
 10
984.196209712594
 20
69.9931290782742
 30
0.0
 10
983.9161306606354
 20
69.74518658685963
 30
0.0
 10
983.584276038913
 20
69.12187121465354
 30
0.0
 10
983.2549506835301
 20
68.49762596511695
 30
0.0
 10
982.9950313720981
 20
67.50224807541616
 30
0.0
 10
982.5477231810162
 20
66.05826016637073
 30
0.0
 10
982.5477231810162
 20
66.05826016637073
 30
0.0
 10
981.1507498698027
 20
61.58153313641628
 30
0.0
 10
981.1507498698027
 20
61.58153313641628
 30
0.0
 10
981.1507498698027
 20
61.58153313641628
 30
0.0
 10
980.2536042212994
 20
61.58153313641628
 30
0.0
 10
980.2536042212994
 20
61.58153313641628
 30
0.0
 10
980.2536042212994
 20
61.58153313641628
 30
0.0
 10
983.3346969633965
 20
71.75212223181256
 30
0.0
 10
983.3346969633965
 20
71.75212223181256
 30
0.0
  0
SPLINE
  5
24A0
102
{ACAD_REACTORS
330
2492
330
24A3
102
}
330
A
100
AcDbEntity
  8
TEMPLATE
100
AcDbSpline
210
0.0
220
0.0
230
1.0
 70
    11
 71
     3
 72
   104
 73
   100
 74
     0
 42
0.000000001
 43
0.0000000001
 40
0.0
 40
0.0
 40
0.0
 40
0.0
 40
1.0
 40
1.0
 40
1.0
 40
2.0
 40
2.0
 40
2.0
 40
3.0
 40
3.0
 40
3.0
 40
4.0
 40
4.0
 40
4.0
 40
5.0
 40
5.0
 40
5.0
 40
6.0
 40
6.0
 40
6.0
 40
7.0
 40
7.0
 40
7.0
 40
8.0
 40
8.0
 40
8.0
 40
9.0
 40
9.0
 40
9.0
 40
10.0
 40
10.0
 40
10.0
 40
11.0
 40
11.0
 40
11.0
 40
12.0
 40
12.0
 40
12.0
 40
13.0
 40
13.0
 40
13.0
 40
14.0
 40
14.0
 40
14.0
 40
15.0
 40
15.0
 40
15.0
 40
16.0
 40
16.0
 40
16.0
 40
17.0
 40
17.0
 40
17.0
 40
18.0
 40
18.0
 40
18.0
 40
19.0
 40
19.0
 40
19.0
 40
20.0
 40
20.0
 40
20.0
 40
21.0
 40
21.0
 40
21.0
 40
22.0
 40
22.0
 40
22.0
 40
23.0
 40
23.0
 40
23.0
 40
24.0
 40
24.0
 40
24.0
 40
25.0
 40
25.0
 40
25.0
 40
26.0
 40
26.0
 40
26.0
 40
27.0
 40
27.0
 40
27.0
 40
28.0
 40
28.0
 40
28.0
 40
29.0
 40
29.0
 40
29.0
 40
30.0
 40
30.0
 40
30.0
 40
31.0
 40
31.0
 40
31.0
 40
32.0
 40
32.0
 40
32.0
 40
33.0
 40
33.0
 40
33.0
 40
33.0
 10
988.4227625455403
 20
71.75762710560934
 30
0.0
 10
988.4227625455403
 20
71.75762710560934
 30
0.0
 10
989.2298216782599
 20
71.75762710560934
 30
0.0
 10
989.2298216782599
 20
71.75762710560934
 30
0.0
 10
989.2298216782599
 20
71.75762710560934
 30
0.0
 10
988.8220890663658
 20
70.43426288388127
 30
0.0
 10
988.8220890663658
 20
70.43426288388127
 30
0.0
 10
989.1759631832754
 20
70.98913928455974
 30
0.0
 10
989.4936092793876
 20
71.23644945938958
 30
0.0
 10
989.9156248070792
 20
71.55602970034877
 30
0.0
 10
990.3389049679397
 20
71.87107213993494
 30
0.0
 10
990.841336287175
 20
71.93527087083527
 30
0.0
 10
991.19007748122
 20
71.93527087083527
 30
0.0
 10
991.6218381233355
 20
71.93527087083527
 30
0.0
 10
992.0386463379762
 20
71.85001971717159
 30
0.0
 10
992.2577254370497
 20
71.37678654611435
 30
0.0
 10
992.4256240878528
 20
71.00569110104331
 30
0.0
 10
992.4334350574288
 20
70.96191247632157
 30
0.0
 10
992.3854533871734
 20
70.22939231041721
 30
0.0
 10
992.8242810970003
 20
70.9803984376527
 30
0.0
 10
993.1483991393322
 20
71.30388416340014
 30
0.0
 10
993.6994072503155
 20
71.6146863623591
 30
0.0
 10
994.2776421695378
 20
71.93527087083527
 30
0.0
 10
994.6147041043112
 20
71.95926170596317
 30
0.0
 10
995.0062940457472
 20
71.90153492128334
 30
0.0
 10
995.5831899416123
 20
71.8163209627129
 30
0.0
 10
995.9514213645059
 20
71.61048331682503
 30
0.0
 10
996.1439431670203
 20
70.98493623902573
 30
0.0
 10
996.3371344812128
 20
70.3613233060739
 30
0.0
 10
996.2327650496334
 20
70.02682783273289
 30
0.0
 10
995.9941957217104
 20
69.03405359955758
 30
0.0
 10
995.8852884887581
 20
68.58191004635688
 30
0.0
 10
995.7277300738713
 20
68.03443546922952
 30
0.0
 10
995.5215948672374
 20
67.38300060654797
 30
0.0
 10
995.5215948672374
 20
67.38300060654797
 30
0.0
 10
993.6994072503155
 20
61.58153313641628
 30
0.0
 10
993.6994072503155
 20
61.58153313641628
 30
0.0
 10
993.6994072503155
 20
61.58153313641628
 30
0.0
 10
992.7516762750327
 20
61.58153313641628
 30
0.0
 10
992.7516762750327
 20
61.58153313641628
 30
0.0
 10
992.7516762750327
 20
61.58153313641628
 30
0.0
 10
994.3470482134887
 20
66.65338165791485
 30
0.0
 10
994.3470482134887
 20
66.65338165791485
 30
0.0
 10
994.6802418585673
 20
67.71455766752453
 30
0.0
 10
994.9057929038624
 20
68.48951743479464
 30
0.0
 10
995.0225111063917
 20
68.97539693754726
 30
0.0
 10
995.1689853834976
 20
69.58149098159171
 30
0.0
 10
995.2273072896694
 20
69.78148899784378
 30
0.0
 10
995.157975635904
 20
70.22262280345092
 30
0.0
 10
995.0944464166821
 20
70.63325663261634
 30
0.0
 10
994.886972186692
 20
70.9006521577858
 30
0.0
 10
994.5317590464272
 20
70.9006521577858
 30
0.0
 10
994.1531873876181
 20
70.9006521577858
 30
0.0
 10
993.8465510391004
 20
70.85851011716579
 30
0.0
 10
993.4174684436964
 20
70.42745618182173
 30
0.0
 10
992.9883114581078
 20
69.9931290782742
 30
0.0
 10
992.6336934393337
 20
69.48329593548695
 30
0.0
 10
992.3556229224093
 20
68.8969524859431
 30
0.0
 10
992.0781475269766
 20
68.30703830744997
 30
0.0
 10
991.7968038418492
 20
67.55930534841795
 30
0.0
 10
991.5115918670269
 20
66.65338165791485
 30
0.0
 10
991.5115918670269
 20
66.65338165791485
 30
0.0
 10
989.9156248070792
 20
61.58153313641628
 30
0.0
 10
989.9156248070792
 20
61.58153313641628
 30
0.0
 10
989.9156248070792
 20
61.58153313641628
 30
0.0
 10
989.0242815931185
 20
61.58153313641628
 30
0.0
 10
989.0242815931185
 20
61.58153313641628
 30
0.0
 10
989.0242815931185
 20
61.58153313641628
 30
0.0
 10
990.8490728665654
 20
67.38039695002249
 30
0.0
 10
990.8490728665654
 20
67.38039695002249
 30
0.0
 10
991.0415946690798
 20
67.99753793675379
 30
0.0
 10
991.1862091915252
 20
68.50056437748145
 30
0.0
 10
991.281503020359
 20
68.89371651283278
 30
0.0
 10
991.4435248464313
 20
69.57048123399818
 30
0.0
 10
991.4889028601626
 20
70.0281296609956
 30
0.0
 10
991.3663822230899
 20
70.43426288388127
 30
0.0
 10
991.2457957308659
 20
70.83909427850418
 30
0.0
 10
991.0338580896903
 20
70.94249663765996
 30
0.0
 10
990.6799095825943
 20
70.94249663765996
 30
0.0
 10
990.3830183485004
 20
70.94249663765996
 30
0.0
 10
990.0932685723044
 20
70.81510344337633
 30
0.0
 10
989.7626785837517
 20
70.56161888307173
 30
0.0
 10
989.3464654906027
 20
70.24270815379049
 30
0.0
 10
989.1799058631566
 20
69.98081750241784
 30
0.0
 10
988.9757048013705
 20
69.66964335252672
 30
0.0
 10
988.7001635507856
 20
69.25800525584427
 30
0.0
 10
988.571170967494
 20
68.98090181134404
 30
0.0
 10
988.3384784643001
 20
68.37283642735878
 30
0.0
 10
988.1057115709198
 20
67.76120031442431
 30
0.0
 10
987.8853678386756
 20
67.04943501053751
 30
0.0
 10
987.7316777134836
 20
66.55712075665758
 30
0.0
 10
987.7316777134836
 20
66.55712075665758
 30
0.0
 10
986.1662106299771
 20
61.58153313641628
 30
0.0
 10
986.1662106299771
 20
61.58153313641628
 30
0.0
 10
986.1662106299771
 20
61.58153313641628
 30
0.0
 10
985.2327625704909
 20
61.58153313641628
 30
0.0
 10
985.2327625704909
 20
61.58153313641628
 30
0.0
 10
985.2327625704909
 20
61.58153313641628
 30
0.0
 10
988.4227625455403
 20
71.75762710560934
 30
0.0
 10
988.4227625455403
 20
71.75762710560934
 30
0.0
  0
SPLINE
  5
24A1
102
{ACAD_REACTORS
330
2492
330
24A3
102
}
330
A
100
AcDbEntity
  8
TEMPLATE
100
AcDbSpline
210
0.0
220
0.0
230
1.0
 70
    11
 71
     3
 72
    32
 73
    28
 74
     0
 42
0.000000001
 43
0.0000000001
 40
0.0
 40
0.0
 40
0.0
 40
0.0
 40
1.0
 40
1.0
 40
1.0
 40
2.0
 40
2.0
 40
2.0
 40
3.0
 40
3.0
 40
3.0
 40
4.0
 40
4.0
 40
4.0
 40
5.0
 40
5.0
 40
5.0
 40
6.0
 40
6.0
 40
6.0
 40
7.0
 40
7.0
 40
7.0
 40
8.0
 40
8.0
 40
8.0
 40
9.0
 40
9.0
 40
9.0
 40
9.0
 10
975.760585740514
 20
71.22123666626197
 30
0.0
 10
975.2193227439554
 20
70.52111342655351
 30
0.0
 10
974.8025145293147
 20
69.89102854738113
 30
0.0
 10
974.1277211480899
 20
67.91065019898832
 30
0.0
 10
973.5073441882485
 20
66.09917476891434
 30
0.0
 10
973.1125554687958
 20
64.78127822588988
 30
0.0
 10
973.0529317343623
 20
63.17623556319532
 30
0.0
 10
973.007553720631
 20
61.98182672966618
 30
0.0
 10
973.7348665734851
 20
61.58153313641628
 30
0.0
 10
974.801249896145
 20
61.58153313641628
 30
0.0
 10
975.2608324679911
 20
61.58153313641628
 30
0.0
 10
976.420575474637
 20
61.61076847968843
 30
0.0
 10
977.2464553245279
 20
62.6316993984324
 30
0.0
 10
977.8246158535619
 20
63.34896957611602
 30
0.0
 10
978.3574727590537
 20
64.092499489614
 30
0.0
 10
979.0718417194655
 20
66.53153053252123
 30
0.0
 10
979.6662936993323
 20
68.57056554292433
 30
0.0
 10
980.0778946009211
 20
69.88842489085562
 30
0.0
 10
980.0474690146664
 20
70.63876150641318
 30
0.0
 10
980.0474690146664
 20
70.63876150641318
 30
0.0
 10
980.0474690146664
 20
70.63876150641318
 30
0.0
 10
980.0474690146664
 20
70.63876150641318
 30
0.0
 10
979.8536081887958
 20
71.89052517368981
 30
0.0
 10
978.9447832810217
 20
72.155019481588
 30
0.0
 10
978.4255397796494
 20
72.155019481588
 30
0.0
 10
977.914107247853
 20
72.155019481588
 30
0.0
 10
976.5436912332004
 20
72.24350660836194
 30
0.0
 10
975.760585740514
 20
71.22123666626197
 30
0.0
  0
SPLINE
  5
24A2
102
{ACAD_REACTORS
330
2492
330
24A3
102
}
330
A
100
AcDbEntity
  8
TEMPLATE
100
AcDbSpline
210
0.0
220
0.0
230
1.0
 70
    11
 71
     3
 72
    29
 73
    25
 74
     0
 42
0.000000001
 43
0.0000000001
 40
0.0
 40
0.0
 40
0.0
 40
0.0
 40
1.0
 40
1.0
 40
1.0
 40
2.0
 40
2.0
 40
2.0
 40
3.0
 40
3.0
 40
3.0
 40
4.0
 40
4.0
 40
4.0
 40
5.0
 40
5.0
 40
5.0
 40
6.0
 40
6.0
 40
6.0
 40
7.0
 40
7.0
 40
7.0
 40
8.0
 40
8.0
 40
8.0
 40
8.0
 10
974.0214175716626
 20
63.47632557530645
 30
0.0
 10
974.0174748917814
 20
64.18489210117616
 30
0.0
 10
974.241166182416
 20
65.44379722635136
 30
0.0
 10
974.8141937885864
 20
67.12821421798066
 30
0.0
 10
975.594695624746
 20
69.4090545294168
 30
0.0
 10
976.0627586778462
 20
70.24270815379049
 30
0.0
 10
976.4723510444016
 20
70.64850662083717
 30
0.0
 10
977.0707457041487
 20
71.23938787175408
 30
0.0
 10
977.8752011803442
 20
71.2688463855855
 30
0.0
 10
978.1125058750974
 20
71.23938787175408
 30
0.0
 10
978.450237321548
 20
71.19884522014263
 30
0.0
 10
978.9273015872075
 20
70.97779478112719
 30
0.0
 10
978.9557930286153
 20
70.23363255104445
 30
0.0
 10
978.978556425667
 20
69.59674096981257
 30
0.0
 10
978.7950358357118
 20
68.4039687203852
 30
0.0
 10
978.152676575776
 20
66.53153053252123
 30
0.0
 10
977.4123454402959
 20
64.35569196924934
 30
0.0
 10
976.967640905739
 20
63.50035360552755
 30
0.0
 10
976.6111631323035
 20
63.12758438126156
 30
0.0
 10
975.9395685290963
 20
62.42876296981586
 30
0.0
 10
975.2193227439554
 20
62.49586291798744
 30
0.0
 10
975.1130191675281
 20
62.49586291798744
 30
0.0
 10
974.9749509814899
 20
62.49586291798744
 30
0.0
 10
974.0233517165104
 20
62.64568475348372
 30
0.0
 10
974.0214175716626
 20
63.47632557530645
 30
0.0
  0
INSERT
  5
353F
330
A
100
AcDbEntity
  8
TEMPLATE
100
AcDbBlockReference
  2
block 2
 10
3001.832022431623
 20
130.3662405293479
 30
0.0
 41
0.7619999999999998
 42
0.7619999999999998
 43
0.7619999999999998
  0
POINT
  5
363D
330
A
100
AcDbEntity
  8
_0-1_
 62
     7
100
AcDbPoint
 10
2030.555895545675
 20
1192.107828870368
 30
0.0
  0
POINT
  5
363E
330
A
100
AcDbEntity
  8
_0-1_
 62
     7
100
AcDbPoint
 10
2590.555895545675
 20
1192.107828870368
 30
0.0
  0
POINT
  5
3643
330
A
100
AcDbEntity
  8
_0-1_
 62
     7
100
AcDbPoint
 10
2797.514771453383
 20
1192.107828870368
 30
0.0
  0
POINT
  5
3644
330
A
100
AcDbEntity
  8
_0-1_
 62
     7
100
AcDbPoint
 10
2784.014770772557
 20
1192.107828870368
 30
0.0
  0
POINT
  5
3649
330
A
100
AcDbEntity
  8
_0-1_
 62
     7
100
AcDbPoint
 10
2847.514771453383
 20
1092.1078318506
 30
0.0
  0
POINT
  5
364A
330
A
100
AcDbEntity
  8
_0-1_
 62
     7
100
AcDbPoint
 10
2847.514771453383
 20
1142.107828870368
 30
0.0
  0
POINT
  5
364F
330
A
100
AcDbEntity
  8
_0-1_
 62
     7
100
AcDbPoint
 10
2673.214771009329
 20
1126.607837198775
 30
0.0
  0
POINT
  5
3650
330
A
100
AcDbEntity
  8
_0-1_
 62
     7
100
AcDbPoint
 10
2673.214771009329
 20
1107.607837198775
 30
0.0
  0
POINT
  5
3657
330
A
100
AcDbEntity
  8
_0-1_
 62
     7
100
AcDbPoint
 10
2665.555887217269
 20
852.0058944334177
 30
0.0
  0
POINT
  5
3658
330
A
100
AcDbEntity
  8
_0-1_
 62
     7
100
AcDbPoint
 10
2665.555887217269
 20
777.7058937525916
 30
0.0
  0
POINT
  5
365D
330
A
100
AcDbEntity
  8
_0-1_
 62
     7
100
AcDbPoint
 10
2449.53008641992
 20
792.2058937467535
 30
0.0
  0
POINT
  5
365E
330
A
100
AcDbEntity
  8
_0-1_
 62
     7
100
AcDbPoint
 10
2449.53008641992
 20
779.2058933039096
 30
0.0
  0
POINT
  5
36D3
330
A
100
AcDbEntity
  8
_0-1_
 62
     7
100
AcDbPoint
 10
2005.555895545675
 20
1232.107828870368
 30
0.0
  0
POINT
  5
36D4
330
A
100
AcDbEntity
  8
_0-1_
 62
     7
100
AcDbPoint
 10
2615.555895545675
 20
1232.107828870368
 30
0.0
  0
ARC
  5
3992
330
A
100
AcDbEntity
  8
MODEL
  6
Continuous
100
AcDbCircle
 10
765.3809778799442
 20
324.8714581900019
 30
0.0
 40
0.2066646288914804
100
AcDbArc
 50
55.12838791491698
 51
88.92674988621468
  0
LINE
  5
3993
330
A
100
AcDbEntity
  8
MODEL
  6
Continuous
100
AcDbLine
 10
726.7368083459443
 20
288.346261507602
 30
0.0
 11
726.7368083459443
 21
292.536613338002
 31
0.0
  0
LINE
  5
3994
330
A
100
AcDbEntity
  8
MODEL
  6
Continuous
100
AcDbLine
 10
726.7368083459443
 20
292.6915630848019
 30
0.0
 11
726.7368083459443
 21
293.1042124344019
 31
0.0
  0
LINE
  5
3995
330
A
100
AcDbEntity
  8
MODEL
  6
Continuous
100
AcDbLine
 10
726.7368083459443
 20
292.536613338002
 30
0.0
 11
726.7368083459443
 21
292.6915630848019
 31
0.0
  0
LINE
  5
3996
330
A
100
AcDbEntity
  8
MODEL
  6
Continuous
100
AcDbLine
 10
726.7368083459443
 20
321.214329472002
 30
0.0
 11
726.7368083459443
 21
320.8018029056019
 31
0.0
  0
LINE
  5
3997
330
A
100
AcDbEntity
  8
MODEL
  6
Continuous
100
AcDbLine
 10
726.7368083459443
 20
321.214329472002
 30
0.0
 11
726.7368083459443
 21
321.3692778848019
 31
0.0
  0
LINE
  5
3998
330
A
100
AcDbEntity
  8
MODEL
  6
Continuous
100
AcDbLine
 10
774.2368083459443
 20
320.871608469202
 30
0.0
 11
774.2368083459443
 21
320.7749965536019
 31
0.0
  0
LINE
  5
3999
330
A
100
AcDbEntity
  8
MODEL
  6
Continuous
100
AcDbLine
 10
774.2368083459443
 20
320.976815168002
 30
0.0
 11
774.2368083459443
 21
320.871608469202
 31
0.0
  0
ELLIPSE
  5
399A
330
A
100
AcDbEntity
  8
MODEL
  6
Continuous
100
AcDbEllipse
 10
774.0368083459435
 20
320.976815168002
 30
0.0
 11
-0.04046712625273981
 21
-0.1958632474274961
 31
0.0
210
0.0
220
0.0
230
1.0
 40
0.2318698334000001
 41
3.104228972234265
 42
3.141592653581228
  0
LINE
  5
399B
330
A
100
AcDbEntity
  8
MODEL
  6
Continuous
100
AcDbLine
 10
726.7368083459443
 20
325.559753832402
 30
0.0
 11
726.7368083459443
 21
321.3692778848019
 31
0.0
  0
LINE
  5
399C
102
{ACAD_REACTORS
330
3BD1
102
}
330
A
100
AcDbEntity
  8
MODEL
  6
Continuous
100
AcDbLine
 10
726.7368083459443
 20
288.346261507602
 30
0.0
 11
787.8671714059439
 21
289.093146944402
 31
0.0
  0
LINE
  5
399D
330
A
100
AcDbEntity
  8
MODEL
  6
Continuous
100
AcDbLine
 10
765.6612978555441
 20
325.084177819202
 30
0.0
 11
726.7368083459443
 21
325.559753832402
 31
0.0
  0
LINE
  5
399E
330
A
100
AcDbEntity
  8
MODEL
  6
Continuous
100
AcDbLine
 10
766.583790785544
 20
324.3605491592019
 30
0.0
 11
766.5833016779435
 21
324.416595322802
 31
0.0
  0
ARC
  5
399F
330
A
100
AcDbEntity
  8
MODEL
  6
Continuous
100
AcDbCircle
 10
765.6675871179442
 20
324.8840860496019
 30
0.0
 40
0.1999999992154176
100
AcDbArc
 50
32.20934260507631
 51
91.62786517867644
  0
ARC
  5
39A0
330
A
100
AcDbEntity
  8
MODEL
  6
Continuous
100
AcDbCircle
 10
769.8242774359443
 20
331.6042261720019
 30
0.0
 40
7.862160272562684
100
AcDbArc
 50
236.616886559493
 51
237.8466217302948
  0
ARC
  5
39A1
330
A
100
AcDbEntity
  8
MODEL
  6
Continuous
100
AcDbCircle
 10
779.5879672875436
 20
346.786325150002
 30
0.0
 40
25.91251257705114
100
AcDbArc
 50
237.4343001502
 51
238.2885319319005
  0
SPLINE
  5
39A2
330
A
100
AcDbEntity
  8
MODEL
  6
Continuous
100
AcDbSpline
210
0.0
220
0.0
230
1.0
 70
     8
 71
     3
 72
    13
 73
     9
 74
     0
 42
0.000000001
 43
0.0000000001
 40
0.0
 40
0.0
 40
0.0
 40
0.0
 40
0.1280167594981792
 40
0.2464128690960906
 40
0.3832569684030688
 40
0.6055427940078864
 40
0.874648310464628
 40
1.0
 40
1.0
 40
1.0
 40
1.0
 10
766.581225376017
 20
324.4204057276716
 30
0.0
 10
766.5757066220923
 20
324.4606427152311
 30
0.0
 10
766.5659150809189
 20
324.5264298712867
 30
0.0
 10
766.4977173583694
 20
324.6076609730821
 30
0.0
 10
766.4085418609003
 20
324.6665412201255
 30
0.0
 10
766.2751040524901
 20
324.7140708476414
 30
0.0
 10
766.1042321866581
 20
324.7479731266441
 30
0.0
 10
765.980258919507
 20
324.7582269962011
 30
0.0
 10
765.9366374593884
 20
324.7613506421523
 30
0.0
  0
ARC
  5
39A3
330
A
100
AcDbEntity
  8
MODEL
  6
Continuous
100
AcDbCircle
 10
777.6906467235441
 20
342.5492783776019
 30
0.0
 40
21.31266360763291
100
AcDbArc
 50
236.5818102160985
 51
239.7867462911981
  0
ARC
  5
39A4
330
A
100
AcDbEntity
  8
MODEL
  6
Continuous
100
AcDbCircle
 10
779.2323443951437
 20
344.5969054540019
 30
0.0
 40
23.85986027398625
100
AcDbArc
 50
239.0618460473991
 51
241.1957256491011
  0
SPLINE
  5
39A5
330
A
100
AcDbEntity
  8
MODEL
  6
Continuous
100
AcDbSpline
210
0.0
220
0.0
230
1.0
 70
     8
 71
     3
 72
    13
 73
     9
 74
     0
 42
0.000000001
 43
0.0000000001
 40
0.0
 40
0.0
 40
0.0
 40
0.0
 40
0.1400210524746767
 40
0.3251757912915229
 40
0.5267313307790511
 40
0.7572552183473543
 40
0.9766576252594031
 40
0.9999999999999999
 40
0.9999999999999999
 40
0.9999999999999999
 40
0.9999999999999999
 10
768.6333690217499
 20
323.2037078237348
 30
0.0
 10
768.6272931390359
 20
323.2516160614197
 30
0.0
 10
768.6080737030535
 20
323.3506105668504
 30
0.0
 10
768.4878281153216
 20
323.4860891826679
 30
0.0
 10
768.304819997572
 20
323.5955131455604
 30
0.0
 10
768.0554819229638
 20
323.6701559354452
 30
0.0
 10
767.8345290140325
 20
323.7006237380348
 30
0.0
 10
767.7291858744358
 20
323.6990094142626
 30
0.0
 10
767.718895754667
 20
323.6987372843432
 30
0.0
  0
ARC
  5
39A6
330
A
100
AcDbEntity
  8
MODEL
  6
Continuous
100
AcDbCircle
 10
777.3018845567441
 20
339.5440743316019
 30
0.0
 40
18.49731707002935
100
AcDbArc
 50
238.9378529301999
 51
245.226441245499
  0
ARC
  5
39A7
330
A
100
AcDbEntity
  8
MODEL
  6
Continuous
100
AcDbCircle
 10
776.2456641507434
 20
336.3339812792019
 30
0.0
 40
15.14497729265916
100
AcDbArc
 50
243.7655397995032
 51
248.0481984036002
  0
ARC
  5
39A8
330
A
100
AcDbEntity
  8
MODEL
  6
Continuous
100
AcDbCircle
 10
770.784477819144
 20
321.5313920652019
 30
0.0
 40
0.7762437398098392
100
AcDbArc
 50
81.3107888403302
 51
105.2683938868287
  0
SPLINE
  5
39A9
330
A
100
AcDbEntity
  8
MODEL
  6
Continuous
100
AcDbSpline
210
0.0
220
0.0
230
1.0
 70
     8
 71
     3
 72
    12
 73
     8
 74
     0
 42
0.000000001
 43
0.0000000001
 40
0.0
 40
0.0
 40
0.0
 40
0.0
 40
0.0965658928594637
 40
0.3733126183935701
 40
0.6527470167425484
 40
0.8951876276043657
 40
1.0
 40
1.0
 40
1.0
 40
1.0
 10
771.7333248813976
 20
321.8386054664037
 30
0.0
 10
771.724131596453
 20
321.8646565661019
 30
0.0
 10
771.6852244069497
 20
321.9581952971627
 30
0.0
 10
771.536233523747
 20
322.1052669615409
 30
0.0
 10
771.3044567325106
 20
322.2298835512216
 30
0.0
 10
771.072414818762
 20
322.2962575451536
 30
0.0
 10
770.9461058455355
 20
322.29829741934
 30
0.0
 10
770.9017485961905
 20
322.2987263525333
 30
0.0
  0
ARC
  5
39AA
330
A
100
AcDbEntity
  8
MODEL
  6
Continuous
100
AcDbCircle
 10
777.1615795147437
 20
336.6484651380019
 30
0.0
 40
15.7733272409221
100
AcDbArc
 50
245.5313531733989
 51
258.7347205521008
  0
ARC
  5
39AB
330
A
100
AcDbEntity
  8
MODEL
  6
Continuous
100
AcDbCircle
 10
774.0368083459435
 20
320.976815168002
 30
0.0
 40
0.199999999999992
100
AcDbArc
 50
0.0
 51
78.32642627496445
  0
LINE
  5
39AC
330
A
100
AcDbEntity
  8
MODEL
  6
Continuous
100
AcDbLine
 10
787.6368083459439
 20
1001.225021433202
 30
0.0
 11
787.6368083459439
 21
1209.750470210802
 31
0.0
  0
LINE
  5
39AD
330
A
100
AcDbEntity
  8
MODEL
  6
Continuous
100
AcDbLine
 10
765.8368083459437
 20
1209.227263046802
 30
0.0
 11
765.8368083459437
 21
1001.225021433202
 31
0.0
  0
LINE
  5
39AE
330
A
100
AcDbEntity
  8
MODEL
  6
Continuous
100
AcDbLine
 10
774.2368083459443
 20
1213.443786475202
 30
0.0
 11
774.2368083459443
 21
1213.345323658402
 31
0.0
  0
ARC
  5
39AF
330
A
100
AcDbEntity
  8
MODEL
  6
Continuous
100
AcDbCircle
 10
765.380980397944
 20
1209.346476864402
 30
0.0
 40
0.2066618867813224
100
AcDbArc
 50
271.0725313469054
 51
305.9771020866386
  0
LINE
  5
39B0
330
A
100
AcDbEntity
  8
MODEL
  6
Continuous
100
AcDbLine
 10
726.7368083459443
 20
1245.871690422802
 30
0.0
 11
726.7368083459443
 21
1241.682178638002
 31
0.0
  0
LINE
  5
39B1
330
A
100
AcDbEntity
  8
MODEL
  6
Continuous
100
AcDbLine
 10
726.7368083459443
 20
1241.527219862402
 30
0.0
 11
726.7368083459443
 21
1241.682178638002
 31
0.0
  0
LINE
  5
39B2
330
A
100
AcDbEntity
  8
MODEL
  6
Continuous
100
AcDbLine
 10
726.7368083459443
 20
1208.658198098002
 30
0.0
 11
726.7368083459443
 21
1212.847623202402
 31
0.0
  0
LINE
  5
39B3
330
A
100
AcDbEntity
  8
MODEL
  6
Continuous
100
AcDbLine
 10
726.7368083459443
 20
1212.847623202402
 30
0.0
 11
726.7368083459443
 21
1213.002582909602
 31
0.0
  0
LINE
  5
39B4
330
A
100
AcDbEntity
  8
MODEL
  6
Continuous
100
AcDbLine
 10
774.2368083459443
 20
1213.345323658402
 30
0.0
 11
774.2368083459443
 21
1213.240798505202
 31
0.0
  0
ELLIPSE
  5
39B5
330
A
100
AcDbEntity
  8
MODEL
  6
Continuous
100
AcDbEllipse
 10
774.0368083459435
 20
1213.240798505202
 30
0.0
 11
-0.04046479182036324
 21
0.1958637297279076
 31
0.0
210
0.0
220
0.0
230
1.0
 40
0.2318704133
 41
3.141592653588965
 42
3.178087775642005
  0
LINE
  5
39B6
330
A
100
AcDbEntity
  8
MODEL
  6
Continuous
100
AcDbLine
 10
787.8671714059439
 20
1245.124804986002
 30
0.0
 11
726.7368083459443
 21
1245.871690422802
 31
0.0
  0
LINE
  5
39B7
330
A
100
AcDbEntity
  8
MODEL
  6
Continuous
100
AcDbLine
 10
726.7368083459443
 20
1208.658198098002
 30
0.0
 11
765.6612978555441
 21
1209.133774111202
 31
0.0
  0
LINE
  5
39B8
330
A
100
AcDbEntity
  8
MODEL
  6
Continuous
100
AcDbLine
 10
766.5833025639441
 20
1209.801458145202
 30
0.0
 11
766.5837964147441
 21
1209.858047809602
 31
0.0
  0
ARC
  5
39B9
330
A
100
AcDbEntity
  8
MODEL
  6
Continuous
100
AcDbCircle
 10
777.1048574219441
 20
1197.717496474802
 30
0.0
 40
15.6156145112221
100
AcDbArc
 50
101.1663561592
 51
114.5021145898008
  0
SPLINE
  5
39BA
330
A
100
AcDbEntity
  8
MODEL
  6
Continuous
100
AcDbSpline
210
0.0
220
0.0
230
1.0
 70
     8
 71
     3
 72
    12
 73
     8
 74
     0
 42
0.000000001
 43
0.0000000001
 40
0.0
 40
0.0
 40
0.0
 40
0.0
 40
0.0429190816684355
 40
0.3019537245768006
 40
0.5682881927086383
 40
0.8509521022905452
 40
1.0
 40
1.0
 40
1.0
 40
1.0
 10
770.9438759876231
 20
1211.918684239647
 30
0.0
 10
770.9613980498499
 20
1211.918770222849
 30
0.0
 10
771.0675869897506
 20
1211.9195301925
 30
0.0
 10
771.2742375321178
 20
1211.978235916666
 30
0.0
 10
771.5073160251487
 20
1212.092345719069
 30
0.0
 10
771.6685729057555
 20
1212.238274027158
 30
0.0
 10
771.71686063135
 20
1212.340824281633
 30
0.0
 10
771.7324497009741
 20
1212.379852578949
 30
0.0
  0
ARC
  5
39BB
330
A
100
AcDbEntity
  8
MODEL
  6
Continuous
100
AcDbCircle
 10
770.8093675643441
 20
1212.813540889602
 30
0.0
 40
0.9049093546826084
100
AcDbArc
 50
255.3370619128784
 51
278.5482934622955
  0
ARC
  5
39BC
330
A
100
AcDbEntity
  8
MODEL
  6
Continuous
100
AcDbCircle
 10
775.356015040744
 20
1199.934868236002
 30
0.0
 40
12.90940938005692
100
AcDbArc
 50
111.6919275114018
 51
116.1137334344977
  0
ARC
  5
39BD
330
A
100
AcDbEntity
  8
MODEL
  6
Continuous
100
AcDbCircle
 10
777.2132512579439
 20
1194.882299314002
 30
0.0
 40
18.27216237553723
100
AcDbArc
 50
114.3692160010983
 51
121.1375407440009
  0
SPLINE
  5
39BE
330
A
100
AcDbEntity
  8
MODEL
  6
Continuous
100
AcDbSpline
210
0.0
220
0.0
230
1.0
 70
     8
 71
     3
 72
    13
 73
     9
 74
     0
 42
0.000000001
 43
0.0000000001
 40
0.0
 40
0.0
 40
0.0
 40
0.0
 40
0.0876452784375431
 40
0.2967789392146981
 40
0.5128715377510404
 40
0.7482305745704153
 40
0.9332783451884706
 40
1.0
 40
1.0
 40
1.0
 40
1.0
 10
767.7084932392137
 20
1210.522546783646
 30
0.0
 10
767.7528349868427
 20
1210.521856942424
 30
0.0
 10
767.8820019938377
 20
1210.520479992012
 30
0.0
 10
768.1155576316997
 20
1210.561800710205
 30
0.0
 10
768.358572483062
 20
1210.645699872145
 30
0.0
 10
768.5393946856321
 20
1210.773079195075
 30
0.0
 10
768.6205316971947
 20
1210.911169590576
 30
0.0
 10
768.6404977455396
 20
1210.997361603824
 30
0.0
 10
768.6435122446247
 20
1211.020189333706
 30
0.0
  0
ARC
  5
39BF
330
A
100
AcDbEntity
  8
MODEL
  6
Continuous
100
AcDbCircle
 10
777.3355428299438
 20
1192.871398302402
 30
0.0
 40
20.09748055654489
100
AcDbArc
 50
118.5290587292999
 51
120.9691276472006
  0
ARC
  5
39C0
330
A
100
AcDbEntity
  8
MODEL
  6
Continuous
100
AcDbCircle
 10
781.4628850431437
 20
1185.508856226002
 30
0.0
 40
28.53537682190489
100
AcDbArc
 50
120.4679111897993
 51
122.9397586792999
  0
SPLINE
  5
39C1
330
A
100
AcDbEntity
  8
MODEL
  6
Continuous
100
AcDbSpline
210
0.0
220
0.0
230
1.0
 70
     8
 71
     3
 72
    12
 73
     8
 74
     0
 42
0.000000001
 43
0.0000000001
 40
0.0
 40
0.0
 40
0.0
 40
0.0
 40
0.1931028917534231
 40
0.4604159086243646
 40
0.7068919948411341
 40
0.8836652086498029
 40
1.0
 40
1.0
 40
1.0
 40
1.0
 10
765.8981517983021
 20
1209.453076634919
 30
0.0
 10
765.9712395862799
 20
1209.458813080801
 30
0.0
 10
766.1200343257461
 20
1209.471323402684
 30
0.0
 10
766.316382384137
 20
1209.515102625477
 30
0.0
 10
766.4554340509786
 20
1209.570778857468
 30
0.0
 10
766.5648510003749
 20
1209.678164067738
 30
0.0
 10
766.576202564119
 20
1209.760974361889
 30
0.0
 10
766.5811440035687
 20
1209.799297990749
 30
0.0
  0
ARC
  5
39C2
330
A
100
AcDbEntity
  8
MODEL
  6
Continuous
100
AcDbCircle
 10
780.6005339331442
 20
1185.773349146802
 30
0.0
 40
27.8552754864446
100
AcDbArc
 50
121.6821807295024
 51
122.5333027736014
  0
ARC
  5
39C3
330
A
100
AcDbEntity
  8
MODEL
  6
Continuous
100
AcDbCircle
 10
770.317554200744
 20
1201.860557190802
 30
0.0
 40
8.762425402371528
100
AcDbArc
 50
122.4167225652978
 51
123.3433927081051
  0
ARC
  5
39C4
330
A
100
AcDbEntity
  8
MODEL
  6
Continuous
100
AcDbCircle
 10
765.6675871183435
 20
1209.333865882402
 30
0.0
 40
0.1999999598542256
100
AcDbArc
 50
268.3721348217308
 51
0.0429420201300354
  0
ARC
  5
39C5
330
A
100
AcDbEntity
  8
MODEL
  6
Continuous
100
AcDbCircle
 10
774.0368083459435
 20
1213.240798505202
 30
0.0
 40
0.1999999999999832
100
AcDbArc
 50
281.6728908356619
 51
0.0
  0
LINE
  5
39C6
330
A
100
AcDbEntity
  8
MODEL
  6
Continuous
100
AcDbLine
 10
794.2368083459443
 20
1245.164944260402
 30
0.0
 11
794.2368083459443
 21
1209.364944260402
 31
0.0
  0
LINE
  5
39C7
330
A
100
AcDbEntity
  8
MODEL
  6
Continuous
100
AcDbLine
 10
726.7368083459443
 20
1213.416149024802
 30
0.0
 11
726.7368083459443
 21
1241.113739496002
 31
0.0
  0
ARC
  5
39C8
330
A
100
AcDbEntity
  8
MODEL
  6
Continuous
100
AcDbCircle
 10
775.7769456839443
 20
1192.756873942402
 30
0.0
 40
20.77457558575868
100
AcDbArc
 50
52.79422911930141
 51
68.04629729530193
  0
ARC
  5
39C9
330
A
100
AcDbEntity
  8
MODEL
  6
Continuous
100
AcDbCircle
 10
775.7769456839443
 20
1261.773014578402
 30
0.0
 40
20.77457558575755
100
AcDbArc
 50
289.3388640021993
 51
307.2057708806977
  0
LINE
  5
39CA
330
A
100
AcDbEntity
  8
MODEL
  6
Continuous
100
AcDbLine
 10
794.2368083459443
 20
1209.364944260402
 30
0.0
 11
796.2978132963436
 21
1209.364944260402
 31
0.0
  0
LINE
  5
39CB
330
A
100
AcDbEntity
  8
MODEL
  6
Continuous
100
AcDbLine
 10
796.2978132963436
 20
1245.164944260402
 30
0.0
 11
794.2368083459443
 21
1245.164944260402
 31
0.0
  0
ARC
  5
39CC
330
A
100
AcDbEntity
  8
MODEL
  6
Continuous
100
AcDbCircle
 10
787.4949728455441
 20
1227.264944260402
 30
0.0
 40
20.0
100
AcDbArc
 50
296.835321646698
 51
63.16467835330141
  0
ARC
  5
39CD
330
A
100
AcDbEntity
  8
MODEL
  6
Continuous
100
AcDbCircle
 10
796.2978132963436
 20
1209.864944260402
 30
0.0
 40
0.500000000000056
100
AcDbArc
 50
270.0
 51
296.8353216468087
  0
ARC
  5
39CE
330
A
100
AcDbEntity
  8
MODEL
  6
Continuous
100
AcDbCircle
 10
796.2978132963436
 20
1244.664944260402
 30
0.0
 40
0.5000000000000256
100
AcDbArc
 50
63.16467835326119
 51
90.0
  0
LINE
  5
39CF
330
A
100
AcDbEntity
  8
MODEL
  6
Continuous
100
AcDbLine
 10
788.3185255907439
 20
1209.302965882802
 30
0.0
 11
794.2368083459443
 21
1209.364944260402
 31
0.0
  0
LINE
  5
39D0
330
A
100
AcDbEntity
  8
MODEL
  6
Continuous
100
AcDbLine
 10
794.2368083459443
 20
1245.164944260402
 30
0.0
 11
788.3185255907439
 21
1245.226922638002
 31
0.0
  0
SPLINE
  5
39D1
330
A
100
AcDbEntity
  8
MODEL
  6
Continuous
100
AcDbSpline
210
0.0
220
0.0
230
1.0
 70
     8
 71
     3
 72
     8
 73
     4
 74
     0
 42
0.000000001
 43
0.0000000001
 40
0.0
 40
0.0
 40
0.0
 40
0.0
 40
1.0
 40
1.0
 40
1.0
 40
1.0
 10
776.8592468143216
 20
1241.074275673669
 30
0.0
 10
762.571936602597
 20
1241.144145332604
 30
0.0
 10
745.9314378783557
 20
1241.223412637476
 30
0.0
 10
726.9377506415977
 20
1241.312077588284
 30
0.0
  0
LINE
  5
39D2
330
A
100
AcDbEntity
  8
MODEL
  6
Continuous
100
AcDbLine
 10
726.9377490915441
 20
1213.218136495602
 30
0.0
 11
776.8592433863442
 21
1213.456297346002
 31
0.0
  0
ARC
  5
39D3
330
A
100
AcDbEntity
  8
MODEL
  6
Continuous
100
AcDbCircle
 10
776.9075018075438
 20
1256.684656053202
 30
0.0
 40
15.6018052688567
100
AcDbArc
 50
269.8230338977007
 51
291.5889006279018
  0
ARC
  5
39D4
330
A
100
AcDbEntity
  8
MODEL
  6
Continuous
100
AcDbCircle
 10
776.630232861544
 20
1197.089482190802
 30
0.0
 40
16.35842210275645
100
AcDbArc
 50
65.41520194099996
 51
89.19798632680111
  0
LINE
  5
39D5
330
A
100
AcDbEntity
  8
MODEL
  6
Continuous
100
AcDbLine
 10
794.2368083459443
 20
324.8530076700019
 30
0.0
 11
794.2368083459443
 21
289.0530076700019
 31
0.0
  0
LINE
  5
39D6
330
A
100
AcDbEntity
  8
MODEL
  6
Continuous
100
AcDbLine
 10
726.7368083459443
 20
293.1042124344019
 30
0.0
 11
726.7368083459443
 21
320.8018029056019
 31
0.0
  0
ARC
  5
39D7
330
A
100
AcDbEntity
  8
MODEL
  6
Continuous
100
AcDbCircle
 10
775.7769456839443
 20
341.4610779880019
 30
0.0
 40
20.77457558575755
100
AcDbArc
 50
289.3388640020983
 51
307.2057708806978
  0
ARC
  5
39D8
330
A
100
AcDbEntity
  8
MODEL
  6
Continuous
100
AcDbCircle
 10
775.7769456839443
 20
272.4449373520019
 30
0.0
 40
20.77457558575806
100
AcDbArc
 50
52.79422911930008
 51
68.04629729530127
  0
LINE
  5
39D9
330
A
100
AcDbEntity
  8
MODEL
  6
Continuous
100
AcDbLine
 10
794.2368083459443
 20
289.0530076700019
 30
0.0
 11
796.2978132963436
 21
289.0530076700019
 31
0.0
  0
LINE
  5
39DA
330
A
100
AcDbEntity
  8
MODEL
  6
Continuous
100
AcDbLine
 10
796.2978132963436
 20
324.8530076700019
 30
0.0
 11
794.2368083459443
 21
324.8530076700019
 31
0.0
  0
ARC
  5
39DB
330
A
100
AcDbEntity
  8
MODEL
  6
Continuous
100
AcDbCircle
 10
787.4949728455441
 20
306.953007670002
 30
0.0
 40
20.0
100
AcDbArc
 50
296.8353216466983
 51
63.1646783533017
  0
ARC
  5
39DC
330
A
100
AcDbEntity
  8
MODEL
  6
Continuous
100
AcDbCircle
 10
796.2978132963436
 20
289.5530076700019
 30
0.0
 40
0.5000000000000004
100
AcDbArc
 50
270.0
 51
296.8353216467358
  0
ARC
  5
39DD
330
A
100
AcDbEntity
  8
MODEL
  6
Continuous
100
AcDbCircle
 10
796.2978132963436
 20
324.3530076700019
 30
0.0
 40
0.5000000000000008
100
AcDbArc
 50
63.16467835326413
 51
90.0
  0
LINE
  5
39DE
330
A
100
AcDbEntity
  8
MODEL
  6
Continuous
100
AcDbLine
 10
788.3185255907439
 20
288.9910292924019
 30
0.0
 11
794.2368083459443
 21
289.0530076700019
 31
0.0
  0
LINE
  5
39DF
330
A
100
AcDbEntity
  8
MODEL
  6
Continuous
100
AcDbLine
 10
794.2368083459443
 20
324.8530076700019
 30
0.0
 11
788.3185255907439
 21
324.9149860476019
 31
0.0
  0
ARC
  5
39E0
330
A
100
AcDbEntity
  8
MODEL
  6
Continuous
100
AcDbCircle
 10
776.8493809747434
 20
276.7759323116019
 30
0.0
 40
16.35843586374313
100
AcDbArc
 50
65.73796858149863
 51
89.96553225019795
  0
ARC
  5
39E1
330
A
100
AcDbEntity
  8
MODEL
  6
Continuous
100
AcDbCircle
 10
776.7237249467436
 20
336.3721671480019
 30
0.0
 40
15.60176680709242
100
AcDbArc
 50
270.4977919270015
 51
291.9819574712025
  0
LINE
  5
39E2
330
A
100
AcDbEntity
  8
MODEL
  6
Continuous
100
AcDbLine
 10
726.9377490635435
 20
292.9061999052019
 30
0.0
 11
776.8592434959438
 21
293.1443607560019
 31
0.0
  0
SPLINE
  5
39E3
330
A
100
AcDbEntity
  8
MODEL
  6
Continuous
100
AcDbSpline
210
0.0
220
0.0
230
1.0
 70
     8
 71
     3
 72
     8
 73
     4
 74
     0
 42
0.000000001
 43
0.0000000001
 40
0.0
 40
0.0
 40
0.0
 40
0.0
 40
1.0
 40
1.0
 40
1.0
 40
1.0
 10
776.8592468008484
 20
320.762339083357
 30
0.0
 10
762.5719365981059
 20
320.8322087422495
 30
0.0
 10
745.9314378619248
 20
320.9114760471772
 30
0.0
 10
726.937750592305
 20
321.00014099814
 30
0.0
  0
ARC
  5
39E4
330
A
100
AcDbEntity
  8
MODEL
  6
Continuous
100
AcDbCircle
 10
726.9368083459441
 20
293.1042124344019
 30
0.0
 40
0.2000000000000008
100
AcDbArc
 50
180.0
 51
270.2722028098088
  0
ARC
  5
39E5
330
A
100
AcDbEntity
  8
MODEL
  6
Continuous
100
AcDbCircle
 10
726.9368083459441
 20
320.8018029056019
 30
0.0
 40
0.1999999999999944
100
AcDbArc
 50
89.72779719019115
 51
180.0
  0
LINE
  5
39E6
330
A
100
AcDbEntity
  8
MODEL
  6
Continuous
100
AcDbLine
 10
726.7368083459443
 20
288.6603917316019
 30
0.0
 11
726.7368083459443
 21
292.8507435624019
 31
0.0
  0
LINE
  5
39E7
330
A
100
AcDbEntity
  8
MODEL
  6
Continuous
100
AcDbLine
 10
726.7368083459443
 20
325.8738840564019
 30
0.0
 11
726.7368083459443
 21
321.6834081088019
 31
0.0
  0
LINE
  5
39E8
330
A
100
AcDbEntity
  8
MODEL
  6
Continuous
100
AcDbLine
 10
726.7368083459443
 20
1213.672191888802
 30
0.0
 11
726.7368083459443
 21
1241.369782360002
 31
0.0
  0
LINE
  5
39E9
330
A
100
AcDbEntity
  8
MODEL
  6
Continuous
100
AcDbLine
 10
726.7368083459443
 20
293.4183426588019
 30
0.0
 11
726.7368083459443
 21
321.1159331296019
 31
0.0
  0
LINE
  5
39EA
330
A
100
AcDbEntity
  8
MODEL
  6
Continuous
100
AcDbLine
 10
726.7368083459443
 20
1241.369782360002
 30
0.0
 11
726.7368083459443
 21
1241.783262726402
 31
0.0
  0
LINE
  5
39EB
102
{ACAD_REACTORS
330
3BD1
102
}
330
A
100
AcDbEntity
  8
MODEL
  6
Continuous
100
AcDbLine
 10
726.7368083459443
 20
1246.127733286802
 30
0.0
 11
726.7368083459443
 21
1241.938221501602
 31
0.0
  0
LINE
  5
39EC
330
A
100
AcDbEntity
  8
MODEL
  6
Continuous
100
AcDbLine
 10
726.7368083459443
 20
1241.783262726402
 30
0.0
 11
726.7368083459443
 21
1241.938221501602
 31
0.0
  0
LINE
  5
39ED
330
A
100
AcDbEntity
  8
MODEL
  6
Continuous
100
AcDbLine
 10
726.7368083459443
 20
1208.914240962002
 30
0.0
 11
726.7368083459443
 21
1213.103666066402
 31
0.0
  0
LINE
  5
39EE
330
A
100
AcDbEntity
  8
MODEL
  6
Continuous
100
AcDbLine
 10
726.7368083459443
 20
288.6251987192019
 30
0.0
 11
726.7368083459443
 21
292.8155505496019
 31
0.0
  0
LINE
  5
39EF
330
A
100
AcDbEntity
  8
MODEL
  6
Continuous
100
AcDbLine
 10
726.7368083459443
 20
325.838691044002
 30
0.0
 11
726.7368083459443
 21
321.6482150964019
 31
0.0
  0
LINE
  5
39F0
330
A
100
AcDbEntity
  8
MODEL
  6
Continuous
100
AcDbLine
 10
726.7368083459443
 20
1241.369782360002
 30
0.0
 11
726.7368083459443
 21
1241.783262726402
 31
0.0
  0
LINE
  5
39F1
330
A
100
AcDbEntity
  8
MODEL
  6
Continuous
100
AcDbLine
 10
726.7368083459443
 20
1246.127733286802
 30
0.0
 11
726.7368083459443
 21
1241.938221501602
 31
0.0
  0
LINE
  5
39F2
330
A
100
AcDbEntity
  8
MODEL
  6
Continuous
100
AcDbLine
 10
726.7368083459443
 20
1241.783262726402
 30
0.0
 11
726.7368083459443
 21
1241.938221501602
 31
0.0
  0
LINE
  5
39F3
330
A
100
AcDbEntity
  8
MODEL
  6
Continuous
100
AcDbLine
 10
726.7368083459443
 20
1208.914240962002
 30
0.0
 11
726.7368083459443
 21
1213.103666066402
 31
0.0
  0
LINE
  5
39F4
330
A
100
AcDbEntity
  8
MODEL
  6
Continuous
100
AcDbLine
 10
726.7368083459443
 20
1213.672191888802
 30
0.0
 11
726.7368083459443
 21
1241.369782360002
 31
0.0
  0
LINE
  5
39F5
330
A
100
AcDbEntity
  8
MODEL
  6
Continuous
100
AcDbLine
 10
726.7368083459443
 20
293.3831496460019
 30
0.0
 11
726.7368083459443
 21
321.0807401172019
 31
0.0
  0
LINE
  5
39F6
330
A
100
AcDbEntity
  8
MODEL
  6
Continuous
100
AcDbLine
 10
726.7368083459443
 20
288.6766574996019
 30
0.0
 11
726.7368083459443
 21
292.8670093300019
 31
0.0
  0
LINE
  5
39F7
330
A
100
AcDbEntity
  8
MODEL
  6
Continuous
100
AcDbLine
 10
726.7368083459443
 20
325.8901498240019
 30
0.0
 11
726.7368083459443
 21
321.6996738764019
 31
0.0
  0
LINE
  5
39F8
330
A
100
AcDbEntity
  8
MODEL
  6
Continuous
100
AcDbLine
 10
726.7368083459443
 20
1241.699798944002
 30
0.0
 11
726.7368083459443
 21
1245.890149824002
 31
0.0
  0
LINE
  5
39F9
330
A
100
AcDbEntity
  8
MODEL
  6
Continuous
100
AcDbLine
 10
726.7368083459443
 20
1212.867008380002
 30
0.0
 11
726.7368083459443
 21
1208.676657499602
 31
0.0
  0
LINE
  5
39FA
330
A
100
AcDbEntity
  8
MODEL
  6
Continuous
100
AcDbLine
 10
726.7368083459443
 20
1213.434608426402
 30
0.0
 11
726.7368083459443
 21
1241.132198897202
 31
0.0
  0
LINE
  5
39FB
330
A
100
AcDbEntity
  8
MODEL
  6
Continuous
100
AcDbLine
 10
726.7368083459443
 20
293.434608426402
 30
0.0
 11
726.7368083459443
 21
321.1321988972019
 31
0.0
  0
LINE
  5
39FC
102
{ACAD_REACTORS
330
3B60
102
}
330
A
100
AcDbEntity
  8
MODEL
  6
Continuous
100
AcDbLine
 10
765.8368083459437
 20
972.5761122044019
 30
0.0
 11
765.8368083459437
 21
324.9906889376019
 31
0.0
  0
LINE
  5
39FD
102
{ACAD_REACTORS
330
3B60
102
}
330
A
100
AcDbEntity
  8
MODEL
  6
Continuous
100
AcDbLine
 10
787.6368083459439
 20
324.4045059872019
 30
0.0
 11
787.6368083459439
 21
972.5761122044019
 31
0.0
  0
CIRCLE
  5
3A07
330
A
100
AcDbEntity
  8
MODEL
  6
Continuous
100
AcDbCircle
 10
236.3195963971534
 20
307.0458201992021
 30
0.0
 40
17.9
  0
ARC
  5
3A08
330
A
100
AcDbEntity
  8
MODEL
  6
Continuous
100
AcDbCircle
 10
236.3195963971534
 20
307.0458201992021
 30
0.0
 40
18.60476778223549
100
AcDbArc
 50
311.1963828661974
 51
48.80361713380255
  0
ARC
  5
3A09
330
A
100
AcDbEntity
  8
MODEL
  6
Continuous
100
AcDbCircle
 10
236.3195963971534
 20
306.5716090288022
 30
0.0
 40
18.44544826570144
100
AcDbArc
 50
50.51718245580062
 51
129.4827642845007
  0
ARC
  5
3A0A
330
A
100
AcDbEntity
  8
MODEL
  6
Continuous
100
AcDbCircle
 10
236.3195963971534
 20
307.5200313696022
 30
0.0
 40
18.44544826570146
100
AcDbArc
 50
230.5171824557972
 51
309.4827642844972
  0
ARC
  5
3A0B
330
A
100
AcDbEntity
  8
MODEL
  6
Continuous
100
AcDbCircle
 10
236.3195963971534
 20
307.0458201992021
 30
0.0
 40
18.60476778223549
100
AcDbArc
 50
131.1963828662007
 51
228.8036171337992
  0
ARC
  5
3A0C
330
A
100
AcDbEntity
  8
MODEL
  6
Continuous
100
AcDbCircle
 10
248.4417559119534
 20
293.1970249636022
 30
0.0
 40
0.1999999999999944
100
AcDbArc
 50
245.5981914330114
 51
270.0
  0
ARC
  5
3A0D
330
A
100
AcDbEntity
  8
MODEL
  6
Continuous
100
AcDbCircle
 10
248.4417559119534
 20
293.1970249636022
 30
0.0
 40
0.2000000000000004
100
AcDbArc
 50
270.0
 51
311.1963828661912
  0
ARC
  5
3A0E
330
A
100
AcDbEntity
  8
MODEL
  6
Continuous
100
AcDbCircle
 10
248.4417559119534
 20
320.8946154348022
 30
0.0
 40
0.200000000000002
100
AcDbArc
 50
48.80361713380875
 51
114.401808567273
  0
ARC
  5
3A0F
330
A
100
AcDbEntity
  8
MODEL
  6
Continuous
100
AcDbCircle
 10
261.8757695255531
 20
323.4273820728022
 30
0.0
 40
33.27939311846912
100
AcDbArc
 50
245.2396535246998
 51
246.0363451680005
  0
LINE
  5
3A10
330
A
100
AcDbEntity
  8
MODEL
  6
Continuous
100
AcDbLine
 10
248.359104933153
 20
321.0747487344022
 30
0.0
 11
247.9387524739527
 21
320.8832560704021
 31
0.0
  0
LINE
  5
3A11
330
A
100
AcDbEntity
  8
MODEL
  6
Continuous
100
AcDbLine
 10
224.2800878611529
 20
293.0168916640022
 30
0.0
 11
224.7004403203532
 21
293.2083843284022
 31
0.0
  0
ARC
  5
3A12
330
A
100
AcDbEntity
  8
MODEL
  6
Continuous
100
AcDbCircle
 10
210.7634232683527
 20
290.6642583248022
 30
0.0
 40
33.2793931194425
100
AcDbArc
 50
65.2396535248002
 51
66.03634516799997
  0
ARC
  5
3A13
330
A
100
AcDbEntity
  8
MODEL
  6
Continuous
100
AcDbCircle
 10
224.1974368823535
 20
293.1970249636022
 30
0.0
 40
0.1999999999999908
100
AcDbArc
 50
228.8036171338088
 51
270.0
  0
ARC
  5
3A14
330
A
100
AcDbEntity
  8
MODEL
  6
Continuous
100
AcDbCircle
 10
224.1974368823535
 20
293.1970249636022
 30
0.0
 40
0.2000000000000004
100
AcDbArc
 50
270.0
 51
294.4018085669886
  0
ARC
  5
3A15
330
A
100
AcDbEntity
  8
MODEL
  6
Continuous
100
AcDbCircle
 10
224.1974368823535
 20
320.8946154348022
 30
0.0
 40
0.199999999999992
100
AcDbArc
 50
65.59819143329577
 51
131.1963828661912
  0
CIRCLE
  5
3A16
330
A
100
AcDbEntity
  8
MODEL
  6
Continuous
100
AcDbCircle
 10
236.3195963971534
 20
1227.283403662002
 30
0.0
 40
17.9
  0
ARC
  5
3A17
330
A
100
AcDbEntity
  8
MODEL
  6
Continuous
100
AcDbCircle
 10
236.3195963971534
 20
1227.283403662002
 30
0.0
 40
18.60476778223547
100
AcDbArc
 50
131.1963828662008
 51
228.8036171337992
  0
ARC
  5
3A18
330
A
100
AcDbEntity
  8
MODEL
  6
Continuous
100
AcDbCircle
 10
236.3195963971534
 20
1227.757614832002
 30
0.0
 40
18.44544826570141
100
AcDbArc
 50
230.5171824557968
 51
309.4827642844974
  0
ARC
  5
3A19
330
A
100
AcDbEntity
  8
MODEL
  6
Continuous
100
AcDbCircle
 10
236.3195963971534
 20
1226.809192491602
 30
0.0
 40
18.44544826570153
100
AcDbArc
 50
50.51718245580085
 51
129.4827642845012
  0
ARC
  5
3A1A
330
A
100
AcDbEntity
  8
MODEL
  6
Continuous
100
AcDbCircle
 10
236.3195963971534
 20
1227.283403662002
 30
0.0
 40
18.60476778223549
100
AcDbArc
 50
311.1963828661977
 51
48.80361713380125
  0
ARC
  5
3A1B
330
A
100
AcDbEntity
  8
MODEL
  6
Continuous
100
AcDbCircle
 10
224.1974368823535
 20
1241.132198897202
 30
0.0
 40
0.20000000000004
100
AcDbArc
 50
65.5981914332944
 51
90.0
  0
ARC
  5
3A1C
330
A
100
AcDbEntity
  8
MODEL
  6
Continuous
100
AcDbCircle
 10
224.1974368823535
 20
1241.132198897202
 30
0.0
 40
0.199999999999978
100
AcDbArc
 50
90.0
 51
131.1963828664854
  0
ARC
  5
3A1D
330
A
100
AcDbEntity
  8
MODEL
  6
Continuous
100
AcDbCircle
 10
224.1974368823535
 20
1213.434608426402
 30
0.0
 40
0.1999999999999744
100
AcDbArc
 50
228.8036171338149
 51
294.4018085669745
  0
ARC
  5
3A1E
330
A
100
AcDbEntity
  8
MODEL
  6
Continuous
100
AcDbCircle
 10
210.7634232703526
 20
1210.901841791602
 30
0.0
 40
33.27939311457268
100
AcDbArc
 50
65.23965352459929
 51
66.03634516799872
  0
LINE
  5
3A1F
330
A
100
AcDbEntity
  8
MODEL
  6
Continuous
100
AcDbLine
 10
224.2800878611529
 20
1213.254475126402
 30
0.0
 11
224.7004403203532
 21
1213.445967790802
 31
0.0
  0
LINE
  5
3A20
330
A
100
AcDbEntity
  8
MODEL
  6
Continuous
100
AcDbLine
 10
248.359104933153
 20
1241.312332197202
 30
0.0
 11
247.9387524739527
 21
1241.120839532802
 31
0.0
  0
ARC
  5
3A21
330
A
100
AcDbEntity
  8
MODEL
  6
Continuous
100
AcDbCircle
 10
261.8757695267527
 20
1243.664965538002
 30
0.0
 40
33.27939312128207
100
AcDbArc
 50
245.2396535249006
 51
246.0363451678998
  0
ARC
  5
3A22
330
A
100
AcDbEntity
  8
MODEL
  6
Continuous
100
AcDbCircle
 10
248.4417559119534
 20
1241.132198897202
 30
0.0
 40
0.199999999999978
100
AcDbArc
 50
48.80361713372909
 51
90.0
  0
ARC
  5
3A23
330
A
100
AcDbEntity
  8
MODEL
  6
Continuous
100
AcDbCircle
 10
248.4417559119534
 20
1241.132198897202
 30
0.0
 40
0.199999999999978
100
AcDbArc
 50
90.0
 51
114.4018085669745
  0
ARC
  5
3A24
330
A
100
AcDbEntity
  8
MODEL
  6
Continuous
100
AcDbCircle
 10
248.4417559119534
 20
1213.434608426402
 30
0.0
 40
0.199999999999932
100
AcDbArc
 50
245.5981914329838
 51
311.1963828658665
  0
LINE
  5
3A25
330
A
100
AcDbEntity
  8
MODEL
  6
Continuous
100
AcDbLine
 10
224.4834034815526
 20
1241.221098598802
 30
0.0
 11
224.4834034815526
 21
1241.545679263602
 31
0.0
  0
LINE
  5
3A26
330
A
100
AcDbEntity
  8
MODEL
  6
Continuous
100
AcDbLine
 10
224.4835085851532
 20
1213.347143970402
 30
0.0
 11
224.4835085851532
 21
1213.021042310802
 31
0.0
  0
ARC
  5
3A27
330
A
100
AcDbEntity
  8
MODEL
  6
Continuous
100
AcDbCircle
 10
236.3193794279528
 20
1227.283403662002
 30
0.0
 40
18.60674616238095
100
AcDbArc
 50
50.78635498909798
 51
129.2095532523972
  0
LINE
  5
3A28
330
A
100
AcDbEntity
  8
MODEL
  6
Continuous
100
AcDbLine
 10
248.1563738803529
 20
1241.544848247202
 30
0.0
 11
248.1563738803529
 21
1241.219977534802
 31
0.0
  0
SPLINE
  5
3A29
330
A
100
AcDbEntity
  8
MODEL
  6
Continuous
100
AcDbSpline
210
0.0
220
0.0
230
1.0
 70
     8
 71
     3
 72
     8
 73
     4
 74
     0
 42
0.000000001
 43
0.0000000001
 40
0.0
 40
0.0
 40
0.0
 40
0.0
 40
1.0
 40
1.0
 40
1.0
 40
1.0
 10
224.4834034814153
 20
1241.545679263724
 30
0.0
 10
224.4834034814153
 20
1241.605257551465
 30
0.0
 10
224.5108029767193
 20
1241.662975092403
 30
0.0
 10
224.5569665946628
 20
1241.700638039256
 30
0.0
  0
SPLINE
  5
3A2A
330
A
100
AcDbEntity
  8
MODEL
  6
Continuous
100
AcDbSpline
210
0.0
220
0.0
230
1.0
 70
     8
 71
     3
 72
     8
 73
     4
 74
     0
 42
0.000000001
 43
0.0000000001
 40
0.0
 40
0.0
 40
0.0
 40
0.0
 40
1.0
 40
1.0
 40
1.0
 40
1.0
 10
248.082821832842
 20
1241.699797993786
 30
0.0
 10
248.1289790111809
 20
1241.66213481002
 30
0.0
 10
248.1563738802638
 20
1241.604421716445
 30
0.0
 10
248.1563738802638
 20
1241.544848247166
 30
0.0
  0
LINE
  5
3A2B
330
A
100
AcDbEntity
  8
MODEL
  6
Continuous
100
AcDbLine
 10
248.1565243527534
 20
1213.022081859602
 30
0.0
 11
248.1565243527534
 21
1213.345377710802
 31
0.0
  0
SPLINE
  5
3A2C
330
A
100
AcDbEntity
  8
MODEL
  6
Continuous
100
AcDbSpline
210
0.0
220
0.0
230
1.0
 70
     8
 71
     3
 72
     8
 73
     4
 74
     0
 42
0.000000001
 43
0.0000000001
 40
0.0
 40
0.0
 40
0.0
 40
0.0
 40
1.0
 40
1.0
 40
1.0
 40
1.0
 10
248.1565243526279
 20
1213.022081859728
 30
0.0
 10
248.1565243526279
 20
1212.962509097661
 30
0.0
 10
248.1291301895467
 20
1212.90479668424
 30
0.0
 10
248.0829739400529
 20
1212.867133447135
 30
0.0
  0
ARC
  5
3A2D
330
A
100
AcDbEntity
  8
MODEL
  6
Continuous
100
AcDbCircle
 10
236.3193794279528
 20
1227.283403662002
 30
0.0
 40
18.6067461623809
100
AcDbArc
 50
230.7908689789013
 51
234.1406592160025
  0
ARC
  5
3A2E
330
A
100
AcDbEntity
  8
MODEL
  6
Continuous
100
AcDbCircle
 10
236.3193794279528
 20
1227.283403662002
 30
0.0
 40
18.6067461623809
100
AcDbArc
 50
305.8609895339019
 51
309.2142495407012
  0
SPLINE
  5
3A2F
330
A
100
AcDbEntity
  8
MODEL
  6
Continuous
100
AcDbSpline
210
0.0
220
0.0
230
1.0
 70
     8
 71
     3
 72
     8
 73
     4
 74
     0
 42
0.000000001
 43
0.0000000001
 40
0.0
 40
0.0
 40
0.0
 40
0.0
 40
1.0
 40
1.0
 40
1.0
 40
1.0
 10
224.557072840274
 20
1212.866082603727
 30
0.0
 10
224.5109085794725
 20
1212.90374550842
 30
0.0
 10
224.4835085851005
 20
1212.961463530438
 30
0.0
 10
224.4835085851005
 20
1213.021042310914
 30
0.0
  0
LINE
  5
3A30
330
A
100
AcDbEntity
  8
MODEL
  6
Continuous
100
AcDbLine
 10
248.1557893127533
 20
293.1081252624022
 30
0.0
 11
248.1557893127533
 21
292.7835445972022
 31
0.0
  0
LINE
  5
3A31
330
A
100
AcDbEntity
  8
MODEL
  6
Continuous
100
AcDbLine
 10
248.1556842091527
 20
320.9820798908021
 30
0.0
 11
248.1556842091527
 21
321.3081815500021
 31
0.0
  0
ARC
  5
3A32
330
A
100
AcDbEntity
  8
MODEL
  6
Continuous
100
AcDbCircle
 10
236.3198133663532
 20
307.0458201992021
 30
0.0
 40
18.60674616238094
100
AcDbArc
 50
230.7863549890984
 51
309.2095532524009
  0
LINE
  5
3A33
330
A
100
AcDbEntity
  8
MODEL
  6
Continuous
100
AcDbLine
 10
224.482818913953
 20
292.7843756140022
 30
0.0
 11
224.482818913953
 21
293.1092463264022
 31
0.0
  0
SPLINE
  5
3A34
330
A
100
AcDbEntity
  8
MODEL
  6
Continuous
100
AcDbSpline
210
0.0
220
0.0
230
1.0
 70
     8
 71
     3
 72
     8
 73
     4
 74
     0
 42
0.000000001
 43
0.0000000001
 40
0.0
 40
0.0
 40
0.0
 40
0.0
 40
1.0
 40
1.0
 40
1.0
 40
1.0
 10
248.1557893128406
 20
292.7835445973788
 30
0.0
 10
248.1557893128406
 20
292.7239663096371
 30
0.0
 10
248.1283898175366
 20
292.6662487686993
 30
0.0
 10
248.0822261995941
 20
292.6285858218465
 30
0.0
  0
SPLINE
  5
3A35
330
A
100
AcDbEntity
  8
MODEL
  6
Continuous
100
AcDbSpline
210
0.0
220
0.0
230
1.0
 70
     8
 71
     3
 72
     8
 73
     4
 74
     0
 42
0.000000001
 43
0.0000000001
 40
0.0
 40
0.0
 40
0.0
 40
0.0
 40
1.0
 40
1.0
 40
1.0
 40
1.0
 10
224.5563709614148
 20
292.6294258673164
 30
0.0
 10
224.5102137830759
 20
292.6670890510827
 30
0.0
 10
224.482818913993
 20
292.7248021446574
 30
0.0
 10
224.482818913993
 20
292.7843756139365
 30
0.0
  0
LINE
  5
3A36
330
A
100
AcDbEntity
  8
MODEL
  6
Continuous
100
AcDbLine
 10
224.4826684415534
 20
321.3071420012021
 30
0.0
 11
224.4826684415534
 21
320.9838461500021
 31
0.0
  0
SPLINE
  5
3A37
330
A
100
AcDbEntity
  8
MODEL
  6
Continuous
100
AcDbSpline
210
0.0
220
0.0
230
1.0
 70
     8
 71
     3
 72
     8
 73
     4
 74
     0
 42
0.000000001
 43
0.0000000001
 40
0.0
 40
0.0
 40
0.0
 40
0.0
 40
1.0
 40
1.0
 40
1.0
 40
1.0
 10
224.4826684416289
 20
321.3071420013742
 30
0.0
 10
224.4826684416289
 20
321.3667147634416
 30
0.0
 10
224.5100626047101
 20
321.4244271768624
 30
0.0
 10
224.556218854204
 20
321.4620904139664
 30
0.0
  0
ARC
  5
3A38
330
A
100
AcDbEntity
  8
MODEL
  6
Continuous
100
AcDbCircle
 10
236.3198133663532
 20
307.0458201992021
 30
0.0
 40
18.60674616238094
100
AcDbArc
 50
50.79086897890173
 51
54.14065921600211
  0
ARC
  5
3A39
330
A
100
AcDbEntity
  8
MODEL
  6
Continuous
100
AcDbCircle
 10
236.3198133663532
 20
307.0458201992021
 30
0.0
 40
18.60674616238094
100
AcDbArc
 50
125.860989533902
 51
129.2142495407016
  0
SPLINE
  5
3A3A
330
A
100
AcDbEntity
  8
MODEL
  6
Continuous
100
AcDbSpline
210
0.0
220
0.0
230
1.0
 70
     8
 71
     3
 72
     8
 73
     4
 74
     0
 42
0.000000001
 43
0.0000000001
 40
0.0
 40
0.0
 40
0.0
 40
0.0
 40
1.0
 40
1.0
 40
1.0
 40
1.0
 10
248.0821199539819
 20
321.4631412573752
 30
0.0
 10
248.1282842147834
 20
321.4254783526825
 30
0.0
 10
248.1556842091563
 20
321.3677603306641
 30
0.0
 10
248.1556842091563
 20
321.3081815501886
 30
0.0
  0
LINE
  5
3A3B
330
A
100
AcDbEntity
  8
MODEL
  6
Continuous
100
AcDbLine
 10
247.2195963971531
 20
322.1257980716022
 30
0.0
 11
247.2195963971531
 21
969.4235672848024
 31
0.0
  0
LINE
  5
3A3C
330
A
100
AcDbEntity
  8
MODEL
  6
Continuous
100
AcDbLine
 10
247.2195963971531
 20
1004.377566353202
 30
0.0
 11
247.2195963971531
 21
1212.913409458802
 31
0.0
  0
LINE
  5
3A3D
330
A
100
AcDbEntity
  8
MODEL
  6
Continuous
100
AcDbLine
 10
225.4195963971529
 20
1212.914536905602
 30
0.0
 11
225.4195963971529
 21
1004.377566213202
 31
0.0
  0
LINE
  5
3A3E
330
A
100
AcDbEntity
  8
MODEL
  6
Continuous
100
AcDbLine
 10
225.4195963971529
 20
969.4235674248023
 30
0.0
 11
225.4195963971529
 21
322.1254844120022
 31
0.0
  0
LINE
  5
3A3F
330
A
100
AcDbEntity
  8
MODEL
  6
Continuous
100
AcDbLine
 10
254.2192985803532
 20
1313.942479458191
 30
0.0
 11
218.4192985803539
 21
1313.942479458191
 31
0.0
  0
LINE
  5
3A40
330
A
100
AcDbEntity
  8
MODEL
  6
Continuous
100
AcDbLine
 10
254.7240773287532
 20
1381.442479458191
 30
0.0
 11
248.4414580951535
 21
1381.442479458191
 31
0.0
  0
LINE
  5
3A41
330
A
100
AcDbEntity
  8
MODEL
  6
Continuous
100
AcDbLine
 10
217.9145198319539
 20
1381.442479458191
 30
0.0
 11
224.1971390659538
 21
1381.442479458191
 31
0.0
  0
LINE
  5
3A42
330
A
100
AcDbEntity
  8
MODEL
  6
Continuous
100
AcDbLine
 10
247.7186735111537
 20
1331.323101118991
 30
0.0
 11
248.2414690611532
 21
1381.24457381499
 31
0.0
  0
ARC
  5
3A43
330
A
100
AcDbEntity
  8
MODEL
  6
Continuous
100
AcDbCircle
 10
236.3192985803535
 20
1331.442479458191
 30
0.0
 40
11.39999999999999
100
AcDbArc
 50
180.5999999999984
 51
359.4000000000016
  0
LINE
  5
3A44
330
A
100
AcDbEntity
  8
MODEL
  6
Continuous
100
AcDbLine
 10
224.3971280995539
 20
1381.24457381499
 30
0.0
 11
224.9199236495534
 21
1331.323101118991
 31
0.0
  0
ARC
  5
3A45
330
A
100
AcDbEntity
  8
MODEL
  6
Continuous
100
AcDbCircle
 10
224.1971390659538
 20
1381.242479458191
 30
0.0
 40
0.2000000000000008
100
AcDbArc
 50
0.5999999999023778
 51
90.0
  0
ARC
  5
3A46
330
A
100
AcDbEntity
  8
MODEL
  6
Continuous
100
AcDbCircle
 10
248.4414580951535
 20
1381.242479458191
 30
0.0
 40
0.1999999999999992
100
AcDbArc
 50
90.0
 51
179.4000000000976
  0
LINE
  5
3A47
330
A
100
AcDbEntity
  8
MODEL
  6
Continuous
100
AcDbLine
 10
218.4192985803539
 20
1313.942479458191
 30
0.0
 11
218.4192985803539
 21
1311.881474507791
 31
0.0
  0
LINE
  5
3A48
330
A
100
AcDbEntity
  8
MODEL
  6
Continuous
100
AcDbLine
 10
254.2192985803532
 20
1311.881474507791
 30
0.0
 11
254.2192985803532
 21
1313.942479458191
 31
0.0
  0
ARC
  5
3A49
330
A
100
AcDbEntity
  8
MODEL
  6
Continuous
100
AcDbCircle
 10
236.3192985803535
 20
1320.68431495819
 30
0.0
 40
20.0
100
AcDbArc
 50
206.835321646699
 51
333.164678353301
  0
ARC
  5
3A4A
330
A
100
AcDbEntity
  8
MODEL
  6
Continuous
100
AcDbCircle
 10
218.9192985803539
 20
1311.881474507791
 30
0.0
 40
0.5000000000000004
100
AcDbArc
 50
180.0
 51
206.8353216467359
  0
ARC
  5
3A4B
330
A
100
AcDbEntity
  8
MODEL
  6
Continuous
100
AcDbCircle
 10
253.7192985803532
 20
1311.881474507791
 30
0.0
 40
0.5000000000000008
100
AcDbArc
 50
333.1646783532642
 51
0.0
  0
LINE
  5
3A4C
330
A
100
AcDbEntity
  8
MODEL
  6
Continuous
100
AcDbLine
 10
217.7145307983538
 20
1381.24038510099
 30
0.0
 11
218.4192985803539
 21
1313.942479458191
 31
0.0
  0
LINE
  5
3A4D
330
A
100
AcDbEntity
  8
MODEL
  6
Continuous
100
AcDbLine
 10
254.2192985803532
 20
1313.942479458191
 30
0.0
 11
254.9240663627535
 21
1381.24038510099
 31
0.0
  0
ARC
  5
3A4E
330
A
100
AcDbEntity
  8
MODEL
  6
Continuous
100
AcDbCircle
 10
217.9145198319539
 20
1381.242479458191
 30
0.0
 40
0.2000000000000028
100
AcDbArc
 50
90.0
 51
180.6000000000326
  0
ARC
  5
3A4F
330
A
100
AcDbEntity
  8
MODEL
  6
Continuous
100
AcDbCircle
 10
254.7240773287532
 20
1381.242479458191
 30
0.0
 40
0.2000000000000008
100
AcDbArc
 50
359.3999999999673
 51
90.0
  0
LINE
  5
3A50
330
A
100
AcDbEntity
  8
MODEL
  6
Continuous
100
AcDbLine
 10
302.5071058911536
 20
1322.442479458191
 30
0.0
 11
296.3893102335534
 21
1322.442479458191
 31
0.0
  0
LINE
  5
3A51
330
A
100
AcDbEntity
  8
MODEL
  6
Continuous
100
AcDbLine
 10
295.5968532519538
 20
1322.442479458191
 30
0.0
 11
296.3893102335534
 21
1322.442479458191
 31
0.0
  0
LINE
  5
3A52
330
A
100
AcDbEntity
  8
MODEL
  6
Continuous
100
AcDbLine
 10
295.4573270547536
 20
1322.442479458191
 30
0.0
 11
295.5968532519538
 21
1322.442479458191
 31
0.0
  0
ARC
  5
3A53
330
A
100
AcDbEntity
  8
MODEL
  6
Continuous
100
AcDbCircle
 10
295.460776977554
 20
1321.913610254191
 30
0.0
 40
0.5288804559945072
100
AcDbArc
 50
90.37374690238255
 51
134.5652866144092
  0
LINE
  5
3A54
330
A
100
AcDbEntity
  8
MODEL
  6
Continuous
100
AcDbLine
 10
296.3893102335534
 20
1340.442479458191
 30
0.0
 11
302.5071058911536
 21
1340.442479458191
 31
0.0
  0
LINE
  5
3A55
330
A
100
AcDbEntity
  8
MODEL
  6
Continuous
100
AcDbLine
 10
295.5968532519538
 20
1340.442479458191
 30
0.0
 11
295.4573270547536
 21
1340.442479458191
 31
0.0
  0
LINE
  5
3A56
330
A
100
AcDbEntity
  8
MODEL
  6
Continuous
100
AcDbLine
 10
296.3893102335534
 20
1340.442479458191
 30
0.0
 11
295.5968532519538
 21
1340.442479458191
 31
0.0
  0
SPLINE
  5
3A57
330
A
100
AcDbEntity
  8
MODEL
  6
Continuous
100
AcDbSpline
210
0.0
220
0.0
230
1.0
 70
     8
 71
     3
 72
    40
 73
    36
 74
     0
 42
0.000000001
 43
0.0000000001
 40
0.0
 40
0.0
 40
0.0
 40
0.0
 40
0.0624999999999995
 40
0.0624999999999995
 40
0.1249999999999991
 40
0.1249999999999991
 40
0.156249999999999
 40
0.156249999999999
 40
0.1874999999999989
 40
0.1874999999999989
 40
0.2499999999999989
 40
0.2499999999999989
 40
0.3124999999999991
 40
0.3124999999999991
 40
0.3749999999999991
 40
0.3749999999999991
 40
0.4374999999999992
 40
0.4374999999999992
 40
0.4999999999999993
 40
0.4999999999999993
 40
0.5624999999999994
 40
0.5624999999999994
 40
0.6249999999999996
 40
0.6249999999999996
 40
0.6874999999999997
 40
0.6874999999999997
 40
0.7499999999999998
 40
0.7499999999999998
 40
0.8125
 40
0.8125
 40
0.875
 40
0.875
 40
0.9375
 40
0.9375
 40
1.0
 40
1.0
 40
1.0
 40
1.0
 10
295.0896501727367
 20
1340.594547080862
 30
0.0
 10
294.2126563018647
 20
1341.451427172419
 30
0.0
 10
293.2153648997411
 20
1342.182682530171
 30
0.0
 10
291.0399050000161
 20
1343.351195148432
 30
0.0
 10
289.868844152502
 20
1343.794475207477
 30
0.0
 10
287.8903952727588
 20
1344.216372939154
 30
0.0
 10
287.2174844871926
 20
1344.309564722317
 30
0.0
 10
285.839740034383
 20
1344.395839938583
 30
0.0
 10
285.134294696718
 20
1344.386812312912
 30
0.0
 10
283.0925790012808
 20
1344.209194226134
 30
0.0
 10
281.792584936553
 20
1343.890828489312
 30
0.0
 10
279.4452453479718
 20
1342.965166265162
 30
0.0
 10
278.3679832948011
 20
1342.350380577328
 30
0.0
 10
276.4392158746861
 20
1340.868017576315
 30
0.0
 10
275.560981206888
 20
1339.977388760434
 30
0.0
 10
274.0785491833268
 20
1337.940208779634
 30
0.0
 10
273.4613027551596
 20
1336.772443311942
 30
0.0
 10
272.6089132501567
 20
1334.23837285446
 30
0.0
 10
272.3734623733727
 20
1332.850638415124
 30
0.0
 10
272.3662134544858
 20
1330.101467496694
 30
0.0
 10
272.5941158163342
 20
1328.711688216147
 30
0.0
 10
273.4364575029068
 20
1326.16623097002
 30
0.0
 10
274.0478342982771
 20
1324.995275656406
 30
0.0
 10
275.5345787770576
 20
1322.935848769112
 30
0.0
 10
276.4009482705607
 20
1322.052132137545
 30
0.0
 10
278.3299422702058
 20
1320.558258779892
 30
0.0
 10
279.4084958988052
 20
1319.938800654102
 30
0.0
 10
281.7472954680071
 20
1319.007629651784
 30
0.0
 10
283.0447200224045
 20
1318.684315036965
 30
0.0
 10
285.7759793497536
 20
1318.43807380206
 30
0.0
 10
287.1986712576619
 20
1318.525026530611
 30
0.0
 10
289.8247736904196
 20
1319.077250529793
 30
0.0
 10
291.0276781898639
 20
1319.527728731695
 30
0.0
 10
293.2187750262193
 20
1320.703577822863
 30
0.0
 10
294.1999362176495
 20
1321.421103393422
 30
0.0
 10
295.0896501727367
 20
1322.290411835153
 30
0.0
  0
ARC
  5
3A58
330
A
100
AcDbEntity
  8
MODEL
  6
Continuous
100
AcDbCircle
 10
295.4626813335536
 20
1340.975953110991
 30
0.0
 40
0.5335005218666596
100
AcDbArc
 50
225.6360038556433
 51
269.4249626279158
  0
ARC
  5
3A59
330
A
100
AcDbEntity
  8
MODEL
  6
Continuous
100
AcDbCircle
 10
281.7947907139534
 20
1331.442479458191
 30
0.0
 40
23.99999999999998
100
AcDbArc
 50
311.8683062263005
 51
334.2285382594003
  0
LINE
  5
3A5A
330
A
100
AcDbEntity
  8
MODEL
  6
Continuous
100
AcDbLine
 10
254.2192985803532
 20
1313.442479458191
 30
0.0
 11
297.4791778555538
 21
1313.442479458191
 31
0.0
  0
LINE
  5
3A5B
330
A
100
AcDbEntity
  8
MODEL
  6
Continuous
100
AcDbLine
 10
297.4791778555538
 20
1349.442479458191
 30
0.0
 11
254.5910673007539
 21
1349.442479458191
 31
0.0
  0
ARC
  5
3A5C
330
A
100
AcDbEntity
  8
MODEL
  6
Continuous
100
AcDbCircle
 10
281.7947907139534
 20
1331.442479458191
 30
0.0
 40
23.99999999999999
100
AcDbArc
 50
25.77146174059972
 51
48.13169377369946
  0
ARC
  5
3A5D
330
A
100
AcDbEntity
  8
MODEL
  6
Continuous
100
AcDbCircle
 10
302.5071058911536
 20
1341.442479458191
 30
0.0
 40
1.000000000000001
100
AcDbArc
 50
270.0
 51
25.77146174060054
  0
ARC
  5
3A5E
330
A
100
AcDbEntity
  8
MODEL
  6
Continuous
100
AcDbCircle
 10
302.5071058911536
 20
1321.442479458191
 30
0.0
 40
0.999999999999988
100
AcDbArc
 50
334.2285382593995
 51
90.0
  0
ARC
  5
3A5F
330
A
100
AcDbEntity
  8
MODEL
  6
Continuous
100
AcDbCircle
 10
297.4791778555538
 20
1313.942479458191
 30
0.0
 40
0.5000000000000004
100
AcDbArc
 50
270.0
 51
311.8683062263142
  0
ARC
  5
3A60
330
A
100
AcDbEntity
  8
MODEL
  6
Continuous
100
AcDbCircle
 10
297.4791778555538
 20
1348.942479458191
 30
0.0
 40
0.5000000000000008
100
AcDbArc
 50
48.13169377364895
 51
90.0
  0
LINE
  5
3A61
330
A
100
AcDbEntity
  8
MODEL
  6
Continuous
100
AcDbLine
 10
295.4555484435533
 20
1340.442479458191
 30
0.0
 11
294.5784114759537
 21
1340.442479458191
 31
0.0
  0
LINE
  5
3A62
330
A
100
AcDbEntity
  8
MODEL
  6
Continuous
100
AcDbLine
 10
295.4555630115539
 20
1322.442479458191
 30
0.0
 11
294.5784114759537
 21
1322.442479458191
 31
0.0
  0
SPLINE
  5
3A63
330
A
100
AcDbEntity
  8
MODEL
  6
Continuous
100
AcDbSpline
210
0.0
220
0.0
230
1.0
 70
     8
 71
     3
 72
    30
 73
    26
 74
     0
 42
0.000000001
 43
0.0000000001
 40
0.0
 40
0.0
 40
0.0
 40
0.0
 40
0.0625000000000002
 40
0.0625000000000002
 40
0.1250000000000004
 40
0.1250000000000004
 40
0.1875000000000004
 40
0.1875000000000004
 40
0.2500000000000004
 40
0.2500000000000004
 40
0.3750000000000003
 40
0.3750000000000003
 40
0.5000000000000002
 40
0.5000000000000002
 40
0.6250000000000002
 40
0.6250000000000002
 40
0.7500000000000001
 40
0.7500000000000001
 40
0.8125000000000001
 40
0.8125000000000001
 40
0.8750000000000001
 40
0.8750000000000001
 40
0.9375000000000001
 40
0.9375000000000001
 40
1.0
 40
1.0
 40
1.0
 40
1.0
 10
289.8661665180726
 20
1322.004850813592
 30
0.0
 10
289.1128174400384
 20
1321.651948275741
 30
0.0
 10
288.2887940450056
 20
1321.382022868645
 30
0.0
 10
286.5679035174636
 20
1321.069433471948
 30
0.0
 10
285.6555425495663
 20
1321.028268684391
 30
0.0
 10
283.9013537914553
 20
1321.189819231358
 30
0.0
 10
283.0423841688954
 20
1321.391582434622
 30
0.0
 10
281.4720255946305
 20
1321.972540030703
 30
0.0
 10
280.7356366536825
 20
1322.358132796519
 30
0.0
 10
278.7334775408809
 20
1323.725707643302
 30
0.0
 10
277.6198250773597
 20
1324.947914756096
 30
0.0
 10
276.027620930564
 20
1327.866942596773
 30
0.0
 10
275.5461080325359
 20
1329.632753229435
 30
0.0
 10
275.5366858369681
 20
1333.196484253238
 30
0.0
 10
275.9965460172353
 20
1334.94529003825
 30
0.0
 10
277.6070732963391
 20
1337.929000537833
 30
0.0
 10
278.7196351047988
 20
1339.146230432526
 30
0.0
 10
280.7197049843409
 20
1340.517696508758
 30
0.0
 10
281.4566256978316
 20
1340.90544195339
 30
0.0
 10
283.0312703342071
 20
1341.490523237679
 30
0.0
 10
283.8897819529367
 20
1341.693186292252
 30
0.0
 10
285.6476727821674
 20
1341.856843402417
 30
0.0
 10
286.5613419568245
 20
1341.816244523262
 30
0.0
 10
288.2851056721166
 20
1341.504076003745
 30
0.0
 10
289.1110883800039
 20
1341.23382060964
 30
0.0
 10
289.8661665180726
 20
1340.880108102423
 30
0.0
  0
ARC
  5
3A64
330
A
100
AcDbEntity
  8
MODEL
  6
Continuous
100
AcDbCircle
 10
291.7326878963532
 20
1318.24399984179
 30
0.0
 40
4.198559525382724
100
AcDbArc
 50
89.64650276169179
 51
116.395339753996
  0
LINE
  5
3A65
330
A
100
AcDbEntity
  8
MODEL
  6
Continuous
100
AcDbLine
 10
291.7585915455539
 20
1322.442479458191
 30
0.0
 11
294.5784114759537
 21
1322.442479458191
 31
0.0
  0
LINE
  5
3A66
330
A
100
AcDbEntity
  8
MODEL
  6
Continuous
100
AcDbLine
 10
294.5784114759537
 20
1322.442479458191
 30
0.0
 11
293.9881949411539
 21
1322.408061870191
 31
0.0
  0
ARC
  5
3A67
330
A
100
AcDbEntity
  8
MODEL
  6
Continuous
100
AcDbCircle
 10
294.7091719995534
 20
1316.426494133791
 30
0.0
 40
6.024861865838092
100
AcDbArc
 50
96.87288376820075
 51
119.3268063338988
  0
LINE
  5
3A68
330
A
100
AcDbEntity
  8
MODEL
  6
Continuous
100
AcDbLine
 10
294.5784114759537
 20
1340.442479458191
 30
0.0
 11
291.7585915455539
 21
1340.442479458191
 31
0.0
  0
ARC
  5
3A69
330
A
100
AcDbEntity
  8
MODEL
  6
Continuous
100
AcDbCircle
 10
291.7326878963532
 20
1344.640959074191
 30
0.0
 40
4.198559525382428
100
AcDbArc
 50
243.604660246004
 51
270.3534972383082
  0
SPLINE
  5
3A6A
330
A
100
AcDbEntity
  8
MODEL
  6
Continuous
100
AcDbSpline
210
0.0
220
0.0
230
1.0
 70
     8
 71
     3
 72
    34
 73
    30
 74
     0
 42
0.000000001
 43
0.0000000001
 40
0.0
 40
0.0
 40
0.0
 40
0.0
 40
0.0625000000000003
 40
0.0625000000000003
 40
0.1250000000000007
 40
0.1250000000000007
 40
0.1875000000000006
 40
0.1875000000000006
 40
0.2500000000000006
 40
0.2500000000000006
 40
0.3750000000000005
 40
0.3750000000000005
 40
0.4375000000000004
 40
0.4375000000000004
 40
0.5000000000000003
 40
0.5000000000000003
 40
0.5625000000000003
 40
0.5625000000000003
 40
0.6250000000000003
 40
0.6250000000000003
 40
0.7500000000000001
 40
0.7500000000000001
 40
0.8125000000000001
 40
0.8125000000000001
 40
0.8750000000000001
 40
0.8750000000000001
 40
0.9375000000000001
 40
0.9375000000000001
 40
1.0
 40
1.0
 40
1.0
 40
1.0
 10
291.758252475399
 20
1341.205747917189
 30
0.0
 10
290.9189414614167
 20
1341.700501976015
 30
0.0
 10
289.9988688632094
 20
1342.102040403448
 30
0.0
 10
288.0139215421879
 20
1342.671016586105
 30
0.0
 10
286.9334694967075
 20
1342.836317410623
 30
0.0
 10
284.7803618522304
 20
1342.870959563071
 30
0.0
 10
283.6920418826677
 20
1342.739783709484
 30
0.0
 10
281.6950722729299
 20
1342.236858155336
 30
0.0
 10
280.7561614373955
 20
1341.863058700834
 30
0.0
 10
278.2010648545694
 20
1340.468437239415
 30
0.0
 10
276.75845319336
 20
1339.14582375706
 30
0.0
 10
275.1581701140641
 20
1336.614698584094
 30
0.0
 10
274.716389634863
 20
1335.66269667537
 30
0.0
 10
274.1142459013719
 20
1333.64393695507
 30
0.0
 10
273.9499036429353
 20
1332.555402761634
 30
0.0
 10
273.9431666371357
 20
1330.399715973634
 30
0.0
 10
274.1008184043441
 20
1329.307773610361
 30
0.0
 10
274.6934807452482
 20
1327.278613486876
 30
0.0
 10
275.1289837943615
 20
1326.325578803946
 30
0.0
 10
276.7311766626555
 20
1323.76467960112
 30
0.0
 10
278.1769818280228
 20
1322.434564492498
 30
0.0
 10
280.7343528196317
 20
1321.031403139438
 30
0.0
 10
281.6454874199609
 20
1320.66455008456
 30
0.0
 10
283.6571007813255
 20
1320.150176224652
 30
0.0
 10
284.7399537993671
 20
1320.015440137112
 30
0.0
 10
286.9276872378615
 20
1320.046501233926
 30
0.0
 10
288.0031833898685
 20
1320.211748899653
 30
0.0
 10
289.9906989691191
 20
1320.779700413675
 30
0.0
 10
290.9097769622987
 20
1321.179054683793
 30
0.0
 10
291.758252475399
 20
1321.679210998827
 30
0.0
  0
ARC
  5
3A6B
330
A
100
AcDbEntity
  8
MODEL
  6
Continuous
100
AcDbCircle
 10
294.7091719995534
 20
1346.458464782191
 30
0.0
 40
6.024861865856096
100
AcDbArc
 50
240.6731936660998
 51
263.1271162318025
  0
LINE
  5
3A6C
330
A
100
AcDbEntity
  8
MODEL
  6
Continuous
100
AcDbLine
 10
293.9881949411539
 20
1340.476897046191
 30
0.0
 11
294.5784114759537
 21
1340.442479458191
 31
0.0
  0
LINE
  5
3A6D
330
A
100
AcDbEntity
  8
MODEL
  6
Continuous
100
AcDbLine
 10
289.9480197571539
 20
1322.055318694991
 30
0.0
 11
289.9292360135533
 21
1322.047236381391
 31
0.0
  0
LINE
  5
3A6E
330
A
100
AcDbEntity
  8
MODEL
  6
Continuous
100
AcDbLine
 10
218.0475298599532
 20
1349.442479458191
 30
0.0
 11
194.1833781063534
 21
1349.442479458191
 31
0.0
  0
LINE
  5
3A6F
330
A
100
AcDbEntity
  8
MODEL
  6
Continuous
100
AcDbLine
 10
194.1833781063534
 20
1313.442479458191
 30
0.0
 11
218.4192985803539
 21
1313.442479458191
 31
0.0
  0
ARC
  5
3A70
330
A
100
AcDbEntity
  8
MODEL
  6
Continuous
100
AcDbCircle
 10
212.6870964675537
 20
1331.442479458191
 30
0.0
 40
25.96836455654523
100
AcDbArc
 50
136.5968887931005
 51
223.4031112068995
  0
ARC
  5
3A71
330
A
100
AcDbEntity
  8
MODEL
  6
Continuous
100
AcDbCircle
 10
194.1833781063534
 20
1348.942479458191
 30
0.0
 40
0.5000000000000004
100
AcDbArc
 50
90.0
 51
136.5968887930674
  0
ARC
  5
3A72
330
A
100
AcDbEntity
  8
MODEL
  6
Continuous
100
AcDbCircle
 10
194.1833781063534
 20
1313.942479458191
 30
0.0
 40
0.5000000000000048
100
AcDbArc
 50
223.4031112069649
 51
270.0
  0
LINE
  5
3A73
330
A
100
AcDbEntity
  8
MODEL
  6
Continuous
100
AcDbLine
 10
248.1560760635531
 20
1381.442479458191
 30
0.0
 11
248.4414580951535
 21
1381.442479458191
 31
0.0
  0
LINE
  5
3A74
330
A
100
AcDbEntity
  8
MODEL
  6
Continuous
100
AcDbLine
 10
224.5566687779538
 20
1381.442479458191
 30
0.0
 11
248.0825240163532
 21
1381.442479458191
 31
0.0
  0
LINE
  5
3A75
330
A
100
AcDbEntity
  8
MODEL
  6
Continuous
100
AcDbLine
 10
224.4831056647537
 20
1381.442479458191
 30
0.0
 11
224.5566687779538
 21
1381.442479458191
 31
0.0
  0
LINE
  5
3A76
330
A
100
AcDbEntity
  8
MODEL
  6
Continuous
100
AcDbLine
 10
248.0825240163532
 20
1381.442479458191
 30
0.0
 11
248.1560760635531
 21
1381.442479458191
 31
0.0
  0
LINE
  5
3A77
330
A
100
AcDbEntity
  8
MODEL
  6
Continuous
100
AcDbLine
 10
248.1560760635531
 20
1381.442479458191
 30
0.0
 11
247.6213596043536
 21
1330.38268540939
 31
0.0
  0
ARC
  5
3A78
330
A
100
AcDbEntity
  8
MODEL
  6
Continuous
100
AcDbCircle
 10
236.3211518375539
 20
1331.44466677619
 30
0.0
 40
11.35
100
AcDbArc
 50
185.1753533805004
 51
354.6311731317015
  0
LINE
  5
3A79
330
A
100
AcDbEntity
  8
MODEL
  6
Continuous
100
AcDbLine
 10
225.0174224575531
 20
1330.42084936099
 30
0.0
 11
224.4831056647537
 21
1381.442479458191
 31
0.0
  0
ARC
  5
3A7A
330
A
100
AcDbEntity
  8
MODEL
  6
Continuous
100
AcDbCircle
 10
225.1078744519537
 20
1329.90717718819
 30
0.0
 40
0.5215751760796016
100
AcDbArc
 50
91.69112158941954
 51
99.98677265374484
  0
ARC
  5
3A7B
330
A
100
AcDbEntity
  8
MODEL
  6
Continuous
100
AcDbCircle
 10
247.5314154987537
 20
1329.895898738991
 30
0.0
 40
0.4950264683053752
100
AcDbArc
 50
79.53146367487443
 51
88.27536740219982
  0
LINE
  5
3A7C
330
A
100
AcDbEntity
  8
MODEL
  6
Continuous
100
AcDbLine
 10
224.1766608419531
 20
1381.442479458191
 30
0.0
 11
224.4831056647537
 21
1381.442479458191
 31
0.0
  0
LINE
  5
3A7D
330
A
100
AcDbEntity
  8
MODEL
  6
Continuous
100
AcDbLine
 10
218.9695963971531
 20
969.100566818802
 30
0.0
 11
218.9695963971531
 21
1004.700566818802
 31
0.0
  0
LINE
  5
3A7E
330
A
100
AcDbEntity
  8
MODEL
  6
Continuous
100
AcDbLine
 10
198.9958999175528
 20
1004.900566818802
 30
0.0
 11
194.1836759231533
 21
1004.900566818802
 31
0.0
  0
LINE
  5
3A7F
330
A
100
AcDbEntity
  8
MODEL
  6
Continuous
100
AcDbLine
 10
218.7695963971532
 20
1004.900566818802
 30
0.0
 11
213.9394189447535
 21
1004.900566818802
 31
0.0
  0
LINE
  5
3A80
330
A
100
AcDbEntity
  8
MODEL
  6
Continuous
100
AcDbLine
 10
194.1836759231533
 20
968.9005668188022
 30
0.0
 11
218.7695963971532
 21
968.9005668188022
 31
0.0
  0
ARC
  5
3A81
330
A
100
AcDbEntity
  8
MODEL
  6
Continuous
100
AcDbCircle
 10
212.6873942843526
 20
986.9005668188022
 30
0.0
 40
25.96836455654524
100
AcDbArc
 50
136.5968887930985
 51
180.0
  0
ARC
  5
3A82
330
A
100
AcDbEntity
  8
MODEL
  6
Continuous
100
AcDbCircle
 10
212.6873942843526
 20
986.9005668188022
 30
0.0
 40
25.96836455654523
100
AcDbArc
 50
180.0
 51
223.4031112068999
  0
ARC
  5
3A83
330
A
100
AcDbEntity
  8
MODEL
  6
Continuous
100
AcDbCircle
 10
194.1836759231533
 20
1004.400566818802
 30
0.0
 40
0.5000000000000004
100
AcDbArc
 50
90.0
 51
136.5968887932148
  0
ARC
  5
3A84
330
A
100
AcDbEntity
  8
MODEL
  6
Continuous
100
AcDbCircle
 10
194.1836759231533
 20
969.4005668188022
 30
0.0
 40
0.5000000000000048
100
AcDbArc
 50
223.4031112068589
 51
270.0
  0
LINE
  5
3A85
330
A
100
AcDbEntity
  8
MODEL
  6
Continuous
100
AcDbLine
 10
213.4653279247527
 20
1005.389685310002
 30
0.0
 11
213.4320714135533
 21
1009.200504040402
 31
0.0
  0
LINE
  5
3A86
330
A
100
AcDbEntity
  8
MODEL
  6
Continuous
100
AcDbLine
 10
199.5071313855528
 20
1009.201650490002
 30
0.0
 11
199.4738294495533
 21
1005.385626592802
 31
0.0
  0
LINE
  5
3A87
330
A
100
AcDbEntity
  8
MODEL
  6
Continuous
100
AcDbLine
 10
212.7104377991532
 20
1009.900566818802
 30
0.0
 11
200.2297645331532
 21
1009.900566818802
 31
0.0
  0
ARC
  5
3A88
330
A
100
AcDbEntity
  8
MODEL
  6
Continuous
100
AcDbCircle
 10
200.2039903943528
 20
1009.206489906802
 30
0.0
 40
0.6923758793108032
100
AcDbArc
 50
87.86925575474854
 51
180.5500474692889
  0
SPLINE
  5
3A89
330
A
100
AcDbEntity
  8
MODEL
  6
Continuous
100
AcDbSpline
210
0.0
220
0.0
230
1.0
 70
     8
 71
     3
 72
    15
 73
    11
 74
     0
 42
0.000000001
 43
0.0000000001
 40
0.0
 40
0.0
 40
0.0
 40
0.0
 40
0.0551762614683106
 40
0.261932970519388
 40
0.4592937526084362
 40
0.6228263658106652
 40
0.7635025605362857
 40
0.8836261532293064
 40
0.9827696099362482
 40
1.0
 40
1.0
 40
1.0
 40
1.0
 10
213.4244095134222
 20
1009.199005436972
 30
0.0
 10
213.4268039678959
 20
1009.22151931337
 30
0.0
 10
213.4359583628107
 20
1009.313468079164
 30
0.0
 10
213.380678095958
 20
1009.487957828285
 30
0.0
 10
213.2669855831869
 20
1009.666698489327
 30
0.0
 10
213.1220968708781
 20
1009.789473891052
 30
0.0
 10
212.978833513625
 20
1009.860728863057
 30
0.0
 10
212.849239822664
 20
1009.893300571015
 30
0.0
 10
212.7580539676742
 20
1009.902505584822
 30
0.0
 10
212.7171999277284
 20
1009.899561732534
 30
0.0
 10
212.7101536173973
 20
1009.899036407197
 30
0.0
  0
ARC
  5
3A8A
330
A
100
AcDbEntity
  8
MODEL
  6
Continuous
100
AcDbCircle
 10
213.9548138627529
 20
1005.389528781602
 30
0.0
 40
0.4851894740108304
100
AcDbArc
 50
179.6857279666262
 51
268.3580667945768
  0
SPLINE
  5
3A8B
330
A
100
AcDbEntity
  8
MODEL
  6
Continuous
100
AcDbSpline
210
0.0
220
0.0
230
1.0
 70
     8
 71
     3
 72
    13
 73
     9
 74
     0
 42
0.000000001
 43
0.0000000001
 40
0.0
 40
0.0
 40
0.0
 40
0.0
 40
0.0811024011427324
 40
0.3235526942588176
 40
0.5583159344614106
 40
0.7456119481069523
 40
0.9031781037570608
 40
1.0
 40
1.0
 40
1.0
 40
1.0
 10
199.4669227198315
 20
1005.384794322541
 30
0.0
 10
199.4683477374242
 20
1005.362674727881
 30
0.0
 10
199.4725183057294
 20
1005.286715104652
 30
0.0
 10
199.4167101915923
 20
1005.149078544484
 30
0.0
 10
199.3117108796682
 20
1005.020218707224
 30
0.0
 10
199.1885699787031
 20
1004.943074529974
 30
0.0
 10
199.0806709712947
 20
1004.907640122541
 30
0.0
 10
199.0215555358523
 20
1004.904131968647
 30
0.0
 10
198.9951358854773
 20
1004.902883638463
 30
0.0
  0
ARC
  5
3A8C
330
A
100
AcDbEntity
  8
MODEL
  6
Continuous
100
AcDbCircle
 10
218.7695963971532
 20
969.100566818802
 30
0.0
 40
0.2000000000000336
100
AcDbArc
 50
270.0
 51
0.0
  0
ARC
  5
3A8D
330
A
100
AcDbEntity
  8
MODEL
  6
Continuous
100
AcDbCircle
 10
218.7695963971532
 20
1004.700566818802
 30
0.0
 40
0.2000000000000024
100
AcDbArc
 50
0.0
 51
90.0
  0
LINE
  5
3A8E
330
A
100
AcDbEntity
  8
MODEL
  6
Continuous
100
AcDbLine
 10
253.1695963971529
 20
1004.700566818802
 30
0.0
 11
253.1695963971529
 21
969.100566818802
 31
0.0
  0
LINE
  5
3A8F
330
A
100
AcDbEntity
  8
MODEL
  6
Continuous
100
AcDbLine
 10
253.3695963971527
 20
968.9005668188022
 30
0.0
 11
273.6261349107531
 21
968.9005668188022
 31
0.0
  0
LINE
  5
3A90
330
A
100
AcDbEntity
  8
MODEL
  6
Continuous
100
AcDbLine
 10
271.8094054631533
 20
1004.900566818802
 30
0.0
 11
253.3695963971527
 21
1004.900566818802
 31
0.0
  0
ARC
  5
3A91
330
A
100
AcDbEntity
  8
MODEL
  6
Continuous
100
AcDbCircle
 10
253.3695963971527
 20
969.100566818802
 30
0.0
 40
0.2000000000000024
100
AcDbArc
 50
180.0
 51
270.0
  0
ARC
  5
3A92
330
A
100
AcDbEntity
  8
MODEL
  6
Continuous
100
AcDbCircle
 10
253.3695963971527
 20
1004.700566818802
 30
0.0
 40
0.2000000000000336
100
AcDbArc
 50
90.0
 51
180.0
  0
ARC
  5
3A93
330
A
100
AcDbEntity
  8
MODEL
  6
Continuous
100
AcDbCircle
 10
281.7950885307532
 20
986.9005668188022
 30
0.0
 40
21.71231517720799
100
AcDbArc
 50
317.3729008372007
 51
42.61260394869993
  0
SPLINE
  5
3A94
330
A
100
AcDbEntity
  8
MODEL
  6
Continuous
100
AcDbSpline
210
0.0
220
0.0
230
1.0
 70
     8
 71
     3
 72
     9
 73
     5
 74
     0
 42
0.000000001
 43
0.0000000001
 40
0.0
 40
0.0
 40
0.0
 40
0.0
 40
0.1975111713959799
 40
1.0
 40
1.0
 40
1.0
 40
1.0
 10
295.3255201372372
 20
1002.013683457189
 30
0.0
 10
295.2973644919034
 20
1001.995378611604
 30
0.0
 10
295.174708659411
 20
1001.915677093253
 30
0.0
 10
295.0402033242731
 20
1001.83069245214
 30
0.0
 10
294.9279610503686
 20
1001.760825520674
 30
0.0
  0
SPLINE
  5
3A95
330
A
100
AcDbEntity
  8
MODEL
  6
Continuous
100
AcDbSpline
210
0.0
220
0.0
230
1.0
 70
     8
 71
     3
 72
    49
 73
    45
 74
     0
 42
0.000000001
 43
0.0000000001
 40
0.0
 40
0.0
 40
0.0
 40
0.0
 40
0.0275038903375825
 40
0.0616344819005758
 40
0.0961948402215141
 40
0.1308915773328704
 40
0.1645022851972331
 40
0.1967734709212692
 40
0.223843530725474
 40
0.2524812901429061
 40
0.2800959938869943
 40
0.3068930928638116
 40
0.3328391652007467
 40
0.3579977472523599
 40
0.3825242445797172
 40
0.4079225534204994
 40
0.4343787659618109
 40
0.4618838478879378
 40
0.4906443767284774
 40
0.5208039538237018
 40
0.5524226399539331
 40
0.5854407944427767
 40
0.6196382518657818
 40
0.6546083560679413
 40
0.6860712372839898
 40
0.7194323383013143
 40
0.7524229727759169
 40
0.7850148160487204
 40
0.8169956933638691
 40
0.8482239586727072
 40
0.8786342037001376
 40
0.9082343499619495
 40
0.9370993064978086
 40
0.9653727013979385
 40
0.9793562085566413
 40
0.9864840550748811
 40
0.9892441526747253
 40
0.9906939326271197
 40
0.9915584829201103
 40
0.992190176413468
 40
0.9933068374692011
 40
0.9957730621005325
 40
0.9990310252716124
 40
1.0
 40
1.0
 40
1.0
 40
1.0
 10
295.323924753739
 20
1002.014100520681
 30
0.0
 10
295.1019657581814
 20
1001.872726948161
 30
0.0
 10
294.6795234688384
 20
1001.604807105108
 30
0.0
 10
293.8950014241577
 20
1001.132909832402
 30
0.0
 10
293.0288073190818
 20
1000.64174514679
 30
0.0
 10
292.1094401221749
 20
1000.163853841282
 30
0.0
 10
291.1632503989954
 20
999.7246103343953
 30
0.0
 10
290.2447267498615
 20
999.3544636834811
 30
0.0
 10
289.340174413584
 20
999.0456051293738
 30
0.0
 10
288.4510037647583
 20
998.8055782777258
 30
0.0
 10
287.538746731359
 20
998.6245916928904
 30
0.0
 10
286.6377060585123
 20
998.5114082034686
 30
0.0
 10
285.7541404422232
 20
998.4662131765792
 30
0.0
 10
284.8949657072731
 20
998.4897332586659
 30
0.0
 10
284.0499338429395
 20
998.579689060303
 30
0.0
 10
283.2044659286107
 20
998.7271044709971
 30
0.0
 10
282.3474586078087
 20
998.9353131879368
 30
0.0
 10
281.4820094920638
 20
999.2026662921191
 30
0.0
 10
280.6113586822244
 20
999.5269686976101
 30
0.0
 10
279.7378103232918
 20
999.905196349662
 30
0.0
 10
278.8660278175307
 20
1000.332106736699
 30
0.0
 10
278.0035215105577
 20
1000.799155207342
 30
0.0
 10
277.1608374083512
 20
1001.293481559562
 30
0.0
 10
276.3802101633187
 20
1001.780065576337
 30
0.0
 10
275.6520563121053
 20
1002.249932459027
 30
0.0
 10
274.9910874084358
 20
1002.689881016461
 30
0.0
 10
274.3792330685069
 20
1003.109344574211
 30
0.0
 10
273.8350352259481
 20
1003.492339077982
 30
0.0
 10
273.3620173476343
 20
1003.833221954816
 30
0.0
 10
272.9631899666997
 20
1004.126836394509
 30
0.0
 10
272.6397094490299
 20
1004.369609034977
 30
0.0
 10
272.391327922151
 20
1004.559284574251
 30
0.0
 10
272.2167108585231
 20
1004.694731466074
 30
0.0
 10
272.1310307832468
 20
1004.762113372204
 30
0.0
 10
272.1013203930993
 20
1004.785586105223
 30
0.0
 10
272.0933716394507
 20
1004.791841011153
 30
0.0
 10
272.0880575572724
 20
1004.795983187623
 30
0.0
 10
272.0819693093777
 20
1004.800619698425
 30
0.0
 10
272.0722718906231
 20
1004.807770610276
 30
0.0
 10
272.0537995731579
 20
1004.820494268826
 30
0.0
 10
272.0132925020857
 20
1004.84543921975
 30
0.0
 10
271.9431680168341
 20
1004.87611349719
 30
0.0
 10
271.8663962752639
 20
1004.899307142303
 30
0.0
 10
271.821198417148
 20
1004.896574382236
 30
0.0
 10
271.809129121993
 20
1004.895801020611
 30
0.0
  0
SPLINE
  5
3A96
330
A
100
AcDbEntity
  8
MODEL
  6
Continuous
100
AcDbSpline
210
0.0
220
0.0
230
1.0
 70
     8
 71
     3
 72
    44
 73
    40
 74
     0
 42
0.000000001
 43
0.0000000001
 40
0.0
 40
0.0
 40
0.0
 40
0.0
 40
0.0029443101709897
 40
0.0059386659848642
 40
0.0080293723291097
 40
0.0095989335377131
 40
0.0114736965335106
 40
0.0147282909334425
 40
0.0221399463554275
 40
0.0375331419587616
 40
0.0700689276246451
 40
0.1046101908073312
 40
0.1383328368951613
 40
0.1725015874685073
 40
0.2074761942465533
 40
0.2433162585325474
 40
0.2799656863556712
 40
0.3172765408773275
 40
0.3550184445459664
 40
0.3929384144570601
 40
0.43144474013693
 40
0.470296693288382
 40
0.5082046030383425
 40
0.5446415100438186
 40
0.5793526858877317
 40
0.6123312655844462
 40
0.6437556534350548
 40
0.673927107796969
 40
0.7032235490301155
 40
0.7316665766623399
 40
0.7601640646202504
 40
0.7894756682201949
 40
0.8198966476145925
 40
0.851676441214124
 40
0.8849937854385274
 40
0.9199295188229506
 40
0.9564296719661616
 40
0.9942639037944029
 40
1.0
 40
1.0
 40
1.0
 40
1.0
 10
273.6245110458281
 20
968.9057738021836
 30
0.0
 10
273.6547379850858
 20
968.9066228687818
 30
0.0
 10
273.7061975230404
 20
968.9084319777523
 30
0.0
 10
273.7790110930086
 20
968.9287910728438
 30
0.0
 10
273.828255729863
 20
968.9492759510752
 30
0.0
 10
273.855893519521
 20
968.9633134262647
 30
0.0
 10
273.8761060011452
 20
968.974732758508
 30
0.0
 10
273.8956899846294
 20
968.9868961703662
 30
0.0
 10
273.9153001083491
 20
969.0000378879588
 30
0.0
 10
273.954783377339
 20
969.0275853120636
 30
0.0
 10
274.0461457412043
 20
969.0938293813772
 30
0.0
 10
274.224115064811
 20
969.2228139211404
 30
0.0
 10
274.4728948754387
 20
969.4006147566031
 30
0.0
 10
274.7868994923952
 20
969.6206630860113
 30
0.0
 10
275.169989131487
 20
969.8828238203448
 30
0.0
 10
275.6234756265926
 20
970.1847063062748
 30
0.0
 10
276.1468720324533
 20
970.5222604859503
 30
0.0
 10
276.7379456657359
 20
970.8900173388413
 30
0.0
 10
277.3928052079223
 20
971.2809136317062
 30
0.0
 10
278.1099851034855
 20
971.690227264158
 30
0.0
 10
278.8870032539767
 20
972.1055201362699
 30
0.0
 10
279.7168974860883
 20
972.5111628172242
 30
0.0
 10
280.5827589923242
 20
972.8884089009414
 30
0.0
 10
281.4637585824353
 20
973.2204761889395
 30
0.0
 10
282.3461996617693
 20
973.4973676744264
 30
0.0
 10
283.2206389924163
 20
973.713514353911
 30
0.0
 10
284.0816814864525
 20
973.866497300078
 30
0.0
 10
284.9271815577963
 20
973.9558031263216
 30
0.0
 10
285.7536309168613
 20
973.9811266281706
 30
0.0
 10
286.5632621716418
 20
973.944342914356
 30
0.0
 10
287.3635127785524
 20
973.8518485815064
 30
0.0
 10
288.1650203201739
 20
973.7053320106277
 30
0.0
 10
288.9720735527994
 20
973.5057052087061
 30
0.0
 10
289.7839882596604
 20
973.254552342288
 30
0.0
 10
290.5971001510275
 20
972.9549707965564
 30
0.0
 10
291.4101792985034
 20
972.6101855252884
 30
0.0
 10
292.20020380899
 20
972.2331913490495
 30
0.0
 10
292.778153939908
 20
971.93564462582
 30
0.0
 10
293.0415189503124
 20
971.7880172442658
 30
0.0
 10
293.0818682848726
 20
971.7653680857663
 30
0.0
  0
ARC
  5
3A97
330
A
100
AcDbEntity
  8
MODEL
  6
Continuous
100
AcDbCircle
 10
295.5971510687527
 20
1001.597505275602
 30
0.0
 40
0.5000000000000004
100
AcDbArc
 50
90.0
 51
122.7788291914374
  0
LINE
  5
3A98
330
A
100
AcDbEntity
  8
MODEL
  6
Continuous
100
AcDbLine
 10
296.389608049953
 20
1002.097505275602
 30
0.0
 11
295.5971510687527
 21
1002.097505275602
 31
0.0
  0
ARC
  5
3A99
330
A
100
AcDbEntity
  8
MODEL
  6
Continuous
100
AcDbCircle
 10
296.469119289553
 20
1000.138352732802
 30
0.0
 40
1.958574084689094
100
AcDbArc
 50
48.33420233339013
 51
92.32603863850167
  0
SPLINE
  5
3A9A
330
A
100
AcDbEntity
  8
MODEL
  6
Continuous
100
AcDbSpline
210
0.0
220
0.0
230
1.0
 70
     8
 71
     3
 72
    13
 73
     9
 74
     0
 42
0.000000001
 43
0.0000000001
 40
0.0
 40
0.0
 40
0.0
 40
0.0
 40
0.1413643105813067
 40
0.3441509776705075
 40
0.5779082512991046
 40
0.8065353417344174
 40
0.9788594273876257
 40
1.0
 40
1.0
 40
1.0
 40
1.0
 10
296.3895626800299
 20
971.7069762941862
 30
0.0
 10
296.4723334452424
 20
971.7078550308936
 30
0.0
 10
296.6438546475288
 20
971.7107192638666
 30
0.0
 10
296.9490039864172
 20
971.7647771203658
 30
0.0
 10
297.2694392966964
 20
971.8616132573059
 30
0.0
 10
297.537770761413
 20
972.000824563843
 30
0.0
 10
297.7080666733686
 20
972.119879680977
 30
0.0
 10
297.7617242910296
 20
972.189960098651
 30
0.0
 10
297.7685236536477
 20
972.1988678105624
 30
0.0
  0
LINE
  5
3A9B
330
A
100
AcDbEntity
  8
MODEL
  6
Continuous
100
AcDbLine
 10
293.324348263553
 20
971.7036283624022
 30
0.0
 11
296.389608049953
 21
971.7036283624022
 31
0.0
  0
ARC
  5
3A9C
330
A
100
AcDbEntity
  8
MODEL
  6
Continuous
100
AcDbCircle
 10
293.324348263553
 20
972.2036283624022
 30
0.0
 40
0.5000000000000316
100
AcDbArc
 50
241.4304045039491
 51
270.0
  0
LINE
  5
3A9D
330
A
100
AcDbEntity
  8
MODEL
  6
Continuous
100
AcDbLine
 10
252.3195963971534
 20
969.2005668188024
 30
0.0
 11
252.3195963971534
 21
1004.600566818802
 31
0.0
  0
LINE
  5
3A9E
330
A
100
AcDbEntity
  8
MODEL
  6
Continuous
100
AcDbLine
 10
220.3195963971534
 20
1004.600566818802
 30
0.0
 11
220.3195963971534
 21
969.2005668188024
 31
0.0
  0
ARC
  5
3A9F
330
A
100
AcDbEntity
  8
MODEL
  6
Continuous
100
AcDbCircle
 10
236.3195963059529
 20
1018.589819097602
 30
0.0
 40
17.91083834044107
100
AcDbArc
 50
229.8447534459014
 51
310.1552502090998
  0
ARC
  5
3AA0
330
A
100
AcDbEntity
  8
MODEL
  6
Continuous
100
AcDbCircle
 10
236.3195963059529
 20
955.211314540402
 30
0.0
 40
17.91083834044103
100
AcDbArc
 50
49.84474979089985
 51
49.84826152749924
  0
ARC
  5
3AA1
330
A
100
AcDbEntity
  8
MODEL
  6
Continuous
100
AcDbCircle
 10
236.3195963059529
 20
955.211314540402
 30
0.0
 40
17.91083834044103
100
AcDbArc
 50
50.88488484459905
 51
130.1552465540981
  0
LINE
  5
3AA2
330
A
100
AcDbEntity
  8
MODEL
  6
Continuous
100
AcDbLine
 10
247.8695963971527
 20
968.9005668188022
 30
0.0
 11
252.0195963971532
 21
968.9005668188022
 31
0.0
  0
LINE
  5
3AA3
330
A
100
AcDbEntity
  8
MODEL
  6
Continuous
100
AcDbLine
 10
220.6195963971527
 20
968.9005668188022
 30
0.0
 11
224.7795326507526
 21
968.9005668188022
 31
0.0
  0
LINE
  5
3AA4
330
A
100
AcDbEntity
  8
MODEL
  6
Continuous
100
AcDbLine
 10
224.7795326507526
 20
1004.900566818802
 30
0.0
 11
220.6195963971527
 21
1004.900566818802
 31
0.0
  0
LINE
  5
3AA5
330
A
100
AcDbEntity
  8
MODEL
  6
Continuous
100
AcDbLine
 10
252.0195963971532
 20
1004.900566818802
 30
0.0
 11
247.8695963971527
 21
1004.900566818802
 31
0.0
  0
ARC
  5
3AA6
330
A
100
AcDbEntity
  8
MODEL
  6
Continuous
100
AcDbCircle
 10
252.0195963971532
 20
969.2005668188024
 30
0.0
 40
0.3000000000000224
100
AcDbArc
 50
270.0
 51
0.0
  0
ARC
  5
3AA7
330
A
100
AcDbEntity
  8
MODEL
  6
Continuous
100
AcDbCircle
 10
252.0195963971532
 20
1004.600566818802
 30
0.0
 40
0.3000000000000016
100
AcDbArc
 50
0.0
 51
90.0
  0
ARC
  5
3AA8
330
A
100
AcDbEntity
  8
MODEL
  6
Continuous
100
AcDbCircle
 10
220.6195963971527
 20
969.2005668188024
 30
0.0
 40
0.3000000000000016
100
AcDbArc
 50
180.0
 51
270.0
  0
ARC
  5
3AA9
330
A
100
AcDbEntity
  8
MODEL
  6
Continuous
100
AcDbCircle
 10
220.6195963971527
 20
1004.600566818802
 30
0.0
 40
0.3000000000000224
100
AcDbArc
 50
90.0
 51
180.0
  0
LINE
  5
3AAA
330
A
100
AcDbEntity
  8
MODEL
  6
Continuous
100
AcDbLine
 10
252.5195963971532
 20
970.2005668188024
 30
0.0
 11
253.1695963971529
 21
970.2005668188024
 31
0.0
  0
LINE
  5
3AAB
330
A
100
AcDbEntity
  8
MODEL
  6
Continuous
100
AcDbLine
 10
253.1695963971529
 20
1003.600566818802
 30
0.0
 11
252.5195963971532
 21
1003.600566818802
 31
0.0
  0
LINE
  5
3AAC
330
A
100
AcDbEntity
  8
MODEL
  6
Continuous
100
AcDbLine
 10
218.9695963971531
 20
970.2005668188024
 30
0.0
 11
220.1195963971527
 21
970.2005668188024
 31
0.0
  0
LINE
  5
3AAD
330
A
100
AcDbEntity
  8
MODEL
  6
Continuous
100
AcDbLine
 10
220.1195963971527
 20
1003.600566818802
 30
0.0
 11
218.9695963971531
 21
1003.600566818802
 31
0.0
  0
SPLINE
  5
3AAE
330
A
100
AcDbEntity
  8
MODEL
  6
Continuous
100
AcDbSpline
210
0.0
220
0.0
230
1.0
 70
     8
 71
     3
 72
    12
 73
     8
 74
     0
 42
0.000000001
 43
0.0000000001
 40
0.0
 40
0.0
 40
0.0
 40
0.0
 40
0.3500625932331152
 40
0.902358758972265
 40
0.9693348028637627
 40
0.9981484721819365
 40
1.0
 40
1.0
 40
1.0
 40
1.0
 10
247.6758336772532
 20
969.0076745944341
 30
0.0
 10
247.7067425164792
 20
968.9883970916264
 30
0.0
 10
247.7781481029219
 20
968.9458543344392
 30
0.0
 10
247.7900805302565
 20
968.9326167530696
 30
0.0
 10
247.8257387648223
 20
968.9214320559365
 30
0.0
 10
247.8484177861251
 20
968.9142595025603
 30
0.0
 10
247.8604575695877
 20
968.916023936499
 30
0.0
 10
247.8612999830279
 20
968.9161466236148
 30
0.0
  0
ARC
  5
3AAF
330
A
100
AcDbEntity
  8
MODEL
  6
Continuous
100
AcDbCircle
 10
251.917191295553
 20
975.9109082980024
 30
0.0
 40
8.10208306621754
100
AcDbArc
 50
237.3247422234013
 51
238.4333690081002
  0
ARC
  5
3AB0
330
A
100
AcDbEntity
  8
MODEL
  6
Continuous
100
AcDbCircle
 10
252.5195963971532
 20
970.0005668188021
 30
0.0
 40
0.1999999999999988
100
AcDbArc
 50
90.0
 51
180.0
  0
ARC
  5
3AB1
330
A
100
AcDbEntity
  8
MODEL
  6
Continuous
100
AcDbCircle
 10
252.5195963971532
 20
1003.800566818802
 30
0.0
 40
0.2000000000000336
100
AcDbArc
 50
180.0
 51
270.0
  0
ARC
  5
3AB2
330
A
100
AcDbEntity
  8
MODEL
  6
Continuous
100
AcDbCircle
 10
220.1195963971527
 20
970.0005668188021
 30
0.0
 40
0.2000000000000336
100
AcDbArc
 50
0.0
 51
90.0
  0
ARC
  5
3AB3
330
A
100
AcDbEntity
  8
MODEL
  6
Continuous
100
AcDbCircle
 10
220.1195963971527
 20
1003.800566818802
 30
0.0
 40
0.1999999999999988
100
AcDbArc
 50
270.0
 51
0.0
  0
LINE
  5
3AB4
330
A
100
AcDbEntity
  8
MODEL
  6
Continuous
100
AcDbLine
 10
194.2048688383534
 20
968.9028854052024
 30
0.0
 11
194.2048688383534
 21
1004.902885405202
 31
0.0
  0
SPLINE
  5
3AB5
330
A
100
AcDbEntity
  8
MODEL
  6
Continuous
100
AcDbSpline
210
0.0
220
0.0
230
1.0
 70
     8
 71
     3
 72
    22
 73
    18
 74
     0
 42
0.000000001
 43
0.0000000001
 40
0.0
 40
0.0
 40
0.0
 40
0.0
 40
0.096768282030278
 40
0.096768282030278
 40
0.2217611681997961
 40
0.2217611681997961
 40
0.3467540543693143
 40
0.3467540543693143
 40
0.4717469405388324
 40
0.4717469405388324
 40
0.5967398267083505
 40
0.5967398267083505
 40
0.8467255990473864
 40
0.8467255990473864
 40
0.9717184852169045
 40
0.9717184852169045
 40
1.0
 40
1.0
 40
1.0
 40
1.0
 10
213.452733621149
 20
1009.208729897541
 30
0.0
 10
213.4519582482249
 20
1009.208302649386
 30
0.0
 10
213.3435922822032
 20
1009.180691590984
 30
0.0
 10
212.8591943866654
 20
1009.063293887631
 30
0.0
 10
212.4141206169365
 20
1008.958239621718
 30
0.0
 10
211.2454289649145
 20
1008.727524965325
 30
0.0
 10
210.5322796643054
 20
1008.604564047015
 30
0.0
 10
208.9068507852667
 20
1008.407438411144
 30
0.0
 10
208.0203616453605
 20
1008.337863871127
 30
0.0
 10
206.1954563649001
 20
1008.295183326409
 30
0.0
 10
205.265726545435
 20
1008.32358561655
 30
0.0
 10
202.6623204182047
 20
1008.529339950115
 30
0.0
 10
201.1654908217656
 20
1008.827891448157
 30
0.0
 10
199.9014993572259
 20
1009.113839567487
 30
0.0
 10
199.6380724551141
 20
1009.181311147921
 30
0.0
 10
199.5376032338922
 20
1009.206651775376
 30
0.0
 10
199.528381393669
 20
1009.208912624658
 30
0.0
 10
199.5283980121771
 20
1009.208839158097
 30
0.0
  0
SPLINE
  5
3AB6
330
A
100
AcDbEntity
  8
MODEL
  6
Continuous
100
AcDbSpline
210
0.0
220
0.0
230
1.0
 70
     8
 71
     3
 72
    24
 73
    20
 74
     0
 42
0.000000001
 43
0.0000000001
 40
0.0
 40
0.0
 40
0.0
 40
0.0
 40
0.1234621650850637
 40
0.1234621650850637
 40
0.2484802058344456
 40
0.2484802058344456
 40
0.3734982465838276
 40
0.3734982465838276
 40
0.4985162873332096
 40
0.4985162873332096
 40
0.6235343280825916
 40
0.6235343280825916
 40
0.7485523688319736
 40
0.7485523688319736
 40
0.8735704095813556
 40
0.8735704095813556
 40
0.9985884503307374
 40
0.9985884503307374
 40
1.0
 40
1.0
 40
1.0
 40
1.0
 10
213.9864435164304
 20
1004.902883702392
 30
0.0
 10
213.9863682675209
 20
1004.902793963051
 30
0.0
 10
213.7878890674597
 20
1004.821924793942
 30
0.0
 10
213.0224952000949
 20
1004.539010226821
 30
0.0
 10
212.4636641906886
 20
1004.341485607622
 30
0.0
 10
211.0879421726954
 20
1003.940716751899
 30
0.0
 10
210.2650747635394
 20
1003.737865818937
 30
0.0
 10
208.4810964296807
 20
1003.445064908826
 30
0.0
 10
207.4981807790323
 20
1003.355156298661
 30
0.0
 10
205.5508857913378
 20
1003.351360174433
 30
0.0
 10
204.5674215597451
 20
1003.437091501559
 30
0.0
 10
202.7666385309326
 20
1003.726813769642
 30
0.0
 10
201.9462734721615
 20
1003.926893814018
 30
0.0
 10
200.54888251287
 20
1004.331040850197
 30
0.0
 10
199.9900644423074
 20
1004.528023736542
 30
0.0
 10
199.2082953345484
 20
1004.816089945921
 30
0.0
 10
198.9997599255571
 20
1004.901055201327
 30
0.0
 10
198.9951594228801
 20
1004.902875231395
 30
0.0
 10
198.9951344698961
 20
1004.902884794546
 30
0.0
 10
198.9951358854773
 20
1004.902883638463
 30
0.0
  0
LINE
  5
3AB7
330
A
100
AcDbEntity
  8
MODEL
  6
Continuous
100
AcDbLine
 10
297.5006685875528
 20
972.289389552802
 30
0.0
 11
297.5006685875528
 21
1001.516381257202
 31
0.0
  0
CIRCLE
  5
3AB8
330
A
100
AcDbEntity
  8
MODEL
  6
Continuous
100
AcDbCircle
 10
206.4698033495534
 20
1331.442479458191
 30
0.0
 40
6.97962074839792
  0
CIRCLE
  5
3AB9
330
A
100
AcDbEntity
  8
MODEL
  6
Continuous
100
AcDbCircle
 10
776.7368083459443
 20
986.900566818802
 30
0.0
 40
17.9999999999999
  0
LINE
  5
3ABA
330
A
100
AcDbEntity
  8
MODEL
  6
Continuous
100
AcDbLine
 10
783.7487123623442
 20
1003.478660860802
 30
0.0
 11
783.6987785935436
 21
1009.200504040402
 31
0.0
  0
LINE
  5
3ABB
330
A
100
AcDbEntity
  8
MODEL
  6
Continuous
100
AcDbLine
 10
769.773838565544
 20
1009.201650490002
 30
0.0
 11
769.7238910511443
 21
1003.478232246402
 31
0.0
  0
LINE
  5
3ABC
330
A
100
AcDbEntity
  8
MODEL
  6
Continuous
100
AcDbLine
 10
782.9771449787441
 20
1009.900566818802
 30
0.0
 11
770.4964717131435
 21
1009.900566818802
 31
0.0
  0
ARC
  5
3ABD
330
A
100
AcDbEntity
  8
MODEL
  6
Continuous
100
AcDbCircle
 10
770.470697574344
 20
1009.206489906802
 30
0.0
 40
0.6923758793108032
100
AcDbArc
 50
87.86925575482374
 51
180.550047469289
  0
SPLINE
  5
3ABE
330
A
100
AcDbEntity
  8
MODEL
  6
Continuous
100
AcDbSpline
210
0.0
220
0.0
230
1.0
 70
     8
 71
     3
 72
    15
 73
    11
 74
     0
 42
0.000000001
 43
0.0000000001
 40
0.0
 40
0.0
 40
0.0
 40
0.0
 40
0.0551762614683106
 40
0.261932970519388
 40
0.4592937526084362
 40
0.6228263658106652
 40
0.7635025605362857
 40
0.8836261532293064
 40
0.9827696099362482
 40
1.0
 40
1.0
 40
1.0
 40
1.0
 10
783.6911166932806
 20
1009.199005436972
 30
0.0
 10
783.6935111477543
 20
1009.22151931337
 30
0.0
 10
783.702665542669
 20
1009.313468079164
 30
0.0
 10
783.6473852758164
 20
1009.487957828284
 30
0.0
 10
783.5336927630443
 20
1009.666698489326
 30
0.0
 10
783.3888040507355
 20
1009.789473891052
 30
0.0
 10
783.2455406934824
 20
1009.860728863057
 30
0.0
 10
783.1159470025215
 20
1009.893300571014
 30
0.0
 10
783.0247611475316
 20
1009.902505584821
 30
0.0
 10
782.9839071075868
 20
1009.899561732533
 30
0.0
 10
782.9768607972557
 20
1009.899036407196
 30
0.0
  0
SPLINE
  5
3ABF
330
A
100
AcDbEntity
  8
MODEL
  6
Continuous
100
AcDbSpline
210
0.0
220
0.0
230
1.0
 70
     8
 71
     3
 72
    22
 73
    18
 74
     0
 42
0.000000001
 43
0.0000000001
 40
0.0
 40
0.0
 40
0.0
 40
0.0
 40
0.096768282030278
 40
0.096768282030278
 40
0.2217611681997961
 40
0.2217611681997961
 40
0.3467540543693143
 40
0.3467540543693143
 40
0.4717469405388324
 40
0.4717469405388324
 40
0.5967398267083505
 40
0.5967398267083505
 40
0.8467255990473864
 40
0.8467255990473864
 40
0.9717184852169045
 40
0.9717184852169045
 40
1.0
 40
1.0
 40
1.0
 40
1.0
 10
783.7194408010074
 20
1009.208729897541
 30
0.0
 10
783.7186654280823
 20
1009.208302649386
 30
0.0
 10
783.6102994620616
 20
1009.180691590983
 30
0.0
 10
783.1259015665229
 20
1009.063293887631
 30
0.0
 10
782.680827796794
 20
1008.958239621717
 30
0.0
 10
781.512136144772
 20
1008.727524965324
 30
0.0
 10
780.7989868441629
 20
1008.604564047015
 30
0.0
 10
779.173557965125
 20
1008.407438411144
 30
0.0
 10
778.287068825218
 20
1008.337863871127
 30
0.0
 10
776.4621635447585
 20
1008.295183326408
 30
0.0
 10
775.5324337252924
 20
1008.32358561655
 30
0.0
 10
772.929027598063
 20
1008.529339950115
 30
0.0
 10
771.432198001624
 20
1008.827891448157
 30
0.0
 10
770.1682065370843
 20
1009.113839567487
 30
0.0
 10
769.9047796349724
 20
1009.18131114792
 30
0.0
 10
769.8043104137506
 20
1009.206651775376
 30
0.0
 10
769.7950885735264
 20
1009.208912624657
 30
0.0
 10
769.7951051920355
 20
1009.208839158097
 30
0.0
  0
LINE
  5
3B28
330
A
100
AcDbEntity
  8
DIM
100
AcDbLine
 10
726.7368083459443
 20
234.8242656781247
 30
0.0
 11
726.7368083459443
 21
1314.162857086375
 31
0.0
  0
DIMENSION
  5
3B29
102
{ACAD_XDICTIONARY
360
3B2A
102
}
330
A
100
AcDbEntity
  8
DIM
100
AcDbDimension
  2
*D57
 10
579.1582635025912
 20
307.2834036620019
 30
0.0
 11
563.1560126585247
 21
767.283403662002
 31
0.0
 70
    32
 71
     5
 42
920.0000000000001
 73
     0
 74
     0
 75
     0
  3
tfrom線あり
100
AcDbAlignedDimension
 13
726.6743083459443
 23
1227.283403662002
 33
0.0
 14
726.6743083459443
 24
307.2834036620019
 34
0.0
 50
90.0
100
AcDbRotatedDimension
1001
ACAD
1000
DSTYLE
1002
{
1070
     3
1000
<>±5
1002
}
  0
DIMENSION
  5
3B48
330
A
100
AcDbEntity
  8
DIM
100
AcDbDimension
  2
*D59
 10
776.7368083459445
 20
198.5659618600567
 30
0.0
 11
751.7368083459444
 21
214.5682127041232
 31
0.0
 70
    32
 71
     5
 42
50.00000000000023
 73
     0
 74
     0
 75
     0
  3
tfrom線あり
100
AcDbAlignedDimension
 13
726.7368083459443
 23
234.8242656781247
 33
0.0
 14
776.7368083459445
 24
322.1206657007394
 34
0.0
100
AcDbRotatedDimension
  0
DIMENSION
  5
3B5E
102
{ACAD_REACTORS
330
3B60
102
}
102
{ACAD_XDICTIONARY
360
3B5F
102
}
330
A
100
AcDbEntity
  8
DIM
100
AcDbDimension
  2
*D60
 10
787.6368083459439
 20
462.4435079198005
 30
0.0
 11
814.7567283159327
 21
462.4435079198005
 31
0.0
 70
   160
 71
     5
 42
21.80000000000018
 73
     0
 74
     1
 75
     1
  3
tfrom線あり
100
AcDbAlignedDimension
 13
765.8368083459437
 23
469.5037767106967
 33
0.0
 14
787.6368083459439
 24
469.5037767106967
 34
0.0
100
AcDbRotatedDimension
1001
ACAD
1000
DSTYLE
1002
{
1070
     3
1000
%%c<>
1070
   172
1070
     1
1002
}
  0
LINE
  5
3B95
330
A
100
AcDbEntity
  8
DIM
100
AcDbLine
 10
726.7368083459443
 20
1309.096104590202
 30
0.0
 11
700.4052471314501
 21
1280.900215146879
 31
0.0
  0
LINE
  5
3B96
330
A
100
AcDbEntity
  8
DIM
100
AcDbLine
 10
726.7368083459443
 20
1285.599530054099
 30
0.0
 11
700.4052471314501
 21
1257.403640610776
 31
0.0
  0
LINE
  5
3B97
330
A
100
AcDbEntity
  8
DIM
100
AcDbLine
 10
726.7368083459443
 20
1261.741469755903
 30
0.0
 11
700.4052471314501
 21
1233.54558031258
 31
0.0
  0
LINE
  5
3B98
330
A
100
AcDbEntity
  8
DIM
100
AcDbLine
 10
726.7368083459443
 20
1233.907066074674
 30
0.0
 11
700.4052471314501
 21
1205.711176631351
 31
0.0
  0
LINE
  5
3B99
330
A
100
AcDbEntity
  8
DIM
100
AcDbLine
 10
726.7368083459443
 20
1210.410491538571
 30
0.0
 11
700.4052471314501
 21
1182.214602095249
 31
0.0
  0
LINE
  5
3B9A
330
A
100
AcDbEntity
  8
DIM
100
AcDbLine
 10
726.7368083459443
 20
1186.552431240375
 30
0.0
 11
700.4052471314501
 21
1158.356541797052
 31
0.0
  0
LINE
  5
3B9B
330
A
100
AcDbEntity
  8
DIM
100
AcDbLine
 10
726.7368083459444
 20
1158.853584719932
 30
0.0
 11
700.4052471314501
 21
1130.657695276609
 31
0.0
  0
LINE
  5
3B9C
330
A
100
AcDbEntity
  8
DIM
100
AcDbLine
 10
726.7368083459444
 20
1135.357010183829
 30
0.0
 11
700.4052471314501
 21
1107.161120740506
 31
0.0
  0
LINE
  5
3B9D
330
A
100
AcDbEntity
  8
DIM
100
AcDbLine
 10
726.7368083459444
 20
1111.498949885633
 30
0.0
 11
700.4052471314501
 21
1083.30306044231
 31
0.0
  0
LINE
  5
3B9E
330
A
100
AcDbEntity
  8
DIM
100
AcDbLine
 10
726.7368083459444
 20
1083.664546204404
 30
0.0
 11
700.4052471314501
 21
1055.468656761081
 31
0.0
  0
LINE
  5
3B9F
330
A
100
AcDbEntity
  8
DIM
100
AcDbLine
 10
726.7368083459444
 20
1060.167971668302
 30
0.0
 11
700.4052471314501
 21
1031.972082224979
 31
0.0
  0
LINE
  5
3BA0
330
A
100
AcDbEntity
  8
DIM
100
AcDbLine
 10
726.7368083459444
 20
1036.309911370105
 30
0.0
 11
700.4052471314501
 21
1008.114021926782
 31
0.0
  0
LINE
  5
3BA1
330
A
100
AcDbEntity
  8
DIM
100
AcDbLine
 10
726.7368083459444
 20
1006.916600339846
 30
0.0
 11
700.4052471314501
 21
978.7207108965233
 31
0.0
  0
LINE
  5
3BA2
330
A
100
AcDbEntity
  8
DIM
100
AcDbLine
 10
726.7368083459444
 20
983.4200258037438
 30
0.0
 11
700.4052471314501
 21
955.224136360421
 31
0.0
  0
LINE
  5
3BA3
330
A
100
AcDbEntity
  8
DIM
100
AcDbLine
 10
726.7368083459444
 20
959.5619655055473
 30
0.0
 11
700.4052471314501
 21
931.3660760622245
 31
0.0
  0
LINE
  5
3BA4
330
A
100
AcDbEntity
  8
DIM
100
AcDbLine
 10
726.7368083459444
 20
931.7275618243184
 30
0.0
 11
700.4052471314501
 21
903.5316723809956
 31
0.0
  0
LINE
  5
3BA5
330
A
100
AcDbEntity
  8
DIM
100
AcDbLine
 10
726.7368083459444
 20
908.230987288216
 30
0.0
 11
700.4052471314501
 21
880.0350978448932
 31
0.0
  0
LINE
  5
3BA6
330
A
100
AcDbEntity
  8
DIM
100
AcDbLine
 10
726.7368083459444
 20
884.3729269900196
 30
0.0
 11
700.4052471314501
 21
856.1770375466967
 31
0.0
  0
LINE
  5
3BA7
330
A
100
AcDbEntity
  8
DIM
100
AcDbLine
 10
726.7368083459444
 20
854.414794456489
 30
0.0
 11
700.4052471314502
 21
826.2189050131661
 31
0.0
  0
LINE
  5
3BA8
330
A
100
AcDbEntity
  8
DIM
100
AcDbLine
 10
726.7368083459444
 20
830.9182199203866
 30
0.0
 11
700.4052471314502
 21
802.7223304770638
 31
0.0
  0
LINE
  5
3BA9
330
A
100
AcDbEntity
  8
DIM
100
AcDbLine
 10
726.7368083459444
 20
807.0601596221901
 30
0.0
 11
700.4052471314502
 21
778.8642701788673
 31
0.0
  0
LINE
  5
3BAA
330
A
100
AcDbEntity
  8
DIM
100
AcDbLine
 10
726.7368083459444
 20
779.2257559409612
 30
0.0
 11
700.4052471314502
 21
751.0298664976384
 31
0.0
  0
LINE
  5
3BAB
330
A
100
AcDbEntity
  8
DIM
100
AcDbLine
 10
726.7368083459444
 20
755.7291814048589
 30
0.0
 11
700.4052471314502
 21
727.5332919615361
 31
0.0
  0
LINE
  5
3BAC
330
A
100
AcDbEntity
  8
DIM
100
AcDbLine
 10
726.7368083459444
 20
731.8711211066624
 30
0.0
 11
700.4052471314502
 21
703.6752316633396
 31
0.0
  0
LINE
  5
3BAD
330
A
100
AcDbEntity
  8
DIM
100
AcDbLine
 10
726.7368083459444
 20
703.0426315796751
 30
0.0
 11
700.4052471314501
 21
674.8467421363523
 31
0.0
  0
LINE
  5
3BAE
330
A
100
AcDbEntity
  8
DIM
100
AcDbLine
 10
726.7368083459444
 20
679.5460570435728
 30
0.0
 11
700.4052471314501
 21
651.35016760025
 31
0.0
  0
LINE
  5
3BAF
330
A
100
AcDbEntity
  8
DIM
100
AcDbLine
 10
726.7368083459444
 20
655.6879967453763
 30
0.0
 11
700.4052471314501
 21
627.4921073020535
 31
0.0
  0
LINE
  5
3BB0
330
A
100
AcDbEntity
  8
DIM
100
AcDbLine
 10
726.7368083459444
 20
627.8535930641474
 30
0.0
 11
700.4052471314501
 21
599.6577036208246
 31
0.0
  0
LINE
  5
3BB1
330
A
100
AcDbEntity
  8
DIM
100
AcDbLine
 10
726.7368083459444
 20
604.357018528045
 30
0.0
 11
700.4052471314501
 21
576.1611290847222
 31
0.0
  0
LINE
  5
3BB2
330
A
100
AcDbEntity
  8
DIM
100
AcDbLine
 10
726.7368083459444
 20
580.4989582298485
 30
0.0
 11
700.4052471314501
 21
552.3030687865257
 31
0.0
  0
LINE
  5
3BB3
330
A
100
AcDbEntity
  8
DIM
100
AcDbLine
 10
726.7368083459444
 20
552.2352902061332
 30
0.0
 11
700.4052471314501
 21
524.0394007628104
 31
0.0
  0
LINE
  5
3BB4
330
A
100
AcDbEntity
  8
DIM
100
AcDbLine
 10
726.7368083459444
 20
528.7387156700308
 30
0.0
 11
700.4052471314501
 21
500.542826226708
 31
0.0
  0
LINE
  5
3BB5
330
A
100
AcDbEntity
  8
DIM
100
AcDbLine
 10
726.7368083459444
 20
504.8806553718343
 30
0.0
 11
700.4052471314501
 21
476.6847659285115
 31
0.0
  0
LINE
  5
3BB6
330
A
100
AcDbEntity
  8
DIM
100
AcDbLine
 10
726.7368083459444
 20
477.0462516906055
 30
0.0
 11
700.4052471314501
 21
448.8503622472826
 31
0.0
  0
LINE
  5
3BB7
330
A
100
AcDbEntity
  8
DIM
100
AcDbLine
 10
726.7368083459444
 20
453.5496771545031
 30
0.0
 11
700.4052471314501
 21
425.3537877111803
 31
0.0
  0
LINE
  5
3BB8
330
A
100
AcDbEntity
  8
DIM
100
AcDbLine
 10
726.7368083459444
 20
429.6916168563066
 30
0.0
 11
700.4052471314501
 21
401.4957274129838
 31
0.0
  0
LINE
  5
3BB9
330
A
100
AcDbEntity
  8
DIM
100
AcDbLine
 10
726.7368083459444
 20
402.8753039347253
 30
0.0
 11
700.4052471314502
 21
374.6794144914024
 31
0.0
  0
LINE
  5
3BBA
330
A
100
AcDbEntity
  8
DIM
100
AcDbLine
 10
726.7368083459444
 20
379.3787293986229
 30
0.0
 11
700.4052471314502
 21
351.1828399553001
 31
0.0
  0
LINE
  5
3BBB
330
A
100
AcDbEntity
  8
DIM
100
AcDbLine
 10
726.7368083459444
 20
355.5206691004264
 30
0.0
 11
700.4052471314502
 21
327.3247796571036
 31
0.0
  0
LINE
  5
3BBC
330
A
100
AcDbEntity
  8
DIM
100
AcDbLine
 10
726.7368083459444
 20
327.6862654191975
 30
0.0
 11
700.4052471314502
 21
299.4903759758747
 31
0.0
  0
LINE
  5
3BBD
330
A
100
AcDbEntity
  8
DIM
100
AcDbLine
 10
726.7368083459444
 20
304.1896908830952
 30
0.0
 11
700.4052471314502
 21
275.9938014397724
 31
0.0
  0
LINE
  5
3BBE
330
A
100
AcDbEntity
  8
DIM
100
AcDbLine
 10
726.7368083459444
 20
280.3316305848987
 30
0.0
 11
700.4052471314502
 21
252.1357411415759
 31
0.0
  0
LINE
  5
3BBF
330
A
100
AcDbEntity
  8
DIM
100
AcDbLine
 10
726.7368083459444
 20
256.1798631050012
 30
0.0
 11
700.4052471314503
 21
227.9839736616784
 31
0.0
  0
MTEXT
  5
3BDE
330
A
100
AcDbEntity
  8
TEMPLATE
390
1D
100
AcDbMText
 10
63.19199414128968
 20
92.05573519102767
 30
0.0
 40
12.21630859375
 41
0.0
 46
12.39962196517053
 71
     1
 72
     1
  1
{クローム}
  7
ＭＳ ゴシック
 73
     1
 44
0.9331787841240657
1001
ACAD
1000
ACAD_MTEXT_DEFINED_HEIGHT_BEGIN
1070
    46
1040
12.39962196517053
1000
ACAD_MTEXT_DEFINED_HEIGHT_END
  0
VIEWPORT
  5
349
330
B
100
AcDbEntity
 67
     1
  8
0
100
AcDbViewport
 10
202.5
 20
128.5
 30
0.0
 40
486.0
 41
308.4
 68
     1
 69
     1
 12
202.5
 22
128.5
 13
0.0
 23
0.0
 14
0.5
 24
0.5
 15
0.0
 25
0.0
 16
0.0
 26
0.0
 36
1.0
 17
0.0
 27
0.0
 37
0.0
 42
50.0
 43
0.0
 44
0.0
 45
308.4
 50
0.0
 51
0.0
 72
   100
 90
   557152
  1

281
     0
 71
     1
 74
     0
110
0.0
120
0.0
130
0.0
111
1.0
121
0.0
131
0.0
112
0.0
122
1.0
132
0.0
 79
     0
146
0.0
170
     0
 61
     5
348
26C
292
     1
282
     1
141
0.0
142
0.0
 63
   256
  0
VIEWPORT
  5
34A
330
B
100
AcDbEntity
 67
     1
  8
0
100
AcDbViewport
 10
202.5
 20
128.5
 30
0.0
 40
324.0
 41
205.6
 68
     2
 69
     2
 12
986.6781359294573
 22
1427.077061889956
 13
0.0
 23
0.0
 14
0.5
 24
0.5
 15
0.0
 25
0.0
 16
0.0
 26
0.0
 36
1.0
 17
0.0
 27
0.0
 37
0.0
 42
50.0
 43
0.0
 44
0.0
 45
2890.021615685494
 50
0.0
 51
0.0
 72
   100
 90
   557152
  1

281
     0
 71
     1
 74
     0
110
0.0
120
0.0
130
0.0
111
1.0
121
0.0
131
0.0
112
0.0
122
1.0
132
0.0
 79
     0
146
0.0
170
     0
 61
     5
348
26C
292
     1
282
     1
141
0.0
142
0.0
 63
   256
  0
ENDSEC
  0
SECTION
  2
OBJECTS
  0
DICTIONARY
  5
19
330
0
100
AcDbDictionary
281
     1
  3
ACAD_COLOR
350
674
  3
ACAD_DETAILVIEWSTYLE
350
BBF
  3
ACAD_FIELDLIST
350
16CE
  3
ACAD_GROUP
350
1A
  3
ACAD_IMAGE_VARS
350
27B
  3
ACAD_LAYOUT
350
1E
  3
ACAD_MATERIAL
350
263
  3
ACAD_MLEADERSTYLE
350
336
  3
ACAD_MLINESTYLE
350
1B
  3
ACAD_PLOTSETTINGS
350
22
  3
ACAD_PLOTSTYLENAME
350
1F
  3
ACAD_SCALELIST
350
241
  3
ACAD_SECTIONVIEWSTYLE
350
BC0
  3
ACAD_TABLESTYLE
350
278
  3
ACAD_VISUALSTYLE
350
267
  3
ACDB_RECOMPOSE_DATA
350
3BF7
  3
AcDbVariableDictionary
350
330
  3
APPDATA
350
27A
  3
DimOffsetDictionary
350
E38
  0
SUN
  5
904
330
15
100
AcDbSun
 90
        1
290
     0
 63
     7
421
 16777215
 40
1.0
291
     1
 91
  2455826
 92
 54000000
292
     0
 70
     2
 71
   256
280
     1
  0
DICTIONARY
  5
2E1
330
2
100
AcDbDictionary
280
     1
281
     1
  3
ACAD_LAYERSTATES
360
2E2
  3
ACLYDICTIONARY
360
DDE
  0
DICTIONARY
  5
24B4
330
A
100
AcDbDictionary
280
     1
281
     1
  3
ACAD_SORTENTS
360
24B5
  0
DICTIONARY
  5
16F1
330
16F0
100
AcDbDictionary
280
     1
281
     1
  3
ACAD_FIELD
360
3B27
  0
DICTIONARY
  5
3B2A
330
3B29
100
AcDbDictionary
280
     1
281
     1
  0
DICTIONARY
  5
3B5F
330
3B5E
100
AcDbDictionary
280
     1
281
     1
  3
ACAD_DIMASSOC
360
3B60
  0
DICTIONARY
  5
674
102
{ACAD_REACTORS
330
19
102
}
330
19
100
AcDbDictionary
281
     1
  0
DICTIONARY
  5
BBF
102
{ACAD_REACTORS
330
19
102
}
330
19
100
AcDbDictionary
281
     1
  0
FIELDLIST
  5
16CE
102
{ACAD_REACTORS
330
19
102
}
330
19
100
AcDbIdSet
 90
        2
330
16F4
330
16F3
100
AcDbFieldList
  0
DICTIONARY
  5
1A
102
{ACAD_REACTORS
330
19
102
}
330
19
100
AcDbDictionary
281
     1
  3
*A1
350
1788
  3
*A2
350
24A3
  0
RASTERVARIABLES
  5
27B
102
{ACAD_REACTORS
330
19
102
}
330
19
100
AcDbRasterVariables
 90
        0
 70
     1
 71
     1
 72
     1
  0
DICTIONARY
  5
1E
102
{ACAD_REACTORS
330
19
102
}
330
19
100
AcDbDictionary
281
     1
  3
Layout1
350
21
  3
Model
350
20
  0
DICTIONARY
  5
263
102
{ACAD_REACTORS
330
19
102
}
330
19
100
AcDbDictionary
281
     1
  3
ByBlock
350
265
  3
ByLayer
350
264
  3
Global
350
266
  0
DICTIONARY
  5
336
102
{ACAD_REACTORS
330
19
102
}
330
19
100
AcDbDictionary
281
     1
  3
Standard
350
D59
  0
DICTIONARY
  5
1B
102
{ACAD_REACTORS
330
19
102
}
330
19
100
AcDbDictionary
281
     1
  3
Standard
350
1C
  0
DICTIONARY
  5
22
102
{ACAD_REACTORS
330
19
102
}
330
19
100
AcDbDictionary
281
     1
  0
ACDBDICTIONARYWDFLT
  5
1F
102
{ACAD_REACTORS
330
19
102
}
330
19
100
AcDbDictionary
281
     1
  3
Normal
350
1D
100
AcDbDictionaryWithDefault
340
1D
  0
DICTIONARY
  5
241
102
{ACAD_REACTORS
330
19
102
}
330
19
100
AcDbDictionary
281
     1
  3
A0
350
242
  3
A1
350
243
  3
A2
350
244
  3
A3
350
245
  3
A4
350
246
  3
A5
350
247
  3
A6
350
248
  3
A7
350
249
  3
A8
350
24A
  3
A9
350
24B
  3
B0
350
24C
  3
B1
350
24D
  3
B2
350
24E
  3
B3
350
24F
  3
B4
350
250
  3
B5
350
251
  3
B6
350
252
  3
B7
350
253
  3
B8
350
254
  3
B9
350
255
  3
C0
350
256
  3
C1
350
257
  3
C2
350
258
  3
C3
350
259
  3
C4
350
25A
  3
C5
350
25B
  3
C6
350
25C
  3
C7
350
25D
  3
C8
350
25E
  3
C9
350
25F
  3
D0
350
260
  3
D1
350
261
  3
D2
350
262
  0
DICTIONARY
  5
BC0
102
{ACAD_REACTORS
330
19
102
}
330
19
100
AcDbDictionary
281
     1
  0
DICTIONARY
  5
278
102
{ACAD_REACTORS
330
19
102
}
330
19
100
AcDbDictionary
281
     1
  3
Standard
350
279
  0
DICTIONARY
  5
267
102
{ACAD_REACTORS
330
19
102
}
330
19
100
AcDbDictionary
281
     1
  3
2dWireframe
350
26C
  3
3D Hidden
350
26E
  3
3dWireframe
350
26D
  3
Basic
350
26F
  3
Brighten
350
273
  3
ColorChange
350
277
  3
Conceptual
350
271
  3
Dim
350
272
  3
EdgeColorOff
350
8FE
  3
Facepattern
350
276
  3
Flat
350
268
  3
FlatWithEdges
350
269
  3
Gouraud
350
26A
  3
GouraudWithEdges
350
26B
  3
Hidden
350
8FB
  3
JitterOff
350
8FC
  3
Linepattern
350
275
  3
OverhangOff
350
8FD
  3
Realistic
350
270
  3
Shaded
350
903
  3
Shaded with edges
350
902
  3
Shades of Gray
350
8FF
  3
Sketchy
350
900
  3
Thicken
350
274
  3
Wireframe
350
8FA
  3
X-Ray
350
901
  0
XRECORD
  5
3BF7
102
{ACAD_REACTORS
330
19
102
}
330
19
100
AcDbXrecord
280
     1
 90
        1
330
279
  0
DICTIONARY
  5
330
102
{ACAD_REACTORS
330
19
102
}
330
19
100
AcDbDictionary
281
     1
  3
CANNOSCALE
350
331
  3
CMLEADERSTYLE
350
D5E
  3
CTABLESTYLE
350
335
  3
HPTRANSPARENCY
350
D52
  3
XCLIPFRAME
350
896
  0
DICTIONARY
  5
27A
102
{ACAD_REACTORS
330
19
102
}
330
19
100
AcDbDictionary
281
     1
  0
DICTIONARY
  5
E38
102
{ACAD_REACTORS
330
19
102
}
330
19
100
AcDbDictionary
281
     1
  3
DIMRAILANGLE
350
1614
  3
DIMRAILFIRSTOFFSET
350
1612
  3
DIMRAILOFFSET
350
1613
  3
DIMRAILSENABLED
350
1615
  0
DICTIONARY
  5
2E2
102
{ACAD_REACTORS
330
2E1
102
}
330
2E1
100
AcDbDictionary
281
     1
  0
DICTIONARY
  5
DDE
102
{ACAD_REACTORS
330
2E1
102
}
330
2E1
100
AcDbDictionary
281
     1
1001
ACAD
1000
<All
  0
SORTENTSTABLE
  5
24B5
102
{ACAD_REACTORS
330
24B4
102
}
330
24B4
100
AcDbSortentsTable
330
A
331
0
  5
1782
331
0
  5
24A2
331
0
  5
24A1
331
2492
  5
244D
331
2493
  5
2491
331
249E
  5
2492
331
249F
  5
2493
331
24A0
  5
249E
331
24A1
  5
249F
331
24A2
  5
24A0
  0
DICTIONARY
  5
3B27
102
{ACAD_REACTORS
330
16F1
102
}
330
16F1
100
AcDbDictionary
280
     1
281
     1
  3
TEXT
360
16F3
  0
DIMASSOC
  5
3B60
102
{ACAD_REACTORS
330
3B5F
102
}
330
3B5F
100
AcDbDimAssoc
330
3B5E
 90
        3
 70
     0
 71
     1
  1
AcDbOsnapPointRef
 72
    10
331
39FC
 73
     0
 91
        0
 40
0.77684320464768
 10
0.0
 20
0.0
 30
0.0
 75
     0
  1
AcDbOsnapPointRef
 72
     8
331
39FD
 73
     0
 91
        0
 40
0.2238593442411184
 10
0.0
 20
0.0
 30
0.0
 75
     1
  1
AcDbOsnapPointRef
 72
    10
331
39FC
 73
     0
 91
        0
 40
0.77684320464768
 10
0.0
 20
0.0
 30
0.0
 75
     0
  0
GROUP
  5
1788
102
{ACAD_REACTORS
330
1A
102
}
330
1A
100
AcDbGroup
300

 70
     1
 71
     1
  0
GROUP
  5
24A3
102
{ACAD_REACTORS
330
1A
102
}
330
1A
100
AcDbGroup
300

 70
     1
 71
     1
340
2492
340
2493
340
249E
340
249F
340
24A0
340
24A1
340
24A2
  0
LAYOUT
  5
21
102
{ACAD_REACTORS
330
1E
102
}
330
1E
100
AcDbPlotSettings
  1

  2
none_device
  4
ISO_A3_(420.00_x_297.00_MM)
  6

 40
7.5
 41
20.0
 42
7.5
 43
20.0
 44
420.0
 45
297.0
 46
0.0
 47
0.0
 48
0.0
 49
0.0
140
0.0
141
0.0
142
1.0
143
1.0
 70
     0
 72
     1
 73
     0
 74
     0
  7

 75
     0
 76
     0
 77
     2
 78
   300
147
1.0
148
0.0
149
0.0
100
AcDbLayout
  1
Layout1
 70
     0
 71
     0
 10
-7.5
 20
-20.0
 11
412.5
 21
277.0
 12
0.0
 22
0.0
 32
0.0
 14
0.0
 24
0.0
 34
0.0
 15
0.0
 25
0.0
 35
0.0
146
0.0
 13
0.0
 23
0.0
 33
0.0
 16
0.0
 26
0.0
 36
0.0
 17
0.0
 27
0.0
 37
0.0
 76
     0
330
B
331
349
  0
LAYOUT
  5
20
102
{ACAD_REACTORS
330
1E
102
}
330
1E
100
AcDbPlotSettings
  1

  2
none_device
  4
ISO_A3_(420.00_x_297.00_MM)
  6

 40
7.5
 41
20.0
 42
7.5
 43
20.0
 44
420.0
 45
297.0
 46
0.0
 47
0.0
 48
0.0
 49
0.0
140
0.0
141
0.0
142
1.0
143
1.0
 70
  1024
 72
     1
 73
     0
 74
     0
  7

 75
     0
 76
     0
 77
     2
 78
   300
147
1.0
148
0.0
149
0.0
100
AcDbLayout
  1
Model
 70
     0
 71
     1
 10
0.0
 20
0.0
 11
1050.0
 21
1485.0
 12
0.0
 22
0.0
 32
0.0
 14
0.0
 24
0.0
 34
-0.0000000000000071
 15
1050.0
 25
1485.0
 35
0.0000000000000142
146
0.0
 13
0.0
 23
0.0
 33
0.0
 16
0.0
 26
0.0
 36
0.0
 17
0.0
 27
0.0
 37
0.0
 76
     0
330
A
331
15
  0
MATERIAL
  5
265
102
{ACAD_REACTORS
330
263
102
}
330
263
100
AcDbMaterial
  1
ByBlock
 72
     1
 94
      127
  0
MATERIAL
  5
264
102
{ACAD_REACTORS
330
263
102
}
330
263
100
AcDbMaterial
  1
ByLayer
 72
     1
 94
      127
  0
MATERIAL
  5
266
102
{ACAD_REACTORS
330
263
102
}
330
263
100
AcDbMaterial
  1
Global
 72
     1
 94
      127
  0
MLEADERSTYLE
  5
D59
102
{ACAD_REACTORS
330
336
102
}
330
336
100
AcDbMLeaderStyle
170
     2
171
     1
172
     0
 90
        2
 40
0.0
 41
0.0
173
     1
 91
-1056964608
340
11
 92
       -2
290
     1
 42
2.0
291
     1
 43
8.0
  3
Standard
341
0
 44
4.0
300

342
17
174
     1
178
     6
175
     1
176
     0
 93
-1056964608
 45
4.0
292
     0
297
     0
 46
4.0
343
0
 94
-1056964608
 47
1.0
 49
1.0
140
1.0
293
     1
141
0.0
294
     1
177
     0
142
1.0
295
     0
296
     0
143
3.75
1001
ACAD_MLEADERVER
1070
     2
  0
MLINESTYLE
  5
1C
102
{ACAD_REACTORS
330
1B
102
}
330
1B
100
AcDbMlineStyle
  2
Standard
 70
     0
  3

 62
     0
 51
90.0
 52
90.0
 71
     2
 49
0.5
 62
   256
  6
BYLAYER
 49
-0.5
 62
   256
  6
BYLAYER
  0
ACDBPLACEHOLDER
  5
1D
102
{ACAD_REACTORS
330
1F
102
}
330
1F
  0
SCALE
  5
242
102
{ACAD_REACTORS
330
241
102
}
330
241
100
AcDbScale
 70
     0
300
1:1
140
1.0
141
1.0
290
     1
  0
SCALE
  5
243
102
{ACAD_REACTORS
330
241
102
}
330
241
100
AcDbScale
 70
     0
300
1:2
140
1.0
141
2.0
290
     0
  0
SCALE
  5
244
102
{ACAD_REACTORS
330
241
102
}
330
241
100
AcDbScale
 70
     0
300
1:4
140
1.0
141
4.0
290
     0
  0
SCALE
  5
245
102
{ACAD_REACTORS
330
241
102
}
330
241
100
AcDbScale
 70
     0
300
1:5
140
1.0
141
5.0
290
     0
  0
SCALE
  5
246
102
{ACAD_REACTORS
330
241
102
}
330
241
100
AcDbScale
 70
     0
300
1:8
140
1.0
141
8.0
290
     0
  0
SCALE
  5
247
102
{ACAD_REACTORS
330
241
102
}
330
241
100
AcDbScale
 70
     0
300
1:10
140
1.0
141
10.0
290
     0
  0
SCALE
  5
248
102
{ACAD_REACTORS
330
241
102
}
330
241
100
AcDbScale
 70
     0
300
1:16
140
1.0
141
16.0
290
     0
  0
SCALE
  5
249
102
{ACAD_REACTORS
330
241
102
}
330
241
100
AcDbScale
 70
     0
300
1:20
140
1.0
141
20.0
290
     0
  0
SCALE
  5
24A
102
{ACAD_REACTORS
330
241
102
}
330
241
100
AcDbScale
 70
     0
300
1:30
140
1.0
141
30.0
290
     0
  0
SCALE
  5
24B
102
{ACAD_REACTORS
330
241
102
}
330
241
100
AcDbScale
 70
     0
300
1:40
140
1.0
141
40.0
290
     0
  0
SCALE
  5
24C
102
{ACAD_REACTORS
330
241
102
}
330
241
100
AcDbScale
 70
     0
300
1:50
140
1.0
141
50.0
290
     0
  0
SCALE
  5
24D
102
{ACAD_REACTORS
330
241
102
}
330
241
100
AcDbScale
 70
     0
300
1:100
140
1.0
141
100.0
290
     0
  0
SCALE
  5
24E
102
{ACAD_REACTORS
330
241
102
}
330
241
100
AcDbScale
 70
     0
300
2:1
140
2.0
141
1.0
290
     0
  0
SCALE
  5
24F
102
{ACAD_REACTORS
330
241
102
}
330
241
100
AcDbScale
 70
     0
300
4:1
140
4.0
141
1.0
290
     0
  0
SCALE
  5
250
102
{ACAD_REACTORS
330
241
102
}
330
241
100
AcDbScale
 70
     0
300
8:1
140
8.0
141
1.0
290
     0
  0
SCALE
  5
251
102
{ACAD_REACTORS
330
241
102
}
330
241
100
AcDbScale
 70
     0
300
10:1
140
10.0
141
1.0
290
     0
  0
SCALE
  5
252
102
{ACAD_REACTORS
330
241
102
}
330
241
100
AcDbScale
 70
     0
300
100:1
140
100.0
141
1.0
290
     0
  0
SCALE
  5
253
102
{ACAD_REACTORS
330
241
102
}
330
241
100
AcDbScale
 70
     0
300
1/128" = 1'-0"
140
0.0078125
141
12.0
290
     0
  0
SCALE
  5
254
102
{ACAD_REACTORS
330
241
102
}
330
241
100
AcDbScale
 70
     0
300
1/64" = 1'-0"
140
0.015625
141
12.0
290
     0
  0
SCALE
  5
255
102
{ACAD_REACTORS
330
241
102
}
330
241
100
AcDbScale
 70
     0
300
1/32" = 1'-0"
140
0.03125
141
12.0
290
     0
  0
SCALE
  5
256
102
{ACAD_REACTORS
330
241
102
}
330
241
100
AcDbScale
 70
     0
300
1/16" = 1'-0"
140
0.0625
141
12.0
290
     0
  0
SCALE
  5
257
102
{ACAD_REACTORS
330
241
102
}
330
241
100
AcDbScale
 70
     0
300
3/32" = 1'-0"
140
0.09375
141
12.0
290
     0
  0
SCALE
  5
258
102
{ACAD_REACTORS
330
241
102
}
330
241
100
AcDbScale
 70
     0
300
1/8" = 1'-0"
140
0.125
141
12.0
290
     0
  0
SCALE
  5
259
102
{ACAD_REACTORS
330
241
102
}
330
241
100
AcDbScale
 70
     0
300
3/16" = 1'-0"
140
0.1875
141
12.0
290
     0
  0
SCALE
  5
25A
102
{ACAD_REACTORS
330
241
102
}
330
241
100
AcDbScale
 70
     0
300
1/4" = 1'-0"
140
0.25
141
12.0
290
     0
  0
SCALE
  5
25B
102
{ACAD_REACTORS
330
241
102
}
330
241
100
AcDbScale
 70
     0
300
3/8" = 1'-0"
140
0.375
141
12.0
290
     0
  0
SCALE
  5
25C
102
{ACAD_REACTORS
330
241
102
}
330
241
100
AcDbScale
 70
     0
300
1/2" = 1'-0"
140
0.5
141
12.0
290
     0
  0
SCALE
  5
25D
102
{ACAD_REACTORS
330
241
102
}
330
241
100
AcDbScale
 70
     0
300
3/4" = 1'-0"
140
0.75
141
12.0
290
     0
  0
SCALE
  5
25E
102
{ACAD_REACTORS
330
241
102
}
330
241
100
AcDbScale
 70
     0
300
1" = 1'-0"
140
1.0
141
12.0
290
     0
  0
SCALE
  5
25F
102
{ACAD_REACTORS
330
241
102
}
330
241
100
AcDbScale
 70
     0
300
1-1/2" = 1'-0"
140
1.5
141
12.0
290
     0
  0
SCALE
  5
260
102
{ACAD_REACTORS
330
241
102
}
330
241
100
AcDbScale
 70
     0
300
3" = 1'-0"
140
3.0
141
12.0
290
     0
  0
SCALE
  5
261
102
{ACAD_REACTORS
330
241
102
}
330
241
100
AcDbScale
 70
     0
300
6" = 1'-0"
140
6.0
141
12.0
290
     0
  0
SCALE
  5
262
102
{ACAD_REACTORS
330
241
102
}
330
241
100
AcDbScale
 70
     0
300
1'-0" = 1'-0"
140
12.0
141
12.0
290
     0
  0
TABLESTYLE
  5
279
102
{ACAD_REACTORS
330
278
102
}
102
{ACAD_XDICTIONARY
360
3BF5
102
}
330
278
100
AcDbTableStyle
  3
Standard
 70
     0
 71
     0
 40
0.06
 41
0.06
280
     0
281
     0
  7
Standard
140
4.5
170
     2
 62
     0
 63
   257
283
     0
 90
        4
 91
        0
  1

274
    -2
284
     1
 64
     0
275
    -2
285
     1
 65
     0
276
    -2
286
     1
 66
     0
277
    -2
287
     1
 67
     0
278
    -2
288
     1
 68
     0
279
    -2
289
     1
 69
     0
  7
Standard
140
6.0
170
     5
 62
     0
 63
   257
283
     0
 90
        4
 91
        0
  1

274
    -2
284
     1
 64
     0
275
    -2
285
     1
 65
     0
276
    -2
286
     1
 66
     0
277
    -2
287
     1
 67
     0
278
    -2
288
     1
 68
     0
279
    -2
289
     1
 69
     0
  7
Standard
140
4.5
170
     5
 62
     0
 63
   257
283
     0
 90
        4
 91
        0
  1

274
    -2
284
     1
 64
     0
275
    -2
285
     1
 65
     0
276
    -2
286
     1
 66
     0
277
    -2
287
     1
 67
     0
278
    -2
288
     1
 68
     0
279
    -2
289
     1
 69
     0
  0
VISUALSTYLE
  5
26C
102
{ACAD_REACTORS
330
267
102
}
330
267
100
AcDbVisualStyle
  2
2dWireframe
 70
     4
 71
     0
 72
     2
 73
     0
 90
        0
 40
-0.6
 41
-30.0
 62
     5
 63
     7
421
 16777215
 74
     1
 91
        4
 64
     7
 65
   257
 75
     1
175
     1
 42
1.0
 92
        0
 66
   257
 43
1.0
 76
     1
 77
     6
 78
     2
 67
     7
 79
     5
170
     0
171
     0
290
     0
174
     0
 93
        1
 44
0.0
173
     0
291
     0
 45
0.0
  0
VISUALSTYLE
  5
26E
102
{ACAD_REACTORS
330
267
102
}
330
267
100
AcDbVisualStyle
  2
3D Hidden
 70
     6
 71
     1
 72
     2
 73
     2
 90
        0
 40
-0.6
 41
-30.0
 62
     5
 63
     7
421
 16777215
 74
     2
 91
        2
 64
     7
 65
   257
 75
     2
175
     1
 42
40.0
 92
        0
 66
   257
 43
1.0
 76
     1
 77
     6
 78
     2
 67
     7
 79
     3
170
     0
171
     0
290
     0
174
     0
 93
        1
 44
0.0
173
     0
291
     0
 45
0.0
  0
VISUALSTYLE
  5
26D
102
{ACAD_REACTORS
330
267
102
}
330
267
100
AcDbVisualStyle
  2
3dWireframe
 70
     5
 71
     0
 72
     2
 73
     0
 90
        0
 40
-0.6
 41
-30.0
 62
     5
 63
     7
421
 16777215
 74
     1
 91
        4
 64
     7
 65
   257
 75
     1
175
     1
 42
1.0
 92
        0
 66
   257
 43
1.0
 76
     1
 77
     6
 78
     2
 67
     7
 79
     5
170
     0
171
     0
290
     0
174
     0
 93
        1
 44
0.0
173
     0
291
     0
 45
0.0
  0
VISUALSTYLE
  5
26F
102
{ACAD_REACTORS
330
267
102
}
330
267
100
AcDbVisualStyle
  2
Basic
 70
     7
 71
     1
 72
     0
 73
     1
 90
        0
 40
-0.6
 41
-30.0
 62
     5
 63
     7
421
 16777215
 74
     0
 91
        4
 64
     7
 65
   257
 75
     1
175
     1
 42
1.0
 92
        8
 66
     7
 43
1.0
 76
     1
 77
     6
 78
     2
 67
     7
 79
     5
170
     0
171
     0
290
     0
174
     0
 93
        1
 44
0.0
173
     0
291
     1
 45
0.0
  0
VISUALSTYLE
  5
273
102
{ACAD_REACTORS
330
267
102
}
330
267
100
AcDbVisualStyle
  2
Brighten
 70
    12
 71
     2
 72
     2
 73
     0
 90
        0
 40
-0.6
 41
-30.0
 62
     5
 63
     7
421
 16777215
 74
     1
 91
        4
 64
     7
 65
   257
 75
     1
175
     1
 42
1.0
 92
        8
 66
     7
 43
1.0
 76
     1
 77
     6
 78
     2
 67
     7
 79
     5
170
     0
171
     0
290
     0
174
     0
 93
        1
 44
50.0
173
     0
291
     1
 45
0.0
  0
VISUALSTYLE
  5
277
102
{ACAD_REACTORS
330
267
102
}
330
267
100
AcDbVisualStyle
  2
ColorChange
 70
    16
 71
     2
 72
     2
 73
     3
 90
        0
 40
-0.6
 41
-30.0
 62
     5
 63
     8
421
  8421504
 74
     1
 91
        4
 64
     7
 65
   257
 75
     1
175
     1
 42
1.0
 92
        8
 66
     8
424
  8421504
 43
1.0
 76
     1
 77
     6
 78
     2
 67
     7
 79
     5
170
     0
171
     0
290
     0
174
     0
 93
        1
 44
0.0
173
     0
291
     1
 45
0.0
  0
VISUALSTYLE
  5
271
102
{ACAD_REACTORS
330
267
102
}
330
267
100
AcDbVisualStyle
  2
Conceptual
 70
     9
 71
     3
 72
     2
 73
     0
 90
        0
 40
-0.6
 41
-30.0
 62
     5
 63
     7
421
 16777215
 74
     2
 91
        2
 64
     7
 65
   257
 75
     1
175
     1
 42
40.0
 92
        8
 66
     7
 43
1.0
 76
     1
 77
     6
 78
     2
 67
     7
 79
     3
170
     0
171
     0
290
     0
174
     0
 93
        1
 44
0.0
173
     0
291
     0
 45
0.0
  0
VISUALSTYLE
  5
272
102
{ACAD_REACTORS
330
267
102
}
330
267
100
AcDbVisualStyle
  2
Dim
 70
    11
 71
     2
 72
     2
 73
     0
 90
        0
 40
-0.6
 41
-30.0
 62
     5
 63
     7
421
 16777215
 74
     1
 91
        4
 64
     7
 65
   257
 75
     1
175
     1
 42
1.0
 92
        8
 66
     7
 43
1.0
 76
     1
 77
     6
 78
     2
 67
     7
 79
     5
170
     0
171
     0
290
     0
174
     0
 93
        1
 44
-50.0
173
     0
291
     1
 45
0.0
  0
VISUALSTYLE
  5
8FE
102
{ACAD_REACTORS
330
267
102
}
330
267
100
AcDbVisualStyle
  2
EdgeColorOff
 70
    22
 71
     2
 72
     2
 73
     0
 90
        0
 40
0.6
 41
30.0
 62
     5
 63
     7
421
 16777215
 74
     1
 91
        4
 64
     7
 65
   257
 75
     1
175
     1
 42
1.0
 92
        8
 66
     7
 43
1.0
 76
     1
 77
     6
 78
     2
 67
     7
 79
     5
170
     0
171
     0
290
     0
174
     0
 93
        1
 44
0.0
173
     0
291
     1
 45
0.0
  0
VISUALSTYLE
  5
276
102
{ACAD_REACTORS
330
267
102
}
330
267
100
AcDbVisualStyle
  2
Facepattern
 70
    15
 71
     2
 72
     2
 73
     0
 90
        0
 40
-0.6
 41
-30.0
 62
     5
 63
     7
421
 16777215
 74
     1
 91
        4
 64
     7
 65
   257
 75
     1
175
     1
 42
1.0
 92
        8
 66
     7
 43
1.0
 76
     1
 77
     6
 78
     2
 67
     7
 79
     5
170
     0
171
     0
290
     0
174
     0
 93
        1
 44
0.0
173
     0
291
     1
 45
0.0
  0
VISUALSTYLE
  5
268
102
{ACAD_REACTORS
330
267
102
}
330
267
100
AcDbVisualStyle
  2
Flat
 70
     0
 71
     2
 72
     1
 73
     1
 90
        2
 40
-0.6
 41
30.0
 62
     5
 63
     7
421
 16777215
 74
     0
 91
        4
 64
     7
 65
   257
 75
     1
175
     1
 42
1.0
 92
        8
 66
     7
 43
1.0
 76
     1
 77
     6
 78
     2
 67
     7
 79
     5
170
     0
171
     0
290
     0
174
     0
 93
       13
 44
0.0
173
     0
291
     1
 45
0.0
  0
VISUALSTYLE
  5
269
102
{ACAD_REACTORS
330
267
102
}
330
267
100
AcDbVisualStyle
  2
FlatWithEdges
 70
     1
 71
     2
 72
     1
 73
     1
 90
        2
 40
-0.6
 41
30.0
 62
     5
 63
     7
421
 16777215
 74
     1
 91
        4
 64
     7
 65
   257
 75
     1
175
     1
 42
1.0
 92
        0
 66
   257
 43
1.0
 76
     1
 77
     6
 78
     2
 67
     7
 79
     5
170
     0
171
     0
290
     0
174
     0
 93
       13
 44
0.0
173
     0
291
     1
 45
0.0
  0
VISUALSTYLE
  5
26A
102
{ACAD_REACTORS
330
267
102
}
330
267
100
AcDbVisualStyle
  2
Gouraud
 70
     2
 71
     2
 72
     2
 73
     1
 90
        2
 40
-0.6
 41
30.0
 62
     5
 63
     7
421
 16777215
 74
     0
 91
        4
 64
     7
 65
   257
 75
     1
175
     1
 42
1.0
 92
        0
 66
     7
 43
1.0
 76
     1
 77
     6
 78
     2
 67
     7
 79
     5
170
     0
171
     0
290
     0
174
     0
 93
       13
 44
0.0
173
     0
291
     1
 45
0.0
  0
VISUALSTYLE
  5
26B
102
{ACAD_REACTORS
330
267
102
}
330
267
100
AcDbVisualStyle
  2
GouraudWithEdges
 70
     3
 71
     2
 72
     2
 73
     1
 90
        2
 40
-0.6
 41
30.0
 62
     5
 63
     7
421
 16777215
 74
     1
 91
        4
 64
     7
 65
   257
 75
     1
175
     1
 42
1.0
 92
        0
 66
   257
 43
1.0
 76
     1
 77
     6
 78
     2
 67
     7
 79
     5
170
     0
171
     0
290
     0
174
     0
 93
       13
 44
0.0
173
     0
291
     1
 45
0.0
  0
VISUALSTYLE
  5
8FB
102
{ACAD_REACTORS
330
267
102
}
330
267
100
AcDbVisualStyle
  2
Hidden
 70
     6
 71
     1
 72
     2
 73
     2
 90
        0
 40
0.6
 41
30.0
 62
     5
 63
     7
421
 16777215
 74
     2
 91
        2
 64
     7
 65
   257
 75
     2
175
     1
 42
40.0
 92
        0
 66
   257
 43
1.0
 76
     1
 77
     6
 78
     2
 67
     7
 79
     3
170
     0
171
     0
290
     0
174
     0
 93
        1
 44
0.0
173
     0
291
     0
 45
0.0
  0
VISUALSTYLE
  5
8FC
102
{ACAD_REACTORS
330
267
102
}
330
267
100
AcDbVisualStyle
  2
JitterOff
 70
    20
 71
     2
 72
     2
 73
     0
 90
        0
 40
0.6
 41
30.0
 62
     5
 63
     7
421
 16777215
 74
     1
 91
        4
 64
     7
 65
   257
 75
     1
175
     1
 42
1.0
 92
       10
 66
     7
 43
1.0
 76
     1
 77
     6
 78
     2
 67
     7
 79
     5
170
     0
171
     0
290
     0
174
     0
 93
        1
 44
0.0
173
     0
291
     1
 45
0.0
  0
VISUALSTYLE
  5
275
102
{ACAD_REACTORS
330
267
102
}
330
267
100
AcDbVisualStyle
  2
Linepattern
 70
    14
 71
     2
 72
     2
 73
     0
 90
        0
 40
-0.6
 41
-30.0
 62
     5
 63
     7
421
 16777215
 74
     1
 91
        4
 64
     7
 65
   257
 75
     7
175
     7
 42
1.0
 92
        8
 66
     7
 43
1.0
 76
     1
 77
     6
 78
     2
 67
     7
 79
     5
170
     0
171
     0
290
     0
174
     0
 93
        1
 44
0.0
173
     0
291
     1
 45
0.0
  0
VISUALSTYLE
  5
8FD
102
{ACAD_REACTORS
330
267
102
}
330
267
100
AcDbVisualStyle
  2
OverhangOff
 70
    21
 71
     2
 72
     2
 73
     0
 90
        0
 40
0.6
 41
30.0
 62
     5
 63
     7
421
 16777215
 74
     1
 91
        4
 64
     7
 65
   257
 75
     1
175
     1
 42
1.0
 92
        9
 66
     7
 43
1.0
 76
     1
 77
     6
 78
     2
 67
     7
 79
     5
170
     0
171
     0
290
     0
174
     0
 93
        1
 44
0.0
173
     0
291
     1
 45
0.0
  0
VISUALSTYLE
  5
270
102
{ACAD_REACTORS
330
267
102
}
330
267
100
AcDbVisualStyle
  2
Realistic
 70
     8
 71
     2
 72
     2
 73
     0
 90
        0
 40
-0.6
 41
-30.0
 62
     5
 63
     7
421
 16777215
 74
     1
 91
        0
 64
     7
 65
   257
 75
     1
175
     1
 42
1.0
 92
        8
 66
     8
424
  7895160
 43
1.0
 76
     1
 77
     6
 78
     2
 67
     7
 79
     5
170
     0
171
     0
290
     0
174
     0
 93
       13
 44
0.0
173
     0
291
     0
 45
0.0
  0
VISUALSTYLE
  5
903
102
{ACAD_REACTORS
330
267
102
}
330
267
100
AcDbVisualStyle
  2
Shaded
 70
    27
 71
     2
 72
     2
 73
     1
 90
        2
 40
0.6
 41
30.0
 62
     5
 63
     7
421
 16777215
 74
     0
 91
        4
 64
     7
 65
   257
 75
     1
175
     1
 42
1.0
 92
        8
 66
   257
 43
1.0
 76
     1
 77
     6
 78
     2
 67
     8
425
  7895160
 79
     3
170
     0
171
     0
290
     0
174
     0
 93
        5
 44
0.0
173
     0
291
     0
 45
0.0
  0
VISUALSTYLE
  5
902
102
{ACAD_REACTORS
330
267
102
}
330
267
100
AcDbVisualStyle
  2
Shaded with edges
 70
    26
 71
     2
 72
     2
 73
     1
 90
        2
 40
0.6
 41
30.0
 62
     5
 63
     7
421
 16777215
 74
     1
 91
       10
 64
     7
 65
   257
 75
     2
175
     1
 42
1.0
 92
        8
 66
   257
 43
1.0
 76
     1
 77
     6
 78
     2
 67
     7
 79
     3
170
     0
171
     0
290
     0
174
     0
 93
        5
 44
0.0
173
     0
291
     0
 45
0.0
  0
VISUALSTYLE
  5
8FF
102
{ACAD_REACTORS
330
267
102
}
330
267
100
AcDbVisualStyle
  2
Shades of Gray
 70
    23
 71
     2
 72
     2
 73
     3
 90
        0
 40
0.6
 41
30.0
 62
     5
 63
     7
421
 16777215
 74
     2
 91
        2
 64
     7
 65
     7
 75
     1
175
     1
 42
40.0
 92
        8
 66
     7
 43
1.0
 76
     1
 77
     6
 78
     2
 67
     7
 79
     3
170
     0
171
     0
290
     0
174
     0
 93
        1
 44
0.0
173
     0
291
     0
 45
0.0
  0
VISUALSTYLE
  5
900
102
{ACAD_REACTORS
330
267
102
}
330
267
100
AcDbVisualStyle
  2
Sketchy
 70
    24
 71
     1
 72
     2
 73
     2
 90
        0
 40
0.6
 41
30.0
 62
     5
 63
     7
421
 16777215
 74
     2
 91
        2
 64
     7
 65
     7
 75
     1
175
     1
 42
40.0
 92
       11
 66
     7
 43
1.0
 76
     1
 77
     6
 78
     2
 67
     7
 79
     6
170
     0
171
     0
290
     0
174
     0
 93
        1
 44
0.0
173
     0
291
     0
 45
0.0
  0
VISUALSTYLE
  5
274
102
{ACAD_REACTORS
330
267
102
}
330
267
100
AcDbVisualStyle
  2
Thicken
 70
    13
 71
     2
 72
     2
 73
     0
 90
        0
 40
-0.6
 41
-30.0
 62
     5
 63
     7
421
 16777215
 74
     1
 91
        4
 64
     7
 65
   257
 75
     1
175
     1
 42
1.0
 92
       12
 66
     7
 43
1.0
 76
     1
 77
     6
 78
     2
 67
     7
 79
     5
170
     0
171
     0
290
     0
174
     0
 93
        1
 44
0.0
173
     0
291
     1
 45
0.0
  0
VISUALSTYLE
  5
8FA
102
{ACAD_REACTORS
330
267
102
}
330
267
100
AcDbVisualStyle
  2
Wireframe
 70
     5
 71
     0
 72
     2
 73
     0
 90
        0
 40
0.6
 41
30.0
 62
     5
 63
     7
421
 16777215
 74
     1
 91
        4
 64
     7
 65
   257
 75
     1
175
     1
 42
1.0
 92
        0
 66
   257
 43
1.0
 76
     1
 77
     6
 78
     2
 67
     7
 79
     3
170
     0
171
     0
290
     0
174
     0
 93
        1
 44
0.0
173
     0
291
     0
 45
0.0
  0
VISUALSTYLE
  5
901
102
{ACAD_REACTORS
330
267
102
}
330
267
100
AcDbVisualStyle
  2
X-Ray
 70
    25
 71
     2
 72
     2
 73
     1
 90
        1
 40
0.5
 41
30.0
 62
     5
 63
     7
421
 16777215
 74
     1
 91
        0
 64
     7
 65
   257
 75
     1
175
     1
 42
1.0
 92
        8
 66
     7
 43
1.0
 76
     1
 77
     6
 78
     2
 67
     7
 79
     3
170
     0
171
     0
290
     0
174
     0
 93
       13
 44
0.0
173
     0
291
     0
 45
0.0
  0
DICTIONARYVAR
  5
331
102
{ACAD_REACTORS
330
330
102
}
330
330
100
DictionaryVariables
280
     0
  1
1:1
  0
DICTIONARYVAR
  5
D5E
102
{ACAD_REACTORS
330
330
102
}
330
330
100
DictionaryVariables
280
     0
  1
Standard
  0
DICTIONARYVAR
  5
335
102
{ACAD_REACTORS
330
330
102
}
330
330
100
DictionaryVariables
280
     0
  1
Standard
  0
DICTIONARYVAR
  5
D52
102
{ACAD_REACTORS
330
330
102
}
330
330
100
DictionaryVariables
280
     0
  1
ByLayer
  0
DICTIONARYVAR
  5
896
102
{ACAD_REACTORS
330
330
102
}
330
330
100
DictionaryVariables
280
     0
  1
0
  0
DICTIONARYVAR
  5
1614
102
{ACAD_REACTORS
330
E38
102
}
330
E38
100
DictionaryVariables
280
     0
  1
0.261799
  0
DICTIONARYVAR
  5
1612
102
{ACAD_REACTORS
330
E38
102
}
330
E38
100
DictionaryVariables
280
     0
  1
0.400000
  0
DICTIONARYVAR
  5
1613
102
{ACAD_REACTORS
330
E38
102
}
330
E38
100
DictionaryVariables
280
     0
  1
0.250000
  0
DICTIONARYVAR
  5
1615
102
{ACAD_REACTORS
330
E38
102
}
330
E38
100
DictionaryVariables
280
     0
  1
1
  0
FIELD
  5
16F3
102
{ACAD_REACTORS
330
37E3
330
3B27
102
}
330
3B27
100
AcDbField
  1
_text
  2
{%<\_FldIdx 0>%N}
 90
        1
360
16F4
 97
        0
 91
       63
 92
        0
 94
       11
 95
        2
 96
        0
300

 93
        1
  6
ACFD_FIELDTEXT_CHECKSUM
 93
        2
 90
        2
140
4474.0
 94
        0
300

302

304
ACVALUE_END
  7
ACFD_FIELD_VALUE
 93
        6
 90
        4
  1
{20210702N}
 94
        0
300

302

304
ACVALUE_END
301
{20210702N}
 98
       11
  0
DICTIONARY
  5
3BF5
330
279
100
AcDbDictionary
280
     1
281
     1
  3
ACAD_ROUNDTRIP_2008_TABLESTYLE_CELLSTYLEMAP
360
3BF6
  0
FIELD
  5
16F4
330
16F3
100
AcDbField
  1
AcVar
  2
\AcVar Date \f "yyyyMMdd"
 90
        0
 97
        0
 91
       63
 92
        0
 94
        8
 95
       64
 96
        0
300
Variable not supported
 93
        1
  6
Variable
 93
        2
 90
        4
  1
Date
 94
        0
300

302

304
ACVALUE_END
  7
ACFD_FIELD_VALUE
 93
        6
 90
        8
 92
       16
310
E50707000000020007000B0030000000
 94
        0
300
yyyyMMdd
302

304
ACVALUE_END
301
20210702
 98
        8
  0
CELLSTYLEMAP
  5
3BF6
102
{ACAD_REACTORS
330
3BF5
102
}
330
3BF5
100
AcDbCellStyleMap
 90
        3
300
CELLSTYLE
  1
TABLEFORMAT_BEGIN
 90
        5
170
     1
 91
        0
 92
    32768
 62
   257
 93
        1
300
CONTENTFORMAT
  1
CONTENTFORMAT_BEGIN
 90
        0
 91
        0
 92
        4
 93
        0
300

 40
0.0
140
1.0
 94
        5
 62
     0
340
17
144
6.0
309
CONTENTFORMAT_END
171
     1
301
MARGIN
  1
CELLMARGIN_BEGIN
 40
0.06
 40
0.06
 40
0.06
 40
0.06
 40
0.18
 40
0.18
309
CELLMARGIN_END
 94
        6
 95
        1
302
GRIDFORMAT
  1
GRIDFORMAT_BEGIN
 90
        0
 91
        1
 62
     0
 92
       -2
340
0
 93
        0
 40
0.045
309
GRIDFORMAT_END
 95
        2
302
GRIDFORMAT
  1
GRIDFORMAT_BEGIN
 90
        0
 91
        1
 62
     0
 92
       -2
340
0
 93
        0
 40
0.045
309
GRIDFORMAT_END
 95
        4
302
GRIDFORMAT
  1
GRIDFORMAT_BEGIN
 90
        0
 91
        1
 62
     0
 92
       -2
340
0
 93
        0
 40
0.045
309
GRIDFORMAT_END
 95
        8
302
GRIDFORMAT
  1
GRIDFORMAT_BEGIN
 90
        0
 91
        1
 62
     0
 92
       -2
340
0
 93
        0
 40
0.045
309
GRIDFORMAT_END
 95
       16
302
GRIDFORMAT
  1
GRIDFORMAT_BEGIN
 90
        0
 91
        1
 62
     0
 92
       -2
340
0
 93
        0
 40
0.045
309
GRIDFORMAT_END
 95
       32
302
GRIDFORMAT
  1
GRIDFORMAT_BEGIN
 90
        0
 91
        1
 62
     0
 92
       -2
340
0
 93
        0
 40
0.045
309
GRIDFORMAT_END
309
TABLEFORMAT_END
  1
CELLSTYLE_BEGIN
 90
        1
 91
        1
300
_TITLE
309
CELLSTYLE_END
300
CELLSTYLE
  1
TABLEFORMAT_BEGIN
 90
        5
170
     1
 91
        0
 92
        0
 62
   257
 93
        1
300
CONTENTFORMAT
  1
CONTENTFORMAT_BEGIN
 90
        0
 91
        0
 92
        4
 93
        0
300

 40
0.0
140
1.0
 94
        5
 62
     0
340
17
144
4.5
309
CONTENTFORMAT_END
171
     1
301
MARGIN
  1
CELLMARGIN_BEGIN
 40
0.06
 40
0.06
 40
0.06
 40
0.06
 40
0.18
 40
0.18
309
CELLMARGIN_END
 94
        6
 95
        1
302
GRIDFORMAT
  1
GRIDFORMAT_BEGIN
 90
        0
 91
        1
 62
     0
 92
       -2
340
0
 93
        0
 40
0.045
309
GRIDFORMAT_END
 95
        2
302
GRIDFORMAT
  1
GRIDFORMAT_BEGIN
 90
        0
 91
        1
 62
     0
 92
       -2
340
0
 93
        0
 40
0.045
309
GRIDFORMAT_END
 95
        4
302
GRIDFORMAT
  1
GRIDFORMAT_BEGIN
 90
        0
 91
        1
 62
     0
 92
       -2
340
0
 93
        0
 40
0.045
309
GRIDFORMAT_END
 95
        8
302
GRIDFORMAT
  1
GRIDFORMAT_BEGIN
 90
        0
 91
        1
 62
     0
 92
       -2
340
0
 93
        0
 40
0.045
309
GRIDFORMAT_END
 95
       16
302
GRIDFORMAT
  1
GRIDFORMAT_BEGIN
 90
        0
 91
        1
 62
     0
 92
       -2
340
0
 93
        0
 40
0.045
309
GRIDFORMAT_END
 95
       32
302
GRIDFORMAT
  1
GRIDFORMAT_BEGIN
 90
        0
 91
        1
 62
     0
 92
       -2
340
0
 93
        0
 40
0.045
309
GRIDFORMAT_END
309
TABLEFORMAT_END
  1
CELLSTYLE_BEGIN
 90
        2
 91
        1
300
_HEADER
309
CELLSTYLE_END
300
CELLSTYLE
  1
TABLEFORMAT_BEGIN
 90
        5
170
     1
 91
        0
 92
        0
 62
   257
 93
        1
300
CONTENTFORMAT
  1
CONTENTFORMAT_BEGIN
 90
        0
 91
        0
 92
        4
 93
        0
300

 40
0.0
140
1.0
 94
        2
 62
     0
340
17
144
4.5
309
CONTENTFORMAT_END
171
     1
301
MARGIN
  1
CELLMARGIN_BEGIN
 40
0.06
 40
0.06
 40
0.06
 40
0.06
 40
0.18
 40
0.18
309
CELLMARGIN_END
 94
        6
 95
        1
302
GRIDFORMAT
  1
GRIDFORMAT_BEGIN
 90
        0
 91
        1
 62
     0
 92
       -2
340
0
 93
        0
 40
0.045
309
GRIDFORMAT_END
 95
        2
302
GRIDFORMAT
  1
GRIDFORMAT_BEGIN
 90
        0
 91
        1
 62
     0
 92
       -2
340
0
 93
        0
 40
0.045
309
GRIDFORMAT_END
 95
        4
302
GRIDFORMAT
  1
GRIDFORMAT_BEGIN
 90
        0
 91
        1
 62
     0
 92
       -2
340
0
 93
        0
 40
0.045
309
GRIDFORMAT_END
 95
        8
302
GRIDFORMAT
  1
GRIDFORMAT_BEGIN
 90
        0
 91
        1
 62
     0
 92
       -2
340
0
 93
        0
 40
0.045
309
GRIDFORMAT_END
 95
       16
302
GRIDFORMAT
  1
GRIDFORMAT_BEGIN
 90
        0
 91
        1
 62
     0
 92
       -2
340
0
 93
        0
 40
0.045
309
GRIDFORMAT_END
 95
       32
302
GRIDFORMAT
  1
GRIDFORMAT_BEGIN
 90
        0
 91
        1
 62
     0
 92
       -2
340
0
 93
        0
 40
0.045
309
GRIDFORMAT_END
309
TABLEFORMAT_END
  1
CELLSTYLE_BEGIN
 90
        3
 91
        2
300
_DATA
309
CELLSTYLE_END
  0
ENDSEC
  0
EOF
