  0
SECTION
  2
HEADER
  9
$ACADVER
  1
AC1021
  9
$ACADMAINTVER
 70
    25
  9
$DWGCODEPAGE
  3
ANSI_932
  9
$LASTSAVEDBY
  1
howeNelson
  9
$INSBASE
 10
0.0
 20
0.0
 30
0.0
  9
$EXTMIN
 10
0.0
 20
0.0
 30
-0.0000000000000142
  9
$EXTMAX
 10
420.0
 20
594.0
 30
0.0000000000000142
  9
$LIMMIN
 10
0.0
 20
0.0
  9
$LIMMAX
 10
420.0
 20
594.0
  9
$ORTHOMODE
 70
     0
  9
$REGENMODE
 70
     1
  9
$FILLMODE
 70
     1
  9
$QTEXTMODE
 70
     0
  9
$MIRRTEXT
 70
     1
  9
$LTSCALE
 40
50.0
  9
$ATTMODE
 70
     1
  9
$TEXTSIZE
 40
2.5
  9
$TRACEWID
 40
1.0
  9
$TEXTSTYLE
  7
ＭＳ ゴシック
  9
$CLAYER
  8
DIM
  9
$CELTYPE
  6
ByLayer
  9
$CECOLOR
 62
   256
  9
$CELTSCALE
 40
0.05
  9
$DISPSILH
 70
     0
  9
$DIMSCALE
 40
1.0
  9
$DIMASZ
 40
1.0
  9
$DIMEXO
 40
5.0
  9
$DIMDLI
 40
0.9999999999999999
  9
$DIMRND
 40
0.0
  9
$DIMDLE
 40
0.0
  9
$DIMEXE
 40
0.0
  9
$DIMTP
 40
0.0
  9
$DIMTM
 40
0.0
  9
$DIMTXT
 40
5.0
  9
$DIMCEN
 40
0.0
  9
$DIMTSZ
 40
0.0
  9
$DIMTOL
 70
     0
  9
$DIMLIM
 70
     0
  9
$DIMTIH
 70
     0
  9
$DIMTOH
 70
     0
  9
$DIMSE1
 70
     0
  9
$DIMSE2
 70
     0
  9
$DIMTAD
 70
     1
  9
$DIMZIN
 70
    11
  9
$DIMBLK
  1
DOT
  9
$DIMASO
 70
     1
  9
$DIMSHO
 70
     1
  9
$DIMPOST
  1
<>
  9
$DIMAPOST
  1
[]
  9
$DIMALT
 70
     0
  9
$DIMALTD
 70
     1
  9
$DIMALTF
 40
1.0
  9
$DIMLFAC
 40
1.0
  9
$DIMTOFL
 70
     0
  9
$DIMTVP
 40
0.0
  9
$DIMTIX
 70
     1
  9
$DIMSOXD
 70
     0
  9
$DIMSAH
 70
     0
  9
$DIMBLK1
  1

  9
$DIMBLK2
  1

  9
$DIMSTYLE
  2
tfrom線あり
  9
$DIMCLRD
 70
     0
  9
$DIMCLRE
 70
     0
  9
$DIMCLRT
 70
     0
  9
$DIMTFAC
 40
1.0
  9
$DIMGAP
 40
5.0
  9
$DIMJUST
 70
     0
  9
$DIMSD1
 70
     0
  9
$DIMSD2
 70
     0
  9
$DIMTOLJ
 70
     1
  9
$DIMTZIN
 70
    11
  9
$DIMALTZ
 70
    11
  9
$DIMALTTZ
 70
    11
  9
$DIMUPT
 70
     0
  9
$DIMDEC
 70
     0
  9
$DIMTDEC
 70
     1
  9
$DIMALTU
 70
     2
  9
$DIMALTTD
 70
     2
  9
$DIMTXSTY
  7
ＭＳ ゴシック
  9
$DIMAUNIT
 70
     0
  9
$DIMADEC
 70
     2
  9
$DIMALTRND
 40
0.0
  9
$DIMAZIN
 70
     0
  9
$DIMDSEP
 70
    46
  9
$DIMATFIT
 70
     0
  9
$DIMFRAC
 70
     2
  9
$DIMLDRBLK
  1
DOT
  9
$DIMLUNIT
 70
     2
  9
$DIMLWD
 70
    -2
  9
$DIMLWE
 70
    -2
  9
$DIMTMOVE
 70
     0
  9
$DIMFXL
 40
1.0
  9
$DIMFXLON
 70
     0
  9
$DIMJOGANG
 40
0.7853981633974483
  9
$DIMTFILL
 70
     0
  9
$DIMTFILLCLR
 70
     0
  9
$DIMARCSYM
 70
     0
  9
$DIMLTYPE
  6

  9
$DIMLTEX1
  6

  9
$DIMLTEX2
  6

  9
$LUNITS
 70
     2
  9
$LUPREC
 70
     0
  9
$SKETCHINC
 40
0.1
  9
$FILLETRAD
 40
0.0
  9
$AUNITS
 70
     0
  9
$AUPREC
 70
     0
  9
$MENU
  1
acad
  9
$ELEVATION
 40
0.0
  9
$PELEVATION
 40
0.0
  9
$THICKNESS
 40
0.0
  9
$LIMCHECK
 70
     0
  9
$CHAMFERA
 40
0.0
  9
$CHAMFERB
 40
0.0
  9
$CHAMFERC
 40
0.0
  9
$CHAMFERD
 40
0.0
  9
$SKPOLY
 70
     0
  9
$TDCREATE
 40
2447893.375
  9
$TDUCREATE
 40
0.0
  9
$TDUPDATE
 40
2457596.49579272
  9
$TDUUPDATE
 40
2457596.12079272
  9
$TDINDWG
 40
0.2961853356
  9
$TDUSRTIMER
 40
2457596.120724989
  9
$USRTIMER
 70
     1
  9
$ANGBASE
 50
0.0
  9
$ANGDIR
 70
     0
  9
$PDMODE
 70
     1
  9
$PDSIZE
 40
-2.0
  9
$PLINEWID
 40
0.0
  9
$SPLFRAME
 70
     0
  9
$SPLINETYPE
 70
     6
  9
$SPLINESEGS
 70
     8
  9
$HANDSEED
  5
5D51
  9
$SURFTAB1
 70
     6
  9
$SURFTAB2
 70
     6
  9
$SURFTYPE
 70
     6
  9
$SURFU
 70
     6
  9
$SURFV
 70
     6
  9
$UCSBASE
  2

  9
$UCSNAME
  2

  9
$UCSORG
 10
0.0
 20
0.0
 30
0.0
  9
$UCSXDIR
 10
1.0
 20
0.0
 30
0.0
  9
$UCSYDIR
 10
0.0
 20
1.0
 30
0.0
  9
$UCSORTHOREF
  2

  9
$UCSORTHOVIEW
 70
     0
  9
$UCSORGTOP
 10
0.0
 20
0.0
 30
0.0
  9
$UCSORGBOTTOM
 10
0.0
 20
0.0
 30
0.0
  9
$UCSORGLEFT
 10
0.0
 20
0.0
 30
0.0
  9
$UCSORGRIGHT
 10
0.0
 20
0.0
 30
0.0
  9
$UCSORGFRONT
 10
0.0
 20
0.0
 30
0.0
  9
$UCSORGBACK
 10
0.0
 20
0.0
 30
0.0
  9
$PUCSBASE
  2

  9
$PUCSNAME
  2

  9
$PUCSORG
 10
0.0
 20
0.0
 30
0.0
  9
$PUCSXDIR
 10
1.0
 20
0.0
 30
0.0
  9
$PUCSYDIR
 10
0.0
 20
1.0
 30
0.0
  9
$PUCSORTHOREF
  2

  9
$PUCSORTHOVIEW
 70
     0
  9
$PUCSORGTOP
 10
0.0
 20
0.0
 30
0.0
  9
$PUCSORGBOTTOM
 10
0.0
 20
0.0
 30
0.0
  9
$PUCSORGLEFT
 10
0.0
 20
0.0
 30
0.0
  9
$PUCSORGRIGHT
 10
0.0
 20
0.0
 30
0.0
  9
$PUCSORGFRONT
 10
0.0
 20
0.0
 30
0.0
  9
$PUCSORGBACK
 10
0.0
 20
0.0
 30
0.0
  9
$USERI1
 70
     0
  9
$USERI2
 70
     0
  9
$USERI3
 70
     0
  9
$USERI4
 70
     0
  9
$USERI5
 70
     0
  9
$USERR1
 40
0.0
  9
$USERR2
 40
0.0
  9
$USERR3
 40
0.0
  9
$USERR4
 40
0.0
  9
$USERR5
 40
0.0
  9
$WORLDVIEW
 70
     1
  9
$SHADEDGE
 70
     3
  9
$SHADEDIF
 70
    70
  9
$TILEMODE
 70
     1
  9
$MAXACTVP
 70
    64
  9
$PINSBASE
 10
0.0
 20
0.0
 30
0.0
  9
$PLIMCHECK
 70
     0
  9
$PEXTMIN
 10
0.0
 20
0.0
 30
0.0
  9
$PEXTMAX
 10
0.0
 20
0.0
 30
0.0
  9
$PLIMMIN
 10
-95.87226993865028
 20
-25.69999999999999
  9
$PLIMMAX
 10
201.1277300613497
 20
184.3
  9
$UNITMODE
 70
     0
  9
$VISRETAIN
 70
     0
  9
$PLINEGEN
 70
     1
  9
$PSLTSCALE
 70
     0
  9
$TREEDEPTH
 70
  3020
  9
$CMLSTYLE
  2
Standard
  9
$CMLJUST
 70
     0
  9
$CMLSCALE
 40
1.0
  9
$PROXYGRAPHICS
 70
     0
  9
$MEASUREMENT
 70
     1
  9
$CELWEIGHT
370
    -1
  9
$ENDCAPS
280
     0
  9
$JOINSTYLE
280
     0
  9
$LWDISPLAY
290
     1
  9
$INSUNITS
 70
     4
  9
$HYPERLINKBASE
  1

  9
$STYLESHEET
  1

  9
$XEDIT
290
     1
  9
$CEPSNTYPE
380
     0
  9
$PSTYLEMODE
290
     1
  9
$FINGERPRINTGUID
  2

  9
$VERSIONGUID
  2

  9
$EXTNAMES
290
     1
  9
$PSVPSCALE
 40
0.0
  9
$OLESTARTUP
290
     0
  9
$SORTENTS
280
   127
  9
$INDEXCTL
280
     0
  9
$HIDETEXT
280
     1
  9
$XCLIPFRAME
290
     0
  9
$HALOGAP
280
     0
  9
$OBSCOLOR
 70
   257
  9
$OBSLTYPE
280
     0
  9
$INTERSECTIONDISPLAY
280
     0
  9
$INTERSECTIONCOLOR
 70
   257
  9
$DIMASSOC
280
     2
  9
$PROJECTNAME
  1

  9
$CAMERADISPLAY
290
     0
  9
$LENSLENGTH
 40
50.0
  9
$CAMERAHEIGHT
 40
0.0
  9
$STEPSPERSEC
 40
2.0
  9
$STEPSIZE
 40
6.0
  9
$3DDWFPREC
 40
2.0
  9
$PSOLWIDTH
 40
0.25
  9
$PSOLHEIGHT
 40
4.0
  9
$LOFTANG1
 40
1.570796326794897
  9
$LOFTANG2
 40
1.570796326794897
  9
$LOFTMAG1
 40
0.0
  9
$LOFTMAG2
 40
0.0
  9
$LOFTPARAM
 70
     7
  9
$LOFTNORMALS
280
     1
  9
$LATITUDE
 40
37.795
  9
$LONGITUDE
 40
-122.394
  9
$NORTHDIRECTION
 40
0.0
  9
$TIMEZONE
 70
 -8000
  9
$LIGHTGLYPHDISPLAY
280
     1
  9
$TILEMODELIGHTSYNCH
280
     1
  9
$SOLIDHIST
280
     1
  9
$SHOWHIST
280
     1
  9
$DWFFRAME
280
     2
  9
$DGNFRAME
280
     2
  9
$REALWORLDSCALE
290
     1
  9
$INTERFERECOLOR
 62
   256
  9
$CSHADOW
280
     0
  9
$SHADOWPLANELOCATION
 40
0.0
  0
ENDSEC
  0
SECTION
  2
CLASSES
  0
CLASS
  1
LWPOLYLINE
  2
AcDbPolyline
  3
ObjectDBX Classes
 90
        0
 91
        1
280
     0
281
     1
  0
CLASS
  1
IMAGE
  2
AcDbRasterImage
  3
ISM
 90
      127
 91
       10
280
     0
281
     1
  0
CLASS
  1
OLE2FRAME
  2
AcDbOle2Frame
  3
ObjectDBX Classes
 90
        0
 91
        1
280
     0
281
     1
  0
CLASS
  1
HATCH
  2
AcDbHatch
  3
ObjectDBX Classes
 90
        0
 91
        1
280
     0
281
     1
  0
CLASS
  1
DICTIONARYVAR
  2
AcDbDictionaryVar
  3
ObjectDBX Classes
 90
        0
 91
        9
280
     0
281
     0
  0
CLASS
  1
RASTERVARIABLES
  2
AcDbRasterVariables
  3
ISM
 90
        0
 91
        9
280
     0
281
     0
  0
CLASS
  1
IMAGEDEF
  2
AcDbRasterImageDef
  3
ISM
 90
        0
 91
        9
280
     0
281
     0
  0
CLASS
  1
IMAGEDEF_REACTOR
  2
AcDbRasterImageDefReactor
  3
ISM
 90
        1
 91
        9
280
     0
281
     0
  0
CLASS
  1
IDBUFFER
  2
AcDbIdBuffer
  3
ObjectDBX Classes
 90
        0
 91
        9
280
     0
281
     0
  0
CLASS
  1
SPATIAL_FILTER
  2
AcDbSpatialFilter
  3
ObjectDBX Classes
 90
        0
 91
        9
280
     0
281
     0
  0
CLASS
  1
XRECORD
  2
AcDbXrecord
  3
ObjectDBX Classes
 90
        0
 91
        1
280
     0
281
     0
  0
CLASS
  1
SORTENTSTABLE
  2
AcDbSortentsTable
  3
ObjectDBX Classes
 90
        0
 91
        9
280
     0
281
     0
  0
CLASS
  1
LAYER_INDEX
  2
AcDbLayerIndex
  3
ObjectDBX Classes
 90
        0
 91
        9
280
     0
281
     0
  0
CLASS
  1
SPATIAL_INDEX
  2
AcDbSpatialIndex
  3
AutoCAD 2000
 90
        0
 91
        9
280
     0
281
     0
  0
CLASS
  1
OBJECT_PTR
  2
CAseDLPNTableRecord
  3
ASE-LPNTableRecord
 90
        1
 91
        9
280
     0
281
     0
  0
CLASS
  1
LAYOUT
  2
AcDbLayout
  3
ObjectDBX Classes
 90
        0
 91
        1
280
     0
281
     0
  0
CLASS
  1
PLOTSETTINGS
  2
AcDbPlotSettings
  3
ObjectDBX Classes
 90
        0
 91
        9
280
     0
281
     0
  0
CLASS
  1
ACDBDICTIONARYWDFLT
  2
AcDbDictionaryWithDefault
  3
ObjectDBX Classes
 90
        0
 91
        9
280
     0
281
     0
  0
CLASS
  1
ACDBPLACEHOLDER
  2
AcDbPlaceHolder
  3
ObjectDBX Classes
 90
        0
 91
        1
280
     0
281
     0
  0
CLASS
  1
SCALE
  2
AcDbScale
  3
ObjectDBX Classes
 90
     1153
 91
        9
280
     0
281
     0
  0
CLASS
  1
MATERIAL
  2
AcDbMaterial
  3
ObjectDBX Classes
 90
     1153
 91
        9
280
     0
281
     0
  0
CLASS
  1
VISUALSTYLE
  2
AcDbVisualStyle
  3
ObjectDBX Classes
 90
     4095
 91
        9
280
     0
281
     0
  0
CLASS
  1
TABLESTYLE
  2
AcDbTableStyle
  3
ObjectDBX Classes
 90
     4095
 91
        9
280
     0
281
     0
  0
CLASS
  1
DIMASSOC
  2
AcDbDimAssoc
  3
"AcDbDimAssoc|Product Desc:     AcDim ARX App For Dimension|Company:          Autodesk, Inc.|WEB Address:      www.autodesk.com"
 90
        0
 91
        9
280
     0
281
     0
  0
CLASS
  1
CELLSTYLEMAP
  2
AcDbCellStyleMap
  3
ObjectDBX Classes
 90
     1152
 91
        9
280
     0
281
     0
  0
CLASS
  1
SUN
  2
AcDbSun
  3
SCENEOE
 90
     1153
 91
        9
280
     0
281
     0
  0
CLASS
  1
MLEADERSTYLE
  2
AcDbMLeaderStyle
  3
ACDB_MLEADERSTYLE_CLASS
 90
     4095
 91
        9
280
     0
281
     0
  0
CLASS
  1
FIELD
  2
AcDbField
  3
ObjectDBX Classes
 90
     1152
 91
        9
280
     0
281
     0
  0
CLASS
  1
FIELDLIST
  2
AcDbFieldList
  3
ObjectDBX Classes
 90
     1152
 91
        9
280
     0
281
     0
  0
ENDSEC
  0
SECTION
  2
TABLES
  0
TABLE
  2
VPORT
  5
7
330
0
100
AcDbSymbolTable
 70
     1
  0
VPORT
  5
15
330
7
100
AcDbSymbolTableRecord
100
AcDbViewportTableRecord
  2
*ACTIVE
 70
     0
 10
0.0
 20
0.0
 11
1.0
 21
1.0
 12
301.0201356709085
 22
223.401285469834
 13
0.0
 23
0.0
 14
1.0
 24
1.0
 15
0.0
 25
0.0
 16
0.0
 26
0.0
 36
1.0
 17
-91.02013567090853
 27
73.59871453016603
 37
-46.86809886248109
 40
605.8800000000005
 41
2.479940564635958
 42
50.0
 43
0.0
 44
0.0
 50
0.0
 51
0.0
 71
    16
 72
  2000
 73
     1
 74
     1
 75
     0
 76
     0
 77
     0
 78
     0
281
     0
 65
     1
110
0.0
120
0.0
130
0.0
111
1.0
121
0.0
131
0.0
112
0.0
122
1.0
132
0.0
 79
     0
146
0.0
348
26C
 60
     3
 61
     5
292
     1
282
     1
141
0.0
142
0.0
 63
   256
361
904
  0
ENDTAB
  0
TABLE
  2
LTYPE
  5
4
330
0
100
AcDbSymbolTable
 70
     4
  0
LTYPE
  5
11
330
4
100
AcDbSymbolTableRecord
100
AcDbLinetypeTableRecord
  2
ByBlock
 70
     0
  3

 72
    65
 73
     0
 40
0.0
  0
LTYPE
  5
12
330
4
100
AcDbSymbolTableRecord
100
AcDbLinetypeTableRecord
  2
ByLayer
 70
     0
  3

 72
    65
 73
     0
 40
0.0
  0
LTYPE
  5
13
330
4
100
AcDbSymbolTableRecord
100
AcDbLinetypeTableRecord
  2
Continuous
 70
     0
  3
Solid line
 72
    65
 73
     0
 40
0.0
  0
LTYPE
  5
D6C
330
4
100
AcDbSymbolTableRecord
100
AcDbLinetypeTableRecord
  2
BORDER
 70
     0
  3
Border __  __  . __  __  . __  __  . __  __  . 
 72
    65
 73
     6
 40
44.45
 49
12.7
 74
     0
 49
-6.35
 74
     0
 49
12.7
 74
     0
 49
-6.35
 74
     0
 49
0.0
 74
     0
 49
-6.35
 74
     0
  0
LTYPE
  5
1638
330
4
100
AcDbSymbolTableRecord
100
AcDbLinetypeTableRecord
  2
HIDDEN2
 70
     0
  3
Hidden (.5x) _ _ _ _ _ _ _ _ _ _ _ _ _ _ _ _ _ 
 72
    65
 73
     2
 40
4.7625
 49
3.175
 74
     4
 75
     0
340
0
 46
0.0
 50
0.0
 44
0.0
 45
0.0
 49
-1.5875
 74
     4
 75
     0
340
0
 46
0.0
 50
0.0
 44
0.0
 45
0.0
  0
LTYPE
  5
5D2D
330
4
100
AcDbSymbolTableRecord
100
AcDbLinetypeTableRecord
  2
CENTER
 70
     0
  3
 Center _____  _  _____  _  _____  _  _____  _ 
 72
    65
 73
     4
 40
50.8
 49
31.75
 74
     0
 49
-6.35
 74
     0
 49
6.35
 74
     0
 49
-6.35
 74
     0
  0
ENDTAB
  0
TABLE
  2
LAYER
  5
2
102
{ACAD_XDICTIONARY
360
2E1
102
}
330
0
100
AcDbSymbolTable
 70
     9
  0
LAYER
  5
14
330
2
100
AcDbSymbolTableRecord
100
AcDbLayerTableRecord
  2
0
 70
     0
 62
     7
  6
Continuous
370
    -3
390
1D
347
266
  0
LAYER
  5
4B
330
2
100
AcDbSymbolTableRecord
100
AcDbLayerTableRecord
  2
TEMPLATE
 70
     0
 62
     7
  6
Continuous
370
    20
390
1D
347
266
  0
LAYER
  5
4C
330
2
100
AcDbSymbolTableRecord
100
AcDbLayerTableRecord
  2
DIM
 70
     0
 62
     3
  6
Continuous
370
    13
390
1D
347
266
  0
LAYER
  5
4D
330
2
100
AcDbSymbolTableRecord
100
AcDbLayerTableRecord
  2
MODEL
 70
     0
 62
     7
  6
Continuous
370
    20
390
1D
347
266
  0
LAYER
  5
667
330
2
100
AcDbSymbolTableRecord
100
AcDbLayerTableRecord
  2
LOGO
 70
     0
 62
     7
  6
Continuous
370
    -3
390
1D
347
266
  0
LAYER
  5
D6B
330
2
100
AcDbSymbolTableRecord
100
AcDbLayerTableRecord
  2
BORDER
 70
     0
 62
     4
  6
BORDER
290
     0
370
    20
390
1D
347
266
1001
AcAecLayerStandard
1000

1000

  0
LAYER
  5
D8C
330
2
100
AcDbSymbolTableRecord
100
AcDbLayerTableRecord
  2
Defpoints
 70
     0
 62
     7
  6
Continuous
290
     0
370
    -3
390
1D
347
266
  0
LAYER
  5
1635
330
2
100
AcDbSymbolTableRecord
100
AcDbLayerTableRecord
  2
Standard
 70
     0
 62
     7
  6
Continuous
370
    -3
390
1D
347
266
  0
LAYER
  5
3445
330
2
100
AcDbSymbolTableRecord
100
AcDbLayerTableRecord
  2
Layer50
 70
     0
 62
     7
  6
Continuous
370
    -3
390
1D
347
266
  0
ENDTAB
  0
TABLE
  2
STYLE
  5
3
330
0
100
AcDbSymbolTable
 70
     2
  0
STYLE
  5
17
330
3
100
AcDbSymbolTableRecord
100
AcDbTextStyleTableRecord
  2
Standard
 70
     0
 40
0.0
 41
1.0
 50
0.0
 71
     0
 42
2.5
  3
txt
  4
BIGFONT.SHX
  0
STYLE
  5
39
330
3
100
AcDbSymbolTableRecord
100
AcDbTextStyleTableRecord
  2
ＭＳ ゴシック
 70
     0
 40
0.0
 41
1.0
 50
0.0
 71
     0
 42
2.5
  3
msgothic.ttc
  4
ＭＳ ゴシック
1001
ACAD
1000
ＭＳ ゴシック
1071
        0
  0
ENDTAB
  0
TABLE
  2
VIEW
  5
5
330
0
100
AcDbSymbolTable
 70
     0
  0
ENDTAB
  0
TABLE
  2
UCS
  5
6
330
0
100
AcDbSymbolTable
 70
     0
  0
ENDTAB
  0
TABLE
  2
APPID
  5
8
330
0
100
AcDbSymbolTable
 70
     3
  0
APPID
  5
16
330
8
100
AcDbSymbolTableRecord
100
AcDbRegAppTableRecord
  2
ACAD
 70
     0
  0
APPID
  5
7AC
330
8
100
AcDbSymbolTableRecord
100
AcDbRegAppTableRecord
  2
AcAecLayerStandard
 70
     0
  0
APPID
  5
E29
330
8
100
AcDbSymbolTableRecord
100
AcDbRegAppTableRecord
  2
ACAD_MLEADERVER
 70
     0
  0
ENDTAB
  0
TABLE
  2
DIMSTYLE
  5
9
330
0
100
AcDbSymbolTable
 70
     2
100
AcDbDimStyleTable
  0
DIMSTYLE
105
18
330
9
100
AcDbSymbolTableRecord
100
AcDbDimStyleTableRecord
  2
Standard
 70
     0
178
     0
340
17
  0
DIMSTYLE
105
57
102
{ACAD_REACTORS
330
5C10
330
5C22
330
5C31
330
5C44
330
5C9A
330
5CCA
102
}
330
9
100
AcDbSymbolTableRecord
100
AcDbDimStyleTableRecord
  2
tfrom線あり
 70
     0
  3
<>
  4
[]
 41
1.0
 42
5.0
 43
0.9999999999999999
 44
0.0
 73
     0
 74
     0
 77
     1
 78
    11
140
5.0
141
0.0
143
1.0
147
5.0
171
     1
174
     1
178
     0
179
     2
271
     0
272
     1
276
     2
284
    11
285
    11
286
    11
289
     0
340
39
341
4E
342
4E
  0
ENDTAB
  0
TABLE
  2
BLOCK_RECORD
  5
1
330
0
100
AcDbSymbolTable
 70
    12
  0
BLOCK_RECORD
  5
A
330
1
100
AcDbSymbolTableRecord
100
AcDbBlockTableRecord
  2
*MODEL_SPACE
340
20
 70
     0
280
     1
281
     0
  0
BLOCK_RECORD
  5
B
330
1
100
AcDbSymbolTableRecord
100
AcDbBlockTableRecord
  2
*PAPER_SPACE
340
21
 70
     0
280
     1
281
     0
  0
BLOCK_RECORD
  5
4E
330
1
100
AcDbSymbolTableRecord
100
AcDbBlockTableRecord
  2
_DOT
340
0
102
{BLKREFS
331
5C19
331
5C1A
331
5C2B
331
5C2C
331
5C38
331
5C39
331
5C4D
331
5C4E
331
5CA3
331
5CA4
331
5CD3
331
5CD4
102
}
 70
     0
280
     1
281
     0
  0
BLOCK_RECORD
  5
68A
330
1
100
AcDbSymbolTableRecord
100
AcDbBlockTableRecord
  2
名称未設定-1
340
0
102
{BLKREFS
331
6B5
102
}
 70
     1
280
     1
281
     0
  0
BLOCK_RECORD
  5
68D
330
1
100
AcDbSymbolTableRecord
100
AcDbBlockTableRecord
  2
block 2
340
0
102
{BLKREFS
331
68C
331
1343
102
}
 70
     0
280
     1
281
     0
  0
BLOCK_RECORD
  5
690
330
1
100
AcDbSymbolTableRecord
100
AcDbBlockTableRecord
  2
block 3
340
0
102
{BLKREFS
331
68F
102
}
 70
     0
280
     1
281
     0
  0
BLOCK_RECORD
  5
693
330
1
100
AcDbSymbolTableRecord
100
AcDbBlockTableRecord
  2
block 4
340
0
102
{BLKREFS
331
692
102
}
 70
     0
280
     1
281
     0
  0
BLOCK_RECORD
  5
6A2
330
1
100
AcDbSymbolTableRecord
100
AcDbBlockTableRecord
  2
block 5
340
0
102
{BLKREFS
331
6A1
102
}
 70
     0
280
     1
281
     0
  0
BLOCK_RECORD
  5
5C13
330
1
100
AcDbSymbolTableRecord
100
AcDbBlockTableRecord
  2
*D6
340
0
 70
     0
280
     1
281
     0
  0
BLOCK_RECORD
  5
5C25
330
1
100
AcDbSymbolTableRecord
100
AcDbBlockTableRecord
  2
*D7
340
0
 70
     0
280
     1
281
     0
  0
BLOCK_RECORD
  5
5C32
330
1
100
AcDbSymbolTableRecord
100
AcDbBlockTableRecord
  2
*D8
340
0
 70
     0
280
     1
281
     0
  0
BLOCK_RECORD
  5
5C47
330
1
100
AcDbSymbolTableRecord
100
AcDbBlockTableRecord
  2
*D9
340
0
 70
     0
280
     1
281
     0
  0
BLOCK_RECORD
  5
5C9D
330
1
100
AcDbSymbolTableRecord
100
AcDbBlockTableRecord
  2
*D10
340
0
 70
     0
280
     1
281
     0
  0
BLOCK_RECORD
  5
5CCD
330
1
100
AcDbSymbolTableRecord
100
AcDbBlockTableRecord
  2
*D11
340
0
 70
     0
280
     1
281
     0
  0
ENDTAB
  0
ENDSEC
  0
SECTION
  2
BLOCKS
  0
BLOCK
  5
D
330
A
100
AcDbEntity
  8
0
390
1D
100
AcDbBlockBegin
  2
*MODEL_SPACE
 70
     0
 10
0.0
 20
0.0
 30
0.0
  3
*MODEL_SPACE
  1
*MODEL_SPACE
  0
ENDBLK
  5
E
330
A
100
AcDbEntity
  8
0
390
1D
100
AcDbBlockEnd
  0
BLOCK
  5
F
330
B
100
AcDbEntity
 67
     1
  8
0
390
1D
100
AcDbBlockBegin
  2
*PAPER_SPACE
 70
     0
 10
0.0
 20
0.0
 30
0.0
  3
*PAPER_SPACE
  1
*PAPER_SPACE
  0
ENDBLK
  5
10
330
B
100
AcDbEntity
 67
     1
  8
0
390
1D
100
AcDbBlockEnd
  0
BLOCK
  5
38A8
330
4E
100
AcDbEntity
  8
0
390
1D
100
AcDbBlockBegin
  2
_DOT
 70
     0
 10
0.0
 20
0.0
 30
0.0
  3
_DOT
  1
_DOT
  0
POLYLINE
  5
38AA
330
4E
100
AcDbEntity
  8
0
  6
ByBlock
 62
     0
370
    -2
390
1D
100
AcDb2dPolyline
 66
     1
 10
0.0
 20
0.0
 30
0.0
 70
     1
 40
0.5
 41
0.5
  0
VERTEX
  5
38AB
330
38AA
100
AcDbEntity
  8
0
  6
ByBlock
 62
     0
370
    -2
390
1D
100
AcDbVertex
100
AcDb2dVertex
 10
-0.25
 20
0.0
 30
0.0
 42
1.0
  0
VERTEX
  5
38AC
330
38AA
100
AcDbEntity
  8
0
  6
ByBlock
 62
     0
370
    -2
390
1D
100
AcDbVertex
100
AcDb2dVertex
 10
0.25
 20
0.0
 30
0.0
 42
1.0
  0
SEQEND
  5
38AD
330
38AA
100
AcDbEntity
  8
0
390
1D
  0
LINE
  5
38AE
330
4E
100
AcDbEntity
  8
0
  6
ByBlock
 62
     0
370
    -2
390
1D
100
AcDbLine
 10
-0.5
 20
0.0
 30
0.0
 11
-1.0
 21
0.0
 31
0.0
  0
ENDBLK
  5
38AF
330
4E
100
AcDbEntity
  8
0
390
1D
100
AcDbBlockEnd
  0
BLOCK
  5
68B
330
68A
100
AcDbEntity
  8
0
100
AcDbBlockBegin
  2
名称未設定-1
 70
     0
 10
0.0
 20
0.0
 30
0.0
  3
名称未設定-1
  1
名称未設定-1
  0
INSERT
  5
68F
330
68A
100
AcDbEntity
  8
LOGO
100
AcDbBlockReference
  2
block 3
 10
0.0
 20
0.0
 30
0.0
  0
ENDBLK
  5
6B1
330
68A
100
AcDbEntity
  8
0
100
AcDbBlockEnd
  0
BLOCK
  5
68E
330
68D
100
AcDbEntity
  8
0
100
AcDbBlockBegin
  2
block 2
 70
     0
 10
0.0
 20
0.0
 30
0.0
  3
block 2
  1
block 2
  0
ENDBLK
  5
6B0
330
68D
100
AcDbEntity
  8
0
100
AcDbBlockEnd
  0
BLOCK
  5
691
330
690
100
AcDbEntity
  8
0
100
AcDbBlockBegin
  2
block 3
 70
     0
 10
0.0
 20
0.0
 30
0.0
  3
block 3
  1
block 3
  0
INSERT
  5
692
330
690
100
AcDbEntity
  8
LOGO
100
AcDbBlockReference
  2
block 4
 10
0.0
 20
0.0
 30
0.0
  0
INSERT
  5
6A1
330
690
100
AcDbEntity
  8
LOGO
100
AcDbBlockReference
  2
block 5
 10
0.0
 20
0.0
 30
0.0
  0
ENDBLK
  5
6AF
330
690
100
AcDbEntity
  8
0
100
AcDbBlockEnd
  0
BLOCK
  5
694
330
693
100
AcDbEntity
  8
0
100
AcDbBlockBegin
  2
block 4
 70
     0
 10
0.0
 20
0.0
 30
0.0
  3
block 4
  1
block 4
  0
POLYLINE
  5
695
330
693
100
AcDbEntity
  8
LOGO
370
     0
100
AcDb2dPolyline
 66
     1
 10
0.0
 20
0.0
 30
0.0
  0
VERTEX
  5
696
330
695
100
AcDbEntity
  8
LOGO
370
     0
100
AcDbVertex
100
AcDb2dVertex
 10
83.79545727667795
 20
167.6444858234922
 30
0.0
  0
VERTEX
  5
697
330
695
100
AcDbEntity
  8
LOGO
370
     0
100
AcDbVertex
100
AcDb2dVertex
 10
83.79545727667795
 20
159.7968976406313
 30
0.0
  0
VERTEX
  5
698
330
695
100
AcDbEntity
  8
LOGO
370
     0
100
AcDbVertex
100
AcDb2dVertex
 10
71.3631329975216
 20
159.7968976406313
 30
0.0
  0
VERTEX
  5
699
330
695
100
AcDbEntity
  8
LOGO
370
     0
100
AcDbVertex
100
AcDb2dVertex
 10
71.3631329975216
 20
127.8027915271048
 30
0.0
  0
VERTEX
  5
69A
330
695
100
AcDbEntity
  8
LOGO
370
     0
100
AcDbVertex
100
AcDb2dVertex
 10
60.43011526263018
 20
127.8027915271048
 30
0.0
  0
VERTEX
  5
69B
330
695
100
AcDbEntity
  8
LOGO
370
     0
100
AcDbVertex
100
AcDb2dVertex
 10
60.43011526263018
 20
159.7968976406313
 30
0.0
  0
VERTEX
  5
69C
330
695
100
AcDbEntity
  8
LOGO
370
     0
100
AcDbVertex
100
AcDb2dVertex
 10
48.21793273020759
 20
159.7968976406313
 30
0.0
  0
VERTEX
  5
69D
330
695
100
AcDbEntity
  8
LOGO
370
     0
100
AcDbVertex
100
AcDb2dVertex
 10
48.21793273020759
 20
167.6444858234922
 30
0.0
  0
VERTEX
  5
69E
330
695
100
AcDbEntity
  8
LOGO
370
     0
100
AcDbVertex
100
AcDb2dVertex
 10
83.79545727667795
 20
167.6444858234922
 30
0.0
  0
SEQEND
  5
69F
330
695
100
AcDbEntity
  8
LOGO
370
     0
  0
HATCH
  5
6A0
330
693
100
AcDbEntity
  8
LOGO
 62
   250
420
  2234388
100
AcDbHatch
 10
0.0
 20
0.0
 30
0.0
210
0.0
220
0.0
230
1.0
  2
SOLID
 70
     1
 71
     0
 91
        1
 92
        1
 93
        8
 72
     1
 10
83.79545727667795
 20
167.6444858234922
 11
83.79545727667795
 21
159.7968976406313
 72
     1
 10
83.79545727667795
 20
159.7968976406313
 11
71.3631329975216
 21
159.7968976406313
 72
     1
 10
71.3631329975216
 20
159.7968976406313
 11
71.3631329975216
 21
127.8027915271048
 72
     1
 10
71.3631329975216
 20
127.8027915271048
 11
60.43011526263018
 21
127.8027915271048
 72
     1
 10
60.43011526263018
 20
127.8027915271048
 11
60.43011526263018
 21
159.7968976406313
 72
     1
 10
60.43011526263018
 20
159.7968976406313
 11
48.21793273020759
 21
159.7968976406313
 72
     1
 10
48.21793273020759
 20
159.7968976406313
 11
48.21793273020759
 21
167.6444858234922
 72
     1
 10
48.21793273020759
 20
167.6444858234922
 11
83.79545727667795
 21
167.6444858234922
 97
        0
 75
     2
 76
     1
 98
        0
  0
ENDBLK
  5
6AE
330
693
100
AcDbEntity
  8
0
100
AcDbBlockEnd
  0
BLOCK
  5
6A3
330
6A2
100
AcDbEntity
  8
0
100
AcDbBlockBegin
  2
block 5
 70
     0
 10
0.0
 20
0.0
 30
0.0
  3
block 5
  1
block 5
  0
SPLINE
  5
6A4
330
6A2
100
AcDbEntity
  8
LOGO
370
     0
100
AcDbSpline
210
0.0
220
0.0
230
1.0
 70
    11
 71
     3
 72
    56
 73
    52
 74
     0
 42
0.000000001
 43
0.0000000001
 40
0.0
 40
0.0
 40
0.0
 40
0.0
 40
1.0
 40
1.0
 40
1.0
 40
2.0
 40
2.0
 40
2.0
 40
3.0
 40
3.0
 40
3.0
 40
4.0
 40
4.0
 40
4.0
 40
5.0
 40
5.0
 40
5.0
 40
6.0
 40
6.0
 40
6.0
 40
7.0
 40
7.0
 40
7.0
 40
8.0
 40
8.0
 40
8.0
 40
9.0
 40
9.0
 40
9.0
 40
10.0
 40
10.0
 40
10.0
 40
11.0
 40
11.0
 40
11.0
 40
12.0
 40
12.0
 40
12.0
 40
13.0
 40
13.0
 40
13.0
 40
14.0
 40
14.0
 40
14.0
 40
15.0
 40
15.0
 40
15.0
 40
16.0
 40
16.0
 40
16.0
 40
17.0
 40
17.0
 40
17.0
 40
17.0
 10
100.4504378777679
 20
166.69157178364
 30
0.0
 10
101.9848844191641
 20
167.1313385124438
 30
0.0
 10
103.9637485713373
 20
166.7649523658846
 30
0.0
 10
103.9637485713373
 20
166.7649523658846
 30
0.0
 10
103.9637485713373
 20
166.7649523658846
 30
0.0
 10
103.0132460999156
 20
163.911205638077
 30
0.0
 10
103.0132460999156
 20
163.911205638077
 30
0.0
 10
103.0132460999156
 20
163.911205638077
 30
0.0
 10
101.0674548862189
 20
164.3601018759394
 30
0.0
 10
99.57090442016032
 20
163.1805004036133
 30
0.0
 10
98.40508333886608
 20
162.258247733807
 30
0.0
 10
97.65301849830304
 20
159.804132345923
 30
0.0
 10
97.3598406791005
 20
158.8699940888517
 30
0.0
 10
97.3598406791005
 20
158.8699940888517
 30
0.0
 10
96.07137411762282
 20
154.9119212747295
 30
0.0
 10
96.07137411762282
 20
154.9119212747295
 30
0.0
 10
96.07137411762282
 20
154.9119212747295
 30
0.0
 10
100.3012651448482
 20
154.9119212747295
 30
0.0
 10
100.3012651448482
 20
154.9119212747295
 30
0.0
 10
100.3012651448482
 20
154.9119212747295
 30
0.0
 10
99.64152892419852
 20
152.4199098115079
 30
0.0
 10
99.64152892419852
 20
152.4199098115079
 30
0.0
 10
99.64152892419852
 20
152.4199098115079
 30
0.0
 10
95.38097652692731
 20
152.4199098115079
 30
0.0
 10
95.38097652692731
 20
152.4199098115079
 30
0.0
 10
95.38097652692731
 20
152.4199098115079
 30
0.0
 10
87.75353009080013
 20
127.8027915271048
 30
0.0
 10
87.75353009080013
 20
127.8027915271048
 30
0.0
 10
87.75353009080013
 20
127.8027915271048
 30
0.0
 10
85.36538832498108
 20
127.8027915271048
 30
0.0
 10
85.36538832498108
 20
127.8027915271048
 30
0.0
 10
85.36538832498108
 20
127.8027915271048
 30
0.0
 10
93.00006946639998
 20
152.4199098115079
 30
0.0
 10
93.00006946639998
 20
152.4199098115079
 30
0.0
 10
93.00006946639998
 20
152.4199098115079
 30
0.0
 10
89.85297266450198
 20
152.4199098115079
 30
0.0
 10
89.85297266450198
 20
152.4199098115079
 30
0.0
 10
89.85297266450198
 20
152.4199098115079
 30
0.0
 10
90.51270888515164
 20
154.9119212747295
 30
0.0
 10
90.51270888515164
 20
154.9119212747295
 30
0.0
 10
90.51270888515164
 20
154.9119212747295
 30
0.0
 10
93.6904670570955
 20
154.9119212747295
 30
0.0
 10
93.6904670570955
 20
154.9119212747295
 30
0.0
 10
93.6904670570955
 20
154.9119212747295
 30
0.0
 10
94.81598049462158
 20
158.3616699146644
 30
0.0
 10
94.81598049462158
 20
158.3616699146644
 30
0.0
 10
95.7237637538445
 20
161.2605474231013
 30
0.0
 10
96.4968436907311
 20
162.8139420021662
 30
0.0
 10
97.15657991138076
 20
163.9844139654337
 30
0.0
 10
97.81183750494507
 20
165.1523021053827
 30
0.0
 10
99.1047826935081
 20
166.3084769129547
 30
0.0
 10
100.4504378777679
 20
166.69157178364
 30
0.0
  0
HATCH
  5
6A5
330
6A2
100
AcDbEntity
  8
LOGO
 62
   250
420
  2234388
100
AcDbHatch
 10
0.0
 20
0.0
 30
0.0
210
0.0
220
0.0
230
1.0
  2
SOLID
 70
     1
 71
     0
 91
        1
 92
        1
 93
        1
 72
     4
 94
        3
 73
     0
 74
     1
 95
       56
 96
       52
 40
0.0
 40
0.0
 40
0.0
 40
0.0
 40
1.0
 40
1.0
 40
1.0
 40
2.0
 40
2.0
 40
2.0
 40
3.0
 40
3.0
 40
3.0
 40
4.0
 40
4.0
 40
4.0
 40
5.0
 40
5.0
 40
5.0
 40
6.0
 40
6.0
 40
6.0
 40
7.0
 40
7.0
 40
7.0
 40
8.0
 40
8.0
 40
8.0
 40
9.0
 40
9.0
 40
9.0
 40
10.0
 40
10.0
 40
10.0
 40
11.0
 40
11.0
 40
11.0
 40
12.0
 40
12.0
 40
12.0
 40
13.0
 40
13.0
 40
13.0
 40
14.0
 40
14.0
 40
14.0
 40
15.0
 40
15.0
 40
15.0
 40
16.0
 40
16.0
 40
16.0
 40
17.0
 40
17.0
 40
17.0
 40
17.0
 10
100.4504378777679
 20
166.69157178364
 10
101.9848844191641
 20
167.1313385124438
 10
103.9637485713373
 20
166.7649523658846
 10
103.9637485713373
 20
166.7649523658846
 10
103.9637485713373
 20
166.7649523658846
 10
103.0132460999156
 20
163.911205638077
 10
103.0132460999156
 20
163.911205638077
 10
103.0132460999156
 20
163.911205638077
 10
101.0674548862189
 20
164.3601018759394
 10
99.57090442016032
 20
163.1805004036133
 10
98.40508333886608
 20
162.258247733807
 10
97.65301849830304
 20
159.804132345923
 10
97.3598406791005
 20
158.8699940888517
 10
97.3598406791005
 20
158.8699940888517
 10
96.07137411762282
 20
154.9119212747295
 10
96.07137411762282
 20
154.9119212747295
 10
96.07137411762282
 20
154.9119212747295
 10
100.3012651448482
 20
154.9119212747295
 10
100.3012651448482
 20
154.9119212747295
 10
100.3012651448482
 20
154.9119212747295
 10
99.64152892419852
 20
152.4199098115079
 10
99.64152892419852
 20
152.4199098115079
 10
99.64152892419852
 20
152.4199098115079
 10
95.38097652692731
 20
152.4199098115079
 10
95.38097652692731
 20
152.4199098115079
 10
95.38097652692731
 20
152.4199098115079
 10
87.75353009080013
 20
127.8027915271048
 10
87.75353009080013
 20
127.8027915271048
 10
87.75353009080013
 20
127.8027915271048
 10
85.36538832498108
 20
127.8027915271048
 10
85.36538832498108
 20
127.8027915271048
 10
85.36538832498108
 20
127.8027915271048
 10
93.00006946639998
 20
152.4199098115079
 10
93.00006946639998
 20
152.4199098115079
 10
93.00006946639998
 20
152.4199098115079
 10
89.85297266450198
 20
152.4199098115079
 10
89.85297266450198
 20
152.4199098115079
 10
89.85297266450198
 20
152.4199098115079
 10
90.51270888515164
 20
154.9119212747295
 10
90.51270888515164
 20
154.9119212747295
 10
90.51270888515164
 20
154.9119212747295
 10
93.6904670570955
 20
154.9119212747295
 10
93.6904670570955
 20
154.9119212747295
 10
93.6904670570955
 20
154.9119212747295
 10
94.81598049462158
 20
158.3616699146644
 10
94.81598049462158
 20
158.3616699146644
 10
95.7237637538445
 20
161.2605474231013
 10
96.4968436907311
 20
162.8139420021662
 10
97.15657991138076
 20
163.9844139654337
 10
97.81183750494507
 20
165.1523021053827
 10
99.1047826935081
 20
166.3084769129547
 10
100.4504378777679
 20
166.69157178364
 97
        0
 75
     2
 76
     1
 98
        0
  0
SPLINE
  5
6A6
330
6A2
100
AcDbEntity
  8
LOGO
370
     0
100
AcDbSpline
210
0.0
220
0.0
230
1.0
 70
    11
 71
     3
 72
    38
 73
    34
 74
     0
 42
0.000000001
 43
0.0000000001
 40
0.0
 40
0.0
 40
0.0
 40
0.0
 40
1.0
 40
1.0
 40
1.0
 40
2.0
 40
2.0
 40
2.0
 40
3.0
 40
3.0
 40
3.0
 40
4.0
 40
4.0
 40
4.0
 40
5.0
 40
5.0
 40
5.0
 40
6.0
 40
6.0
 40
6.0
 40
7.0
 40
7.0
 40
7.0
 40
8.0
 40
8.0
 40
8.0
 40
9.0
 40
9.0
 40
9.0
 40
10.0
 40
10.0
 40
10.0
 40
11.0
 40
11.0
 40
11.0
 40
11.0
 10
126.377554584636
 20
154.8151140277308
 30
0.0
 10
126.377554584636
 20
154.8151140277308
 30
0.0
 10
128.8311532078563
 20
154.8151140277308
 30
0.0
 10
128.8311532078563
 20
154.8151140277308
 30
0.0
 10
128.8311532078563
 20
154.8151140277308
 30
0.0
 10
127.7345785914971
 20
151.3062819612468
 30
0.0
 10
127.7345785914971
 20
151.3062819612468
 30
0.0
 10
128.571392836906
 20
152.2922689395754
 30
0.0
 10
129.8860421413442
 20
153.604506675583
 30
0.0
 10
131.0163787157314
 20
154.2664822097754
 30
0.0
 10
132.7044766171327
 20
155.2500576196734
 30
0.0
 10
133.6642808525008
 20
155.3847609420097
 30
0.0
 10
134.7284715499351
 20
155.3565111403944
 30
0.0
 10
134.7284715499351
 20
155.3565111403944
 30
0.0
 10
133.6877075172549
 20
152.0345756272799
 30
0.0
 10
133.6877075172549
 20
152.0345756272799
 30
0.0
 10
133.011434827367
 20
152.3184516825359
 30
0.0
 10
130.930940291334
 20
151.7768823149844
 30
0.0
 10
129.739280976855
 20
150.9162968950455
 30
0.0
 10
128.66613302525
 20
150.1454562717016
 30
0.0
 10
127.9192358313239
 20
149.4857200510519
 30
0.0
 10
127.0393578639405
 20
147.8282835196966
 30
0.0
 10
126.164647543194
 20
146.1699857139017
 30
0.0
 10
125.4742499524985
 20
143.5262176944419
 30
0.0
 10
124.2822461282437
 20
139.6959580071401
 30
0.0
 10
124.2822461282437
 20
139.6959580071401
 30
0.0
 10
120.5753209406769
 20
127.8027915271048
 30
0.0
 10
120.5753209406769
 20
127.8027915271048
 30
0.0
 10
120.5753209406769
 20
127.8027915271048
 30
0.0
 10
118.1964809388044
 20
127.8027915271048
 30
0.0
 10
118.1964809388044
 20
127.8027915271048
 30
0.0
 10
118.1964809388044
 20
127.8027915271048
 30
0.0
 10
126.377554584636
 20
154.8151140277308
 30
0.0
 10
126.377554584636
 20
154.8151140277308
 30
0.0
  0
HATCH
  5
6A7
330
6A2
100
AcDbEntity
  8
LOGO
 62
   250
420
  2234388
100
AcDbHatch
 10
0.0
 20
0.0
 30
0.0
210
0.0
220
0.0
230
1.0
  2
SOLID
 70
     1
 71
     0
 91
        1
 92
        1
 93
        1
 72
     4
 94
        3
 73
     0
 74
     1
 95
       38
 96
       34
 40
0.0
 40
0.0
 40
0.0
 40
0.0
 40
1.0
 40
1.0
 40
1.0
 40
2.0
 40
2.0
 40
2.0
 40
3.0
 40
3.0
 40
3.0
 40
4.0
 40
4.0
 40
4.0
 40
5.0
 40
5.0
 40
5.0
 40
6.0
 40
6.0
 40
6.0
 40
7.0
 40
7.0
 40
7.0
 40
8.0
 40
8.0
 40
8.0
 40
9.0
 40
9.0
 40
9.0
 40
10.0
 40
10.0
 40
10.0
 40
11.0
 40
11.0
 40
11.0
 40
11.0
 10
126.377554584636
 20
154.8151140277308
 10
126.377554584636
 20
154.8151140277308
 10
128.8311532078563
 20
154.8151140277308
 10
128.8311532078563
 20
154.8151140277308
 10
128.8311532078563
 20
154.8151140277308
 10
127.7345785914971
 20
151.3062819612468
 10
127.7345785914971
 20
151.3062819612468
 10
128.571392836906
 20
152.2922689395754
 10
129.8860421413442
 20
153.604506675583
 10
131.0163787157314
 20
154.2664822097754
 10
132.7044766171327
 20
155.2500576196734
 10
133.6642808525008
 20
155.3847609420097
 10
134.7284715499351
 20
155.3565111403944
 10
134.7284715499351
 20
155.3565111403944
 10
133.6877075172549
 20
152.0345756272799
 10
133.6877075172549
 20
152.0345756272799
 10
133.011434827367
 20
152.3184516825359
 10
130.930940291334
 20
151.7768823149844
 10
129.739280976855
 20
150.9162968950455
 10
128.66613302525
 20
150.1454562717016
 10
127.9192358313239
 20
149.4857200510519
 10
127.0393578639405
 20
147.8282835196966
 10
126.164647543194
 20
146.1699857139017
 10
125.4742499524985
 20
143.5262176944419
 10
124.2822461282437
 20
139.6959580071401
 10
124.2822461282437
 20
139.6959580071401
 10
120.5753209406769
 20
127.8027915271048
 10
120.5753209406769
 20
127.8027915271048
 10
120.5753209406769
 20
127.8027915271048
 10
118.1964809388044
 20
127.8027915271048
 10
118.1964809388044
 20
127.8027915271048
 10
118.1964809388044
 20
127.8027915271048
 10
126.377554584636
 20
154.8151140277308
 10
126.377554584636
 20
154.8151140277308
 97
        0
 75
     2
 76
     1
 98
        0
  0
SPLINE
  5
6A8
330
6A2
100
AcDbEntity
  8
LOGO
370
     0
100
AcDbSpline
210
0.0
220
0.0
230
1.0
 70
    11
 71
     3
 72
   104
 73
   100
 74
     0
 42
0.000000001
 43
0.0000000001
 40
0.0
 40
0.0
 40
0.0
 40
0.0
 40
1.0
 40
1.0
 40
1.0
 40
2.0
 40
2.0
 40
2.0
 40
3.0
 40
3.0
 40
3.0
 40
4.0
 40
4.0
 40
4.0
 40
5.0
 40
5.0
 40
5.0
 40
6.0
 40
6.0
 40
6.0
 40
7.0
 40
7.0
 40
7.0
 40
8.0
 40
8.0
 40
8.0
 40
9.0
 40
9.0
 40
9.0
 40
10.0
 40
10.0
 40
10.0
 40
11.0
 40
11.0
 40
11.0
 40
12.0
 40
12.0
 40
12.0
 40
13.0
 40
13.0
 40
13.0
 40
14.0
 40
14.0
 40
14.0
 40
15.0
 40
15.0
 40
15.0
 40
16.0
 40
16.0
 40
16.0
 40
17.0
 40
17.0
 40
17.0
 40
18.0
 40
18.0
 40
18.0
 40
19.0
 40
19.0
 40
19.0
 40
20.0
 40
20.0
 40
20.0
 40
21.0
 40
21.0
 40
21.0
 40
22.0
 40
22.0
 40
22.0
 40
23.0
 40
23.0
 40
23.0
 40
24.0
 40
24.0
 40
24.0
 40
25.0
 40
25.0
 40
25.0
 40
26.0
 40
26.0
 40
26.0
 40
27.0
 40
27.0
 40
27.0
 40
28.0
 40
28.0
 40
28.0
 40
29.0
 40
29.0
 40
29.0
 40
30.0
 40
30.0
 40
30.0
 40
31.0
 40
31.0
 40
31.0
 40
32.0
 40
32.0
 40
32.0
 40
33.0
 40
33.0
 40
33.0
 40
33.0
 10
139.8926730891197
 20
154.8294111834263
 30
0.0
 10
139.8926730891197
 20
154.8294111834263
 30
0.0
 10
142.0344903652445
 20
154.8294111834263
 30
0.0
 10
142.0344903652445
 20
154.8294111834263
 30
0.0
 10
142.0344903652445
 20
154.8294111834263
 30
0.0
 10
140.9516961399171
 20
151.3157559800812
 30
0.0
 10
140.9516961399171
 20
151.3157559800812
 30
0.0
 10
141.8928968473923
 20
152.7887075264977
 30
0.0
 10
142.7341897198865
 20
153.4484437471474
 30
0.0
 10
143.8552245303272
 20
154.2926649527359
 30
0.0
 10
144.9803934580775
 20
155.1296514530327
 30
0.0
 10
146.3139908001845
 20
155.3044901642492
 30
0.0
 10
147.241066606852
 20
155.3044901642492
 30
0.0
 10
148.3855280820469
 20
155.3044901642492
 30
0.0
 10
149.4969166187653
 20
155.0752189084569
 30
0.0
 10
150.0784491203092
 20
153.8172414621372
 30
0.0
 10
150.5228667310863
 20
152.833838307127
 30
0.0
 10
150.5414702589793
 20
152.7201500811143
 30
0.0
 10
150.4140016419347
 20
150.7765981809602
 30
0.0
 10
151.5818897818837
 20
152.7699317437168
 30
0.0
 10
152.4424752018226
 20
153.6256940267945
 30
0.0
 10
153.9038856707499
 20
154.4507949398263
 30
0.0
 10
155.4455669174378
 20
155.3044901642492
 30
0.0
 10
156.339225275853
 20
155.3659851592288
 30
0.0
 10
157.3748216618963
 20
155.2147453676543
 30
0.0
 10
158.911679771723
 20
154.9877134254046
 30
0.0
 10
159.8859534176746
 20
154.4390816074493
 30
0.0
 10
160.3965169054045
 20
152.7816450760939
 30
0.0
 10
160.9070803931344
 20
151.1219692311958
 30
0.0
 10
160.6328506116007
 20
150.2303779314354
 30
0.0
 10
159.9992971339115
 20
147.597634224801
 30
0.0
 10
159.7105979417943
 20
146.4014962832367
 30
0.0
 10
159.2947746424084
 20
144.9400858143094
 30
0.0
 10
158.7463150793409
 20
143.2092687007094
 30
0.0
 10
158.7463150793409
 20
143.2092687007094
 30
0.0
 10
153.9038856707499
 20
127.8027915271048
 30
0.0
 10
153.9038856707499
 20
127.8027915271048
 30
0.0
 10
153.9038856707499
 20
127.8027915271048
 30
0.0
 10
151.3882752878863
 20
127.8027915271048
 30
0.0
 10
151.3882752878863
 20
127.8027915271048
 30
0.0
 10
151.3882752878863
 20
127.8027915271048
 30
0.0
 10
155.6250565106276
 20
141.2751908193897
 30
0.0
 10
155.6250565106276
 20
141.2751908193897
 30
0.0
 10
156.5094131050963
 20
144.0936252951782
 30
0.0
 10
157.109893644309
 20
146.1506931664571
 30
0.0
 10
157.4220195011804
 20
147.4415712963654
 30
0.0
 10
157.8095929989511
 20
149.0530157726519
 30
0.0
 10
157.9656559273867
 20
149.5826995529385
 30
0.0
 10
157.7816877071116
 20
150.7529992613181
 30
0.0
 10
157.6111553680925
 20
151.8430281919372
 30
0.0
 10
157.0582171779396
 20
152.5547853887321
 30
0.0
 10
156.1170164704645
 20
152.5547853887321
 30
0.0
 10
155.1096698860365
 20
152.5547853887321
 30
0.0
 10
154.2962823053817
 20
152.4412694176073
 30
0.0
 10
153.156643967048
 20
151.2945686288697
 30
0.0
 10
152.0170056287143
 20
150.1476955852443
 30
0.0
 10
151.076149431015
 20
148.7930831468137
 30
0.0
 10
150.3337308641742
 20
147.2290087646991
 30
0.0
 10
149.5957909244188
 20
145.6683794803425
 30
0.0
 10
148.8530278478023
 20
143.6822806228776
 30
0.0
 10
148.0964843801539
 20
141.2751908193897
 30
0.0
 10
148.0964843801539
 20
141.2751908193897
 30
0.0
 10
143.8552245303272
 20
127.8027915271048
 30
0.0
 10
143.8552245303272
 20
127.8027915271048
 30
0.0
 10
143.8552245303272
 20
127.8027915271048
 30
0.0
 10
141.486030802177
 20
127.8027915271048
 30
0.0
 10
141.486030802177
 20
127.8027915271048
 30
0.0
 10
141.486030802177
 20
127.8027915271048
 30
0.0
 10
146.3329388378533
 20
143.2092687007094
 30
0.0
 10
146.3329388378533
 20
143.2092687007094
 30
0.0
 10
146.8483254624444
 20
144.8408669988801
 30
0.0
 10
147.2314203331297
 20
146.1837661049335
 30
0.0
 10
147.4867020769946
 20
147.224185627838
 30
0.0
 10
147.9169947869641
 20
149.0197705792876
 30
0.0
 10
148.0306830129768
 20
150.2400242051577
 30
0.0
 10
147.709255392159
 20
151.3157559800812
 30
0.0
 10
147.3874832615654
 20
152.3916600098926
 30
0.0
 10
146.8245542879144
 20
152.6683013598569
 30
0.0
 10
145.8840425999909
 20
152.6683013598569
 30
0.0
 10
145.0989048209514
 20
152.6683013598569
 30
0.0
 10
144.3282364524954
 20
152.3275811915945
 30
0.0
 10
143.4531816219731
 20
151.6538923250251
 30
0.0
 10
142.34627171234
 20
150.8074318058939
 30
0.0
 10
141.901854101563
 20
150.1097995099067
 30
0.0
 10
141.3578731655808
 20
149.289521733736
 30
0.0
 10
140.6299240093235
 20
148.192602607601
 30
0.0
 10
140.2850697237515
 20
147.455696197173
 30
0.0
 10
139.6652966370942
 20
145.8385673095858
 30
0.0
 10
139.0506911970739
 20
144.2214384219986
 30
0.0
 10
138.463991048893
 20
142.3252566160164
 30
0.0
 10
138.0571250036777
 20
141.0154304484394
 30
0.0
 10
138.0571250036777
 20
141.0154304484394
 30
0.0
 10
133.9009590684727
 20
127.8027915271048
 30
0.0
 10
133.9009590684727
 20
127.8027915271048
 30
0.0
 10
133.9009590684727
 20
127.8027915271048
 30
0.0
 10
131.4180771143097
 20
127.8027915271048
 30
0.0
 10
131.4180771143097
 20
127.8027915271048
 30
0.0
 10
131.4180771143097
 20
127.8027915271048
 30
0.0
 10
139.8926730891197
 20
154.8294111834263
 30
0.0
 10
139.8926730891197
 20
154.8294111834263
 30
0.0
  0
HATCH
  5
6A9
330
6A2
100
AcDbEntity
  8
LOGO
 62
   250
420
  2234388
100
AcDbHatch
 10
0.0
 20
0.0
 30
0.0
210
0.0
220
0.0
230
1.0
  2
SOLID
 70
     1
 71
     0
 91
        1
 92
        1
 93
        1
 72
     4
 94
        3
 73
     0
 74
     1
 95
      104
 96
      100
 40
0.0
 40
0.0
 40
0.0
 40
0.0
 40
1.0
 40
1.0
 40
1.0
 40
2.0
 40
2.0
 40
2.0
 40
3.0
 40
3.0
 40
3.0
 40
4.0
 40
4.0
 40
4.0
 40
5.0
 40
5.0
 40
5.0
 40
6.0
 40
6.0
 40
6.0
 40
7.0
 40
7.0
 40
7.0
 40
8.0
 40
8.0
 40
8.0
 40
9.0
 40
9.0
 40
9.0
 40
10.0
 40
10.0
 40
10.0
 40
11.0
 40
11.0
 40
11.0
 40
12.0
 40
12.0
 40
12.0
 40
13.0
 40
13.0
 40
13.0
 40
14.0
 40
14.0
 40
14.0
 40
15.0
 40
15.0
 40
15.0
 40
16.0
 40
16.0
 40
16.0
 40
17.0
 40
17.0
 40
17.0
 40
18.0
 40
18.0
 40
18.0
 40
19.0
 40
19.0
 40
19.0
 40
20.0
 40
20.0
 40
20.0
 40
21.0
 40
21.0
 40
21.0
 40
22.0
 40
22.0
 40
22.0
 40
23.0
 40
23.0
 40
23.0
 40
24.0
 40
24.0
 40
24.0
 40
25.0
 40
25.0
 40
25.0
 40
26.0
 40
26.0
 40
26.0
 40
27.0
 40
27.0
 40
27.0
 40
28.0
 40
28.0
 40
28.0
 40
29.0
 40
29.0
 40
29.0
 40
30.0
 40
30.0
 40
30.0
 40
31.0
 40
31.0
 40
31.0
 40
32.0
 40
32.0
 40
32.0
 40
33.0
 40
33.0
 40
33.0
 40
33.0
 10
139.8926730891197
 20
154.8294111834263
 10
139.8926730891197
 20
154.8294111834263
 10
142.0344903652445
 20
154.8294111834263
 10
142.0344903652445
 20
154.8294111834263
 10
142.0344903652445
 20
154.8294111834263
 10
140.9516961399171
 20
151.3157559800812
 10
140.9516961399171
 20
151.3157559800812
 10
141.8928968473923
 20
152.7887075264977
 10
142.7341897198865
 20
153.4484437471474
 10
143.8552245303272
 20
154.2926649527359
 10
144.9803934580775
 20
155.1296514530327
 10
146.3139908001845
 20
155.3044901642492
 10
147.241066606852
 20
155.3044901642492
 10
148.3855280820469
 20
155.3044901642492
 10
149.4969166187653
 20
155.0752189084569
 10
150.0784491203092
 20
153.8172414621372
 10
150.5228667310863
 20
152.833838307127
 10
150.5414702589793
 20
152.7201500811143
 10
150.4140016419347
 20
150.7765981809602
 10
151.5818897818837
 20
152.7699317437168
 10
152.4424752018226
 20
153.6256940267945
 10
153.9038856707499
 20
154.4507949398263
 10
155.4455669174378
 20
155.3044901642492
 10
156.339225275853
 20
155.3659851592288
 10
157.3748216618963
 20
155.2147453676543
 10
158.911679771723
 20
154.9877134254046
 10
159.8859534176746
 20
154.4390816074493
 10
160.3965169054045
 20
152.7816450760939
 10
160.9070803931344
 20
151.1219692311958
 10
160.6328506116007
 20
150.2303779314354
 10
159.9992971339115
 20
147.597634224801
 10
159.7105979417943
 20
146.4014962832367
 10
159.2947746424084
 20
144.9400858143094
 10
158.7463150793409
 20
143.2092687007094
 10
158.7463150793409
 20
143.2092687007094
 10
153.9038856707499
 20
127.8027915271048
 10
153.9038856707499
 20
127.8027915271048
 10
153.9038856707499
 20
127.8027915271048
 10
151.3882752878863
 20
127.8027915271048
 10
151.3882752878863
 20
127.8027915271048
 10
151.3882752878863
 20
127.8027915271048
 10
155.6250565106276
 20
141.2751908193897
 10
155.6250565106276
 20
141.2751908193897
 10
156.5094131050963
 20
144.0936252951782
 10
157.109893644309
 20
146.1506931664571
 10
157.4220195011804
 20
147.4415712963654
 10
157.8095929989511
 20
149.0530157726519
 10
157.9656559273867
 20
149.5826995529385
 10
157.7816877071116
 20
150.7529992613181
 10
157.6111553680925
 20
151.8430281919372
 10
157.0582171779396
 20
152.5547853887321
 10
156.1170164704645
 20
152.5547853887321
 10
155.1096698860365
 20
152.5547853887321
 10
154.2962823053817
 20
152.4412694176073
 10
153.156643967048
 20
151.2945686288697
 10
152.0170056287143
 20
150.1476955852443
 10
151.076149431015
 20
148.7930831468137
 10
150.3337308641742
 20
147.2290087646991
 10
149.5957909244188
 20
145.6683794803425
 10
148.8530278478023
 20
143.6822806228776
 10
148.0964843801539
 20
141.2751908193897
 10
148.0964843801539
 20
141.2751908193897
 10
143.8552245303272
 20
127.8027915271048
 10
143.8552245303272
 20
127.8027915271048
 10
143.8552245303272
 20
127.8027915271048
 10
141.486030802177
 20
127.8027915271048
 10
141.486030802177
 20
127.8027915271048
 10
141.486030802177
 20
127.8027915271048
 10
146.3329388378533
 20
143.2092687007094
 10
146.3329388378533
 20
143.2092687007094
 10
146.8483254624444
 20
144.8408669988801
 10
147.2314203331297
 20
146.1837661049335
 10
147.4867020769946
 20
147.224185627838
 10
147.9169947869641
 20
149.0197705792876
 10
148.0306830129768
 20
150.2400242051577
 10
147.709255392159
 20
151.3157559800812
 10
147.3874832615654
 20
152.3916600098926
 10
146.8245542879144
 20
152.6683013598569
 10
145.8840425999909
 20
152.6683013598569
 10
145.0989048209514
 20
152.6683013598569
 10
144.3282364524954
 20
152.3275811915945
 10
143.4531816219731
 20
151.6538923250251
 10
142.34627171234
 20
150.8074318058939
 10
141.901854101563
 20
150.1097995099067
 10
141.3578731655808
 20
149.289521733736
 10
140.6299240093235
 20
148.192602607601
 10
140.2850697237515
 20
147.455696197173
 10
139.6652966370942
 20
145.8385673095858
 10
139.0506911970739
 20
144.2214384219986
 10
138.463991048893
 20
142.3252566160164
 10
138.0571250036777
 20
141.0154304484394
 10
138.0571250036777
 20
141.0154304484394
 10
133.9009590684727
 20
127.8027915271048
 10
133.9009590684727
 20
127.8027915271048
 10
133.9009590684727
 20
127.8027915271048
 10
131.4180771143097
 20
127.8027915271048
 10
131.4180771143097
 20
127.8027915271048
 10
131.4180771143097
 20
127.8027915271048
 10
139.8926730891197
 20
154.8294111834263
 10
139.8926730891197
 20
154.8294111834263
 97
        0
 75
     2
 76
     1
 98
        0
  0
SPLINE
  5
6AA
330
6A2
100
AcDbEntity
  8
LOGO
370
     0
100
AcDbSpline
210
0.0
220
0.0
230
1.0
 70
    11
 71
     3
 72
    29
 73
    25
 74
     0
 42
0.000000001
 43
0.0000000001
 40
0.0
 40
0.0
 40
0.0
 40
0.0
 40
1.0
 40
1.0
 40
1.0
 40
2.0
 40
2.0
 40
2.0
 40
3.0
 40
3.0
 40
3.0
 40
4.0
 40
4.0
 40
4.0
 40
5.0
 40
5.0
 40
5.0
 40
6.0
 40
6.0
 40
6.0
 40
7.0
 40
7.0
 40
7.0
 40
8.0
 40
8.0
 40
8.0
 40
8.0
 10
101.6420971922469
 20
132.8388354296931
 30
0.0
 10
101.630039350094
 20
134.7164137077823
 30
0.0
 10
102.2236296937908
 20
138.0598810818841
 30
0.0
 10
103.7487744712405
 20
142.5378191476827
 30
0.0
 10
105.819967243327
 20
148.5896501242061
 30
0.0
 10
107.0602024361932
 20
150.8074318058939
 30
0.0
 10
108.1522984254671
 20
151.8833358357054
 30
0.0
 10
109.741177511439
 20
153.4532668840085
 30
0.0
 10
111.8740375333931
 20
153.5290590346837
 30
0.0
 10
112.5075910110823
 20
153.4532668840085
 30
0.0
 10
113.4012493694975
 20
153.3490526768302
 30
0.0
 10
114.6683563248758
 20
152.7580461564518
 30
0.0
 10
114.7493161221879
 20
150.7838328862519
 30
0.0
 10
114.8106388622796
 20
149.0909118479895
 30
0.0
 10
114.3186789024427
 20
145.9191825971221
 30
0.0
 10
112.6164561002338
 20
140.9489400617108
 30
0.0
 10
110.6444821435766
 20
135.1746117095912
 30
0.0
 10
109.4669477299053
 20
132.8960240524753
 30
0.0
 10
108.5212683953448
 20
131.9072809959403
 30
0.0
 10
106.7346406980658
 20
130.0538184021569
 30
0.0
 10
104.8222669326213
 20
130.2336525051225
 30
0.0
 10
104.5408024457958
 20
130.2336525051225
 30
0.0
 10
104.1721769856939
 20
130.2336525051225
 30
0.0
 10
101.6465758193322
 20
130.6305277668397
 30
0.0
 10
101.6420971922469
 20
132.8388354296931
 30
0.0
  0
SPLINE
  5
6AB
330
6A2
100
AcDbEntity
  8
LOGO
370
     0
100
AcDbSpline
210
0.0
220
0.0
230
1.0
 70
    11
 71
     3
 72
    32
 73
    28
 74
     0
 42
0.000000001
 43
0.0000000001
 40
0.0
 40
0.0
 40
0.0
 40
0.0
 40
1.0
 40
1.0
 40
1.0
 40
2.0
 40
2.0
 40
2.0
 40
3.0
 40
3.0
 40
3.0
 40
4.0
 40
4.0
 40
4.0
 40
5.0
 40
5.0
 40
5.0
 40
6.0
 40
6.0
 40
6.0
 40
7.0
 40
7.0
 40
7.0
 40
8.0
 40
8.0
 40
8.0
 40
9.0
 40
9.0
 40
9.0
 40
9.0
 10
106.2595617172429
 20
153.4105476718098
 30
0.0
 10
104.8222669326213
 20
151.5474388043041
 30
0.0
 10
103.7177685914188
 20
149.8758773721411
 30
0.0
 10
101.9232171692965
 20
144.6141795664062
 30
0.0
 10
100.2754269116635
 20
139.7999999594306
 30
0.0
 10
99.22777268346732
 20
136.3052927937542
 30
0.0
 10
99.06964269637689
 20
132.039572749846
 30
0.0
 10
98.94665270641765
 20
128.8673267343149
 30
0.0
 10
100.8807305877373
 20
127.8027915271048
 30
0.0
 10
103.7129454545577
 20
127.8027915271048
 30
0.0
 10
104.9352661390825
 20
127.8027915271048
 30
0.0
 10
108.0151835347002
 20
127.8827177950895
 30
0.0
 10
110.2045431598849
 20
130.5926316915021
 30
0.0
 10
111.7417457794874
 20
132.4984597712065
 30
0.0
 10
113.155269389579
 20
134.475256864725
 30
0.0
 10
115.0562743324223
 20
140.9489400617108
 30
0.0
 10
116.6361961642235
 20
146.3680788349845
 30
0.0
 10
117.7282921534974
 20
149.8639917848761
 30
0.0
 10
117.6480213757369
 20
151.8595646611754
 30
0.0
 10
117.6480213757369
 20
151.8595646611754
 30
0.0
 10
117.6480213757369
 20
151.8595646611754
 30
0.0
 10
117.6480213757369
 20
151.8595646611754
 30
0.0
 10
117.13229024137
 20
155.18150017429
 30
0.0
 10
114.7162431837115
 20
155.886194920681
 30
0.0
 10
113.3351034925446
 20
155.886194920681
 30
0.0
 10
111.9829026225447
 20
155.886194920681
 30
0.0
 10
108.3414342923792
 20
156.1251124501957
 30
0.0
 10
106.2595617172429
 20
153.4105476718098
 30
0.0
  0
HATCH
  5
6AC
330
6A2
100
AcDbEntity
  8
LOGO
 62
   250
420
  2234388
100
AcDbHatch
 10
0.0
 20
0.0
 30
0.0
210
0.0
220
0.0
230
1.0
  2
SOLID
 70
     1
 71
     0
 91
        2
 92
        1
 93
        1
 72
     4
 94
        3
 73
     0
 74
     1
 95
       29
 96
       25
 40
0.0
 40
0.0
 40
0.0
 40
0.0
 40
1.0
 40
1.0
 40
1.0
 40
2.0
 40
2.0
 40
2.0
 40
3.0
 40
3.0
 40
3.0
 40
4.0
 40
4.0
 40
4.0
 40
5.0
 40
5.0
 40
5.0
 40
6.0
 40
6.0
 40
6.0
 40
7.0
 40
7.0
 40
7.0
 40
8.0
 40
8.0
 40
8.0
 40
8.0
 10
101.6420971922469
 20
132.8388354296931
 10
101.630039350094
 20
134.7164137077823
 10
102.2236296937908
 20
138.0598810818841
 10
103.7487744712405
 20
142.5378191476827
 10
105.819967243327
 20
148.5896501242061
 10
107.0602024361932
 20
150.8074318058939
 10
108.1522984254671
 20
151.8833358357054
 10
109.741177511439
 20
153.4532668840085
 10
111.8740375333931
 20
153.5290590346837
 10
112.5075910110823
 20
153.4532668840085
 10
113.4012493694975
 20
153.3490526768302
 10
114.6683563248758
 20
152.7580461564518
 10
114.7493161221879
 20
150.7838328862519
 10
114.8106388622796
 20
149.0909118479895
 10
114.3186789024427
 20
145.9191825971221
 10
112.6164561002338
 20
140.9489400617108
 10
110.6444821435766
 20
135.1746117095912
 10
109.4669477299053
 20
132.8960240524753
 10
108.5212683953448
 20
131.9072809959403
 10
106.7346406980658
 20
130.0538184021569
 10
104.8222669326213
 20
130.2336525051225
 10
104.5408024457958
 20
130.2336525051225
 10
104.1721769856939
 20
130.2336525051225
 10
101.6465758193322
 20
130.6305277668397
 10
101.6420971922469
 20
132.8388354296931
 97
        0
 92
        1
 93
        1
 72
     4
 94
        3
 73
     0
 74
     1
 95
       32
 96
       28
 40
0.0
 40
0.0
 40
0.0
 40
0.0
 40
1.0
 40
1.0
 40
1.0
 40
2.0
 40
2.0
 40
2.0
 40
3.0
 40
3.0
 40
3.0
 40
4.0
 40
4.0
 40
4.0
 40
5.0
 40
5.0
 40
5.0
 40
6.0
 40
6.0
 40
6.0
 40
7.0
 40
7.0
 40
7.0
 40
8.0
 40
8.0
 40
8.0
 40
9.0
 40
9.0
 40
9.0
 40
9.0
 10
106.2595617172429
 20
153.4105476718098
 10
104.8222669326213
 20
151.5474388043041
 10
103.7177685914188
 20
149.8758773721411
 10
101.9232171692965
 20
144.6141795664062
 10
100.2754269116635
 20
139.7999999594306
 10
99.22777268346732
 20
136.3052927937542
 10
99.06964269637689
 20
132.039572749846
 10
98.94665270641765
 20
128.8673267343149
 10
100.8807305877373
 20
127.8027915271048
 10
103.7129454545577
 20
127.8027915271048
 10
104.9352661390825
 20
127.8027915271048
 10
108.0151835347002
 20
127.8827177950895
 10
110.2045431598849
 20
130.5926316915021
 10
111.7417457794874
 20
132.4984597712065
 10
113.155269389579
 20
134.475256864725
 10
115.0562743324223
 20
140.9489400617108
 10
116.6361961642235
 20
146.3680788349845
 10
117.7282921534974
 20
149.8639917848761
 10
117.6480213757369
 20
151.8595646611754
 10
117.6480213757369
 20
151.8595646611754
 10
117.6480213757369
 20
151.8595646611754
 10
117.6480213757369
 20
151.8595646611754
 10
117.13229024137
 20
155.18150017429
 10
114.7162431837115
 20
155.886194920681
 10
113.3351034925446
 20
155.886194920681
 10
111.9829026225447
 20
155.886194920681
 10
108.3414342923792
 20
156.1251124501957
 10
106.2595617172429
 20
153.4105476718098
 97
        0
 75
     2
 76
     1
 98
        0
  0
ENDBLK
  5
6AD
330
6A2
100
AcDbEntity
  8
0
100
AcDbBlockEnd
  0
BLOCK
  5
5C14
330
5C13
100
AcDbEntity
  8
0
100
AcDbBlockBegin
  2
*D6
 70
     1
 10
0.0
 20
0.0
 30
0.0
  3
*D6
  1
*D22
  0
LINE
  5
5C16
330
5C13
100
AcDbEntity
  8
DIM
 62
     0
 48
0.05
370
    -2
100
AcDbLine
 10
95.29907858740026
 20
432.1350343170573
 30
0.0
 11
95.29907858740026
 21
439.6321138897117
 31
0.0
  0
LINE
  5
5C17
330
5C13
100
AcDbEntity
  8
DIM
 62
     0
 48
0.05
370
    -2
100
AcDbLine
 10
120.2990785874003
 20
432.1350343170573
 30
0.0
 11
120.2990785874003
 21
439.6321138897117
 31
0.0
  0
LINE
  5
5C18
330
5C13
100
AcDbEntity
  8
DIM
 62
     0
 48
0.05
370
    -2
100
AcDbLine
 10
96.29907858740026
 20
439.6321138897117
 30
0.0
 11
119.2990785874003
 21
439.6321138897117
 31
0.0
  0
INSERT
  5
5C19
330
5C13
100
AcDbEntity
  8
DIM
 62
     0
370
    -2
100
AcDbBlockReference
  2
_DOT
 10
95.29907858740026
 20
439.6321138897117
 30
0.0
 50
180.0
  0
INSERT
  5
5C1A
330
5C13
100
AcDbEntity
  8
DIM
 62
     0
370
    -2
100
AcDbBlockReference
  2
_DOT
 10
120.2990785874003
 20
439.6321138897117
 30
0.0
  0
MTEXT
  5
5C1B
330
5C13
100
AcDbEntity
  8
DIM
 62
     0
 48
0.05
100
AcDbMText
 10
107.7990785874003
 20
447.1321138897117
 30
0.0
 40
5.0
 41
0.0
 46
0.0
 71
     5
 72
     1
  1
\A1;25
  7
ＭＳ ゴシック
 73
     1
 44
1.0
  0
POINT
  5
5C1C
330
5C13
100
AcDbEntity
  8
Defpoints
 62
     0
100
AcDbPoint
 10
95.29907858740026
 20
427.1350343170573
 30
0.0
  0
POINT
  5
5C1D
330
5C13
100
AcDbEntity
  8
Defpoints
 62
     0
100
AcDbPoint
 10
120.2990785874003
 20
427.1350343170573
 30
0.0
  0
POINT
  5
5C1E
330
5C13
100
AcDbEntity
  8
Defpoints
 62
     0
100
AcDbPoint
 10
120.2990785874003
 20
439.6321138897117
 30
0.0
  0
ENDBLK
  5
5C15
330
5C13
100
AcDbEntity
  8
0
100
AcDbBlockEnd
  0
BLOCK
  5
5C26
330
5C25
100
AcDbEntity
  8
0
100
AcDbBlockBegin
  2
*D7
 70
     1
 10
0.0
 20
0.0
 30
0.0
  3
*D7
  1
*D23
  0
LINE
  5
5C28
330
5C25
100
AcDbEntity
  8
DIM
 62
     0
 48
0.05
370
    -2
100
AcDbLine
 10
264.2945307262913
 20
234.2437053882309
 30
0.0
 11
248.9276166551535
 21
234.2437053882309
 31
0.0
  0
LINE
  5
5C29
330
5C25
100
AcDbEntity
  8
DIM
 62
     0
 48
0.05
370
    -2
100
AcDbLine
 10
264.2945307262913
 20
204.8437053882309
 30
0.0
 11
248.9276166551535
 21
204.8437053882309
 31
0.0
  0
LINE
  5
5C2A
330
5C25
100
AcDbEntity
  8
DIM
 62
     0
 48
0.05
370
    -2
100
AcDbLine
 10
248.9276166551535
 20
233.2437053882309
 30
0.0
 11
248.9276166551535
 21
205.8437053882309
 31
0.0
  0
INSERT
  5
5C2B
330
5C25
100
AcDbEntity
  8
DIM
 62
     0
370
    -2
100
AcDbBlockReference
  2
_DOT
 10
248.9276166551535
 20
234.2437053882309
 30
0.0
 50
90.0
  0
INSERT
  5
5C2C
330
5C25
100
AcDbEntity
  8
DIM
 62
     0
370
    -2
100
AcDbBlockReference
  2
_DOT
 10
248.9276166551535
 20
204.8437053882309
 30
0.0
 50
270.0
  0
MTEXT
  5
5C2D
330
5C25
100
AcDbEntity
  8
DIM
 62
     0
 48
0.05
100
AcDbMText
 10
241.4276166551535
 20
219.5437053882309
 30
0.0
 40
5.0
 41
0.0
 46
0.0
 71
     5
 72
     1
  1
\A1;29
  7
ＭＳ ゴシック
 11
0.0
 21
1.0
 31
0.0
 73
     1
 44
1.0
  0
POINT
  5
5C2E
330
5C25
100
AcDbEntity
  8
Defpoints
 62
     0
100
AcDbPoint
 10
269.2945307262913
 20
234.2437053882309
 30
0.0
  0
POINT
  5
5C2F
330
5C25
100
AcDbEntity
  8
Defpoints
 62
     0
100
AcDbPoint
 10
269.2945307262913
 20
204.8437053882309
 30
0.0
  0
POINT
  5
5C30
330
5C25
100
AcDbEntity
  8
Defpoints
 62
     0
100
AcDbPoint
 10
248.9276166551535
 20
204.8437053882309
 30
0.0
  0
ENDBLK
  5
5C27
330
5C25
100
AcDbEntity
  8
0
100
AcDbBlockEnd
  0
BLOCK
  5
5C33
330
5C32
100
AcDbEntity
  8
0
100
AcDbBlockBegin
  2
*D8
 70
     1
 10
0.0
 20
0.0
 30
0.0
  3
*D8
  1
*D24
  0
LINE
  5
5C35
330
5C32
100
AcDbEntity
  8
DIM
 62
     0
 48
0.05
370
    -2
100
AcDbLine
 10
83.02867258776747
 20
352.6287012735653
 30
0.0
 11
83.02867258776747
 21
330.5752401643696
 31
0.0
  0
LINE
  5
5C36
330
5C32
100
AcDbEntity
  8
DIM
 62
     0
 48
0.05
370
    -2
100
AcDbLine
 10
167.0286725877675
 20
352.6287012735653
 30
0.0
 11
167.0286725877675
 21
330.5752401643696
 31
0.0
  0
LINE
  5
5C37
330
5C32
100
AcDbEntity
  8
DIM
 62
     0
 48
0.05
370
    -2
100
AcDbLine
 10
84.02867258776747
 20
330.5752401643696
 30
0.0
 11
166.0286725877675
 21
330.5752401643696
 31
0.0
  0
INSERT
  5
5C38
330
5C32
100
AcDbEntity
  8
DIM
 62
     0
370
    -2
100
AcDbBlockReference
  2
_DOT
 10
83.02867258776747
 20
330.5752401643696
 30
0.0
 50
180.0
  0
INSERT
  5
5C39
330
5C32
100
AcDbEntity
  8
DIM
 62
     0
370
    -2
100
AcDbBlockReference
  2
_DOT
 10
167.0286725877675
 20
330.5752401643696
 30
0.0
  0
MTEXT
  5
5C3A
330
5C32
100
AcDbEntity
  8
DIM
 62
     0
 48
0.05
100
AcDbMText
 10
125.0286725877675
 20
338.0752401643696
 30
0.0
 40
5.0
 41
0.0
 46
0.0
 71
     5
 72
     1
  1
\A1;84
  7
ＭＳ ゴシック
 73
     1
 44
1.0
  0
POINT
  5
5C3B
330
5C32
100
AcDbEntity
  8
Defpoints
 62
     0
100
AcDbPoint
 10
83.02867258776747
 20
357.6287012735653
 30
0.0
  0
POINT
  5
5C3C
330
5C32
100
AcDbEntity
  8
Defpoints
 62
     0
100
AcDbPoint
 10
167.0286725877675
 20
357.6287012735653
 30
0.0
  0
POINT
  5
5C3D
330
5C32
100
AcDbEntity
  8
Defpoints
 62
     0
100
AcDbPoint
 10
167.0286725877675
 20
330.5752401643696
 30
0.0
  0
ENDBLK
  5
5C34
330
5C32
100
AcDbEntity
  8
0
100
AcDbBlockEnd
  0
BLOCK
  5
5C48
330
5C47
100
AcDbEntity
  8
0
100
AcDbBlockBegin
  2
*D9
 70
     1
 10
0.0
 20
0.0
 30
0.0
  3
*D9
  1
*D25
  0
LINE
  5
5C4A
330
5C47
100
AcDbEntity
  8
DIM
 62
     0
 48
0.05
370
    -2
100
AcDbLine
 10
86.79907858740027
 20
431.0625067502231
 30
0.0
 11
86.79907858740027
 21
454.5252424288109
 31
0.0
  0
LINE
  5
5C4B
330
5C47
100
AcDbEntity
  8
DIM
 62
     0
 48
0.05
370
    -2
100
AcDbLine
 10
129.7990785874003
 20
431.0625067502231
 30
0.0
 11
129.7990785874003
 21
454.5252424288109
 31
0.0
  0
LINE
  5
5C4C
330
5C47
100
AcDbEntity
  8
DIM
 62
     0
 48
0.05
370
    -2
100
AcDbLine
 10
87.79907858740027
 20
454.5252424288109
 30
0.0
 11
128.7990785874003
 21
454.5252424288109
 31
0.0
  0
INSERT
  5
5C4D
330
5C47
100
AcDbEntity
  8
DIM
 62
     0
370
    -2
100
AcDbBlockReference
  2
_DOT
 10
86.79907858740027
 20
454.5252424288109
 30
0.0
 50
180.0
  0
INSERT
  5
5C4E
330
5C47
100
AcDbEntity
  8
DIM
 62
     0
370
    -2
100
AcDbBlockReference
  2
_DOT
 10
129.7990785874003
 20
454.5252424288109
 30
0.0
  0
MTEXT
  5
5C4F
330
5C47
100
AcDbEntity
  8
DIM
 62
     0
 48
0.05
100
AcDbMText
 10
108.2990785874003
 20
462.0252424288109
 30
0.0
 40
5.0
 41
0.0
 46
0.0
 71
     5
 72
     1
  1
\A1;43
  7
ＭＳ ゴシック
 73
     1
 44
1.0
  0
POINT
  5
5C50
330
5C47
100
AcDbEntity
  8
Defpoints
 62
     0
100
AcDbPoint
 10
86.79907858740027
 20
426.0625067502231
 30
0.0
  0
POINT
  5
5C51
330
5C47
100
AcDbEntity
  8
Defpoints
 62
     0
100
AcDbPoint
 10
129.7990785874003
 20
426.0625067502231
 30
0.0
  0
POINT
  5
5C52
330
5C47
100
AcDbEntity
  8
Defpoints
 62
     0
100
AcDbPoint
 10
129.7990785874003
 20
454.5252424288109
 30
0.0
  0
ENDBLK
  5
5C49
330
5C47
100
AcDbEntity
  8
0
100
AcDbBlockEnd
  0
BLOCK
  5
5C9E
330
5C9D
100
AcDbEntity
  8
0
100
AcDbBlockBegin
  2
*D10
 70
     1
 10
0.0
 20
0.0
 30
0.0
  3
*D10
  1
*D31
  0
LINE
  5
5CA0
330
5C9D
100
AcDbEntity
  8
DIM
 62
     0
 48
0.05
370
    -2
100
AcDbLine
 10
169.9205197043374
 20
357.0656896551724
 30
0.0
 11
204.8533603851212
 21
357.0656896551724
 31
0.0
  0
LINE
  5
5CA1
330
5C9D
100
AcDbEntity
  8
DIM
 62
     0
 48
0.05
370
    -2
100
AcDbLine
 10
136.2879623448451
 20
425.040166844899
 30
0.0
 11
204.8533603851212
 21
425.040166844899
 31
0.0
  0
LINE
  5
5CA2
330
5C9D
100
AcDbEntity
  8
DIM
 62
     0
 48
0.05
370
    -2
100
AcDbLine
 10
204.8533603851212
 20
358.0656896551724
 30
0.0
 11
204.8533603851212
 21
424.040166844899
 31
0.0
  0
INSERT
  5
5CA3
330
5C9D
100
AcDbEntity
  8
DIM
 62
     0
370
    -2
100
AcDbBlockReference
  2
_DOT
 10
204.8533603851212
 20
357.0656896551724
 30
0.0
 50
270.0
  0
INSERT
  5
5CA4
330
5C9D
100
AcDbEntity
  8
DIM
 62
     0
370
    -2
100
AcDbBlockReference
  2
_DOT
 10
204.8533603851212
 20
425.040166844899
 30
0.0
 50
90.0
  0
MTEXT
  5
5CA5
330
5C9D
100
AcDbEntity
  8
DIM
 62
     0
 48
0.05
100
AcDbMText
 10
197.3533603851212
 20
391.0529282500357
 30
0.0
 40
5.0
 41
0.0
 46
0.0
 71
     5
 72
     1
  1
\A1;68
  7
ＭＳ ゴシック
 11
0.0
 21
1.0
 31
0.0
 73
     1
 44
1.0
  0
POINT
  5
5CA6
330
5C9D
100
AcDbEntity
  8
Defpoints
 62
     0
100
AcDbPoint
 10
164.9205197043374
 20
357.0656896551724
 30
0.0
  0
POINT
  5
5CA7
330
5C9D
100
AcDbEntity
  8
Defpoints
 62
     0
100
AcDbPoint
 10
131.2879623448451
 20
425.040166844899
 30
0.0
  0
POINT
  5
5CA8
330
5C9D
100
AcDbEntity
  8
Defpoints
 62
     0
100
AcDbPoint
 10
204.8533603851212
 20
425.040166844899
 30
0.0
  0
ENDBLK
  5
5C9F
330
5C9D
100
AcDbEntity
  8
0
100
AcDbBlockEnd
  0
BLOCK
  5
5CCE
330
5CCD
100
AcDbEntity
  8
0
100
AcDbBlockBegin
  2
*D11
 70
     1
 10
0.0
 20
0.0
 30
0.0
  3
*D11
  1
*D33
  0
LINE
  5
5CD0
330
5CCD
100
AcDbEntity
  8
DIM
 62
     0
 48
0.05
370
    -2
100
AcDbLine
 10
134.7990785874003
 20
425.040166844899
 30
0.0
 11
181.8164823845694
 21
425.040166844899
 31
0.0
  0
LINE
  5
5CD1
330
5CCD
100
AcDbEntity
  8
DIM
 62
     0
 48
0.05
370
    -2
100
AcDbLine
 10
147.813872385882
 20
375.5414996633998
 30
0.0
 11
181.8164823845694
 21
375.5414996633998
 31
0.0
  0
LINE
  5
5CD2
330
5CCD
100
AcDbEntity
  8
DIM
 62
     0
 48
0.05
370
    -2
100
AcDbLine
 10
181.8164823845694
 20
424.040166844899
 30
0.0
 11
181.8164823845694
 21
376.5414996633998
 31
0.0
  0
INSERT
  5
5CD3
330
5CCD
100
AcDbEntity
  8
DIM
 62
     0
370
    -2
100
AcDbBlockReference
  2
_DOT
 10
181.8164823845694
 20
425.040166844899
 30
0.0
 50
90.0
  0
INSERT
  5
5CD4
330
5CCD
100
AcDbEntity
  8
DIM
 62
     0
370
    -2
100
AcDbBlockReference
  2
_DOT
 10
181.8164823845694
 20
375.5414996633998
 30
0.0
 50
270.0
  0
MTEXT
  5
5CD5
330
5CCD
100
AcDbEntity
  8
DIM
 62
     0
 48
0.05
100
AcDbMText
 10
174.3164823845694
 20
400.2908332541494
 30
0.0
 40
5.0
 41
0.0
 46
0.0
 71
     5
 72
     1
  1
\A1;49
  7
ＭＳ ゴシック
 11
0.0
 21
1.0
 31
0.0
 73
     1
 44
1.0
  0
POINT
  5
5CD6
330
5CCD
100
AcDbEntity
  8
Defpoints
 62
     0
100
AcDbPoint
 10
129.7990785874003
 20
425.040166844899
 30
0.0
  0
POINT
  5
5CD7
330
5CCD
100
AcDbEntity
  8
Defpoints
 62
     0
100
AcDbPoint
 10
142.813872385882
 20
375.5414996633998
 30
0.0
  0
POINT
  5
5CD8
330
5CCD
100
AcDbEntity
  8
Defpoints
 62
     0
100
AcDbPoint
 10
181.8164823845694
 20
375.5414996633998
 30
0.0
  0
ENDBLK
  5
5CCF
330
5CCD
100
AcDbEntity
  8
0
100
AcDbBlockEnd
  0
ENDSEC
  0
SECTION
  2
ENTITIES
  0
MTEXT
  5
177
330
A
100
AcDbEntity
  8
TEMPLATE
390
1D
100
AcDbMText
 10
15.84042890954615
 20
68.74635032628565
 30
0.0
 40
3.257682291666665
 41
0.0
 46
0.0
 71
     1
 72
     1
  1
品名
  7
ＭＳ ゴシック
 73
     1
 44
0.7828267384257843
  0
MTEXT
  5
178
330
A
100
AcDbEntity
  8
TEMPLATE
390
1D
100
AcDbMText
 10
15.84042890954615
 20
51.7463503262856
 30
0.0
 40
3.257682291666665
 41
0.0
 46
0.0
 71
     1
 72
     1
  1
仕様
  7
ＭＳ ゴシック
 73
     1
 44
0.7828267384257843
  0
LINE
  5
179
330
A
100
AcDbEntity
  8
TEMPLATE
390
1D
100
AcDbLine
 10
404.4404289094496
 20
53.42933470128568
 30
0.0
 11
14.44042890944975
 21
53.42933470128568
 31
0.0
  0
LWPOLYLINE
  5
17A
330
A
100
AcDbEntity
  8
TEMPLATE
390
1D
100
AcDbPolyline
 90
        5
 70
   128
 43
0.0
 10
404.4404289094496
 20
579.4293347012853
 10
14.44042890944975
 20
579.4293347012853
 10
14.44042890944975
 20
19.42933470128565
 10
404.4404289094496
 20
19.42933470128565
 10
404.4404289094496
 20
579.4293347012853
  0
LINE
  5
17B
330
A
100
AcDbEntity
  8
TEMPLATE
390
1D
100
AcDbLine
 10
404.4404289094496
 20
70.42933470128564
 30
0.0
 11
14.44042890944975
 21
70.42933470128564
 31
0.0
  0
LINE
  5
17C
330
A
100
AcDbEntity
  8
TEMPLATE
390
1D
100
AcDbLine
 10
404.4404289095464
 20
36.42933470128565
 30
0.0
 11
253.840428909546
 21
36.42933470128565
 31
0.0
  0
MTEXT
  5
17E
330
A
100
AcDbEntity
  8
TEMPLATE
390
1D
100
AcDbMText
 10
259.8147101599982
 20
30.44725580662403
 30
0.0
 40
4.8865234375
 41
0.0
 46
0.0
 71
     1
 72
     1
  1
大洋金物株式会社 ティーフォルム事業部
  7
ＭＳ ゴシック
 73
     1
 44
0.7828267384257843
  0
MTEXT
  5
180
330
A
100
AcDbEntity
  8
TEMPLATE
390
1D
100
AcDbMText
 10
366.240428909598
 20
46.02985813878564
 30
0.0
 40
4.8865234375
 41
0.0
 46
4.8865234375
 71
     1
 72
     1
  1
{1:2}
  7
ＭＳ ゴシック
 73
     1
 44
0.7828267384257843
1001
ACAD
1000
ACAD_MTEXT_DEFINED_HEIGHT_BEGIN
1070
    46
1040
4.8865234375
1000
ACAD_MTEXT_DEFINED_HEIGHT_END
  0
MTEXT
  5
181
330
A
100
AcDbEntity
  8
TEMPLATE
390
1D
100
AcDbMText
 10
355.640428909598
 20
51.7463503262856
 30
0.0
 40
3.257682291666665
 41
0.0
 46
0.0
 71
     1
 72
     1
  1
縮尺
  7
ＭＳ ゴシック
 73
     1
 44
0.7828267384257843
  0
LINE
  5
182
330
A
100
AcDbEntity
  8
TEMPLATE
390
1D
100
AcDbLine
 10
354.240428909598
 20
36.42933470128565
 30
0.0
 11
354.240428909598
 21
53.42933470128568
 31
0.0
  0
MTEXT
  5
183
330
A
100
AcDbEntity
  8
TEMPLATE
390
1D
100
AcDbMText
 10
305.440428909598
 20
51.7463503262856
 30
0.0
 40
3.257682291666665
 41
0.0
 46
0.0
 71
     1
 72
     1
  1
容量
  7
ＭＳ ゴシック
 73
     1
 44
0.7828267384257843
  0
LINE
  5
184
330
A
100
AcDbEntity
  8
TEMPLATE
390
1D
100
AcDbLine
 10
304.040428909598
 20
36.42933470128565
 30
0.0
 11
304.040428909598
 21
53.42933470128568
 31
0.0
  0
MTEXT
  5
185
330
A
100
AcDbEntity
  8
TEMPLATE
390
1D
100
AcDbMText
 10
255.240428909598
 20
68.74635032628565
 30
0.0
 40
3.257682291666665
 41
0.0
 46
0.0
 71
     1
 72
     1
  1
品番
  7
ＭＳ ゴシック
 73
     1
 44
0.7828267384257843
  0
MTEXT
  5
186
330
A
100
AcDbEntity
  8
TEMPLATE
390
1D
100
AcDbMText
 10
255.240428909598
 20
51.7463503262856
 30
0.0
 40
3.257682291666665
 41
0.0
 46
0.0
 71
     1
 72
     1
  1
重量
  7
ＭＳ ゴシック
 73
     1
 44
0.7828267384257843
  0
MTEXT
  5
187
330
A
100
AcDbEntity
  8
TEMPLATE
390
1D
100
AcDbMText
 10
265.840428909598
 20
63.02985813878564
 30
0.0
 40
4.8865234375
 41
0.0
 46
4.8865234375
 71
     1
 72
     1
  1
{FHT73-3324}
  7
ＭＳ ゴシック
 73
     1
 44
0.7828267384257843
1001
ACAD
1000
ACAD_MTEXT_DEFINED_HEIGHT_BEGIN
1070
    46
1040
4.8865234375
1000
ACAD_MTEXT_DEFINED_HEIGHT_END
  0
LINE
  5
188
330
A
100
AcDbEntity
  8
TEMPLATE
390
1D
100
AcDbLine
 10
253.840428909598
 20
19.42933470128565
 30
0.0
 11
253.840428909598
 21
70.42933470128564
 31
0.0
  0
MTEXT
  5
189
330
A
100
AcDbEntity
  8
TEMPLATE
390
1D
100
AcDbMText
 10
26.44042890954615
 20
63.02985813878564
 30
0.0
 40
4.8865234375
 41
0.0
 46
5.3556296875
 71
     1
 72
     1
  1
{シャワーフック　-GROHE-}
  7
ＭＳ ゴシック
 73
     1
 44
0.7828267384257843
1001
ACAD
1000
ACAD_MTEXT_DEFINED_HEIGHT_BEGIN
1070
    46
1040
5.3556296875
1000
ACAD_MTEXT_DEFINED_HEIGHT_END
  0
INSERT
  5
6B5
330
A
100
AcDbEntity
  8
TEMPLATE
100
AcDbBlockReference
  2
名称未設定-1
 10
374.15014961769
 20
5.189353151330764
 30
0.0
 41
0.1524
 42
0.1524
 43
0.1524
  0
INSERT
  5
68C
330
A
100
AcDbEntity
  8
TEMPLATE
100
AcDbBlockReference
  2
block 2
 10
919.2743017702577
 20
8.373076514336368
 30
0.0
 41
0.3809999999999999
 42
0.3809999999999999
 43
0.3809999999999999
  0
LWPOLYLINE
  5
D69
330
A
100
AcDbEntity
  8
BORDER
 48
0.025
100
AcDbPolyline
 90
        4
 70
     1
 43
0.0
 10
0.0
 20
0.0
 10
0.0
 20
594.0
 10
420.0
 20
594.0
 10
420.0
 20
0.0
  0
INSERT
  5
1343
330
A
100
AcDbEntity
  8
TEMPLATE
100
AcDbBlockReference
  2
block 2
 10
2096.743470866468
 20
24.43532141229569
 30
0.0
 41
0.3809999999999999
 42
0.3809999999999999
 43
0.3809999999999999
  0
POINT
  5
3697
330
A
100
AcDbEntity
  8
Layer50
  6
HIDDEN2
 62
     7
100
AcDbPoint
 10
396.8678405503807
 20
449.3605456225488
 30
0.0
  0
POINT
  5
36AA
330
A
100
AcDbEntity
  8
Layer50
  6
HIDDEN2
 62
     7
100
AcDbPoint
 10
396.8678405503807
 20
469.8605456225488
 30
0.0
  0
POINT
  5
36B6
330
A
100
AcDbEntity
  8
Layer50
  6
HIDDEN2
 62
     7
100
AcDbPoint
 10
405.6628405503807
 20
460.6105456225488
 30
0.0
  0
POINT
  5
36BC
330
A
100
AcDbEntity
  8
Layer50
  6
HIDDEN2
 62
     7
100
AcDbPoint
 10
403.6628405503807
 20
460.6105456225488
 30
0.0
  0
MTEXT
  5
4530
102
{ACAD_XDICTIONARY
360
4532
102
}
330
A
100
AcDbEntity
  8
MODEL
 48
0.05
100
AcDbMText
 10
14.6329326238789
 20
17.30781899803597
 30
0.0
 40
4.0
 41
0.0
 46
4.0
 71
     1
 72
     1
  1
{20160726N}
  7
ＭＳ ゴシック
 73
     1
 44
1.0
1001
ACAD
1000
ACAD_MTEXT_DEFINED_HEIGHT_BEGIN
1070
    46
1040
4.0
1000
ACAD_MTEXT_DEFINED_HEIGHT_END
  0
MTEXT
  5
5062
330
A
100
AcDbEntity
  8
TEMPLATE
390
1D
100
AcDbMText
 10
26.44042890954615
 20
46.10276168560644
 30
0.0
 40
4.8865234375
 41
0.0
 46
4.9598212890625
 71
     1
 72
     1
  1
{クローム}
  7
ＭＳ ゴシック
 73
     1
 44
0.7828267384257843
1001
ACAD
1000
ACAD_MTEXT_DEFINED_HEIGHT_BEGIN
1070
    46
1040
4.9598212890625
1000
ACAD_MTEXT_DEFINED_HEIGHT_END
  0
SPLINE
  5
5B9A
330
A
100
AcDbEntity
  8
MODEL
100
AcDbSpline
210
0.0
220
0.0
230
1.0
 70
     8
 71
     3
 72
    12
 73
     8
 74
     0
 42
0.000000001
 43
0.0000000001
 40
0.4942352807370177
 40
0.4942352807370177
 40
0.4942352807370177
 40
0.4942352807370177
 40
0.4999999999999999
 40
0.4999999999999999
 40
0.7499999999999999
 40
0.7499999999999999
 40
0.9980692843780415
 40
0.9980692843780415
 40
0.9980692843780415
 40
0.9980692843780415
 10
83.77395668694976
 20
201.5175679054279
 30
0.0
 10
83.77395641810475
 20
201.5175753681864
 30
0.0
 10
83.77395607739638
 20
201.517787794607
 30
0.0
 10
83.77393793983616
 20
201.5363109209139
 30
0.0
 10
83.773775867121
 20
201.9531705425927
 30
0.0
 10
83.77270747075161
 20
203.4895818869774
 30
0.0
 10
83.7721082869875
 20
204.6256154946946
 30
0.0
 10
83.76986174526485
 20
207.634165876834
 30
0.0
  0
LINE
  5
5B9B
330
A
100
AcDbEntity
  8
MODEL
100
AcDbLine
 10
129.7990785874003
 20
237.8437053882309
 30
0.0
 11
129.7990785874003
 21
201.2437053882309
 31
0.0
  0
ARC
  5
5B9C
330
A
100
AcDbEntity
  8
MODEL
100
AcDbCircle
 10
7027.251952954127
 20
219.9829189902096
 30
0.0
 40
6943.493072124552
100
AcDbArc
 50
179.8924181995631
 51
180.1018985402993
  0
SPLINE
  5
5B9D
330
A
100
AcDbEntity
  8
MODEL
100
AcDbSpline
210
0.0
220
0.0
230
1.0
 70
     8
 71
     3
 72
    12
 73
     8
 74
     0
 42
0.000000001
 43
0.0000000001
 40
0.0000028499190826
 40
0.0000028499190826
 40
0.0000028499190826
 40
0.0000028499190826
 40
0.25
 40
0.25
 40
0.5
 40
0.5
 40
0.5058703576776407
 40
0.5058703576776407
 40
0.5058703576776407
 40
0.5058703576776407
 10
83.77112079623188
 20
233.0204071513917
 30
0.0
 10
83.7720987226183
 20
234.4437570789008
 30
0.0
 10
83.77270273322186
 20
235.5909546222824
 30
0.0
 10
83.77377564541693
 20
237.1339828102944
 30
0.0
 10
83.77393759562858
 20
237.5507537459694
 30
0.0
 10
83.77395606988804
 20
237.5696151904063
 30
0.0
 10
83.7739564195759
 20
237.5698304687348
 30
0.0
 10
83.77395669134786
 20
237.5698287103551
 30
0.0
  0
LINE
  5
5B9E
330
A
100
AcDbEntity
  8
MODEL
100
AcDbLine
 10
84.27327320990027
 20
201.0437053882309
 30
0.0
 11
129.5990785874003
 21
201.0437053882309
 31
0.0
  0
LINE
  5
5B9F
330
A
100
AcDbEntity
  8
MODEL
100
AcDbLine
 10
129.5990785874003
 20
238.0437053882309
 30
0.0
 11
84.27327320990027
 21
238.0437053882309
 31
0.0
  0
ARC
  5
5BA0
330
A
100
AcDbEntity
  8
MODEL
100
AcDbCircle
 10
129.5990785874003
 20
237.8437053882309
 30
0.0
 40
0.1999999999999988
100
AcDbArc
 50
0.0
 51
89.28438560590068
  0
ARC
  5
5BA1
330
A
100
AcDbEntity
  8
MODEL
100
AcDbCircle
 10
129.5990785874003
 20
201.2437053882309
 30
0.0
 40
0.2000000000000001
100
AcDbArc
 50
269.5879335427969
 51
0.0
  0
ARC
  5
5BA2
330
A
100
AcDbEntity
  8
MODEL
100
AcDbCircle
 10
427.0307437190003
 20
219.5436309041309
 30
0.0
 40
343.7279348322329
100
AcDbArc
 50
177.0009542378
 51
182.9990318892999
  0
ARC
  5
5BA3
330
A
100
AcDbEntity
  8
MODEL
100
AcDbCircle
 10
84.27327321120026
 20
201.5437055352309
 30
0.0
 40
0.4999999963853443
100
AcDbArc
 50
182.971694353301
 51
269.9826720579002
  0
ARC
  5
5BA4
330
A
100
AcDbEntity
  8
MODEL
100
AcDbCircle
 10
84.27327321210026
 20
237.543704892431
 30
0.0
 40
0.4999999877327287
100
AcDbArc
 50
90.0237678521992
 51
177.0397229587079
  0
LINE
  5
5BA5
330
A
100
AcDbEntity
  8
MODEL
100
AcDbLine
 10
129.9990785874003
 20
236.7937053882309
 30
0.0
 11
129.7990785874003
 21
236.7937053882309
 31
0.0
  0
LINE
  5
5BA6
330
A
100
AcDbEntity
  8
MODEL
100
AcDbLine
 10
129.7990785874003
 20
202.2937053882309
 30
0.0
 11
129.9990785874003
 21
202.2937053882309
 31
0.0
  0
LINE
  5
5BA7
330
A
100
AcDbEntity
  8
MODEL
100
AcDbLine
 10
129.9990785874003
 20
237.8437053882309
 30
0.0
 11
129.9990785874003
 21
201.2437053882309
 31
0.0
  0
SPLINE
  5
5BA8
330
A
100
AcDbEntity
  8
MODEL
100
AcDbSpline
210
0.0
220
0.0
230
1.0
 70
     8
 71
     3
 72
     8
 73
     4
 74
     0
 42
0.000000001
 43
0.0000000001
 40
0.5002833207033235
 40
0.5002833207033235
 40
0.5002833207033235
 40
0.5002833207033235
 40
0.5005933590932705
 40
0.5005933590932705
 40
0.5005933590932705
 40
0.5005933590932705
 10
139.7954949227746
 20
238.0436947345542
 30
0.0
 10
139.7954858252946
 20
238.0437014255655
 30
0.0
 10
139.7954814474641
 20
238.0437045798649
 30
0.0
 10
139.7954817868351
 20
238.0437042002868
 30
0.0
  0
ARC
  5
5BA9
330
A
100
AcDbEntity
  8
MODEL
100
AcDbCircle
 10
130.1990785874003
 20
237.8437053882309
 30
0.0
 40
0.1999999999999988
100
AcDbArc
 50
90.0
 51
180.0
  0
ARC
  5
5BAA
330
A
100
AcDbEntity
  8
MODEL
100
AcDbCircle
 10
130.1990785874003
 20
201.2437053882309
 30
0.0
 40
0.2000000000000023
100
AcDbArc
 50
180.0
 51
270.0
  0
LINE
  5
5BAB
330
A
100
AcDbEntity
  8
MODEL
100
AcDbLine
 10
139.8018397685003
 20
238.0437053882309
 30
0.0
 11
130.1990785874003
 21
238.0437053882309
 31
0.0
  0
LINE
  5
5BAC
330
A
100
AcDbEntity
  8
MODEL
100
AcDbLine
 10
130.1990785874003
 20
201.0437053882309
 30
0.0
 11
141.7023134852002
 21
201.0437053882309
 31
0.0
  0
SPLINE
  5
5BAD
330
A
100
AcDbEntity
  8
MODEL
100
AcDbSpline
210
0.0
220
0.0
230
1.0
 70
     8
 71
     3
 72
    68
 73
    64
 74
     0
 42
0.000000001
 43
0.0000000001
 40
0.0
 40
0.0
 40
0.0
 40
0.0
 40
0.0167309256901462
 40
0.0375499421062477
 40
0.058663089929726
 40
0.0795584472487244
 40
0.1001393246802509
 40
0.1203286566523696
 40
0.1400729233785517
 40
0.1593418766555082
 40
0.1781110844709875
 40
0.1962502357675629
 40
0.2137290665899596
 40
0.2309575168203782
 40
0.247900477958532
 40
0.2645352811573835
 40
0.2808530789727792
 40
0.296857757893666
 40
0.3125646223900739
 40
0.3280027008239223
 40
0.3432797198181088
 40
0.3588062894797412
 40
0.3746602916618704
 40
0.3908728529899064
 40
0.4074671834835475
 40
0.4244565147875887
 40
0.4418423136386736
 40
0.4596122909488432
 40
0.4777424985746056
 40
0.4963083932656627
 40
0.5156710604012675
 40
0.5354504046966785
 40
0.5556210729363948
 40
0.5761363445697731
 40
0.5969328794687636
 40
0.6179320726572529
 40
0.6390472792914996
 40
0.6600087485358621
 40
0.6808840909796405
 40
0.7016295042439601
 40
0.7221853330170432
 40
0.7425026994770053
 40
0.7625450497500735
 40
0.7822891355216895
 40
0.8017609469937128
 40
0.820706161528795
 40
0.8395729702413458
 40
0.8583174211066833
 40
0.8768936721628968
 40
0.8952675583564399
 40
0.9134198453307346
 40
0.9313539110417038
 40
0.9491220689503737
 40
0.9668412686217538
 40
0.9843717429851562
 40
0.988612991633372
 40
0.9900450403236153
 40
0.9908121083070548
 40
0.991494859228531
 40
0.9926328699547015
 40
0.9942600600058695
 40
0.9973660772864886
 40
1.0
 40
1.0
 40
1.0
 40
1.0
 10
161.146077321045
 20
235.1087314933529
 30
0.0
 10
161.0156264170157
 20
235.0349944867398
 30
0.0
 10
160.76755355229
 20
234.895182996405
 30
0.0
 10
160.3219813793424
 20
234.654090568064
 30
0.0
 10
159.841611004907
 20
234.4051144924252
 30
0.0
 10
159.342336747669
 20
234.1594494732661
 30
0.0
 10
158.834947450324
 20
233.9243208422044
 30
0.0
 10
158.3209699359503
 20
233.7018285380852
 30
0.0
 10
157.8032303524638
 20
233.4943592771724
 30
0.0
 10
157.283794492882
 20
233.3037604061975
 30
0.0
 10
156.766055302553
 20
233.131461894515
 30
0.0
 10
156.2524845979471
 20
232.9808192475713
 30
0.0
 10
155.7428190695489
 20
232.8508693853889
 30
0.0
 10
155.2356437993933
 20
232.7408206726405
 30
0.0
 10
154.7290892535748
 20
232.6503043632684
 30
0.0
 10
154.2253977667242
 20
232.5798303137844
 30
0.0
 10
153.7264651084592
 20
232.5296800792565
 30
0.0
 10
153.2338341146317
 20
232.4999830097976
 30
0.0
 10
152.7486706115604
 20
232.4906484157172
 30
0.0
 10
152.2710968725281
 20
232.501853888227
 30
0.0
 10
151.7971236202626
 20
232.5327522147994
 30
0.0
 10
151.322056855917
 20
232.5825109296264
 30
0.0
 10
150.8420633589652
 20
232.6513755519731
 30
0.0
 10
150.3572780191955
 20
232.7392784794641
 30
0.0
 10
149.8684856859022
 20
232.8460462454977
 30
0.0
 10
149.3767480449955
 20
232.9713583877531
 30
0.0
 10
148.8834688372944
 20
233.114727417026
 30
0.0
 10
148.3903092788433
 20
233.2753596236582
 30
0.0
 10
147.8984798604318
 20
233.4528427223859
 30
0.0
 10
147.4048972269194
 20
233.6469052478042
 30
0.0
 10
146.9105252804158
 20
233.8562856140632
 30
0.0
 10
146.4171979465398
 20
234.0799010080366
 30
0.0
 10
145.9298317600261
 20
234.3145736481742
 30
0.0
 10
145.4504885718903
 20
234.5581425972281
 30
0.0
 10
144.9814812412273
 20
234.8080369884978
 30
0.0
 10
144.5252552052544
 20
235.0614003123281
 30
0.0
 10
144.0853914575207
 20
235.314351271859
 30
0.0
 10
143.6647586593274
 20
235.5638213232706
 30
0.0
 10
143.2651936527065
 20
235.8075582551143
 30
0.0
 10
142.8871942931992
 20
236.0440388857863
 30
0.0
 10
142.5319050104406
 20
236.2713899668682
 30
0.0
 10
142.2002941567543
 20
236.4878602212198
 30
0.0
 10
141.8930307260327
 20
236.6919250030182
 30
0.0
 10
141.6102063269581
 20
236.8825041390075
 30
0.0
 10
141.3532056545985
 20
237.0576706773061
 30
0.0
 10
141.1213535807312
 20
237.2173421522631
 30
0.0
 10
140.9133723895067
 20
237.3619452556723
 30
0.0
 10
140.7280723422931
 20
237.4919151189968
 30
0.0
 10
140.5660067342745
 20
237.606499904269
 30
0.0
 10
140.4275410295429
 20
237.7050955402719
 30
0.0
 10
140.3127625481274
 20
237.7873137655881
 30
0.0
 10
140.2215486506467
 20
237.8529413987885
 30
0.0
 10
140.1532154032701
 20
237.9021791503457
 30
0.0
 10
140.1075318723217
 20
237.9349496593872
 30
0.0
 10
140.0908048406526
 20
237.9468145267675
 30
0.0
 10
140.0821312522208
 20
237.9529260169482
 30
0.0
 10
140.0730896469923
 20
237.9590517890925
 30
0.0
 10
140.0630370626914
 20
237.9655615595338
 30
0.0
 10
140.0465407993604
 20
237.9756544551404
 30
0.0
 10
140.0161953448468
 20
237.9922613563656
 30
0.0
 10
139.9615597428541
 20
238.0161806862465
 30
0.0
 10
139.8862739600225
 20
238.0377080371214
 30
0.0
 10
139.8396222496998
 20
238.0430756412244
 30
0.0
 10
139.8018397685003
 20
238.0437053882309
 30
0.0
  0
ARC
  5
5BAF
330
A
100
AcDbEntity
  8
MODEL
100
AcDbCircle
 10
161.3941724460003
 20
234.6743861396309
 30
0.0
 40
0.4999999999999987
100
AcDbArc
 50
90.0
 51
119.6093571710036
  0
LINE
  5
5BB0
330
A
100
AcDbEntity
  8
MODEL
100
AcDbLine
 10
165.7885225454003
 20
235.1743861396309
 30
0.0
 11
161.3941724460003
 21
235.1743861396309
 31
0.0
  0
SPLINE
  5
5BB1
330
A
100
AcDbEntity
  8
MODEL
100
AcDbSpline
210
0.0
220
0.0
230
1.0
 70
     8
 71
     3
 72
    17
 73
    13
 74
     0
 42
0.000000001
 43
0.0000000001
 40
0.0
 40
0.0
 40
0.0
 40
0.0
 40
0.0731685026354046
 40
0.1897289289303987
 40
0.2952479251750086
 40
0.4105761539590128
 40
0.5113827609306971
 40
0.610855846929779
 40
0.7077969050599209
 40
0.813607845169418
 40
0.9181229541627812
 40
1.0
 40
1.0
 40
1.0
 40
1.0
 10
166.7837277083348
 20
234.1372088082655
 30
0.0
 10
166.7819903463369
 20
234.1797461864921
 30
0.0
 10
166.7774446742246
 20
234.2734352348049
 30
0.0
 10
166.7399982577426
 20
234.4299272398244
 30
0.0
 10
166.6758107329283
 20
234.5957774118179
 30
0.0
 10
166.5896645888933
 20
234.7438275013196
 30
0.0
 10
166.4837899902375
 20
234.8736205947558
 30
0.0
 10
166.3664385991823
 20
234.9791151123963
 30
0.0
 10
166.2317168291088
 20
235.0668877494322
 30
0.0
 10
166.0826789042284
 20
235.1310729509831
 30
0.0
 10
165.9282287901034
 20
235.1692041690227
 30
0.0
 10
165.8361880544423
 20
235.171377396631
 30
0.0
 10
165.7885523073039
 20
235.1720048422363
 30
0.0
  0
ARC
  5
5BB2
330
A
100
AcDbEntity
  8
MODEL
100
AcDbCircle
 10
-332.9045193149997
 20
219.5437053882309
 30
0.0
 40
499.9048332765713
100
AcDbArc
 50
358.3300789814
 51
0.0
  0
ARC
  5
5BB3
330
A
100
AcDbEntity
  8
MODEL
100
AcDbCircle
 10
-332.9045193149997
 20
219.5437053882309
 30
0.0
 40
499.9048332765713
100
AcDbArc
 50
0.0
 51
1.669921018600002
  0
SPLINE
  5
5BB4
330
A
100
AcDbEntity
  8
MODEL
100
AcDbSpline
210
0.0
220
0.0
230
1.0
 70
     8
 71
     3
 72
    18
 73
    14
 74
     0
 42
0.000000001
 43
0.0000000001
 40
0.0
 40
0.0
 40
0.0
 40
0.0
 40
0.0757689492202239
 40
0.1719682837915066
 40
0.2680423317925686
 40
0.3661012064068043
 40
0.4624781172815498
 40
0.5622805045607743
 40
0.6626370292939564
 40
0.7668789636446055
 40
0.8729102544541787
 40
0.9826707039989465
 40
1.0
 40
1.0
 40
1.0
 40
1.0
 10
165.7885356503371
 20
203.9156887375451
 30
0.0
 10
165.8333851893696
 20
203.9159944185321
 30
0.0
 10
165.9197680179915
 20
203.9174198843627
 30
0.0
 10
166.0642627903516
 20
203.9511172231016
 30
0.0
 10
166.2089923977544
 20
204.0089902768208
 30
0.0
 10
166.3433108669533
 20
204.0909235990489
 30
0.0
 10
166.4642849463607
 20
204.1938944377611
 30
0.0
 10
166.5689242393768
 20
204.3152913459661
 30
0.0
 10
166.6562665636058
 20
204.4543850314954
 30
0.0
 10
166.7242193870407
 20
204.6083555065518
 30
0.0
 10
166.7681660805507
 20
204.7735574299989
 30
0.0
 10
166.788524858468
 20
204.9025439820685
 30
0.0
 10
166.7866872773374
 20
204.9671190003932
 30
0.0
 10
166.7863774695298
 20
204.9773722035766
 30
0.0
  0
SPLINE
  5
5BB5
330
A
100
AcDbEntity
  8
MODEL
100
AcDbSpline
210
0.0
220
0.0
230
1.0
 70
     8
 71
     3
 72
    53
 73
    49
 74
     0
 42
0.000000001
 43
0.0000000001
 40
0.0301742059000472
 40
0.0301742059000472
 40
0.0301742059000472
 40
0.0301742059000472
 40
0.0325995836135915
 40
0.0434665071031023
 40
0.0603218012885699
 40
0.0805237195762953
 40
0.1018078530162569
 40
0.1235649847734539
 40
0.1456635886644715
 40
0.1680610754839007
 40
0.1907291810767174
 40
0.2136377978551665
 40
0.2367507833722602
 40
0.2600250940458551
 40
0.28341123423774
 40
0.3068544375466177
 40
0.3302874336964574
 40
0.3536653398897323
 40
0.378243715523199
 40
0.4029024169445097
 40
0.427647426755666
 40
0.4523882892530749
 40
0.4770227701909773
 40
0.5014673456188411
 40
0.5256462692639673
 40
0.5494960166805194
 40
0.5729683534952033
 40
0.5960319332589948
 40
0.6186725750644254
 40
0.6408925234022176
 40
0.6626806080485524
 40
0.6836917711994632
 40
0.7045204934689488
 40
0.7253265928130302
 40
0.7460235225883461
 40
0.7665448340446825
 40
0.7868336870995429
 40
0.8068464875322013
 40
0.8267120882673209
 40
0.846959627241985
 40
0.8676212177735061
 40
0.8886952804859426
 40
0.9101665966772413
 40
0.9320052596859864
 40
0.9541663160334006
 40
0.9766206363341743
 40
0.999885354113087
 40
1.0
 40
1.0
 40
1.0
 40
1.0
 10
141.9767723686055
 20
201.1297999714254
 30
0.0
 10
141.9767457395221
 20
201.1297834569936
 30
0.0
 10
141.9780743144057
 20
201.1306073413313
 30
0.0
 10
141.9853948449008
 20
201.1361300314335
 30
0.0
 10
142.0108871970276
 20
201.1525750650896
 30
0.0
 10
142.0606860738477
 20
201.1842393521549
 30
0.0
 10
142.1363775165107
 20
201.2317049177678
 30
0.0
 10
142.2367635606111
 20
201.2938047110834
 30
0.0
 10
142.3613690636109
 20
201.3698322040756
 30
0.0
 10
142.5101089922428
 20
201.4593080731604
 30
0.0
 10
142.6829088760441
 20
201.5617386344632
 30
0.0
 10
142.8795876890149
 20
201.6765458558326
 30
0.0
 10
143.0998126224441
 20
201.8030447772364
 30
0.0
 10
143.3430635752695
 20
201.9404287358193
 30
0.0
 10
143.6086524174802
 20
202.0877903749452
 30
0.0
 10
143.8955523780077
 20
202.2440271302453
 30
0.0
 10
144.2029762458651
 20
202.4082085656221
 30
0.0
 10
144.5346545019868
 20
202.5816299678641
 30
0.0
 10
144.8907527022542
 20
202.7626445786234
 30
0.0
 10
145.2728368731682
 20
202.9503127879773
 30
0.0
 10
145.6745793096011
 20
203.1398432280014
 30
0.0
 10
146.0945812213453
 20
203.3289986509589
 30
0.0
 10
146.5307078122666
 20
203.5152877243372
 30
0.0
 10
146.9806693208897
 20
203.6963006984417
 30
0.0
 10
147.4421833293417
 20
203.8698060387829
 30
0.0
 10
147.9129874211416
 20
204.0337762358161
 30
0.0
 10
148.3909300926199
 20
204.1864305724887
 30
0.0
 10
148.8740458720951
 20
204.3262583565904
 30
0.0
 10
149.3605963923761
 20
204.4520060470731
 30
0.0
 10
149.8489196049169
 20
204.5626506374627
 30
0.0
 10
150.334709715561
 20
204.6567542126236
 30
0.0
 10
150.8184743387339
 20
204.7330099003939
 30
0.0
 10
151.3011618245588
 20
204.7927941708917
 30
0.0
 10
151.7863085161994
 20
204.8365616759017
 30
0.0
 10
152.2724116142908
 20
204.8640329240841
 30
0.0
 10
152.7562552899143
 20
204.8748605641252
 30
0.0
 10
153.2349277780328
 20
204.8689525655942
 30
0.0
 10
153.7070105882193
 20
204.8461345479635
 30
0.0
 10
154.175695353888
 20
204.806507393169
 30
0.0
 10
154.6449837747572
 20
204.750936865744
 30
0.0
 10
155.1177026139982
 20
204.6792605259677
 30
0.0
 10
155.5924111544014
 20
204.5919028949363
 30
0.0
 10
156.0674080740699
 20
204.4894039119177
 30
0.0
 10
156.5399571057029
 20
204.3726190866293
 30
0.0
 10
157.0101186587049
 20
204.2421281886355
 30
0.0
 10
157.4708123999342
 20
204.0991138739901
 30
0.0
 10
157.7916728687395
 20
203.9942174759113
 30
0.0
 10
157.9355709463402
 20
203.94226873132
 30
0.0
 10
157.9363881710853
 20
203.9419736957715
 30
0.0
  0
SPLINE
  5
5BB6
330
A
100
AcDbEntity
  8
MODEL
100
AcDbSpline
210
0.0
220
0.0
230
1.0
 70
     8
 71
     3
 72
    18
 73
    14
 74
     0
 42
0.000000001
 43
0.0000000001
 40
0.0
 40
0.0
 40
0.0
 40
0.0
 40
0.001467557164721
 40
0.0043732179914208
 40
0.0068646834931086
 40
0.0088119624177004
 40
0.01017477933192
 40
0.0110858386131227
 40
0.0121335240153645
 40
0.0139085611184003
 40
0.0172700615112295
 40
0.0225020551415079
 40
0.0350326795403792
 40
0.0350326795403792
 40
0.0350326795403792
 40
0.0350326795403792
 10
141.702778614674
 20
201.0453141491375
 30
0.0
 10
141.7153420880099
 20
201.0450963796461
 30
0.0
 10
141.7472171117458
 20
201.0447020187156
 30
0.0
 10
141.8015357978142
 20
201.0540515354625
 30
0.0
 10
141.8560234548873
 20
201.0692866615618
 30
0.0
 10
141.8974538136729
 20
201.0858900439773
 30
0.0
 10
141.9236870783528
 20
201.098740898673
 30
0.0
 10
141.9375463618258
 20
201.1062125564091
 30
0.0
 10
141.9470771361463
 20
201.1116192941313
 30
0.0
 10
141.9552279081103
 20
201.1164590216391
 30
0.0
 10
141.9620417660057
 20
201.1206563192412
 30
0.0
 10
141.9646576634011
 20
201.1222824921008
 30
0.0
 10
141.970923570481
 20
201.1261727548323
 30
0.0
 10
141.9767723686055
 20
201.1297999714254
 30
0.0
  0
SPLINE
  5
5BB7
330
A
100
AcDbEntity
  8
MODEL
100
AcDbSpline
210
0.0
220
0.0
230
1.0
 70
     8
 71
     3
 72
     8
 73
     4
 74
     0
 42
0.000000001
 43
0.0000000001
 40
0.9955834882704788
 40
0.9955834882704788
 40
0.9955834882704788
 40
0.9955834882704788
 40
1.0
 40
1.0
 40
1.0
 40
1.0
 10
157.848163017408
 20
203.9716157210165
 30
0.0
 10
157.8755838174067
 20
203.9619232402107
 30
0.0
 10
157.9032728509377
 20
203.9520119506649
 30
0.0
 10
157.9345505688467
 20
203.9408002607579
 30
0.0
  0
LINE
  5
5BB8
330
A
100
AcDbEntity
  8
MODEL
100
AcDbLine
 10
158.1009024401003
 20
203.9130246369309
 30
0.0
 11
165.7885225454003
 21
203.9130246369309
 31
0.0
  0
ARC
  5
5BB9
330
A
100
AcDbEntity
  8
MODEL
100
AcDbCircle
 10
158.1009024401003
 20
204.4130246369309
 30
0.0
 40
0.5000000000000024
100
AcDbArc
 50
250.6772932590992
 51
270.0
  0
CIRCLE
  5
5BC0
330
A
100
AcDbEntity
  8
MODEL
100
AcDbCircle
 10
318.7995989495003
 20
219.5437053882309
 30
0.0
 40
18.50000000000001
  0
LINE
  5
5BC2
330
A
100
AcDbEntity
  8
MODEL
100
AcDbLine
 10
269.2945307262913
 20
234.2437053882309
 30
0.0
 11
307.5675020838211
 21
234.2437053882309
 31
0.0
  0
LINE
  5
5BC5
330
A
100
AcDbEntity
  8
MODEL
100
AcDbLine
 10
307.567502083821
 20
204.8437053882309
 30
0.0
 11
269.2945307262913
 21
204.8437053882309
 31
0.0
  0
LINE
  5
5BCB
102
{ACAD_REACTORS
330
5C24
102
}
330
A
100
AcDbEntity
  8
MODEL
100
AcDbLine
 10
269.2945307262913
 20
234.2437053882309
 30
0.0
 11
269.2945307262913
 21
204.8437053882309
 31
0.0
  0
LINE
  5
5BCE
330
A
100
AcDbEntity
  8
MODEL
100
AcDbLine
 10
129.7990785874003
 20
357.2656896551724
 30
0.0
 11
129.7990785874003
 21
386.4194345164724
 31
0.0
  0
ARC
  5
5BCF
330
A
100
AcDbEntity
  8
MODEL
100
AcDbCircle
 10
82.58775972360027
 20
389.3893056528725
 30
0.0
 40
4.211652142786997
100
AcDbArc
 50
335.4265263408997
 51
0.7208057048999164
  0
ARC
  5
5BD0
330
A
100
AcDbEntity
  8
MODEL
100
AcDbCircle
 10
73.53368927240027
 20
394.1640873879724
 30
0.0
 40
14.44285809421971
100
AcDbArc
 50
328.128626534
 51
333.1365232568999
  0
LINE
  5
5BD1
330
A
100
AcDbEntity
  8
MODEL
100
AcDbLine
 10
87.03683584560027
 20
387.1311554909724
 30
0.0
 11
128.7990785874003
 21
387.1311554909724
 31
0.0
  0
LINE
  5
5BD2
330
A
100
AcDbEntity
  8
MODEL
100
AcDbLine
 10
86.79907858740027
 20
389.4422886621724
 30
0.0
 11
86.79907858740027
 21
425.040166844899
 31
0.0
  0
LINE
  5
5BD3
330
A
100
AcDbEntity
  8
MODEL
100
AcDbLine
 10
128.7990785874003
 20
387.1311554909724
 30
0.0
 11
128.7990785874003
 21
425.040166844899
 31
0.0
  0
LINE
  5
5BD4
330
A
100
AcDbEntity
  8
MODEL
100
AcDbLine
 10
129.7990785874003
 20
386.4194345164724
 30
0.0
 11
129.7990785874003
 21
387.1311554909724
 31
0.0
  0
LINE
  5
5BD5
330
A
100
AcDbEntity
  8
MODEL
100
AcDbLine
 10
129.7990785874003
 20
425.040166844899
 30
0.0
 11
129.7990785874003
 21
387.1311554909724
 31
0.0
  0
SPLINE
  5
5BD6
330
A
100
AcDbEntity
  8
MODEL
100
AcDbSpline
210
0.0
220
0.0
230
1.0
 70
     8
 71
     3
 72
    15
 73
    11
 74
     0
 42
0.000000001
 43
0.0000000001
 40
0.0
 40
0.0
 40
0.0
 40
0.0
 40
0.1419784173241457
 40
0.2687347068475898
 40
0.3780763578489616
 40
0.5243450936556201
 40
0.6786582320847859
 40
0.7729873504456045
 40
0.8825839047321842
 40
1.0
 40
1.0
 40
1.0
 40
1.0
 10
129.5990785874388
 20
386.5380546789189
 30
0.0
 10
129.5945696791474
 20
386.583965013035
 30
0.0
 10
129.5860352823655
 20
386.6708634333197
 30
0.0
 10
129.4846297288773
 20
386.7776141548717
 30
0.0
 10
129.3490333113655
 20
386.8305151569209
 30
0.0
 10
129.1961461313117
 20
386.8590243168266
 30
0.0
 10
129.0484817868617
 20
386.8832569524126
 30
0.0
 10
128.9164226375189
 20
386.9145484167585
 30
0.0
 10
128.812899239571
 20
386.9962601159258
 30
0.0
 10
128.8037900612395
 20
387.0851695259898
 30
0.0
 10
128.7990785874388
 20
387.1311554910132
 30
0.0
  0
ARC
  5
5BD7
330
A
100
AcDbEntity
  8
MODEL
100
AcDbCircle
 10
-582.6556096737997
 20
361.4506263363724
 30
0.0
 40
666.4258644513478
100
AcDbArc
 50
359.6626063565
 51
0.0537889158999997
  0
SPLINE
  5
5BD8
330
A
100
AcDbEntity
  8
MODEL
100
AcDbSpline
210
0.0
220
0.0
230
1.0
 70
     8
 71
     3
 72
    16
 73
    12
 74
     0
 42
0.000000001
 43
0.0000000001
 40
0.0
 40
0.0
 40
0.0
 40
0.0
 40
0.25
 40
0.25
 40
0.5
 40
0.5
 40
0.7500000000000001
 40
0.7500000000000001
 40
0.8750000000000001
 40
0.8750000000000001
 40
1.0
 40
1.0
 40
1.0
 40
1.0
 10
83.77112076278722
 20
363.5895281216829
 30
0.0
 10
83.77209870884708
 20
365.1927594081205
 30
0.0
 10
83.77270272710639
 20
367.0762489244388
 30
0.0
 10
83.77377564541693
 20
371.0787567688732
 30
0.0
 10
83.77393759562858
 20
373.2403288376663
 30
0.0
 10
83.77397369644859
 20
377.5850532727238
 30
0.0
 10
83.77385724449621
 20
379.7387522258295
 30
0.0
 10
83.77304585396645
 20
382.7676122912608
 30
0.0
 10
83.77276022119023
 20
383.7584710754804
 30
0.0
 10
83.77216375671308
 20
385.613984300862
 30
0.0
 10
83.77169876692838
 20
386.486815797404
 30
0.0
 10
83.77124199948713
 20
387.3045226535861
 30
0.0
  0
ARC
  5
5BD9
330
A
100
AcDbEntity
  8
MODEL
100
AcDbCircle
 10
-625.8593189189997
 20
389.5166841820724
 30
0.0
 40
709.6297964923209
100
AcDbArc
 50
359.945693501
 51
0.3300992888000003
  0
LINE
  5
5BDA
330
A
100
AcDbEntity
  8
MODEL
100
AcDbLine
 10
83.77056796510027
 20
362.8169501752724
 30
0.0
 11
83.77112076280027
 21
363.5895281216724
 31
0.0
  0
LINE
  5
5BDB
330
A
100
AcDbEntity
  8
MODEL
100
AcDbLine
 10
83.76996158210027
 20
362.0762584869724
 30
0.0
 11
83.77056796510027
 21
362.8169501752724
 31
0.0
  0
LINE
  5
5BDC
330
A
100
AcDbEntity
  8
MODEL
100
AcDbLine
 10
83.77057639480027
 20
388.3234880736724
 30
0.0
 11
83.77015881600028
 21
388.8440778502724
 31
0.0
  0
LINE
  5
5BDD
330
A
100
AcDbEntity
  8
MODEL
100
AcDbLine
 10
83.77124199950026
 20
387.3045226535724
 30
0.0
 11
83.77057639480027
 21
388.3234880736724
 31
0.0
  0
LINE
  5
5BDE
330
A
100
AcDbEntity
  8
MODEL
100
AcDbLine
 10
84.25720341810027
 20
357.0656896551724
 30
0.0
 11
129.5990785874003
 21
357.0656896551724
 31
0.0
  0
LINE
  5
5BDF
330
A
100
AcDbEntity
  8
MODEL
100
AcDbLine
 10
85.79907858740027
 20
394.0656896551724
 30
0.0
 11
84.25726903110026
 21
394.0656896551724
 31
0.0
  0
ARC
  5
5BE0
330
A
100
AcDbEntity
  8
MODEL
100
AcDbCircle
 10
85.79907858740027
 20
395.0656896551724
 30
0.0
 40
1.000000000000001
100
AcDbArc
 50
270.0
 51
0.0
  0
ARC
  5
5BE1
330
A
100
AcDbEntity
  8
MODEL
100
AcDbCircle
 10
129.5990785874003
 20
357.2656896551724
 30
0.0
 40
0.2000000000000057
100
AcDbArc
 50
270.0
 51
0.0
  0
SPLINE
  5
5BE2
330
A
100
AcDbEntity
  8
MODEL
100
AcDbSpline
210
0.0
220
0.0
230
1.0
 70
     8
 71
     3
 72
    17
 73
    13
 74
     0
 42
0.000000001
 43
0.0000000001
 40
0.0
 40
0.0
 40
0.0
 40
0.0
 40
0.0923995570901628
 40
0.1940245820022854
 40
0.2956129954351266
 40
0.3971838413036718
 40
0.4987472578688421
 40
0.6003105861972019
 40
0.7018811513740982
 40
0.8034689189964158
 40
0.9050924944837666
 40
0.997593527483666
 40
0.997593527483666
 40
0.997593527483666
 40
0.997593527483666
 10
83.76754290919037
 20
393.59936150259
 30
0.0
 10
83.69117692699861
 20
392.3792482494783
 30
0.0
 10
83.55714127948832
 20
390.2175695465334
 30
0.0
 10
83.44236917669323
 20
386.5906842393276
 30
0.0
 10
83.3592203245029
 20
382.9458442350355
 30
0.0
 10
83.31343037286526
 20
379.2756240157609
 30
0.0
 10
83.29791328420026
 20
375.6118385667136
 30
0.0
 10
83.31264184496223
 20
371.9480301687491
 30
0.0
 10
83.35774842942699
 20
368.277882053657
 30
0.0
 10
83.43963550605298
 20
364.6327963724402
 30
0.0
 10
83.55396118600197
 20
361.0055622426675
 30
0.0
 10
83.68459963161266
 20
358.8407039565559
 30
0.0
 10
83.75891537728474
 20
357.6287012735653
 30
0.0
  0
ARC
  5
5BE3
330
A
100
AcDbEntity
  8
MODEL
100
AcDbCircle
 10
84.25714799560026
 20
357.5657580450724
 30
0.0
 40
0.5000000183183835
100
AcDbArc
 50
179.2914296582998
 51
269.8333188122003
  0
ARC
  5
5BE4
330
A
100
AcDbEntity
  8
MODEL
100
AcDbCircle
 10
84.24301274640027
 20
393.5714384328724
 30
0.0
 40
0.4832909080292646
100
AcDbArc
 50
88.3179518053996
 51
169.1040107819955
  0
LINE
  5
5BE5
330
A
100
AcDbEntity
  8
MODEL
100
AcDbLine
 10
129.9990785874003
 20
392.8156896551724
 30
0.0
 11
129.7990785874003
 21
392.8156896551724
 31
0.0
  0
LINE
  5
5BE6
330
A
100
AcDbEntity
  8
MODEL
100
AcDbLine
 10
129.7990785874003
 20
358.3156896551724
 30
0.0
 11
129.9990785874003
 21
358.3156896551724
 31
0.0
  0
LINE
  5
5BE7
330
A
100
AcDbEntity
  8
MODEL
100
AcDbLine
 10
129.9990785874003
 20
357.2656896551724
 30
0.0
 11
129.9990785874003
 21
393.8656896551724
 31
0.0
  0
LINE
  5
5BE8
330
A
100
AcDbEntity
  8
MODEL
100
AcDbLine
 10
161.3941724460003
 20
366.3156896551724
 30
0.0
 11
165.7885225454003
 21
366.3156896551724
 31
0.0
  0
LINE
  5
5BE9
330
A
100
AcDbEntity
  8
MODEL
100
AcDbLine
 10
165.7885225454003
 20
366.3156896551724
 30
0.0
 11
166.2882149721003
 21
366.3156896551724
 31
0.0
  0
LINE
  5
5BEA
330
A
100
AcDbEntity
  8
MODEL
100
AcDbLine
 10
166.2882149721003
 20
366.3156896551724
 30
0.0
 11
166.5003139616003
 21
366.3156896551724
 31
0.0
  0
LINE
  5
5BEB
330
A
100
AcDbEntity
  8
MODEL
100
AcDbLine
 10
165.7885225454003
 20
384.8156896551724
 30
0.0
 11
161.3941724460003
 21
384.8156896551724
 31
0.0
  0
LINE
  5
5BEC
330
A
100
AcDbEntity
  8
MODEL
100
AcDbLine
 10
166.2882149721003
 20
384.8156896551724
 30
0.0
 11
165.7885225454003
 21
384.8156896551724
 31
0.0
  0
LINE
  5
5BED
330
A
100
AcDbEntity
  8
MODEL
100
AcDbLine
 10
166.2882149721003
 20
384.8156896551724
 30
0.0
 11
166.5003139616003
 21
384.8156896551724
 31
0.0
  0
ARC
  5
5BEE
330
A
100
AcDbEntity
  8
MODEL
100
AcDbCircle
 10
152.7954806850003
 20
375.5656896551724
 30
0.0
 40
12.5
100
AcDbArc
 50
48.59037789069993
 51
311.4096221093001
  0
ARC
  5
5BEF
330
A
100
AcDbEntity
  8
MODEL
100
AcDbCircle
 10
161.3941724460003
 20
385.3156896551724
 30
0.0
 40
0.5000000000000004
100
AcDbArc
 50
228.590377890707
 51
270.0
  0
ARC
  5
5BF0
330
A
100
AcDbEntity
  8
MODEL
100
AcDbCircle
 10
161.3941724460003
 20
365.8156896551724
 30
0.0
 40
0.5000000000000004
100
AcDbArc
 50
90.0
 51
131.4096221093022
  0
ARC
  5
5BF1
330
A
100
AcDbEntity
  8
MODEL
100
AcDbCircle
 10
130.1990785874003
 20
393.8656896551724
 30
0.0
 40
0.1999999999999953
100
AcDbArc
 50
90.0
 51
180.0
  0
ARC
  5
5BF2
330
A
100
AcDbEntity
  8
MODEL
100
AcDbCircle
 10
130.1990785874003
 20
357.2656896551724
 30
0.0
 40
0.2000000000000023
100
AcDbArc
 50
180.0
 51
270.0
  0
ARC
  5
5BF3
330
A
100
AcDbEntity
  8
MODEL
100
AcDbCircle
 10
165.7885225454003
 20
358.0656896551724
 30
0.0
 40
1.000000000000001
100
AcDbArc
 50
270.0
 51
357.9902168543986
  0
ARC
  5
5BF4
330
A
100
AcDbEntity
  8
MODEL
100
AcDbCircle
 10
-332.9045193149997
 20
375.5656896551724
 30
0.0
 40
500.0
100
AcDbArc
 50
357.9902168544
 51
358.8815428815
  0
LINE
  5
5BF5
330
A
100
AcDbEntity
  8
MODEL
100
AcDbLine
 10
165.7885225454003
 20
394.0656896551724
 30
0.0
 11
130.1990785874003
 21
394.0656896551724
 31
0.0
  0
LINE
  5
5BF6
102
{ACAD_REACTORS
330
5C9C
102
}
330
A
100
AcDbEntity
  8
MODEL
100
AcDbLine
 10
130.1990785874003
 20
357.0656896551724
 30
0.0
 11
165.7885225454003
 21
357.0656896551724
 31
0.0
  0
ARC
  5
5BF7
330
A
100
AcDbEntity
  8
MODEL
100
AcDbCircle
 10
165.7885225454003
 20
393.0656896551724
 30
0.0
 40
1.00000000000005
100
AcDbArc
 50
2.009783145598063
 51
90.0
  0
ARC
  5
5BF8
330
A
100
AcDbEntity
  8
MODEL
100
AcDbCircle
 10
-332.9045193149997
 20
375.5656896551724
 30
0.0
 40
500.0
100
AcDbArc
 50
1.118457118500001
 51
2.0097831456
  0
ARC
  5
5BF9
330
A
100
AcDbEntity
  8
MODEL
100
AcDbCircle
 10
166.5003139616003
 20
385.3156896551724
 30
0.0
 40
0.5000000000000004
100
AcDbArc
 50
270.0
 51
1.118457118493594
  0
ARC
  5
5BFA
330
A
100
AcDbEntity
  8
MODEL
100
AcDbCircle
 10
166.5003139616003
 20
365.8156896551724
 30
0.0
 40
0.5000000000000312
100
AcDbArc
 50
358.8815428814933
 51
90.0
  0
LINE
  5
5BFB
330
A
100
AcDbEntity
  8
MODEL
100
AcDbLine
 10
164.1668522479003
 20
384.5656896551724
 30
0.0
 11
164.3047324091003
 21
384.5656896551724
 31
0.0
  0
LINE
  5
5BFC
330
A
100
AcDbEntity
  8
MODEL
100
AcDbLine
 10
159.9052568573003
 20
384.5656896551724
 30
0.0
 11
157.5763769327003
 21
384.5656896551724
 31
0.0
  0
LINE
  5
5BFD
330
A
100
AcDbEntity
  8
MODEL
100
AcDbLine
 10
164.1668522479003
 20
384.5656896551724
 30
0.0
 11
159.9052568573003
 21
384.5656896551724
 31
0.0
  0
SPLINE
  5
5BFE
102
{ACAD_REACTORS
330
5CCC
102
}
330
A
100
AcDbEntity
  8
MODEL
100
AcDbSpline
210
0.0
220
0.0
230
1.0
 70
     8
 71
     3
 72
    30
 73
    26
 74
     0
 42
0.000000001
 43
0.0000000001
 40
0.0
 40
0.0
 40
0.0
 40
0.0
 40
0.1250000000000006
 40
0.1250000000000006
 40
0.1875000000000006
 40
0.1875000000000006
 40
0.2500000000000007
 40
0.2500000000000007
 40
0.3750000000000007
 40
0.3750000000000007
 40
0.4375000000000006
 40
0.4375000000000006
 40
0.5000000000000006
 40
0.5000000000000006
 40
0.6250000000000004
 40
0.6250000000000004
 40
0.7500000000000003
 40
0.7500000000000003
 40
0.8125000000000002
 40
0.8125000000000002
 40
0.8750000000000002
 40
0.8750000000000002
 40
0.9375000000000001
 40
0.9375000000000001
 40
1.0
 40
1.0
 40
1.0
 40
1.0
 10
157.3511824700339
 20
366.5113382733849
 30
0.0
 10
155.8653969847117
 20
365.722453983129
 30
0.0
 10
154.1148339467085
 20
365.2911477366297
 30
0.0
 10
151.4107089283181
 20
365.4232700453049
 30
0.0
 10
150.542793684099
 20
365.5923819111529
 30
0.0
 10
148.913408850844
 20
366.1333194328651
 30
0.0
 10
148.1703764138122
 20
366.4955090605952
 30
0.0
 10
146.0928236620035
 20
367.8373198442152
 30
0.0
 10
144.9469887685649
 20
369.0546427949662
 30
0.0
 10
143.7153233108415
 20
371.2578229242749
 30
0.0
 10
143.3825187903201
 20
372.0705879539909
 30
0.0
 10
142.9349306785569
 20
373.7605910599746
 30
0.0
 10
142.8159787175684
 20
374.639641182401
 30
0.0
 10
142.8096597225091
 20
377.3452166253975
 30
0.0
 10
143.2849938139321
 20
379.0934937191055
 30
0.0
 10
144.9374839301989
 20
382.069851371665
 30
0.0
 10
146.0860880906842
 20
383.2847948391209
 30
0.0
 10
148.1421815515985
 20
384.6200613671564
 30
0.0
 10
148.8988376311478
 20
384.9914626737967
 30
0.0
 10
150.5214892009979
 20
385.5336458016365
 30
0.0
 10
151.4016854414658
 20
385.7056265943913
 30
0.0
 10
153.1788482983255
 20
385.7964920102875
 30
0.0
 10
154.0872191137909
 20
385.7149835769224
 30
0.0
 10
155.7971276148778
 20
385.3230778255621
 30
0.0
 10
156.6060928732141
 20
385.0156496113948
 30
0.0
 10
157.3511824700339
 20
384.6200410369599
 30
0.0
  0
LINE
  5
5BFF
330
A
100
AcDbEntity
  8
MODEL
100
AcDbLine
 10
164.1668522479003
 20
366.5656896551724
 30
0.0
 11
164.3047324091003
 21
366.5656896551724
 31
0.0
  0
LINE
  5
5C00
330
A
100
AcDbEntity
  8
MODEL
100
AcDbLine
 10
157.5763769327003
 20
366.5656896551724
 30
0.0
 11
159.9052568573003
 21
366.5656896551724
 31
0.0
  0
LINE
  5
5C01
330
A
100
AcDbEntity
  8
MODEL
100
AcDbLine
 10
159.9052568573003
 20
366.5656896551724
 30
0.0
 11
164.1668522479003
 21
366.5656896551724
 31
0.0
  0
ELLIPSE
  5
5C02
330
A
100
AcDbEntity
  8
MODEL
100
AcDbEllipse
 10
157.5763769327003
 20
366.0656896551724
 30
0.0
 11
0.2340571128615423
 21
-0.4418339823043514
 31
0.0
210
0.0
220
0.0
230
1.0
 40
0.3449627981
 41
3.085805096987087
 42
3.141592653589793
  0
ELLIPSE
  5
5C03
330
A
100
AcDbEntity
  8
MODEL
100
AcDbEllipse
 10
157.5763769327003
 20
385.0656896551724
 30
0.0
 11
0.2340571128615285
 21
0.4418339823043516
 31
0.0
210
0.0
220
0.0
230
1.0
 40
0.3449627981
 41
3.141592653589781
 42
3.197380210192686
  0
SPLINE
  5
5C04
330
A
100
AcDbEntity
  8
MODEL
100
AcDbSpline
210
0.0
220
0.0
230
1.0
 70
    11
 71
     3
 72
    22
 73
    18
 74
     0
 42
0.000000001
 43
0.0000000001
 40
0.0
 40
0.0
 40
0.0
 40
0.0
 40
0.125
 40
0.125
 40
0.2500000000000001
 40
0.2500000000000001
 40
0.375
 40
0.375
 40
0.5
 40
0.5
 40
0.625
 40
0.625
 40
0.75
 40
0.75
 40
0.8750000000000001
 40
0.8750000000000001
 40
1.0
 40
1.0
 40
1.0
 40
1.0
 10
142.1518104657035
 20
374.326483305102
 30
0.0
 10
142.1726468768239
 20
373.9995217360267
 30
0.0
 10
142.1824941980645
 20
373.8143259605858
 30
0.0
 10
142.1334985335613
 20
373.8170691151249
 30
0.0
 10
142.0750340721311
 20
374.0069260401325
 30
0.0
 10
141.9671211705519
 20
374.6501903957843
 30
0.0
 10
141.9233534479175
 20
375.1014993193916
 30
0.0
 10
141.9232685967019
 20
376.0283803814738
 30
0.0
 10
141.9670569378431
 20
376.4805382526113
 30
0.0
 10
142.0748389545012
 20
377.1235573121038
 30
0.0
 10
142.1333589093378
 20
377.3139489993409
 30
0.0
 10
142.1824874639632
 20
377.3174052989378
 30
0.0
 10
142.1726330942945
 20
377.1316109961752
 30
0.0
 10
142.1310762568926
 20
376.4795684184983
 30
0.0
 10
142.1067754552165
 20
376.0242988733069
 30
0.0
 10
142.1067010794111
 20
375.1096302321148
 30
0.0
 10
142.1309740545831
 20
374.6534448741773
 30
0.0
 10
142.1518104657035
 20
374.326483305102
 30
0.0
  0
ARC
  5
5C05
330
A
100
AcDbEntity
  8
MODEL
100
AcDbCircle
 10
164.3047324091003
 20
385.0656896551724
 30
0.0
 40
0.5000000000000004
100
AcDbArc
 50
270.0
 51
329.316847013093
  0
ARC
  5
5C06
330
A
100
AcDbEntity
  8
MODEL
100
AcDbCircle
 10
164.3047324091003
 20
366.0656896551724
 30
0.0
 40
0.4999999999999434
100
AcDbArc
 50
30.56425897399834
 51
90.0
  0
ARC
  5
5C07
330
A
100
AcDbEntity
  8
MODEL
100
AcDbCircle
 10
157.5763769327003
 20
366.0656896551724
 30
0.0
 40
0.5000000000000004
100
AcDbArc
 50
90.0
 51
117.9119563172993
  0
ARC
  5
5C08
330
A
100
AcDbEntity
  8
MODEL
100
AcDbCircle
 10
157.5763769327003
 20
385.0656896551724
 30
0.0
 40
0.4999999999999992
100
AcDbArc
 50
242.0880436827037
 51
270.0
  0
LINE
  5
5C0B
102
{ACAD_REACTORS
330
5CCC
102
}
330
A
100
AcDbEntity
  8
MODEL
100
AcDbLine
 10
86.79907858740027
 20
425.040166844899
 30
0.0
 11
129.7990785874003
 21
425.040166844899
 31
0.0
  0
DIMENSION
  5
5C10
330
A
100
AcDbEntity
  8
DIM
 48
0.05
100
AcDbDimension
  2
*D6
 10
120.2990785874003
 20
439.6321138897117
 30
0.0
 11
107.7990785874003
 21
447.1321138897117
 31
0.0
 70
    32
 71
     5
 42
25.00000000000004
 73
     0
 74
     0
 75
     0
  3
tfrom線あり
100
AcDbAlignedDimension
 13
95.29907858740026
 23
427.1350343170573
 33
0.0
 14
120.2990785874003
 24
427.1350343170573
 34
0.0
100
AcDbRotatedDimension
1001
ACAD
1000
DSTYLE
1002
{
1070
   271
1070
     0
1002
}
  0
DIMENSION
  5
5C22
102
{ACAD_REACTORS
330
5C24
102
}
102
{ACAD_XDICTIONARY
360
5C23
102
}
330
A
100
AcDbEntity
  8
DIM
 48
0.05
100
AcDbDimension
  2
*D7
 10
248.9276166551535
 20
204.8437053882309
 30
0.0
 11
241.4276166551535
 21
219.5437053882309
 31
0.0
 70
    32
 71
     5
 42
29.40000000000001
 73
     0
 74
     0
 75
     0
  3
tfrom線あり
100
AcDbAlignedDimension
 13
269.2945307262913
 23
234.2437053882309
 33
0.0
 14
269.2945307262913
 24
204.8437053882309
 34
0.0
 50
90.0
100
AcDbRotatedDimension
  0
DIMENSION
  5
5C31
330
A
100
AcDbEntity
  8
DIM
 48
0.05
100
AcDbDimension
  2
*D8
 10
167.0286725877675
 20
330.5752401643696
 30
0.0
 11
125.0286725877675
 21
338.0752401643696
 31
0.0
 70
    32
 71
     5
 42
83.99999999999999
 73
     0
 74
     0
 75
     0
  3
tfrom線あり
100
AcDbAlignedDimension
 13
83.02867258776747
 23
357.6287012735653
 33
0.0
 14
167.0286725877675
 24
357.6287012735653
 34
0.0
100
AcDbRotatedDimension
  0
DIMENSION
  5
5C44
330
A
100
AcDbEntity
  8
DIM
 48
0.05
100
AcDbDimension
  2
*D9
 10
129.7990785874003
 20
454.5252424288109
 30
0.0
 11
108.2990785874003
 21
462.0252424288109
 31
0.0
 70
    32
 71
     5
 42
42.99999999999999
 73
     0
 74
     0
 75
     0
  3
tfrom線あり
100
AcDbAlignedDimension
 13
86.79907858740027
 23
426.0625067502231
 33
0.0
 14
129.7990785874003
 24
426.0625067502231
 34
0.0
100
AcDbRotatedDimension
  0
DIMENSION
  5
5C9A
102
{ACAD_REACTORS
330
5C9C
102
}
102
{ACAD_XDICTIONARY
360
5C9B
102
}
330
A
100
AcDbEntity
  8
DIM
 48
0.05
100
AcDbDimension
  2
*D10
 10
204.8533603851212
 20
425.040166844899
 30
0.0
 11
204.8533603851212
 21
391.0529282500357
 31
0.0
 70
   160
 71
     5
 42
67.97447718972654
 73
     0
 74
     0
 75
     0
  3
tfrom線あり
100
AcDbAlignedDimension
 13
164.9205197043374
 23
357.0656896551724
 33
0.0
 14
131.2879623448451
 24
425.040166844899
 34
0.0
 50
90.0
100
AcDbRotatedDimension
  0
DIMENSION
  5
5CCA
102
{ACAD_REACTORS
330
5CCC
102
}
102
{ACAD_XDICTIONARY
360
5CCB
102
}
330
A
100
AcDbEntity
  8
DIM
 48
0.05
100
AcDbDimension
  2
*D11
 10
181.8164823845694
 20
375.5414996633998
 30
0.0
 11
174.3164823845694
 21
400.2908332541494
 31
0.0
 70
    32
 71
     5
 42
49.49866718149917
 73
     0
 74
     0
 75
     0
  3
tfrom線あり
100
AcDbAlignedDimension
 13
129.7990785874003
 23
425.040166844899
 33
0.0
 14
142.813872385882
 24
375.5414996633998
 34
0.0
 50
90.0
100
AcDbRotatedDimension
  0
LINE
  5
5D2C
330
A
100
AcDbEntity
  8
DIM
  6
CENTER
 48
0.005
100
AcDbLine
 10
120.2990785874003
 20
428.0050236583538
 30
0.0
 11
120.2990785874003
 21
410.8341255883462
 31
0.0
  0
LINE
  5
5D2E
330
A
100
AcDbEntity
  8
DIM
  6
CENTER
 48
0.005
100
AcDbLine
 10
95.29907858740027
 20
428.0050236583538
 30
0.0
 11
95.29907858740027
 21
410.8341255883462
 31
0.0
  0
LINE
  5
5D3B
330
A
100
AcDbEntity
  8
DIM
  6
CENTER
 48
0.005
100
AcDbLine
 10
260.7090816912876
 20
219.5437053882309
 30
0.0
 11
277.8799797612951
 21
219.5437053882308
 31
0.0
  0
VIEWPORT
  5
349
330
B
100
AcDbEntity
 67
     1
  8
0
100
AcDbViewport
 10
202.5
 20
128.5
 30
0.0
 40
486.0
 41
308.4
 68
     1
 69
     1
 12
202.5
 22
128.5
 13
0.0
 23
0.0
 14
0.5
 24
0.5
 15
0.0
 25
0.0
 16
0.0
 26
0.0
 36
1.0
 17
0.0
 27
0.0
 37
0.0
 42
50.0
 43
0.0
 44
0.0
 45
308.4
 50
0.0
 51
0.0
 72
   100
 90
   557152
  1

281
     0
 71
     1
 74
     0
110
0.0
120
0.0
130
0.0
111
1.0
121
0.0
131
0.0
112
0.0
122
1.0
132
0.0
 79
     0
146
0.0
170
     0
 61
     5
348
26C
292
     1
282
     1
141
0.0
142
0.0
 63
   256
  0
VIEWPORT
  5
34A
330
B
100
AcDbEntity
 67
     1
  8
0
100
AcDbViewport
 10
202.5
 20
128.5
 30
0.0
 40
324.0
 41
205.6
 68
     2
 69
     2
 12
986.6781359294573
 22
1427.077061889956
 13
0.0
 23
0.0
 14
0.5
 24
0.5
 15
0.0
 25
0.0
 16
0.0
 26
0.0
 36
1.0
 17
0.0
 27
0.0
 37
0.0
 42
50.0
 43
0.0
 44
0.0
 45
2890.021615685494
 50
0.0
 51
0.0
 72
   100
 90
   557152
  1

281
     0
 71
     1
 74
     0
110
0.0
120
0.0
130
0.0
111
1.0
121
0.0
131
0.0
112
0.0
122
1.0
132
0.0
 79
     0
146
0.0
170
     0
 61
     5
348
26C
292
     1
282
     1
141
0.0
142
0.0
 63
   256
  0
ENDSEC
  0
SECTION
  2
OBJECTS
  0
DICTIONARY
  5
19
330
0
100
AcDbDictionary
281
     1
  3
ACAD_COLOR
350
674
  3
ACAD_DETAILVIEWSTYLE
350
BBF
  3
ACAD_FIELDLIST
350
44C1
  3
ACAD_GROUP
350
1A
  3
ACAD_IMAGE_VARS
350
27B
  3
ACAD_LAYOUT
350
1E
  3
ACAD_MATERIAL
350
263
  3
ACAD_MLEADERSTYLE
350
336
  3
ACAD_MLINESTYLE
350
1B
  3
ACAD_PLOTSETTINGS
350
22
  3
ACAD_PLOTSTYLENAME
350
1F
  3
ACAD_SCALELIST
350
241
  3
ACAD_SECTIONVIEWSTYLE
350
BC0
  3
ACAD_TABLESTYLE
350
278
  3
ACAD_VISUALSTYLE
350
267
  3
ACDB_RECOMPOSE_DATA
350
5D50
  3
AcDbVariableDictionary
350
330
  3
APPDATA
350
27A
  3
DimOffsetDictionary
350
E38
  0
SUN
  5
904
330
15
100
AcDbSun
 90
        1
290
     0
 63
     7
421
 16777215
 40
1.0
291
     1
 91
  2455826
 92
 54000000
292
     0
 70
     2
 71
   256
280
     1
  0
DICTIONARY
  5
2E1
330
2
100
AcDbDictionary
280
     1
281
     1
  3
ACAD_LAYERSTATES
360
2E2
  3
ACLYDICTIONARY
360
DDE
  0
DICTIONARY
  5
4532
330
4530
100
AcDbDictionary
280
     1
281
     1
  3
ACAD_FIELD
360
4539
  0
DICTIONARY
  5
5C23
330
5C22
100
AcDbDictionary
280
     1
281
     1
  3
ACAD_DIMASSOC
360
5C24
  0
DICTIONARY
  5
5C9B
330
5C9A
100
AcDbDictionary
280
     1
281
     1
  3
ACAD_DIMASSOC
360
5C9C
  0
DICTIONARY
  5
5CCB
330
5CCA
100
AcDbDictionary
280
     1
281
     1
  3
ACAD_DIMASSOC
360
5CCC
  0
DICTIONARY
  5
674
102
{ACAD_REACTORS
330
19
102
}
330
19
100
AcDbDictionary
281
     1
  0
DICTIONARY
  5
BBF
102
{ACAD_REACTORS
330
19
102
}
330
19
100
AcDbDictionary
281
     1
  0
FIELDLIST
  5
44C1
102
{ACAD_REACTORS
330
19
102
}
330
19
100
AcDbIdSet
 90
        2
330
4534
330
4531
100
AcDbFieldList
  0
DICTIONARY
  5
1A
102
{ACAD_REACTORS
330
19
102
}
330
19
100
AcDbDictionary
281
     1
  0
RASTERVARIABLES
  5
27B
102
{ACAD_REACTORS
330
19
102
}
330
19
100
AcDbRasterVariables
 90
        0
 70
     1
 71
     1
 72
     1
  0
DICTIONARY
  5
1E
102
{ACAD_REACTORS
330
19
102
}
330
19
100
AcDbDictionary
281
     1
  3
Layout1
350
21
  3
Model
350
20
  0
DICTIONARY
  5
263
102
{ACAD_REACTORS
330
19
102
}
330
19
100
AcDbDictionary
281
     1
  3
ByBlock
350
5D04
  3
ByLayer
350
264
  3
Global
350
266
  0
DICTIONARY
  5
336
102
{ACAD_REACTORS
330
19
102
}
330
19
100
AcDbDictionary
281
     1
  3
Standard
350
D59
  0
DICTIONARY
  5
1B
102
{ACAD_REACTORS
330
19
102
}
330
19
100
AcDbDictionary
281
     1
  3
Standard
350
1C
  0
DICTIONARY
  5
22
102
{ACAD_REACTORS
330
19
102
}
330
19
100
AcDbDictionary
281
     1
  0
ACDBDICTIONARYWDFLT
  5
1F
102
{ACAD_REACTORS
330
19
102
}
330
19
100
AcDbDictionary
281
     1
  3
Normal
350
1D
100
AcDbDictionaryWithDefault
340
1D
  0
DICTIONARY
  5
241
102
{ACAD_REACTORS
330
19
102
}
330
19
100
AcDbDictionary
281
     1
  3
A0
350
242
  3
A1
350
243
  3
A2
350
244
  3
A3
350
245
  3
A4
350
246
  3
A5
350
247
  3
A6
350
248
  3
A7
350
249
  3
A8
350
24A
  3
A9
350
24B
  3
B0
350
24C
  3
B1
350
24D
  3
B2
350
24E
  3
B3
350
24F
  3
B4
350
250
  3
B5
350
251
  3
B6
350
252
  3
B7
350
253
  3
B8
350
254
  3
B9
350
255
  3
C0
350
256
  3
C1
350
257
  3
C2
350
258
  3
C3
350
259
  3
C4
350
25A
  3
C5
350
25B
  3
C6
350
25C
  3
C7
350
25D
  3
C8
350
25E
  3
C9
350
25F
  3
D0
350
260
  3
D1
350
261
  3
D2
350
262
  0
DICTIONARY
  5
BC0
102
{ACAD_REACTORS
330
19
102
}
330
19
100
AcDbDictionary
281
     1
  0
DICTIONARY
  5
278
102
{ACAD_REACTORS
330
19
102
}
330
19
100
AcDbDictionary
281
     1
  3
Standard
350
279
  0
DICTIONARY
  5
267
102
{ACAD_REACTORS
330
19
102
}
330
19
100
AcDbDictionary
281
     1
  3
2dWireframe
350
26C
  3
3D Hidden
350
26E
  3
3dWireframe
350
26D
  3
Basic
350
26F
  3
Brighten
350
273
  3
ColorChange
350
277
  3
Conceptual
350
271
  3
Dim
350
272
  3
EdgeColorOff
350
8FE
  3
Facepattern
350
276
  3
Flat
350
268
  3
FlatWithEdges
350
269
  3
Gouraud
350
26A
  3
GouraudWithEdges
350
26B
  3
Hidden
350
8FB
  3
JitterOff
350
8FC
  3
Linepattern
350
275
  3
OverhangOff
350
8FD
  3
Realistic
350
270
  3
Shaded
350
903
  3
Shaded with edges
350
902
  3
Shades of Gray
350
8FF
  3
Sketchy
350
900
  3
Thicken
350
274
  3
Wireframe
350
8FA
  3
X-Ray
350
901
  0
XRECORD
  5
5D50
102
{ACAD_REACTORS
330
19
102
}
330
19
100
AcDbXrecord
280
     1
 90
        1
330
279
  0
DICTIONARY
  5
330
102
{ACAD_REACTORS
330
19
102
}
330
19
100
AcDbDictionary
281
     1
  3
CANNOSCALE
350
331
  3
CMLEADERSTYLE
350
D5E
  3
CTABLESTYLE
350
335
  3
HPTRANSPARENCY
350
D52
  3
XCLIPFRAME
350
896
  0
DICTIONARY
  5
27A
102
{ACAD_REACTORS
330
19
102
}
330
19
100
AcDbDictionary
281
     1
  0
DICTIONARY
  5
E38
102
{ACAD_REACTORS
330
19
102
}
330
19
100
AcDbDictionary
281
     1
  3
DIMRAILANGLE
350
38B2
  3
DIMRAILFIRSTOFFSET
350
38B0
  3
DIMRAILOFFSET
350
38B1
  3
DIMRAILSENABLED
350
38B3
  0
DICTIONARY
  5
2E2
102
{ACAD_REACTORS
330
2E1
102
}
330
2E1
100
AcDbDictionary
281
     1
  3
ARGON_LAYERP_9
350
7AA
  0
DICTIONARY
  5
DDE
102
{ACAD_REACTORS
330
2E1
102
}
330
2E1
100
AcDbDictionary
281
     1
1001
ACAD
1000
<All
  0
DICTIONARY
  5
4539
102
{ACAD_REACTORS
330
4532
102
}
330
4532
100
AcDbDictionary
280
     1
281
     1
  3
TEXT
360
4531
  0
DIMASSOC
  5
5C24
102
{ACAD_REACTORS
330
5C23
102
}
330
5C23
100
AcDbDimAssoc
330
5C22
 90
        3
 70
     0
 71
     1
  1
AcDbOsnapPointRef
 72
    13
331
5BCB
 73
     0
 91
        0
 40
0.0
 10
0.0
 20
0.0
 30
0.0
 75
     0
  1
AcDbOsnapPointRef
 72
     1
331
5BCB
 73
     0
 91
        0
 40
0.0
 10
0.0
 20
0.0
 30
0.0
 75
     0
  0
DIMASSOC
  5
5C9C
102
{ACAD_REACTORS
330
5C9B
102
}
330
5C9B
100
AcDbDimAssoc
330
5C9A
 90
        1
 70
     0
 71
     1
  1
AcDbOsnapPointRef
 72
    10
331
5BF6
 73
     0
 91
        0
 40
0.9756106658455472
 10
0.0
 20
0.0
 30
0.0
 75
     0
  0
DIMASSOC
  5
5CCC
102
{ACAD_REACTORS
330
5CCB
102
}
330
5CCB
100
AcDbDimAssoc
330
5CCA
 90
        3
 70
     0
 71
     1
  1
AcDbOsnapPointRef
 72
     1
331
5C0B
 73
     0
 91
        0
 40
0.0
 10
0.0
 20
0.0
 30
0.0
 75
     0
  1
AcDbOsnapPointRef
 72
     2
331
5BFE
 73
     0
 91
        0
 40
0.4999999999999992
 10
0.0
 20
0.0
 30
0.0
 75
     0
  0
LAYOUT
  5
21
102
{ACAD_REACTORS
330
1E
102
}
330
1E
100
AcDbPlotSettings
  1

  2
none_device
  4
ISO_A3_(420.00_x_297.00_MM)
  6

 40
7.5
 41
20.0
 42
7.5
 43
20.0
 44
420.0
 45
297.0
 46
0.0
 47
0.0
 48
0.0
 49
0.0
140
0.0
141
0.0
142
1.0
143
1.0
 70
     0
 72
     1
 73
     0
 74
     0
  7

 75
     0
 76
     0
 77
     2
 78
   300
147
1.0
148
0.0
149
0.0
100
AcDbLayout
  1
Layout1
 70
     0
 71
     0
 10
-7.5
 20
-20.0
 11
412.5
 21
277.0
 12
0.0
 22
0.0
 32
0.0
 14
0.0
 24
0.0
 34
0.0
 15
0.0
 25
0.0
 35
0.0
146
0.0
 13
0.0
 23
0.0
 33
0.0
 16
0.0
 26
0.0
 36
0.0
 17
0.0
 27
0.0
 37
0.0
 76
     0
330
B
331
349
  0
LAYOUT
  5
20
102
{ACAD_REACTORS
330
1E
102
}
330
1E
100
AcDbPlotSettings
  1

  2
none_device
  4
ISO_A3_(420.00_x_297.00_MM)
  6

 40
7.5
 41
20.0
 42
7.5
 43
20.0
 44
420.0
 45
297.0
 46
0.0
 47
0.0
 48
0.0
 49
0.0
140
0.0
141
0.0
142
1.0
143
1.0
 70
  1024
 72
     1
 73
     0
 74
     0
  7

 75
     0
 76
     0
 77
     2
 78
   300
147
1.0
148
0.0
149
0.0
100
AcDbLayout
  1
Model
 70
     0
 71
     1
 10
0.0
 20
0.0
 11
420.0
 21
594.0
 12
0.0
 22
0.0
 32
0.0
 14
0.0
 24
0.0
 34
-0.0000000000000142
 15
420.0
 25
594.0
 35
0.0000000000000142
146
0.0
 13
0.0
 23
0.0
 33
0.0
 16
0.0
 26
0.0
 36
0.0
 17
0.0
 27
0.0
 37
0.0
 76
     0
330
A
331
15
  0
MATERIAL
  5
5D04
102
{ACAD_REACTORS
330
263
102
}
330
263
100
AcDbMaterial
  1
ByBlock
 72
     1
 94
      127
  0
MATERIAL
  5
264
102
{ACAD_REACTORS
330
263
102
}
330
263
100
AcDbMaterial
  1
ByLayer
 72
     1
 94
      127
  0
MATERIAL
  5
266
102
{ACAD_REACTORS
330
263
102
}
330
263
100
AcDbMaterial
  1
Global
 72
     1
 94
      127
  0
MLEADERSTYLE
  5
D59
102
{ACAD_REACTORS
330
336
102
}
330
336
100
AcDbMLeaderStyle
170
     2
171
     1
172
     0
 90
        2
 40
0.0
 41
0.0
173
     1
 91
-1056964608
340
11
 92
       -2
290
     1
 42
2.0
291
     1
 43
8.0
  3
Standard
341
0
 44
4.0
300

342
17
174
     1
178
     6
175
     1
176
     0
 93
-1056964608
 45
4.0
292
     0
297
     0
 46
4.0
343
0
 94
-1056964608
 47
1.0
 49
1.0
140
1.0
293
     1
141
0.0
294
     1
177
     0
142
1.0
295
     0
296
     0
143
3.75
1001
ACAD_MLEADERVER
1070
     2
  0
MLINESTYLE
  5
1C
102
{ACAD_REACTORS
330
1B
102
}
330
1B
100
AcDbMlineStyle
  2
Standard
 70
     0
  3

 62
     0
 51
90.0
 52
90.0
 71
     2
 49
0.5
 62
   256
  6
BYLAYER
 49
-0.5
 62
   256
  6
BYLAYER
  0
ACDBPLACEHOLDER
  5
1D
102
{ACAD_REACTORS
330
1F
102
}
330
1F
  0
SCALE
  5
242
102
{ACAD_REACTORS
330
241
102
}
330
241
100
AcDbScale
 70
     0
300
1:1
140
1.0
141
1.0
290
     1
  0
SCALE
  5
243
102
{ACAD_REACTORS
330
241
102
}
330
241
100
AcDbScale
 70
     0
300
1:2
140
1.0
141
2.0
290
     0
  0
SCALE
  5
244
102
{ACAD_REACTORS
330
241
102
}
330
241
100
AcDbScale
 70
     0
300
1:4
140
1.0
141
4.0
290
     0
  0
SCALE
  5
245
102
{ACAD_REACTORS
330
241
102
}
330
241
100
AcDbScale
 70
     0
300
1:5
140
1.0
141
5.0
290
     0
  0
SCALE
  5
246
102
{ACAD_REACTORS
330
241
102
}
330
241
100
AcDbScale
 70
     0
300
1:8
140
1.0
141
8.0
290
     0
  0
SCALE
  5
247
102
{ACAD_REACTORS
330
241
102
}
330
241
100
AcDbScale
 70
     0
300
1:10
140
1.0
141
10.0
290
     0
  0
SCALE
  5
248
102
{ACAD_REACTORS
330
241
102
}
330
241
100
AcDbScale
 70
     0
300
1:16
140
1.0
141
16.0
290
     0
  0
SCALE
  5
249
102
{ACAD_REACTORS
330
241
102
}
330
241
100
AcDbScale
 70
     0
300
1:20
140
1.0
141
20.0
290
     0
  0
SCALE
  5
24A
102
{ACAD_REACTORS
330
241
102
}
330
241
100
AcDbScale
 70
     0
300
1:30
140
1.0
141
30.0
290
     0
  0
SCALE
  5
24B
102
{ACAD_REACTORS
330
241
102
}
330
241
100
AcDbScale
 70
     0
300
1:40
140
1.0
141
40.0
290
     0
  0
SCALE
  5
24C
102
{ACAD_REACTORS
330
241
102
}
330
241
100
AcDbScale
 70
     0
300
1:50
140
1.0
141
50.0
290
     0
  0
SCALE
  5
24D
102
{ACAD_REACTORS
330
241
102
}
330
241
100
AcDbScale
 70
     0
300
1:100
140
1.0
141
100.0
290
     0
  0
SCALE
  5
24E
102
{ACAD_REACTORS
330
241
102
}
330
241
100
AcDbScale
 70
     0
300
2:1
140
2.0
141
1.0
290
     0
  0
SCALE
  5
24F
102
{ACAD_REACTORS
330
241
102
}
330
241
100
AcDbScale
 70
     0
300
4:1
140
4.0
141
1.0
290
     0
  0
SCALE
  5
250
102
{ACAD_REACTORS
330
241
102
}
330
241
100
AcDbScale
 70
     0
300
8:1
140
8.0
141
1.0
290
     0
  0
SCALE
  5
251
102
{ACAD_REACTORS
330
241
102
}
330
241
100
AcDbScale
 70
     0
300
10:1
140
10.0
141
1.0
290
     0
  0
SCALE
  5
252
102
{ACAD_REACTORS
330
241
102
}
330
241
100
AcDbScale
 70
     0
300
100:1
140
100.0
141
1.0
290
     0
  0
SCALE
  5
253
102
{ACAD_REACTORS
330
241
102
}
330
241
100
AcDbScale
 70
     0
300
1/128" = 1'-0"
140
0.0078125
141
12.0
290
     0
  0
SCALE
  5
254
102
{ACAD_REACTORS
330
241
102
}
330
241
100
AcDbScale
 70
     0
300
1/64" = 1'-0"
140
0.015625
141
12.0
290
     0
  0
SCALE
  5
255
102
{ACAD_REACTORS
330
241
102
}
330
241
100
AcDbScale
 70
     0
300
1/32" = 1'-0"
140
0.03125
141
12.0
290
     0
  0
SCALE
  5
256
102
{ACAD_REACTORS
330
241
102
}
330
241
100
AcDbScale
 70
     0
300
1/16" = 1'-0"
140
0.0625
141
12.0
290
     0
  0
SCALE
  5
257
102
{ACAD_REACTORS
330
241
102
}
330
241
100
AcDbScale
 70
     0
300
3/32" = 1'-0"
140
0.09375
141
12.0
290
     0
  0
SCALE
  5
258
102
{ACAD_REACTORS
330
241
102
}
330
241
100
AcDbScale
 70
     0
300
1/8" = 1'-0"
140
0.125
141
12.0
290
     0
  0
SCALE
  5
259
102
{ACAD_REACTORS
330
241
102
}
330
241
100
AcDbScale
 70
     0
300
3/16" = 1'-0"
140
0.1875
141
12.0
290
     0
  0
SCALE
  5
25A
102
{ACAD_REACTORS
330
241
102
}
330
241
100
AcDbScale
 70
     0
300
1/4" = 1'-0"
140
0.25
141
12.0
290
     0
  0
SCALE
  5
25B
102
{ACAD_REACTORS
330
241
102
}
330
241
100
AcDbScale
 70
     0
300
3/8" = 1'-0"
140
0.375
141
12.0
290
     0
  0
SCALE
  5
25C
102
{ACAD_REACTORS
330
241
102
}
330
241
100
AcDbScale
 70
     0
300
1/2" = 1'-0"
140
0.5
141
12.0
290
     0
  0
SCALE
  5
25D
102
{ACAD_REACTORS
330
241
102
}
330
241
100
AcDbScale
 70
     0
300
3/4" = 1'-0"
140
0.75
141
12.0
290
     0
  0
SCALE
  5
25E
102
{ACAD_REACTORS
330
241
102
}
330
241
100
AcDbScale
 70
     0
300
1" = 1'-0"
140
1.0
141
12.0
290
     0
  0
SCALE
  5
25F
102
{ACAD_REACTORS
330
241
102
}
330
241
100
AcDbScale
 70
     0
300
1-1/2" = 1'-0"
140
1.5
141
12.0
290
     0
  0
SCALE
  5
260
102
{ACAD_REACTORS
330
241
102
}
330
241
100
AcDbScale
 70
     0
300
3" = 1'-0"
140
3.0
141
12.0
290
     0
  0
SCALE
  5
261
102
{ACAD_REACTORS
330
241
102
}
330
241
100
AcDbScale
 70
     0
300
6" = 1'-0"
140
6.0
141
12.0
290
     0
  0
SCALE
  5
262
102
{ACAD_REACTORS
330
241
102
}
330
241
100
AcDbScale
 70
     0
300
1'-0" = 1'-0"
140
12.0
141
12.0
290
     0
  0
TABLESTYLE
  5
279
102
{ACAD_REACTORS
330
278
102
}
102
{ACAD_XDICTIONARY
360
5D4E
102
}
330
278
100
AcDbTableStyle
  3
Standard
 70
     0
 71
     0
 40
0.06
 41
0.06
280
     0
281
     0
  7
Standard
140
4.5
170
     2
 62
     0
 63
   257
283
     0
 90
        4
 91
        0
  1

274
    -2
284
     1
 64
     0
275
    -2
285
     1
 65
     0
276
    -2
286
     1
 66
     0
277
    -2
287
     1
 67
     0
278
    -2
288
     1
 68
     0
279
    -2
289
     1
 69
     0
  7
Standard
140
6.0
170
     5
 62
     0
 63
   257
283
     0
 90
        4
 91
        0
  1

274
    -2
284
     1
 64
     0
275
    -2
285
     1
 65
     0
276
    -2
286
     1
 66
     0
277
    -2
287
     1
 67
     0
278
    -2
288
     1
 68
     0
279
    -2
289
     1
 69
     0
  7
Standard
140
4.5
170
     5
 62
     0
 63
   257
283
     0
 90
        4
 91
        0
  1

274
    -2
284
     1
 64
     0
275
    -2
285
     1
 65
     0
276
    -2
286
     1
 66
     0
277
    -2
287
     1
 67
     0
278
    -2
288
     1
 68
     0
279
    -2
289
     1
 69
     0
  0
VISUALSTYLE
  5
26C
102
{ACAD_REACTORS
330
267
102
}
330
267
100
AcDbVisualStyle
  2
2dWireframe
 70
     4
 71
     0
 72
     2
 73
     0
 90
        0
 40
-0.6
 41
-30.0
 62
     5
 63
     7
421
 16777215
 74
     1
 91
        4
 64
     7
 65
   257
 75
     1
175
     1
 42
1.0
 92
        0
 66
   257
 43
1.0
 76
     1
 77
     6
 78
     2
 67
     7
 79
     5
170
     0
171
     0
290
     0
174
     0
 93
        1
 44
0.0
173
     0
291
     0
 45
0.0
  0
VISUALSTYLE
  5
26E
102
{ACAD_REACTORS
330
267
102
}
330
267
100
AcDbVisualStyle
  2
3D Hidden
 70
     6
 71
     1
 72
     2
 73
     2
 90
        0
 40
-0.6
 41
-30.0
 62
     5
 63
     7
421
 16777215
 74
     2
 91
        2
 64
     7
 65
   257
 75
     2
175
     1
 42
40.0
 92
        0
 66
   257
 43
1.0
 76
     1
 77
     6
 78
     2
 67
     7
 79
     3
170
     0
171
     0
290
     0
174
     0
 93
        1
 44
0.0
173
     0
291
     0
 45
0.0
  0
VISUALSTYLE
  5
26D
102
{ACAD_REACTORS
330
267
102
}
330
267
100
AcDbVisualStyle
  2
3dWireframe
 70
     5
 71
     0
 72
     2
 73
     0
 90
        0
 40
-0.6
 41
-30.0
 62
     5
 63
     7
421
 16777215
 74
     1
 91
        4
 64
     7
 65
   257
 75
     1
175
     1
 42
1.0
 92
        0
 66
   257
 43
1.0
 76
     1
 77
     6
 78
     2
 67
     7
 79
     5
170
     0
171
     0
290
     0
174
     0
 93
        1
 44
0.0
173
     0
291
     0
 45
0.0
  0
VISUALSTYLE
  5
26F
102
{ACAD_REACTORS
330
267
102
}
330
267
100
AcDbVisualStyle
  2
Basic
 70
     7
 71
     1
 72
     0
 73
     1
 90
        0
 40
-0.6
 41
-30.0
 62
     5
 63
     7
421
 16777215
 74
     0
 91
        4
 64
     7
 65
   257
 75
     1
175
     1
 42
1.0
 92
        8
 66
     7
 43
1.0
 76
     1
 77
     6
 78
     2
 67
     7
 79
     5
170
     0
171
     0
290
     0
174
     0
 93
        1
 44
0.0
173
     0
291
     1
 45
0.0
  0
VISUALSTYLE
  5
273
102
{ACAD_REACTORS
330
267
102
}
330
267
100
AcDbVisualStyle
  2
Brighten
 70
    12
 71
     2
 72
     2
 73
     0
 90
        0
 40
-0.6
 41
-30.0
 62
     5
 63
     7
421
 16777215
 74
     1
 91
        4
 64
     7
 65
   257
 75
     1
175
     1
 42
1.0
 92
        8
 66
     7
 43
1.0
 76
     1
 77
     6
 78
     2
 67
     7
 79
     5
170
     0
171
     0
290
     0
174
     0
 93
        1
 44
50.0
173
     0
291
     1
 45
0.0
  0
VISUALSTYLE
  5
277
102
{ACAD_REACTORS
330
267
102
}
330
267
100
AcDbVisualStyle
  2
ColorChange
 70
    16
 71
     2
 72
     2
 73
     3
 90
        0
 40
-0.6
 41
-30.0
 62
     5
 63
     8
421
  8421504
 74
     1
 91
        4
 64
     7
 65
   257
 75
     1
175
     1
 42
1.0
 92
        8
 66
     8
424
  8421504
 43
1.0
 76
     1
 77
     6
 78
     2
 67
     7
 79
     5
170
     0
171
     0
290
     0
174
     0
 93
        1
 44
0.0
173
     0
291
     1
 45
0.0
  0
VISUALSTYLE
  5
271
102
{ACAD_REACTORS
330
267
102
}
330
267
100
AcDbVisualStyle
  2
Conceptual
 70
     9
 71
     3
 72
     2
 73
     0
 90
        0
 40
-0.6
 41
-30.0
 62
     5
 63
     7
421
 16777215
 74
     2
 91
        2
 64
     7
 65
   257
 75
     1
175
     1
 42
40.0
 92
        8
 66
     7
 43
1.0
 76
     1
 77
     6
 78
     2
 67
     7
 79
     3
170
     0
171
     0
290
     0
174
     0
 93
        1
 44
0.0
173
     0
291
     0
 45
0.0
  0
VISUALSTYLE
  5
272
102
{ACAD_REACTORS
330
267
102
}
330
267
100
AcDbVisualStyle
  2
Dim
 70
    11
 71
     2
 72
     2
 73
     0
 90
        0
 40
-0.6
 41
-30.0
 62
     5
 63
     7
421
 16777215
 74
     1
 91
        4
 64
     7
 65
   257
 75
     1
175
     1
 42
1.0
 92
        8
 66
     7
 43
1.0
 76
     1
 77
     6
 78
     2
 67
     7
 79
     5
170
     0
171
     0
290
     0
174
     0
 93
        1
 44
-50.0
173
     0
291
     1
 45
0.0
  0
VISUALSTYLE
  5
8FE
102
{ACAD_REACTORS
330
267
102
}
330
267
100
AcDbVisualStyle
  2
EdgeColorOff
 70
    22
 71
     2
 72
     2
 73
     0
 90
        0
 40
0.6
 41
30.0
 62
     5
 63
     7
421
 16777215
 74
     1
 91
        4
 64
     7
 65
   257
 75
     1
175
     1
 42
1.0
 92
        8
 66
     7
 43
1.0
 76
     1
 77
     6
 78
     2
 67
     7
 79
     5
170
     0
171
     0
290
     0
174
     0
 93
        1
 44
0.0
173
     0
291
     1
 45
0.0
  0
VISUALSTYLE
  5
276
102
{ACAD_REACTORS
330
267
102
}
330
267
100
AcDbVisualStyle
  2
Facepattern
 70
    15
 71
     2
 72
     2
 73
     0
 90
        0
 40
-0.6
 41
-30.0
 62
     5
 63
     7
421
 16777215
 74
     1
 91
        4
 64
     7
 65
   257
 75
     1
175
     1
 42
1.0
 92
        8
 66
     7
 43
1.0
 76
     1
 77
     6
 78
     2
 67
     7
 79
     5
170
     0
171
     0
290
     0
174
     0
 93
        1
 44
0.0
173
     0
291
     1
 45
0.0
  0
VISUALSTYLE
  5
268
102
{ACAD_REACTORS
330
267
102
}
330
267
100
AcDbVisualStyle
  2
Flat
 70
     0
 71
     2
 72
     1
 73
     1
 90
        2
 40
-0.6
 41
30.0
 62
     5
 63
     7
421
 16777215
 74
     0
 91
        4
 64
     7
 65
   257
 75
     1
175
     1
 42
1.0
 92
        8
 66
     7
 43
1.0
 76
     1
 77
     6
 78
     2
 67
     7
 79
     5
170
     0
171
     0
290
     0
174
     0
 93
       13
 44
0.0
173
     0
291
     1
 45
0.0
  0
VISUALSTYLE
  5
269
102
{ACAD_REACTORS
330
267
102
}
330
267
100
AcDbVisualStyle
  2
FlatWithEdges
 70
     1
 71
     2
 72
     1
 73
     1
 90
        2
 40
-0.6
 41
30.0
 62
     5
 63
     7
421
 16777215
 74
     1
 91
        4
 64
     7
 65
   257
 75
     1
175
     1
 42
1.0
 92
        0
 66
   257
 43
1.0
 76
     1
 77
     6
 78
     2
 67
     7
 79
     5
170
     0
171
     0
290
     0
174
     0
 93
       13
 44
0.0
173
     0
291
     1
 45
0.0
  0
VISUALSTYLE
  5
26A
102
{ACAD_REACTORS
330
267
102
}
330
267
100
AcDbVisualStyle
  2
Gouraud
 70
     2
 71
     2
 72
     2
 73
     1
 90
        2
 40
-0.6
 41
30.0
 62
     5
 63
     7
421
 16777215
 74
     0
 91
        4
 64
     7
 65
   257
 75
     1
175
     1
 42
1.0
 92
        0
 66
     7
 43
1.0
 76
     1
 77
     6
 78
     2
 67
     7
 79
     5
170
     0
171
     0
290
     0
174
     0
 93
       13
 44
0.0
173
     0
291
     1
 45
0.0
  0
VISUALSTYLE
  5
26B
102
{ACAD_REACTORS
330
267
102
}
330
267
100
AcDbVisualStyle
  2
GouraudWithEdges
 70
     3
 71
     2
 72
     2
 73
     1
 90
        2
 40
-0.6
 41
30.0
 62
     5
 63
     7
421
 16777215
 74
     1
 91
        4
 64
     7
 65
   257
 75
     1
175
     1
 42
1.0
 92
        0
 66
   257
 43
1.0
 76
     1
 77
     6
 78
     2
 67
     7
 79
     5
170
     0
171
     0
290
     0
174
     0
 93
       13
 44
0.0
173
     0
291
     1
 45
0.0
  0
VISUALSTYLE
  5
8FB
102
{ACAD_REACTORS
330
267
102
}
330
267
100
AcDbVisualStyle
  2
Hidden
 70
     6
 71
     1
 72
     2
 73
     2
 90
        0
 40
0.6
 41
30.0
 62
     5
 63
     7
421
 16777215
 74
     2
 91
        2
 64
     7
 65
   257
 75
     2
175
     1
 42
40.0
 92
        0
 66
   257
 43
1.0
 76
     1
 77
     6
 78
     2
 67
     7
 79
     3
170
     0
171
     0
290
     0
174
     0
 93
        1
 44
0.0
173
     0
291
     0
 45
0.0
  0
VISUALSTYLE
  5
8FC
102
{ACAD_REACTORS
330
267
102
}
330
267
100
AcDbVisualStyle
  2
JitterOff
 70
    20
 71
     2
 72
     2
 73
     0
 90
        0
 40
0.6
 41
30.0
 62
     5
 63
     7
421
 16777215
 74
     1
 91
        4
 64
     7
 65
   257
 75
     1
175
     1
 42
1.0
 92
       10
 66
     7
 43
1.0
 76
     1
 77
     6
 78
     2
 67
     7
 79
     5
170
     0
171
     0
290
     0
174
     0
 93
        1
 44
0.0
173
     0
291
     1
 45
0.0
  0
VISUALSTYLE
  5
275
102
{ACAD_REACTORS
330
267
102
}
330
267
100
AcDbVisualStyle
  2
Linepattern
 70
    14
 71
     2
 72
     2
 73
     0
 90
        0
 40
-0.6
 41
-30.0
 62
     5
 63
     7
421
 16777215
 74
     1
 91
        4
 64
     7
 65
   257
 75
     7
175
     7
 42
1.0
 92
        8
 66
     7
 43
1.0
 76
     1
 77
     6
 78
     2
 67
     7
 79
     5
170
     0
171
     0
290
     0
174
     0
 93
        1
 44
0.0
173
     0
291
     1
 45
0.0
  0
VISUALSTYLE
  5
8FD
102
{ACAD_REACTORS
330
267
102
}
330
267
100
AcDbVisualStyle
  2
OverhangOff
 70
    21
 71
     2
 72
     2
 73
     0
 90
        0
 40
0.6
 41
30.0
 62
     5
 63
     7
421
 16777215
 74
     1
 91
        4
 64
     7
 65
   257
 75
     1
175
     1
 42
1.0
 92
        9
 66
     7
 43
1.0
 76
     1
 77
     6
 78
     2
 67
     7
 79
     5
170
     0
171
     0
290
     0
174
     0
 93
        1
 44
0.0
173
     0
291
     1
 45
0.0
  0
VISUALSTYLE
  5
270
102
{ACAD_REACTORS
330
267
102
}
330
267
100
AcDbVisualStyle
  2
Realistic
 70
     8
 71
     2
 72
     2
 73
     0
 90
        0
 40
-0.6
 41
-30.0
 62
     5
 63
     7
421
 16777215
 74
     1
 91
        0
 64
     7
 65
   257
 75
     1
175
     1
 42
1.0
 92
        8
 66
     8
424
  7895160
 43
1.0
 76
     1
 77
     6
 78
     2
 67
     7
 79
     5
170
     0
171
     0
290
     0
174
     0
 93
       13
 44
0.0
173
     0
291
     0
 45
0.0
  0
VISUALSTYLE
  5
903
102
{ACAD_REACTORS
330
267
102
}
330
267
100
AcDbVisualStyle
  2
Shaded
 70
    27
 71
     2
 72
     2
 73
     1
 90
        2
 40
0.6
 41
30.0
 62
     5
 63
     7
421
 16777215
 74
     0
 91
        4
 64
     7
 65
   257
 75
     1
175
     1
 42
1.0
 92
        8
 66
   257
 43
1.0
 76
     1
 77
     6
 78
     2
 67
     8
425
  7895160
 79
     3
170
     0
171
     0
290
     0
174
     0
 93
        5
 44
0.0
173
     0
291
     0
 45
0.0
  0
VISUALSTYLE
  5
902
102
{ACAD_REACTORS
330
267
102
}
330
267
100
AcDbVisualStyle
  2
Shaded with edges
 70
    26
 71
     2
 72
     2
 73
     1
 90
        2
 40
0.6
 41
30.0
 62
     5
 63
     7
421
 16777215
 74
     1
 91
       10
 64
     7
 65
   257
 75
     2
175
     1
 42
1.0
 92
        8
 66
   257
 43
1.0
 76
     1
 77
     6
 78
     2
 67
     7
 79
     3
170
     0
171
     0
290
     0
174
     0
 93
        5
 44
0.0
173
     0
291
     0
 45
0.0
  0
VISUALSTYLE
  5
8FF
102
{ACAD_REACTORS
330
267
102
}
330
267
100
AcDbVisualStyle
  2
Shades of Gray
 70
    23
 71
     2
 72
     2
 73
     3
 90
        0
 40
0.6
 41
30.0
 62
     5
 63
     7
421
 16777215
 74
     2
 91
        2
 64
     7
 65
     7
 75
     1
175
     1
 42
40.0
 92
        8
 66
     7
 43
1.0
 76
     1
 77
     6
 78
     2
 67
     7
 79
     3
170
     0
171
     0
290
     0
174
     0
 93
        1
 44
0.0
173
     0
291
     0
 45
0.0
  0
VISUALSTYLE
  5
900
102
{ACAD_REACTORS
330
267
102
}
330
267
100
AcDbVisualStyle
  2
Sketchy
 70
    24
 71
     1
 72
     2
 73
     2
 90
        0
 40
0.6
 41
30.0
 62
     5
 63
     7
421
 16777215
 74
     2
 91
        2
 64
     7
 65
     7
 75
     1
175
     1
 42
40.0
 92
       11
 66
     7
 43
1.0
 76
     1
 77
     6
 78
     2
 67
     7
 79
     6
170
     0
171
     0
290
     0
174
     0
 93
        1
 44
0.0
173
     0
291
     0
 45
0.0
  0
VISUALSTYLE
  5
274
102
{ACAD_REACTORS
330
267
102
}
330
267
100
AcDbVisualStyle
  2
Thicken
 70
    13
 71
     2
 72
     2
 73
     0
 90
        0
 40
-0.6
 41
-30.0
 62
     5
 63
     7
421
 16777215
 74
     1
 91
        4
 64
     7
 65
   257
 75
     1
175
     1
 42
1.0
 92
       12
 66
     7
 43
1.0
 76
     1
 77
     6
 78
     2
 67
     7
 79
     5
170
     0
171
     0
290
     0
174
     0
 93
        1
 44
0.0
173
     0
291
     1
 45
0.0
  0
VISUALSTYLE
  5
8FA
102
{ACAD_REACTORS
330
267
102
}
330
267
100
AcDbVisualStyle
  2
Wireframe
 70
     5
 71
     0
 72
     2
 73
     0
 90
        0
 40
0.6
 41
30.0
 62
     5
 63
     7
421
 16777215
 74
     1
 91
        4
 64
     7
 65
   257
 75
     1
175
     1
 42
1.0
 92
        0
 66
   257
 43
1.0
 76
     1
 77
     6
 78
     2
 67
     7
 79
     3
170
     0
171
     0
290
     0
174
     0
 93
        1
 44
0.0
173
     0
291
     0
 45
0.0
  0
VISUALSTYLE
  5
901
102
{ACAD_REACTORS
330
267
102
}
330
267
100
AcDbVisualStyle
  2
X-Ray
 70
    25
 71
     2
 72
     2
 73
     1
 90
        1
 40
0.5
 41
30.0
 62
     5
 63
     7
421
 16777215
 74
     1
 91
        0
 64
     7
 65
   257
 75
     1
175
     1
 42
1.0
 92
        8
 66
     7
 43
1.0
 76
     1
 77
     6
 78
     2
 67
     7
 79
     3
170
     0
171
     0
290
     0
174
     0
 93
       13
 44
0.0
173
     0
291
     0
 45
0.0
  0
DICTIONARYVAR
  5
331
102
{ACAD_REACTORS
330
330
102
}
330
330
100
DictionaryVariables
280
     0
  1
1:1
  0
DICTIONARYVAR
  5
D5E
102
{ACAD_REACTORS
330
330
102
}
330
330
100
DictionaryVariables
280
     0
  1
Standard
  0
DICTIONARYVAR
  5
335
102
{ACAD_REACTORS
330
330
102
}
330
330
100
DictionaryVariables
280
     0
  1
Standard
  0
DICTIONARYVAR
  5
D52
102
{ACAD_REACTORS
330
330
102
}
330
330
100
DictionaryVariables
280
     0
  1
ByLayer
  0
DICTIONARYVAR
  5
896
102
{ACAD_REACTORS
330
330
102
}
330
330
100
DictionaryVariables
280
     0
  1
0
  0
DICTIONARYVAR
  5
38B2
102
{ACAD_REACTORS
330
E38
102
}
330
E38
100
DictionaryVariables
280
     0
  1
0.261799
  0
DICTIONARYVAR
  5
38B0
102
{ACAD_REACTORS
330
E38
102
}
330
E38
100
DictionaryVariables
280
     0
  1
0.400000
  0
DICTIONARYVAR
  5
38B1
102
{ACAD_REACTORS
330
E38
102
}
330
E38
100
DictionaryVariables
280
     0
  1
0.250000
  0
DICTIONARYVAR
  5
38B3
102
{ACAD_REACTORS
330
E38
102
}
330
E38
100
DictionaryVariables
280
     0
  1
1
  0
XRECORD
  5
7AA
102
{ACAD_REACTORS
330
2E2
102
}
330
2E2
100
AcDbXrecord
280
     1
 91
    34815
301

290
     0
302
HIDDEN
330
14
 90
        8
 62
     7
370
    -3
331
13
  1
Color_7
440
 33554687
330
4B
 90
        8
 62
     7
370
    20
331
13
  1
Color_7
440
 33554687
330
4C
 90
        8
 62
     3
370
    13
331
13
  1
Color_3
440
 33554687
330
4D
 90
        8
 62
     7
370
    20
331
13
  1
Color_7
440
 33554687
330
667
 90
        8
 62
     7
370
    -3
331
13
  1
Color_7
440
 33554687
330
0
 90
        8
 62
     8
370
    20
331
0
  1
Color_8
440
 33554687
330
D6B
 90
        0
 62
     4
370
    20
331
D6C
  1
Color_4
440
 33554687
330
D8C
 90
        0
 62
     7
370
    -3
331
13
  1
Color_7
440
 33554687
  0
FIELD
  5
4531
102
{ACAD_REACTORS
330
4539
102
}
330
4539
100
AcDbField
  1
_text
  2
{%<\_FldIdx 0>%N}
 90
        1
360
4534
 97
        0
 91
       63
 92
        0
 94
        8
 95
        2
 96
        0
300

 93
        1
  6
ACFD_FIELDTEXT_CHECKSUM
 93
        2
 90
        2
140
4547.0
 94
        0
300

302

304
ACVALUE_END
  7
ACFD_FIELD_VALUE
 93
        6
 90
        4
  1
{20160726N}
 94
        0
300

302

304
ACVALUE_END
301
{20160726N}
 98
       11
  0
DICTIONARY
  5
5D4E
330
279
100
AcDbDictionary
280
     1
281
     1
  3
ACAD_ROUNDTRIP_2008_TABLESTYLE_CELLSTYLEMAP
360
5D4F
  0
FIELD
  5
4534
330
4531
100
AcDbField
  1
AcVar
  2
\AcVar CreateDate \f "yyyyMMdd"
 90
        0
 97
        0
 91
       63
 92
        0
 94
        8
 95
        2
 96
        0
300

 93
        1
  6
Variable
 93
        2
 90
        4
  1
CreateDate
 94
        0
300

302

304
ACVALUE_END
  7
ACFD_FIELD_VALUE
 93
        6
 90
        8
 92
       16
310
E007070000001A000200350037000000
 94
        0
300
yyyyMMdd
302

304
ACVALUE_END
301
20160726
 98
        8
  0
CELLSTYLEMAP
  5
5D4F
102
{ACAD_REACTORS
330
5D4E
102
}
330
5D4E
100
AcDbCellStyleMap
 90
        3
300
CELLSTYLE
  1
TABLEFORMAT_BEGIN
 90
        5
170
     1
 91
        0
 92
    32768
 62
   257
 93
        1
300
CONTENTFORMAT
  1
CONTENTFORMAT_BEGIN
 90
        0
 91
        0
 92
        4
 93
        0
300

 40
0.0
140
1.0
 94
        5
 62
     0
340
17
144
6.0
309
CONTENTFORMAT_END
171
     1
301
MARGIN
  1
CELLMARGIN_BEGIN
 40
0.06
 40
0.06
 40
0.06
 40
0.06
 40
0.18
 40
0.18
309
CELLMARGIN_END
 94
        6
 95
        1
302
GRIDFORMAT
  1
GRIDFORMAT_BEGIN
 90
        0
 91
        1
 62
     0
 92
       -2
340
0
 93
        0
 40
0.045
309
GRIDFORMAT_END
 95
        2
302
GRIDFORMAT
  1
GRIDFORMAT_BEGIN
 90
        0
 91
        1
 62
     0
 92
       -2
340
0
 93
        0
 40
0.045
309
GRIDFORMAT_END
 95
        4
302
GRIDFORMAT
  1
GRIDFORMAT_BEGIN
 90
        0
 91
        1
 62
     0
 92
       -2
340
0
 93
        0
 40
0.045
309
GRIDFORMAT_END
 95
        8
302
GRIDFORMAT
  1
GRIDFORMAT_BEGIN
 90
        0
 91
        1
 62
     0
 92
       -2
340
0
 93
        0
 40
0.045
309
GRIDFORMAT_END
 95
       16
302
GRIDFORMAT
  1
GRIDFORMAT_BEGIN
 90
        0
 91
        1
 62
     0
 92
       -2
340
0
 93
        0
 40
0.045
309
GRIDFORMAT_END
 95
       32
302
GRIDFORMAT
  1
GRIDFORMAT_BEGIN
 90
        0
 91
        1
 62
     0
 92
       -2
340
0
 93
        0
 40
0.045
309
GRIDFORMAT_END
309
TABLEFORMAT_END
  1
CELLSTYLE_BEGIN
 90
        1
 91
        1
300
_TITLE
309
CELLSTYLE_END
300
CELLSTYLE
  1
TABLEFORMAT_BEGIN
 90
        5
170
     1
 91
        0
 92
        0
 62
   257
 93
        1
300
CONTENTFORMAT
  1
CONTENTFORMAT_BEGIN
 90
        0
 91
        0
 92
        4
 93
        0
300

 40
0.0
140
1.0
 94
        5
 62
     0
340
17
144
4.5
309
CONTENTFORMAT_END
171
     1
301
MARGIN
  1
CELLMARGIN_BEGIN
 40
0.06
 40
0.06
 40
0.06
 40
0.06
 40
0.18
 40
0.18
309
CELLMARGIN_END
 94
        6
 95
        1
302
GRIDFORMAT
  1
GRIDFORMAT_BEGIN
 90
        0
 91
        1
 62
     0
 92
       -2
340
0
 93
        0
 40
0.045
309
GRIDFORMAT_END
 95
        2
302
GRIDFORMAT
  1
GRIDFORMAT_BEGIN
 90
        0
 91
        1
 62
     0
 92
       -2
340
0
 93
        0
 40
0.045
309
GRIDFORMAT_END
 95
        4
302
GRIDFORMAT
  1
GRIDFORMAT_BEGIN
 90
        0
 91
        1
 62
     0
 92
       -2
340
0
 93
        0
 40
0.045
309
GRIDFORMAT_END
 95
        8
302
GRIDFORMAT
  1
GRIDFORMAT_BEGIN
 90
        0
 91
        1
 62
     0
 92
       -2
340
0
 93
        0
 40
0.045
309
GRIDFORMAT_END
 95
       16
302
GRIDFORMAT
  1
GRIDFORMAT_BEGIN
 90
        0
 91
        1
 62
     0
 92
       -2
340
0
 93
        0
 40
0.045
309
GRIDFORMAT_END
 95
       32
302
GRIDFORMAT
  1
GRIDFORMAT_BEGIN
 90
        0
 91
        1
 62
     0
 92
       -2
340
0
 93
        0
 40
0.045
309
GRIDFORMAT_END
309
TABLEFORMAT_END
  1
CELLSTYLE_BEGIN
 90
        2
 91
        1
300
_HEADER
309
CELLSTYLE_END
300
CELLSTYLE
  1
TABLEFORMAT_BEGIN
 90
        5
170
     1
 91
        0
 92
        0
 62
   257
 93
        1
300
CONTENTFORMAT
  1
CONTENTFORMAT_BEGIN
 90
        0
 91
        0
 92
        4
 93
        0
300

 40
0.0
140
1.0
 94
        2
 62
     0
340
17
144
4.5
309
CONTENTFORMAT_END
171
     1
301
MARGIN
  1
CELLMARGIN_BEGIN
 40
0.06
 40
0.06
 40
0.06
 40
0.06
 40
0.18
 40
0.18
309
CELLMARGIN_END
 94
        6
 95
        1
302
GRIDFORMAT
  1
GRIDFORMAT_BEGIN
 90
        0
 91
        1
 62
     0
 92
       -2
340
0
 93
        0
 40
0.045
309
GRIDFORMAT_END
 95
        2
302
GRIDFORMAT
  1
GRIDFORMAT_BEGIN
 90
        0
 91
        1
 62
     0
 92
       -2
340
0
 93
        0
 40
0.045
309
GRIDFORMAT_END
 95
        4
302
GRIDFORMAT
  1
GRIDFORMAT_BEGIN
 90
        0
 91
        1
 62
     0
 92
       -2
340
0
 93
        0
 40
0.045
309
GRIDFORMAT_END
 95
        8
302
GRIDFORMAT
  1
GRIDFORMAT_BEGIN
 90
        0
 91
        1
 62
     0
 92
       -2
340
0
 93
        0
 40
0.045
309
GRIDFORMAT_END
 95
       16
302
GRIDFORMAT
  1
GRIDFORMAT_BEGIN
 90
        0
 91
        1
 62
     0
 92
       -2
340
0
 93
        0
 40
0.045
309
GRIDFORMAT_END
 95
       32
302
GRIDFORMAT
  1
GRIDFORMAT_BEGIN
 90
        0
 91
        1
 62
     0
 92
       -2
340
0
 93
        0
 40
0.045
309
GRIDFORMAT_END
309
TABLEFORMAT_END
  1
CELLSTYLE_BEGIN
 90
        3
 91
        2
300
_DATA
309
CELLSTYLE_END
  0
ENDSEC
  0
EOF
