  0
SECTION
  2
HEADER
  9
$ACADVER
  1
AC1021
  9
$ACADMAINTVER
 70
    25
  9
$DWGCODEPAGE
  3
ANSI_932
  9
$LASTSAVEDBY
  1
howeNelson
  9
$INSBASE
 10
0.0
 20
0.0
 30
0.0
  9
$EXTMIN
 10
0.0
 20
0.0
 30
-0.0000000000000142
  9
$EXTMAX
 10
420.0
 20
594.0
 30
0.0
  9
$LIMMIN
 10
0.0
 20
0.0
  9
$LIMMAX
 10
420.0
 20
594.0
  9
$ORTHOMODE
 70
     0
  9
$REGENMODE
 70
     1
  9
$FILLMODE
 70
     1
  9
$QTEXTMODE
 70
     0
  9
$MIRRTEXT
 70
     1
  9
$LTSCALE
 40
50.0
  9
$ATTMODE
 70
     1
  9
$TEXTSIZE
 40
2.5
  9
$TRACEWID
 40
1.0
  9
$TEXTSTYLE
  7
ＭＳ ゴシック
  9
$CLAYER
  8
DIM
  9
$CELTYPE
  6
ByLayer
  9
$CECOLOR
 62
   256
  9
$CELTSCALE
 40
0.05
  9
$DISPSILH
 70
     0
  9
$DIMSCALE
 40
1.0
  9
$DIMASZ
 40
1.0
  9
$DIMEXO
 40
5.0
  9
$DIMDLI
 40
0.9999999999999999
  9
$DIMRND
 40
0.0
  9
$DIMDLE
 40
0.0
  9
$DIMEXE
 40
0.0
  9
$DIMTP
 40
0.0
  9
$DIMTM
 40
0.0
  9
$DIMTXT
 40
5.0
  9
$DIMCEN
 40
0.0
  9
$DIMTSZ
 40
0.0
  9
$DIMTOL
 70
     0
  9
$DIMLIM
 70
     0
  9
$DIMTIH
 70
     0
  9
$DIMTOH
 70
     0
  9
$DIMSE1
 70
     0
  9
$DIMSE2
 70
     0
  9
$DIMTAD
 70
     1
  9
$DIMZIN
 70
    11
  9
$DIMBLK
  1
DOT
  9
$DIMASO
 70
     1
  9
$DIMSHO
 70
     1
  9
$DIMPOST
  1
<>
  9
$DIMAPOST
  1
[]
  9
$DIMALT
 70
     0
  9
$DIMALTD
 70
     1
  9
$DIMALTF
 40
1.0
  9
$DIMLFAC
 40
1.0
  9
$DIMTOFL
 70
     0
  9
$DIMTVP
 40
0.0
  9
$DIMTIX
 70
     1
  9
$DIMSOXD
 70
     0
  9
$DIMSAH
 70
     0
  9
$DIMBLK1
  1

  9
$DIMBLK2
  1

  9
$DIMSTYLE
  2
tfrom線あり
  9
$DIMCLRD
 70
     0
  9
$DIMCLRE
 70
     0
  9
$DIMCLRT
 70
     0
  9
$DIMTFAC
 40
1.0
  9
$DIMGAP
 40
5.0
  9
$DIMJUST
 70
     0
  9
$DIMSD1
 70
     0
  9
$DIMSD2
 70
     0
  9
$DIMTOLJ
 70
     1
  9
$DIMTZIN
 70
    11
  9
$DIMALTZ
 70
    11
  9
$DIMALTTZ
 70
    11
  9
$DIMUPT
 70
     0
  9
$DIMDEC
 70
     0
  9
$DIMTDEC
 70
     1
  9
$DIMALTU
 70
     2
  9
$DIMALTTD
 70
     2
  9
$DIMTXSTY
  7
ＭＳ ゴシック
  9
$DIMAUNIT
 70
     0
  9
$DIMADEC
 70
     2
  9
$DIMALTRND
 40
0.0
  9
$DIMAZIN
 70
     0
  9
$DIMDSEP
 70
    46
  9
$DIMATFIT
 70
     0
  9
$DIMFRAC
 70
     2
  9
$DIMLDRBLK
  1
DOT
  9
$DIMLUNIT
 70
     2
  9
$DIMLWD
 70
    -2
  9
$DIMLWE
 70
    -2
  9
$DIMTMOVE
 70
     0
  9
$DIMFXL
 40
1.0
  9
$DIMFXLON
 70
     0
  9
$DIMJOGANG
 40
0.7853981633974483
  9
$DIMTFILL
 70
     0
  9
$DIMTFILLCLR
 70
     0
  9
$DIMARCSYM
 70
     0
  9
$DIMLTYPE
  6

  9
$DIMLTEX1
  6

  9
$DIMLTEX2
  6

  9
$LUNITS
 70
     2
  9
$LUPREC
 70
     0
  9
$SKETCHINC
 40
0.1
  9
$FILLETRAD
 40
0.0
  9
$AUNITS
 70
     0
  9
$AUPREC
 70
     0
  9
$MENU
  1
acad
  9
$ELEVATION
 40
0.0
  9
$PELEVATION
 40
0.0
  9
$THICKNESS
 40
0.0
  9
$LIMCHECK
 70
     0
  9
$CHAMFERA
 40
0.0
  9
$CHAMFERB
 40
0.0
  9
$CHAMFERC
 40
0.0
  9
$CHAMFERD
 40
0.0
  9
$SKPOLY
 70
     0
  9
$TDCREATE
 40
2447893.375
  9
$TDUCREATE
 40
0.0
  9
$TDUPDATE
 40
2457596.564380729
  9
$TDUUPDATE
 40
2457596.189380729
  9
$TDINDWG
 40
0.3118339699
  9
$TDUSRTIMER
 40
2457596.189303982
  9
$USRTIMER
 70
     1
  9
$ANGBASE
 50
0.0
  9
$ANGDIR
 70
     0
  9
$PDMODE
 70
     1
  9
$PDSIZE
 40
-2.0
  9
$PLINEWID
 40
0.0
  9
$SPLFRAME
 70
     0
  9
$SPLINETYPE
 70
     6
  9
$SPLINESEGS
 70
     8
  9
$HANDSEED
  5
6274
  9
$SURFTAB1
 70
     6
  9
$SURFTAB2
 70
     6
  9
$SURFTYPE
 70
     6
  9
$SURFU
 70
     6
  9
$SURFV
 70
     6
  9
$UCSBASE
  2

  9
$UCSNAME
  2

  9
$UCSORG
 10
0.0
 20
0.0
 30
0.0
  9
$UCSXDIR
 10
1.0
 20
0.0
 30
0.0
  9
$UCSYDIR
 10
0.0
 20
1.0
 30
0.0
  9
$UCSORTHOREF
  2

  9
$UCSORTHOVIEW
 70
     0
  9
$UCSORGTOP
 10
0.0
 20
0.0
 30
0.0
  9
$UCSORGBOTTOM
 10
0.0
 20
0.0
 30
0.0
  9
$UCSORGLEFT
 10
0.0
 20
0.0
 30
0.0
  9
$UCSORGRIGHT
 10
0.0
 20
0.0
 30
0.0
  9
$UCSORGFRONT
 10
0.0
 20
0.0
 30
0.0
  9
$UCSORGBACK
 10
0.0
 20
0.0
 30
0.0
  9
$PUCSBASE
  2

  9
$PUCSNAME
  2

  9
$PUCSORG
 10
0.0
 20
0.0
 30
0.0
  9
$PUCSXDIR
 10
1.0
 20
0.0
 30
0.0
  9
$PUCSYDIR
 10
0.0
 20
1.0
 30
0.0
  9
$PUCSORTHOREF
  2

  9
$PUCSORTHOVIEW
 70
     0
  9
$PUCSORGTOP
 10
0.0
 20
0.0
 30
0.0
  9
$PUCSORGBOTTOM
 10
0.0
 20
0.0
 30
0.0
  9
$PUCSORGLEFT
 10
0.0
 20
0.0
 30
0.0
  9
$PUCSORGRIGHT
 10
0.0
 20
0.0
 30
0.0
  9
$PUCSORGFRONT
 10
0.0
 20
0.0
 30
0.0
  9
$PUCSORGBACK
 10
0.0
 20
0.0
 30
0.0
  9
$USERI1
 70
     0
  9
$USERI2
 70
     0
  9
$USERI3
 70
     0
  9
$USERI4
 70
     0
  9
$USERI5
 70
     0
  9
$USERR1
 40
0.0
  9
$USERR2
 40
0.0
  9
$USERR3
 40
0.0
  9
$USERR4
 40
0.0
  9
$USERR5
 40
0.0
  9
$WORLDVIEW
 70
     1
  9
$SHADEDGE
 70
     3
  9
$SHADEDIF
 70
    70
  9
$TILEMODE
 70
     1
  9
$MAXACTVP
 70
    64
  9
$PINSBASE
 10
0.0
 20
0.0
 30
0.0
  9
$PLIMCHECK
 70
     0
  9
$PEXTMIN
 10
0.0
 20
0.0
 30
0.0
  9
$PEXTMAX
 10
0.0
 20
0.0
 30
0.0
  9
$PLIMMIN
 10
-95.87226993865028
 20
-25.69999999999999
  9
$PLIMMAX
 10
201.1277300613497
 20
184.3
  9
$UNITMODE
 70
     0
  9
$VISRETAIN
 70
     0
  9
$PLINEGEN
 70
     1
  9
$PSLTSCALE
 70
     0
  9
$TREEDEPTH
 70
  3020
  9
$CMLSTYLE
  2
Standard
  9
$CMLJUST
 70
     0
  9
$CMLSCALE
 40
1.0
  9
$PROXYGRAPHICS
 70
     0
  9
$MEASUREMENT
 70
     1
  9
$CELWEIGHT
370
    -1
  9
$ENDCAPS
280
     0
  9
$JOINSTYLE
280
     0
  9
$LWDISPLAY
290
     1
  9
$INSUNITS
 70
     4
  9
$HYPERLINKBASE
  1

  9
$STYLESHEET
  1

  9
$XEDIT
290
     1
  9
$CEPSNTYPE
380
     0
  9
$PSTYLEMODE
290
     1
  9
$FINGERPRINTGUID
  2

  9
$VERSIONGUID
  2

  9
$EXTNAMES
290
     1
  9
$PSVPSCALE
 40
0.0
  9
$OLESTARTUP
290
     0
  9
$SORTENTS
280
   127
  9
$INDEXCTL
280
     0
  9
$HIDETEXT
280
     1
  9
$XCLIPFRAME
290
     0
  9
$HALOGAP
280
     0
  9
$OBSCOLOR
 70
   257
  9
$OBSLTYPE
280
     0
  9
$INTERSECTIONDISPLAY
280
     0
  9
$INTERSECTIONCOLOR
 70
   257
  9
$DIMASSOC
280
     2
  9
$PROJECTNAME
  1

  9
$CAMERADISPLAY
290
     0
  9
$LENSLENGTH
 40
50.0
  9
$CAMERAHEIGHT
 40
0.0
  9
$STEPSPERSEC
 40
2.0
  9
$STEPSIZE
 40
6.0
  9
$3DDWFPREC
 40
2.0
  9
$PSOLWIDTH
 40
0.25
  9
$PSOLHEIGHT
 40
4.0
  9
$LOFTANG1
 40
1.570796326794897
  9
$LOFTANG2
 40
1.570796326794897
  9
$LOFTMAG1
 40
0.0
  9
$LOFTMAG2
 40
0.0
  9
$LOFTPARAM
 70
     7
  9
$LOFTNORMALS
280
     1
  9
$LATITUDE
 40
37.795
  9
$LONGITUDE
 40
-122.394
  9
$NORTHDIRECTION
 40
0.0
  9
$TIMEZONE
 70
 -8000
  9
$LIGHTGLYPHDISPLAY
280
     1
  9
$TILEMODELIGHTSYNCH
280
     1
  9
$SOLIDHIST
280
     1
  9
$SHOWHIST
280
     1
  9
$DWFFRAME
280
     2
  9
$DGNFRAME
280
     2
  9
$REALWORLDSCALE
290
     1
  9
$INTERFERECOLOR
 62
   256
  9
$CSHADOW
280
     0
  9
$SHADOWPLANELOCATION
 40
0.0
  0
ENDSEC
  0
SECTION
  2
CLASSES
  0
CLASS
  1
LWPOLYLINE
  2
AcDbPolyline
  3
ObjectDBX Classes
 90
        0
 91
        1
280
     0
281
     1
  0
CLASS
  1
IMAGE
  2
AcDbRasterImage
  3
ISM
 90
      127
 91
       12
280
     0
281
     1
  0
CLASS
  1
OLE2FRAME
  2
AcDbOle2Frame
  3
ObjectDBX Classes
 90
        0
 91
        1
280
     0
281
     1
  0
CLASS
  1
HATCH
  2
AcDbHatch
  3
ObjectDBX Classes
 90
        0
 91
        1
280
     0
281
     1
  0
CLASS
  1
DICTIONARYVAR
  2
AcDbDictionaryVar
  3
ObjectDBX Classes
 90
        0
 91
       11
280
     0
281
     0
  0
CLASS
  1
RASTERVARIABLES
  2
AcDbRasterVariables
  3
ISM
 90
        0
 91
       11
280
     0
281
     0
  0
CLASS
  1
IMAGEDEF
  2
AcDbRasterImageDef
  3
ISM
 90
        0
 91
       11
280
     0
281
     0
  0
CLASS
  1
IMAGEDEF_REACTOR
  2
AcDbRasterImageDefReactor
  3
ISM
 90
        1
 91
       11
280
     0
281
     0
  0
CLASS
  1
IDBUFFER
  2
AcDbIdBuffer
  3
ObjectDBX Classes
 90
        0
 91
       11
280
     0
281
     0
  0
CLASS
  1
SPATIAL_FILTER
  2
AcDbSpatialFilter
  3
ObjectDBX Classes
 90
        0
 91
       11
280
     0
281
     0
  0
CLASS
  1
XRECORD
  2
AcDbXrecord
  3
ObjectDBX Classes
 90
        0
 91
        1
280
     0
281
     0
  0
CLASS
  1
SORTENTSTABLE
  2
AcDbSortentsTable
  3
ObjectDBX Classes
 90
        0
 91
       11
280
     0
281
     0
  0
CLASS
  1
LAYER_INDEX
  2
AcDbLayerIndex
  3
ObjectDBX Classes
 90
        0
 91
       11
280
     0
281
     0
  0
CLASS
  1
SPATIAL_INDEX
  2
AcDbSpatialIndex
  3
AutoCAD 2000
 90
        0
 91
       11
280
     0
281
     0
  0
CLASS
  1
OBJECT_PTR
  2
CAseDLPNTableRecord
  3
ASE-LPNTableRecord
 90
        1
 91
       11
280
     0
281
     0
  0
CLASS
  1
LAYOUT
  2
AcDbLayout
  3
ObjectDBX Classes
 90
        0
 91
        1
280
     0
281
     0
  0
CLASS
  1
PLOTSETTINGS
  2
AcDbPlotSettings
  3
ObjectDBX Classes
 90
        0
 91
       11
280
     0
281
     0
  0
CLASS
  1
ACDBDICTIONARYWDFLT
  2
AcDbDictionaryWithDefault
  3
ObjectDBX Classes
 90
        0
 91
       11
280
     0
281
     0
  0
CLASS
  1
ACDBPLACEHOLDER
  2
AcDbPlaceHolder
  3
ObjectDBX Classes
 90
        0
 91
        1
280
     0
281
     0
  0
CLASS
  1
SCALE
  2
AcDbScale
  3
ObjectDBX Classes
 90
     1153
 91
       11
280
     0
281
     0
  0
CLASS
  1
MATERIAL
  2
AcDbMaterial
  3
ObjectDBX Classes
 90
     1153
 91
       11
280
     0
281
     0
  0
CLASS
  1
VISUALSTYLE
  2
AcDbVisualStyle
  3
ObjectDBX Classes
 90
     4095
 91
       11
280
     0
281
     0
  0
CLASS
  1
TABLESTYLE
  2
AcDbTableStyle
  3
ObjectDBX Classes
 90
     4095
 91
       11
280
     0
281
     0
  0
CLASS
  1
DIMASSOC
  2
AcDbDimAssoc
  3
"AcDbDimAssoc|Product Desc:     AcDim ARX App For Dimension|Company:          Autodesk, Inc.|WEB Address:      www.autodesk.com"
 90
        0
 91
       11
280
     0
281
     0
  0
CLASS
  1
CELLSTYLEMAP
  2
AcDbCellStyleMap
  3
ObjectDBX Classes
 90
     1152
 91
       11
280
     0
281
     0
  0
CLASS
  1
SUN
  2
AcDbSun
  3
SCENEOE
 90
     1153
 91
       11
280
     0
281
     0
  0
CLASS
  1
MLEADERSTYLE
  2
AcDbMLeaderStyle
  3
ACDB_MLEADERSTYLE_CLASS
 90
     4095
 91
       11
280
     0
281
     0
  0
CLASS
  1
FIELD
  2
AcDbField
  3
ObjectDBX Classes
 90
     1152
 91
       11
280
     0
281
     0
  0
CLASS
  1
FIELDLIST
  2
AcDbFieldList
  3
ObjectDBX Classes
 90
     1152
 91
       11
280
     0
281
     0
  0
ENDSEC
  0
SECTION
  2
TABLES
  0
TABLE
  2
VPORT
  5
7
330
0
100
AcDbSymbolTable
 70
     1
  0
VPORT
  5
15
330
7
100
AcDbSymbolTableRecord
100
AcDbViewportTableRecord
  2
*ACTIVE
 70
     0
 10
0.0
 20
0.0
 11
1.0
 21
1.0
 12
301.0201356709085
 22
223.401285469834
 13
0.0
 23
0.0
 14
1.0
 24
1.0
 15
0.0
 25
0.0
 16
0.0
 26
0.0
 36
1.0
 17
-91.02013567090853
 27
73.59871453016603
 37
-46.86809886248109
 40
605.8800000000005
 41
2.479940564635958
 42
50.0
 43
0.0
 44
0.0
 50
0.0
 51
0.0
 71
    16
 72
  2000
 73
     1
 74
     1
 75
     0
 76
     0
 77
     0
 78
     0
281
     0
 65
     1
110
0.0
120
0.0
130
0.0
111
1.0
121
0.0
131
0.0
112
0.0
122
1.0
132
0.0
 79
     0
146
0.0
348
26C
 60
     3
 61
     5
292
     1
282
     1
141
0.0
142
0.0
 63
   256
361
904
  0
ENDTAB
  0
TABLE
  2
LTYPE
  5
4
330
0
100
AcDbSymbolTable
 70
     4
  0
LTYPE
  5
11
330
4
100
AcDbSymbolTableRecord
100
AcDbLinetypeTableRecord
  2
ByBlock
 70
     0
  3

 72
    65
 73
     0
 40
0.0
  0
LTYPE
  5
12
330
4
100
AcDbSymbolTableRecord
100
AcDbLinetypeTableRecord
  2
ByLayer
 70
     0
  3

 72
    65
 73
     0
 40
0.0
  0
LTYPE
  5
13
330
4
100
AcDbSymbolTableRecord
100
AcDbLinetypeTableRecord
  2
Continuous
 70
     0
  3
Solid line
 72
    65
 73
     0
 40
0.0
  0
LTYPE
  5
D6C
330
4
100
AcDbSymbolTableRecord
100
AcDbLinetypeTableRecord
  2
BORDER
 70
     0
  3
Border __  __  . __  __  . __  __  . __  __  . 
 72
    65
 73
     6
 40
44.45
 49
12.7
 74
     0
 49
-6.35
 74
     0
 49
12.7
 74
     0
 49
-6.35
 74
     0
 49
0.0
 74
     0
 49
-6.35
 74
     0
  0
LTYPE
  5
1638
330
4
100
AcDbSymbolTableRecord
100
AcDbLinetypeTableRecord
  2
HIDDEN2
 70
     0
  3
Hidden (.5x) _ _ _ _ _ _ _ _ _ _ _ _ _ _ _ _ _ 
 72
    65
 73
     2
 40
4.7625
 49
3.175
 74
     4
 75
     0
340
0
 46
0.0
 50
0.0
 44
0.0
 45
0.0
 49
-1.5875
 74
     4
 75
     0
340
0
 46
0.0
 50
0.0
 44
0.0
 45
0.0
  0
LTYPE
  5
5FD1
330
4
100
AcDbSymbolTableRecord
100
AcDbLinetypeTableRecord
  2
CENTER2
 70
     0
  3
Center (.5x) ___ _ ___ _ ___ _ ___ _ ___ _ ___
 72
    65
 73
     4
 40
28.575
 49
19.05
 74
     4
 75
     0
340
0
 46
0.0
 50
0.0
 44
0.0
 45
0.0
 49
-3.175
 74
     4
 75
     0
340
0
 46
0.0
 50
0.0
 44
0.0
 45
0.0
 49
3.175
 74
     4
 75
     0
340
0
 46
0.0
 50
0.0
 44
0.0
 45
0.0
 49
-3.175
 74
     4
 75
     0
340
0
 46
0.0
 50
0.0
 44
0.0
 45
0.0
  0
ENDTAB
  0
TABLE
  2
LAYER
  5
2
102
{ACAD_XDICTIONARY
360
2E1
102
}
330
0
100
AcDbSymbolTable
 70
    14
  0
LAYER
  5
14
330
2
100
AcDbSymbolTableRecord
100
AcDbLayerTableRecord
  2
0
 70
     0
 62
     7
  6
Continuous
370
    -3
390
1D
347
266
  0
LAYER
  5
4B
330
2
100
AcDbSymbolTableRecord
100
AcDbLayerTableRecord
  2
TEMPLATE
 70
     0
 62
     7
  6
Continuous
370
    20
390
1D
347
266
  0
LAYER
  5
4C
330
2
100
AcDbSymbolTableRecord
100
AcDbLayerTableRecord
  2
DIM
 70
     0
 62
     3
  6
Continuous
370
    13
390
1D
347
266
  0
LAYER
  5
4D
330
2
100
AcDbSymbolTableRecord
100
AcDbLayerTableRecord
  2
MODEL
 70
     0
 62
     7
  6
Continuous
370
    20
390
1D
347
266
  0
LAYER
  5
667
330
2
100
AcDbSymbolTableRecord
100
AcDbLayerTableRecord
  2
LOGO
 70
     0
 62
     7
  6
Continuous
370
    -3
390
1D
347
266
  0
LAYER
  5
D6B
330
2
100
AcDbSymbolTableRecord
100
AcDbLayerTableRecord
  2
BORDER
 70
     0
 62
     4
  6
BORDER
290
     0
370
    20
390
1D
347
266
1001
AcAecLayerStandard
1000

1000

  0
LAYER
  5
D8C
330
2
100
AcDbSymbolTableRecord
100
AcDbLayerTableRecord
  2
Defpoints
 70
     0
 62
     7
  6
Continuous
290
     0
370
    -3
390
1D
347
266
  0
LAYER
  5
1635
330
2
100
AcDbSymbolTableRecord
100
AcDbLayerTableRecord
  2
Standard
 70
     0
 62
     7
  6
Continuous
370
    -3
390
1D
347
266
  0
LAYER
  5
3445
330
2
100
AcDbSymbolTableRecord
100
AcDbLayerTableRecord
  2
Layer50
 70
     0
 62
     7
  6
Continuous
370
    -3
390
1D
347
266
  0
LAYER
  5
5FC9
330
2
100
AcDbSymbolTableRecord
100
AcDbLayerTableRecord
  2
Layer200
 70
     0
 62
     7
  6
Continuous
370
    -3
390
1D
347
266
  0
LAYER
  5
5FCB
330
2
100
AcDbSymbolTableRecord
100
AcDbLayerTableRecord
  2
Layer1
 70
     0
 62
     7
  6
Continuous
370
    -3
390
1D
347
266
  0
LAYER
  5
5FCC
330
2
100
AcDbSymbolTableRecord
100
AcDbLayerTableRecord
  2
Layer2
 70
     0
 62
     7
  6
Continuous
370
    -3
390
1D
347
266
  0
LAYER
  5
5FCE
330
2
100
AcDbSymbolTableRecord
100
AcDbLayerTableRecord
  2
Default
 70
     0
 62
     7
  6
Continuous
370
    -3
390
1D
347
266
  0
LAYER
  5
5FCF
330
2
100
AcDbSymbolTableRecord
100
AcDbLayerTableRecord
  2
Layer3
 70
     0
 62
     7
  6
Continuous
370
    -3
390
1D
347
266
  0
ENDTAB
  0
TABLE
  2
STYLE
  5
3
330
0
100
AcDbSymbolTable
 70
     4
  0
STYLE
  5
17
330
3
100
AcDbSymbolTableRecord
100
AcDbTextStyleTableRecord
  2
Standard
 70
     0
 40
0.0
 41
1.0
 50
0.0
 71
     0
 42
2.5
  3
txt
  4
BIGFONT.SHX
  0
STYLE
  5
39
330
3
100
AcDbSymbolTableRecord
100
AcDbTextStyleTableRecord
  2
ＭＳ ゴシック
 70
     0
 40
0.0
 41
1.0
 50
0.0
 71
     0
 42
2.5
  3
msgothic.ttc
  4
ＭＳ ゴシック
1001
ACAD
1000
ＭＳ ゴシック
1071
        0
  0
STYLE
  5
5D3A
330
3
100
AcDbSymbolTableRecord
100
AcDbTextStyleTableRecord
  2
SEACAD_arial_ttf
 70
     0
 40
0.2
 41
1.0
 50
0.0
 71
     0
 42
2.5
  3
arial.ttf
  4

  0
STYLE
  5
5D3B
330
3
100
AcDbSymbolTableRecord
100
AcDbTextStyleTableRecord
  2
SEACAD_semeca1_ttf
 70
     0
 40
0.2
 41
1.0
 50
0.0
 71
     0
 42
2.5
  3
semeca1.ttf
  4

  0
ENDTAB
  0
TABLE
  2
VIEW
  5
5
330
0
100
AcDbSymbolTable
 70
     0
  0
ENDTAB
  0
TABLE
  2
UCS
  5
6
330
0
100
AcDbSymbolTable
 70
     0
  0
ENDTAB
  0
TABLE
  2
APPID
  5
8
330
0
100
AcDbSymbolTable
 70
     3
  0
APPID
  5
16
330
8
100
AcDbSymbolTableRecord
100
AcDbRegAppTableRecord
  2
ACAD
 70
     0
  0
APPID
  5
7AC
330
8
100
AcDbSymbolTableRecord
100
AcDbRegAppTableRecord
  2
AcAecLayerStandard
 70
     0
  0
APPID
  5
E29
330
8
100
AcDbSymbolTableRecord
100
AcDbRegAppTableRecord
  2
ACAD_MLEADERVER
 70
     0
  0
ENDTAB
  0
TABLE
  2
DIMSTYLE
  5
9
330
0
100
AcDbSymbolTable
 70
     4
100
AcDbDimStyleTable
  0
DIMSTYLE
105
18
330
9
100
AcDbSymbolTableRecord
100
AcDbDimStyleTableRecord
  2
Standard
 70
     0
178
     0
340
17
  0
DIMSTYLE
105
57
102
{ACAD_REACTORS
330
6109
330
610A
330
6177
102
}
330
9
100
AcDbSymbolTableRecord
100
AcDbDimStyleTableRecord
  2
tfrom線あり
 70
     0
  3
<>
  4
[]
 41
1.0
 42
5.0
 43
0.9999999999999999
 44
0.0
 73
     0
 74
     0
 77
     1
 78
    11
140
5.0
141
0.0
143
1.0
147
5.0
171
     1
174
     1
178
     0
179
     2
271
     0
272
     1
276
     2
284
    11
285
    11
286
    11
289
     0
340
39
341
4E
342
4E
  0
DIMSTYLE
105
5FD3
330
9
100
AcDbSymbolTableRecord
100
AcDbDimStyleTableRecord
  2
ISO-25
 70
     0
 41
2.5
 42
0.625
 43
3.75
 44
1.25
 73
     0
 74
     0
 77
     1
 78
     8
140
2.5
141
2.5
143
0.0393700787
147
0.625
171
     3
172
     1
178
     0
271
     2
272
     2
274
     3
278
    44
283
     0
284
     8
340
17
  0
DIMSTYLE
105
5FD5
330
9
100
AcDbSymbolTableRecord
100
AcDbDimStyleTableRecord
  2
$DDT_AUDIT_GENERATED_(A6)
 70
     0
 41
6.0
 42
0.0
 44
3.0
 78
     8
140
6.0
141
3.0
147
3.0
173
     1
176
   136
177
   136
271
     0
178
   136
271
     0
272
     0
278
    44
284
     8
340
5D3A
343
5FD7
344
5FD7
  0
ENDTAB
  0
TABLE
  2
BLOCK_RECORD
  5
1
330
0
100
AcDbSymbolTable
 70
    31
  0
BLOCK_RECORD
  5
A
330
1
100
AcDbSymbolTableRecord
100
AcDbBlockTableRecord
  2
*MODEL_SPACE
340
20
 70
     0
280
     1
281
     0
  0
BLOCK_RECORD
  5
B
330
1
100
AcDbSymbolTableRecord
100
AcDbBlockTableRecord
  2
*PAPER_SPACE
340
21
 70
     0
280
     1
281
     0
  0
BLOCK_RECORD
  5
4E
330
1
100
AcDbSymbolTableRecord
100
AcDbBlockTableRecord
  2
_DOT
340
0
102
{BLKREFS
331
5C19
331
5C1A
331
5C2B
331
5C2C
331
5C38
331
5C39
331
5C4D
331
5C4E
331
5CA3
331
5CA4
331
5CD3
331
5CD4
331
5EFA
331
5EFB
331
5F0A
331
5F0B
331
5F17
331
5F18
331
5F29
331
5F2A
331
6116
331
6117
331
6123
331
6124
331
6130
331
6131
331
613D
331
613E
331
614A
331
614B
331
6158
331
6159
331
617E
331
617F
102
}
 70
     0
280
     1
281
     0
  0
BLOCK_RECORD
  5
68A
330
1
100
AcDbSymbolTableRecord
100
AcDbBlockTableRecord
  2
名称未設定-1
340
0
102
{BLKREFS
331
6B5
102
}
 70
     1
280
     1
281
     0
  0
BLOCK_RECORD
  5
68D
330
1
100
AcDbSymbolTableRecord
100
AcDbBlockTableRecord
  2
block 2
340
0
102
{BLKREFS
331
68C
331
1343
102
}
 70
     0
280
     1
281
     0
  0
BLOCK_RECORD
  5
690
330
1
100
AcDbSymbolTableRecord
100
AcDbBlockTableRecord
  2
block 3
340
0
102
{BLKREFS
331
68F
102
}
 70
     0
280
     1
281
     0
  0
BLOCK_RECORD
  5
693
330
1
100
AcDbSymbolTableRecord
100
AcDbBlockTableRecord
  2
block 4
340
0
102
{BLKREFS
331
692
102
}
 70
     0
280
     1
281
     0
  0
BLOCK_RECORD
  5
6A2
330
1
100
AcDbSymbolTableRecord
100
AcDbBlockTableRecord
  2
block 5
340
0
102
{BLKREFS
331
6A1
102
}
 70
     0
280
     1
281
     0
  0
BLOCK_RECORD
  5
5C13
330
1
100
AcDbSymbolTableRecord
100
AcDbBlockTableRecord
  2
*D6
340
0
 70
     0
280
     1
281
     0
  0
BLOCK_RECORD
  5
5C25
330
1
100
AcDbSymbolTableRecord
100
AcDbBlockTableRecord
  2
*D7
340
0
 70
     0
280
     1
281
     0
  0
BLOCK_RECORD
  5
5C32
330
1
100
AcDbSymbolTableRecord
100
AcDbBlockTableRecord
  2
*D8
340
0
 70
     0
280
     1
281
     0
  0
BLOCK_RECORD
  5
5C47
330
1
100
AcDbSymbolTableRecord
100
AcDbBlockTableRecord
  2
*D9
340
0
 70
     0
280
     1
281
     0
  0
BLOCK_RECORD
  5
5C9D
330
1
100
AcDbSymbolTableRecord
100
AcDbBlockTableRecord
  2
*D10
340
0
 70
     0
280
     1
281
     0
  0
BLOCK_RECORD
  5
5CCD
330
1
100
AcDbSymbolTableRecord
100
AcDbBlockTableRecord
  2
*D11
340
0
 70
     0
280
     1
281
     0
  0
BLOCK_RECORD
  5
5EF4
330
1
100
AcDbSymbolTableRecord
100
AcDbBlockTableRecord
  2
*D12
340
0
 70
     0
280
     1
281
     0
  0
BLOCK_RECORD
  5
5F04
330
1
100
AcDbSymbolTableRecord
100
AcDbBlockTableRecord
  2
*D13
340
0
 70
     0
280
     1
281
     0
  0
BLOCK_RECORD
  5
5F11
330
1
100
AcDbSymbolTableRecord
100
AcDbBlockTableRecord
  2
*D14
340
0
 70
     0
280
     1
281
     0
  0
BLOCK_RECORD
  5
5F23
330
1
100
AcDbSymbolTableRecord
100
AcDbBlockTableRecord
  2
*D15
340
0
 70
     0
280
     1
281
     0
  0
BLOCK_RECORD
  5
5FD7
330
1
100
AcDbSymbolTableRecord
100
AcDbBlockTableRecord
  2
_SE_FILLED
340
0
102
{BLKREFS
331
605B
331
605C
331
6066
331
6067
331
6072
331
6073
331
607D
331
607E
331
6088
331
6089
331
6094
331
6095
102
}
 70
     0
280
     1
281
     0
1001
ACAD
1000
DesignCenter Data
1002
{
1070
     1
1070
     0
1002
}
  0
BLOCK_RECORD
  5
6055
330
1
100
AcDbSymbolTableRecord
100
AcDbBlockTableRecord
  2
DMBLK1
340
0
 70
     0
280
     1
281
     0
1001
ACAD
1000
DesignCenter Data
1002
{
1070
     1
1070
     0
1002
}
  0
BLOCK_RECORD
  5
6060
330
1
100
AcDbSymbolTableRecord
100
AcDbBlockTableRecord
  2
DMBLK2
340
0
 70
     0
280
     1
281
     0
1001
ACAD
1000
DesignCenter Data
1002
{
1070
     1
1070
     0
1002
}
  0
BLOCK_RECORD
  5
606C
330
1
100
AcDbSymbolTableRecord
100
AcDbBlockTableRecord
  2
DMBLK3
340
0
 70
     0
280
     1
281
     0
1001
ACAD
1000
DesignCenter Data
1002
{
1070
     1
1070
     0
1002
}
  0
BLOCK_RECORD
  5
6077
330
1
100
AcDbSymbolTableRecord
100
AcDbBlockTableRecord
  2
DMBLK4
340
0
 70
     0
280
     1
281
     0
1001
ACAD
1000
DesignCenter Data
1002
{
1070
     1
1070
     0
1002
}
  0
BLOCK_RECORD
  5
6082
330
1
100
AcDbSymbolTableRecord
100
AcDbBlockTableRecord
  2
DMBLK5
340
0
 70
     0
280
     1
281
     0
1001
ACAD
1000
DesignCenter Data
1002
{
1070
     1
1070
     0
1002
}
  0
BLOCK_RECORD
  5
608D
330
1
100
AcDbSymbolTableRecord
100
AcDbBlockTableRecord
  2
DMBLK6
340
0
 70
     0
280
     1
281
     0
1001
ACAD
1000
DesignCenter Data
1002
{
1070
     1
1070
     0
1002
}
  0
BLOCK_RECORD
  5
6110
330
1
100
AcDbSymbolTableRecord
100
AcDbBlockTableRecord
  2
*D23
340
0
 70
     0
280
     1
281
     0
  0
BLOCK_RECORD
  5
611D
330
1
100
AcDbSymbolTableRecord
100
AcDbBlockTableRecord
  2
*D24
340
0
 70
     0
280
     1
281
     0
  0
BLOCK_RECORD
  5
612A
330
1
100
AcDbSymbolTableRecord
100
AcDbBlockTableRecord
  2
*D25
340
0
 70
     0
280
     1
281
     0
  0
BLOCK_RECORD
  5
6137
330
1
100
AcDbSymbolTableRecord
100
AcDbBlockTableRecord
  2
*D26
340
0
 70
     0
280
     1
281
     0
  0
BLOCK_RECORD
  5
6144
330
1
100
AcDbSymbolTableRecord
100
AcDbBlockTableRecord
  2
*D27
340
0
 70
     0
280
     1
281
     0
  0
BLOCK_RECORD
  5
6151
330
1
100
AcDbSymbolTableRecord
100
AcDbBlockTableRecord
  2
*D28
340
0
 70
     0
280
     1
281
     0
  0
BLOCK_RECORD
  5
6178
330
1
100
AcDbSymbolTableRecord
100
AcDbBlockTableRecord
  2
*D29
340
0
 70
     0
280
     1
281
     0
  0
ENDTAB
  0
ENDSEC
  0
SECTION
  2
BLOCKS
  0
BLOCK
  5
D
330
A
100
AcDbEntity
  8
0
390
1D
100
AcDbBlockBegin
  2
*MODEL_SPACE
 70
     0
 10
0.0
 20
0.0
 30
0.0
  3
*MODEL_SPACE
  1
*MODEL_SPACE
  0
ENDBLK
  5
E
330
A
100
AcDbEntity
  8
0
390
1D
100
AcDbBlockEnd
  0
BLOCK
  5
F
330
B
100
AcDbEntity
 67
     1
  8
0
390
1D
100
AcDbBlockBegin
  2
*PAPER_SPACE
 70
     0
 10
0.0
 20
0.0
 30
0.0
  3
*PAPER_SPACE
  1
*PAPER_SPACE
  0
ENDBLK
  5
10
330
B
100
AcDbEntity
 67
     1
  8
0
390
1D
100
AcDbBlockEnd
  0
BLOCK
  5
38A8
330
4E
100
AcDbEntity
  8
0
390
1D
100
AcDbBlockBegin
  2
_DOT
 70
     0
 10
0.0
 20
0.0
 30
0.0
  3
_DOT
  1
_DOT
  0
POLYLINE
  5
38AA
330
4E
100
AcDbEntity
  8
0
  6
ByBlock
 62
     0
370
    -2
390
1D
100
AcDb2dPolyline
 66
     1
 10
0.0
 20
0.0
 30
0.0
 70
     1
 40
0.5
 41
0.5
  0
VERTEX
  5
38AB
330
38AA
100
AcDbEntity
  8
0
  6
ByBlock
 62
     0
370
    -2
390
1D
100
AcDbVertex
100
AcDb2dVertex
 10
-0.25
 20
0.0
 30
0.0
 42
1.0
  0
VERTEX
  5
38AC
330
38AA
100
AcDbEntity
  8
0
  6
ByBlock
 62
     0
370
    -2
390
1D
100
AcDbVertex
100
AcDb2dVertex
 10
0.25
 20
0.0
 30
0.0
 42
1.0
  0
SEQEND
  5
38AD
330
38AA
100
AcDbEntity
  8
0
390
1D
  0
LINE
  5
38AE
330
4E
100
AcDbEntity
  8
0
  6
ByBlock
 62
     0
370
    -2
390
1D
100
AcDbLine
 10
-0.5
 20
0.0
 30
0.0
 11
-1.0
 21
0.0
 31
0.0
  0
ENDBLK
  5
38AF
330
4E
100
AcDbEntity
  8
0
390
1D
100
AcDbBlockEnd
  0
BLOCK
  5
68B
330
68A
100
AcDbEntity
  8
0
100
AcDbBlockBegin
  2
名称未設定-1
 70
     0
 10
0.0
 20
0.0
 30
0.0
  3
名称未設定-1
  1
名称未設定-1
  0
INSERT
  5
68F
330
68A
100
AcDbEntity
  8
LOGO
100
AcDbBlockReference
  2
block 3
 10
0.0
 20
0.0
 30
0.0
  0
ENDBLK
  5
6B1
330
68A
100
AcDbEntity
  8
0
100
AcDbBlockEnd
  0
BLOCK
  5
68E
330
68D
100
AcDbEntity
  8
0
100
AcDbBlockBegin
  2
block 2
 70
     0
 10
0.0
 20
0.0
 30
0.0
  3
block 2
  1
block 2
  0
ENDBLK
  5
6B0
330
68D
100
AcDbEntity
  8
0
100
AcDbBlockEnd
  0
BLOCK
  5
691
330
690
100
AcDbEntity
  8
0
100
AcDbBlockBegin
  2
block 3
 70
     0
 10
0.0
 20
0.0
 30
0.0
  3
block 3
  1
block 3
  0
INSERT
  5
692
330
690
100
AcDbEntity
  8
LOGO
100
AcDbBlockReference
  2
block 4
 10
0.0
 20
0.0
 30
0.0
  0
INSERT
  5
6A1
330
690
100
AcDbEntity
  8
LOGO
100
AcDbBlockReference
  2
block 5
 10
0.0
 20
0.0
 30
0.0
  0
ENDBLK
  5
6AF
330
690
100
AcDbEntity
  8
0
100
AcDbBlockEnd
  0
BLOCK
  5
694
330
693
100
AcDbEntity
  8
0
100
AcDbBlockBegin
  2
block 4
 70
     0
 10
0.0
 20
0.0
 30
0.0
  3
block 4
  1
block 4
  0
POLYLINE
  5
695
330
693
100
AcDbEntity
  8
LOGO
370
     0
100
AcDb2dPolyline
 66
     1
 10
0.0
 20
0.0
 30
0.0
  0
VERTEX
  5
696
330
695
100
AcDbEntity
  8
LOGO
370
     0
100
AcDbVertex
100
AcDb2dVertex
 10
83.79545727667795
 20
167.6444858234922
 30
0.0
  0
VERTEX
  5
697
330
695
100
AcDbEntity
  8
LOGO
370
     0
100
AcDbVertex
100
AcDb2dVertex
 10
83.79545727667795
 20
159.7968976406313
 30
0.0
  0
VERTEX
  5
698
330
695
100
AcDbEntity
  8
LOGO
370
     0
100
AcDbVertex
100
AcDb2dVertex
 10
71.3631329975216
 20
159.7968976406313
 30
0.0
  0
VERTEX
  5
699
330
695
100
AcDbEntity
  8
LOGO
370
     0
100
AcDbVertex
100
AcDb2dVertex
 10
71.3631329975216
 20
127.8027915271048
 30
0.0
  0
VERTEX
  5
69A
330
695
100
AcDbEntity
  8
LOGO
370
     0
100
AcDbVertex
100
AcDb2dVertex
 10
60.43011526263018
 20
127.8027915271048
 30
0.0
  0
VERTEX
  5
69B
330
695
100
AcDbEntity
  8
LOGO
370
     0
100
AcDbVertex
100
AcDb2dVertex
 10
60.43011526263018
 20
159.7968976406313
 30
0.0
  0
VERTEX
  5
69C
330
695
100
AcDbEntity
  8
LOGO
370
     0
100
AcDbVertex
100
AcDb2dVertex
 10
48.21793273020759
 20
159.7968976406313
 30
0.0
  0
VERTEX
  5
69D
330
695
100
AcDbEntity
  8
LOGO
370
     0
100
AcDbVertex
100
AcDb2dVertex
 10
48.21793273020759
 20
167.6444858234922
 30
0.0
  0
VERTEX
  5
69E
330
695
100
AcDbEntity
  8
LOGO
370
     0
100
AcDbVertex
100
AcDb2dVertex
 10
83.79545727667795
 20
167.6444858234922
 30
0.0
  0
SEQEND
  5
69F
330
695
100
AcDbEntity
  8
LOGO
370
     0
  0
HATCH
  5
6A0
330
693
100
AcDbEntity
  8
LOGO
 62
   250
420
  2234388
100
AcDbHatch
 10
0.0
 20
0.0
 30
0.0
210
0.0
220
0.0
230
1.0
  2
SOLID
 70
     1
 71
     0
 91
        1
 92
        1
 93
        8
 72
     1
 10
83.79545727667795
 20
167.6444858234922
 11
83.79545727667795
 21
159.7968976406313
 72
     1
 10
83.79545727667795
 20
159.7968976406313
 11
71.3631329975216
 21
159.7968976406313
 72
     1
 10
71.3631329975216
 20
159.7968976406313
 11
71.3631329975216
 21
127.8027915271048
 72
     1
 10
71.3631329975216
 20
127.8027915271048
 11
60.43011526263018
 21
127.8027915271048
 72
     1
 10
60.43011526263018
 20
127.8027915271048
 11
60.43011526263018
 21
159.7968976406313
 72
     1
 10
60.43011526263018
 20
159.7968976406313
 11
48.21793273020759
 21
159.7968976406313
 72
     1
 10
48.21793273020759
 20
159.7968976406313
 11
48.21793273020759
 21
167.6444858234922
 72
     1
 10
48.21793273020759
 20
167.6444858234922
 11
83.79545727667795
 21
167.6444858234922
 97
        0
 75
     2
 76
     1
 98
        0
  0
ENDBLK
  5
6AE
330
693
100
AcDbEntity
  8
0
100
AcDbBlockEnd
  0
BLOCK
  5
6A3
330
6A2
100
AcDbEntity
  8
0
100
AcDbBlockBegin
  2
block 5
 70
     0
 10
0.0
 20
0.0
 30
0.0
  3
block 5
  1
block 5
  0
SPLINE
  5
6A4
330
6A2
100
AcDbEntity
  8
LOGO
370
     0
100
AcDbSpline
210
0.0
220
0.0
230
1.0
 70
    11
 71
     3
 72
    56
 73
    52
 74
     0
 42
0.000000001
 43
0.0000000001
 40
0.0
 40
0.0
 40
0.0
 40
0.0
 40
1.0
 40
1.0
 40
1.0
 40
2.0
 40
2.0
 40
2.0
 40
3.0
 40
3.0
 40
3.0
 40
4.0
 40
4.0
 40
4.0
 40
5.0
 40
5.0
 40
5.0
 40
6.0
 40
6.0
 40
6.0
 40
7.0
 40
7.0
 40
7.0
 40
8.0
 40
8.0
 40
8.0
 40
9.0
 40
9.0
 40
9.0
 40
10.0
 40
10.0
 40
10.0
 40
11.0
 40
11.0
 40
11.0
 40
12.0
 40
12.0
 40
12.0
 40
13.0
 40
13.0
 40
13.0
 40
14.0
 40
14.0
 40
14.0
 40
15.0
 40
15.0
 40
15.0
 40
16.0
 40
16.0
 40
16.0
 40
17.0
 40
17.0
 40
17.0
 40
17.0
 10
100.4504378777679
 20
166.69157178364
 30
0.0
 10
101.9848844191641
 20
167.1313385124438
 30
0.0
 10
103.9637485713373
 20
166.7649523658846
 30
0.0
 10
103.9637485713373
 20
166.7649523658846
 30
0.0
 10
103.9637485713373
 20
166.7649523658846
 30
0.0
 10
103.0132460999156
 20
163.911205638077
 30
0.0
 10
103.0132460999156
 20
163.911205638077
 30
0.0
 10
103.0132460999156
 20
163.911205638077
 30
0.0
 10
101.0674548862189
 20
164.3601018759394
 30
0.0
 10
99.57090442016032
 20
163.1805004036133
 30
0.0
 10
98.40508333886608
 20
162.258247733807
 30
0.0
 10
97.65301849830304
 20
159.804132345923
 30
0.0
 10
97.3598406791005
 20
158.8699940888517
 30
0.0
 10
97.3598406791005
 20
158.8699940888517
 30
0.0
 10
96.07137411762282
 20
154.9119212747295
 30
0.0
 10
96.07137411762282
 20
154.9119212747295
 30
0.0
 10
96.07137411762282
 20
154.9119212747295
 30
0.0
 10
100.3012651448482
 20
154.9119212747295
 30
0.0
 10
100.3012651448482
 20
154.9119212747295
 30
0.0
 10
100.3012651448482
 20
154.9119212747295
 30
0.0
 10
99.64152892419852
 20
152.4199098115079
 30
0.0
 10
99.64152892419852
 20
152.4199098115079
 30
0.0
 10
99.64152892419852
 20
152.4199098115079
 30
0.0
 10
95.38097652692731
 20
152.4199098115079
 30
0.0
 10
95.38097652692731
 20
152.4199098115079
 30
0.0
 10
95.38097652692731
 20
152.4199098115079
 30
0.0
 10
87.75353009080013
 20
127.8027915271048
 30
0.0
 10
87.75353009080013
 20
127.8027915271048
 30
0.0
 10
87.75353009080013
 20
127.8027915271048
 30
0.0
 10
85.36538832498108
 20
127.8027915271048
 30
0.0
 10
85.36538832498108
 20
127.8027915271048
 30
0.0
 10
85.36538832498108
 20
127.8027915271048
 30
0.0
 10
93.00006946639998
 20
152.4199098115079
 30
0.0
 10
93.00006946639998
 20
152.4199098115079
 30
0.0
 10
93.00006946639998
 20
152.4199098115079
 30
0.0
 10
89.85297266450198
 20
152.4199098115079
 30
0.0
 10
89.85297266450198
 20
152.4199098115079
 30
0.0
 10
89.85297266450198
 20
152.4199098115079
 30
0.0
 10
90.51270888515164
 20
154.9119212747295
 30
0.0
 10
90.51270888515164
 20
154.9119212747295
 30
0.0
 10
90.51270888515164
 20
154.9119212747295
 30
0.0
 10
93.6904670570955
 20
154.9119212747295
 30
0.0
 10
93.6904670570955
 20
154.9119212747295
 30
0.0
 10
93.6904670570955
 20
154.9119212747295
 30
0.0
 10
94.81598049462158
 20
158.3616699146644
 30
0.0
 10
94.81598049462158
 20
158.3616699146644
 30
0.0
 10
95.7237637538445
 20
161.2605474231013
 30
0.0
 10
96.4968436907311
 20
162.8139420021662
 30
0.0
 10
97.15657991138076
 20
163.9844139654337
 30
0.0
 10
97.81183750494507
 20
165.1523021053827
 30
0.0
 10
99.1047826935081
 20
166.3084769129547
 30
0.0
 10
100.4504378777679
 20
166.69157178364
 30
0.0
  0
HATCH
  5
6A5
330
6A2
100
AcDbEntity
  8
LOGO
 62
   250
420
  2234388
100
AcDbHatch
 10
0.0
 20
0.0
 30
0.0
210
0.0
220
0.0
230
1.0
  2
SOLID
 70
     1
 71
     0
 91
        1
 92
        1
 93
        1
 72
     4
 94
        3
 73
     0
 74
     1
 95
       56
 96
       52
 40
0.0
 40
0.0
 40
0.0
 40
0.0
 40
1.0
 40
1.0
 40
1.0
 40
2.0
 40
2.0
 40
2.0
 40
3.0
 40
3.0
 40
3.0
 40
4.0
 40
4.0
 40
4.0
 40
5.0
 40
5.0
 40
5.0
 40
6.0
 40
6.0
 40
6.0
 40
7.0
 40
7.0
 40
7.0
 40
8.0
 40
8.0
 40
8.0
 40
9.0
 40
9.0
 40
9.0
 40
10.0
 40
10.0
 40
10.0
 40
11.0
 40
11.0
 40
11.0
 40
12.0
 40
12.0
 40
12.0
 40
13.0
 40
13.0
 40
13.0
 40
14.0
 40
14.0
 40
14.0
 40
15.0
 40
15.0
 40
15.0
 40
16.0
 40
16.0
 40
16.0
 40
17.0
 40
17.0
 40
17.0
 40
17.0
 10
100.4504378777679
 20
166.69157178364
 10
101.9848844191641
 20
167.1313385124438
 10
103.9637485713373
 20
166.7649523658846
 10
103.9637485713373
 20
166.7649523658846
 10
103.9637485713373
 20
166.7649523658846
 10
103.0132460999156
 20
163.911205638077
 10
103.0132460999156
 20
163.911205638077
 10
103.0132460999156
 20
163.911205638077
 10
101.0674548862189
 20
164.3601018759394
 10
99.57090442016032
 20
163.1805004036133
 10
98.40508333886608
 20
162.258247733807
 10
97.65301849830304
 20
159.804132345923
 10
97.3598406791005
 20
158.8699940888517
 10
97.3598406791005
 20
158.8699940888517
 10
96.07137411762282
 20
154.9119212747295
 10
96.07137411762282
 20
154.9119212747295
 10
96.07137411762282
 20
154.9119212747295
 10
100.3012651448482
 20
154.9119212747295
 10
100.3012651448482
 20
154.9119212747295
 10
100.3012651448482
 20
154.9119212747295
 10
99.64152892419852
 20
152.4199098115079
 10
99.64152892419852
 20
152.4199098115079
 10
99.64152892419852
 20
152.4199098115079
 10
95.38097652692731
 20
152.4199098115079
 10
95.38097652692731
 20
152.4199098115079
 10
95.38097652692731
 20
152.4199098115079
 10
87.75353009080013
 20
127.8027915271048
 10
87.75353009080013
 20
127.8027915271048
 10
87.75353009080013
 20
127.8027915271048
 10
85.36538832498108
 20
127.8027915271048
 10
85.36538832498108
 20
127.8027915271048
 10
85.36538832498108
 20
127.8027915271048
 10
93.00006946639998
 20
152.4199098115079
 10
93.00006946639998
 20
152.4199098115079
 10
93.00006946639998
 20
152.4199098115079
 10
89.85297266450198
 20
152.4199098115079
 10
89.85297266450198
 20
152.4199098115079
 10
89.85297266450198
 20
152.4199098115079
 10
90.51270888515164
 20
154.9119212747295
 10
90.51270888515164
 20
154.9119212747295
 10
90.51270888515164
 20
154.9119212747295
 10
93.6904670570955
 20
154.9119212747295
 10
93.6904670570955
 20
154.9119212747295
 10
93.6904670570955
 20
154.9119212747295
 10
94.81598049462158
 20
158.3616699146644
 10
94.81598049462158
 20
158.3616699146644
 10
95.7237637538445
 20
161.2605474231013
 10
96.4968436907311
 20
162.8139420021662
 10
97.15657991138076
 20
163.9844139654337
 10
97.81183750494507
 20
165.1523021053827
 10
99.1047826935081
 20
166.3084769129547
 10
100.4504378777679
 20
166.69157178364
 97
        0
 75
     2
 76
     1
 98
        0
  0
SPLINE
  5
6A6
330
6A2
100
AcDbEntity
  8
LOGO
370
     0
100
AcDbSpline
210
0.0
220
0.0
230
1.0
 70
    11
 71
     3
 72
    38
 73
    34
 74
     0
 42
0.000000001
 43
0.0000000001
 40
0.0
 40
0.0
 40
0.0
 40
0.0
 40
1.0
 40
1.0
 40
1.0
 40
2.0
 40
2.0
 40
2.0
 40
3.0
 40
3.0
 40
3.0
 40
4.0
 40
4.0
 40
4.0
 40
5.0
 40
5.0
 40
5.0
 40
6.0
 40
6.0
 40
6.0
 40
7.0
 40
7.0
 40
7.0
 40
8.0
 40
8.0
 40
8.0
 40
9.0
 40
9.0
 40
9.0
 40
10.0
 40
10.0
 40
10.0
 40
11.0
 40
11.0
 40
11.0
 40
11.0
 10
126.377554584636
 20
154.8151140277308
 30
0.0
 10
126.377554584636
 20
154.8151140277308
 30
0.0
 10
128.8311532078563
 20
154.8151140277308
 30
0.0
 10
128.8311532078563
 20
154.8151140277308
 30
0.0
 10
128.8311532078563
 20
154.8151140277308
 30
0.0
 10
127.7345785914971
 20
151.3062819612468
 30
0.0
 10
127.7345785914971
 20
151.3062819612468
 30
0.0
 10
128.571392836906
 20
152.2922689395754
 30
0.0
 10
129.8860421413442
 20
153.604506675583
 30
0.0
 10
131.0163787157314
 20
154.2664822097754
 30
0.0
 10
132.7044766171327
 20
155.2500576196734
 30
0.0
 10
133.6642808525008
 20
155.3847609420097
 30
0.0
 10
134.7284715499351
 20
155.3565111403944
 30
0.0
 10
134.7284715499351
 20
155.3565111403944
 30
0.0
 10
133.6877075172549
 20
152.0345756272799
 30
0.0
 10
133.6877075172549
 20
152.0345756272799
 30
0.0
 10
133.011434827367
 20
152.3184516825359
 30
0.0
 10
130.930940291334
 20
151.7768823149844
 30
0.0
 10
129.739280976855
 20
150.9162968950455
 30
0.0
 10
128.66613302525
 20
150.1454562717016
 30
0.0
 10
127.9192358313239
 20
149.4857200510519
 30
0.0
 10
127.0393578639405
 20
147.8282835196966
 30
0.0
 10
126.164647543194
 20
146.1699857139017
 30
0.0
 10
125.4742499524985
 20
143.5262176944419
 30
0.0
 10
124.2822461282437
 20
139.6959580071401
 30
0.0
 10
124.2822461282437
 20
139.6959580071401
 30
0.0
 10
120.5753209406769
 20
127.8027915271048
 30
0.0
 10
120.5753209406769
 20
127.8027915271048
 30
0.0
 10
120.5753209406769
 20
127.8027915271048
 30
0.0
 10
118.1964809388044
 20
127.8027915271048
 30
0.0
 10
118.1964809388044
 20
127.8027915271048
 30
0.0
 10
118.1964809388044
 20
127.8027915271048
 30
0.0
 10
126.377554584636
 20
154.8151140277308
 30
0.0
 10
126.377554584636
 20
154.8151140277308
 30
0.0
  0
HATCH
  5
6A7
330
6A2
100
AcDbEntity
  8
LOGO
 62
   250
420
  2234388
100
AcDbHatch
 10
0.0
 20
0.0
 30
0.0
210
0.0
220
0.0
230
1.0
  2
SOLID
 70
     1
 71
     0
 91
        1
 92
        1
 93
        1
 72
     4
 94
        3
 73
     0
 74
     1
 95
       38
 96
       34
 40
0.0
 40
0.0
 40
0.0
 40
0.0
 40
1.0
 40
1.0
 40
1.0
 40
2.0
 40
2.0
 40
2.0
 40
3.0
 40
3.0
 40
3.0
 40
4.0
 40
4.0
 40
4.0
 40
5.0
 40
5.0
 40
5.0
 40
6.0
 40
6.0
 40
6.0
 40
7.0
 40
7.0
 40
7.0
 40
8.0
 40
8.0
 40
8.0
 40
9.0
 40
9.0
 40
9.0
 40
10.0
 40
10.0
 40
10.0
 40
11.0
 40
11.0
 40
11.0
 40
11.0
 10
126.377554584636
 20
154.8151140277308
 10
126.377554584636
 20
154.8151140277308
 10
128.8311532078563
 20
154.8151140277308
 10
128.8311532078563
 20
154.8151140277308
 10
128.8311532078563
 20
154.8151140277308
 10
127.7345785914971
 20
151.3062819612468
 10
127.7345785914971
 20
151.3062819612468
 10
128.571392836906
 20
152.2922689395754
 10
129.8860421413442
 20
153.604506675583
 10
131.0163787157314
 20
154.2664822097754
 10
132.7044766171327
 20
155.2500576196734
 10
133.6642808525008
 20
155.3847609420097
 10
134.7284715499351
 20
155.3565111403944
 10
134.7284715499351
 20
155.3565111403944
 10
133.6877075172549
 20
152.0345756272799
 10
133.6877075172549
 20
152.0345756272799
 10
133.011434827367
 20
152.3184516825359
 10
130.930940291334
 20
151.7768823149844
 10
129.739280976855
 20
150.9162968950455
 10
128.66613302525
 20
150.1454562717016
 10
127.9192358313239
 20
149.4857200510519
 10
127.0393578639405
 20
147.8282835196966
 10
126.164647543194
 20
146.1699857139017
 10
125.4742499524985
 20
143.5262176944419
 10
124.2822461282437
 20
139.6959580071401
 10
124.2822461282437
 20
139.6959580071401
 10
120.5753209406769
 20
127.8027915271048
 10
120.5753209406769
 20
127.8027915271048
 10
120.5753209406769
 20
127.8027915271048
 10
118.1964809388044
 20
127.8027915271048
 10
118.1964809388044
 20
127.8027915271048
 10
118.1964809388044
 20
127.8027915271048
 10
126.377554584636
 20
154.8151140277308
 10
126.377554584636
 20
154.8151140277308
 97
        0
 75
     2
 76
     1
 98
        0
  0
SPLINE
  5
6A8
330
6A2
100
AcDbEntity
  8
LOGO
370
     0
100
AcDbSpline
210
0.0
220
0.0
230
1.0
 70
    11
 71
     3
 72
   104
 73
   100
 74
     0
 42
0.000000001
 43
0.0000000001
 40
0.0
 40
0.0
 40
0.0
 40
0.0
 40
1.0
 40
1.0
 40
1.0
 40
2.0
 40
2.0
 40
2.0
 40
3.0
 40
3.0
 40
3.0
 40
4.0
 40
4.0
 40
4.0
 40
5.0
 40
5.0
 40
5.0
 40
6.0
 40
6.0
 40
6.0
 40
7.0
 40
7.0
 40
7.0
 40
8.0
 40
8.0
 40
8.0
 40
9.0
 40
9.0
 40
9.0
 40
10.0
 40
10.0
 40
10.0
 40
11.0
 40
11.0
 40
11.0
 40
12.0
 40
12.0
 40
12.0
 40
13.0
 40
13.0
 40
13.0
 40
14.0
 40
14.0
 40
14.0
 40
15.0
 40
15.0
 40
15.0
 40
16.0
 40
16.0
 40
16.0
 40
17.0
 40
17.0
 40
17.0
 40
18.0
 40
18.0
 40
18.0
 40
19.0
 40
19.0
 40
19.0
 40
20.0
 40
20.0
 40
20.0
 40
21.0
 40
21.0
 40
21.0
 40
22.0
 40
22.0
 40
22.0
 40
23.0
 40
23.0
 40
23.0
 40
24.0
 40
24.0
 40
24.0
 40
25.0
 40
25.0
 40
25.0
 40
26.0
 40
26.0
 40
26.0
 40
27.0
 40
27.0
 40
27.0
 40
28.0
 40
28.0
 40
28.0
 40
29.0
 40
29.0
 40
29.0
 40
30.0
 40
30.0
 40
30.0
 40
31.0
 40
31.0
 40
31.0
 40
32.0
 40
32.0
 40
32.0
 40
33.0
 40
33.0
 40
33.0
 40
33.0
 10
139.8926730891197
 20
154.8294111834263
 30
0.0
 10
139.8926730891197
 20
154.8294111834263
 30
0.0
 10
142.0344903652445
 20
154.8294111834263
 30
0.0
 10
142.0344903652445
 20
154.8294111834263
 30
0.0
 10
142.0344903652445
 20
154.8294111834263
 30
0.0
 10
140.9516961399171
 20
151.3157559800812
 30
0.0
 10
140.9516961399171
 20
151.3157559800812
 30
0.0
 10
141.8928968473923
 20
152.7887075264977
 30
0.0
 10
142.7341897198865
 20
153.4484437471474
 30
0.0
 10
143.8552245303272
 20
154.2926649527359
 30
0.0
 10
144.9803934580775
 20
155.1296514530327
 30
0.0
 10
146.3139908001845
 20
155.3044901642492
 30
0.0
 10
147.241066606852
 20
155.3044901642492
 30
0.0
 10
148.3855280820469
 20
155.3044901642492
 30
0.0
 10
149.4969166187653
 20
155.0752189084569
 30
0.0
 10
150.0784491203092
 20
153.8172414621372
 30
0.0
 10
150.5228667310863
 20
152.833838307127
 30
0.0
 10
150.5414702589793
 20
152.7201500811143
 30
0.0
 10
150.4140016419347
 20
150.7765981809602
 30
0.0
 10
151.5818897818837
 20
152.7699317437168
 30
0.0
 10
152.4424752018226
 20
153.6256940267945
 30
0.0
 10
153.9038856707499
 20
154.4507949398263
 30
0.0
 10
155.4455669174378
 20
155.3044901642492
 30
0.0
 10
156.339225275853
 20
155.3659851592288
 30
0.0
 10
157.3748216618963
 20
155.2147453676543
 30
0.0
 10
158.911679771723
 20
154.9877134254046
 30
0.0
 10
159.8859534176746
 20
154.4390816074493
 30
0.0
 10
160.3965169054045
 20
152.7816450760939
 30
0.0
 10
160.9070803931344
 20
151.1219692311958
 30
0.0
 10
160.6328506116007
 20
150.2303779314354
 30
0.0
 10
159.9992971339115
 20
147.597634224801
 30
0.0
 10
159.7105979417943
 20
146.4014962832367
 30
0.0
 10
159.2947746424084
 20
144.9400858143094
 30
0.0
 10
158.7463150793409
 20
143.2092687007094
 30
0.0
 10
158.7463150793409
 20
143.2092687007094
 30
0.0
 10
153.9038856707499
 20
127.8027915271048
 30
0.0
 10
153.9038856707499
 20
127.8027915271048
 30
0.0
 10
153.9038856707499
 20
127.8027915271048
 30
0.0
 10
151.3882752878863
 20
127.8027915271048
 30
0.0
 10
151.3882752878863
 20
127.8027915271048
 30
0.0
 10
151.3882752878863
 20
127.8027915271048
 30
0.0
 10
155.6250565106276
 20
141.2751908193897
 30
0.0
 10
155.6250565106276
 20
141.2751908193897
 30
0.0
 10
156.5094131050963
 20
144.0936252951782
 30
0.0
 10
157.109893644309
 20
146.1506931664571
 30
0.0
 10
157.4220195011804
 20
147.4415712963654
 30
0.0
 10
157.8095929989511
 20
149.0530157726519
 30
0.0
 10
157.9656559273867
 20
149.5826995529385
 30
0.0
 10
157.7816877071116
 20
150.7529992613181
 30
0.0
 10
157.6111553680925
 20
151.8430281919372
 30
0.0
 10
157.0582171779396
 20
152.5547853887321
 30
0.0
 10
156.1170164704645
 20
152.5547853887321
 30
0.0
 10
155.1096698860365
 20
152.5547853887321
 30
0.0
 10
154.2962823053817
 20
152.4412694176073
 30
0.0
 10
153.156643967048
 20
151.2945686288697
 30
0.0
 10
152.0170056287143
 20
150.1476955852443
 30
0.0
 10
151.076149431015
 20
148.7930831468137
 30
0.0
 10
150.3337308641742
 20
147.2290087646991
 30
0.0
 10
149.5957909244188
 20
145.6683794803425
 30
0.0
 10
148.8530278478023
 20
143.6822806228776
 30
0.0
 10
148.0964843801539
 20
141.2751908193897
 30
0.0
 10
148.0964843801539
 20
141.2751908193897
 30
0.0
 10
143.8552245303272
 20
127.8027915271048
 30
0.0
 10
143.8552245303272
 20
127.8027915271048
 30
0.0
 10
143.8552245303272
 20
127.8027915271048
 30
0.0
 10
141.486030802177
 20
127.8027915271048
 30
0.0
 10
141.486030802177
 20
127.8027915271048
 30
0.0
 10
141.486030802177
 20
127.8027915271048
 30
0.0
 10
146.3329388378533
 20
143.2092687007094
 30
0.0
 10
146.3329388378533
 20
143.2092687007094
 30
0.0
 10
146.8483254624444
 20
144.8408669988801
 30
0.0
 10
147.2314203331297
 20
146.1837661049335
 30
0.0
 10
147.4867020769946
 20
147.224185627838
 30
0.0
 10
147.9169947869641
 20
149.0197705792876
 30
0.0
 10
148.0306830129768
 20
150.2400242051577
 30
0.0
 10
147.709255392159
 20
151.3157559800812
 30
0.0
 10
147.3874832615654
 20
152.3916600098926
 30
0.0
 10
146.8245542879144
 20
152.6683013598569
 30
0.0
 10
145.8840425999909
 20
152.6683013598569
 30
0.0
 10
145.0989048209514
 20
152.6683013598569
 30
0.0
 10
144.3282364524954
 20
152.3275811915945
 30
0.0
 10
143.4531816219731
 20
151.6538923250251
 30
0.0
 10
142.34627171234
 20
150.8074318058939
 30
0.0
 10
141.901854101563
 20
150.1097995099067
 30
0.0
 10
141.3578731655808
 20
149.289521733736
 30
0.0
 10
140.6299240093235
 20
148.192602607601
 30
0.0
 10
140.2850697237515
 20
147.455696197173
 30
0.0
 10
139.6652966370942
 20
145.8385673095858
 30
0.0
 10
139.0506911970739
 20
144.2214384219986
 30
0.0
 10
138.463991048893
 20
142.3252566160164
 30
0.0
 10
138.0571250036777
 20
141.0154304484394
 30
0.0
 10
138.0571250036777
 20
141.0154304484394
 30
0.0
 10
133.9009590684727
 20
127.8027915271048
 30
0.0
 10
133.9009590684727
 20
127.8027915271048
 30
0.0
 10
133.9009590684727
 20
127.8027915271048
 30
0.0
 10
131.4180771143097
 20
127.8027915271048
 30
0.0
 10
131.4180771143097
 20
127.8027915271048
 30
0.0
 10
131.4180771143097
 20
127.8027915271048
 30
0.0
 10
139.8926730891197
 20
154.8294111834263
 30
0.0
 10
139.8926730891197
 20
154.8294111834263
 30
0.0
  0
HATCH
  5
6A9
330
6A2
100
AcDbEntity
  8
LOGO
 62
   250
420
  2234388
100
AcDbHatch
 10
0.0
 20
0.0
 30
0.0
210
0.0
220
0.0
230
1.0
  2
SOLID
 70
     1
 71
     0
 91
        1
 92
        1
 93
        1
 72
     4
 94
        3
 73
     0
 74
     1
 95
      104
 96
      100
 40
0.0
 40
0.0
 40
0.0
 40
0.0
 40
1.0
 40
1.0
 40
1.0
 40
2.0
 40
2.0
 40
2.0
 40
3.0
 40
3.0
 40
3.0
 40
4.0
 40
4.0
 40
4.0
 40
5.0
 40
5.0
 40
5.0
 40
6.0
 40
6.0
 40
6.0
 40
7.0
 40
7.0
 40
7.0
 40
8.0
 40
8.0
 40
8.0
 40
9.0
 40
9.0
 40
9.0
 40
10.0
 40
10.0
 40
10.0
 40
11.0
 40
11.0
 40
11.0
 40
12.0
 40
12.0
 40
12.0
 40
13.0
 40
13.0
 40
13.0
 40
14.0
 40
14.0
 40
14.0
 40
15.0
 40
15.0
 40
15.0
 40
16.0
 40
16.0
 40
16.0
 40
17.0
 40
17.0
 40
17.0
 40
18.0
 40
18.0
 40
18.0
 40
19.0
 40
19.0
 40
19.0
 40
20.0
 40
20.0
 40
20.0
 40
21.0
 40
21.0
 40
21.0
 40
22.0
 40
22.0
 40
22.0
 40
23.0
 40
23.0
 40
23.0
 40
24.0
 40
24.0
 40
24.0
 40
25.0
 40
25.0
 40
25.0
 40
26.0
 40
26.0
 40
26.0
 40
27.0
 40
27.0
 40
27.0
 40
28.0
 40
28.0
 40
28.0
 40
29.0
 40
29.0
 40
29.0
 40
30.0
 40
30.0
 40
30.0
 40
31.0
 40
31.0
 40
31.0
 40
32.0
 40
32.0
 40
32.0
 40
33.0
 40
33.0
 40
33.0
 40
33.0
 10
139.8926730891197
 20
154.8294111834263
 10
139.8926730891197
 20
154.8294111834263
 10
142.0344903652445
 20
154.8294111834263
 10
142.0344903652445
 20
154.8294111834263
 10
142.0344903652445
 20
154.8294111834263
 10
140.9516961399171
 20
151.3157559800812
 10
140.9516961399171
 20
151.3157559800812
 10
141.8928968473923
 20
152.7887075264977
 10
142.7341897198865
 20
153.4484437471474
 10
143.8552245303272
 20
154.2926649527359
 10
144.9803934580775
 20
155.1296514530327
 10
146.3139908001845
 20
155.3044901642492
 10
147.241066606852
 20
155.3044901642492
 10
148.3855280820469
 20
155.3044901642492
 10
149.4969166187653
 20
155.0752189084569
 10
150.0784491203092
 20
153.8172414621372
 10
150.5228667310863
 20
152.833838307127
 10
150.5414702589793
 20
152.7201500811143
 10
150.4140016419347
 20
150.7765981809602
 10
151.5818897818837
 20
152.7699317437168
 10
152.4424752018226
 20
153.6256940267945
 10
153.9038856707499
 20
154.4507949398263
 10
155.4455669174378
 20
155.3044901642492
 10
156.339225275853
 20
155.3659851592288
 10
157.3748216618963
 20
155.2147453676543
 10
158.911679771723
 20
154.9877134254046
 10
159.8859534176746
 20
154.4390816074493
 10
160.3965169054045
 20
152.7816450760939
 10
160.9070803931344
 20
151.1219692311958
 10
160.6328506116007
 20
150.2303779314354
 10
159.9992971339115
 20
147.597634224801
 10
159.7105979417943
 20
146.4014962832367
 10
159.2947746424084
 20
144.9400858143094
 10
158.7463150793409
 20
143.2092687007094
 10
158.7463150793409
 20
143.2092687007094
 10
153.9038856707499
 20
127.8027915271048
 10
153.9038856707499
 20
127.8027915271048
 10
153.9038856707499
 20
127.8027915271048
 10
151.3882752878863
 20
127.8027915271048
 10
151.3882752878863
 20
127.8027915271048
 10
151.3882752878863
 20
127.8027915271048
 10
155.6250565106276
 20
141.2751908193897
 10
155.6250565106276
 20
141.2751908193897
 10
156.5094131050963
 20
144.0936252951782
 10
157.109893644309
 20
146.1506931664571
 10
157.4220195011804
 20
147.4415712963654
 10
157.8095929989511
 20
149.0530157726519
 10
157.9656559273867
 20
149.5826995529385
 10
157.7816877071116
 20
150.7529992613181
 10
157.6111553680925
 20
151.8430281919372
 10
157.0582171779396
 20
152.5547853887321
 10
156.1170164704645
 20
152.5547853887321
 10
155.1096698860365
 20
152.5547853887321
 10
154.2962823053817
 20
152.4412694176073
 10
153.156643967048
 20
151.2945686288697
 10
152.0170056287143
 20
150.1476955852443
 10
151.076149431015
 20
148.7930831468137
 10
150.3337308641742
 20
147.2290087646991
 10
149.5957909244188
 20
145.6683794803425
 10
148.8530278478023
 20
143.6822806228776
 10
148.0964843801539
 20
141.2751908193897
 10
148.0964843801539
 20
141.2751908193897
 10
143.8552245303272
 20
127.8027915271048
 10
143.8552245303272
 20
127.8027915271048
 10
143.8552245303272
 20
127.8027915271048
 10
141.486030802177
 20
127.8027915271048
 10
141.486030802177
 20
127.8027915271048
 10
141.486030802177
 20
127.8027915271048
 10
146.3329388378533
 20
143.2092687007094
 10
146.3329388378533
 20
143.2092687007094
 10
146.8483254624444
 20
144.8408669988801
 10
147.2314203331297
 20
146.1837661049335
 10
147.4867020769946
 20
147.224185627838
 10
147.9169947869641
 20
149.0197705792876
 10
148.0306830129768
 20
150.2400242051577
 10
147.709255392159
 20
151.3157559800812
 10
147.3874832615654
 20
152.3916600098926
 10
146.8245542879144
 20
152.6683013598569
 10
145.8840425999909
 20
152.6683013598569
 10
145.0989048209514
 20
152.6683013598569
 10
144.3282364524954
 20
152.3275811915945
 10
143.4531816219731
 20
151.6538923250251
 10
142.34627171234
 20
150.8074318058939
 10
141.901854101563
 20
150.1097995099067
 10
141.3578731655808
 20
149.289521733736
 10
140.6299240093235
 20
148.192602607601
 10
140.2850697237515
 20
147.455696197173
 10
139.6652966370942
 20
145.8385673095858
 10
139.0506911970739
 20
144.2214384219986
 10
138.463991048893
 20
142.3252566160164
 10
138.0571250036777
 20
141.0154304484394
 10
138.0571250036777
 20
141.0154304484394
 10
133.9009590684727
 20
127.8027915271048
 10
133.9009590684727
 20
127.8027915271048
 10
133.9009590684727
 20
127.8027915271048
 10
131.4180771143097
 20
127.8027915271048
 10
131.4180771143097
 20
127.8027915271048
 10
131.4180771143097
 20
127.8027915271048
 10
139.8926730891197
 20
154.8294111834263
 10
139.8926730891197
 20
154.8294111834263
 97
        0
 75
     2
 76
     1
 98
        0
  0
SPLINE
  5
6AA
330
6A2
100
AcDbEntity
  8
LOGO
370
     0
100
AcDbSpline
210
0.0
220
0.0
230
1.0
 70
    11
 71
     3
 72
    29
 73
    25
 74
     0
 42
0.000000001
 43
0.0000000001
 40
0.0
 40
0.0
 40
0.0
 40
0.0
 40
1.0
 40
1.0
 40
1.0
 40
2.0
 40
2.0
 40
2.0
 40
3.0
 40
3.0
 40
3.0
 40
4.0
 40
4.0
 40
4.0
 40
5.0
 40
5.0
 40
5.0
 40
6.0
 40
6.0
 40
6.0
 40
7.0
 40
7.0
 40
7.0
 40
8.0
 40
8.0
 40
8.0
 40
8.0
 10
101.6420971922469
 20
132.8388354296931
 30
0.0
 10
101.630039350094
 20
134.7164137077823
 30
0.0
 10
102.2236296937908
 20
138.0598810818841
 30
0.0
 10
103.7487744712405
 20
142.5378191476827
 30
0.0
 10
105.819967243327
 20
148.5896501242061
 30
0.0
 10
107.0602024361932
 20
150.8074318058939
 30
0.0
 10
108.1522984254671
 20
151.8833358357054
 30
0.0
 10
109.741177511439
 20
153.4532668840085
 30
0.0
 10
111.8740375333931
 20
153.5290590346837
 30
0.0
 10
112.5075910110823
 20
153.4532668840085
 30
0.0
 10
113.4012493694975
 20
153.3490526768302
 30
0.0
 10
114.6683563248758
 20
152.7580461564518
 30
0.0
 10
114.7493161221879
 20
150.7838328862519
 30
0.0
 10
114.8106388622796
 20
149.0909118479895
 30
0.0
 10
114.3186789024427
 20
145.9191825971221
 30
0.0
 10
112.6164561002338
 20
140.9489400617108
 30
0.0
 10
110.6444821435766
 20
135.1746117095912
 30
0.0
 10
109.4669477299053
 20
132.8960240524753
 30
0.0
 10
108.5212683953448
 20
131.9072809959403
 30
0.0
 10
106.7346406980658
 20
130.0538184021569
 30
0.0
 10
104.8222669326213
 20
130.2336525051225
 30
0.0
 10
104.5408024457958
 20
130.2336525051225
 30
0.0
 10
104.1721769856939
 20
130.2336525051225
 30
0.0
 10
101.6465758193322
 20
130.6305277668397
 30
0.0
 10
101.6420971922469
 20
132.8388354296931
 30
0.0
  0
SPLINE
  5
6AB
330
6A2
100
AcDbEntity
  8
LOGO
370
     0
100
AcDbSpline
210
0.0
220
0.0
230
1.0
 70
    11
 71
     3
 72
    32
 73
    28
 74
     0
 42
0.000000001
 43
0.0000000001
 40
0.0
 40
0.0
 40
0.0
 40
0.0
 40
1.0
 40
1.0
 40
1.0
 40
2.0
 40
2.0
 40
2.0
 40
3.0
 40
3.0
 40
3.0
 40
4.0
 40
4.0
 40
4.0
 40
5.0
 40
5.0
 40
5.0
 40
6.0
 40
6.0
 40
6.0
 40
7.0
 40
7.0
 40
7.0
 40
8.0
 40
8.0
 40
8.0
 40
9.0
 40
9.0
 40
9.0
 40
9.0
 10
106.2595617172429
 20
153.4105476718098
 30
0.0
 10
104.8222669326213
 20
151.5474388043041
 30
0.0
 10
103.7177685914188
 20
149.8758773721411
 30
0.0
 10
101.9232171692965
 20
144.6141795664062
 30
0.0
 10
100.2754269116635
 20
139.7999999594306
 30
0.0
 10
99.22777268346732
 20
136.3052927937542
 30
0.0
 10
99.06964269637689
 20
132.039572749846
 30
0.0
 10
98.94665270641765
 20
128.8673267343149
 30
0.0
 10
100.8807305877373
 20
127.8027915271048
 30
0.0
 10
103.7129454545577
 20
127.8027915271048
 30
0.0
 10
104.9352661390825
 20
127.8027915271048
 30
0.0
 10
108.0151835347002
 20
127.8827177950895
 30
0.0
 10
110.2045431598849
 20
130.5926316915021
 30
0.0
 10
111.7417457794874
 20
132.4984597712065
 30
0.0
 10
113.155269389579
 20
134.475256864725
 30
0.0
 10
115.0562743324223
 20
140.9489400617108
 30
0.0
 10
116.6361961642235
 20
146.3680788349845
 30
0.0
 10
117.7282921534974
 20
149.8639917848761
 30
0.0
 10
117.6480213757369
 20
151.8595646611754
 30
0.0
 10
117.6480213757369
 20
151.8595646611754
 30
0.0
 10
117.6480213757369
 20
151.8595646611754
 30
0.0
 10
117.6480213757369
 20
151.8595646611754
 30
0.0
 10
117.13229024137
 20
155.18150017429
 30
0.0
 10
114.7162431837115
 20
155.886194920681
 30
0.0
 10
113.3351034925446
 20
155.886194920681
 30
0.0
 10
111.9829026225447
 20
155.886194920681
 30
0.0
 10
108.3414342923792
 20
156.1251124501957
 30
0.0
 10
106.2595617172429
 20
153.4105476718098
 30
0.0
  0
HATCH
  5
6AC
330
6A2
100
AcDbEntity
  8
LOGO
 62
   250
420
  2234388
100
AcDbHatch
 10
0.0
 20
0.0
 30
0.0
210
0.0
220
0.0
230
1.0
  2
SOLID
 70
     1
 71
     0
 91
        2
 92
        1
 93
        1
 72
     4
 94
        3
 73
     0
 74
     1
 95
       29
 96
       25
 40
0.0
 40
0.0
 40
0.0
 40
0.0
 40
1.0
 40
1.0
 40
1.0
 40
2.0
 40
2.0
 40
2.0
 40
3.0
 40
3.0
 40
3.0
 40
4.0
 40
4.0
 40
4.0
 40
5.0
 40
5.0
 40
5.0
 40
6.0
 40
6.0
 40
6.0
 40
7.0
 40
7.0
 40
7.0
 40
8.0
 40
8.0
 40
8.0
 40
8.0
 10
101.6420971922469
 20
132.8388354296931
 10
101.630039350094
 20
134.7164137077823
 10
102.2236296937908
 20
138.0598810818841
 10
103.7487744712405
 20
142.5378191476827
 10
105.819967243327
 20
148.5896501242061
 10
107.0602024361932
 20
150.8074318058939
 10
108.1522984254671
 20
151.8833358357054
 10
109.741177511439
 20
153.4532668840085
 10
111.8740375333931
 20
153.5290590346837
 10
112.5075910110823
 20
153.4532668840085
 10
113.4012493694975
 20
153.3490526768302
 10
114.6683563248758
 20
152.7580461564518
 10
114.7493161221879
 20
150.7838328862519
 10
114.8106388622796
 20
149.0909118479895
 10
114.3186789024427
 20
145.9191825971221
 10
112.6164561002338
 20
140.9489400617108
 10
110.6444821435766
 20
135.1746117095912
 10
109.4669477299053
 20
132.8960240524753
 10
108.5212683953448
 20
131.9072809959403
 10
106.7346406980658
 20
130.0538184021569
 10
104.8222669326213
 20
130.2336525051225
 10
104.5408024457958
 20
130.2336525051225
 10
104.1721769856939
 20
130.2336525051225
 10
101.6465758193322
 20
130.6305277668397
 10
101.6420971922469
 20
132.8388354296931
 97
        0
 92
        1
 93
        1
 72
     4
 94
        3
 73
     0
 74
     1
 95
       32
 96
       28
 40
0.0
 40
0.0
 40
0.0
 40
0.0
 40
1.0
 40
1.0
 40
1.0
 40
2.0
 40
2.0
 40
2.0
 40
3.0
 40
3.0
 40
3.0
 40
4.0
 40
4.0
 40
4.0
 40
5.0
 40
5.0
 40
5.0
 40
6.0
 40
6.0
 40
6.0
 40
7.0
 40
7.0
 40
7.0
 40
8.0
 40
8.0
 40
8.0
 40
9.0
 40
9.0
 40
9.0
 40
9.0
 10
106.2595617172429
 20
153.4105476718098
 10
104.8222669326213
 20
151.5474388043041
 10
103.7177685914188
 20
149.8758773721411
 10
101.9232171692965
 20
144.6141795664062
 10
100.2754269116635
 20
139.7999999594306
 10
99.22777268346732
 20
136.3052927937542
 10
99.06964269637689
 20
132.039572749846
 10
98.94665270641765
 20
128.8673267343149
 10
100.8807305877373
 20
127.8027915271048
 10
103.7129454545577
 20
127.8027915271048
 10
104.9352661390825
 20
127.8027915271048
 10
108.0151835347002
 20
127.8827177950895
 10
110.2045431598849
 20
130.5926316915021
 10
111.7417457794874
 20
132.4984597712065
 10
113.155269389579
 20
134.475256864725
 10
115.0562743324223
 20
140.9489400617108
 10
116.6361961642235
 20
146.3680788349845
 10
117.7282921534974
 20
149.8639917848761
 10
117.6480213757369
 20
151.8595646611754
 10
117.6480213757369
 20
151.8595646611754
 10
117.6480213757369
 20
151.8595646611754
 10
117.6480213757369
 20
151.8595646611754
 10
117.13229024137
 20
155.18150017429
 10
114.7162431837115
 20
155.886194920681
 10
113.3351034925446
 20
155.886194920681
 10
111.9829026225447
 20
155.886194920681
 10
108.3414342923792
 20
156.1251124501957
 10
106.2595617172429
 20
153.4105476718098
 97
        0
 75
     2
 76
     1
 98
        0
  0
ENDBLK
  5
6AD
330
6A2
100
AcDbEntity
  8
0
100
AcDbBlockEnd
  0
BLOCK
  5
5C14
330
5C13
100
AcDbEntity
  8
0
100
AcDbBlockBegin
  2
*D6
 70
     1
 10
0.0
 20
0.0
 30
0.0
  3
*D6
  1
*D22
  0
LINE
  5
5C16
330
5C13
100
AcDbEntity
  8
DIM
 62
     0
 48
0.05
370
    -2
100
AcDbLine
 10
95.29907858740026
 20
430.5883865991966
 30
0.0
 11
95.29907858740026
 21
438.085466171851
 31
0.0
  0
LINE
  5
5C17
330
5C13
100
AcDbEntity
  8
DIM
 62
     0
 48
0.05
370
    -2
100
AcDbLine
 10
120.2990785874003
 20
430.5883865991966
 30
0.0
 11
120.2990785874003
 21
438.085466171851
 31
0.0
  0
LINE
  5
5C18
330
5C13
100
AcDbEntity
  8
DIM
 62
     0
 48
0.05
370
    -2
100
AcDbLine
 10
96.29907858740026
 20
438.085466171851
 30
0.0
 11
119.2990785874003
 21
438.085466171851
 31
0.0
  0
INSERT
  5
5C19
330
5C13
100
AcDbEntity
  8
DIM
 62
     0
370
    -2
100
AcDbBlockReference
  2
_DOT
 10
95.29907858740026
 20
438.085466171851
 30
0.0
 50
180.0
  0
INSERT
  5
5C1A
330
5C13
100
AcDbEntity
  8
DIM
 62
     0
370
    -2
100
AcDbBlockReference
  2
_DOT
 10
120.2990785874003
 20
438.085466171851
 30
0.0
  0
MTEXT
  5
5C1B
330
5C13
100
AcDbEntity
  8
DIM
 62
     0
 48
0.05
100
AcDbMText
 10
107.7990785874003
 20
445.585466171851
 30
0.0
 40
5.0
 41
0.0
 46
0.0
 71
     5
 72
     1
  1
\A1;25
  7
ＭＳ ゴシック
 73
     1
 44
1.0
  0
POINT
  5
5C1C
330
5C13
100
AcDbEntity
  8
Defpoints
 62
     0
100
AcDbPoint
 10
95.29907858740026
 20
425.5883865991966
 30
0.0
  0
POINT
  5
5C1D
330
5C13
100
AcDbEntity
  8
Defpoints
 62
     0
100
AcDbPoint
 10
120.2990785874003
 20
425.5883865991966
 30
0.0
  0
POINT
  5
5C1E
330
5C13
100
AcDbEntity
  8
Defpoints
 62
     0
100
AcDbPoint
 10
120.2990785874003
 20
438.085466171851
 30
0.0
  0
ENDBLK
  5
5C15
330
5C13
100
AcDbEntity
  8
0
100
AcDbBlockEnd
  0
BLOCK
  5
5C26
330
5C25
100
AcDbEntity
  8
0
100
AcDbBlockBegin
  2
*D7
 70
     1
 10
0.0
 20
0.0
 30
0.0
  3
*D7
  1
*D23
  0
LINE
  5
5C28
330
5C25
100
AcDbEntity
  8
DIM
 62
     0
 48
0.05
370
    -2
100
AcDbLine
 10
264.2945307262913
 20
234.2437053882309
 30
0.0
 11
248.9276166551535
 21
234.2437053882309
 31
0.0
  0
LINE
  5
5C29
330
5C25
100
AcDbEntity
  8
DIM
 62
     0
 48
0.05
370
    -2
100
AcDbLine
 10
264.2945307262913
 20
204.8437053882309
 30
0.0
 11
248.9276166551535
 21
204.8437053882309
 31
0.0
  0
LINE
  5
5C2A
330
5C25
100
AcDbEntity
  8
DIM
 62
     0
 48
0.05
370
    -2
100
AcDbLine
 10
248.9276166551535
 20
233.2437053882309
 30
0.0
 11
248.9276166551535
 21
205.8437053882309
 31
0.0
  0
INSERT
  5
5C2B
330
5C25
100
AcDbEntity
  8
DIM
 62
     0
370
    -2
100
AcDbBlockReference
  2
_DOT
 10
248.9276166551535
 20
234.2437053882309
 30
0.0
 50
90.0
  0
INSERT
  5
5C2C
330
5C25
100
AcDbEntity
  8
DIM
 62
     0
370
    -2
100
AcDbBlockReference
  2
_DOT
 10
248.9276166551535
 20
204.8437053882309
 30
0.0
 50
270.0
  0
MTEXT
  5
5C2D
330
5C25
100
AcDbEntity
  8
DIM
 62
     0
 48
0.05
100
AcDbMText
 10
241.4276166551535
 20
219.5437053882309
 30
0.0
 40
5.0
 41
0.0
 46
0.0
 71
     5
 72
     1
  1
\A1;29
  7
ＭＳ ゴシック
 11
0.0
 21
1.0
 31
0.0
 73
     1
 44
1.0
  0
POINT
  5
5C2E
330
5C25
100
AcDbEntity
  8
Defpoints
 62
     0
100
AcDbPoint
 10
269.2945307262913
 20
234.2437053882309
 30
0.0
  0
POINT
  5
5C2F
330
5C25
100
AcDbEntity
  8
Defpoints
 62
     0
100
AcDbPoint
 10
269.2945307262913
 20
204.8437053882309
 30
0.0
  0
POINT
  5
5C30
330
5C25
100
AcDbEntity
  8
Defpoints
 62
     0
100
AcDbPoint
 10
248.9276166551535
 20
204.8437053882309
 30
0.0
  0
ENDBLK
  5
5C27
330
5C25
100
AcDbEntity
  8
0
100
AcDbBlockEnd
  0
BLOCK
  5
5C33
330
5C32
100
AcDbEntity
  8
0
100
AcDbBlockBegin
  2
*D8
 70
     1
 10
0.0
 20
0.0
 30
0.0
  3
*D8
  1
*D24
  0
LINE
  5
5C35
330
5C32
100
AcDbEntity
  8
DIM
 62
     0
 48
0.05
370
    -2
100
AcDbLine
 10
83.02867258776747
 20
352.6287012735653
 30
0.0
 11
83.02867258776747
 21
330.5752401643696
 31
0.0
  0
LINE
  5
5C36
330
5C32
100
AcDbEntity
  8
DIM
 62
     0
 48
0.05
370
    -2
100
AcDbLine
 10
167.0286725877675
 20
352.6287012735653
 30
0.0
 11
167.0286725877675
 21
330.5752401643696
 31
0.0
  0
LINE
  5
5C37
330
5C32
100
AcDbEntity
  8
DIM
 62
     0
 48
0.05
370
    -2
100
AcDbLine
 10
84.02867258776747
 20
330.5752401643696
 30
0.0
 11
166.0286725877675
 21
330.5752401643696
 31
0.0
  0
INSERT
  5
5C38
330
5C32
100
AcDbEntity
  8
DIM
 62
     0
370
    -2
100
AcDbBlockReference
  2
_DOT
 10
83.02867258776747
 20
330.5752401643696
 30
0.0
 50
180.0
  0
INSERT
  5
5C39
330
5C32
100
AcDbEntity
  8
DIM
 62
     0
370
    -2
100
AcDbBlockReference
  2
_DOT
 10
167.0286725877675
 20
330.5752401643696
 30
0.0
  0
MTEXT
  5
5C3A
330
5C32
100
AcDbEntity
  8
DIM
 62
     0
 48
0.05
100
AcDbMText
 10
125.0286725877675
 20
338.0752401643696
 30
0.0
 40
5.0
 41
0.0
 46
0.0
 71
     5
 72
     1
  1
\A1;84
  7
ＭＳ ゴシック
 73
     1
 44
1.0
  0
POINT
  5
5C3B
330
5C32
100
AcDbEntity
  8
Defpoints
 62
     0
100
AcDbPoint
 10
83.02867258776747
 20
357.6287012735653
 30
0.0
  0
POINT
  5
5C3C
330
5C32
100
AcDbEntity
  8
Defpoints
 62
     0
100
AcDbPoint
 10
167.0286725877675
 20
357.6287012735653
 30
0.0
  0
POINT
  5
5C3D
330
5C32
100
AcDbEntity
  8
Defpoints
 62
     0
100
AcDbPoint
 10
167.0286725877675
 20
330.5752401643696
 30
0.0
  0
ENDBLK
  5
5C34
330
5C32
100
AcDbEntity
  8
0
100
AcDbBlockEnd
  0
BLOCK
  5
5C48
330
5C47
100
AcDbEntity
  8
0
100
AcDbBlockBegin
  2
*D9
 70
     1
 10
0.0
 20
0.0
 30
0.0
  3
*D9
  1
*D25
  0
LINE
  5
5C4A
330
5C47
100
AcDbEntity
  8
DIM
 62
     0
 48
0.05
370
    -2
100
AcDbLine
 10
86.79907858740027
 20
431.0625067502231
 30
0.0
 11
86.79907858740027
 21
454.5252424288109
 31
0.0
  0
LINE
  5
5C4B
330
5C47
100
AcDbEntity
  8
DIM
 62
     0
 48
0.05
370
    -2
100
AcDbLine
 10
129.7990785874003
 20
431.0625067502231
 30
0.0
 11
129.7990785874003
 21
454.5252424288109
 31
0.0
  0
LINE
  5
5C4C
330
5C47
100
AcDbEntity
  8
DIM
 62
     0
 48
0.05
370
    -2
100
AcDbLine
 10
87.79907858740027
 20
454.5252424288109
 30
0.0
 11
128.7990785874003
 21
454.5252424288109
 31
0.0
  0
INSERT
  5
5C4D
330
5C47
100
AcDbEntity
  8
DIM
 62
     0
370
    -2
100
AcDbBlockReference
  2
_DOT
 10
86.79907858740027
 20
454.5252424288109
 30
0.0
 50
180.0
  0
INSERT
  5
5C4E
330
5C47
100
AcDbEntity
  8
DIM
 62
     0
370
    -2
100
AcDbBlockReference
  2
_DOT
 10
129.7990785874003
 20
454.5252424288109
 30
0.0
  0
MTEXT
  5
5C4F
330
5C47
100
AcDbEntity
  8
DIM
 62
     0
 48
0.05
100
AcDbMText
 10
108.2990785874003
 20
462.0252424288109
 30
0.0
 40
5.0
 41
0.0
 46
0.0
 71
     5
 72
     1
  1
\A1;43
  7
ＭＳ ゴシック
 73
     1
 44
1.0
  0
POINT
  5
5C50
330
5C47
100
AcDbEntity
  8
Defpoints
 62
     0
100
AcDbPoint
 10
86.79907858740027
 20
426.0625067502231
 30
0.0
  0
POINT
  5
5C51
330
5C47
100
AcDbEntity
  8
Defpoints
 62
     0
100
AcDbPoint
 10
129.7990785874003
 20
426.0625067502231
 30
0.0
  0
POINT
  5
5C52
330
5C47
100
AcDbEntity
  8
Defpoints
 62
     0
100
AcDbPoint
 10
129.7990785874003
 20
454.5252424288109
 30
0.0
  0
ENDBLK
  5
5C49
330
5C47
100
AcDbEntity
  8
0
100
AcDbBlockEnd
  0
BLOCK
  5
5C9E
330
5C9D
100
AcDbEntity
  8
0
100
AcDbBlockBegin
  2
*D10
 70
     1
 10
0.0
 20
0.0
 30
0.0
  3
*D10
  1
*D31
  0
LINE
  5
5CA0
330
5C9D
100
AcDbEntity
  8
DIM
 62
     0
 48
0.05
370
    -2
100
AcDbLine
 10
169.9205197043374
 20
357.0656896551724
 30
0.0
 11
204.8533603851212
 21
357.0656896551724
 31
0.0
  0
LINE
  5
5CA1
330
5C9D
100
AcDbEntity
  8
DIM
 62
     0
 48
0.05
370
    -2
100
AcDbLine
 10
136.2879623448451
 20
425.040166844899
 30
0.0
 11
204.8533603851212
 21
425.040166844899
 31
0.0
  0
LINE
  5
5CA2
330
5C9D
100
AcDbEntity
  8
DIM
 62
     0
 48
0.05
370
    -2
100
AcDbLine
 10
204.8533603851212
 20
358.0656896551724
 30
0.0
 11
204.8533603851212
 21
424.040166844899
 31
0.0
  0
INSERT
  5
5CA3
330
5C9D
100
AcDbEntity
  8
DIM
 62
     0
370
    -2
100
AcDbBlockReference
  2
_DOT
 10
204.8533603851212
 20
357.0656896551724
 30
0.0
 50
270.0
  0
INSERT
  5
5CA4
330
5C9D
100
AcDbEntity
  8
DIM
 62
     0
370
    -2
100
AcDbBlockReference
  2
_DOT
 10
204.8533603851212
 20
425.040166844899
 30
0.0
 50
90.0
  0
MTEXT
  5
5CA5
330
5C9D
100
AcDbEntity
  8
DIM
 62
     0
 48
0.05
100
AcDbMText
 10
197.3533603851212
 20
391.0529282500357
 30
0.0
 40
5.0
 41
0.0
 46
0.0
 71
     5
 72
     1
  1
\A1;68
  7
ＭＳ ゴシック
 11
0.0
 21
1.0
 31
0.0
 73
     1
 44
1.0
  0
POINT
  5
5CA6
330
5C9D
100
AcDbEntity
  8
Defpoints
 62
     0
100
AcDbPoint
 10
164.9205197043374
 20
357.0656896551724
 30
0.0
  0
POINT
  5
5CA7
330
5C9D
100
AcDbEntity
  8
Defpoints
 62
     0
100
AcDbPoint
 10
131.2879623448451
 20
425.040166844899
 30
0.0
  0
POINT
  5
5CA8
330
5C9D
100
AcDbEntity
  8
Defpoints
 62
     0
100
AcDbPoint
 10
204.8533603851212
 20
425.040166844899
 30
0.0
  0
ENDBLK
  5
5C9F
330
5C9D
100
AcDbEntity
  8
0
100
AcDbBlockEnd
  0
BLOCK
  5
5CCE
330
5CCD
100
AcDbEntity
  8
0
100
AcDbBlockBegin
  2
*D11
 70
     1
 10
0.0
 20
0.0
 30
0.0
  3
*D11
  1
*D33
  0
LINE
  5
5CD0
330
5CCD
100
AcDbEntity
  8
DIM
 62
     0
 48
0.05
370
    -2
100
AcDbLine
 10
134.7990785874003
 20
425.040166844899
 30
0.0
 11
181.8164823845694
 21
425.040166844899
 31
0.0
  0
LINE
  5
5CD1
330
5CCD
100
AcDbEntity
  8
DIM
 62
     0
 48
0.05
370
    -2
100
AcDbLine
 10
147.813872385882
 20
375.5414996633998
 30
0.0
 11
181.8164823845694
 21
375.5414996633998
 31
0.0
  0
LINE
  5
5CD2
330
5CCD
100
AcDbEntity
  8
DIM
 62
     0
 48
0.05
370
    -2
100
AcDbLine
 10
181.8164823845694
 20
424.040166844899
 30
0.0
 11
181.8164823845694
 21
376.5414996633998
 31
0.0
  0
INSERT
  5
5CD3
330
5CCD
100
AcDbEntity
  8
DIM
 62
     0
370
    -2
100
AcDbBlockReference
  2
_DOT
 10
181.8164823845694
 20
425.040166844899
 30
0.0
 50
90.0
  0
INSERT
  5
5CD4
330
5CCD
100
AcDbEntity
  8
DIM
 62
     0
370
    -2
100
AcDbBlockReference
  2
_DOT
 10
181.8164823845694
 20
375.5414996633998
 30
0.0
 50
270.0
  0
MTEXT
  5
5CD5
330
5CCD
100
AcDbEntity
  8
DIM
 62
     0
 48
0.05
100
AcDbMText
 10
174.3164823845694
 20
400.2908332541494
 30
0.0
 40
5.0
 41
0.0
 46
0.0
 71
     5
 72
     1
  1
\A1;49
  7
ＭＳ ゴシック
 11
0.0
 21
1.0
 31
0.0
 73
     1
 44
1.0
  0
POINT
  5
5CD6
330
5CCD
100
AcDbEntity
  8
Defpoints
 62
     0
100
AcDbPoint
 10
129.7990785874003
 20
425.040166844899
 30
0.0
  0
POINT
  5
5CD7
330
5CCD
100
AcDbEntity
  8
Defpoints
 62
     0
100
AcDbPoint
 10
142.813872385882
 20
375.5414996633998
 30
0.0
  0
POINT
  5
5CD8
330
5CCD
100
AcDbEntity
  8
Defpoints
 62
     0
100
AcDbPoint
 10
181.8164823845694
 20
375.5414996633998
 30
0.0
  0
ENDBLK
  5
5CCF
330
5CCD
100
AcDbEntity
  8
0
100
AcDbBlockEnd
  0
BLOCK
  5
5EF5
330
5EF4
100
AcDbEntity
  8
0
100
AcDbBlockBegin
  2
*D12
 70
     1
 10
0.0
 20
0.0
 30
0.0
  3
*D12
  1
*D41
  0
LINE
  5
5EF7
330
5EF4
100
AcDbEntity
  8
DIM
 62
     0
 48
0.05
370
    -2
100
AcDbLine
 10
128.5794503551029
 20
287.873280474571
 30
0.0
 11
92.47531165484429
 21
287.873280474571
 31
0.0
  0
LINE
  5
5EF8
330
5EF4
100
AcDbEntity
  8
DIM
 62
     0
 48
0.05
370
    -2
100
AcDbLine
 10
128.5794503551029
 20
237.873280474571
 30
0.0
 11
92.47531165484429
 21
237.873280474571
 31
0.0
  0
LINE
  5
5EF9
330
5EF4
100
AcDbEntity
  8
DIM
 62
     0
 48
0.05
370
    -2
100
AcDbLine
 10
92.47531165484429
 20
286.873280474571
 30
0.0
 11
92.47531165484429
 21
238.873280474571
 31
0.0
  0
INSERT
  5
5EFA
330
5EF4
100
AcDbEntity
  8
DIM
 62
     0
370
    -2
100
AcDbBlockReference
  2
_DOT
 10
92.47531165484429
 20
287.873280474571
 30
0.0
 50
90.0
  0
INSERT
  5
5EFB
330
5EF4
100
AcDbEntity
  8
DIM
 62
     0
370
    -2
100
AcDbBlockReference
  2
_DOT
 10
92.47531165484429
 20
237.873280474571
 30
0.0
 50
270.0
  0
MTEXT
  5
5EFC
330
5EF4
100
AcDbEntity
  8
DIM
 62
     0
 48
0.05
100
AcDbMText
 10
84.57031165484432
 20
262.873280474571
 30
0.0
 40
5.0
 41
0.0
 46
0.0
 71
     5
 72
     1
  1
\A1;φ50
  7
ＭＳ ゴシック
 11
0.0
 21
1.0
 31
0.0
 73
     1
 44
1.0
  0
POINT
  5
5EFD
330
5EF4
100
AcDbEntity
  8
Defpoints
 62
     0
100
AcDbPoint
 10
133.5794503551029
 20
287.873280474571
 30
0.0
  0
POINT
  5
5EFE
330
5EF4
100
AcDbEntity
  8
Defpoints
 62
     0
100
AcDbPoint
 10
133.5794503551029
 20
237.873280474571
 30
0.0
  0
POINT
  5
5EFF
330
5EF4
100
AcDbEntity
  8
Defpoints
 62
     0
100
AcDbPoint
 10
92.47531165484429
 20
237.873280474571
 30
0.0
  0
ENDBLK
  5
5EF6
330
5EF4
100
AcDbEntity
  8
0
100
AcDbBlockEnd
  0
BLOCK
  5
5F05
330
5F04
100
AcDbEntity
  8
0
100
AcDbBlockBegin
  2
*D13
 70
     1
 10
0.0
 20
0.0
 30
0.0
  3
*D13
  1
*D42
  0
LINE
  5
5F07
330
5F04
100
AcDbEntity
  8
DIM
 62
     0
 48
0.05
370
    -2
100
AcDbLine
 10
638.9967913955658
 20
317.629010035571
 30
0.0
 11
638.9967913955658
 21
329.9012032036993
 31
0.0
  0
LINE
  5
5F08
330
5F04
100
AcDbEntity
  8
DIM
 62
     0
 48
0.05
370
    -2
100
AcDbLine
 10
703.0931933955658
 20
317.629010035571
 30
0.0
 11
703.0931933955658
 21
329.9012032036993
 31
0.0
  0
LINE
  5
5F09
330
5F04
100
AcDbEntity
  8
DIM
 62
     0
 48
0.05
370
    -2
100
AcDbLine
 10
639.9967913955658
 20
329.9012032036993
 30
0.0
 11
702.0931933955658
 21
329.9012032036993
 31
0.0
  0
INSERT
  5
5F0A
330
5F04
100
AcDbEntity
  8
DIM
 62
     0
370
    -2
100
AcDbBlockReference
  2
_DOT
 10
638.9967913955658
 20
329.9012032036993
 30
0.0
 50
180.0
  0
INSERT
  5
5F0B
330
5F04
100
AcDbEntity
  8
DIM
 62
     0
370
    -2
100
AcDbBlockReference
  2
_DOT
 10
703.0931933955658
 20
329.9012032036993
 30
0.0
  0
MTEXT
  5
5F0C
330
5F04
100
AcDbEntity
  8
DIM
 62
     0
 48
0.05
100
AcDbMText
 10
671.0449923955657
 20
337.4012032036993
 30
0.0
 40
5.0
 41
0.0
 46
0.0
 71
     5
 72
     1
  1
\A1;64
  7
ＭＳ ゴシック
 73
     1
 44
1.0
  0
POINT
  5
5F0D
330
5F04
100
AcDbEntity
  8
Defpoints
 62
     0
100
AcDbPoint
 10
638.9967913955658
 20
312.629010035571
 30
0.0
  0
POINT
  5
5F0E
330
5F04
100
AcDbEntity
  8
Defpoints
 62
     0
100
AcDbPoint
 10
703.0931933955658
 20
312.629010035571
 30
0.0
  0
POINT
  5
5F0F
330
5F04
100
AcDbEntity
  8
Defpoints
 62
     0
100
AcDbPoint
 10
703.0931933955658
 20
329.9012032036993
 30
0.0
  0
ENDBLK
  5
5F06
330
5F04
100
AcDbEntity
  8
0
100
AcDbBlockEnd
  0
BLOCK
  5
5F12
330
5F11
100
AcDbEntity
  8
0
100
AcDbBlockBegin
  2
*D14
 70
     1
 10
0.0
 20
0.0
 30
0.0
  3
*D14
  1
*D43
  0
LINE
  5
5F14
330
5F11
100
AcDbEntity
  8
DIM
 62
     0
 48
0.05
370
    -2
100
AcDbLine
 10
163.8675731316165
 20
452.1535118265685
 30
0.0
 11
199.3451358087403
 21
452.1535118265685
 31
0.0
  0
LINE
  5
5F15
330
5F11
100
AcDbEntity
  8
DIM
 62
     0
 48
0.05
370
    -2
100
AcDbLine
 10
154.2972074476339
 20
388.1535118265685
 30
0.0
 11
199.3451358087403
 21
388.1535118265685
 31
0.0
  0
LINE
  5
5F16
330
5F11
100
AcDbEntity
  8
DIM
 62
     0
 48
0.05
370
    -2
100
AcDbLine
 10
199.3451358087403
 20
451.1535118265685
 30
0.0
 11
199.3451358087403
 21
389.1535118265685
 31
0.0
  0
INSERT
  5
5F17
330
5F11
100
AcDbEntity
  8
DIM
 62
     0
370
    -2
100
AcDbBlockReference
  2
_DOT
 10
199.3451358087403
 20
452.1535118265685
 30
0.0
 50
90.0
  0
INSERT
  5
5F18
330
5F11
100
AcDbEntity
  8
DIM
 62
     0
370
    -2
100
AcDbBlockReference
  2
_DOT
 10
199.3451358087403
 20
388.1535118265685
 30
0.0
 50
270.0
  0
MTEXT
  5
5F19
330
5F11
100
AcDbEntity
  8
DIM
 62
     0
 48
0.05
100
AcDbMText
 10
191.8451358087403
 20
420.1535118265685
 30
0.0
 40
5.0
 41
0.0
 46
0.0
 71
     5
 72
     1
  1
\A1;64
  7
ＭＳ ゴシック
 11
0.0
 21
1.0
 31
0.0
 73
     1
 44
1.0
  0
POINT
  5
5F1A
330
5F11
100
AcDbEntity
  8
Defpoints
 62
     0
100
AcDbPoint
 10
158.8675731316165
 20
452.1535118265685
 30
0.0
  0
POINT
  5
5F1B
330
5F11
100
AcDbEntity
  8
Defpoints
 62
     0
100
AcDbPoint
 10
149.2972074476339
 20
388.1535118265685
 30
0.0
  0
POINT
  5
5F1C
330
5F11
100
AcDbEntity
  8
Defpoints
 62
     0
100
AcDbPoint
 10
199.3451358087403
 20
388.1535118265685
 30
0.0
  0
ENDBLK
  5
5F13
330
5F11
100
AcDbEntity
  8
0
100
AcDbBlockEnd
  0
BLOCK
  5
5F24
330
5F23
100
AcDbEntity
  8
0
100
AcDbBlockBegin
  2
*D15
 70
     1
 10
0.0
 20
0.0
 30
0.0
  3
*D15
  1
*D44
  0
LINE
  5
5F26
330
5F23
100
AcDbEntity
  8
DIM
 62
     0
 48
0.05
370
    -2
100
AcDbLine
 10
309.5150572915194
 20
208.2835030696694
 30
0.0
 11
309.5150572915194
 21
194.9073772282376
 31
0.0
  0
LINE
  5
5F27
330
5F23
100
AcDbEntity
  8
DIM
 62
     0
 48
0.05
370
    -2
100
AcDbLine
 10
269.5150572914616
 20
223.1482794448683
 30
0.0
 11
269.5150572914616
 21
194.9073772282376
 31
0.0
  0
LINE
  5
5F28
330
5F23
100
AcDbEntity
  8
DIM
 62
     0
 48
0.05
370
    -2
100
AcDbLine
 10
308.5150572915194
 20
194.9073772282376
 30
0.0
 11
270.5150572914616
 21
194.9073772282376
 31
0.0
  0
INSERT
  5
5F29
330
5F23
100
AcDbEntity
  8
DIM
 62
     0
370
    -2
100
AcDbBlockReference
  2
_DOT
 10
309.5150572915194
 20
194.9073772282376
 30
0.0
  0
INSERT
  5
5F2A
330
5F23
100
AcDbEntity
  8
DIM
 62
     0
370
    -2
100
AcDbBlockReference
  2
_DOT
 10
269.5150572914616
 20
194.9073772282376
 30
0.0
 50
180.0
  0
MTEXT
  5
5F2B
330
5F23
100
AcDbEntity
  8
DIM
 62
     0
 48
0.05
100
AcDbMText
 10
289.5150572914905
 20
202.4073772282376
 30
0.0
 40
5.0
 41
0.0
 46
0.0
 71
     5
 72
     1
  1
\A1;40
  7
ＭＳ ゴシック
 73
     1
 44
1.0
  0
POINT
  5
5F2C
330
5F23
100
AcDbEntity
  8
Defpoints
 62
     0
100
AcDbPoint
 10
309.5150572915194
 20
213.2835030696694
 30
0.0
  0
POINT
  5
5F2D
330
5F23
100
AcDbEntity
  8
Defpoints
 62
     0
100
AcDbPoint
 10
269.5150572914616
 20
228.1482794448683
 30
0.0
  0
POINT
  5
5F2E
330
5F23
100
AcDbEntity
  8
Defpoints
 62
     0
100
AcDbPoint
 10
269.5150572914616
 20
194.9073772282376
 30
0.0
  0
ENDBLK
  5
5F25
330
5F23
100
AcDbEntity
  8
0
100
AcDbBlockEnd
  0
BLOCK
  5
5FD8
330
5FD7
100
AcDbEntity
  8
0
100
AcDbBlockBegin
  2
_SE_FILLED
 70
     0
 10
0.0
 20
0.0
 30
0.0
  3
_SE_FILLED
  1
_SE_FILLED
  0
SOLID
  5
5FD9
330
5FD7
100
AcDbEntity
  8
0
 62
     0
100
AcDbTrace
 10
0.0
 20
0.0
 30
0.0
 11
-1.0
 21
-0.1665
 31
0.0
 12
-1.0
 22
0.1665
 32
0.0
 13
0.0
 23
0.0
 33
0.0
  0
LINE
  5
5FDA
330
5FD7
100
AcDbEntity
  8
0
 62
     0
100
AcDbLine
 10
0.0
 20
0.0
 30
0.0
 11
-1.0
 21
0.0
 31
0.0
  0
ENDBLK
  5
5FDB
330
5FD7
100
AcDbEntity
  8
0
100
AcDbBlockEnd
  0
BLOCK
  5
6056
330
6055
100
AcDbEntity
  8
0
100
AcDbBlockBegin
  2
DMBLK1
 70
     0
 10
0.0
 20
0.0
 30
0.0
  3
DMBLK1
  1
DMBLK1
  0
LINE
  5
6057
330
6055
100
AcDbEntity
  8
Layer3
  6
Continuous
 62
   136
370
    -2
100
AcDbLine
 10
49.42192825749998
 20
130.7045727394
 30
0.0
 11
25.86755707929998
 21
130.7045727394
 31
0.0
  0
LINE
  5
6058
330
6055
100
AcDbEntity
  8
Layer3
  6
Continuous
 62
   136
370
    -2
100
AcDbLine
 10
49.42192825749998
 20
109.9045727394
 30
0.0
 11
25.86755707929998
 21
109.9045727394
 31
0.0
  0
LINE
  5
6059
330
6055
100
AcDbEntity
  8
Layer3
  6
Continuous
 62
   136
370
    -2
100
AcDbLine
 10
28.86755707929998
 20
124.7045727394
 30
0.0
 11
28.86755707929998
 21
123.4079727111
 31
0.0
  0
LINE
  5
605A
330
6055
100
AcDbEntity
  8
Layer3
  6
Continuous
 62
   136
370
    -2
100
AcDbLine
 10
28.86755707929998
 20
115.9045727394
 30
0.0
 11
28.86755707929998
 21
117.2011727111
 31
0.0
  0
INSERT
  5
605B
330
6055
100
AcDbEntity
  8
Layer3
 62
   136
370
    -2
100
AcDbBlockReference
  2
_SE_FILLED
 10
28.86755707929998
 20
130.7045727394
 30
0.0
 41
6.0
 42
6.0
 43
6.0
 50
90.0
  0
INSERT
  5
605C
330
6055
100
AcDbEntity
  8
Layer3
 62
   136
370
    -2
100
AcDbBlockReference
  2
_SE_FILLED
 10
28.86755707929998
 20
109.9045727394
 30
0.0
 41
6.0
 42
6.0
 43
6.0
 50
270.0
  0
MTEXT
  5
605D
330
6055
100
AcDbEntity
  8
Layer3
 62
   136
 48
0.05
370
    20
100
AcDbMText
 10
28.86755707929998
 20
120.3045727111
 30
0.0
 40
0.2
 41
0.0
 46
0.0
 71
     5
 72
     1
  1
\A1;\A1;G1/2 {}
  7
SEACAD_arial_ttf
 73
     1
 44
1.0
  0
POINT
  5
609C
330
6055
100
AcDbEntity
  8
Defpoints
 62
     0
100
AcDbPoint
 10
49.42192825749998
 20
130.7045727394
 30
0.0
  0
POINT
  5
609D
330
6055
100
AcDbEntity
  8
Defpoints
 62
     0
100
AcDbPoint
 10
49.42192825749998
 20
109.9045727394
 30
0.0
  0
POINT
  5
609E
330
6055
100
AcDbEntity
  8
Defpoints
 62
     0
100
AcDbPoint
 10
28.86755707929998
 20
109.9045727394
 30
0.0
  0
ENDBLK
  5
605E
330
6055
100
AcDbEntity
  8
0
100
AcDbBlockEnd
  0
BLOCK
  5
6061
330
6060
100
AcDbEntity
  8
0
100
AcDbBlockBegin
  2
DMBLK2
 70
     0
 10
0.0
 20
0.0
 30
0.0
  3
DMBLK2
  1
DMBLK2
  0
LINE
  5
6062
330
6060
100
AcDbEntity
  8
Layer3
  6
Continuous
 62
   136
370
    -2
100
AcDbLine
 10
94.47192825749998
 20
87.8608042065
 30
0.0
 11
94.47192825749998
 21
61.7578892921
 31
0.0
  0
LINE
  5
6063
330
6060
100
AcDbEntity
  8
Layer3
  6
Continuous
 62
   136
370
    -2
100
AcDbLine
 10
53.37192825749997
 20
92.7045727394
 30
0.0
 11
53.37192825749997
 21
61.7578892921
 31
0.0
  0
LINE
  5
6064
330
6060
100
AcDbEntity
  8
Layer3
  6
Continuous
 62
   136
370
    -2
100
AcDbLine
 10
88.47192825749998
 20
64.7578892921
 30
0.0
 11
77.28792870749997
 21
64.7578892921
 31
0.0
  0
LINE
  5
6065
330
6060
100
AcDbEntity
  8
Layer3
  6
Continuous
 62
   136
370
    -2
100
AcDbLine
 10
59.37192825749997
 20
64.7578892921
 30
0.0
 11
70.55592870749997
 21
64.7578892921
 31
0.0
  0
INSERT
  5
6066
330
6060
100
AcDbEntity
  8
Layer3
 62
   136
370
    -2
100
AcDbBlockReference
  2
_SE_FILLED
 10
94.47192825749998
 20
64.7578892921
 30
0.0
 41
6.0
 42
6.0
 43
6.0
  0
INSERT
  5
6067
330
6060
100
AcDbEntity
  8
Layer3
 62
   136
370
    -2
100
AcDbBlockReference
  2
_SE_FILLED
 10
53.37192825749997
 20
64.7578892921
 30
0.0
 41
6.0
 42
6.0
 43
6.0
 50
180.0
  0
MTEXT
  5
6068
330
6060
100
AcDbEntity
  8
Layer3
 62
   136
 48
0.05
370
    20
100
AcDbMText
 10
73.92192870749997
 20
64.7578892921
 30
0.0
 40
0.2
 41
0.0
 46
0.0
 71
     5
 72
     1
  1
\A1;\A1;27- 41
  7
SEACAD_arial_ttf
 73
     1
 44
1.0
  0
POINT
  5
6069
330
6060
100
AcDbEntity
  8
Defpoints
 62
     0
100
AcDbPoint
 10
94.47192825749998
 20
87.8608042065
 30
0.0
  0
POINT
  5
609F
330
6060
100
AcDbEntity
  8
Defpoints
 62
     0
100
AcDbPoint
 10
53.37192825749997
 20
92.7045727394
 30
0.0
  0
POINT
  5
60A0
330
6060
100
AcDbEntity
  8
Defpoints
 62
     0
100
AcDbPoint
 10
53.37192825749997
 20
64.7578892921
 30
0.0
  0
ENDBLK
  5
606A
330
6060
100
AcDbEntity
  8
0
100
AcDbBlockEnd
  0
BLOCK
  5
606D
330
606C
100
AcDbEntity
  8
0
100
AcDbBlockBegin
  2
DMBLK3
 70
     0
 10
0.0
 20
0.0
 30
0.0
  3
DMBLK3
  1
DMBLK3
  0
LINE
  5
606E
330
606C
100
AcDbEntity
  8
Layer3
  6
Continuous
 62
   136
370
    -2
100
AcDbLine
 10
53.37192825749997
 20
159.9045727394
 30
0.0
 11
5.94130728909998
 21
159.9045727394
 31
0.0
  0
LINE
  5
606F
330
606C
100
AcDbEntity
  8
Layer3
  6
Continuous
 62
   136
370
    -2
100
AcDbLine
 10
55.47192825749998
 20
92.7045727394
 30
0.0
 11
5.941307289099976
 21
92.7045727394
 31
0.0
  0
LINE
  5
6070
330
606C
100
AcDbEntity
  8
Layer3
  6
Continuous
 62
   136
370
    -2
100
AcDbLine
 10
8.94130728909998
 20
153.9045727394
 30
0.0
 11
8.941307289099978
 21
129.4079739375
 31
0.0
  0
LINE
  5
6071
330
606C
100
AcDbEntity
  8
Layer3
  6
Continuous
 62
   136
370
    -2
100
AcDbLine
 10
8.941307289099976
 20
98.7045727394
 30
0.0
 11
8.941307289099978
 21
123.2011739375
 31
0.0
  0
INSERT
  5
6072
330
606C
100
AcDbEntity
  8
Layer3
 62
   136
370
    -2
100
AcDbBlockReference
  2
_SE_FILLED
 10
8.94130728909998
 20
159.9045727394
 30
0.0
 41
6.0
 42
6.0
 43
6.0
 50
90.0
  0
INSERT
  5
6073
330
606C
100
AcDbEntity
  8
Layer3
 62
   136
370
    -2
100
AcDbBlockReference
  2
_SE_FILLED
 10
8.941307289099976
 20
92.7045727394
 30
0.0
 41
6.0
 42
6.0
 43
6.0
 50
270.0
  0
MTEXT
  5
6074
330
606C
100
AcDbEntity
  8
Layer3
 62
   136
 48
0.05
370
    20
100
AcDbMText
 10
8.941307289099978
 20
126.3045739375
 30
0.0
 40
0.2
 41
0.0
 46
0.0
 71
     5
 72
     1
  1
\A1;\A1;O67 {}
  7
SEACAD_arial_ttf
 73
     1
 44
1.0
  0
POINT
  5
60A1
330
606C
100
AcDbEntity
  8
Defpoints
 62
     0
100
AcDbPoint
 10
53.37192825749997
 20
159.9045727394
 30
0.0
  0
POINT
  5
60A2
330
606C
100
AcDbEntity
  8
Defpoints
 62
     0
100
AcDbPoint
 10
55.47192825749998
 20
92.7045727394
 30
0.0
  0
POINT
  5
60A3
330
606C
100
AcDbEntity
  8
Defpoints
 62
     0
100
AcDbPoint
 10
8.941307289099978
 20
92.7045727394
 30
0.0
  0
ENDBLK
  5
6075
330
606C
100
AcDbEntity
  8
0
100
AcDbBlockEnd
  0
BLOCK
  5
6078
330
6077
100
AcDbEntity
  8
0
100
AcDbBlockBegin
  2
DMBLK4
 70
     0
 10
0.0
 20
0.0
 30
0.0
  3
DMBLK4
  1
DMBLK4
  0
LINE
  5
6079
330
6077
100
AcDbEntity
  8
Layer3
  6
Continuous
 62
   136
370
    -2
100
AcDbLine
 10
84.07192825749998
 20
100.7959731121
 30
0.0
 11
84.07192825749998
 21
77.5118344922
 31
0.0
  0
LINE
  5
607A
330
6077
100
AcDbEntity
  8
Layer3
  6
Continuous
 62
   136
370
    -2
100
AcDbLine
 10
104.8719282575
 20
100.0930807563
 30
0.0
 11
104.8719282575
 21
77.5118344922
 31
0.0
  0
LINE
  5
607B
330
6077
100
AcDbEntity
  8
Layer3
  6
Continuous
 62
   136
370
    -2
100
AcDbLine
 10
90.07192825749998
 20
80.5118344922
 30
0.0
 11
91.18412828579997
 21
80.5118344922
 31
0.0
  0
LINE
  5
607C
330
6077
100
AcDbEntity
  8
Layer3
  6
Continuous
 62
   136
370
    -2
100
AcDbLine
 10
98.87192825749997
 20
80.5118344922
 30
0.0
 11
97.75972828579998
 21
80.5118344922
 31
0.0
  0
INSERT
  5
607D
330
6077
100
AcDbEntity
  8
Layer3
 62
   136
370
    -2
100
AcDbBlockReference
  2
_SE_FILLED
 10
84.07192825749998
 20
80.5118344922
 30
0.0
 41
6.0
 42
6.0
 43
6.0
 50
180.0
  0
INSERT
  5
607E
330
6077
100
AcDbEntity
  8
Layer3
 62
   136
370
    -2
100
AcDbBlockReference
  2
_SE_FILLED
 10
104.8719282575
 20
80.5118344922
 30
0.0
 41
6.0
 42
6.0
 43
6.0
  0
MTEXT
  5
607F
330
6077
100
AcDbEntity
  8
Layer3
 62
   136
 48
0.05
370
    20
100
AcDbMText
 10
94.47192828579998
 20
80.5118344922
 30
0.0
 40
0.2
 41
0.0
 46
0.0
 71
     5
 72
     1
  1
\A1;\A1;G1/2 {}
  7
SEACAD_arial_ttf
 73
     1
 44
1.0
  0
POINT
  5
60A4
330
6077
100
AcDbEntity
  8
Defpoints
 62
     0
100
AcDbPoint
 10
84.07192825749998
 20
100.7959731121
 30
0.0
  0
POINT
  5
60A5
330
6077
100
AcDbEntity
  8
Defpoints
 62
     0
100
AcDbPoint
 10
104.8719282575
 20
100.0930807563
 30
0.0
  0
POINT
  5
60A6
330
6077
100
AcDbEntity
  8
Defpoints
 62
     0
100
AcDbPoint
 10
104.8719282575
 20
80.5118344922
 30
0.0
  0
ENDBLK
  5
6080
330
6077
100
AcDbEntity
  8
0
100
AcDbBlockEnd
  0
BLOCK
  5
6083
330
6082
100
AcDbEntity
  8
0
100
AcDbBlockBegin
  2
DMBLK5
 70
     0
 10
0.0
 20
0.0
 30
0.0
  3
DMBLK5
  1
DMBLK5
  0
LINE
  5
6084
330
6082
100
AcDbEntity
  8
Layer3
  6
Continuous
 62
   136
370
    -2
100
AcDbLine
 10
53.37172825749997
 20
167.635104354
 30
0.0
 11
53.37172825749997
 21
180.8302199352
 31
0.0
  0
LINE
  5
6085
330
6082
100
AcDbEntity
  8
Layer3
  6
Continuous
 62
   136
370
    -2
100
AcDbLine
 10
123.0119282546
 20
126.3045727394
 30
0.0
 11
123.0119282546
 21
180.8302199352
 31
0.0
  0
LINE
  5
6086
330
6082
100
AcDbEntity
  8
Layer3
  6
Continuous
 62
   136
370
    -2
100
AcDbLine
 10
59.37172825749997
 20
177.8302199352
 30
0.0
 11
85.04992668739997
 21
177.8302199352
 31
0.0
  0
LINE
  5
6087
330
6082
100
AcDbEntity
  8
Layer3
  6
Continuous
 62
   136
370
    -2
100
AcDbLine
 10
117.0119282546
 20
177.8302199352
 30
0.0
 11
91.33372668739999
 21
177.8302199352
 31
0.0
  0
INSERT
  5
6088
330
6082
100
AcDbEntity
  8
Layer3
 62
   136
370
    -2
100
AcDbBlockReference
  2
_SE_FILLED
 10
53.37172825749997
 20
177.8302199352
 30
0.0
 41
6.0
 42
6.0
 43
6.0
 50
180.0
  0
INSERT
  5
6089
330
6082
100
AcDbEntity
  8
Layer3
 62
   136
370
    -2
100
AcDbBlockReference
  2
_SE_FILLED
 10
123.0119282546
 20
177.8302199352
 30
0.0
 41
6.0
 42
6.0
 43
6.0
  0
MTEXT
  5
608A
330
6082
100
AcDbEntity
  8
Layer3
 62
   136
 48
0.05
370
    20
100
AcDbMText
 10
88.19182668739998
 20
177.8302199352
 30
0.0
 40
0.2
 41
0.0
 46
0.0
 71
     5
 72
     1
  1
\A1;\A1;70
  7
SEACAD_arial_ttf
 73
     1
 44
1.0
  0
POINT
  5
60A7
330
6082
100
AcDbEntity
  8
Defpoints
 62
     0
100
AcDbPoint
 10
53.37172825749997
 20
167.635104354
 30
0.0
  0
POINT
  5
60A8
330
6082
100
AcDbEntity
  8
Defpoints
 62
     0
100
AcDbPoint
 10
123.0119282546
 20
126.3045727394
 30
0.0
  0
POINT
  5
60A9
330
6082
100
AcDbEntity
  8
Defpoints
 62
     0
100
AcDbPoint
 10
123.0119282546
 20
177.8302199352
 30
0.0
  0
ENDBLK
  5
608B
330
6082
100
AcDbEntity
  8
0
100
AcDbBlockEnd
  0
BLOCK
  5
608E
330
608D
100
AcDbEntity
  8
0
100
AcDbBlockBegin
  2
DMBLK6
 70
     0
 10
0.0
 20
0.0
 30
0.0
  3
DMBLK6
  1
DMBLK6
  0
LINE
  5
608F
330
608D
100
AcDbEntity
  8
Layer3
  6
Continuous
 62
   136
370
    -2
100
AcDbLine
 10
53.37192825749997
 20
92.7045727394
 30
0.0
 11
53.37192825749997
 21
61.75789009250001
 31
0.0
  0
LINE
  5
6090
330
608D
100
AcDbEntity
  8
Layer3
  6
Continuous
 62
   136
370
    -2
100
AcDbLine
 10
44.47192825749998
 20
110.9045727394
 30
0.0
 11
44.47192825749998
 21
61.75789009250001
 31
0.0
  0
LINE
  5
6091
330
608D
100
AcDbEntity
  8
Layer3
  6
Continuous
 62
   136
370
    -2
100
AcDbLine
 10
44.47192825749998
 20
64.7578900925
 30
0.0
 11
32.47192825749998
 21
64.7578900925
 31
0.0
  0
LINE
  5
6092
330
608D
100
AcDbEntity
  8
Layer3
  6
Continuous
 62
   136
370
    -2
100
AcDbLine
 10
59.37192825749997
 20
64.7578900925
 30
0.0
 11
65.37192825749997
 21
64.7578900925
 31
0.0
  0
LINE
  5
6093
330
608D
100
AcDbEntity
  8
Layer3
  6
Continuous
 62
   136
370
    -2
100
AcDbLine
 10
38.47192825749998
 20
64.7578900925
 30
0.0
 11
32.47192825749998
 21
64.7578900925
 31
0.0
  0
INSERT
  5
6094
330
608D
100
AcDbEntity
  8
Layer3
 62
   136
370
    -2
100
AcDbBlockReference
  2
_SE_FILLED
 10
53.37192825749997
 20
64.7578900925
 30
0.0
 41
6.0
 42
6.0
 43
6.0
 50
180.0
  0
INSERT
  5
6095
330
608D
100
AcDbEntity
  8
Layer3
 62
   136
370
    -2
100
AcDbBlockReference
  2
_SE_FILLED
 10
44.47192825749998
 20
64.7578900925
 30
0.0
 41
6.0
 42
6.0
 43
6.0
  0
MTEXT
  5
6096
330
608D
100
AcDbEntity
  8
Layer3
 62
   136
 48
0.05
370
    20
100
AcDbMText
 10
29.16402825749998
 20
64.7578900925
 30
0.0
 40
0.2
 41
0.0
 46
0.0
 71
     5
 72
     1
  1
\A1;\A1;23- 9
  7
SEACAD_arial_ttf
 73
     1
 44
1.0
  0
POINT
  5
60AA
330
608D
100
AcDbEntity
  8
Defpoints
 62
     0
100
AcDbPoint
 10
53.37192825749997
 20
92.7045727394
 30
0.0
  0
POINT
  5
60AB
330
608D
100
AcDbEntity
  8
Defpoints
 62
     0
100
AcDbPoint
 10
44.47192825749998
 20
110.9045727394
 30
0.0
  0
POINT
  5
60AC
330
608D
100
AcDbEntity
  8
Defpoints
 62
     0
100
AcDbPoint
 10
44.47192825749998
 20
64.7578900925
 30
0.0
  0
ENDBLK
  5
6097
330
608D
100
AcDbEntity
  8
0
100
AcDbBlockEnd
  0
BLOCK
  5
6111
330
6110
100
AcDbEntity
  8
0
100
AcDbBlockBegin
  2
*D23
 70
     1
 10
0.0
 20
0.0
 30
0.0
  3
*D23
  1
*D55
  0
LINE
  5
6113
330
6110
100
AcDbEntity
  8
DIM
 62
     0
370
    -2
100
AcDbLine
 10
883.1671426268575
 20
227.2828134547615
 30
0.0
 11
867.6127714486576
 21
227.2828134547615
 31
0.0
  0
LINE
  5
6114
330
6110
100
AcDbEntity
  8
DIM
 62
     0
370
    -2
100
AcDbLine
 10
883.1671426268575
 20
206.4828134547615
 30
0.0
 11
867.6127714486576
 21
206.4828134547615
 31
0.0
  0
LINE
  5
6115
330
6110
100
AcDbEntity
  8
DIM
 62
     0
370
    -2
100
AcDbLine
 10
867.6127714486576
 20
226.2828134547615
 30
0.0
 11
867.6127714486576
 21
207.4828134547615
 31
0.0
  0
INSERT
  5
6116
330
6110
100
AcDbEntity
  8
DIM
 62
     0
370
    -2
100
AcDbBlockReference
  2
_DOT
 10
867.6127714486576
 20
227.2828134547615
 30
0.0
 50
90.0
  0
INSERT
  5
6117
330
6110
100
AcDbEntity
  8
DIM
 62
     0
370
    -2
100
AcDbBlockReference
  2
_DOT
 10
867.6127714486576
 20
206.4828134547615
 30
0.0
 50
270.0
  0
MTEXT
  5
6118
330
6110
100
AcDbEntity
  8
DIM
 62
     0
 48
0.05
100
AcDbMText
 10
859.5802714486575
 20
216.8828134264615
 30
0.0
 40
5.0
 41
0.0
 46
0.0
 71
     5
 72
     1
  1
\A1;\A1;G1/2 {}
  7
ＭＳ ゴシック
 11
0.0
 21
1.0
 31
0.0
 73
     1
 44
1.0
  0
POINT
  5
6119
330
6110
100
AcDbEntity
  8
Defpoints
 62
     0
100
AcDbPoint
 10
888.1671426268575
 20
227.2828134547615
 30
0.0
  0
POINT
  5
611A
330
6110
100
AcDbEntity
  8
Defpoints
 62
     0
100
AcDbPoint
 10
888.1671426268575
 20
206.4828134547615
 30
0.0
  0
POINT
  5
611B
330
6110
100
AcDbEntity
  8
Defpoints
 62
     0
100
AcDbPoint
 10
867.6127714486576
 20
206.4828134547615
 30
0.0
  0
ENDBLK
  5
6112
330
6110
100
AcDbEntity
  8
0
100
AcDbBlockEnd
  0
BLOCK
  5
611E
330
611D
100
AcDbEntity
  8
0
100
AcDbBlockBegin
  2
*D24
 70
     1
 10
0.0
 20
0.0
 30
0.0
  3
*D24
  1
*D56
  0
LINE
  5
6120
330
611D
100
AcDbEntity
  8
DIM
 62
     0
370
    -2
100
AcDbLine
 10
312.6716946499789
 20
185.8254269480883
 30
0.0
 11
312.6716946499789
 21
177.5011453064008
 31
0.0
  0
LINE
  5
6121
330
611D
100
AcDbEntity
  8
DIM
 62
     0
370
    -2
100
AcDbLine
 10
271.5714946499791
 20
203.9131922447858
 30
0.0
 11
271.5714946499791
 21
177.5011453064008
 31
0.0
  0
LINE
  5
6122
330
611D
100
AcDbEntity
  8
DIM
 62
     0
370
    -2
100
AcDbLine
 10
311.6716946499789
 20
177.5011453064008
 30
0.0
 11
272.5714946499791
 21
177.5011453064008
 31
0.0
  0
INSERT
  5
6123
330
611D
100
AcDbEntity
  8
DIM
 62
     0
370
    -2
100
AcDbBlockReference
  2
_DOT
 10
312.6716946499789
 20
177.5011453064008
 30
0.0
  0
INSERT
  5
6124
330
611D
100
AcDbEntity
  8
DIM
 62
     0
370
    -2
100
AcDbBlockReference
  2
_DOT
 10
271.5714946499791
 20
177.5011453064008
 30
0.0
 50
180.0
  0
MTEXT
  5
6125
330
611D
100
AcDbEntity
  8
DIM
 62
     0
 48
0.05
100
AcDbMText
 10
292.1216950999791
 20
185.0011453064008
 30
0.0
 40
5.0
 41
0.0
 46
0.0
 71
     5
 72
     1
  1
\A1;\A1;27- 41
  7
ＭＳ ゴシック
 73
     1
 44
1.0
  0
POINT
  5
6126
330
611D
100
AcDbEntity
  8
Defpoints
 62
     0
100
AcDbPoint
 10
312.6716946499789
 20
190.8254269480883
 30
0.0
  0
POINT
  5
6127
330
611D
100
AcDbEntity
  8
Defpoints
 62
     0
100
AcDbPoint
 10
271.5714946499791
 20
208.9131922447858
 30
0.0
  0
POINT
  5
6128
330
611D
100
AcDbEntity
  8
Defpoints
 62
     0
100
AcDbPoint
 10
271.5714946499791
 20
177.5011453064008
 30
0.0
  0
ENDBLK
  5
611F
330
611D
100
AcDbEntity
  8
0
100
AcDbBlockEnd
  0
BLOCK
  5
612B
330
612A
100
AcDbEntity
  8
0
100
AcDbBlockBegin
  2
*D25
 70
     1
 10
0.0
 20
0.0
 30
0.0
  3
*D25
  1
*D57
  0
LINE
  5
612D
330
612A
100
AcDbEntity
  8
DIM
 62
     0
370
    -2
100
AcDbLine
 10
128.8597235054705
 20
283.8437238593858
 30
0.0
 11
89.42910253707043
 21
283.8437238593858
 31
0.0
  0
LINE
  5
612E
330
612A
100
AcDbEntity
  8
DIM
 62
     0
370
    -2
100
AcDbLine
 10
130.9597235054704
 20
216.6437238593858
 30
0.0
 11
89.42910253707043
 21
216.6437238593858
 31
0.0
  0
LINE
  5
612F
330
612A
100
AcDbEntity
  8
DIM
 62
     0
370
    -2
100
AcDbLine
 10
89.42910253707043
 20
282.8437238593858
 30
0.0
 11
89.42910253707043
 21
217.6437238593858
 31
0.0
  0
INSERT
  5
6130
330
612A
100
AcDbEntity
  8
DIM
 62
     0
370
    -2
100
AcDbBlockReference
  2
_DOT
 10
89.42910253707043
 20
283.8437238593858
 30
0.0
 50
90.0
  0
INSERT
  5
6131
330
612A
100
AcDbEntity
  8
DIM
 62
     0
370
    -2
100
AcDbBlockReference
  2
_DOT
 10
89.42910253707043
 20
216.6437238593858
 30
0.0
 50
270.0
  0
MTEXT
  5
6132
330
612A
100
AcDbEntity
  8
DIM
 62
     0
 48
0.05
100
AcDbMText
 10
81.52410253707043
 20
250.2437250574858
 30
0.0
 40
5.0
 41
0.0
 46
0.0
 71
     5
 72
     1
  1
\A1;φ67
  7
ＭＳ ゴシック
 11
0.0
 21
1.0
 31
0.0
 73
     1
 44
1.0
  0
POINT
  5
6133
330
612A
100
AcDbEntity
  8
Defpoints
 62
     0
100
AcDbPoint
 10
133.8597235054705
 20
283.8437238593858
 30
0.0
  0
POINT
  5
6134
330
612A
100
AcDbEntity
  8
Defpoints
 62
     0
100
AcDbPoint
 10
135.9597235054704
 20
216.6437238593858
 30
0.0
  0
POINT
  5
6135
330
612A
100
AcDbEntity
  8
Defpoints
 62
     0
100
AcDbPoint
 10
89.42910253707043
 20
216.6437238593858
 30
0.0
  0
ENDBLK
  5
612C
330
612A
100
AcDbEntity
  8
0
100
AcDbBlockEnd
  0
BLOCK
  5
6138
330
6137
100
AcDbEntity
  8
0
100
AcDbBlockBegin
  2
*D26
 70
     1
 10
0.0
 20
0.0
 30
0.0
  3
*D26
  1
*D58
  0
LINE
  5
613A
330
6137
100
AcDbEntity
  8
DIM
 62
     0
370
    -2
100
AcDbLine
 10
922.8171426268575
 20
192.3742138274615
 30
0.0
 11
922.8171426268575
 21
177.0900752075615
 31
0.0
  0
LINE
  5
613B
330
6137
100
AcDbEntity
  8
DIM
 62
     0
370
    -2
100
AcDbLine
 10
943.6171426268576
 20
191.6713214716615
 30
0.0
 11
943.6171426268576
 21
177.0900752075615
 31
0.0
  0
LINE
  5
613C
330
6137
100
AcDbEntity
  8
DIM
 62
     0
370
    -2
100
AcDbLine
 10
923.8171426268575
 20
177.0900752075615
 30
0.0
 11
942.6171426268576
 21
177.0900752075615
 31
0.0
  0
INSERT
  5
613D
330
6137
100
AcDbEntity
  8
DIM
 62
     0
370
    -2
100
AcDbBlockReference
  2
_DOT
 10
922.8171426268575
 20
177.0900752075615
 30
0.0
 50
180.0
  0
INSERT
  5
613E
330
6137
100
AcDbEntity
  8
DIM
 62
     0
370
    -2
100
AcDbBlockReference
  2
_DOT
 10
943.6171426268576
 20
177.0900752075615
 30
0.0
  0
MTEXT
  5
613F
330
6137
100
AcDbEntity
  8
DIM
 62
     0
 48
0.05
100
AcDbMText
 10
933.2171426551575
 20
185.1225752075615
 30
0.0
 40
5.0
 41
0.0
 46
0.0
 71
     5
 72
     1
  1
\A1;\A1;G1/2 {}
  7
ＭＳ ゴシック
 73
     1
 44
1.0
  0
POINT
  5
6140
330
6137
100
AcDbEntity
  8
Defpoints
 62
     0
100
AcDbPoint
 10
922.8171426268575
 20
197.3742138274615
 30
0.0
  0
POINT
  5
6141
330
6137
100
AcDbEntity
  8
Defpoints
 62
     0
100
AcDbPoint
 10
943.6171426268576
 20
196.6713214716615
 30
0.0
  0
POINT
  5
6142
330
6137
100
AcDbEntity
  8
Defpoints
 62
     0
100
AcDbPoint
 10
943.6171426268576
 20
177.0900752075615
 30
0.0
  0
ENDBLK
  5
6139
330
6137
100
AcDbEntity
  8
0
100
AcDbBlockEnd
  0
BLOCK
  5
6145
330
6144
100
AcDbEntity
  8
0
100
AcDbBlockBegin
  2
*D27
 70
     1
 10
0.0
 20
0.0
 30
0.0
  3
*D27
  1
*D59
  0
LINE
  5
6147
330
6144
100
AcDbEntity
  8
DIM
 62
     0
370
    -2
100
AcDbLine
 10
892.1169426268575
 20
269.2133450693615
 30
0.0
 11
892.1169426268575
 21
274.4084606505616
 31
0.0
  0
LINE
  5
6148
330
6144
100
AcDbEntity
  8
DIM
 62
     0
370
    -2
100
AcDbLine
 10
961.7571426239575
 20
227.8828134547615
 30
0.0
 11
961.7571426239575
 21
274.4084606505616
 31
0.0
  0
LINE
  5
6149
330
6144
100
AcDbEntity
  8
DIM
 62
     0
370
    -2
100
AcDbLine
 10
893.1169426268575
 20
274.4084606505616
 30
0.0
 11
960.7571426239575
 21
274.4084606505616
 31
0.0
  0
INSERT
  5
614A
330
6144
100
AcDbEntity
  8
DIM
 62
     0
370
    -2
100
AcDbBlockReference
  2
_DOT
 10
892.1169426268575
 20
274.4084606505616
 30
0.0
 50
180.0
  0
INSERT
  5
614B
330
6144
100
AcDbEntity
  8
DIM
 62
     0
370
    -2
100
AcDbBlockReference
  2
_DOT
 10
961.7571426239575
 20
274.4084606505616
 30
0.0
  0
MTEXT
  5
614C
330
6144
100
AcDbEntity
  8
DIM
 62
     0
 48
0.05
100
AcDbMText
 10
926.9370410567575
 20
281.9084606505616
 30
0.0
 40
5.0
 41
0.0
 46
0.0
 71
     5
 72
     1
  1
\A1;\A1;70
  7
ＭＳ ゴシック
 73
     1
 44
1.0
  0
POINT
  5
614D
330
6144
100
AcDbEntity
  8
Defpoints
 62
     0
100
AcDbPoint
 10
892.1169426268575
 20
264.2133450693615
 30
0.0
  0
POINT
  5
614E
330
6144
100
AcDbEntity
  8
Defpoints
 62
     0
100
AcDbPoint
 10
961.7571426239575
 20
222.8828134547615
 30
0.0
  0
POINT
  5
614F
330
6144
100
AcDbEntity
  8
Defpoints
 62
     0
100
AcDbPoint
 10
961.7571426239575
 20
274.4084606505616
 30
0.0
  0
ENDBLK
  5
6146
330
6144
100
AcDbEntity
  8
0
100
AcDbBlockEnd
  0
BLOCK
  5
6152
330
6151
100
AcDbEntity
  8
0
100
AcDbBlockBegin
  2
*D28
 70
     1
 10
0.0
 20
0.0
 30
0.0
  3
*D28
  1
*D60
  0
LINE
  5
6154
330
6151
100
AcDbEntity
  8
DIM
 62
     0
370
    -2
100
AcDbLine
 10
271.5714946499791
 20
203.9131922447858
 30
0.0
 11
271.5714946499791
 21
177.5011453064008
 31
0.0
  0
LINE
  5
6155
330
6151
100
AcDbEntity
  8
DIM
 62
     0
370
    -2
100
AcDbLine
 10
262.671694649979
 20
228.1985248441127
 30
0.0
 11
262.671694649979
 21
177.5011453064008
 31
0.0
  0
LINE
  5
6156
330
6151
100
AcDbEntity
  8
DIM
 62
     0
370
    -2
100
AcDbLine
 10
262.671694649979
 20
177.5011453064008
 30
0.0
 11
235.1116946499791
 21
177.5011453064008
 31
0.0
  0
LINE
  5
6157
330
6151
100
AcDbEntity
  8
DIM
 62
     0
370
    -2
100
AcDbLine
 10
270.5714946499791
 20
177.5011453064008
 30
0.0
 11
263.671694649979
 21
177.5011453064008
 31
0.0
  0
INSERT
  5
6158
330
6151
100
AcDbEntity
  8
DIM
 62
     0
370
    -2
100
AcDbBlockReference
  2
_DOT
 10
271.5714946499791
 20
177.5011453064008
 30
0.0
  0
INSERT
  5
6159
330
6151
100
AcDbEntity
  8
DIM
 62
     0
370
    -2
100
AcDbBlockReference
  2
_DOT
 10
262.671694649979
 20
177.5011453064008
 30
0.0
 50
180.0
  0
MTEXT
  5
615A
330
6151
100
AcDbEntity
  8
DIM
 62
     0
 48
0.05
100
AcDbMText
 10
247.8916946499791
 20
185.0011453064008
 30
0.0
 40
5.0
 41
0.0
 46
0.0
 71
     5
 72
     1
  1
\A1;\A1;23- 9
  7
ＭＳ ゴシック
 73
     1
 44
1.0
  0
POINT
  5
615B
330
6151
100
AcDbEntity
  8
Defpoints
 62
     0
100
AcDbPoint
 10
271.5714946499791
 20
208.9131922447858
 30
0.0
  0
POINT
  5
615C
330
6151
100
AcDbEntity
  8
Defpoints
 62
     0
100
AcDbPoint
 10
262.671694649979
 20
233.1985248441127
 30
0.0
  0
POINT
  5
61BA
330
6151
100
AcDbEntity
  8
Defpoints
 62
     0
100
AcDbPoint
 10
262.671694649979
 20
177.5011453064008
 30
0.0
  0
ENDBLK
  5
6153
330
6151
100
AcDbEntity
  8
0
100
AcDbBlockEnd
  0
BLOCK
  5
6179
330
6178
100
AcDbEntity
  8
0
100
AcDbBlockBegin
  2
*D29
 70
     1
 10
0.0
 20
0.0
 30
0.0
  3
*D29
  1
*D61
  0
LINE
  5
617B
330
6178
100
AcDbEntity
  8
DIM
 62
     0
 48
0.05
370
    -2
100
AcDbLine
 10
172.3496319502007
 20
454.7888712321388
 30
0.0
 11
208.0525301788372
 21
454.7888712321388
 31
0.0
  0
LINE
  5
617C
330
6178
100
AcDbEntity
  8
DIM
 62
     0
 48
0.05
370
    -2
100
AcDbLine
 10
143.1206698320161
 20
384.7888712321388
 30
0.0
 11
208.0525301788372
 21
384.7888712321388
 31
0.0
  0
LINE
  5
617D
330
6178
100
AcDbEntity
  8
DIM
 62
     0
 48
0.05
370
    -2
100
AcDbLine
 10
208.0525301788372
 20
453.7888712321388
 30
0.0
 11
208.0525301788372
 21
385.7888712321388
 31
0.0
  0
INSERT
  5
617E
330
6178
100
AcDbEntity
  8
DIM
 62
     0
370
    -2
100
AcDbBlockReference
  2
_DOT
 10
208.0525301788372
 20
454.7888712321388
 30
0.0
 50
90.0
  0
INSERT
  5
617F
330
6178
100
AcDbEntity
  8
DIM
 62
     0
370
    -2
100
AcDbBlockReference
  2
_DOT
 10
208.0525301788372
 20
384.7888712321388
 30
0.0
 50
270.0
  0
MTEXT
  5
6180
330
6178
100
AcDbEntity
  8
DIM
 62
     0
 48
0.05
100
AcDbMText
 10
200.5525301788372
 20
419.7888712321388
 30
0.0
 40
5.0
 41
0.0
 46
0.0
 71
     5
 72
     1
  1
\A1;70
  7
ＭＳ ゴシック
 11
0.0
 21
1.0
 31
0.0
 73
     1
 44
1.0
  0
POINT
  5
6181
330
6178
100
AcDbEntity
  8
Defpoints
 62
     0
100
AcDbPoint
 10
167.3496319502007
 20
454.7888712321388
 30
0.0
  0
POINT
  5
6182
330
6178
100
AcDbEntity
  8
Defpoints
 62
     0
100
AcDbPoint
 10
138.1206698320161
 20
384.7888712321388
 30
0.0
  0
POINT
  5
6183
330
6178
100
AcDbEntity
  8
Defpoints
 62
     0
100
AcDbPoint
 10
208.0525301788372
 20
384.7888712321388
 30
0.0
  0
ENDBLK
  5
617A
330
6178
100
AcDbEntity
  8
0
100
AcDbBlockEnd
  0
ENDSEC
  0
SECTION
  2
ENTITIES
  0
MTEXT
  5
177
330
A
100
AcDbEntity
  8
TEMPLATE
390
1D
100
AcDbMText
 10
15.84042890954615
 20
68.74635032628565
 30
0.0
 40
3.257682291666665
 41
0.0
 46
0.0
 71
     1
 72
     1
  1
品名
  7
ＭＳ ゴシック
 73
     1
 44
0.7828267384257843
  0
MTEXT
  5
178
330
A
100
AcDbEntity
  8
TEMPLATE
390
1D
100
AcDbMText
 10
15.84042890954615
 20
51.7463503262856
 30
0.0
 40
3.257682291666665
 41
0.0
 46
0.0
 71
     1
 72
     1
  1
仕様
  7
ＭＳ ゴシック
 73
     1
 44
0.7828267384257843
  0
LINE
  5
179
330
A
100
AcDbEntity
  8
TEMPLATE
390
1D
100
AcDbLine
 10
404.4404289094496
 20
53.42933470128568
 30
0.0
 11
14.44042890944975
 21
53.42933470128568
 31
0.0
  0
LWPOLYLINE
  5
17A
330
A
100
AcDbEntity
  8
TEMPLATE
390
1D
100
AcDbPolyline
 90
        5
 70
   128
 43
0.0
 10
404.4404289094496
 20
579.4293347012853
 10
14.44042890944975
 20
579.4293347012853
 10
14.44042890944975
 20
19.42933470128565
 10
404.4404289094496
 20
19.42933470128565
 10
404.4404289094496
 20
579.4293347012853
  0
LINE
  5
17B
330
A
100
AcDbEntity
  8
TEMPLATE
390
1D
100
AcDbLine
 10
404.4404289094496
 20
70.42933470128564
 30
0.0
 11
14.44042890944975
 21
70.42933470128564
 31
0.0
  0
LINE
  5
17C
330
A
100
AcDbEntity
  8
TEMPLATE
390
1D
100
AcDbLine
 10
404.4404289095464
 20
36.42933470128565
 30
0.0
 11
253.840428909546
 21
36.42933470128565
 31
0.0
  0
MTEXT
  5
17E
330
A
100
AcDbEntity
  8
TEMPLATE
390
1D
100
AcDbMText
 10
259.8147101599982
 20
30.44725580662403
 30
0.0
 40
4.8865234375
 41
0.0
 46
0.0
 71
     1
 72
     1
  1
大洋金物株式会社 ティーフォルム事業部
  7
ＭＳ ゴシック
 73
     1
 44
0.7828267384257843
  0
MTEXT
  5
180
330
A
100
AcDbEntity
  8
TEMPLATE
390
1D
100
AcDbMText
 10
366.240428909598
 20
46.02985813878564
 30
0.0
 40
4.8865234375
 41
0.0
 46
4.8865234375
 71
     1
 72
     1
  1
{1:2}
  7
ＭＳ ゴシック
 73
     1
 44
0.7828267384257843
1001
ACAD
1000
ACAD_MTEXT_DEFINED_HEIGHT_BEGIN
1070
    46
1040
4.8865234375
1000
ACAD_MTEXT_DEFINED_HEIGHT_END
  0
MTEXT
  5
181
330
A
100
AcDbEntity
  8
TEMPLATE
390
1D
100
AcDbMText
 10
355.640428909598
 20
51.7463503262856
 30
0.0
 40
3.257682291666665
 41
0.0
 46
0.0
 71
     1
 72
     1
  1
縮尺
  7
ＭＳ ゴシック
 73
     1
 44
0.7828267384257843
  0
LINE
  5
182
330
A
100
AcDbEntity
  8
TEMPLATE
390
1D
100
AcDbLine
 10
354.240428909598
 20
36.42933470128565
 30
0.0
 11
354.240428909598
 21
53.42933470128568
 31
0.0
  0
MTEXT
  5
183
330
A
100
AcDbEntity
  8
TEMPLATE
390
1D
100
AcDbMText
 10
305.440428909598
 20
51.7463503262856
 30
0.0
 40
3.257682291666665
 41
0.0
 46
0.0
 71
     1
 72
     1
  1
容量
  7
ＭＳ ゴシック
 73
     1
 44
0.7828267384257843
  0
LINE
  5
184
330
A
100
AcDbEntity
  8
TEMPLATE
390
1D
100
AcDbLine
 10
304.040428909598
 20
36.42933470128565
 30
0.0
 11
304.040428909598
 21
53.42933470128568
 31
0.0
  0
MTEXT
  5
185
330
A
100
AcDbEntity
  8
TEMPLATE
390
1D
100
AcDbMText
 10
255.240428909598
 20
68.74635032628565
 30
0.0
 40
3.257682291666665
 41
0.0
 46
0.0
 71
     1
 72
     1
  1
品番
  7
ＭＳ ゴシック
 73
     1
 44
0.7828267384257843
  0
MTEXT
  5
186
330
A
100
AcDbEntity
  8
TEMPLATE
390
1D
100
AcDbMText
 10
255.240428909598
 20
51.7463503262856
 30
0.0
 40
3.257682291666665
 41
0.0
 46
0.0
 71
     1
 72
     1
  1
重量
  7
ＭＳ ゴシック
 73
     1
 44
0.7828267384257843
  0
MTEXT
  5
187
330
A
100
AcDbEntity
  8
TEMPLATE
390
1D
100
AcDbMText
 10
265.840428909598
 20
63.02985813878564
 30
0.0
 40
4.8865234375
 41
0.0
 46
4.8865234375
 71
     1
 72
     1
  1
{FHT73-3325}
  7
ＭＳ ゴシック
 73
     1
 44
0.7828267384257843
1001
ACAD
1000
ACAD_MTEXT_DEFINED_HEIGHT_BEGIN
1070
    46
1040
4.8865234375
1000
ACAD_MTEXT_DEFINED_HEIGHT_END
  0
LINE
  5
188
330
A
100
AcDbEntity
  8
TEMPLATE
390
1D
100
AcDbLine
 10
253.840428909598
 20
19.42933470128565
 30
0.0
 11
253.840428909598
 21
70.42933470128564
 31
0.0
  0
MTEXT
  5
189
330
A
100
AcDbEntity
  8
TEMPLATE
390
1D
100
AcDbMText
 10
26.44042890954615
 20
63.02985813878564
 30
0.0
 40
4.8865234375
 41
0.0
 46
5.16016875
 71
     1
 72
     1
  1
{シャワーニップル　-GROHE-}
  7
ＭＳ ゴシック
 73
     1
 44
0.7828267384257843
1001
ACAD
1000
ACAD_MTEXT_DEFINED_HEIGHT_BEGIN
1070
    46
1040
5.16016875
1000
ACAD_MTEXT_DEFINED_HEIGHT_END
  0
INSERT
  5
6B5
330
A
100
AcDbEntity
  8
TEMPLATE
100
AcDbBlockReference
  2
名称未設定-1
 10
374.15014961769
 20
5.189353151330764
 30
0.0
 41
0.1524
 42
0.1524
 43
0.1524
  0
INSERT
  5
68C
330
A
100
AcDbEntity
  8
TEMPLATE
100
AcDbBlockReference
  2
block 2
 10
919.2743017702577
 20
8.373076514336368
 30
0.0
 41
0.3809999999999999
 42
0.3809999999999999
 43
0.3809999999999999
  0
LWPOLYLINE
  5
D69
330
A
100
AcDbEntity
  8
BORDER
 48
0.025
100
AcDbPolyline
 90
        4
 70
     1
 43
0.0
 10
0.0
 20
0.0
 10
0.0
 20
594.0
 10
420.0
 20
594.0
 10
420.0
 20
0.0
  0
INSERT
  5
1343
330
A
100
AcDbEntity
  8
TEMPLATE
100
AcDbBlockReference
  2
block 2
 10
2096.743470866468
 20
24.43532141229569
 30
0.0
 41
0.3809999999999999
 42
0.3809999999999999
 43
0.3809999999999999
  0
POINT
  5
3697
330
A
100
AcDbEntity
  8
Layer50
  6
HIDDEN2
 62
     7
100
AcDbPoint
 10
396.8678405503807
 20
449.3605456225488
 30
0.0
  0
POINT
  5
36AA
330
A
100
AcDbEntity
  8
Layer50
  6
HIDDEN2
 62
     7
100
AcDbPoint
 10
396.8678405503807
 20
469.8605456225488
 30
0.0
  0
POINT
  5
36B6
330
A
100
AcDbEntity
  8
Layer50
  6
HIDDEN2
 62
     7
100
AcDbPoint
 10
405.6628405503807
 20
460.6105456225488
 30
0.0
  0
POINT
  5
36BC
330
A
100
AcDbEntity
  8
Layer50
  6
HIDDEN2
 62
     7
100
AcDbPoint
 10
403.6628405503807
 20
460.6105456225488
 30
0.0
  0
MTEXT
  5
4530
102
{ACAD_XDICTIONARY
360
4532
102
}
330
A
100
AcDbEntity
  8
MODEL
 48
0.05
100
AcDbMText
 10
14.6329326238789
 20
17.30781899803597
 30
0.0
 40
4.0
 41
0.0
 46
4.0
 71
     1
 72
     1
  1
{20160726N}
  7
ＭＳ ゴシック
 73
     1
 44
1.0
1001
ACAD
1000
ACAD_MTEXT_DEFINED_HEIGHT_BEGIN
1070
    46
1040
4.0
1000
ACAD_MTEXT_DEFINED_HEIGHT_END
  0
MTEXT
  5
5062
330
A
100
AcDbEntity
  8
TEMPLATE
390
1D
100
AcDbMText
 10
26.44042890954615
 20
46.10276168560644
 30
0.0
 40
4.8865234375
 41
0.0
 46
4.9598212890625
 71
     1
 72
     1
  1
{クローム}
  7
ＭＳ ゴシック
 73
     1
 44
0.7828267384257843
1001
ACAD
1000
ACAD_MTEXT_DEFINED_HEIGHT_BEGIN
1070
    46
1040
4.9598212890625
1000
ACAD_MTEXT_DEFINED_HEIGHT_END
  0
LINE
  5
60AE
330
A
100
AcDbEntity
  8
MODEL
100
AcDbLine
 10
267.5086457863759
 20
233.8437238593858
 30
0.0
 11
263.671694649979
 21
233.8437238593858
 31
0.0
  0
LINE
  5
60AF
330
A
100
AcDbEntity
  8
MODEL
100
AcDbLine
 10
263.671694649979
 20
233.8437238593858
 30
0.0
 11
262.671694649979
 21
234.8437238593858
 31
0.0
  0
ARC
  5
60B0
330
A
100
AcDbEntity
  8
MODEL
100
AcDbCircle
 10
275.7716946499791
 20
281.8437238593858
 30
0.0
 40
1.999999999999974
100
AcDbArc
 50
0.0
 51
90.0
  0
LINE
  5
60B1
330
A
100
AcDbEntity
  8
MODEL
100
AcDbLine
 10
271.5716946499791
 20
283.8437238593858
 30
0.0
 11
275.7716946499791
 21
283.8437238593858
 31
0.0
  0
ARC
  5
60B2
330
A
100
AcDbEntity
  8
MODEL
100
AcDbCircle
 10
278.2716946499791
 20
229.5170607385858
 30
0.0
 40
0.4999999999999727
100
AcDbArc
 50
90.50000000000459
 51
180.0
  0
ARC
  5
60B3
330
A
100
AcDbEntity
  8
MODEL
100
AcDbCircle
 10
275.7716946499791
 20
218.6437238593858
 30
0.0
 40
2.000000000000085
100
AcDbArc
 50
270.0
 51
0.0
  0
LINE
  5
60B4
330
A
100
AcDbEntity
  8
MODEL
100
AcDbLine
 10
275.7716946499791
 20
216.6437238593858
 30
0.0
 11
271.5716946499791
 21
216.6437238593858
 31
0.0
  0
LINE
  5
60B5
330
A
100
AcDbEntity
  8
MODEL
100
AcDbLine
 10
329.0716946499791
 20
228.2524524307858
 30
0.0
 11
329.0716946499791
 21
228.3887238593858
 31
0.0
  0
LINE
  5
60B6
330
A
100
AcDbEntity
  8
MODEL
100
AcDbLine
 10
329.0716946499791
 20
228.3887238593858
 30
0.0
 11
330.0716946499791
 21
228.3887238593858
 31
0.0
  0
LINE
  5
60B7
330
A
100
AcDbEntity
  8
MODEL
100
AcDbLine
 10
330.0716946499791
 20
228.2437238593858
 30
0.0
 11
330.0716946499791
 21
272.2437238593858
 31
0.0
  0
LINE
  5
60B8
330
A
100
AcDbEntity
  8
MODEL
100
AcDbLine
 10
331.295481469579
 20
228.2437238593858
 30
0.0
 11
330.0716946499791
 21
228.2437238593858
 31
0.0
  0
ARC
  5
60B9
330
A
100
AcDbEntity
  8
MODEL
100
AcDbCircle
 10
331.2954817160791
 20
234.9237238522858
 30
0.0
 40
6.680000228356757
100
AcDbArc
 50
269.9999978854997
 51
336.1442709561002
  0
LINE
  5
60BB
330
A
100
AcDbEntity
  8
MODEL
100
AcDbLine
 10
330.0716946499791
 20
272.2437238593858
 30
0.0
 11
331.2954824689791
 21
272.2437238593858
 31
0.0
  0
ARC
  5
60BC
330
A
100
AcDbEntity
  8
MODEL
100
AcDbCircle
 10
331.2954822001791
 20
265.5637239018859
 30
0.0
 40
6.67999995753491
100
AcDbArc
 50
23.85573122540024
 51
89.99999769460013
  0
LINE
  5
60BD
330
A
100
AcDbEntity
  8
MODEL
100
AcDbLine
 10
324.5716946499791
 20
228.2131738593858
 30
0.0
 11
329.0716946499791
 21
228.2524524307858
 31
0.0
  0
ARC
  5
60BE
330
A
100
AcDbEntity
  8
MODEL
100
AcDbCircle
 10
314.516456678779
 20
205.5435578021858
 30
0.0
 40
24.79958271495439
100
AcDbArc
 50
66.0800457967
 51
92.18326168639986
  0
LINE
  5
60BF
330
A
100
AcDbEntity
  8
MODEL
100
AcDbLine
 10
330.0716946499791
 20
272.2435465857858
 30
0.0
 11
278.2673313821791
 21
272.6956364149858
 31
0.0
  0
ARC
  5
60C0
330
A
100
AcDbEntity
  8
MODEL
100
AcDbCircle
 10
278.2716946499791
 20
273.1956173765858
 30
0.0
 40
0.500000000000056
100
AcDbArc
 50
180.0
 51
269.4999999999955
  0
LINE
  5
60C1
330
A
100
AcDbEntity
  8
MODEL
100
AcDbLine
 10
277.7716946499791
 20
281.8437238593858
 30
0.0
 11
277.7716946499791
 21
218.6437238593858
 31
0.0
  0
ARC
  5
60C2
330
A
100
AcDbEntity
  8
MODEL
100
AcDbCircle
 10
296.6516946470791
 20
250.2437238593858
 30
0.0
 40
44.56000000000081
100
AcDbArc
 50
336.1442701568999
 51
23.85572995990008
  0
LINE
  5
60C3
330
A
100
AcDbEntity
  8
MODEL
100
AcDbLine
 10
263.671694649979
 20
254.6437238593858
 30
0.0
 11
267.5086457863759
 21
254.6437238593858
 31
0.0
  0
LINE
  5
60C4
330
A
100
AcDbEntity
  8
MODEL
100
AcDbLine
 10
262.671694649979
 20
253.6437238593858
 30
0.0
 11
263.671694649979
 21
254.6437238593858
 31
0.0
  0
LINE
  5
60C5
330
A
100
AcDbEntity
  8
MODEL
100
AcDbLine
 10
267.5086457863759
 20
253.5587238593858
 30
0.0
 11
262.671694649979
 21
253.5587238593858
 31
0.0
  0
LINE
  5
60C6
330
A
100
AcDbEntity
  8
MODEL
100
AcDbLine
 10
313.5716946499791
 20
230.3251382107858
 30
0.0
 11
278.2673313821791
 21
230.0170417000858
 31
0.0
  0
LINE
  5
60C7
330
A
100
AcDbEntity
  8
MODEL
100
AcDbLine
 10
262.671694649979
 20
234.8437238593858
 30
0.0
 11
262.671694649979
 21
253.6437238593858
 31
0.0
  0
LINE
  5
60C8
330
A
100
AcDbEntity
  8
MODEL
100
AcDbLine
 10
267.5086457863759
 20
234.9287238593858
 30
0.0
 11
262.671694649979
 21
234.9287238593858
 31
0.0
  0
LINE
  5
60C9
330
A
100
AcDbEntity
  8
MODEL
100
AcDbLine
 10
271.5716946499791
 20
216.6437238593858
 30
0.0
 11
271.5716946499791
 21
283.8437238593858
 31
0.0
  0
LINE
  5
60CA
330
A
100
AcDbEntity
  8
MODEL
100
AcDbLine
 10
263.671694649979
 20
233.8437238593858
 30
0.0
 11
263.671694649979
 21
254.6437238593858
 31
0.0
  0
LINE
  5
60CB
330
A
100
AcDbEntity
  8
MODEL
100
AcDbLine
 10
323.0716946499791
 20
228.8207398930858
 30
0.0
 11
323.0716946499791
 21
219.2437238593858
 31
0.0
  0
LINE
  5
60CC
330
A
100
AcDbEntity
  8
MODEL
100
AcDbLine
 10
321.9866946499791
 20
218.2437238593858
 30
0.0
 11
321.9866946499791
 21
228.2437238593858
 31
0.0
  0
LINE
  5
60CD
330
A
100
AcDbEntity
  8
MODEL
100
AcDbLine
 10
323.0716946499791
 20
219.2437238593858
 30
0.0
 11
302.2716946499791
 21
219.2437238593858
 31
0.0
  0
LINE
  5
60CE
330
A
100
AcDbEntity
  8
MODEL
100
AcDbLine
 10
323.0716946499791
 20
219.2437238593858
 30
0.0
 11
322.0716946499791
 21
218.2437238593858
 31
0.0
  0
LINE
  5
60CF
330
A
100
AcDbEntity
  8
MODEL
100
AcDbLine
 10
303.3566946499791
 20
228.2437238593858
 30
0.0
 11
303.3566946499791
 21
218.2437238593858
 31
0.0
  0
LINE
  5
60D0
330
A
100
AcDbEntity
  8
MODEL
100
AcDbLine
 10
323.0716946499791
 20
228.2437238593858
 30
0.0
 11
302.2716946499791
 21
228.2437238593858
 31
0.0
  0
LINE
  5
60D1
330
A
100
AcDbEntity
  8
MODEL
100
AcDbLine
 10
302.2716946499791
 20
230.2265246046858
 30
0.0
 11
302.2716946499791
 21
219.2437238593858
 31
0.0
  0
LINE
  5
60D2
330
A
100
AcDbEntity
  8
MODEL
100
AcDbLine
 10
302.2716946499791
 20
219.2437238593858
 30
0.0
 11
303.2716946499791
 21
218.2437238593858
 31
0.0
  0
LINE
  5
60D3
330
A
100
AcDbEntity
  8
MODEL
100
AcDbLine
 10
303.2716946499791
 20
218.2437238593858
 30
0.0
 11
321.9866946499791
 21
218.2437238593858
 31
0.0
  0
LINE
  5
60D4
330
A
100
AcDbEntity
  8
MODEL
100
AcDbLine
 10
271.5716946499791
 20
283.8437238639858
 30
0.0
 11
271.5716946499791
 21
281.3196722042858
 31
0.0
  0
LINE
  5
60D5
330
A
100
AcDbEntity
  8
MODEL
100
AcDbLine
 10
271.5716946499791
 20
223.5278510922858
 30
0.0
 11
271.5716946499791
 21
216.6437238639858
 31
0.0
  0
LINE
  5
60D6
330
A
100
AcDbEntity
  8
MODEL
100
AcDbLine
 10
271.5716946499791
 20
223.5278510922858
 30
0.0
 11
271.5716946499791
 21
281.3196722042858
 31
0.0
  0
LINE
  5
60D7
330
A
100
AcDbEntity
  8
MODEL
100
AcDbLine
 10
271.5714946499791
 20
280.865980532955
 30
0.0
 11
260.3788369521791
 21
280.865980532955
 31
0.0
  0
LINE
  5
60D8
330
A
100
AcDbEntity
  8
MODEL
100
AcDbLine
 10
271.5714946499791
 20
291.5742554739858
 30
0.0
 11
271.5714946499791
 21
208.9131922447858
 31
0.0
  0
LINE
  5
60DC
330
A
100
AcDbEntity
  8
MODEL
100
AcDbLine
 10
271.5714946499791
 20
217.7437238593858
 30
0.0
 11
271.5714946499791
 21
282.7437238593858
 31
0.0
  0
CIRCLE
  5
60DD
330
A
100
AcDbEntity
  8
MODEL
100
AcDbCircle
 10
133.7496319910193
 20
250.2437238593858
 30
0.0
 40
33.60000000059534
  0
CIRCLE
  5
60DE
330
A
100
AcDbEntity
  8
MODEL
100
AcDbCircle
 10
133.7496319910193
 20
250.2437238593858
 30
0.0
 40
22.45191255564011
  0
CIRCLE
  5
60DF
330
A
100
AcDbEntity
  8
MODEL
100
AcDbCircle
 10
133.7496319910193
 20
250.2437238593858
 30
0.0
 40
21.99999999999998
  0
LINE
  5
60E1
330
A
100
AcDbEntity
  8
MODEL
100
AcDbLine
 10
144.1496319910193
 20
230.3457747839858
 30
0.0
 11
144.1496319910193
 21
220.3488503243858
 31
0.0
  0
LINE
  5
60E2
330
A
100
AcDbEntity
  8
MODEL
100
AcDbLine
 10
143.0646319910193
 20
219.3488503243858
 30
0.0
 11
143.0646319910193
 21
229.3488503243858
 31
0.0
  0
LINE
  5
60E3
330
A
100
AcDbEntity
  8
MODEL
100
AcDbLine
 10
144.1496319910193
 20
220.3488503243858
 30
0.0
 11
123.3496319910194
 21
220.3488503243858
 31
0.0
  0
LINE
  5
60E4
330
A
100
AcDbEntity
  8
MODEL
100
AcDbLine
 10
144.1496319910193
 20
220.3488503243858
 30
0.0
 11
143.1496319910193
 21
219.3488503243858
 31
0.0
  0
LINE
  5
60E5
330
A
100
AcDbEntity
  8
MODEL
100
AcDbLine
 10
124.4346319910194
 20
229.3488503243858
 30
0.0
 11
124.4346319910194
 21
219.3488503243858
 31
0.0
  0
LINE
  5
60E6
330
A
100
AcDbEntity
  8
MODEL
100
AcDbLine
 10
123.3496319910194
 20
230.3457747839858
 30
0.0
 11
123.3496319910194
 21
220.3488503243858
 31
0.0
  0
LINE
  5
60E7
330
A
100
AcDbEntity
  8
MODEL
100
AcDbLine
 10
123.3496319910194
 20
220.3488503243858
 30
0.0
 11
124.3496319910194
 21
219.3488503243858
 31
0.0
  0
LINE
  5
60E8
330
A
100
AcDbEntity
  8
MODEL
100
AcDbLine
 10
124.3496319910194
 20
219.3488503243858
 30
0.0
 11
143.0646319910193
 21
219.3488503243858
 31
0.0
  0
LINE
  5
60E9
330
A
100
AcDbEntity
  8
MODEL
100
AcDbLine
 10
125.5342417164193
 20
229.3488503243858
 30
0.0
 11
123.3496319910194
 21
229.3488503243858
 31
0.0
  0
LINE
  5
60EA
330
A
100
AcDbEntity
  8
MODEL
100
AcDbLine
 10
144.1496319910193
 20
229.3488503243858
 30
0.0
 11
141.9650222655193
 21
229.3488503243858
 31
0.0
  0
LINE
  5
60EB
330
A
100
AcDbEntity
  8
MODEL
100
AcDbLine
 10
123.3496319456007
 20
458.851920095742
 30
0.0
 11
123.3496319456007
 21
462.6888712321389
 31
0.0
  0
LINE
  5
60EC
330
A
100
AcDbEntity
  8
MODEL
100
AcDbLine
 10
123.3496319456007
 20
462.6888712321389
 30
0.0
 11
124.3496319456007
 21
463.6888712321389
 31
0.0
  0
ARC
  5
60ED
330
A
100
AcDbEntity
  8
MODEL
100
AcDbCircle
 10
165.3496319456007
 20
450.5888712321388
 30
0.0
 40
1.999999999999974
100
AcDbArc
 50
270.0
 51
0.0
  0
LINE
  5
60EE
330
A
100
AcDbEntity
  8
MODEL
100
AcDbLine
 10
167.3496319456007
 20
454.7888712321388
 30
0.0
 11
167.3496319456007
 21
450.5888712321388
 31
0.0
  0
ARC
  5
60EF
330
A
100
AcDbEntity
  8
MODEL
100
AcDbCircle
 10
102.1496319456006
 20
450.5888712321388
 30
0.0
 40
2.000000000000085
100
AcDbArc
 50
180.0
 51
270.0
  0
LINE
  5
60F0
330
A
100
AcDbEntity
  8
MODEL
100
AcDbLine
 10
100.1496319456006
 20
450.5888712321388
 30
0.0
 11
100.1496319456006
 21
454.7888712321388
 31
0.0
  0
LINE
  5
60F1
330
A
100
AcDbEntity
  8
MODEL
100
AcDbLine
 10
111.7496319456005
 20
396.2888712321388
 30
0.0
 11
155.7496319456005
 21
396.2888712321388
 31
0.0
  0
ARC
  5
60F2
330
A
100
AcDbEntity
  8
MODEL
100
AcDbCircle
 10
118.4296319385006
 20
395.0650841660388
 30
0.0
 40
6.680000228356757
100
AcDbArc
 50
179.9999978854997
 51
246.1442709561002
  0
LINE
  5
60F3
330
A
100
AcDbEntity
  8
MODEL
100
AcDbLine
 10
155.7496319456005
 20
396.2888712321388
 30
0.0
 11
155.7496319456005
 21
395.0650834131388
 31
0.0
  0
ARC
  5
60F4
330
A
100
AcDbEntity
  8
MODEL
100
AcDbCircle
 10
149.0696319881006
 20
395.0650836819388
 30
0.0
 40
6.67999995753491
100
AcDbArc
 50
293.8557312254011
 51
359.9999976946002
  0
LINE
  5
60F5
330
A
100
AcDbEntity
  8
MODEL
100
AcDbLine
 10
155.7494546720005
 20
396.2888712321388
 30
0.0
 11
156.2015445012006
 21
448.0932344999388
 31
0.0
  0
ARC
  5
60F6
330
A
100
AcDbEntity
  8
MODEL
100
AcDbCircle
 10
156.7015254628005
 20
448.0888712321388
 30
0.0
 40
0.500000000000056
100
AcDbArc
 50
90.0
 51
179.4999999999955
  0
LINE
  5
60F7
330
A
100
AcDbEntity
  8
MODEL
100
AcDbLine
 10
165.3496319456007
 20
448.5888712321388
 30
0.0
 11
102.1496319456006
 21
448.5888712321388
 31
0.0
  0
ARC
  5
60F8
330
A
100
AcDbEntity
  8
MODEL
100
AcDbCircle
 10
133.7496319456005
 20
429.7088712350388
 30
0.0
 40
44.56000000000081
100
AcDbArc
 50
246.1442701569
 51
293.8557299599001
  0
LINE
  5
60F9
330
A
100
AcDbEntity
  8
MODEL
100
AcDbLine
 10
144.1496319456006
 20
462.6888712321389
 30
0.0
 11
144.1496319456006
 21
458.851920095742
 31
0.0
  0
LINE
  5
60FA
330
A
100
AcDbEntity
  8
MODEL
100
AcDbLine
 10
143.1496319456006
 20
463.6888712321389
 30
0.0
 11
144.1496319456006
 21
462.6888712321389
 31
0.0
  0
LINE
  5
60FB
330
A
100
AcDbEntity
  8
MODEL
100
AcDbLine
 10
143.0646319456006
 20
458.851920095742
 30
0.0
 11
143.0646319456006
 21
463.6888712321389
 31
0.0
  0
LINE
  5
60FC
330
A
100
AcDbEntity
  8
MODEL
100
AcDbLine
 10
124.3496319456007
 20
463.6888712321389
 30
0.0
 11
143.1496319456006
 21
463.6888712321389
 31
0.0
  0
LINE
  5
60FD
330
A
100
AcDbEntity
  8
MODEL
100
AcDbLine
 10
124.4346319456006
 20
458.851920095742
 30
0.0
 11
124.4346319456006
 21
463.6888712321389
 31
0.0
  0
LINE
  5
60FE
330
A
100
AcDbEntity
  8
MODEL
100
AcDbLine
 10
100.1496319456006
 20
454.7888712321388
 30
0.0
 11
167.3496319456007
 21
454.7888712321388
 31
0.0
  0
LINE
  5
60FF
330
A
100
AcDbEntity
  8
MODEL
100
AcDbLine
 10
123.3496319456007
 20
462.6888712321389
 30
0.0
 11
144.1496319456006
 21
462.6888712321389
 31
0.0
  0
LINE
  5
6100
330
A
100
AcDbEntity
  8
MODEL
100
AcDbLine
 10
167.3496319502007
 20
454.7888712321388
 30
0.0
 11
164.8255802905006
 21
454.7888712321388
 31
0.0
  0
LINE
  5
6101
330
A
100
AcDbEntity
  8
MODEL
100
AcDbLine
 10
107.0337591785006
 20
454.7888712321388
 30
0.0
 11
100.1496319502006
 21
454.7888712321388
 31
0.0
  0
LINE
  5
6102
330
A
100
AcDbEntity
  8
MODEL
100
AcDbLine
 10
107.0337591785006
 20
454.7888712321388
 30
0.0
 11
164.8255802905006
 21
454.7888712321388
 31
0.0
  0
LINE
  5
6103
330
A
100
AcDbEntity
  8
MODEL
100
AcDbLine
 10
101.2496319456005
 20
454.7890712321388
 30
0.0
 11
166.2496319456005
 21
454.7890712321388
 31
0.0
  0
LINE
  5
6105
330
A
100
AcDbEntity
  8
MODEL
100
AcDbLine
 10
111.7496319456005
 20
396.2888712321388
 30
0.0
 11
111.7496319456005
 21
395.0650834131388
 31
0.0
  0
LINE
  5
6106
330
A
100
AcDbEntity
  8
MODEL
100
AcDbLine
 10
111.7498092192005
 20
396.2888712321388
 30
0.0
 11
111.2977193900007
 21
448.0932344999388
 31
0.0
  0
ARC
  5
6107
330
A
100
AcDbEntity
  8
MODEL
100
AcDbCircle
 10
110.7977384284005
 20
448.0888712321388
 30
0.0
 40
0.500000000000056
100
AcDbArc
 50
0.5000000000045168
 51
90.0
  0
DIMENSION
  5
6109
330
A
100
AcDbEntity
  8
DIM
100
AcDbDimension
  2
*D24
 10
271.5714946499791
 20
177.5011453064008
 30
0.0
 11
292.1216950999791
 21
177.5011453064008
 31
0.0
 70
   160
  1
\A1;27- <>
 71
     5
 42
41.10019999999986
 73
     0
 74
     0
 75
     0
  3
tfrom線あり
100
AcDbAlignedDimension
 13
312.6716946499789
 23
190.8254269480883
 33
0.0
 14
271.5714946499791
 24
208.9131922447858
 34
0.0
100
AcDbRotatedDimension
  0
DIMENSION
  5
610A
330
A
100
AcDbEntity
  8
DIM
100
AcDbDimension
  2
*D25
 10
89.42910253707043
 20
216.6437238593858
 30
0.0
 11
89.42910253707043
 21
250.2437250574858
 31
0.0
 70
   160
 71
     5
 42
67.19999999999999
 73
     0
 74
     0
 75
     0
  3
tfrom線あり
100
AcDbAlignedDimension
 13
133.8597235054705
 23
283.8437238593858
 33
0.0
 14
135.9597235054704
 24
216.6437238593858
 34
0.0
 50
90.0
100
AcDbRotatedDimension
1001
ACAD
1000
DSTYLE
1002
{
1070
     3
1000
φ<>
1002
}
  0
LINE
  5
615F
330
A
100
AcDbEntity
  8
MODEL
100
AcDbLine
 10
260.3788369521324
 20
288.9516793140727
 30
0.0
 11
263.0014131120707
 21
291.574255474011
 31
0.0
  0
LINE
  5
6160
330
A
100
AcDbEntity
  8
MODEL
100
AcDbLine
 10
260.3788369521324
 20
284.4615512535381
 30
0.0
 11
267.4915411726053
 21
291.574255474011
 31
0.0
  0
LINE
  5
6161
330
A
100
AcDbEntity
  8
MODEL
100
AcDbLine
 10
261.2733942920839
 20
280.865980532955
 30
0.0
 11
271.5714946499511
 21
291.1640808908223
 31
0.0
  0
LINE
  5
6162
330
A
100
AcDbEntity
  8
MODEL
100
AcDbLine
 10
265.7635223526185
 20
280.865980532955
 30
0.0
 11
271.5714946499511
 21
286.6739528302877
 31
0.0
  0
LINE
  5
6163
330
A
100
AcDbEntity
  8
MODEL
100
AcDbLine
 10
270.253650413153
 20
280.865980532955
 30
0.0
 11
271.5714946499511
 21
282.1838247697531
 31
0.0
  0
LINE
  5
616C
330
A
100
AcDbEntity
  8
MODEL
100
AcDbLine
 10
260.3788369521324
 20
217.1096303455195
 30
0.0
 11
262.8906737924295
 21
219.6214671858166
 31
0.0
  0
LINE
  5
616D
330
A
100
AcDbEntity
  8
MODEL
100
AcDbLine
 10
260.3788369521324
 20
212.6195022849849
 30
0.0
 11
267.3808018529641
 21
219.6214671858166
 31
0.0
  0
LINE
  5
616E
330
A
100
AcDbEntity
  8
MODEL
100
AcDbLine
 10
261.1626549724385
 20
208.9131922447564
 30
0.0
 11
271.5714946499511
 21
219.322031922269
 31
0.0
  0
LINE
  5
616F
330
A
100
AcDbEntity
  8
MODEL
100
AcDbLine
 10
265.652783032973
 20
208.9131922447564
 30
0.0
 11
271.5714946499511
 21
214.8319038617344
 31
0.0
  0
LINE
  5
6170
330
A
100
AcDbEntity
  8
MODEL
100
AcDbLine
 10
270.1429110935077
 20
208.9131922447564
 30
0.0
 11
271.5714946499511
 21
210.3417758011999
 31
0.0
  0
DIMENSION
  5
6177
330
A
100
AcDbEntity
  8
DIM
 48
0.05
100
AcDbDimension
  2
*D29
 10
208.0525301788372
 20
384.7888712321388
 30
0.0
 11
200.5525301788372
 21
419.7888712321388
 31
0.0
 70
    32
 71
     5
 42
70.0
 73
     0
 74
     0
 75
     0
  3
tfrom線あり
100
AcDbAlignedDimension
 13
167.3496319502007
 23
454.7888712321388
 33
0.0
 14
138.1206698320161
 24
384.7888712321388
 34
0.0
 50
90.0
100
AcDbRotatedDimension
  0
MTEXT
  5
61B6
330
A
100
AcDbEntity
  8
DIM
390
1D
100
AcDbMText
 10
310.0059722431252
 20
212.2047249905225
 30
0.0
 40
4.8865234375
 41
0.0
 46
5.033119140625
 71
     1
 72
     1
  1
{\fＭＳ ゴシック|b0|i0|c1|p0;▼}
  7
ＭＳ ゴシック
 73
     1
 44
0.7828267384257843
1001
ACAD
1000
ACAD_MTEXT_DEFINED_HEIGHT_BEGIN
1070
    46
1040
5.033119140625
1000
ACAD_MTEXT_DEFINED_HEIGHT_END
  0
MTEXT
  5
61B7
330
A
100
AcDbEntity
  8
DIM
390
1D
100
AcDbMText
 10
306.4037123520626
 20
203.2586466401935
 30
0.0
 40
4.8865234375
 41
0.0
 46
5.580409765625
 71
     1
 72
     1
  1
{\fＭＳ ゴシック|b0|i0|c1|p0;G1/2"}
  7
ＭＳ ゴシック
 73
     1
 44
0.7828267384257843
1001
ACAD
1000
ACAD_MTEXT_DEFINED_HEIGHT_BEGIN
1070
    46
1040
5.580409765625
1000
ACAD_MTEXT_DEFINED_HEIGHT_END
  0
MTEXT
  5
61B8
330
A
100
AcDbEntity
  8
DIM
390
1D
100
AcDbMText
 10
256.359550920298
 20
241.6483459574861
 30
0.0
 40
4.8865234375
 41
0.0
 46
5.033119140625
 71
     1
 72
     1
  1
{\fＭＳ ゴシック|b0|i0|c1|p0;▼}
  7
ＭＳ ゴシック
 11
6.123233995736766E-17
 21
1.0
 31
0.0
 73
     1
 44
0.7828267384257843
1001
ACAD
1000
ACAD_MTEXT_DEFINED_HEIGHT_BEGIN
1070
    46
1040
5.033119140625
1000
ACAD_MTEXT_DEFINED_HEIGHT_END
  0
MTEXT
  5
61B9
330
A
100
AcDbEntity
  8
DIM
390
1D
100
AcDbMText
 10
237.8346267196926
 20
246.8674375026213
 30
0.0
 40
4.8865234375
 41
0.0
 46
5.580409765625
 71
     1
 72
     1
  1
{\fＭＳ ゴシック|b0|i0|c1|p0;G1/2"}
  7
ＭＳ ゴシック
 73
     1
 44
0.7828267384257843
1001
ACAD
1000
ACAD_MTEXT_DEFINED_HEIGHT_BEGIN
1070
    46
1040
5.580409765625
1000
ACAD_MTEXT_DEFINED_HEIGHT_END
  0
LINE
  5
61F1
330
A
100
AcDbEntity
  8
MODEL
 48
0.05
100
AcDbLine
 10
271.5716946499791
 20
279.3963631213551
 30
0.0
 11
267.5086457863759
 21
275.4995358634641
 31
0.0
  0
LINE
  5
61F2
330
A
100
AcDbEntity
  8
MODEL
 48
0.05
100
AcDbLine
 10
267.5086457863759
 20
275.4995358634641
 30
0.0
 11
267.5086457863759
 21
250.2437238593858
 31
0.0
  0
LINE
  5
61F7
330
A
100
AcDbEntity
  8
MODEL
 48
0.05
100
AcDbLine
 10
267.5086457863759
 20
224.9879118553075
 30
0.0
 11
267.5086457863759
 21
250.2437238593858
 31
0.0
  0
LINE
  5
61F8
330
A
100
AcDbEntity
  8
MODEL
 48
0.05
100
AcDbLine
 10
271.5716946499791
 20
221.0910845974165
 30
0.0
 11
267.5086457863759
 21
224.9879118553075
 31
0.0
  0
LINE
  5
61F9
330
A
100
AcDbEntity
  8
MODEL
100
AcDbLine
 10
271.5714946499791
 20
219.6214671858166
 30
0.0
 11
260.3788369521791
 21
219.6214671858166
 31
0.0
  0
LINE
  5
6254
330
A
100
AcDbEntity
  8
MODEL
 48
0.05
100
AcDbLine
 10
159.0054439496789
 20
458.851920095742
 30
0.0
 11
133.7496319456006
 21
458.851920095742
 31
0.0
  0
LINE
  5
6255
330
A
100
AcDbEntity
  8
MODEL
 48
0.05
100
AcDbLine
 10
162.9022712075699
 20
454.7888712321388
 30
0.0
 11
159.0054439496789
 21
458.851920095742
 31
0.0
  0
LINE
  5
6256
330
A
100
AcDbEntity
  8
MODEL
 48
0.05
100
AcDbLine
 10
108.4938199415224
 20
458.851920095742
 30
0.0
 11
133.7496319456006
 21
458.851920095742
 31
0.0
  0
LINE
  5
6257
330
A
100
AcDbEntity
  8
MODEL
 48
0.05
100
AcDbLine
 10
104.5969926836314
 20
454.7888712321388
 30
0.0
 11
108.4938199415224
 21
458.851920095742
 31
0.0
  0
VIEWPORT
  5
349
330
B
100
AcDbEntity
 67
     1
  8
0
100
AcDbViewport
 10
202.5
 20
128.5
 30
0.0
 40
486.0
 41
308.4
 68
     1
 69
     1
 12
202.5
 22
128.5
 13
0.0
 23
0.0
 14
0.5
 24
0.5
 15
0.0
 25
0.0
 16
0.0
 26
0.0
 36
1.0
 17
0.0
 27
0.0
 37
0.0
 42
50.0
 43
0.0
 44
0.0
 45
308.4
 50
0.0
 51
0.0
 72
   100
 90
   557152
  1

281
     0
 71
     1
 74
     0
110
0.0
120
0.0
130
0.0
111
1.0
121
0.0
131
0.0
112
0.0
122
1.0
132
0.0
 79
     0
146
0.0
170
     0
 61
     5
348
26C
292
     1
282
     1
141
0.0
142
0.0
 63
   256
  0
VIEWPORT
  5
34A
330
B
100
AcDbEntity
 67
     1
  8
0
100
AcDbViewport
 10
202.5
 20
128.5
 30
0.0
 40
324.0
 41
205.6
 68
     2
 69
     2
 12
986.6781359294573
 22
1427.077061889956
 13
0.0
 23
0.0
 14
0.5
 24
0.5
 15
0.0
 25
0.0
 16
0.0
 26
0.0
 36
1.0
 17
0.0
 27
0.0
 37
0.0
 42
50.0
 43
0.0
 44
0.0
 45
2890.021615685494
 50
0.0
 51
0.0
 72
   100
 90
   557152
  1

281
     0
 71
     1
 74
     0
110
0.0
120
0.0
130
0.0
111
1.0
121
0.0
131
0.0
112
0.0
122
1.0
132
0.0
 79
     0
146
0.0
170
     0
 61
     5
348
26C
292
     1
282
     1
141
0.0
142
0.0
 63
   256
  0
ENDSEC
  0
SECTION
  2
OBJECTS
  0
DICTIONARY
  5
19
330
0
100
AcDbDictionary
281
     1
  3
ACAD_COLOR
350
674
  3
ACAD_DETAILVIEWSTYLE
350
BBF
  3
ACAD_FIELDLIST
350
44C1
  3
ACAD_GROUP
350
1A
  3
ACAD_IMAGE_VARS
350
27B
  3
ACAD_LAYOUT
350
1E
  3
ACAD_MATERIAL
350
263
  3
ACAD_MLEADERSTYLE
350
336
  3
ACAD_MLINESTYLE
350
1B
  3
ACAD_PLOTSETTINGS
350
22
  3
ACAD_PLOTSTYLENAME
350
1F
  3
ACAD_SCALELIST
350
241
  3
ACAD_SECTIONVIEWSTYLE
350
BC0
  3
ACAD_TABLESTYLE
350
278
  3
ACAD_VISUALSTYLE
350
267
  3
ACDB_RECOMPOSE_DATA
350
6273
  3
AcDbVariableDictionary
350
330
  3
APPDATA
350
27A
  3
DimOffsetDictionary
350
E38
  0
SUN
  5
904
330
15
100
AcDbSun
 90
        1
290
     0
 63
     7
421
 16777215
 40
1.0
291
     1
 91
  2455826
 92
 54000000
292
     0
 70
     2
 71
   256
280
     1
  0
DICTIONARY
  5
2E1
330
2
100
AcDbDictionary
280
     1
281
     1
  3
ACAD_LAYERSTATES
360
2E2
  3
ACLYDICTIONARY
360
DDE
  0
DICTIONARY
  5
4532
330
4530
100
AcDbDictionary
280
     1
281
     1
  3
ACAD_FIELD
360
4539
  0
DICTIONARY
  5
674
102
{ACAD_REACTORS
330
19
102
}
330
19
100
AcDbDictionary
281
     1
  0
DICTIONARY
  5
BBF
102
{ACAD_REACTORS
330
19
102
}
330
19
100
AcDbDictionary
281
     1
  0
FIELDLIST
  5
44C1
102
{ACAD_REACTORS
330
19
102
}
330
19
100
AcDbIdSet
 90
        2
330
4534
330
4531
100
AcDbFieldList
  0
DICTIONARY
  5
1A
102
{ACAD_REACTORS
330
19
102
}
330
19
100
AcDbDictionary
281
     1
  0
RASTERVARIABLES
  5
27B
102
{ACAD_REACTORS
330
19
102
}
330
19
100
AcDbRasterVariables
 90
        0
 70
     1
 71
     1
 72
     1
  0
DICTIONARY
  5
1E
102
{ACAD_REACTORS
330
19
102
}
330
19
100
AcDbDictionary
281
     1
  3
Layout1
350
21
  3
Model
350
20
  0
DICTIONARY
  5
263
102
{ACAD_REACTORS
330
19
102
}
330
19
100
AcDbDictionary
281
     1
  3
ByBlock
350
5F00
  3
ByLayer
350
264
  3
Global
350
266
  0
DICTIONARY
  5
336
102
{ACAD_REACTORS
330
19
102
}
330
19
100
AcDbDictionary
281
     1
  3
Standard
350
D59
  0
DICTIONARY
  5
1B
102
{ACAD_REACTORS
330
19
102
}
330
19
100
AcDbDictionary
281
     1
  3
Standard
350
1C
  0
DICTIONARY
  5
22
102
{ACAD_REACTORS
330
19
102
}
330
19
100
AcDbDictionary
281
     1
  0
ACDBDICTIONARYWDFLT
  5
1F
102
{ACAD_REACTORS
330
19
102
}
330
19
100
AcDbDictionary
281
     1
  3
Normal
350
1D
100
AcDbDictionaryWithDefault
340
1D
  0
DICTIONARY
  5
241
102
{ACAD_REACTORS
330
19
102
}
330
19
100
AcDbDictionary
281
     1
  3
A0
350
242
  3
A1
350
243
  3
A2
350
244
  3
A3
350
245
  3
A4
350
246
  3
A5
350
247
  3
A6
350
248
  3
A7
350
249
  3
A8
350
24A
  3
A9
350
24B
  3
B0
350
24C
  3
B1
350
24D
  3
B2
350
24E
  3
B3
350
24F
  3
B4
350
250
  3
B5
350
251
  3
B6
350
252
  3
B7
350
253
  3
B8
350
254
  3
B9
350
255
  3
C0
350
256
  3
C1
350
257
  3
C2
350
258
  3
C3
350
259
  3
C4
350
25A
  3
C5
350
25B
  3
C6
350
25C
  3
C7
350
25D
  3
C8
350
25E
  3
C9
350
25F
  3
D0
350
260
  3
D1
350
261
  3
D2
350
262
  0
DICTIONARY
  5
BC0
102
{ACAD_REACTORS
330
19
102
}
330
19
100
AcDbDictionary
281
     1
  0
DICTIONARY
  5
278
102
{ACAD_REACTORS
330
19
102
}
330
19
100
AcDbDictionary
281
     1
  3
Standard
350
279
  0
DICTIONARY
  5
267
102
{ACAD_REACTORS
330
19
102
}
330
19
100
AcDbDictionary
281
     1
  3
2dWireframe
350
26C
  3
3D Hidden
350
26E
  3
3dWireframe
350
26D
  3
Basic
350
26F
  3
Brighten
350
273
  3
ColorChange
350
277
  3
Conceptual
350
271
  3
Dim
350
272
  3
EdgeColorOff
350
8FE
  3
Facepattern
350
276
  3
Flat
350
268
  3
FlatWithEdges
350
269
  3
Gouraud
350
26A
  3
GouraudWithEdges
350
26B
  3
Hidden
350
8FB
  3
JitterOff
350
8FC
  3
Linepattern
350
275
  3
OverhangOff
350
8FD
  3
Realistic
350
270
  3
Shaded
350
903
  3
Shaded with edges
350
902
  3
Shades of Gray
350
8FF
  3
Sketchy
350
900
  3
Thicken
350
274
  3
Wireframe
350
8FA
  3
X-Ray
350
901
  0
XRECORD
  5
6273
102
{ACAD_REACTORS
330
19
102
}
330
19
100
AcDbXrecord
280
     1
 90
        1
330
279
  0
DICTIONARY
  5
330
102
{ACAD_REACTORS
330
19
102
}
330
19
100
AcDbDictionary
281
     1
  3
CANNOSCALE
350
331
  3
CMLEADERSTYLE
350
D5E
  3
CTABLESTYLE
350
335
  3
HPTRANSPARENCY
350
D52
  3
XCLIPFRAME
350
896
  0
DICTIONARY
  5
27A
102
{ACAD_REACTORS
330
19
102
}
330
19
100
AcDbDictionary
281
     1
  0
DICTIONARY
  5
E38
102
{ACAD_REACTORS
330
19
102
}
330
19
100
AcDbDictionary
281
     1
  3
DIMRAILANGLE
350
38B2
  3
DIMRAILFIRSTOFFSET
350
38B0
  3
DIMRAILOFFSET
350
38B1
  3
DIMRAILSENABLED
350
38B3
  0
DICTIONARY
  5
2E2
102
{ACAD_REACTORS
330
2E1
102
}
330
2E1
100
AcDbDictionary
281
     1
  3
ARGON_LAYERP_9
350
7AA
  0
DICTIONARY
  5
DDE
102
{ACAD_REACTORS
330
2E1
102
}
330
2E1
100
AcDbDictionary
281
     1
1001
ACAD
1000
<All
  0
DICTIONARY
  5
4539
102
{ACAD_REACTORS
330
4532
102
}
330
4532
100
AcDbDictionary
280
     1
281
     1
  3
TEXT
360
4531
  0
LAYOUT
  5
21
102
{ACAD_REACTORS
330
1E
102
}
330
1E
100
AcDbPlotSettings
  1

  2
none_device
  4
ISO_A3_(420.00_x_297.00_MM)
  6

 40
7.5
 41
20.0
 42
7.5
 43
20.0
 44
420.0
 45
297.0
 46
0.0
 47
0.0
 48
0.0
 49
0.0
140
0.0
141
0.0
142
1.0
143
1.0
 70
     0
 72
     1
 73
     0
 74
     0
  7

 75
     0
 76
     0
 77
     2
 78
   300
147
1.0
148
0.0
149
0.0
100
AcDbLayout
  1
Layout1
 70
     0
 71
     0
 10
-7.5
 20
-20.0
 11
412.5
 21
277.0
 12
0.0
 22
0.0
 32
0.0
 14
0.0
 24
0.0
 34
0.0
 15
0.0
 25
0.0
 35
0.0
146
0.0
 13
0.0
 23
0.0
 33
0.0
 16
0.0
 26
0.0
 36
0.0
 17
0.0
 27
0.0
 37
0.0
 76
     0
330
B
331
349
  0
LAYOUT
  5
20
102
{ACAD_REACTORS
330
1E
102
}
330
1E
100
AcDbPlotSettings
  1

  2
none_device
  4
ISO_A3_(420.00_x_297.00_MM)
  6

 40
7.5
 41
20.0
 42
7.5
 43
20.0
 44
420.0
 45
297.0
 46
0.0
 47
0.0
 48
0.0
 49
0.0
140
0.0
141
0.0
142
1.0
143
1.0
 70
  1024
 72
     1
 73
     0
 74
     0
  7

 75
     0
 76
     0
 77
     2
 78
   300
147
1.0
148
0.0
149
0.0
100
AcDbLayout
  1
Model
 70
     0
 71
     1
 10
0.0
 20
0.0
 11
420.0
 21
594.0
 12
0.0
 22
0.0
 32
0.0
 14
0.0
 24
0.0
 34
-0.0000000000000142
 15
420.0
 25
594.0
 35
0.0
146
0.0
 13
0.0
 23
0.0
 33
0.0
 16
0.0
 26
0.0
 36
0.0
 17
0.0
 27
0.0
 37
0.0
 76
     0
330
A
331
15
  0
MATERIAL
  5
5F00
102
{ACAD_REACTORS
330
263
102
}
330
263
100
AcDbMaterial
  1
ByBlock
 72
     1
 94
      127
  0
MATERIAL
  5
264
102
{ACAD_REACTORS
330
263
102
}
330
263
100
AcDbMaterial
  1
ByLayer
 72
     1
 94
      127
  0
MATERIAL
  5
266
102
{ACAD_REACTORS
330
263
102
}
330
263
100
AcDbMaterial
  1
Global
 72
     1
 94
      127
  0
MLEADERSTYLE
  5
D59
102
{ACAD_REACTORS
330
336
102
}
330
336
100
AcDbMLeaderStyle
170
     2
171
     1
172
     0
 90
        2
 40
0.0
 41
0.0
173
     1
 91
-1056964608
340
11
 92
       -2
290
     1
 42
2.0
291
     1
 43
8.0
  3
Standard
341
0
 44
4.0
300

342
17
174
     1
178
     6
175
     1
176
     0
 93
-1056964608
 45
4.0
292
     0
297
     0
 46
4.0
343
0
 94
-1056964608
 47
1.0
 49
1.0
140
1.0
293
     1
141
0.0
294
     1
177
     0
142
1.0
295
     0
296
     0
143
3.75
1001
ACAD_MLEADERVER
1070
     2
  0
MLINESTYLE
  5
1C
102
{ACAD_REACTORS
330
1B
102
}
330
1B
100
AcDbMlineStyle
  2
Standard
 70
     0
  3

 62
     0
 51
90.0
 52
90.0
 71
     2
 49
0.5
 62
   256
  6
BYLAYER
 49
-0.5
 62
   256
  6
BYLAYER
  0
ACDBPLACEHOLDER
  5
1D
102
{ACAD_REACTORS
330
1F
102
}
330
1F
  0
SCALE
  5
242
102
{ACAD_REACTORS
330
241
102
}
330
241
100
AcDbScale
 70
     0
300
1:1
140
1.0
141
1.0
290
     1
  0
SCALE
  5
243
102
{ACAD_REACTORS
330
241
102
}
330
241
100
AcDbScale
 70
     0
300
1:2
140
1.0
141
2.0
290
     0
  0
SCALE
  5
244
102
{ACAD_REACTORS
330
241
102
}
330
241
100
AcDbScale
 70
     0
300
1:4
140
1.0
141
4.0
290
     0
  0
SCALE
  5
245
102
{ACAD_REACTORS
330
241
102
}
330
241
100
AcDbScale
 70
     0
300
1:5
140
1.0
141
5.0
290
     0
  0
SCALE
  5
246
102
{ACAD_REACTORS
330
241
102
}
330
241
100
AcDbScale
 70
     0
300
1:8
140
1.0
141
8.0
290
     0
  0
SCALE
  5
247
102
{ACAD_REACTORS
330
241
102
}
330
241
100
AcDbScale
 70
     0
300
1:10
140
1.0
141
10.0
290
     0
  0
SCALE
  5
248
102
{ACAD_REACTORS
330
241
102
}
330
241
100
AcDbScale
 70
     0
300
1:16
140
1.0
141
16.0
290
     0
  0
SCALE
  5
249
102
{ACAD_REACTORS
330
241
102
}
330
241
100
AcDbScale
 70
     0
300
1:20
140
1.0
141
20.0
290
     0
  0
SCALE
  5
24A
102
{ACAD_REACTORS
330
241
102
}
330
241
100
AcDbScale
 70
     0
300
1:30
140
1.0
141
30.0
290
     0
  0
SCALE
  5
24B
102
{ACAD_REACTORS
330
241
102
}
330
241
100
AcDbScale
 70
     0
300
1:40
140
1.0
141
40.0
290
     0
  0
SCALE
  5
24C
102
{ACAD_REACTORS
330
241
102
}
330
241
100
AcDbScale
 70
     0
300
1:50
140
1.0
141
50.0
290
     0
  0
SCALE
  5
24D
102
{ACAD_REACTORS
330
241
102
}
330
241
100
AcDbScale
 70
     0
300
1:100
140
1.0
141
100.0
290
     0
  0
SCALE
  5
24E
102
{ACAD_REACTORS
330
241
102
}
330
241
100
AcDbScale
 70
     0
300
2:1
140
2.0
141
1.0
290
     0
  0
SCALE
  5
24F
102
{ACAD_REACTORS
330
241
102
}
330
241
100
AcDbScale
 70
     0
300
4:1
140
4.0
141
1.0
290
     0
  0
SCALE
  5
250
102
{ACAD_REACTORS
330
241
102
}
330
241
100
AcDbScale
 70
     0
300
8:1
140
8.0
141
1.0
290
     0
  0
SCALE
  5
251
102
{ACAD_REACTORS
330
241
102
}
330
241
100
AcDbScale
 70
     0
300
10:1
140
10.0
141
1.0
290
     0
  0
SCALE
  5
252
102
{ACAD_REACTORS
330
241
102
}
330
241
100
AcDbScale
 70
     0
300
100:1
140
100.0
141
1.0
290
     0
  0
SCALE
  5
253
102
{ACAD_REACTORS
330
241
102
}
330
241
100
AcDbScale
 70
     0
300
1/128" = 1'-0"
140
0.0078125
141
12.0
290
     0
  0
SCALE
  5
254
102
{ACAD_REACTORS
330
241
102
}
330
241
100
AcDbScale
 70
     0
300
1/64" = 1'-0"
140
0.015625
141
12.0
290
     0
  0
SCALE
  5
255
102
{ACAD_REACTORS
330
241
102
}
330
241
100
AcDbScale
 70
     0
300
1/32" = 1'-0"
140
0.03125
141
12.0
290
     0
  0
SCALE
  5
256
102
{ACAD_REACTORS
330
241
102
}
330
241
100
AcDbScale
 70
     0
300
1/16" = 1'-0"
140
0.0625
141
12.0
290
     0
  0
SCALE
  5
257
102
{ACAD_REACTORS
330
241
102
}
330
241
100
AcDbScale
 70
     0
300
3/32" = 1'-0"
140
0.09375
141
12.0
290
     0
  0
SCALE
  5
258
102
{ACAD_REACTORS
330
241
102
}
330
241
100
AcDbScale
 70
     0
300
1/8" = 1'-0"
140
0.125
141
12.0
290
     0
  0
SCALE
  5
259
102
{ACAD_REACTORS
330
241
102
}
330
241
100
AcDbScale
 70
     0
300
3/16" = 1'-0"
140
0.1875
141
12.0
290
     0
  0
SCALE
  5
25A
102
{ACAD_REACTORS
330
241
102
}
330
241
100
AcDbScale
 70
     0
300
1/4" = 1'-0"
140
0.25
141
12.0
290
     0
  0
SCALE
  5
25B
102
{ACAD_REACTORS
330
241
102
}
330
241
100
AcDbScale
 70
     0
300
3/8" = 1'-0"
140
0.375
141
12.0
290
     0
  0
SCALE
  5
25C
102
{ACAD_REACTORS
330
241
102
}
330
241
100
AcDbScale
 70
     0
300
1/2" = 1'-0"
140
0.5
141
12.0
290
     0
  0
SCALE
  5
25D
102
{ACAD_REACTORS
330
241
102
}
330
241
100
AcDbScale
 70
     0
300
3/4" = 1'-0"
140
0.75
141
12.0
290
     0
  0
SCALE
  5
25E
102
{ACAD_REACTORS
330
241
102
}
330
241
100
AcDbScale
 70
     0
300
1" = 1'-0"
140
1.0
141
12.0
290
     0
  0
SCALE
  5
25F
102
{ACAD_REACTORS
330
241
102
}
330
241
100
AcDbScale
 70
     0
300
1-1/2" = 1'-0"
140
1.5
141
12.0
290
     0
  0
SCALE
  5
260
102
{ACAD_REACTORS
330
241
102
}
330
241
100
AcDbScale
 70
     0
300
3" = 1'-0"
140
3.0
141
12.0
290
     0
  0
SCALE
  5
261
102
{ACAD_REACTORS
330
241
102
}
330
241
100
AcDbScale
 70
     0
300
6" = 1'-0"
140
6.0
141
12.0
290
     0
  0
SCALE
  5
262
102
{ACAD_REACTORS
330
241
102
}
330
241
100
AcDbScale
 70
     0
300
1'-0" = 1'-0"
140
12.0
141
12.0
290
     0
  0
TABLESTYLE
  5
279
102
{ACAD_REACTORS
330
278
102
}
102
{ACAD_XDICTIONARY
360
6271
102
}
330
278
100
AcDbTableStyle
  3
Standard
 70
     0
 71
     0
 40
0.06
 41
0.06
280
     0
281
     0
  7
Standard
140
4.5
170
     2
 62
     0
 63
   257
283
     0
 90
        4
 91
        0
  1

274
    -2
284
     1
 64
     0
275
    -2
285
     1
 65
     0
276
    -2
286
     1
 66
     0
277
    -2
287
     1
 67
     0
278
    -2
288
     1
 68
     0
279
    -2
289
     1
 69
     0
  7
Standard
140
6.0
170
     5
 62
     0
 63
   257
283
     0
 90
        4
 91
        0
  1

274
    -2
284
     1
 64
     0
275
    -2
285
     1
 65
     0
276
    -2
286
     1
 66
     0
277
    -2
287
     1
 67
     0
278
    -2
288
     1
 68
     0
279
    -2
289
     1
 69
     0
  7
Standard
140
4.5
170
     5
 62
     0
 63
   257
283
     0
 90
        4
 91
        0
  1

274
    -2
284
     1
 64
     0
275
    -2
285
     1
 65
     0
276
    -2
286
     1
 66
     0
277
    -2
287
     1
 67
     0
278
    -2
288
     1
 68
     0
279
    -2
289
     1
 69
     0
  0
VISUALSTYLE
  5
26C
102
{ACAD_REACTORS
330
267
102
}
330
267
100
AcDbVisualStyle
  2
2dWireframe
 70
     4
 71
     0
 72
     2
 73
     0
 90
        0
 40
-0.6
 41
-30.0
 62
     5
 63
     7
421
 16777215
 74
     1
 91
        4
 64
     7
 65
   257
 75
     1
175
     1
 42
1.0
 92
        0
 66
   257
 43
1.0
 76
     1
 77
     6
 78
     2
 67
     7
 79
     5
170
     0
171
     0
290
     0
174
     0
 93
        1
 44
0.0
173
     0
291
     0
 45
0.0
  0
VISUALSTYLE
  5
26E
102
{ACAD_REACTORS
330
267
102
}
330
267
100
AcDbVisualStyle
  2
3D Hidden
 70
     6
 71
     1
 72
     2
 73
     2
 90
        0
 40
-0.6
 41
-30.0
 62
     5
 63
     7
421
 16777215
 74
     2
 91
        2
 64
     7
 65
   257
 75
     2
175
     1
 42
40.0
 92
        0
 66
   257
 43
1.0
 76
     1
 77
     6
 78
     2
 67
     7
 79
     3
170
     0
171
     0
290
     0
174
     0
 93
        1
 44
0.0
173
     0
291
     0
 45
0.0
  0
VISUALSTYLE
  5
26D
102
{ACAD_REACTORS
330
267
102
}
330
267
100
AcDbVisualStyle
  2
3dWireframe
 70
     5
 71
     0
 72
     2
 73
     0
 90
        0
 40
-0.6
 41
-30.0
 62
     5
 63
     7
421
 16777215
 74
     1
 91
        4
 64
     7
 65
   257
 75
     1
175
     1
 42
1.0
 92
        0
 66
   257
 43
1.0
 76
     1
 77
     6
 78
     2
 67
     7
 79
     5
170
     0
171
     0
290
     0
174
     0
 93
        1
 44
0.0
173
     0
291
     0
 45
0.0
  0
VISUALSTYLE
  5
26F
102
{ACAD_REACTORS
330
267
102
}
330
267
100
AcDbVisualStyle
  2
Basic
 70
     7
 71
     1
 72
     0
 73
     1
 90
        0
 40
-0.6
 41
-30.0
 62
     5
 63
     7
421
 16777215
 74
     0
 91
        4
 64
     7
 65
   257
 75
     1
175
     1
 42
1.0
 92
        8
 66
     7
 43
1.0
 76
     1
 77
     6
 78
     2
 67
     7
 79
     5
170
     0
171
     0
290
     0
174
     0
 93
        1
 44
0.0
173
     0
291
     1
 45
0.0
  0
VISUALSTYLE
  5
273
102
{ACAD_REACTORS
330
267
102
}
330
267
100
AcDbVisualStyle
  2
Brighten
 70
    12
 71
     2
 72
     2
 73
     0
 90
        0
 40
-0.6
 41
-30.0
 62
     5
 63
     7
421
 16777215
 74
     1
 91
        4
 64
     7
 65
   257
 75
     1
175
     1
 42
1.0
 92
        8
 66
     7
 43
1.0
 76
     1
 77
     6
 78
     2
 67
     7
 79
     5
170
     0
171
     0
290
     0
174
     0
 93
        1
 44
50.0
173
     0
291
     1
 45
0.0
  0
VISUALSTYLE
  5
277
102
{ACAD_REACTORS
330
267
102
}
330
267
100
AcDbVisualStyle
  2
ColorChange
 70
    16
 71
     2
 72
     2
 73
     3
 90
        0
 40
-0.6
 41
-30.0
 62
     5
 63
     8
421
  8421504
 74
     1
 91
        4
 64
     7
 65
   257
 75
     1
175
     1
 42
1.0
 92
        8
 66
     8
424
  8421504
 43
1.0
 76
     1
 77
     6
 78
     2
 67
     7
 79
     5
170
     0
171
     0
290
     0
174
     0
 93
        1
 44
0.0
173
     0
291
     1
 45
0.0
  0
VISUALSTYLE
  5
271
102
{ACAD_REACTORS
330
267
102
}
330
267
100
AcDbVisualStyle
  2
Conceptual
 70
     9
 71
     3
 72
     2
 73
     0
 90
        0
 40
-0.6
 41
-30.0
 62
     5
 63
     7
421
 16777215
 74
     2
 91
        2
 64
     7
 65
   257
 75
     1
175
     1
 42
40.0
 92
        8
 66
     7
 43
1.0
 76
     1
 77
     6
 78
     2
 67
     7
 79
     3
170
     0
171
     0
290
     0
174
     0
 93
        1
 44
0.0
173
     0
291
     0
 45
0.0
  0
VISUALSTYLE
  5
272
102
{ACAD_REACTORS
330
267
102
}
330
267
100
AcDbVisualStyle
  2
Dim
 70
    11
 71
     2
 72
     2
 73
     0
 90
        0
 40
-0.6
 41
-30.0
 62
     5
 63
     7
421
 16777215
 74
     1
 91
        4
 64
     7
 65
   257
 75
     1
175
     1
 42
1.0
 92
        8
 66
     7
 43
1.0
 76
     1
 77
     6
 78
     2
 67
     7
 79
     5
170
     0
171
     0
290
     0
174
     0
 93
        1
 44
-50.0
173
     0
291
     1
 45
0.0
  0
VISUALSTYLE
  5
8FE
102
{ACAD_REACTORS
330
267
102
}
330
267
100
AcDbVisualStyle
  2
EdgeColorOff
 70
    22
 71
     2
 72
     2
 73
     0
 90
        0
 40
0.6
 41
30.0
 62
     5
 63
     7
421
 16777215
 74
     1
 91
        4
 64
     7
 65
   257
 75
     1
175
     1
 42
1.0
 92
        8
 66
     7
 43
1.0
 76
     1
 77
     6
 78
     2
 67
     7
 79
     5
170
     0
171
     0
290
     0
174
     0
 93
        1
 44
0.0
173
     0
291
     1
 45
0.0
  0
VISUALSTYLE
  5
276
102
{ACAD_REACTORS
330
267
102
}
330
267
100
AcDbVisualStyle
  2
Facepattern
 70
    15
 71
     2
 72
     2
 73
     0
 90
        0
 40
-0.6
 41
-30.0
 62
     5
 63
     7
421
 16777215
 74
     1
 91
        4
 64
     7
 65
   257
 75
     1
175
     1
 42
1.0
 92
        8
 66
     7
 43
1.0
 76
     1
 77
     6
 78
     2
 67
     7
 79
     5
170
     0
171
     0
290
     0
174
     0
 93
        1
 44
0.0
173
     0
291
     1
 45
0.0
  0
VISUALSTYLE
  5
268
102
{ACAD_REACTORS
330
267
102
}
330
267
100
AcDbVisualStyle
  2
Flat
 70
     0
 71
     2
 72
     1
 73
     1
 90
        2
 40
-0.6
 41
30.0
 62
     5
 63
     7
421
 16777215
 74
     0
 91
        4
 64
     7
 65
   257
 75
     1
175
     1
 42
1.0
 92
        8
 66
     7
 43
1.0
 76
     1
 77
     6
 78
     2
 67
     7
 79
     5
170
     0
171
     0
290
     0
174
     0
 93
       13
 44
0.0
173
     0
291
     1
 45
0.0
  0
VISUALSTYLE
  5
269
102
{ACAD_REACTORS
330
267
102
}
330
267
100
AcDbVisualStyle
  2
FlatWithEdges
 70
     1
 71
     2
 72
     1
 73
     1
 90
        2
 40
-0.6
 41
30.0
 62
     5
 63
     7
421
 16777215
 74
     1
 91
        4
 64
     7
 65
   257
 75
     1
175
     1
 42
1.0
 92
        0
 66
   257
 43
1.0
 76
     1
 77
     6
 78
     2
 67
     7
 79
     5
170
     0
171
     0
290
     0
174
     0
 93
       13
 44
0.0
173
     0
291
     1
 45
0.0
  0
VISUALSTYLE
  5
26A
102
{ACAD_REACTORS
330
267
102
}
330
267
100
AcDbVisualStyle
  2
Gouraud
 70
     2
 71
     2
 72
     2
 73
     1
 90
        2
 40
-0.6
 41
30.0
 62
     5
 63
     7
421
 16777215
 74
     0
 91
        4
 64
     7
 65
   257
 75
     1
175
     1
 42
1.0
 92
        0
 66
     7
 43
1.0
 76
     1
 77
     6
 78
     2
 67
     7
 79
     5
170
     0
171
     0
290
     0
174
     0
 93
       13
 44
0.0
173
     0
291
     1
 45
0.0
  0
VISUALSTYLE
  5
26B
102
{ACAD_REACTORS
330
267
102
}
330
267
100
AcDbVisualStyle
  2
GouraudWithEdges
 70
     3
 71
     2
 72
     2
 73
     1
 90
        2
 40
-0.6
 41
30.0
 62
     5
 63
     7
421
 16777215
 74
     1
 91
        4
 64
     7
 65
   257
 75
     1
175
     1
 42
1.0
 92
        0
 66
   257
 43
1.0
 76
     1
 77
     6
 78
     2
 67
     7
 79
     5
170
     0
171
     0
290
     0
174
     0
 93
       13
 44
0.0
173
     0
291
     1
 45
0.0
  0
VISUALSTYLE
  5
8FB
102
{ACAD_REACTORS
330
267
102
}
330
267
100
AcDbVisualStyle
  2
Hidden
 70
     6
 71
     1
 72
     2
 73
     2
 90
        0
 40
0.6
 41
30.0
 62
     5
 63
     7
421
 16777215
 74
     2
 91
        2
 64
     7
 65
   257
 75
     2
175
     1
 42
40.0
 92
        0
 66
   257
 43
1.0
 76
     1
 77
     6
 78
     2
 67
     7
 79
     3
170
     0
171
     0
290
     0
174
     0
 93
        1
 44
0.0
173
     0
291
     0
 45
0.0
  0
VISUALSTYLE
  5
8FC
102
{ACAD_REACTORS
330
267
102
}
330
267
100
AcDbVisualStyle
  2
JitterOff
 70
    20
 71
     2
 72
     2
 73
     0
 90
        0
 40
0.6
 41
30.0
 62
     5
 63
     7
421
 16777215
 74
     1
 91
        4
 64
     7
 65
   257
 75
     1
175
     1
 42
1.0
 92
       10
 66
     7
 43
1.0
 76
     1
 77
     6
 78
     2
 67
     7
 79
     5
170
     0
171
     0
290
     0
174
     0
 93
        1
 44
0.0
173
     0
291
     1
 45
0.0
  0
VISUALSTYLE
  5
275
102
{ACAD_REACTORS
330
267
102
}
330
267
100
AcDbVisualStyle
  2
Linepattern
 70
    14
 71
     2
 72
     2
 73
     0
 90
        0
 40
-0.6
 41
-30.0
 62
     5
 63
     7
421
 16777215
 74
     1
 91
        4
 64
     7
 65
   257
 75
     7
175
     7
 42
1.0
 92
        8
 66
     7
 43
1.0
 76
     1
 77
     6
 78
     2
 67
     7
 79
     5
170
     0
171
     0
290
     0
174
     0
 93
        1
 44
0.0
173
     0
291
     1
 45
0.0
  0
VISUALSTYLE
  5
8FD
102
{ACAD_REACTORS
330
267
102
}
330
267
100
AcDbVisualStyle
  2
OverhangOff
 70
    21
 71
     2
 72
     2
 73
     0
 90
        0
 40
0.6
 41
30.0
 62
     5
 63
     7
421
 16777215
 74
     1
 91
        4
 64
     7
 65
   257
 75
     1
175
     1
 42
1.0
 92
        9
 66
     7
 43
1.0
 76
     1
 77
     6
 78
     2
 67
     7
 79
     5
170
     0
171
     0
290
     0
174
     0
 93
        1
 44
0.0
173
     0
291
     1
 45
0.0
  0
VISUALSTYLE
  5
270
102
{ACAD_REACTORS
330
267
102
}
330
267
100
AcDbVisualStyle
  2
Realistic
 70
     8
 71
     2
 72
     2
 73
     0
 90
        0
 40
-0.6
 41
-30.0
 62
     5
 63
     7
421
 16777215
 74
     1
 91
        0
 64
     7
 65
   257
 75
     1
175
     1
 42
1.0
 92
        8
 66
     8
424
  7895160
 43
1.0
 76
     1
 77
     6
 78
     2
 67
     7
 79
     5
170
     0
171
     0
290
     0
174
     0
 93
       13
 44
0.0
173
     0
291
     0
 45
0.0
  0
VISUALSTYLE
  5
903
102
{ACAD_REACTORS
330
267
102
}
330
267
100
AcDbVisualStyle
  2
Shaded
 70
    27
 71
     2
 72
     2
 73
     1
 90
        2
 40
0.6
 41
30.0
 62
     5
 63
     7
421
 16777215
 74
     0
 91
        4
 64
     7
 65
   257
 75
     1
175
     1
 42
1.0
 92
        8
 66
   257
 43
1.0
 76
     1
 77
     6
 78
     2
 67
     8
425
  7895160
 79
     3
170
     0
171
     0
290
     0
174
     0
 93
        5
 44
0.0
173
     0
291
     0
 45
0.0
  0
VISUALSTYLE
  5
902
102
{ACAD_REACTORS
330
267
102
}
330
267
100
AcDbVisualStyle
  2
Shaded with edges
 70
    26
 71
     2
 72
     2
 73
     1
 90
        2
 40
0.6
 41
30.0
 62
     5
 63
     7
421
 16777215
 74
     1
 91
       10
 64
     7
 65
   257
 75
     2
175
     1
 42
1.0
 92
        8
 66
   257
 43
1.0
 76
     1
 77
     6
 78
     2
 67
     7
 79
     3
170
     0
171
     0
290
     0
174
     0
 93
        5
 44
0.0
173
     0
291
     0
 45
0.0
  0
VISUALSTYLE
  5
8FF
102
{ACAD_REACTORS
330
267
102
}
330
267
100
AcDbVisualStyle
  2
Shades of Gray
 70
    23
 71
     2
 72
     2
 73
     3
 90
        0
 40
0.6
 41
30.0
 62
     5
 63
     7
421
 16777215
 74
     2
 91
        2
 64
     7
 65
     7
 75
     1
175
     1
 42
40.0
 92
        8
 66
     7
 43
1.0
 76
     1
 77
     6
 78
     2
 67
     7
 79
     3
170
     0
171
     0
290
     0
174
     0
 93
        1
 44
0.0
173
     0
291
     0
 45
0.0
  0
VISUALSTYLE
  5
900
102
{ACAD_REACTORS
330
267
102
}
330
267
100
AcDbVisualStyle
  2
Sketchy
 70
    24
 71
     1
 72
     2
 73
     2
 90
        0
 40
0.6
 41
30.0
 62
     5
 63
     7
421
 16777215
 74
     2
 91
        2
 64
     7
 65
     7
 75
     1
175
     1
 42
40.0
 92
       11
 66
     7
 43
1.0
 76
     1
 77
     6
 78
     2
 67
     7
 79
     6
170
     0
171
     0
290
     0
174
     0
 93
        1
 44
0.0
173
     0
291
     0
 45
0.0
  0
VISUALSTYLE
  5
274
102
{ACAD_REACTORS
330
267
102
}
330
267
100
AcDbVisualStyle
  2
Thicken
 70
    13
 71
     2
 72
     2
 73
     0
 90
        0
 40
-0.6
 41
-30.0
 62
     5
 63
     7
421
 16777215
 74
     1
 91
        4
 64
     7
 65
   257
 75
     1
175
     1
 42
1.0
 92
       12
 66
     7
 43
1.0
 76
     1
 77
     6
 78
     2
 67
     7
 79
     5
170
     0
171
     0
290
     0
174
     0
 93
        1
 44
0.0
173
     0
291
     1
 45
0.0
  0
VISUALSTYLE
  5
8FA
102
{ACAD_REACTORS
330
267
102
}
330
267
100
AcDbVisualStyle
  2
Wireframe
 70
     5
 71
     0
 72
     2
 73
     0
 90
        0
 40
0.6
 41
30.0
 62
     5
 63
     7
421
 16777215
 74
     1
 91
        4
 64
     7
 65
   257
 75
     1
175
     1
 42
1.0
 92
        0
 66
   257
 43
1.0
 76
     1
 77
     6
 78
     2
 67
     7
 79
     3
170
     0
171
     0
290
     0
174
     0
 93
        1
 44
0.0
173
     0
291
     0
 45
0.0
  0
VISUALSTYLE
  5
901
102
{ACAD_REACTORS
330
267
102
}
330
267
100
AcDbVisualStyle
  2
X-Ray
 70
    25
 71
     2
 72
     2
 73
     1
 90
        1
 40
0.5
 41
30.0
 62
     5
 63
     7
421
 16777215
 74
     1
 91
        0
 64
     7
 65
   257
 75
     1
175
     1
 42
1.0
 92
        8
 66
     7
 43
1.0
 76
     1
 77
     6
 78
     2
 67
     7
 79
     3
170
     0
171
     0
290
     0
174
     0
 93
       13
 44
0.0
173
     0
291
     0
 45
0.0
  0
DICTIONARYVAR
  5
331
102
{ACAD_REACTORS
330
330
102
}
330
330
100
DictionaryVariables
280
     0
  1
1:1
  0
DICTIONARYVAR
  5
D5E
102
{ACAD_REACTORS
330
330
102
}
330
330
100
DictionaryVariables
280
     0
  1
Standard
  0
DICTIONARYVAR
  5
335
102
{ACAD_REACTORS
330
330
102
}
330
330
100
DictionaryVariables
280
     0
  1
Standard
  0
DICTIONARYVAR
  5
D52
102
{ACAD_REACTORS
330
330
102
}
330
330
100
DictionaryVariables
280
     0
  1
ByLayer
  0
DICTIONARYVAR
  5
896
102
{ACAD_REACTORS
330
330
102
}
330
330
100
DictionaryVariables
280
     0
  1
0
  0
DICTIONARYVAR
  5
38B2
102
{ACAD_REACTORS
330
E38
102
}
330
E38
100
DictionaryVariables
280
     0
  1
0.261799
  0
DICTIONARYVAR
  5
38B0
102
{ACAD_REACTORS
330
E38
102
}
330
E38
100
DictionaryVariables
280
     0
  1
0.400000
  0
DICTIONARYVAR
  5
38B1
102
{ACAD_REACTORS
330
E38
102
}
330
E38
100
DictionaryVariables
280
     0
  1
0.250000
  0
DICTIONARYVAR
  5
38B3
102
{ACAD_REACTORS
330
E38
102
}
330
E38
100
DictionaryVariables
280
     0
  1
1
  0
XRECORD
  5
7AA
102
{ACAD_REACTORS
330
2E2
102
}
330
2E2
100
AcDbXrecord
280
     1
 91
    34815
301

290
     0
302
HIDDEN
330
14
 90
        8
 62
     7
370
    -3
331
13
  1
Color_7
440
 33554687
330
4B
 90
        8
 62
     7
370
    20
331
13
  1
Color_7
440
 33554687
330
4C
 90
        8
 62
     3
370
    13
331
13
  1
Color_3
440
 33554687
330
4D
 90
        8
 62
     7
370
    20
331
13
  1
Color_7
440
 33554687
330
667
 90
        8
 62
     7
370
    -3
331
13
  1
Color_7
440
 33554687
330
0
 90
        8
 62
     8
370
    20
331
0
  1
Color_8
440
 33554687
330
D6B
 90
        0
 62
     4
370
    20
331
D6C
  1
Color_4
440
 33554687
330
D8C
 90
        0
 62
     7
370
    -3
331
13
  1
Color_7
440
 33554687
  0
FIELD
  5
4531
102
{ACAD_REACTORS
330
4539
102
}
330
4539
100
AcDbField
  1
_text
  2
{%<\_FldIdx 0>%N}
 90
        1
360
4534
 97
        0
 91
       63
 92
        0
 94
        8
 95
        2
 96
        0
300

 93
        1
  6
ACFD_FIELDTEXT_CHECKSUM
 93
        2
 90
        2
140
4547.0
 94
        0
300

302

304
ACVALUE_END
  7
ACFD_FIELD_VALUE
 93
        6
 90
        4
  1
{20160726N}
 94
        0
300

302

304
ACVALUE_END
301
{20160726N}
 98
       11
  0
DICTIONARY
  5
6271
330
279
100
AcDbDictionary
280
     1
281
     1
  3
ACAD_ROUNDTRIP_2008_TABLESTYLE_CELLSTYLEMAP
360
6272
  0
FIELD
  5
4534
330
4531
100
AcDbField
  1
AcVar
  2
\AcVar CreateDate \f "yyyyMMdd"
 90
        0
 97
        0
 91
       63
 92
        0
 94
        8
 95
        2
 96
        0
300

 93
        1
  6
Variable
 93
        2
 90
        4
  1
CreateDate
 94
        0
300

302

304
ACVALUE_END
  7
ACFD_FIELD_VALUE
 93
        6
 90
        8
 92
       16
310
E007070000001A000400200025000000
 94
        0
300
yyyyMMdd
302

304
ACVALUE_END
301
20160726
 98
        8
  0
CELLSTYLEMAP
  5
6272
102
{ACAD_REACTORS
330
6271
102
}
330
6271
100
AcDbCellStyleMap
 90
        3
300
CELLSTYLE
  1
TABLEFORMAT_BEGIN
 90
        5
170
     1
 91
        0
 92
    32768
 62
   257
 93
        1
300
CONTENTFORMAT
  1
CONTENTFORMAT_BEGIN
 90
        0
 91
        0
 92
        4
 93
        0
300

 40
0.0
140
1.0
 94
        5
 62
     0
340
17
144
6.0
309
CONTENTFORMAT_END
171
     1
301
MARGIN
  1
CELLMARGIN_BEGIN
 40
0.06
 40
0.06
 40
0.06
 40
0.06
 40
0.18
 40
0.18
309
CELLMARGIN_END
 94
        6
 95
        1
302
GRIDFORMAT
  1
GRIDFORMAT_BEGIN
 90
        0
 91
        1
 62
     0
 92
       -2
340
0
 93
        0
 40
0.045
309
GRIDFORMAT_END
 95
        2
302
GRIDFORMAT
  1
GRIDFORMAT_BEGIN
 90
        0
 91
        1
 62
     0
 92
       -2
340
0
 93
        0
 40
0.045
309
GRIDFORMAT_END
 95
        4
302
GRIDFORMAT
  1
GRIDFORMAT_BEGIN
 90
        0
 91
        1
 62
     0
 92
       -2
340
0
 93
        0
 40
0.045
309
GRIDFORMAT_END
 95
        8
302
GRIDFORMAT
  1
GRIDFORMAT_BEGIN
 90
        0
 91
        1
 62
     0
 92
       -2
340
0
 93
        0
 40
0.045
309
GRIDFORMAT_END
 95
       16
302
GRIDFORMAT
  1
GRIDFORMAT_BEGIN
 90
        0
 91
        1
 62
     0
 92
       -2
340
0
 93
        0
 40
0.045
309
GRIDFORMAT_END
 95
       32
302
GRIDFORMAT
  1
GRIDFORMAT_BEGIN
 90
        0
 91
        1
 62
     0
 92
       -2
340
0
 93
        0
 40
0.045
309
GRIDFORMAT_END
309
TABLEFORMAT_END
  1
CELLSTYLE_BEGIN
 90
        1
 91
        1
300
_TITLE
309
CELLSTYLE_END
300
CELLSTYLE
  1
TABLEFORMAT_BEGIN
 90
        5
170
     1
 91
        0
 92
        0
 62
   257
 93
        1
300
CONTENTFORMAT
  1
CONTENTFORMAT_BEGIN
 90
        0
 91
        0
 92
        4
 93
        0
300

 40
0.0
140
1.0
 94
        5
 62
     0
340
17
144
4.5
309
CONTENTFORMAT_END
171
     1
301
MARGIN
  1
CELLMARGIN_BEGIN
 40
0.06
 40
0.06
 40
0.06
 40
0.06
 40
0.18
 40
0.18
309
CELLMARGIN_END
 94
        6
 95
        1
302
GRIDFORMAT
  1
GRIDFORMAT_BEGIN
 90
        0
 91
        1
 62
     0
 92
       -2
340
0
 93
        0
 40
0.045
309
GRIDFORMAT_END
 95
        2
302
GRIDFORMAT
  1
GRIDFORMAT_BEGIN
 90
        0
 91
        1
 62
     0
 92
       -2
340
0
 93
        0
 40
0.045
309
GRIDFORMAT_END
 95
        4
302
GRIDFORMAT
  1
GRIDFORMAT_BEGIN
 90
        0
 91
        1
 62
     0
 92
       -2
340
0
 93
        0
 40
0.045
309
GRIDFORMAT_END
 95
        8
302
GRIDFORMAT
  1
GRIDFORMAT_BEGIN
 90
        0
 91
        1
 62
     0
 92
       -2
340
0
 93
        0
 40
0.045
309
GRIDFORMAT_END
 95
       16
302
GRIDFORMAT
  1
GRIDFORMAT_BEGIN
 90
        0
 91
        1
 62
     0
 92
       -2
340
0
 93
        0
 40
0.045
309
GRIDFORMAT_END
 95
       32
302
GRIDFORMAT
  1
GRIDFORMAT_BEGIN
 90
        0
 91
        1
 62
     0
 92
       -2
340
0
 93
        0
 40
0.045
309
GRIDFORMAT_END
309
TABLEFORMAT_END
  1
CELLSTYLE_BEGIN
 90
        2
 91
        1
300
_HEADER
309
CELLSTYLE_END
300
CELLSTYLE
  1
TABLEFORMAT_BEGIN
 90
        5
170
     1
 91
        0
 92
        0
 62
   257
 93
        1
300
CONTENTFORMAT
  1
CONTENTFORMAT_BEGIN
 90
        0
 91
        0
 92
        4
 93
        0
300

 40
0.0
140
1.0
 94
        2
 62
     0
340
17
144
4.5
309
CONTENTFORMAT_END
171
     1
301
MARGIN
  1
CELLMARGIN_BEGIN
 40
0.06
 40
0.06
 40
0.06
 40
0.06
 40
0.18
 40
0.18
309
CELLMARGIN_END
 94
        6
 95
        1
302
GRIDFORMAT
  1
GRIDFORMAT_BEGIN
 90
        0
 91
        1
 62
     0
 92
       -2
340
0
 93
        0
 40
0.045
309
GRIDFORMAT_END
 95
        2
302
GRIDFORMAT
  1
GRIDFORMAT_BEGIN
 90
        0
 91
        1
 62
     0
 92
       -2
340
0
 93
        0
 40
0.045
309
GRIDFORMAT_END
 95
        4
302
GRIDFORMAT
  1
GRIDFORMAT_BEGIN
 90
        0
 91
        1
 62
     0
 92
       -2
340
0
 93
        0
 40
0.045
309
GRIDFORMAT_END
 95
        8
302
GRIDFORMAT
  1
GRIDFORMAT_BEGIN
 90
        0
 91
        1
 62
     0
 92
       -2
340
0
 93
        0
 40
0.045
309
GRIDFORMAT_END
 95
       16
302
GRIDFORMAT
  1
GRIDFORMAT_BEGIN
 90
        0
 91
        1
 62
     0
 92
       -2
340
0
 93
        0
 40
0.045
309
GRIDFORMAT_END
 95
       32
302
GRIDFORMAT
  1
GRIDFORMAT_BEGIN
 90
        0
 91
        1
 62
     0
 92
       -2
340
0
 93
        0
 40
0.045
309
GRIDFORMAT_END
309
TABLEFORMAT_END
  1
CELLSTYLE_BEGIN
 90
        3
 91
        2
300
_DATA
309
CELLSTYLE_END
  0
ENDSEC
  0
EOF
