  0
SECTION
  2
HEADER
  9
$ACADVER
  1
AC1021
  9
$ACADMAINTVER
 70
    25
  9
$DWGCODEPAGE
  3
ANSI_932
  9
$LASTSAVEDBY
  1
howeNelson
  9
$INSBASE
 10
0.0
 20
0.0
 30
0.0
  9
$EXTMIN
 10
0.0
 20
0.0
 30
0.0
  9
$EXTMAX
 10
420.0
 20
594.0
 30
0.0
  9
$LIMMIN
 10
0.0
 20
0.0
  9
$LIMMAX
 10
420.0
 20
594.0
  9
$ORTHOMODE
 70
     0
  9
$REGENMODE
 70
     1
  9
$FILLMODE
 70
     1
  9
$QTEXTMODE
 70
     0
  9
$MIRRTEXT
 70
     1
  9
$LTSCALE
 40
50.0
  9
$ATTMODE
 70
     1
  9
$TEXTSIZE
 40
2.5
  9
$TRACEWID
 40
1.0
  9
$TEXTSTYLE
  7
ＭＳ ゴシック
  9
$CLAYER
  8
DIM
  9
$CELTYPE
  6
ByLayer
  9
$CECOLOR
 62
   256
  9
$CELTSCALE
 40
0.05
  9
$DISPSILH
 70
     0
  9
$DIMSCALE
 40
1.0
  9
$DIMASZ
 40
1.0
  9
$DIMEXO
 40
5.0
  9
$DIMDLI
 40
0.9999999999999999
  9
$DIMRND
 40
0.0
  9
$DIMDLE
 40
0.0
  9
$DIMEXE
 40
0.0
  9
$DIMTP
 40
0.0
  9
$DIMTM
 40
0.0
  9
$DIMTXT
 40
5.0
  9
$DIMCEN
 40
0.0
  9
$DIMTSZ
 40
0.0
  9
$DIMTOL
 70
     0
  9
$DIMLIM
 70
     0
  9
$DIMTIH
 70
     0
  9
$DIMTOH
 70
     0
  9
$DIMSE1
 70
     0
  9
$DIMSE2
 70
     0
  9
$DIMTAD
 70
     1
  9
$DIMZIN
 70
    11
  9
$DIMBLK
  1
DOT
  9
$DIMASO
 70
     1
  9
$DIMSHO
 70
     1
  9
$DIMPOST
  1
<>
  9
$DIMAPOST
  1
[]
  9
$DIMALT
 70
     0
  9
$DIMALTD
 70
     1
  9
$DIMALTF
 40
1.0
  9
$DIMLFAC
 40
1.0
  9
$DIMTOFL
 70
     0
  9
$DIMTVP
 40
0.0
  9
$DIMTIX
 70
     1
  9
$DIMSOXD
 70
     0
  9
$DIMSAH
 70
     0
  9
$DIMBLK1
  1

  9
$DIMBLK2
  1

  9
$DIMSTYLE
  2
tfrom線あり
  9
$DIMCLRD
 70
     0
  9
$DIMCLRE
 70
     0
  9
$DIMCLRT
 70
     0
  9
$DIMTFAC
 40
1.0
  9
$DIMGAP
 40
5.0
  9
$DIMJUST
 70
     0
  9
$DIMSD1
 70
     0
  9
$DIMSD2
 70
     0
  9
$DIMTOLJ
 70
     1
  9
$DIMTZIN
 70
    11
  9
$DIMALTZ
 70
    11
  9
$DIMALTTZ
 70
    11
  9
$DIMUPT
 70
     0
  9
$DIMDEC
 70
     0
  9
$DIMTDEC
 70
     1
  9
$DIMALTU
 70
     2
  9
$DIMALTTD
 70
     2
  9
$DIMTXSTY
  7
ＭＳ ゴシック
  9
$DIMAUNIT
 70
     0
  9
$DIMADEC
 70
     2
  9
$DIMALTRND
 40
0.0
  9
$DIMAZIN
 70
     0
  9
$DIMDSEP
 70
    46
  9
$DIMATFIT
 70
     0
  9
$DIMFRAC
 70
     2
  9
$DIMLDRBLK
  1
DOT
  9
$DIMLUNIT
 70
     2
  9
$DIMLWD
 70
    -2
  9
$DIMLWE
 70
    -2
  9
$DIMTMOVE
 70
     0
  9
$DIMFXL
 40
1.0
  9
$DIMFXLON
 70
     0
  9
$DIMJOGANG
 40
0.7853981633974483
  9
$DIMTFILL
 70
     0
  9
$DIMTFILLCLR
 70
     0
  9
$DIMARCSYM
 70
     0
  9
$DIMLTYPE
  6

  9
$DIMLTEX1
  6

  9
$DIMLTEX2
  6

  9
$LUNITS
 70
     2
  9
$LUPREC
 70
     0
  9
$SKETCHINC
 40
0.1
  9
$FILLETRAD
 40
0.0
  9
$AUNITS
 70
     0
  9
$AUPREC
 70
     0
  9
$MENU
  1
acad
  9
$ELEVATION
 40
0.0
  9
$PELEVATION
 40
0.0
  9
$THICKNESS
 40
0.0
  9
$LIMCHECK
 70
     0
  9
$CHAMFERA
 40
0.0
  9
$CHAMFERB
 40
0.0
  9
$CHAMFERC
 40
0.0
  9
$CHAMFERD
 40
0.0
  9
$SKPOLY
 70
     0
  9
$TDCREATE
 40
2447893.375
  9
$TDUCREATE
 40
0.0
  9
$TDUPDATE
 40
2457596.56424441
  9
$TDUUPDATE
 40
2457596.18924441
  9
$TDINDWG
 40
0.3284765972
  9
$TDUSRTIMER
 40
2457596.189010544
  9
$USRTIMER
 70
     1
  9
$ANGBASE
 50
0.0
  9
$ANGDIR
 70
     0
  9
$PDMODE
 70
     1
  9
$PDSIZE
 40
-2.0
  9
$PLINEWID
 40
0.0
  9
$SPLFRAME
 70
     0
  9
$SPLINETYPE
 70
     6
  9
$SPLINESEGS
 70
     8
  9
$HANDSEED
  5
66C7
  9
$SURFTAB1
 70
     6
  9
$SURFTAB2
 70
     6
  9
$SURFTYPE
 70
     6
  9
$SURFU
 70
     6
  9
$SURFV
 70
     6
  9
$UCSBASE
  2

  9
$UCSNAME
  2

  9
$UCSORG
 10
0.0
 20
0.0
 30
0.0
  9
$UCSXDIR
 10
1.0
 20
0.0
 30
0.0
  9
$UCSYDIR
 10
0.0
 20
1.0
 30
0.0
  9
$UCSORTHOREF
  2

  9
$UCSORTHOVIEW
 70
     0
  9
$UCSORGTOP
 10
0.0
 20
0.0
 30
0.0
  9
$UCSORGBOTTOM
 10
0.0
 20
0.0
 30
0.0
  9
$UCSORGLEFT
 10
0.0
 20
0.0
 30
0.0
  9
$UCSORGRIGHT
 10
0.0
 20
0.0
 30
0.0
  9
$UCSORGFRONT
 10
0.0
 20
0.0
 30
0.0
  9
$UCSORGBACK
 10
0.0
 20
0.0
 30
0.0
  9
$PUCSBASE
  2

  9
$PUCSNAME
  2

  9
$PUCSORG
 10
0.0
 20
0.0
 30
0.0
  9
$PUCSXDIR
 10
1.0
 20
0.0
 30
0.0
  9
$PUCSYDIR
 10
0.0
 20
1.0
 30
0.0
  9
$PUCSORTHOREF
  2

  9
$PUCSORTHOVIEW
 70
     0
  9
$PUCSORGTOP
 10
0.0
 20
0.0
 30
0.0
  9
$PUCSORGBOTTOM
 10
0.0
 20
0.0
 30
0.0
  9
$PUCSORGLEFT
 10
0.0
 20
0.0
 30
0.0
  9
$PUCSORGRIGHT
 10
0.0
 20
0.0
 30
0.0
  9
$PUCSORGFRONT
 10
0.0
 20
0.0
 30
0.0
  9
$PUCSORGBACK
 10
0.0
 20
0.0
 30
0.0
  9
$USERI1
 70
     0
  9
$USERI2
 70
     0
  9
$USERI3
 70
     0
  9
$USERI4
 70
     0
  9
$USERI5
 70
     0
  9
$USERR1
 40
0.0
  9
$USERR2
 40
0.0
  9
$USERR3
 40
0.0
  9
$USERR4
 40
0.0
  9
$USERR5
 40
0.0
  9
$WORLDVIEW
 70
     1
  9
$SHADEDGE
 70
     3
  9
$SHADEDIF
 70
    70
  9
$TILEMODE
 70
     1
  9
$MAXACTVP
 70
    64
  9
$PINSBASE
 10
0.0
 20
0.0
 30
0.0
  9
$PLIMCHECK
 70
     0
  9
$PEXTMIN
 10
0.0
 20
0.0
 30
0.0
  9
$PEXTMAX
 10
0.0
 20
0.0
 30
0.0
  9
$PLIMMIN
 10
-95.87226993865028
 20
-25.69999999999999
  9
$PLIMMAX
 10
201.1277300613497
 20
184.3
  9
$UNITMODE
 70
     0
  9
$VISRETAIN
 70
     0
  9
$PLINEGEN
 70
     1
  9
$PSLTSCALE
 70
     0
  9
$TREEDEPTH
 70
  3020
  9
$CMLSTYLE
  2
Standard
  9
$CMLJUST
 70
     0
  9
$CMLSCALE
 40
1.0
  9
$PROXYGRAPHICS
 70
     0
  9
$MEASUREMENT
 70
     1
  9
$CELWEIGHT
370
    -1
  9
$ENDCAPS
280
     0
  9
$JOINSTYLE
280
     0
  9
$LWDISPLAY
290
     1
  9
$INSUNITS
 70
     4
  9
$HYPERLINKBASE
  1

  9
$STYLESHEET
  1

  9
$XEDIT
290
     1
  9
$CEPSNTYPE
380
     0
  9
$PSTYLEMODE
290
     1
  9
$FINGERPRINTGUID
  2

  9
$VERSIONGUID
  2

  9
$EXTNAMES
290
     1
  9
$PSVPSCALE
 40
0.0
  9
$OLESTARTUP
290
     0
  9
$SORTENTS
280
   127
  9
$INDEXCTL
280
     0
  9
$HIDETEXT
280
     1
  9
$XCLIPFRAME
290
     0
  9
$HALOGAP
280
     0
  9
$OBSCOLOR
 70
   257
  9
$OBSLTYPE
280
     0
  9
$INTERSECTIONDISPLAY
280
     0
  9
$INTERSECTIONCOLOR
 70
   257
  9
$DIMASSOC
280
     2
  9
$PROJECTNAME
  1

  9
$CAMERADISPLAY
290
     0
  9
$LENSLENGTH
 40
50.0
  9
$CAMERAHEIGHT
 40
0.0
  9
$STEPSPERSEC
 40
2.0
  9
$STEPSIZE
 40
6.0
  9
$3DDWFPREC
 40
2.0
  9
$PSOLWIDTH
 40
0.25
  9
$PSOLHEIGHT
 40
4.0
  9
$LOFTANG1
 40
1.570796326794897
  9
$LOFTANG2
 40
1.570796326794897
  9
$LOFTMAG1
 40
0.0
  9
$LOFTMAG2
 40
0.0
  9
$LOFTPARAM
 70
     7
  9
$LOFTNORMALS
280
     1
  9
$LATITUDE
 40
37.795
  9
$LONGITUDE
 40
-122.394
  9
$NORTHDIRECTION
 40
0.0
  9
$TIMEZONE
 70
 -8000
  9
$LIGHTGLYPHDISPLAY
280
     1
  9
$TILEMODELIGHTSYNCH
280
     1
  9
$SOLIDHIST
280
     1
  9
$SHOWHIST
280
     1
  9
$DWFFRAME
280
     2
  9
$DGNFRAME
280
     2
  9
$REALWORLDSCALE
290
     1
  9
$INTERFERECOLOR
 62
   256
  9
$CSHADOW
280
     0
  9
$SHADOWPLANELOCATION
 40
0.0
  0
ENDSEC
  0
SECTION
  2
CLASSES
  0
CLASS
  1
LWPOLYLINE
  2
AcDbPolyline
  3
ObjectDBX Classes
 90
        0
 91
        1
280
     0
281
     1
  0
CLASS
  1
IMAGE
  2
AcDbRasterImage
  3
ISM
 90
      127
 91
       12
280
     0
281
     1
  0
CLASS
  1
OLE2FRAME
  2
AcDbOle2Frame
  3
ObjectDBX Classes
 90
        0
 91
        1
280
     0
281
     1
  0
CLASS
  1
HATCH
  2
AcDbHatch
  3
ObjectDBX Classes
 90
        0
 91
        1
280
     0
281
     1
  0
CLASS
  1
DICTIONARYVAR
  2
AcDbDictionaryVar
  3
ObjectDBX Classes
 90
        0
 91
       11
280
     0
281
     0
  0
CLASS
  1
RASTERVARIABLES
  2
AcDbRasterVariables
  3
ISM
 90
        0
 91
       11
280
     0
281
     0
  0
CLASS
  1
IMAGEDEF
  2
AcDbRasterImageDef
  3
ISM
 90
        0
 91
       11
280
     0
281
     0
  0
CLASS
  1
IMAGEDEF_REACTOR
  2
AcDbRasterImageDefReactor
  3
ISM
 90
        1
 91
       11
280
     0
281
     0
  0
CLASS
  1
IDBUFFER
  2
AcDbIdBuffer
  3
ObjectDBX Classes
 90
        0
 91
       11
280
     0
281
     0
  0
CLASS
  1
SPATIAL_FILTER
  2
AcDbSpatialFilter
  3
ObjectDBX Classes
 90
        0
 91
       11
280
     0
281
     0
  0
CLASS
  1
XRECORD
  2
AcDbXrecord
  3
ObjectDBX Classes
 90
        0
 91
        1
280
     0
281
     0
  0
CLASS
  1
SORTENTSTABLE
  2
AcDbSortentsTable
  3
ObjectDBX Classes
 90
        0
 91
       11
280
     0
281
     0
  0
CLASS
  1
LAYER_INDEX
  2
AcDbLayerIndex
  3
ObjectDBX Classes
 90
        0
 91
       11
280
     0
281
     0
  0
CLASS
  1
SPATIAL_INDEX
  2
AcDbSpatialIndex
  3
AutoCAD 2000
 90
        0
 91
       11
280
     0
281
     0
  0
CLASS
  1
OBJECT_PTR
  2
CAseDLPNTableRecord
  3
ASE-LPNTableRecord
 90
        1
 91
       11
280
     0
281
     0
  0
CLASS
  1
LAYOUT
  2
AcDbLayout
  3
ObjectDBX Classes
 90
        0
 91
        1
280
     0
281
     0
  0
CLASS
  1
PLOTSETTINGS
  2
AcDbPlotSettings
  3
ObjectDBX Classes
 90
        0
 91
       11
280
     0
281
     0
  0
CLASS
  1
ACDBDICTIONARYWDFLT
  2
AcDbDictionaryWithDefault
  3
ObjectDBX Classes
 90
        0
 91
       11
280
     0
281
     0
  0
CLASS
  1
ACDBPLACEHOLDER
  2
AcDbPlaceHolder
  3
ObjectDBX Classes
 90
        0
 91
        1
280
     0
281
     0
  0
CLASS
  1
SCALE
  2
AcDbScale
  3
ObjectDBX Classes
 90
     1153
 91
       11
280
     0
281
     0
  0
CLASS
  1
MATERIAL
  2
AcDbMaterial
  3
ObjectDBX Classes
 90
     1153
 91
       11
280
     0
281
     0
  0
CLASS
  1
VISUALSTYLE
  2
AcDbVisualStyle
  3
ObjectDBX Classes
 90
     4095
 91
       11
280
     0
281
     0
  0
CLASS
  1
TABLESTYLE
  2
AcDbTableStyle
  3
ObjectDBX Classes
 90
     4095
 91
       11
280
     0
281
     0
  0
CLASS
  1
DIMASSOC
  2
AcDbDimAssoc
  3
"AcDbDimAssoc|Product Desc:     AcDim ARX App For Dimension|Company:          Autodesk, Inc.|WEB Address:      www.autodesk.com"
 90
        0
 91
       11
280
     0
281
     0
  0
CLASS
  1
CELLSTYLEMAP
  2
AcDbCellStyleMap
  3
ObjectDBX Classes
 90
     1152
 91
       11
280
     0
281
     0
  0
CLASS
  1
SUN
  2
AcDbSun
  3
SCENEOE
 90
     1153
 91
       11
280
     0
281
     0
  0
CLASS
  1
MLEADERSTYLE
  2
AcDbMLeaderStyle
  3
ACDB_MLEADERSTYLE_CLASS
 90
     4095
 91
       11
280
     0
281
     0
  0
CLASS
  1
FIELD
  2
AcDbField
  3
ObjectDBX Classes
 90
     1152
 91
       11
280
     0
281
     0
  0
CLASS
  1
FIELDLIST
  2
AcDbFieldList
  3
ObjectDBX Classes
 90
     1152
 91
       11
280
     0
281
     0
  0
ENDSEC
  0
SECTION
  2
TABLES
  0
TABLE
  2
VPORT
  5
7
330
0
100
AcDbSymbolTable
 70
     1
  0
VPORT
  5
15
330
7
100
AcDbSymbolTableRecord
100
AcDbViewportTableRecord
  2
*ACTIVE
 70
     0
 10
0.0
 20
0.0
 11
1.0
 21
1.0
 12
301.0201356709092
 22
223.401285469834
 13
0.0
 23
0.0
 14
1.0
 24
1.0
 15
0.0
 25
0.0
 16
0.0
 26
0.0
 36
1.0
 17
-91.02013567090916
 27
73.59871453016603
 37
-46.86809886248109
 40
605.8800000000005
 41
2.479940564635958
 42
50.0
 43
0.0
 44
0.0
 50
0.0
 51
0.0
 71
    16
 72
  2000
 73
     1
 74
     1
 75
     0
 76
     0
 77
     0
 78
     0
281
     0
 65
     1
110
0.0
120
0.0
130
0.0
111
1.0
121
0.0
131
0.0
112
0.0
122
1.0
132
0.0
 79
     0
146
0.0
348
26C
 60
     3
 61
     5
292
     1
282
     1
141
0.0
142
0.0
 63
   256
361
904
  0
ENDTAB
  0
TABLE
  2
LTYPE
  5
4
330
0
100
AcDbSymbolTable
 70
     4
  0
LTYPE
  5
11
330
4
100
AcDbSymbolTableRecord
100
AcDbLinetypeTableRecord
  2
ByBlock
 70
     0
  3

 72
    65
 73
     0
 40
0.0
  0
LTYPE
  5
12
330
4
100
AcDbSymbolTableRecord
100
AcDbLinetypeTableRecord
  2
ByLayer
 70
     0
  3

 72
    65
 73
     0
 40
0.0
  0
LTYPE
  5
13
330
4
100
AcDbSymbolTableRecord
100
AcDbLinetypeTableRecord
  2
Continuous
 70
     0
  3
Solid line
 72
    65
 73
     0
 40
0.0
  0
LTYPE
  5
D6C
330
4
100
AcDbSymbolTableRecord
100
AcDbLinetypeTableRecord
  2
BORDER
 70
     0
  3
Border __  __  . __  __  . __  __  . __  __  . 
 72
    65
 73
     6
 40
44.45
 49
12.7
 74
     0
 49
-6.35
 74
     0
 49
12.7
 74
     0
 49
-6.35
 74
     0
 49
0.0
 74
     0
 49
-6.35
 74
     0
  0
LTYPE
  5
1638
330
4
100
AcDbSymbolTableRecord
100
AcDbLinetypeTableRecord
  2
HIDDEN2
 70
     0
  3
Hidden (.5x) _ _ _ _ _ _ _ _ _ _ _ _ _ _ _ _ _ 
 72
    65
 73
     2
 40
4.7625
 49
3.175
 74
     4
 75
     0
340
0
 46
0.0
 50
0.0
 44
0.0
 45
0.0
 49
-1.5875
 74
     4
 75
     0
340
0
 46
0.0
 50
0.0
 44
0.0
 45
0.0
  0
LTYPE
  5
66A2
330
4
100
AcDbSymbolTableRecord
100
AcDbLinetypeTableRecord
  2
CENTER
 70
     0
  3
 Center _____  _  _____  _  _____  _  _____  _ 
 72
    65
 73
     4
 40
50.8
 49
31.75
 74
     0
 49
-6.35
 74
     0
 49
6.35
 74
     0
 49
-6.35
 74
     0
  0
ENDTAB
  0
TABLE
  2
LAYER
  5
2
102
{ACAD_XDICTIONARY
360
2E1
102
}
330
0
100
AcDbSymbolTable
 70
     9
  0
LAYER
  5
14
330
2
100
AcDbSymbolTableRecord
100
AcDbLayerTableRecord
  2
0
 70
     0
 62
     7
  6
Continuous
370
    -3
390
1D
347
266
  0
LAYER
  5
4B
330
2
100
AcDbSymbolTableRecord
100
AcDbLayerTableRecord
  2
TEMPLATE
 70
     0
 62
     7
  6
Continuous
370
    20
390
1D
347
266
  0
LAYER
  5
4C
330
2
100
AcDbSymbolTableRecord
100
AcDbLayerTableRecord
  2
DIM
 70
     0
 62
     3
  6
Continuous
370
    13
390
1D
347
266
  0
LAYER
  5
4D
330
2
100
AcDbSymbolTableRecord
100
AcDbLayerTableRecord
  2
MODEL
 70
     0
 62
     7
  6
Continuous
370
    20
390
1D
347
266
  0
LAYER
  5
667
330
2
100
AcDbSymbolTableRecord
100
AcDbLayerTableRecord
  2
LOGO
 70
     0
 62
     7
  6
Continuous
370
    -3
390
1D
347
266
  0
LAYER
  5
D6B
330
2
100
AcDbSymbolTableRecord
100
AcDbLayerTableRecord
  2
BORDER
 70
     0
 62
     4
  6
BORDER
290
     0
370
    20
390
1D
347
266
1001
AcAecLayerStandard
1000

1000

  0
LAYER
  5
D8C
330
2
100
AcDbSymbolTableRecord
100
AcDbLayerTableRecord
  2
Defpoints
 70
     0
 62
     7
  6
Continuous
290
     0
370
    -3
390
1D
347
266
  0
LAYER
  5
1635
330
2
100
AcDbSymbolTableRecord
100
AcDbLayerTableRecord
  2
Standard
 70
     0
 62
     7
  6
Continuous
370
    -3
390
1D
347
266
  0
LAYER
  5
3445
330
2
100
AcDbSymbolTableRecord
100
AcDbLayerTableRecord
  2
Layer50
 70
     0
 62
     7
  6
Continuous
370
    -3
390
1D
347
266
  0
ENDTAB
  0
TABLE
  2
STYLE
  5
3
330
0
100
AcDbSymbolTable
 70
     2
  0
STYLE
  5
17
330
3
100
AcDbSymbolTableRecord
100
AcDbTextStyleTableRecord
  2
Standard
 70
     0
 40
0.0
 41
1.0
 50
0.0
 71
     0
 42
2.5
  3
txt
  4
BIGFONT.SHX
  0
STYLE
  5
39
330
3
100
AcDbSymbolTableRecord
100
AcDbTextStyleTableRecord
  2
ＭＳ ゴシック
 70
     0
 40
0.0
 41
1.0
 50
0.0
 71
     0
 42
2.5
  3
msgothic.ttc
  4
ＭＳ ゴシック
1001
ACAD
1000
ＭＳ ゴシック
1071
        0
  0
ENDTAB
  0
TABLE
  2
VIEW
  5
5
330
0
100
AcDbSymbolTable
 70
     0
  0
ENDTAB
  0
TABLE
  2
UCS
  5
6
330
0
100
AcDbSymbolTable
 70
     0
  0
ENDTAB
  0
TABLE
  2
APPID
  5
8
330
0
100
AcDbSymbolTable
 70
     3
  0
APPID
  5
16
330
8
100
AcDbSymbolTableRecord
100
AcDbRegAppTableRecord
  2
ACAD
 70
     0
  0
APPID
  5
7AC
330
8
100
AcDbSymbolTableRecord
100
AcDbRegAppTableRecord
  2
AcAecLayerStandard
 70
     0
  0
APPID
  5
E29
330
8
100
AcDbSymbolTableRecord
100
AcDbRegAppTableRecord
  2
ACAD_MLEADERVER
 70
     0
  0
ENDTAB
  0
TABLE
  2
DIMSTYLE
  5
9
330
0
100
AcDbSymbolTable
 70
     2
100
AcDbDimStyleTable
  0
DIMSTYLE
105
18
330
9
100
AcDbSymbolTableRecord
100
AcDbDimStyleTableRecord
  2
Standard
 70
     0
178
     0
340
17
  0
DIMSTYLE
105
57
102
{ACAD_REACTORS
330
6420
330
6494
330
65B0
330
65C3
330
665E
330
6694
102
}
330
9
100
AcDbSymbolTableRecord
100
AcDbDimStyleTableRecord
  2
tfrom線あり
 70
     0
  3
<>
  4
[]
 41
1.0
 42
5.0
 43
0.9999999999999999
 44
0.0
 73
     0
 74
     0
 77
     1
 78
    11
140
5.0
141
0.0
143
1.0
147
5.0
171
     1
174
     1
178
     0
179
     2
271
     0
272
     1
276
     2
284
    11
285
    11
286
    11
289
     0
340
39
341
4E
342
4E
  0
ENDTAB
  0
TABLE
  2
BLOCK_RECORD
  5
1
330
0
100
AcDbSymbolTable
 70
    26
  0
BLOCK_RECORD
  5
A
330
1
100
AcDbSymbolTableRecord
100
AcDbBlockTableRecord
  2
*MODEL_SPACE
340
20
 70
     0
280
     1
281
     0
  0
BLOCK_RECORD
  5
B
330
1
100
AcDbSymbolTableRecord
100
AcDbBlockTableRecord
  2
*PAPER_SPACE
340
21
 70
     0
280
     1
281
     0
  0
BLOCK_RECORD
  5
4E
330
1
100
AcDbSymbolTableRecord
100
AcDbBlockTableRecord
  2
_DOT
340
0
102
{BLKREFS
331
6123
331
6124
331
6130
331
6131
331
6158
331
6159
331
617E
331
617F
331
6427
331
6428
331
646F
331
6470
331
647E
331
647F
331
648B
331
648C
331
649D
331
649E
331
64E7
331
64E8
331
64F8
331
64F9
331
65B8
331
65B7
331
65CD
331
65CC
331
668E
331
668F
331
669C
331
669B
102
}
 70
     0
280
     1
281
     0
  0
BLOCK_RECORD
  5
68A
330
1
100
AcDbSymbolTableRecord
100
AcDbBlockTableRecord
  2
名称未設定-1
340
0
102
{BLKREFS
331
6B5
102
}
 70
     1
280
     1
281
     0
  0
BLOCK_RECORD
  5
68D
330
1
100
AcDbSymbolTableRecord
100
AcDbBlockTableRecord
  2
block 2
340
0
102
{BLKREFS
331
68C
331
1343
102
}
 70
     0
280
     1
281
     0
  0
BLOCK_RECORD
  5
690
330
1
100
AcDbSymbolTableRecord
100
AcDbBlockTableRecord
  2
block 3
340
0
102
{BLKREFS
331
68F
102
}
 70
     0
280
     1
281
     0
  0
BLOCK_RECORD
  5
693
330
1
100
AcDbSymbolTableRecord
100
AcDbBlockTableRecord
  2
block 4
340
0
102
{BLKREFS
331
692
102
}
 70
     0
280
     1
281
     0
  0
BLOCK_RECORD
  5
6A2
330
1
100
AcDbSymbolTableRecord
100
AcDbBlockTableRecord
  2
block 5
340
0
102
{BLKREFS
331
6A1
102
}
 70
     0
280
     1
281
     0
  0
BLOCK_RECORD
  5
611D
330
1
100
AcDbSymbolTableRecord
100
AcDbBlockTableRecord
  2
*D6
340
0
 70
     0
280
     1
281
     0
  0
BLOCK_RECORD
  5
612A
330
1
100
AcDbSymbolTableRecord
100
AcDbBlockTableRecord
  2
*D7
340
0
 70
     0
280
     1
281
     0
  0
BLOCK_RECORD
  5
6151
330
1
100
AcDbSymbolTableRecord
100
AcDbBlockTableRecord
  2
*D8
340
0
 70
     0
280
     1
281
     0
  0
BLOCK_RECORD
  5
6178
330
1
100
AcDbSymbolTableRecord
100
AcDbBlockTableRecord
  2
*D9
340
0
 70
     0
280
     1
281
     0
  0
BLOCK_RECORD
  5
6421
330
1
100
AcDbSymbolTableRecord
100
AcDbBlockTableRecord
  2
*D10
340
0
 70
     0
280
     1
281
     0
  0
BLOCK_RECORD
  5
6469
330
1
100
AcDbSymbolTableRecord
100
AcDbBlockTableRecord
  2
*D11
340
0
 70
     0
280
     1
281
     0
  0
BLOCK_RECORD
  5
6478
330
1
100
AcDbSymbolTableRecord
100
AcDbBlockTableRecord
  2
*D12
340
0
 70
     0
280
     1
281
     0
  0
BLOCK_RECORD
  5
6485
330
1
100
AcDbSymbolTableRecord
100
AcDbBlockTableRecord
  2
*D13
340
0
 70
     0
280
     1
281
     0
  0
BLOCK_RECORD
  5
6497
330
1
100
AcDbSymbolTableRecord
100
AcDbBlockTableRecord
  2
*D14
340
0
 70
     0
280
     1
281
     0
  0
BLOCK_RECORD
  5
64E1
330
1
100
AcDbSymbolTableRecord
100
AcDbBlockTableRecord
  2
*D15
340
0
 70
     0
280
     1
281
     0
  0
BLOCK_RECORD
  5
64F2
330
1
100
AcDbSymbolTableRecord
100
AcDbBlockTableRecord
  2
*D16
340
0
 70
     0
280
     1
281
     0
  0
BLOCK_RECORD
  5
65B1
330
1
100
AcDbSymbolTableRecord
100
AcDbBlockTableRecord
  2
*D19
340
0
 70
     0
280
     1
281
     0
  0
BLOCK_RECORD
  5
65C6
330
1
100
AcDbSymbolTableRecord
100
AcDbBlockTableRecord
  2
*D20
340
0
 70
     0
280
     1
281
     0
  0
BLOCK_RECORD
  5
665F
330
1
100
AcDbSymbolTableRecord
100
AcDbBlockTableRecord
  2
*D23
340
0
 70
     0
280
     1
281
     0
  0
BLOCK_RECORD
  5
6688
330
1
100
AcDbSymbolTableRecord
100
AcDbBlockTableRecord
  2
*D24
340
0
 70
     0
280
     1
281
     0
  0
BLOCK_RECORD
  5
6695
330
1
100
AcDbSymbolTableRecord
100
AcDbBlockTableRecord
  2
*D25
340
0
 70
     0
280
     1
281
     0
  0
ENDTAB
  0
ENDSEC
  0
SECTION
  2
BLOCKS
  0
BLOCK
  5
D
330
A
100
AcDbEntity
  8
0
390
1D
100
AcDbBlockBegin
  2
*MODEL_SPACE
 70
     0
 10
0.0
 20
0.0
 30
0.0
  3
*MODEL_SPACE
  1
*MODEL_SPACE
  0
ENDBLK
  5
E
330
A
100
AcDbEntity
  8
0
390
1D
100
AcDbBlockEnd
  0
BLOCK
  5
F
330
B
100
AcDbEntity
 67
     1
  8
0
390
1D
100
AcDbBlockBegin
  2
*PAPER_SPACE
 70
     0
 10
0.0
 20
0.0
 30
0.0
  3
*PAPER_SPACE
  1
*PAPER_SPACE
  0
ENDBLK
  5
10
330
B
100
AcDbEntity
 67
     1
  8
0
390
1D
100
AcDbBlockEnd
  0
BLOCK
  5
38A8
330
4E
100
AcDbEntity
  8
0
390
1D
100
AcDbBlockBegin
  2
_DOT
 70
     0
 10
0.0
 20
0.0
 30
0.0
  3
_DOT
  1
_DOT
  0
POLYLINE
  5
38AA
330
4E
100
AcDbEntity
  8
0
  6
ByBlock
 62
     0
370
    -2
390
1D
100
AcDb2dPolyline
 66
     1
 10
0.0
 20
0.0
 30
0.0
 70
     1
 40
0.5
 41
0.5
  0
VERTEX
  5
38AB
330
38AA
100
AcDbEntity
  8
0
  6
ByBlock
 62
     0
370
    -2
390
1D
100
AcDbVertex
100
AcDb2dVertex
 10
-0.25
 20
0.0
 30
0.0
 42
1.0
  0
VERTEX
  5
38AC
330
38AA
100
AcDbEntity
  8
0
  6
ByBlock
 62
     0
370
    -2
390
1D
100
AcDbVertex
100
AcDb2dVertex
 10
0.25
 20
0.0
 30
0.0
 42
1.0
  0
SEQEND
  5
38AD
330
38AA
100
AcDbEntity
  8
0
390
1D
  0
LINE
  5
38AE
330
4E
100
AcDbEntity
  8
0
  6
ByBlock
 62
     0
370
    -2
390
1D
100
AcDbLine
 10
-0.5
 20
0.0
 30
0.0
 11
-1.0
 21
0.0
 31
0.0
  0
ENDBLK
  5
38AF
330
4E
100
AcDbEntity
  8
0
390
1D
100
AcDbBlockEnd
  0
BLOCK
  5
68B
330
68A
100
AcDbEntity
  8
0
100
AcDbBlockBegin
  2
名称未設定-1
 70
     0
 10
0.0
 20
0.0
 30
0.0
  3
名称未設定-1
  1
名称未設定-1
  0
INSERT
  5
68F
330
68A
100
AcDbEntity
  8
LOGO
100
AcDbBlockReference
  2
block 3
 10
0.0
 20
0.0
 30
0.0
  0
ENDBLK
  5
6B1
330
68A
100
AcDbEntity
  8
0
100
AcDbBlockEnd
  0
BLOCK
  5
68E
330
68D
100
AcDbEntity
  8
0
100
AcDbBlockBegin
  2
block 2
 70
     0
 10
0.0
 20
0.0
 30
0.0
  3
block 2
  1
block 2
  0
ENDBLK
  5
6B0
330
68D
100
AcDbEntity
  8
0
100
AcDbBlockEnd
  0
BLOCK
  5
691
330
690
100
AcDbEntity
  8
0
100
AcDbBlockBegin
  2
block 3
 70
     0
 10
0.0
 20
0.0
 30
0.0
  3
block 3
  1
block 3
  0
INSERT
  5
692
330
690
100
AcDbEntity
  8
LOGO
100
AcDbBlockReference
  2
block 4
 10
0.0
 20
0.0
 30
0.0
  0
INSERT
  5
6A1
330
690
100
AcDbEntity
  8
LOGO
100
AcDbBlockReference
  2
block 5
 10
0.0
 20
0.0
 30
0.0
  0
ENDBLK
  5
6AF
330
690
100
AcDbEntity
  8
0
100
AcDbBlockEnd
  0
BLOCK
  5
694
330
693
100
AcDbEntity
  8
0
100
AcDbBlockBegin
  2
block 4
 70
     0
 10
0.0
 20
0.0
 30
0.0
  3
block 4
  1
block 4
  0
POLYLINE
  5
695
330
693
100
AcDbEntity
  8
LOGO
370
     0
100
AcDb2dPolyline
 66
     1
 10
0.0
 20
0.0
 30
0.0
  0
VERTEX
  5
696
330
695
100
AcDbEntity
  8
LOGO
370
     0
100
AcDbVertex
100
AcDb2dVertex
 10
83.79545727667795
 20
167.6444858234922
 30
0.0
  0
VERTEX
  5
697
330
695
100
AcDbEntity
  8
LOGO
370
     0
100
AcDbVertex
100
AcDb2dVertex
 10
83.79545727667795
 20
159.7968976406313
 30
0.0
  0
VERTEX
  5
698
330
695
100
AcDbEntity
  8
LOGO
370
     0
100
AcDbVertex
100
AcDb2dVertex
 10
71.3631329975216
 20
159.7968976406313
 30
0.0
  0
VERTEX
  5
699
330
695
100
AcDbEntity
  8
LOGO
370
     0
100
AcDbVertex
100
AcDb2dVertex
 10
71.3631329975216
 20
127.8027915271048
 30
0.0
  0
VERTEX
  5
69A
330
695
100
AcDbEntity
  8
LOGO
370
     0
100
AcDbVertex
100
AcDb2dVertex
 10
60.43011526263018
 20
127.8027915271048
 30
0.0
  0
VERTEX
  5
69B
330
695
100
AcDbEntity
  8
LOGO
370
     0
100
AcDbVertex
100
AcDb2dVertex
 10
60.43011526263018
 20
159.7968976406313
 30
0.0
  0
VERTEX
  5
69C
330
695
100
AcDbEntity
  8
LOGO
370
     0
100
AcDbVertex
100
AcDb2dVertex
 10
48.21793273020759
 20
159.7968976406313
 30
0.0
  0
VERTEX
  5
69D
330
695
100
AcDbEntity
  8
LOGO
370
     0
100
AcDbVertex
100
AcDb2dVertex
 10
48.21793273020759
 20
167.6444858234922
 30
0.0
  0
VERTEX
  5
69E
330
695
100
AcDbEntity
  8
LOGO
370
     0
100
AcDbVertex
100
AcDb2dVertex
 10
83.79545727667795
 20
167.6444858234922
 30
0.0
  0
SEQEND
  5
69F
330
695
100
AcDbEntity
  8
LOGO
370
     0
  0
HATCH
  5
6A0
330
693
100
AcDbEntity
  8
LOGO
 62
   250
420
  2234388
100
AcDbHatch
 10
0.0
 20
0.0
 30
0.0
210
0.0
220
0.0
230
1.0
  2
SOLID
 70
     1
 71
     0
 91
        1
 92
        1
 93
        8
 72
     1
 10
83.79545727667795
 20
167.6444858234922
 11
83.79545727667795
 21
159.7968976406313
 72
     1
 10
83.79545727667795
 20
159.7968976406313
 11
71.3631329975216
 21
159.7968976406313
 72
     1
 10
71.3631329975216
 20
159.7968976406313
 11
71.3631329975216
 21
127.8027915271048
 72
     1
 10
71.3631329975216
 20
127.8027915271048
 11
60.43011526263018
 21
127.8027915271048
 72
     1
 10
60.43011526263018
 20
127.8027915271048
 11
60.43011526263018
 21
159.7968976406313
 72
     1
 10
60.43011526263018
 20
159.7968976406313
 11
48.21793273020759
 21
159.7968976406313
 72
     1
 10
48.21793273020759
 20
159.7968976406313
 11
48.21793273020759
 21
167.6444858234922
 72
     1
 10
48.21793273020759
 20
167.6444858234922
 11
83.79545727667795
 21
167.6444858234922
 97
        0
 75
     2
 76
     1
 98
        0
  0
ENDBLK
  5
6AE
330
693
100
AcDbEntity
  8
0
100
AcDbBlockEnd
  0
BLOCK
  5
6A3
330
6A2
100
AcDbEntity
  8
0
100
AcDbBlockBegin
  2
block 5
 70
     0
 10
0.0
 20
0.0
 30
0.0
  3
block 5
  1
block 5
  0
SPLINE
  5
6A4
330
6A2
100
AcDbEntity
  8
LOGO
370
     0
100
AcDbSpline
210
0.0
220
0.0
230
1.0
 70
    11
 71
     3
 72
    56
 73
    52
 74
     0
 42
0.000000001
 43
0.0000000001
 40
0.0
 40
0.0
 40
0.0
 40
0.0
 40
1.0
 40
1.0
 40
1.0
 40
2.0
 40
2.0
 40
2.0
 40
3.0
 40
3.0
 40
3.0
 40
4.0
 40
4.0
 40
4.0
 40
5.0
 40
5.0
 40
5.0
 40
6.0
 40
6.0
 40
6.0
 40
7.0
 40
7.0
 40
7.0
 40
8.0
 40
8.0
 40
8.0
 40
9.0
 40
9.0
 40
9.0
 40
10.0
 40
10.0
 40
10.0
 40
11.0
 40
11.0
 40
11.0
 40
12.0
 40
12.0
 40
12.0
 40
13.0
 40
13.0
 40
13.0
 40
14.0
 40
14.0
 40
14.0
 40
15.0
 40
15.0
 40
15.0
 40
16.0
 40
16.0
 40
16.0
 40
17.0
 40
17.0
 40
17.0
 40
17.0
 10
100.4504378777679
 20
166.69157178364
 30
0.0
 10
101.9848844191641
 20
167.1313385124438
 30
0.0
 10
103.9637485713373
 20
166.7649523658846
 30
0.0
 10
103.9637485713373
 20
166.7649523658846
 30
0.0
 10
103.9637485713373
 20
166.7649523658846
 30
0.0
 10
103.0132460999156
 20
163.911205638077
 30
0.0
 10
103.0132460999156
 20
163.911205638077
 30
0.0
 10
103.0132460999156
 20
163.911205638077
 30
0.0
 10
101.0674548862189
 20
164.3601018759394
 30
0.0
 10
99.57090442016032
 20
163.1805004036133
 30
0.0
 10
98.40508333886608
 20
162.258247733807
 30
0.0
 10
97.65301849830304
 20
159.804132345923
 30
0.0
 10
97.3598406791005
 20
158.8699940888517
 30
0.0
 10
97.3598406791005
 20
158.8699940888517
 30
0.0
 10
96.07137411762282
 20
154.9119212747295
 30
0.0
 10
96.07137411762282
 20
154.9119212747295
 30
0.0
 10
96.07137411762282
 20
154.9119212747295
 30
0.0
 10
100.3012651448482
 20
154.9119212747295
 30
0.0
 10
100.3012651448482
 20
154.9119212747295
 30
0.0
 10
100.3012651448482
 20
154.9119212747295
 30
0.0
 10
99.64152892419852
 20
152.4199098115079
 30
0.0
 10
99.64152892419852
 20
152.4199098115079
 30
0.0
 10
99.64152892419852
 20
152.4199098115079
 30
0.0
 10
95.38097652692731
 20
152.4199098115079
 30
0.0
 10
95.38097652692731
 20
152.4199098115079
 30
0.0
 10
95.38097652692731
 20
152.4199098115079
 30
0.0
 10
87.75353009080013
 20
127.8027915271048
 30
0.0
 10
87.75353009080013
 20
127.8027915271048
 30
0.0
 10
87.75353009080013
 20
127.8027915271048
 30
0.0
 10
85.36538832498108
 20
127.8027915271048
 30
0.0
 10
85.36538832498108
 20
127.8027915271048
 30
0.0
 10
85.36538832498108
 20
127.8027915271048
 30
0.0
 10
93.00006946639998
 20
152.4199098115079
 30
0.0
 10
93.00006946639998
 20
152.4199098115079
 30
0.0
 10
93.00006946639998
 20
152.4199098115079
 30
0.0
 10
89.85297266450198
 20
152.4199098115079
 30
0.0
 10
89.85297266450198
 20
152.4199098115079
 30
0.0
 10
89.85297266450198
 20
152.4199098115079
 30
0.0
 10
90.51270888515164
 20
154.9119212747295
 30
0.0
 10
90.51270888515164
 20
154.9119212747295
 30
0.0
 10
90.51270888515164
 20
154.9119212747295
 30
0.0
 10
93.6904670570955
 20
154.9119212747295
 30
0.0
 10
93.6904670570955
 20
154.9119212747295
 30
0.0
 10
93.6904670570955
 20
154.9119212747295
 30
0.0
 10
94.81598049462158
 20
158.3616699146644
 30
0.0
 10
94.81598049462158
 20
158.3616699146644
 30
0.0
 10
95.7237637538445
 20
161.2605474231013
 30
0.0
 10
96.4968436907311
 20
162.8139420021662
 30
0.0
 10
97.15657991138076
 20
163.9844139654337
 30
0.0
 10
97.81183750494507
 20
165.1523021053827
 30
0.0
 10
99.1047826935081
 20
166.3084769129547
 30
0.0
 10
100.4504378777679
 20
166.69157178364
 30
0.0
  0
HATCH
  5
6A5
330
6A2
100
AcDbEntity
  8
LOGO
 62
   250
420
  2234388
100
AcDbHatch
 10
0.0
 20
0.0
 30
0.0
210
0.0
220
0.0
230
1.0
  2
SOLID
 70
     1
 71
     0
 91
        1
 92
        1
 93
        1
 72
     4
 94
        3
 73
     0
 74
     1
 95
       56
 96
       52
 40
0.0
 40
0.0
 40
0.0
 40
0.0
 40
1.0
 40
1.0
 40
1.0
 40
2.0
 40
2.0
 40
2.0
 40
3.0
 40
3.0
 40
3.0
 40
4.0
 40
4.0
 40
4.0
 40
5.0
 40
5.0
 40
5.0
 40
6.0
 40
6.0
 40
6.0
 40
7.0
 40
7.0
 40
7.0
 40
8.0
 40
8.0
 40
8.0
 40
9.0
 40
9.0
 40
9.0
 40
10.0
 40
10.0
 40
10.0
 40
11.0
 40
11.0
 40
11.0
 40
12.0
 40
12.0
 40
12.0
 40
13.0
 40
13.0
 40
13.0
 40
14.0
 40
14.0
 40
14.0
 40
15.0
 40
15.0
 40
15.0
 40
16.0
 40
16.0
 40
16.0
 40
17.0
 40
17.0
 40
17.0
 40
17.0
 10
100.4504378777679
 20
166.69157178364
 10
101.9848844191641
 20
167.1313385124438
 10
103.9637485713373
 20
166.7649523658846
 10
103.9637485713373
 20
166.7649523658846
 10
103.9637485713373
 20
166.7649523658846
 10
103.0132460999156
 20
163.911205638077
 10
103.0132460999156
 20
163.911205638077
 10
103.0132460999156
 20
163.911205638077
 10
101.0674548862189
 20
164.3601018759394
 10
99.57090442016032
 20
163.1805004036133
 10
98.40508333886608
 20
162.258247733807
 10
97.65301849830304
 20
159.804132345923
 10
97.3598406791005
 20
158.8699940888517
 10
97.3598406791005
 20
158.8699940888517
 10
96.07137411762282
 20
154.9119212747295
 10
96.07137411762282
 20
154.9119212747295
 10
96.07137411762282
 20
154.9119212747295
 10
100.3012651448482
 20
154.9119212747295
 10
100.3012651448482
 20
154.9119212747295
 10
100.3012651448482
 20
154.9119212747295
 10
99.64152892419852
 20
152.4199098115079
 10
99.64152892419852
 20
152.4199098115079
 10
99.64152892419852
 20
152.4199098115079
 10
95.38097652692731
 20
152.4199098115079
 10
95.38097652692731
 20
152.4199098115079
 10
95.38097652692731
 20
152.4199098115079
 10
87.75353009080013
 20
127.8027915271048
 10
87.75353009080013
 20
127.8027915271048
 10
87.75353009080013
 20
127.8027915271048
 10
85.36538832498108
 20
127.8027915271048
 10
85.36538832498108
 20
127.8027915271048
 10
85.36538832498108
 20
127.8027915271048
 10
93.00006946639998
 20
152.4199098115079
 10
93.00006946639998
 20
152.4199098115079
 10
93.00006946639998
 20
152.4199098115079
 10
89.85297266450198
 20
152.4199098115079
 10
89.85297266450198
 20
152.4199098115079
 10
89.85297266450198
 20
152.4199098115079
 10
90.51270888515164
 20
154.9119212747295
 10
90.51270888515164
 20
154.9119212747295
 10
90.51270888515164
 20
154.9119212747295
 10
93.6904670570955
 20
154.9119212747295
 10
93.6904670570955
 20
154.9119212747295
 10
93.6904670570955
 20
154.9119212747295
 10
94.81598049462158
 20
158.3616699146644
 10
94.81598049462158
 20
158.3616699146644
 10
95.7237637538445
 20
161.2605474231013
 10
96.4968436907311
 20
162.8139420021662
 10
97.15657991138076
 20
163.9844139654337
 10
97.81183750494507
 20
165.1523021053827
 10
99.1047826935081
 20
166.3084769129547
 10
100.4504378777679
 20
166.69157178364
 97
        0
 75
     2
 76
     1
 98
        0
  0
SPLINE
  5
6A6
330
6A2
100
AcDbEntity
  8
LOGO
370
     0
100
AcDbSpline
210
0.0
220
0.0
230
1.0
 70
    11
 71
     3
 72
    38
 73
    34
 74
     0
 42
0.000000001
 43
0.0000000001
 40
0.0
 40
0.0
 40
0.0
 40
0.0
 40
1.0
 40
1.0
 40
1.0
 40
2.0
 40
2.0
 40
2.0
 40
3.0
 40
3.0
 40
3.0
 40
4.0
 40
4.0
 40
4.0
 40
5.0
 40
5.0
 40
5.0
 40
6.0
 40
6.0
 40
6.0
 40
7.0
 40
7.0
 40
7.0
 40
8.0
 40
8.0
 40
8.0
 40
9.0
 40
9.0
 40
9.0
 40
10.0
 40
10.0
 40
10.0
 40
11.0
 40
11.0
 40
11.0
 40
11.0
 10
126.377554584636
 20
154.8151140277308
 30
0.0
 10
126.377554584636
 20
154.8151140277308
 30
0.0
 10
128.8311532078563
 20
154.8151140277308
 30
0.0
 10
128.8311532078563
 20
154.8151140277308
 30
0.0
 10
128.8311532078563
 20
154.8151140277308
 30
0.0
 10
127.7345785914971
 20
151.3062819612468
 30
0.0
 10
127.7345785914971
 20
151.3062819612468
 30
0.0
 10
128.571392836906
 20
152.2922689395754
 30
0.0
 10
129.8860421413442
 20
153.604506675583
 30
0.0
 10
131.0163787157314
 20
154.2664822097754
 30
0.0
 10
132.7044766171327
 20
155.2500576196734
 30
0.0
 10
133.6642808525008
 20
155.3847609420097
 30
0.0
 10
134.7284715499351
 20
155.3565111403944
 30
0.0
 10
134.7284715499351
 20
155.3565111403944
 30
0.0
 10
133.6877075172549
 20
152.0345756272799
 30
0.0
 10
133.6877075172549
 20
152.0345756272799
 30
0.0
 10
133.011434827367
 20
152.3184516825359
 30
0.0
 10
130.930940291334
 20
151.7768823149844
 30
0.0
 10
129.739280976855
 20
150.9162968950455
 30
0.0
 10
128.66613302525
 20
150.1454562717016
 30
0.0
 10
127.9192358313239
 20
149.4857200510519
 30
0.0
 10
127.0393578639405
 20
147.8282835196966
 30
0.0
 10
126.164647543194
 20
146.1699857139017
 30
0.0
 10
125.4742499524985
 20
143.5262176944419
 30
0.0
 10
124.2822461282437
 20
139.6959580071401
 30
0.0
 10
124.2822461282437
 20
139.6959580071401
 30
0.0
 10
120.5753209406769
 20
127.8027915271048
 30
0.0
 10
120.5753209406769
 20
127.8027915271048
 30
0.0
 10
120.5753209406769
 20
127.8027915271048
 30
0.0
 10
118.1964809388044
 20
127.8027915271048
 30
0.0
 10
118.1964809388044
 20
127.8027915271048
 30
0.0
 10
118.1964809388044
 20
127.8027915271048
 30
0.0
 10
126.377554584636
 20
154.8151140277308
 30
0.0
 10
126.377554584636
 20
154.8151140277308
 30
0.0
  0
HATCH
  5
6A7
330
6A2
100
AcDbEntity
  8
LOGO
 62
   250
420
  2234388
100
AcDbHatch
 10
0.0
 20
0.0
 30
0.0
210
0.0
220
0.0
230
1.0
  2
SOLID
 70
     1
 71
     0
 91
        1
 92
        1
 93
        1
 72
     4
 94
        3
 73
     0
 74
     1
 95
       38
 96
       34
 40
0.0
 40
0.0
 40
0.0
 40
0.0
 40
1.0
 40
1.0
 40
1.0
 40
2.0
 40
2.0
 40
2.0
 40
3.0
 40
3.0
 40
3.0
 40
4.0
 40
4.0
 40
4.0
 40
5.0
 40
5.0
 40
5.0
 40
6.0
 40
6.0
 40
6.0
 40
7.0
 40
7.0
 40
7.0
 40
8.0
 40
8.0
 40
8.0
 40
9.0
 40
9.0
 40
9.0
 40
10.0
 40
10.0
 40
10.0
 40
11.0
 40
11.0
 40
11.0
 40
11.0
 10
126.377554584636
 20
154.8151140277308
 10
126.377554584636
 20
154.8151140277308
 10
128.8311532078563
 20
154.8151140277308
 10
128.8311532078563
 20
154.8151140277308
 10
128.8311532078563
 20
154.8151140277308
 10
127.7345785914971
 20
151.3062819612468
 10
127.7345785914971
 20
151.3062819612468
 10
128.571392836906
 20
152.2922689395754
 10
129.8860421413442
 20
153.604506675583
 10
131.0163787157314
 20
154.2664822097754
 10
132.7044766171327
 20
155.2500576196734
 10
133.6642808525008
 20
155.3847609420097
 10
134.7284715499351
 20
155.3565111403944
 10
134.7284715499351
 20
155.3565111403944
 10
133.6877075172549
 20
152.0345756272799
 10
133.6877075172549
 20
152.0345756272799
 10
133.011434827367
 20
152.3184516825359
 10
130.930940291334
 20
151.7768823149844
 10
129.739280976855
 20
150.9162968950455
 10
128.66613302525
 20
150.1454562717016
 10
127.9192358313239
 20
149.4857200510519
 10
127.0393578639405
 20
147.8282835196966
 10
126.164647543194
 20
146.1699857139017
 10
125.4742499524985
 20
143.5262176944419
 10
124.2822461282437
 20
139.6959580071401
 10
124.2822461282437
 20
139.6959580071401
 10
120.5753209406769
 20
127.8027915271048
 10
120.5753209406769
 20
127.8027915271048
 10
120.5753209406769
 20
127.8027915271048
 10
118.1964809388044
 20
127.8027915271048
 10
118.1964809388044
 20
127.8027915271048
 10
118.1964809388044
 20
127.8027915271048
 10
126.377554584636
 20
154.8151140277308
 10
126.377554584636
 20
154.8151140277308
 97
        0
 75
     2
 76
     1
 98
        0
  0
SPLINE
  5
6A8
330
6A2
100
AcDbEntity
  8
LOGO
370
     0
100
AcDbSpline
210
0.0
220
0.0
230
1.0
 70
    11
 71
     3
 72
   104
 73
   100
 74
     0
 42
0.000000001
 43
0.0000000001
 40
0.0
 40
0.0
 40
0.0
 40
0.0
 40
1.0
 40
1.0
 40
1.0
 40
2.0
 40
2.0
 40
2.0
 40
3.0
 40
3.0
 40
3.0
 40
4.0
 40
4.0
 40
4.0
 40
5.0
 40
5.0
 40
5.0
 40
6.0
 40
6.0
 40
6.0
 40
7.0
 40
7.0
 40
7.0
 40
8.0
 40
8.0
 40
8.0
 40
9.0
 40
9.0
 40
9.0
 40
10.0
 40
10.0
 40
10.0
 40
11.0
 40
11.0
 40
11.0
 40
12.0
 40
12.0
 40
12.0
 40
13.0
 40
13.0
 40
13.0
 40
14.0
 40
14.0
 40
14.0
 40
15.0
 40
15.0
 40
15.0
 40
16.0
 40
16.0
 40
16.0
 40
17.0
 40
17.0
 40
17.0
 40
18.0
 40
18.0
 40
18.0
 40
19.0
 40
19.0
 40
19.0
 40
20.0
 40
20.0
 40
20.0
 40
21.0
 40
21.0
 40
21.0
 40
22.0
 40
22.0
 40
22.0
 40
23.0
 40
23.0
 40
23.0
 40
24.0
 40
24.0
 40
24.0
 40
25.0
 40
25.0
 40
25.0
 40
26.0
 40
26.0
 40
26.0
 40
27.0
 40
27.0
 40
27.0
 40
28.0
 40
28.0
 40
28.0
 40
29.0
 40
29.0
 40
29.0
 40
30.0
 40
30.0
 40
30.0
 40
31.0
 40
31.0
 40
31.0
 40
32.0
 40
32.0
 40
32.0
 40
33.0
 40
33.0
 40
33.0
 40
33.0
 10
139.8926730891197
 20
154.8294111834263
 30
0.0
 10
139.8926730891197
 20
154.8294111834263
 30
0.0
 10
142.0344903652445
 20
154.8294111834263
 30
0.0
 10
142.0344903652445
 20
154.8294111834263
 30
0.0
 10
142.0344903652445
 20
154.8294111834263
 30
0.0
 10
140.9516961399171
 20
151.3157559800812
 30
0.0
 10
140.9516961399171
 20
151.3157559800812
 30
0.0
 10
141.8928968473923
 20
152.7887075264977
 30
0.0
 10
142.7341897198865
 20
153.4484437471474
 30
0.0
 10
143.8552245303272
 20
154.2926649527359
 30
0.0
 10
144.9803934580775
 20
155.1296514530327
 30
0.0
 10
146.3139908001845
 20
155.3044901642492
 30
0.0
 10
147.241066606852
 20
155.3044901642492
 30
0.0
 10
148.3855280820469
 20
155.3044901642492
 30
0.0
 10
149.4969166187653
 20
155.0752189084569
 30
0.0
 10
150.0784491203092
 20
153.8172414621372
 30
0.0
 10
150.5228667310863
 20
152.833838307127
 30
0.0
 10
150.5414702589793
 20
152.7201500811143
 30
0.0
 10
150.4140016419347
 20
150.7765981809602
 30
0.0
 10
151.5818897818837
 20
152.7699317437168
 30
0.0
 10
152.4424752018226
 20
153.6256940267945
 30
0.0
 10
153.9038856707499
 20
154.4507949398263
 30
0.0
 10
155.4455669174378
 20
155.3044901642492
 30
0.0
 10
156.339225275853
 20
155.3659851592288
 30
0.0
 10
157.3748216618963
 20
155.2147453676543
 30
0.0
 10
158.911679771723
 20
154.9877134254046
 30
0.0
 10
159.8859534176746
 20
154.4390816074493
 30
0.0
 10
160.3965169054045
 20
152.7816450760939
 30
0.0
 10
160.9070803931344
 20
151.1219692311958
 30
0.0
 10
160.6328506116007
 20
150.2303779314354
 30
0.0
 10
159.9992971339115
 20
147.597634224801
 30
0.0
 10
159.7105979417943
 20
146.4014962832367
 30
0.0
 10
159.2947746424084
 20
144.9400858143094
 30
0.0
 10
158.7463150793409
 20
143.2092687007094
 30
0.0
 10
158.7463150793409
 20
143.2092687007094
 30
0.0
 10
153.9038856707499
 20
127.8027915271048
 30
0.0
 10
153.9038856707499
 20
127.8027915271048
 30
0.0
 10
153.9038856707499
 20
127.8027915271048
 30
0.0
 10
151.3882752878863
 20
127.8027915271048
 30
0.0
 10
151.3882752878863
 20
127.8027915271048
 30
0.0
 10
151.3882752878863
 20
127.8027915271048
 30
0.0
 10
155.6250565106276
 20
141.2751908193897
 30
0.0
 10
155.6250565106276
 20
141.2751908193897
 30
0.0
 10
156.5094131050963
 20
144.0936252951782
 30
0.0
 10
157.109893644309
 20
146.1506931664571
 30
0.0
 10
157.4220195011804
 20
147.4415712963654
 30
0.0
 10
157.8095929989511
 20
149.0530157726519
 30
0.0
 10
157.9656559273867
 20
149.5826995529385
 30
0.0
 10
157.7816877071116
 20
150.7529992613181
 30
0.0
 10
157.6111553680925
 20
151.8430281919372
 30
0.0
 10
157.0582171779396
 20
152.5547853887321
 30
0.0
 10
156.1170164704645
 20
152.5547853887321
 30
0.0
 10
155.1096698860365
 20
152.5547853887321
 30
0.0
 10
154.2962823053817
 20
152.4412694176073
 30
0.0
 10
153.156643967048
 20
151.2945686288697
 30
0.0
 10
152.0170056287143
 20
150.1476955852443
 30
0.0
 10
151.076149431015
 20
148.7930831468137
 30
0.0
 10
150.3337308641742
 20
147.2290087646991
 30
0.0
 10
149.5957909244188
 20
145.6683794803425
 30
0.0
 10
148.8530278478023
 20
143.6822806228776
 30
0.0
 10
148.0964843801539
 20
141.2751908193897
 30
0.0
 10
148.0964843801539
 20
141.2751908193897
 30
0.0
 10
143.8552245303272
 20
127.8027915271048
 30
0.0
 10
143.8552245303272
 20
127.8027915271048
 30
0.0
 10
143.8552245303272
 20
127.8027915271048
 30
0.0
 10
141.486030802177
 20
127.8027915271048
 30
0.0
 10
141.486030802177
 20
127.8027915271048
 30
0.0
 10
141.486030802177
 20
127.8027915271048
 30
0.0
 10
146.3329388378533
 20
143.2092687007094
 30
0.0
 10
146.3329388378533
 20
143.2092687007094
 30
0.0
 10
146.8483254624444
 20
144.8408669988801
 30
0.0
 10
147.2314203331297
 20
146.1837661049335
 30
0.0
 10
147.4867020769946
 20
147.224185627838
 30
0.0
 10
147.9169947869641
 20
149.0197705792876
 30
0.0
 10
148.0306830129768
 20
150.2400242051577
 30
0.0
 10
147.709255392159
 20
151.3157559800812
 30
0.0
 10
147.3874832615654
 20
152.3916600098926
 30
0.0
 10
146.8245542879144
 20
152.6683013598569
 30
0.0
 10
145.8840425999909
 20
152.6683013598569
 30
0.0
 10
145.0989048209514
 20
152.6683013598569
 30
0.0
 10
144.3282364524954
 20
152.3275811915945
 30
0.0
 10
143.4531816219731
 20
151.6538923250251
 30
0.0
 10
142.34627171234
 20
150.8074318058939
 30
0.0
 10
141.901854101563
 20
150.1097995099067
 30
0.0
 10
141.3578731655808
 20
149.289521733736
 30
0.0
 10
140.6299240093235
 20
148.192602607601
 30
0.0
 10
140.2850697237515
 20
147.455696197173
 30
0.0
 10
139.6652966370942
 20
145.8385673095858
 30
0.0
 10
139.0506911970739
 20
144.2214384219986
 30
0.0
 10
138.463991048893
 20
142.3252566160164
 30
0.0
 10
138.0571250036777
 20
141.0154304484394
 30
0.0
 10
138.0571250036777
 20
141.0154304484394
 30
0.0
 10
133.9009590684727
 20
127.8027915271048
 30
0.0
 10
133.9009590684727
 20
127.8027915271048
 30
0.0
 10
133.9009590684727
 20
127.8027915271048
 30
0.0
 10
131.4180771143097
 20
127.8027915271048
 30
0.0
 10
131.4180771143097
 20
127.8027915271048
 30
0.0
 10
131.4180771143097
 20
127.8027915271048
 30
0.0
 10
139.8926730891197
 20
154.8294111834263
 30
0.0
 10
139.8926730891197
 20
154.8294111834263
 30
0.0
  0
HATCH
  5
6A9
330
6A2
100
AcDbEntity
  8
LOGO
 62
   250
420
  2234388
100
AcDbHatch
 10
0.0
 20
0.0
 30
0.0
210
0.0
220
0.0
230
1.0
  2
SOLID
 70
     1
 71
     0
 91
        1
 92
        1
 93
        1
 72
     4
 94
        3
 73
     0
 74
     1
 95
      104
 96
      100
 40
0.0
 40
0.0
 40
0.0
 40
0.0
 40
1.0
 40
1.0
 40
1.0
 40
2.0
 40
2.0
 40
2.0
 40
3.0
 40
3.0
 40
3.0
 40
4.0
 40
4.0
 40
4.0
 40
5.0
 40
5.0
 40
5.0
 40
6.0
 40
6.0
 40
6.0
 40
7.0
 40
7.0
 40
7.0
 40
8.0
 40
8.0
 40
8.0
 40
9.0
 40
9.0
 40
9.0
 40
10.0
 40
10.0
 40
10.0
 40
11.0
 40
11.0
 40
11.0
 40
12.0
 40
12.0
 40
12.0
 40
13.0
 40
13.0
 40
13.0
 40
14.0
 40
14.0
 40
14.0
 40
15.0
 40
15.0
 40
15.0
 40
16.0
 40
16.0
 40
16.0
 40
17.0
 40
17.0
 40
17.0
 40
18.0
 40
18.0
 40
18.0
 40
19.0
 40
19.0
 40
19.0
 40
20.0
 40
20.0
 40
20.0
 40
21.0
 40
21.0
 40
21.0
 40
22.0
 40
22.0
 40
22.0
 40
23.0
 40
23.0
 40
23.0
 40
24.0
 40
24.0
 40
24.0
 40
25.0
 40
25.0
 40
25.0
 40
26.0
 40
26.0
 40
26.0
 40
27.0
 40
27.0
 40
27.0
 40
28.0
 40
28.0
 40
28.0
 40
29.0
 40
29.0
 40
29.0
 40
30.0
 40
30.0
 40
30.0
 40
31.0
 40
31.0
 40
31.0
 40
32.0
 40
32.0
 40
32.0
 40
33.0
 40
33.0
 40
33.0
 40
33.0
 10
139.8926730891197
 20
154.8294111834263
 10
139.8926730891197
 20
154.8294111834263
 10
142.0344903652445
 20
154.8294111834263
 10
142.0344903652445
 20
154.8294111834263
 10
142.0344903652445
 20
154.8294111834263
 10
140.9516961399171
 20
151.3157559800812
 10
140.9516961399171
 20
151.3157559800812
 10
141.8928968473923
 20
152.7887075264977
 10
142.7341897198865
 20
153.4484437471474
 10
143.8552245303272
 20
154.2926649527359
 10
144.9803934580775
 20
155.1296514530327
 10
146.3139908001845
 20
155.3044901642492
 10
147.241066606852
 20
155.3044901642492
 10
148.3855280820469
 20
155.3044901642492
 10
149.4969166187653
 20
155.0752189084569
 10
150.0784491203092
 20
153.8172414621372
 10
150.5228667310863
 20
152.833838307127
 10
150.5414702589793
 20
152.7201500811143
 10
150.4140016419347
 20
150.7765981809602
 10
151.5818897818837
 20
152.7699317437168
 10
152.4424752018226
 20
153.6256940267945
 10
153.9038856707499
 20
154.4507949398263
 10
155.4455669174378
 20
155.3044901642492
 10
156.339225275853
 20
155.3659851592288
 10
157.3748216618963
 20
155.2147453676543
 10
158.911679771723
 20
154.9877134254046
 10
159.8859534176746
 20
154.4390816074493
 10
160.3965169054045
 20
152.7816450760939
 10
160.9070803931344
 20
151.1219692311958
 10
160.6328506116007
 20
150.2303779314354
 10
159.9992971339115
 20
147.597634224801
 10
159.7105979417943
 20
146.4014962832367
 10
159.2947746424084
 20
144.9400858143094
 10
158.7463150793409
 20
143.2092687007094
 10
158.7463150793409
 20
143.2092687007094
 10
153.9038856707499
 20
127.8027915271048
 10
153.9038856707499
 20
127.8027915271048
 10
153.9038856707499
 20
127.8027915271048
 10
151.3882752878863
 20
127.8027915271048
 10
151.3882752878863
 20
127.8027915271048
 10
151.3882752878863
 20
127.8027915271048
 10
155.6250565106276
 20
141.2751908193897
 10
155.6250565106276
 20
141.2751908193897
 10
156.5094131050963
 20
144.0936252951782
 10
157.109893644309
 20
146.1506931664571
 10
157.4220195011804
 20
147.4415712963654
 10
157.8095929989511
 20
149.0530157726519
 10
157.9656559273867
 20
149.5826995529385
 10
157.7816877071116
 20
150.7529992613181
 10
157.6111553680925
 20
151.8430281919372
 10
157.0582171779396
 20
152.5547853887321
 10
156.1170164704645
 20
152.5547853887321
 10
155.1096698860365
 20
152.5547853887321
 10
154.2962823053817
 20
152.4412694176073
 10
153.156643967048
 20
151.2945686288697
 10
152.0170056287143
 20
150.1476955852443
 10
151.076149431015
 20
148.7930831468137
 10
150.3337308641742
 20
147.2290087646991
 10
149.5957909244188
 20
145.6683794803425
 10
148.8530278478023
 20
143.6822806228776
 10
148.0964843801539
 20
141.2751908193897
 10
148.0964843801539
 20
141.2751908193897
 10
143.8552245303272
 20
127.8027915271048
 10
143.8552245303272
 20
127.8027915271048
 10
143.8552245303272
 20
127.8027915271048
 10
141.486030802177
 20
127.8027915271048
 10
141.486030802177
 20
127.8027915271048
 10
141.486030802177
 20
127.8027915271048
 10
146.3329388378533
 20
143.2092687007094
 10
146.3329388378533
 20
143.2092687007094
 10
146.8483254624444
 20
144.8408669988801
 10
147.2314203331297
 20
146.1837661049335
 10
147.4867020769946
 20
147.224185627838
 10
147.9169947869641
 20
149.0197705792876
 10
148.0306830129768
 20
150.2400242051577
 10
147.709255392159
 20
151.3157559800812
 10
147.3874832615654
 20
152.3916600098926
 10
146.8245542879144
 20
152.6683013598569
 10
145.8840425999909
 20
152.6683013598569
 10
145.0989048209514
 20
152.6683013598569
 10
144.3282364524954
 20
152.3275811915945
 10
143.4531816219731
 20
151.6538923250251
 10
142.34627171234
 20
150.8074318058939
 10
141.901854101563
 20
150.1097995099067
 10
141.3578731655808
 20
149.289521733736
 10
140.6299240093235
 20
148.192602607601
 10
140.2850697237515
 20
147.455696197173
 10
139.6652966370942
 20
145.8385673095858
 10
139.0506911970739
 20
144.2214384219986
 10
138.463991048893
 20
142.3252566160164
 10
138.0571250036777
 20
141.0154304484394
 10
138.0571250036777
 20
141.0154304484394
 10
133.9009590684727
 20
127.8027915271048
 10
133.9009590684727
 20
127.8027915271048
 10
133.9009590684727
 20
127.8027915271048
 10
131.4180771143097
 20
127.8027915271048
 10
131.4180771143097
 20
127.8027915271048
 10
131.4180771143097
 20
127.8027915271048
 10
139.8926730891197
 20
154.8294111834263
 10
139.8926730891197
 20
154.8294111834263
 97
        0
 75
     2
 76
     1
 98
        0
  0
SPLINE
  5
6AA
330
6A2
100
AcDbEntity
  8
LOGO
370
     0
100
AcDbSpline
210
0.0
220
0.0
230
1.0
 70
    11
 71
     3
 72
    29
 73
    25
 74
     0
 42
0.000000001
 43
0.0000000001
 40
0.0
 40
0.0
 40
0.0
 40
0.0
 40
1.0
 40
1.0
 40
1.0
 40
2.0
 40
2.0
 40
2.0
 40
3.0
 40
3.0
 40
3.0
 40
4.0
 40
4.0
 40
4.0
 40
5.0
 40
5.0
 40
5.0
 40
6.0
 40
6.0
 40
6.0
 40
7.0
 40
7.0
 40
7.0
 40
8.0
 40
8.0
 40
8.0
 40
8.0
 10
101.6420971922469
 20
132.8388354296931
 30
0.0
 10
101.630039350094
 20
134.7164137077823
 30
0.0
 10
102.2236296937908
 20
138.0598810818841
 30
0.0
 10
103.7487744712405
 20
142.5378191476827
 30
0.0
 10
105.819967243327
 20
148.5896501242061
 30
0.0
 10
107.0602024361932
 20
150.8074318058939
 30
0.0
 10
108.1522984254671
 20
151.8833358357054
 30
0.0
 10
109.741177511439
 20
153.4532668840085
 30
0.0
 10
111.8740375333931
 20
153.5290590346837
 30
0.0
 10
112.5075910110823
 20
153.4532668840085
 30
0.0
 10
113.4012493694975
 20
153.3490526768302
 30
0.0
 10
114.6683563248758
 20
152.7580461564518
 30
0.0
 10
114.7493161221879
 20
150.7838328862519
 30
0.0
 10
114.8106388622796
 20
149.0909118479895
 30
0.0
 10
114.3186789024427
 20
145.9191825971221
 30
0.0
 10
112.6164561002338
 20
140.9489400617108
 30
0.0
 10
110.6444821435766
 20
135.1746117095912
 30
0.0
 10
109.4669477299053
 20
132.8960240524753
 30
0.0
 10
108.5212683953448
 20
131.9072809959403
 30
0.0
 10
106.7346406980658
 20
130.0538184021569
 30
0.0
 10
104.8222669326213
 20
130.2336525051225
 30
0.0
 10
104.5408024457958
 20
130.2336525051225
 30
0.0
 10
104.1721769856939
 20
130.2336525051225
 30
0.0
 10
101.6465758193322
 20
130.6305277668397
 30
0.0
 10
101.6420971922469
 20
132.8388354296931
 30
0.0
  0
SPLINE
  5
6AB
330
6A2
100
AcDbEntity
  8
LOGO
370
     0
100
AcDbSpline
210
0.0
220
0.0
230
1.0
 70
    11
 71
     3
 72
    32
 73
    28
 74
     0
 42
0.000000001
 43
0.0000000001
 40
0.0
 40
0.0
 40
0.0
 40
0.0
 40
1.0
 40
1.0
 40
1.0
 40
2.0
 40
2.0
 40
2.0
 40
3.0
 40
3.0
 40
3.0
 40
4.0
 40
4.0
 40
4.0
 40
5.0
 40
5.0
 40
5.0
 40
6.0
 40
6.0
 40
6.0
 40
7.0
 40
7.0
 40
7.0
 40
8.0
 40
8.0
 40
8.0
 40
9.0
 40
9.0
 40
9.0
 40
9.0
 10
106.2595617172429
 20
153.4105476718098
 30
0.0
 10
104.8222669326213
 20
151.5474388043041
 30
0.0
 10
103.7177685914188
 20
149.8758773721411
 30
0.0
 10
101.9232171692965
 20
144.6141795664062
 30
0.0
 10
100.2754269116635
 20
139.7999999594306
 30
0.0
 10
99.22777268346732
 20
136.3052927937542
 30
0.0
 10
99.06964269637689
 20
132.039572749846
 30
0.0
 10
98.94665270641765
 20
128.8673267343149
 30
0.0
 10
100.8807305877373
 20
127.8027915271048
 30
0.0
 10
103.7129454545577
 20
127.8027915271048
 30
0.0
 10
104.9352661390825
 20
127.8027915271048
 30
0.0
 10
108.0151835347002
 20
127.8827177950895
 30
0.0
 10
110.2045431598849
 20
130.5926316915021
 30
0.0
 10
111.7417457794874
 20
132.4984597712065
 30
0.0
 10
113.155269389579
 20
134.475256864725
 30
0.0
 10
115.0562743324223
 20
140.9489400617108
 30
0.0
 10
116.6361961642235
 20
146.3680788349845
 30
0.0
 10
117.7282921534974
 20
149.8639917848761
 30
0.0
 10
117.6480213757369
 20
151.8595646611754
 30
0.0
 10
117.6480213757369
 20
151.8595646611754
 30
0.0
 10
117.6480213757369
 20
151.8595646611754
 30
0.0
 10
117.6480213757369
 20
151.8595646611754
 30
0.0
 10
117.13229024137
 20
155.18150017429
 30
0.0
 10
114.7162431837115
 20
155.886194920681
 30
0.0
 10
113.3351034925446
 20
155.886194920681
 30
0.0
 10
111.9829026225447
 20
155.886194920681
 30
0.0
 10
108.3414342923792
 20
156.1251124501957
 30
0.0
 10
106.2595617172429
 20
153.4105476718098
 30
0.0
  0
HATCH
  5
6AC
330
6A2
100
AcDbEntity
  8
LOGO
 62
   250
420
  2234388
100
AcDbHatch
 10
0.0
 20
0.0
 30
0.0
210
0.0
220
0.0
230
1.0
  2
SOLID
 70
     1
 71
     0
 91
        2
 92
        1
 93
        1
 72
     4
 94
        3
 73
     0
 74
     1
 95
       29
 96
       25
 40
0.0
 40
0.0
 40
0.0
 40
0.0
 40
1.0
 40
1.0
 40
1.0
 40
2.0
 40
2.0
 40
2.0
 40
3.0
 40
3.0
 40
3.0
 40
4.0
 40
4.0
 40
4.0
 40
5.0
 40
5.0
 40
5.0
 40
6.0
 40
6.0
 40
6.0
 40
7.0
 40
7.0
 40
7.0
 40
8.0
 40
8.0
 40
8.0
 40
8.0
 10
101.6420971922469
 20
132.8388354296931
 10
101.630039350094
 20
134.7164137077823
 10
102.2236296937908
 20
138.0598810818841
 10
103.7487744712405
 20
142.5378191476827
 10
105.819967243327
 20
148.5896501242061
 10
107.0602024361932
 20
150.8074318058939
 10
108.1522984254671
 20
151.8833358357054
 10
109.741177511439
 20
153.4532668840085
 10
111.8740375333931
 20
153.5290590346837
 10
112.5075910110823
 20
153.4532668840085
 10
113.4012493694975
 20
153.3490526768302
 10
114.6683563248758
 20
152.7580461564518
 10
114.7493161221879
 20
150.7838328862519
 10
114.8106388622796
 20
149.0909118479895
 10
114.3186789024427
 20
145.9191825971221
 10
112.6164561002338
 20
140.9489400617108
 10
110.6444821435766
 20
135.1746117095912
 10
109.4669477299053
 20
132.8960240524753
 10
108.5212683953448
 20
131.9072809959403
 10
106.7346406980658
 20
130.0538184021569
 10
104.8222669326213
 20
130.2336525051225
 10
104.5408024457958
 20
130.2336525051225
 10
104.1721769856939
 20
130.2336525051225
 10
101.6465758193322
 20
130.6305277668397
 10
101.6420971922469
 20
132.8388354296931
 97
        0
 92
        1
 93
        1
 72
     4
 94
        3
 73
     0
 74
     1
 95
       32
 96
       28
 40
0.0
 40
0.0
 40
0.0
 40
0.0
 40
1.0
 40
1.0
 40
1.0
 40
2.0
 40
2.0
 40
2.0
 40
3.0
 40
3.0
 40
3.0
 40
4.0
 40
4.0
 40
4.0
 40
5.0
 40
5.0
 40
5.0
 40
6.0
 40
6.0
 40
6.0
 40
7.0
 40
7.0
 40
7.0
 40
8.0
 40
8.0
 40
8.0
 40
9.0
 40
9.0
 40
9.0
 40
9.0
 10
106.2595617172429
 20
153.4105476718098
 10
104.8222669326213
 20
151.5474388043041
 10
103.7177685914188
 20
149.8758773721411
 10
101.9232171692965
 20
144.6141795664062
 10
100.2754269116635
 20
139.7999999594306
 10
99.22777268346732
 20
136.3052927937542
 10
99.06964269637689
 20
132.039572749846
 10
98.94665270641765
 20
128.8673267343149
 10
100.8807305877373
 20
127.8027915271048
 10
103.7129454545577
 20
127.8027915271048
 10
104.9352661390825
 20
127.8027915271048
 10
108.0151835347002
 20
127.8827177950895
 10
110.2045431598849
 20
130.5926316915021
 10
111.7417457794874
 20
132.4984597712065
 10
113.155269389579
 20
134.475256864725
 10
115.0562743324223
 20
140.9489400617108
 10
116.6361961642235
 20
146.3680788349845
 10
117.7282921534974
 20
149.8639917848761
 10
117.6480213757369
 20
151.8595646611754
 10
117.6480213757369
 20
151.8595646611754
 10
117.6480213757369
 20
151.8595646611754
 10
117.6480213757369
 20
151.8595646611754
 10
117.13229024137
 20
155.18150017429
 10
114.7162431837115
 20
155.886194920681
 10
113.3351034925446
 20
155.886194920681
 10
111.9829026225447
 20
155.886194920681
 10
108.3414342923792
 20
156.1251124501957
 10
106.2595617172429
 20
153.4105476718098
 97
        0
 75
     2
 76
     1
 98
        0
  0
ENDBLK
  5
6AD
330
6A2
100
AcDbEntity
  8
0
100
AcDbBlockEnd
  0
BLOCK
  5
611E
330
611D
100
AcDbEntity
  8
0
100
AcDbBlockBegin
  2
*D6
 70
     1
 10
0.0
 20
0.0
 30
0.0
  3
*D6
  1
*D56
  0
LINE
  5
6120
330
611D
100
AcDbEntity
  8
DIM
 62
     0
370
    -2
100
AcDbLine
 10
-142.6138544829694
 20
185.8254269480883
 30
0.0
 11
-142.6138544829694
 21
177.5011453064008
 31
0.0
  0
LINE
  5
6121
330
611D
100
AcDbEntity
  8
DIM
 62
     0
370
    -2
100
AcDbLine
 10
-183.7140544829692
 20
203.9131922447858
 30
0.0
 11
-183.7140544829692
 21
177.5011453064008
 31
0.0
  0
LINE
  5
6122
330
611D
100
AcDbEntity
  8
DIM
 62
     0
370
    -2
100
AcDbLine
 10
-143.6138544829694
 20
177.5011453064008
 30
0.0
 11
-182.7140544829692
 21
177.5011453064008
 31
0.0
  0
INSERT
  5
6123
330
611D
100
AcDbEntity
  8
DIM
 62
     0
370
    -2
100
AcDbBlockReference
  2
_DOT
 10
-142.6138544829694
 20
177.5011453064008
 30
0.0
  0
INSERT
  5
6124
330
611D
100
AcDbEntity
  8
DIM
 62
     0
370
    -2
100
AcDbBlockReference
  2
_DOT
 10
-183.7140544829692
 20
177.5011453064008
 30
0.0
 50
180.0
  0
MTEXT
  5
6125
330
611D
100
AcDbEntity
  8
DIM
 62
     0
 48
0.05
100
AcDbMText
 10
-163.1638540329692
 20
185.0011453064008
 30
0.0
 40
5.0
 41
0.0
 46
0.0
 71
     5
 72
     1
  1
\A1;\A1;27- 41
  7
ＭＳ ゴシック
 73
     1
 44
1.0
  0
POINT
  5
6126
330
611D
100
AcDbEntity
  8
Defpoints
 62
     0
100
AcDbPoint
 10
-142.6138544829694
 20
190.8254269480883
 30
0.0
  0
POINT
  5
6127
330
611D
100
AcDbEntity
  8
Defpoints
 62
     0
100
AcDbPoint
 10
-183.7140544829692
 20
208.9131922447858
 30
0.0
  0
POINT
  5
6128
330
611D
100
AcDbEntity
  8
Defpoints
 62
     0
100
AcDbPoint
 10
-183.7140544829692
 20
177.5011453064008
 30
0.0
  0
ENDBLK
  5
611F
330
611D
100
AcDbEntity
  8
0
100
AcDbBlockEnd
  0
BLOCK
  5
612B
330
612A
100
AcDbEntity
  8
0
100
AcDbBlockBegin
  2
*D7
 70
     1
 10
0.0
 20
0.0
 30
0.0
  3
*D7
  1
*D57
  0
LINE
  5
612D
330
612A
100
AcDbEntity
  8
DIM
 62
     0
370
    -2
100
AcDbLine
 10
-326.4258256274778
 20
283.8437238593858
 30
0.0
 11
-365.8564465958779
 21
283.8437238593858
 31
0.0
  0
LINE
  5
612E
330
612A
100
AcDbEntity
  8
DIM
 62
     0
370
    -2
100
AcDbLine
 10
-324.3258256274779
 20
216.6437238593858
 30
0.0
 11
-365.8564465958779
 21
216.6437238593858
 31
0.0
  0
LINE
  5
612F
330
612A
100
AcDbEntity
  8
DIM
 62
     0
370
    -2
100
AcDbLine
 10
-365.8564465958779
 20
282.8437238593858
 30
0.0
 11
-365.8564465958779
 21
217.6437238593858
 31
0.0
  0
INSERT
  5
6130
330
612A
100
AcDbEntity
  8
DIM
 62
     0
370
    -2
100
AcDbBlockReference
  2
_DOT
 10
-365.8564465958779
 20
283.8437238593858
 30
0.0
 50
90.0
  0
INSERT
  5
6131
330
612A
100
AcDbEntity
  8
DIM
 62
     0
370
    -2
100
AcDbBlockReference
  2
_DOT
 10
-365.8564465958779
 20
216.6437238593858
 30
0.0
 50
270.0
  0
MTEXT
  5
6132
330
612A
100
AcDbEntity
  8
DIM
 62
     0
 48
0.05
100
AcDbMText
 10
-373.7614465958778
 20
250.2437250574858
 30
0.0
 40
5.0
 41
0.0
 46
0.0
 71
     5
 72
     1
  1
\A1;φ67
  7
ＭＳ ゴシック
 11
0.0
 21
1.0
 31
0.0
 73
     1
 44
1.0
  0
POINT
  5
6133
330
612A
100
AcDbEntity
  8
Defpoints
 62
     0
100
AcDbPoint
 10
-321.4258256274778
 20
283.8437238593858
 30
0.0
  0
POINT
  5
6134
330
612A
100
AcDbEntity
  8
Defpoints
 62
     0
100
AcDbPoint
 10
-319.3258256274779
 20
216.6437238593858
 30
0.0
  0
POINT
  5
6135
330
612A
100
AcDbEntity
  8
Defpoints
 62
     0
100
AcDbPoint
 10
-365.8564465958779
 20
216.6437238593858
 30
0.0
  0
ENDBLK
  5
612C
330
612A
100
AcDbEntity
  8
0
100
AcDbBlockEnd
  0
BLOCK
  5
6152
330
6151
100
AcDbEntity
  8
0
100
AcDbBlockBegin
  2
*D8
 70
     1
 10
0.0
 20
0.0
 30
0.0
  3
*D8
  1
*D60
  0
LINE
  5
6154
330
6151
100
AcDbEntity
  8
DIM
 62
     0
370
    -2
100
AcDbLine
 10
-183.7140544829692
 20
203.9131922447858
 30
0.0
 11
-183.7140544829692
 21
177.5011453064008
 31
0.0
  0
LINE
  5
6155
330
6151
100
AcDbEntity
  8
DIM
 62
     0
370
    -2
100
AcDbLine
 10
-192.6138544829693
 20
228.1985248441127
 30
0.0
 11
-192.6138544829693
 21
177.5011453064008
 31
0.0
  0
LINE
  5
6156
330
6151
100
AcDbEntity
  8
DIM
 62
     0
370
    -2
100
AcDbLine
 10
-192.6138544829693
 20
177.5011453064008
 30
0.0
 11
-220.1738544829693
 21
177.5011453064008
 31
0.0
  0
LINE
  5
6157
330
6151
100
AcDbEntity
  8
DIM
 62
     0
370
    -2
100
AcDbLine
 10
-184.7140544829692
 20
177.5011453064008
 30
0.0
 11
-191.6138544829693
 21
177.5011453064008
 31
0.0
  0
INSERT
  5
6158
330
6151
100
AcDbEntity
  8
DIM
 62
     0
370
    -2
100
AcDbBlockReference
  2
_DOT
 10
-183.7140544829692
 20
177.5011453064008
 30
0.0
  0
INSERT
  5
6159
330
6151
100
AcDbEntity
  8
DIM
 62
     0
370
    -2
100
AcDbBlockReference
  2
_DOT
 10
-192.6138544829693
 20
177.5011453064008
 30
0.0
 50
180.0
  0
MTEXT
  5
615A
330
6151
100
AcDbEntity
  8
DIM
 62
     0
 48
0.05
100
AcDbMText
 10
-207.3938544829693
 20
185.0011453064008
 30
0.0
 40
5.0
 41
0.0
 46
0.0
 71
     5
 72
     1
  1
\A1;\A1;23- 9
  7
ＭＳ ゴシック
 73
     1
 44
1.0
  0
POINT
  5
615B
330
6151
100
AcDbEntity
  8
Defpoints
 62
     0
100
AcDbPoint
 10
-183.7140544829692
 20
208.9131922447858
 30
0.0
  0
POINT
  5
615C
330
6151
100
AcDbEntity
  8
Defpoints
 62
     0
100
AcDbPoint
 10
-192.6138544829693
 20
233.1985248441127
 30
0.0
  0
POINT
  5
61BA
330
6151
100
AcDbEntity
  8
Defpoints
 62
     0
100
AcDbPoint
 10
-192.6138544829693
 20
177.5011453064008
 30
0.0
  0
ENDBLK
  5
6153
330
6151
100
AcDbEntity
  8
0
100
AcDbBlockEnd
  0
BLOCK
  5
6179
330
6178
100
AcDbEntity
  8
0
100
AcDbBlockBegin
  2
*D9
 70
     1
 10
0.0
 20
0.0
 30
0.0
  3
*D9
  1
*D61
  0
LINE
  5
617B
330
6178
100
AcDbEntity
  8
DIM
 62
     0
 48
0.05
370
    -2
100
AcDbLine
 10
-282.9359171827476
 20
454.7888712321388
 30
0.0
 11
-247.2330189541111
 21
454.7888712321388
 31
0.0
  0
LINE
  5
617C
330
6178
100
AcDbEntity
  8
DIM
 62
     0
 48
0.05
370
    -2
100
AcDbLine
 10
-312.1648793009322
 20
384.7888712321388
 30
0.0
 11
-247.2330189541111
 21
384.7888712321388
 31
0.0
  0
LINE
  5
617D
330
6178
100
AcDbEntity
  8
DIM
 62
     0
 48
0.05
370
    -2
100
AcDbLine
 10
-247.2330189541111
 20
453.7888712321388
 30
0.0
 11
-247.2330189541111
 21
385.7888712321388
 31
0.0
  0
INSERT
  5
617E
330
6178
100
AcDbEntity
  8
DIM
 62
     0
370
    -2
100
AcDbBlockReference
  2
_DOT
 10
-247.2330189541111
 20
454.7888712321388
 30
0.0
 50
90.0
  0
INSERT
  5
617F
330
6178
100
AcDbEntity
  8
DIM
 62
     0
370
    -2
100
AcDbBlockReference
  2
_DOT
 10
-247.2330189541111
 20
384.7888712321388
 30
0.0
 50
270.0
  0
MTEXT
  5
6180
330
6178
100
AcDbEntity
  8
DIM
 62
     0
 48
0.05
100
AcDbMText
 10
-254.7330189541111
 20
419.7888712321388
 30
0.0
 40
5.0
 41
0.0
 46
0.0
 71
     5
 72
     1
  1
\A1;70
  7
ＭＳ ゴシック
 11
0.0
 21
1.0
 31
0.0
 73
     1
 44
1.0
  0
POINT
  5
6181
330
6178
100
AcDbEntity
  8
Defpoints
 62
     0
100
AcDbPoint
 10
-287.9359171827476
 20
454.7888712321388
 30
0.0
  0
POINT
  5
6182
330
6178
100
AcDbEntity
  8
Defpoints
 62
     0
100
AcDbPoint
 10
-317.1648793009322
 20
384.7888712321388
 30
0.0
  0
POINT
  5
6183
330
6178
100
AcDbEntity
  8
Defpoints
 62
     0
100
AcDbPoint
 10
-247.2330189541111
 20
384.7888712321388
 30
0.0
  0
ENDBLK
  5
617A
330
6178
100
AcDbEntity
  8
0
100
AcDbBlockEnd
  0
BLOCK
  5
6422
330
6421
100
AcDbEntity
  8
0
100
AcDbBlockBegin
  2
*D10
 70
     1
 10
0.0
 20
0.0
 30
0.0
  3
*D10
  1
*D64
  0
LINE
  5
6424
330
6421
100
AcDbEntity
  8
DIM
 62
     0
370
    -2
100
AcDbLine
 10
123.9923883783615
 20
271.6181252601154
 30
0.0
 11
76.65676740996147
 21
271.6181252601154
 31
0.0
  0
LINE
  5
6425
330
6421
100
AcDbEntity
  8
DIM
 62
     0
370
    -2
100
AcDbLine
 10
123.9923883783615
 20
201.6181252601154
 30
0.0
 11
76.65676740996147
 21
201.6181252601154
 31
0.0
  0
LINE
  5
6426
330
6421
100
AcDbEntity
  8
DIM
 62
     0
370
    -2
100
AcDbLine
 10
76.65676740996147
 20
270.6181252601154
 30
0.0
 11
76.65676740996147
 21
202.6181252601154
 31
0.0
  0
INSERT
  5
6427
330
6421
100
AcDbEntity
  8
DIM
 62
     0
370
    -2
100
AcDbBlockReference
  2
_DOT
 10
76.65676740996147
 20
271.6181252601154
 30
0.0
 50
90.0
  0
INSERT
  5
6428
330
6421
100
AcDbEntity
  8
DIM
 62
     0
370
    -2
100
AcDbBlockReference
  2
_DOT
 10
76.65676740996147
 20
201.6181252601154
 30
0.0
 50
270.0
  0
MTEXT
  5
6429
330
6421
100
AcDbEntity
  8
DIM
 62
     0
 48
0.05
100
AcDbMText
 10
68.75176740996147
 20
236.6181252601154
 30
0.0
 40
5.0
 41
0.0
 46
0.0
 71
     5
 72
     1
  1
\A1;φ70
  7
ＭＳ ゴシック
 11
0.0
 21
1.0
 31
0.0
 73
     1
 44
1.0
  0
POINT
  5
642A
330
6421
100
AcDbEntity
  8
Defpoints
 62
     0
100
AcDbPoint
 10
128.9923883783615
 20
271.6181252601154
 30
0.0
  0
POINT
  5
642B
330
6421
100
AcDbEntity
  8
Defpoints
 62
     0
100
AcDbPoint
 10
128.9923883783615
 20
201.6181252601154
 30
0.0
  0
POINT
  5
642C
330
6421
100
AcDbEntity
  8
Defpoints
 62
     0
100
AcDbPoint
 10
76.65676740996147
 20
201.6181252601154
 30
0.0
  0
ENDBLK
  5
6423
330
6421
100
AcDbEntity
  8
0
100
AcDbBlockEnd
  0
BLOCK
  5
646A
330
6469
100
AcDbEntity
  8
0
100
AcDbBlockBegin
  2
*D11
 70
     1
 10
0.0
 20
0.0
 30
0.0
  3
*D11
  1
*D66
  0
LINE
  5
646C
330
6469
100
AcDbEntity
  8
DIM
 62
     0
 48
0.05
370
    -2
100
AcDbLine
 10
278.774097872581
 20
177.7648753581602
 30
0.0
 11
278.774097872581
 21
167.1514578672195
 31
0.0
  0
LINE
  5
646D
330
6469
100
AcDbEntity
  8
DIM
 62
     0
 48
0.05
370
    -2
100
AcDbLine
 10
249.2740978725808
 20
196.6181252601154
 30
0.0
 11
249.2740978725808
 21
167.1514578672195
 31
0.0
  0
LINE
  5
646E
330
6469
100
AcDbEntity
  8
DIM
 62
     0
 48
0.05
370
    -2
100
AcDbLine
 10
277.774097872581
 20
167.1514578672195
 30
0.0
 11
250.2740978725808
 21
167.1514578672195
 31
0.0
  0
INSERT
  5
646F
330
6469
100
AcDbEntity
  8
DIM
 62
     0
370
    -2
100
AcDbBlockReference
  2
_DOT
 10
278.774097872581
 20
167.1514578672195
 30
0.0
  0
INSERT
  5
6470
330
6469
100
AcDbEntity
  8
DIM
 62
     0
370
    -2
100
AcDbBlockReference
  2
_DOT
 10
249.2740978725808
 20
167.1514578672195
 30
0.0
 50
180.0
  0
MTEXT
  5
6471
330
6469
100
AcDbEntity
  8
DIM
 62
     0
 48
0.05
100
AcDbMText
 10
264.0240978725809
 20
174.6514578672195
 30
0.0
 40
5.0
 41
0.0
 46
0.0
 71
     5
 72
     1
  1
\A1;30-40
  7
ＭＳ ゴシック
 73
     1
 44
1.0
  0
POINT
  5
6472
330
6469
100
AcDbEntity
  8
Defpoints
 62
     0
100
AcDbPoint
 10
278.774097872581
 20
182.7648753581602
 30
0.0
  0
POINT
  5
6473
330
6469
100
AcDbEntity
  8
Defpoints
 62
     0
100
AcDbPoint
 10
249.2740978725808
 20
201.6181252601154
 30
0.0
  0
POINT
  5
6474
330
6469
100
AcDbEntity
  8
Defpoints
 62
     0
100
AcDbPoint
 10
249.2740978725808
 20
167.1514578672195
 30
0.0
  0
ENDBLK
  5
646B
330
6469
100
AcDbEntity
  8
0
100
AcDbBlockEnd
  0
BLOCK
  5
6479
330
6478
100
AcDbEntity
  8
0
100
AcDbBlockBegin
  2
*D12
 70
     1
 10
0.0
 20
0.0
 30
0.0
  3
*D12
  1
*D67
  0
LINE
  5
647B
330
6478
100
AcDbEntity
  8
DIM
 62
     0
 48
0.05
370
    -2
100
AcDbLine
 10
278.774097872581
 20
177.7648753581602
 30
0.0
 11
278.774097872581
 21
167.1514578672195
 31
0.0
  0
LINE
  5
647C
330
6478
100
AcDbEntity
  8
DIM
 62
     0
 48
0.05
370
    -2
100
AcDbLine
 10
333.7740978725808
 20
218.1450377470992
 30
0.0
 11
333.7740978725808
 21
167.1514578672195
 31
0.0
  0
LINE
  5
647D
330
6478
100
AcDbEntity
  8
DIM
 62
     0
 48
0.05
370
    -2
100
AcDbLine
 10
279.774097872581
 20
167.1514578672195
 30
0.0
 11
332.7740978725808
 21
167.1514578672195
 31
0.0
  0
INSERT
  5
647E
330
6478
100
AcDbEntity
  8
DIM
 62
     0
370
    -2
100
AcDbBlockReference
  2
_DOT
 10
278.774097872581
 20
167.1514578672195
 30
0.0
 50
180.0
  0
INSERT
  5
647F
330
6478
100
AcDbEntity
  8
DIM
 62
     0
370
    -2
100
AcDbBlockReference
  2
_DOT
 10
333.7740978725808
 20
167.1514578672195
 30
0.0
  0
MTEXT
  5
6480
330
6478
100
AcDbEntity
  8
DIM
 62
     0
 48
0.05
100
AcDbMText
 10
306.2740978725809
 20
174.6514578672195
 30
0.0
 40
5.0
 41
0.0
 46
0.0
 71
     5
 72
     1
  1
\A1;55
  7
ＭＳ ゴシック
 73
     1
 44
1.0
  0
POINT
  5
6481
330
6478
100
AcDbEntity
  8
Defpoints
 62
     0
100
AcDbPoint
 10
278.774097872581
 20
182.7648753581602
 30
0.0
  0
POINT
  5
6482
330
6478
100
AcDbEntity
  8
Defpoints
 62
     0
100
AcDbPoint
 10
333.7740978725808
 20
223.1450377470992
 30
0.0
  0
POINT
  5
6483
330
6478
100
AcDbEntity
  8
Defpoints
 62
     0
100
AcDbPoint
 10
333.7740978725808
 20
167.1514578672195
 30
0.0
  0
ENDBLK
  5
647A
330
6478
100
AcDbEntity
  8
0
100
AcDbBlockEnd
  0
BLOCK
  5
6486
330
6485
100
AcDbEntity
  8
0
100
AcDbBlockBegin
  2
*D13
 70
     1
 10
0.0
 20
0.0
 30
0.0
  3
*D13
  1
*D68
  0
LINE
  5
6488
330
6485
100
AcDbEntity
  8
DIM
 62
     0
 48
0.05
370
    -2
100
AcDbLine
 10
174.3717622511939
 20
447.040524104046
 30
0.0
 11
204.9977862006975
 21
447.040524104046
 31
0.0
  0
LINE
  5
6489
330
6485
100
AcDbEntity
  8
DIM
 62
     0
 48
0.05
370
    -2
100
AcDbLine
 10
152.1217622511939
 20
382.0405241040461
 30
0.0
 11
204.9977862006975
 21
382.0405241040461
 31
0.0
  0
LINE
  5
648A
330
6485
100
AcDbEntity
  8
DIM
 62
     0
 48
0.05
370
    -2
100
AcDbLine
 10
204.9977862006975
 20
446.040524104046
 30
0.0
 11
204.9977862006975
 21
383.0405241040461
 31
0.0
  0
INSERT
  5
648B
330
6485
100
AcDbEntity
  8
DIM
 62
     0
370
    -2
100
AcDbBlockReference
  2
_DOT
 10
204.9977862006975
 20
447.040524104046
 30
0.0
 50
90.0
  0
INSERT
  5
648C
330
6485
100
AcDbEntity
  8
DIM
 62
     0
370
    -2
100
AcDbBlockReference
  2
_DOT
 10
204.9977862006975
 20
382.0405241040461
 30
0.0
 50
270.0
  0
MTEXT
  5
648D
330
6485
100
AcDbEntity
  8
DIM
 62
     0
 48
0.05
100
AcDbMText
 10
197.4977862006975
 20
414.5405241040461
 30
0.0
 40
5.0
 41
0.0
 46
0.0
 71
     5
 72
     1
  1
\A1;65
  7
ＭＳ ゴシック
 11
0.0
 21
1.0
 31
0.0
 73
     1
 44
1.0
  0
POINT
  5
648E
330
6485
100
AcDbEntity
  8
Defpoints
 62
     0
100
AcDbPoint
 10
169.3717622511939
 20
447.040524104046
 30
0.0
  0
POINT
  5
648F
330
6485
100
AcDbEntity
  8
Defpoints
 62
     0
100
AcDbPoint
 10
147.1217622511939
 20
382.0405241040461
 30
0.0
  0
POINT
  5
6490
330
6485
100
AcDbEntity
  8
Defpoints
 62
     0
100
AcDbPoint
 10
204.9977862006975
 20
382.0405241040461
 30
0.0
  0
ENDBLK
  5
6487
330
6485
100
AcDbEntity
  8
0
100
AcDbBlockEnd
  0
BLOCK
  5
6498
330
6497
100
AcDbEntity
  8
0
100
AcDbBlockBegin
  2
*D14
 70
     1
 10
0.0
 20
0.0
 30
0.0
  3
*D14
  1
*D69
  0
LINE
  5
649A
330
6497
100
AcDbEntity
  8
DIM
 62
     0
 48
0.05
370
    -2
100
AcDbLine
 10
112.1217622512001
 20
359.5405290956878
 30
0.0
 11
112.1217622512001
 21
337.724553638669
 31
0.0
  0
LINE
  5
649B
330
6497
100
AcDbEntity
  8
DIM
 62
     0
 48
0.05
370
    -2
100
AcDbLine
 10
156.6217622511939
 20
359.5405239644198
 30
0.0
 11
156.6217622511939
 21
337.724553638669
 31
0.0
  0
LINE
  5
649C
330
6497
100
AcDbEntity
  8
DIM
 62
     0
 48
0.05
370
    -2
100
AcDbLine
 10
113.1217622512001
 20
337.724553638669
 30
0.0
 11
155.6217622511939
 21
337.724553638669
 31
0.0
  0
INSERT
  5
649D
330
6497
100
AcDbEntity
  8
DIM
 62
     0
370
    -2
100
AcDbBlockReference
  2
_DOT
 10
112.1217622512001
 20
337.724553638669
 30
0.0
 50
180.0
  0
INSERT
  5
649E
330
6497
100
AcDbEntity
  8
DIM
 62
     0
370
    -2
100
AcDbBlockReference
  2
_DOT
 10
156.6217622511939
 20
337.724553638669
 30
0.0
  0
MTEXT
  5
649F
330
6497
100
AcDbEntity
  8
DIM
 62
     0
 48
0.05
100
AcDbMText
 10
134.371762251197
 20
345.224553638669
 30
0.0
 40
5.0
 41
0.0
 46
0.0
 71
     5
 72
     1
  1
\A1;45
  7
ＭＳ ゴシック
 73
     1
 44
1.0
  0
POINT
  5
64A0
330
6497
100
AcDbEntity
  8
Defpoints
 62
     0
100
AcDbPoint
 10
112.1217622512001
 20
364.5405290956878
 30
0.0
  0
POINT
  5
64A1
330
6497
100
AcDbEntity
  8
Defpoints
 62
     0
100
AcDbPoint
 10
156.6217622511939
 20
364.5405239644198
 30
0.0
  0
POINT
  5
64A2
330
6497
100
AcDbEntity
  8
Defpoints
 62
     0
100
AcDbPoint
 10
156.6217622511939
 20
337.724553638669
 30
0.0
  0
ENDBLK
  5
6499
330
6497
100
AcDbEntity
  8
0
100
AcDbBlockEnd
  0
BLOCK
  5
64E2
330
64E1
100
AcDbEntity
  8
0
100
AcDbBlockBegin
  2
*D15
 70
     1
 10
0.0
 20
0.0
 30
0.0
  3
*D15
  1
*D71
  0
LINE
  5
64E4
330
64E1
100
AcDbEntity
  8
DIM
 62
     0
 48
0.05
370
    -2
100
AcDbLine
 10
249.2740978725808
 20
196.6181252601154
 30
0.0
 11
249.2740978725808
 21
167.1514578672195
 31
0.0
  0
LINE
  5
64E5
330
64E1
100
AcDbEntity
  8
DIM
 62
     0
 48
0.05
370
    -2
100
AcDbLine
 10
228.7740978725808
 20
217.3025252601155
 30
0.0
 11
228.7740978725808
 21
167.1514578672195
 31
0.0
  0
LINE
  5
64E6
330
64E1
100
AcDbEntity
  8
DIM
 62
     0
 48
0.05
370
    -2
100
AcDbLine
 10
248.2740978725808
 20
167.1514578672195
 30
0.0
 11
229.7740978725808
 21
167.1514578672195
 31
0.0
  0
INSERT
  5
64E7
330
64E1
100
AcDbEntity
  8
DIM
 62
     0
370
    -2
100
AcDbBlockReference
  2
_DOT
 10
249.2740978725808
 20
167.1514578672195
 30
0.0
  0
INSERT
  5
64E8
330
64E1
100
AcDbEntity
  8
DIM
 62
     0
370
    -2
100
AcDbBlockReference
  2
_DOT
 10
228.7740978725808
 20
167.1514578672195
 30
0.0
 50
180.0
  0
MTEXT
  5
64E9
330
64E1
100
AcDbEntity
  8
DIM
 62
     0
 48
0.05
100
AcDbMText
 10
238.7740978725808
 20
174.6514578672195
 30
0.0
 40
5.0
 41
0.0
 46
0.0
 71
     5
 72
     1
  1
\A1;10-20
  7
ＭＳ ゴシック
 73
     1
 44
1.0
  0
POINT
  5
64EA
330
64E1
100
AcDbEntity
  8
Defpoints
 62
     0
100
AcDbPoint
 10
249.2740978725808
 20
201.6181252601154
 30
0.0
  0
POINT
  5
64EB
330
64E1
100
AcDbEntity
  8
Defpoints
 62
     0
100
AcDbPoint
 10
228.7740978725808
 20
222.3025252601155
 30
0.0
  0
POINT
  5
64EC
330
64E1
100
AcDbEntity
  8
Defpoints
 62
     0
100
AcDbPoint
 10
228.7740978725808
 20
167.1514578672195
 30
0.0
  0
ENDBLK
  5
64E3
330
64E1
100
AcDbEntity
  8
0
100
AcDbBlockEnd
  0
BLOCK
  5
64F3
330
64F2
100
AcDbEntity
  8
0
100
AcDbBlockBegin
  2
*D16
 70
     1
 10
0.0
 20
0.0
 30
0.0
  3
*D16
  1
*D72
  0
LINE
  5
64F5
330
64F2
100
AcDbEntity
  8
DIM
 62
     0
 48
0.05
370
    -2
100
AcDbLine
 10
174.3717622511939
 20
236.6181252601154
 30
0.0
 11
183.5640678043411
 21
236.6181252601154
 31
0.0
  0
LINE
  5
64F6
330
64F2
100
AcDbEntity
  8
DIM
 62
     0
 48
0.05
370
    -2
100
AcDbLine
 10
139.3717622511939
 20
231.6181252601154
 30
0.0
 11
183.5640678043411
 21
231.6181252601154
 31
0.0
  0
LINE
  5
64F7
330
64F2
100
AcDbEntity
  8
DIM
 62
     0
 48
0.05
370
    -2
100
AcDbLine
 10
183.5640678043411
 20
235.6181252601154
 30
0.0
 11
183.5640678043411
 21
232.6181252601154
 31
0.0
  0
INSERT
  5
64F8
330
64F2
100
AcDbEntity
  8
DIM
 62
     0
370
    -2
100
AcDbBlockReference
  2
_DOT
 10
183.5640678043411
 20
236.6181252601154
 30
0.0
 50
90.0
  0
INSERT
  5
64F9
330
64F2
100
AcDbEntity
  8
DIM
 62
     0
370
    -2
100
AcDbBlockReference
  2
_DOT
 10
183.5640678043411
 20
231.6181252601154
 30
0.0
 50
270.0
  0
MTEXT
  5
64FA
330
64F2
100
AcDbEntity
  8
DIM
 62
     0
 48
0.05
100
AcDbMText
 10
176.0640678043411
 20
234.1181252601154
 30
0.0
 40
5.0
 41
0.0
 46
0.0
 71
     5
 72
     1
  1
\A1;5
  7
ＭＳ ゴシック
 11
0.0
 21
1.0
 31
0.0
 73
     1
 44
1.0
  0
POINT
  5
64FB
330
64F2
100
AcDbEntity
  8
Defpoints
 62
     0
100
AcDbPoint
 10
169.3717622511939
 20
236.6181252601154
 30
0.0
  0
POINT
  5
64FC
330
64F2
100
AcDbEntity
  8
Defpoints
 62
     0
100
AcDbPoint
 10
134.3717622511939
 20
231.6181252601154
 30
0.0
  0
POINT
  5
64FD
330
64F2
100
AcDbEntity
  8
Defpoints
 62
     0
100
AcDbPoint
 10
183.5640678043411
 20
231.6181252601154
 30
0.0
  0
ENDBLK
  5
64F4
330
64F2
100
AcDbEntity
  8
0
100
AcDbBlockEnd
  0
BLOCK
  5
65B2
330
65B1
100
AcDbEntity
  8
0
100
AcDbBlockBegin
  2
*D19
 70
     1
 10
0.0
 20
0.0
 30
0.0
  3
*D19
  1
*D19
  0
LINE
  5
65B4
330
65B1
100
AcDbEntity
  8
DIM
 62
     0
 48
0.05
370
    -2
100
AcDbLine
 10
174.3717622511939
 20
447.040524104046
 30
0.0
 11
190.8821473016498
 21
447.040524104046
 31
0.0
  0
LINE
  5
65B5
330
65B1
100
AcDbEntity
  8
DIM
 62
     0
 48
0.05
370
    -2
100
AcDbLine
 10
139.3932560438501
 20
383.040524104046
 30
0.0
 11
190.8821473016498
 21
383.040524104046
 31
0.0
  0
LINE
  5
65B6
330
65B1
100
AcDbEntity
  8
DIM
 62
     0
 48
0.05
370
    -2
100
AcDbLine
 10
190.8821473016498
 20
446.040524104046
 30
0.0
 11
190.8821473016498
 21
384.040524104046
 31
0.0
  0
INSERT
  5
65B7
330
65B1
100
AcDbEntity
  8
DIM
 62
     0
370
    -2
100
AcDbBlockReference
  2
_DOT
 10
190.8821473016498
 20
447.040524104046
 30
0.0
 50
90.0
  0
INSERT
  5
65B8
330
65B1
100
AcDbEntity
  8
DIM
 62
     0
370
    -2
100
AcDbBlockReference
  2
_DOT
 10
190.8821473016498
 20
383.040524104046
 30
0.0
 50
270.0
  0
MTEXT
  5
65B9
330
65B1
100
AcDbEntity
  8
DIM
 62
     0
 48
0.05
100
AcDbMText
 10
183.3821473016498
 20
415.040524104046
 30
0.0
 40
5.0
 41
0.0
 46
0.0
 71
     5
 72
     1
  1
\A1;64
  7
ＭＳ ゴシック
 11
0.0
 21
1.0
 31
0.0
 73
     1
 44
1.0
  0
POINT
  5
65BA
330
65B1
100
AcDbEntity
  8
Defpoints
 62
     0
100
AcDbPoint
 10
169.3717622511939
 20
447.040524104046
 30
0.0
  0
POINT
  5
65BB
330
65B1
100
AcDbEntity
  8
Defpoints
 62
     0
100
AcDbPoint
 10
134.3932560438501
 20
383.040524104046
 30
0.0
  0
POINT
  5
65BC
330
65B1
100
AcDbEntity
  8
Defpoints
 62
     0
100
AcDbPoint
 10
190.8821473016498
 20
383.040524104046
 30
0.0
  0
ENDBLK
  5
65B3
330
65B1
100
AcDbEntity
  8
0
100
AcDbBlockEnd
  0
BLOCK
  5
65C7
330
65C6
100
AcDbEntity
  8
0
100
AcDbBlockBegin
  2
*D20
 70
     1
 10
0.0
 20
0.0
 30
0.0
  3
*D20
  1
*D20
  0
LINE
  5
65C9
330
65C6
100
AcDbEntity
  8
DIM
 62
     0
 48
0.05
370
    -2
100
AcDbLine
 10
249.2740978725808
 20
196.6181252601154
 30
0.0
 11
249.2740978725808
 21
166.569448315202
 31
0.0
  0
LINE
  5
65CA
330
65C6
100
AcDbEntity
  8
DIM
 62
     0
 48
0.05
370
    -2
100
AcDbLine
 10
278.774097872581
 20
178.5614276374011
 30
0.0
 11
278.774097872581
 21
166.569448315202
 31
0.0
  0
LINE
  5
65CB
330
65C6
100
AcDbEntity
  8
DIM
 62
     0
 48
0.05
370
    -2
100
AcDbLine
 10
250.2740978725808
 20
166.569448315202
 30
0.0
 11
277.774097872581
 21
166.569448315202
 31
0.0
  0
INSERT
  5
65CC
330
65C6
100
AcDbEntity
  8
DIM
 62
     0
370
    -2
100
AcDbBlockReference
  2
_DOT
 10
249.2740978725808
 20
166.569448315202
 30
0.0
 50
180.0
  0
INSERT
  5
65CD
330
65C6
100
AcDbEntity
  8
DIM
 62
     0
370
    -2
100
AcDbBlockReference
  2
_DOT
 10
278.774097872581
 20
166.569448315202
 30
0.0
  0
MTEXT
  5
65CE
330
65C6
100
AcDbEntity
  8
DIM
 62
     0
 48
0.05
100
AcDbMText
 10
264.0240978725809
 20
174.069448315202
 30
0.0
 40
5.0
 41
0.0
 46
0.0
 71
     5
 72
     1
  1
\A1;27-41
  7
ＭＳ ゴシック
 73
     1
 44
1.0
  0
POINT
  5
65CF
330
65C6
100
AcDbEntity
  8
Defpoints
 62
     0
100
AcDbPoint
 10
249.2740978725808
 20
201.6181252601154
 30
0.0
  0
POINT
  5
65D0
330
65C6
100
AcDbEntity
  8
Defpoints
 62
     0
100
AcDbPoint
 10
278.774097872581
 20
183.5614276374011
 30
0.0
  0
POINT
  5
65D1
330
65C6
100
AcDbEntity
  8
Defpoints
 62
     0
100
AcDbPoint
 10
278.774097872581
 20
166.569448315202
 30
0.0
  0
ENDBLK
  5
65C8
330
65C6
100
AcDbEntity
  8
0
100
AcDbBlockEnd
  0
BLOCK
  5
6660
330
665F
100
AcDbEntity
  8
0
100
AcDbBlockBegin
  2
*D23
 70
     1
 10
0.0
 20
0.0
 30
0.0
  3
*D23
  1
*D56
  0
LINE
  5
6661
330
665F
100
AcDbEntity
  8
DIM
 62
     0
370
    -2
100
AcDbLine
 10
52.2928576978465
 20
8.82428164168752
 30
0.0
 11
52.2928576978465
 21
0.5
 31
0.0
  0
LINE
  5
6662
330
665F
100
AcDbEntity
  8
DIM
 62
     0
370
    -2
100
AcDbLine
 10
11.1926576978467
 20
26.912046938385
 30
0.0
 11
11.1926576978467
 21
0.5
 31
0.0
  0
LINE
  5
6663
330
665F
100
AcDbEntity
  8
DIM
 62
     0
370
    -2
100
AcDbLine
 10
51.2928576978465
 20
0.5
 30
0.0
 11
12.1926576978467
 21
0.5
 31
0.0
  0
INSERT
  5
6664
330
665F
100
AcDbEntity
  8
DIM
 62
     0
370
    -2
100
AcDbBlockReference
  2
_DOT
 10
52.2928576978465
 20
0.5
 30
0.0
  0
INSERT
  5
6665
330
665F
100
AcDbEntity
  8
DIM
 62
     0
370
    -2
100
AcDbBlockReference
  2
_DOT
 10
11.1926576978467
 20
0.5
 30
0.0
 50
180.0
  0
MTEXT
  5
6666
330
665F
100
AcDbEntity
  8
DIM
 62
     0
 48
0.05
100
AcDbMText
 10
31.74285814784668
 20
8.0
 30
0.0
 40
5.0
 41
0.0
 46
0.0
 71
     5
 72
     1
  1
\A1;\A1;27- 41
  7
ＭＳ ゴシック
 73
     1
 44
1.0
  0
POINT
  5
6667
330
665F
100
AcDbEntity
  8
Defpoints
 62
     0
100
AcDbPoint
 10
52.2928576978465
 20
13.82428164168752
 30
0.0
  0
POINT
  5
6668
330
665F
100
AcDbEntity
  8
Defpoints
 62
     0
100
AcDbPoint
 10
11.1926576978467
 20
31.912046938385
 30
0.0
  0
POINT
  5
6669
330
665F
100
AcDbEntity
  8
Defpoints
 62
     0
100
AcDbPoint
 10
11.1926576978467
 20
0.5
 30
0.0
  0
ENDBLK
  5
666A
330
665F
100
AcDbEntity
  8
0
100
AcDbBlockEnd
  0
BLOCK
  5
6689
330
6688
100
AcDbEntity
  8
0
100
AcDbBlockBegin
  2
*D24
 70
     1
 10
0.0
 20
0.0
 30
0.0
  3
*D24
  1
*D24
  0
LINE
  5
668B
330
6688
100
AcDbEntity
  8
DIM
 62
     0
370
    -2
100
AcDbLine
 10
243.2007056384111
 20
107.2461663608553
 30
0.0
 11
243.2007056384111
 21
98.92188471916774
 31
0.0
  0
LINE
  5
668C
330
6688
100
AcDbEntity
  8
DIM
 62
     0
370
    -2
100
AcDbLine
 10
202.1005056384113
 20
125.3339316575527
 30
0.0
 11
202.1005056384113
 21
98.92188471916774
 31
0.0
  0
LINE
  5
668D
330
6688
100
AcDbEntity
  8
DIM
 62
     0
370
    -2
100
AcDbLine
 10
242.2007056384111
 20
98.92188471916774
 30
0.0
 11
203.1005056384113
 21
98.92188471916774
 31
0.0
  0
INSERT
  5
668E
330
6688
100
AcDbEntity
  8
DIM
 62
     0
370
    -2
100
AcDbBlockReference
  2
_DOT
 10
243.2007056384111
 20
98.92188471916774
 30
0.0
  0
INSERT
  5
668F
330
6688
100
AcDbEntity
  8
DIM
 62
     0
370
    -2
100
AcDbBlockReference
  2
_DOT
 10
202.1005056384113
 20
98.92188471916774
 30
0.0
 50
180.0
  0
MTEXT
  5
6690
330
6688
100
AcDbEntity
  8
DIM
 62
     0
 48
0.05
100
AcDbMText
 10
222.6507060884113
 20
106.4218847191677
 30
0.0
 40
5.0
 41
0.0
 46
0.0
 71
     5
 72
     1
  1
\A1;\A1;27- 41
  7
ＭＳ ゴシック
 73
     1
 44
1.0
  0
POINT
  5
6691
330
6688
100
AcDbEntity
  8
Defpoints
 62
     0
100
AcDbPoint
 10
243.2007056384111
 20
112.2461663608553
 30
0.0
  0
POINT
  5
6692
330
6688
100
AcDbEntity
  8
Defpoints
 62
     0
100
AcDbPoint
 10
202.1005056384113
 20
130.3339316575527
 30
0.0
  0
POINT
  5
6693
330
6688
100
AcDbEntity
  8
Defpoints
 62
     0
100
AcDbPoint
 10
202.1005056384113
 20
98.92188471916774
 30
0.0
  0
ENDBLK
  5
668A
330
6688
100
AcDbEntity
  8
0
100
AcDbBlockEnd
  0
BLOCK
  5
6696
330
6695
100
AcDbEntity
  8
0
100
AcDbBlockBegin
  2
*D25
 70
     1
 10
0.0
 20
0.0
 30
0.0
  3
*D25
  1
*D25
  0
LINE
  5
6698
330
6695
100
AcDbEntity
  8
DIM
 62
     0
 48
0.05
370
    -2
100
AcDbLine
 10
249.2740978725808
 20
282.9486568747154
 30
0.0
 11
249.2740978725808
 21
292.8612617435255
 31
0.0
  0
LINE
  5
6699
330
6695
100
AcDbEntity
  8
DIM
 62
     0
 48
0.05
370
    -2
100
AcDbLine
 10
313.2740978725808
 20
266.6494973910919
 30
0.0
 11
313.2740978725808
 21
292.8612617435255
 31
0.0
  0
LINE
  5
669A
330
6695
100
AcDbEntity
  8
DIM
 62
     0
 48
0.05
370
    -2
100
AcDbLine
 10
250.2740978725808
 20
292.8612617435255
 30
0.0
 11
312.2740978725808
 21
292.8612617435255
 31
0.0
  0
INSERT
  5
669B
330
6695
100
AcDbEntity
  8
DIM
 62
     0
370
    -2
100
AcDbBlockReference
  2
_DOT
 10
249.2740978725808
 20
292.8612617435255
 30
0.0
 50
180.0
  0
INSERT
  5
669C
330
6695
100
AcDbEntity
  8
DIM
 62
     0
370
    -2
100
AcDbBlockReference
  2
_DOT
 10
313.2740978725808
 20
292.8612617435255
 30
0.0
  0
MTEXT
  5
669D
330
6695
100
AcDbEntity
  8
DIM
 62
     0
 48
0.05
100
AcDbMText
 10
281.2740978725808
 20
300.3612617435255
 30
0.0
 40
5.0
 41
0.0
 46
0.0
 71
     5
 72
     1
  1
\A1;64
  7
ＭＳ ゴシック
 73
     1
 44
1.0
  0
POINT
  5
669E
330
6695
100
AcDbEntity
  8
Defpoints
 62
     0
100
AcDbPoint
 10
249.2740978725808
 20
277.9486568747154
 30
0.0
  0
POINT
  5
669F
330
6695
100
AcDbEntity
  8
Defpoints
 62
     0
100
AcDbPoint
 10
313.2740978725808
 20
261.6494973910919
 30
0.0
  0
POINT
  5
66A0
330
6695
100
AcDbEntity
  8
Defpoints
 62
     0
100
AcDbPoint
 10
313.2740978725808
 20
292.8612617435255
 30
0.0
  0
ENDBLK
  5
6697
330
6695
100
AcDbEntity
  8
0
100
AcDbBlockEnd
  0
ENDSEC
  0
SECTION
  2
ENTITIES
  0
MTEXT
  5
177
330
A
100
AcDbEntity
  8
TEMPLATE
390
1D
100
AcDbMText
 10
15.84042890954615
 20
68.74635032628565
 30
0.0
 40
3.257682291666665
 41
0.0
 46
0.0
 71
     1
 72
     1
  1
品名
  7
ＭＳ ゴシック
 73
     1
 44
0.7828267384257843
  0
MTEXT
  5
178
330
A
100
AcDbEntity
  8
TEMPLATE
390
1D
100
AcDbMText
 10
15.84042890954615
 20
51.7463503262856
 30
0.0
 40
3.257682291666665
 41
0.0
 46
0.0
 71
     1
 72
     1
  1
仕様
  7
ＭＳ ゴシック
 73
     1
 44
0.7828267384257843
  0
LINE
  5
179
330
A
100
AcDbEntity
  8
TEMPLATE
390
1D
100
AcDbLine
 10
404.4404289094496
 20
53.42933470128568
 30
0.0
 11
14.44042890944975
 21
53.42933470128568
 31
0.0
  0
LWPOLYLINE
  5
17A
330
A
100
AcDbEntity
  8
TEMPLATE
390
1D
100
AcDbPolyline
 90
        5
 70
   128
 43
0.0
 10
404.4404289094496
 20
579.4293347012853
 10
14.44042890944975
 20
579.4293347012853
 10
14.44042890944975
 20
19.42933470128565
 10
404.4404289094496
 20
19.42933470128565
 10
404.4404289094496
 20
579.4293347012853
  0
LINE
  5
17B
330
A
100
AcDbEntity
  8
TEMPLATE
390
1D
100
AcDbLine
 10
404.4404289094496
 20
70.42933470128564
 30
0.0
 11
14.44042890944975
 21
70.42933470128564
 31
0.0
  0
LINE
  5
17C
330
A
100
AcDbEntity
  8
TEMPLATE
390
1D
100
AcDbLine
 10
404.4404289095464
 20
36.42933470128565
 30
0.0
 11
253.840428909546
 21
36.42933470128565
 31
0.0
  0
MTEXT
  5
17E
330
A
100
AcDbEntity
  8
TEMPLATE
390
1D
100
AcDbMText
 10
259.8147101599982
 20
30.44725580662403
 30
0.0
 40
4.8865234375
 41
0.0
 46
0.0
 71
     1
 72
     1
  1
大洋金物株式会社 ティーフォルム事業部
  7
ＭＳ ゴシック
 73
     1
 44
0.7828267384257843
  0
MTEXT
  5
180
330
A
100
AcDbEntity
  8
TEMPLATE
390
1D
100
AcDbMText
 10
366.240428909598
 20
46.02985813878564
 30
0.0
 40
4.8865234375
 41
0.0
 46
4.8865234375
 71
     1
 72
     1
  1
{1:2}
  7
ＭＳ ゴシック
 73
     1
 44
0.7828267384257843
1001
ACAD
1000
ACAD_MTEXT_DEFINED_HEIGHT_BEGIN
1070
    46
1040
4.8865234375
1000
ACAD_MTEXT_DEFINED_HEIGHT_END
  0
MTEXT
  5
181
330
A
100
AcDbEntity
  8
TEMPLATE
390
1D
100
AcDbMText
 10
355.640428909598
 20
51.7463503262856
 30
0.0
 40
3.257682291666665
 41
0.0
 46
0.0
 71
     1
 72
     1
  1
縮尺
  7
ＭＳ ゴシック
 73
     1
 44
0.7828267384257843
  0
LINE
  5
182
330
A
100
AcDbEntity
  8
TEMPLATE
390
1D
100
AcDbLine
 10
354.240428909598
 20
36.42933470128565
 30
0.0
 11
354.240428909598
 21
53.42933470128568
 31
0.0
  0
MTEXT
  5
183
330
A
100
AcDbEntity
  8
TEMPLATE
390
1D
100
AcDbMText
 10
305.440428909598
 20
51.7463503262856
 30
0.0
 40
3.257682291666665
 41
0.0
 46
0.0
 71
     1
 72
     1
  1
容量
  7
ＭＳ ゴシック
 73
     1
 44
0.7828267384257843
  0
LINE
  5
184
330
A
100
AcDbEntity
  8
TEMPLATE
390
1D
100
AcDbLine
 10
304.040428909598
 20
36.42933470128565
 30
0.0
 11
304.040428909598
 21
53.42933470128568
 31
0.0
  0
MTEXT
  5
185
330
A
100
AcDbEntity
  8
TEMPLATE
390
1D
100
AcDbMText
 10
255.240428909598
 20
68.74635032628565
 30
0.0
 40
3.257682291666665
 41
0.0
 46
0.0
 71
     1
 72
     1
  1
品番
  7
ＭＳ ゴシック
 73
     1
 44
0.7828267384257843
  0
MTEXT
  5
186
330
A
100
AcDbEntity
  8
TEMPLATE
390
1D
100
AcDbMText
 10
255.240428909598
 20
51.7463503262856
 30
0.0
 40
3.257682291666665
 41
0.0
 46
0.0
 71
     1
 72
     1
  1
重量
  7
ＭＳ ゴシック
 73
     1
 44
0.7828267384257843
  0
MTEXT
  5
187
330
A
100
AcDbEntity
  8
TEMPLATE
390
1D
100
AcDbMText
 10
265.840428909598
 20
63.02985813878564
 30
0.0
 40
4.8865234375
 41
0.0
 46
4.8865234375
 71
     1
 72
     1
  1
{FHT73-3326}
  7
ＭＳ ゴシック
 73
     1
 44
0.7828267384257843
1001
ACAD
1000
ACAD_MTEXT_DEFINED_HEIGHT_BEGIN
1070
    46
1040
4.8865234375
1000
ACAD_MTEXT_DEFINED_HEIGHT_END
  0
LINE
  5
188
330
A
100
AcDbEntity
  8
TEMPLATE
390
1D
100
AcDbLine
 10
253.840428909598
 20
19.42933470128565
 30
0.0
 11
253.840428909598
 21
70.42933470128564
 31
0.0
  0
MTEXT
  5
189
330
A
100
AcDbEntity
  8
TEMPLATE
390
1D
100
AcDbMText
 10
26.44042890954615
 20
63.02985813878564
 30
0.0
 40
4.8865234375
 41
0.0
 46
5.4582466796875
 71
     1
 72
     1
  1
{シャワーニップル(フック付)　-GROHE-}
  7
ＭＳ ゴシック
 73
     1
 44
0.7828267384257843
1001
ACAD
1000
ACAD_MTEXT_DEFINED_HEIGHT_BEGIN
1070
    46
1040
5.4582466796875
1000
ACAD_MTEXT_DEFINED_HEIGHT_END
  0
INSERT
  5
6B5
330
A
100
AcDbEntity
  8
TEMPLATE
100
AcDbBlockReference
  2
名称未設定-1
 10
374.15014961769
 20
5.189353151330764
 30
0.0
 41
0.1524
 42
0.1524
 43
0.1524
  0
INSERT
  5
68C
330
A
100
AcDbEntity
  8
TEMPLATE
100
AcDbBlockReference
  2
block 2
 10
919.2743017702577
 20
8.373076514336368
 30
0.0
 41
0.3809999999999999
 42
0.3809999999999999
 43
0.3809999999999999
  0
LWPOLYLINE
  5
D69
330
A
100
AcDbEntity
  8
BORDER
 48
0.025
100
AcDbPolyline
 90
        4
 70
     1
 43
0.0
 10
0.0
 20
0.0
 10
0.0
 20
594.0
 10
420.0
 20
594.0
 10
420.0
 20
0.0
  0
INSERT
  5
1343
330
A
100
AcDbEntity
  8
TEMPLATE
100
AcDbBlockReference
  2
block 2
 10
2096.743470866468
 20
24.43532141229569
 30
0.0
 41
0.3809999999999999
 42
0.3809999999999999
 43
0.3809999999999999
  0
POINT
  5
3697
330
A
100
AcDbEntity
  8
Layer50
  6
HIDDEN2
 62
     7
100
AcDbPoint
 10
396.8678405503807
 20
449.3605456225488
 30
0.0
  0
POINT
  5
36AA
330
A
100
AcDbEntity
  8
Layer50
  6
HIDDEN2
 62
     7
100
AcDbPoint
 10
396.8678405503807
 20
469.8605456225488
 30
0.0
  0
POINT
  5
36B6
330
A
100
AcDbEntity
  8
Layer50
  6
HIDDEN2
 62
     7
100
AcDbPoint
 10
405.6628405503807
 20
460.6105456225488
 30
0.0
  0
POINT
  5
36BC
330
A
100
AcDbEntity
  8
Layer50
  6
HIDDEN2
 62
     7
100
AcDbPoint
 10
403.6628405503807
 20
460.6105456225488
 30
0.0
  0
MTEXT
  5
4530
102
{ACAD_XDICTIONARY
360
4532
102
}
330
A
100
AcDbEntity
  8
MODEL
 48
0.05
100
AcDbMText
 10
14.6329326238789
 20
17.30781899803597
 30
0.0
 40
4.0
 41
0.0
 46
4.0
 71
     1
 72
     1
  1
{20160726N}
  7
ＭＳ ゴシック
 73
     1
 44
1.0
1001
ACAD
1000
ACAD_MTEXT_DEFINED_HEIGHT_BEGIN
1070
    46
1040
4.0
1000
ACAD_MTEXT_DEFINED_HEIGHT_END
  0
MTEXT
  5
5062
330
A
100
AcDbEntity
  8
TEMPLATE
390
1D
100
AcDbMText
 10
26.44042890954615
 20
46.10276168560644
 30
0.0
 40
4.8865234375
 41
0.0
 46
4.9598212890625
 71
     1
 72
     1
  1
{クローム}
  7
ＭＳ ゴシック
 73
     1
 44
0.7828267384257843
1001
ACAD
1000
ACAD_MTEXT_DEFINED_HEIGHT_BEGIN
1070
    46
1040
4.9598212890625
1000
ACAD_MTEXT_DEFINED_HEIGHT_END
  0
LINE
  5
6365
330
A
100
AcDbEntity
  8
MODEL
100
AcDbLine
 10
289.2520978725809
 20
217.2775252601155
 30
0.0
 11
289.2520978725809
 21
205.7801252601155
 31
0.0
  0
LINE
  5
6366
330
A
100
AcDbEntity
  8
MODEL
100
AcDbLine
 10
243.1569075086939
 20
221.1405252601155
 30
0.0
 11
229.9360978725811
 21
221.1405252601155
 31
0.0
  0
LINE
  5
6367
330
A
100
AcDbEntity
  8
MODEL
100
AcDbLine
 10
288.0900978725811
 20
214.6181252601154
 30
0.0
 11
288.0900978725811
 21
204.6181252601154
 31
0.0
  0
LINE
  5
6368
330
A
100
AcDbEntity
  8
MODEL
100
AcDbLine
 10
243.1569075086939
 20
222.3025252601155
 30
0.0
 11
228.7740978725808
 21
222.3025252601155
 31
0.0
  0
LINE
  5
6369
102
{ACAD_REACTORS
330
64E0
102
}
330
A
100
AcDbEntity
  8
MODEL
100
AcDbLine
 10
228.7740978725808
 20
240.9341252601155
 30
0.0
 11
228.7740978725808
 21
222.3025252601155
 31
0.0
  0
LINE
  5
636A
330
A
100
AcDbEntity
  8
MODEL
100
AcDbLine
 10
288.0900978725811
 20
204.6181252601154
 30
0.0
 11
269.458097872581
 21
204.6181252601154
 31
0.0
  0
LINE
  5
636B
330
A
100
AcDbEntity
  8
MODEL
100
AcDbLine
 10
289.2520978725809
 20
205.7801252601155
 30
0.0
 11
288.0900978725811
 21
204.6181252601154
 31
0.0
  0
LINE
  5
636C
330
A
100
AcDbEntity
  8
MODEL
100
AcDbLine
 10
229.9360978725811
 20
221.1407252601155
 30
0.0
 11
228.7740978725808
 21
222.3025252601155
 31
0.0
  0
LINE
  5
636D
330
A
100
AcDbEntity
  8
MODEL
100
AcDbLine
 10
289.2520978725809
 20
216.6307252601155
 30
0.0
 11
288.0900978725811
 21
214.6181252601154
 31
0.0
  0
LINE
  5
636E
330
A
100
AcDbEntity
  8
MODEL
100
AcDbLine
 10
268.296097872581
 20
217.2775252601155
 30
0.0
 11
268.296097872581
 21
205.7801252601155
 31
0.0
  0
LINE
  5
636F
330
A
100
AcDbEntity
  8
MODEL
100
AcDbLine
 10
268.296097872581
 20
216.6307252601155
 30
0.0
 11
269.458097872581
 21
214.6181252601154
 31
0.0
  0
LINE
  5
6370
330
A
100
AcDbEntity
  8
MODEL
100
AcDbLine
 10
268.296097872581
 20
214.6181252601154
 30
0.0
 11
289.2520978725809
 21
214.6181252601154
 31
0.0
  0
LINE
  5
6371
330
A
100
AcDbEntity
  8
MODEL
100
AcDbLine
 10
269.458097872581
 20
214.6181252601154
 30
0.0
 11
269.458097872581
 21
204.6181252601154
 31
0.0
  0
LINE
  5
6372
330
A
100
AcDbEntity
  8
MODEL
100
AcDbLine
 10
268.296097872581
 20
205.7801252601155
 30
0.0
 11
269.458097872581
 21
204.6181252601154
 31
0.0
  0
LINE
  5
6373
330
A
100
AcDbEntity
  8
MODEL
100
AcDbLine
 10
243.1569075086939
 20
240.9341252601155
 30
0.0
 11
228.7740978725808
 21
240.9341252601155
 31
0.0
  0
LINE
  5
6375
330
A
100
AcDbEntity
  8
MODEL
100
AcDbLine
 10
243.1569075086939
 20
242.0961252601155
 30
0.0
 11
229.9360978725811
 21
242.0961252601155
 31
0.0
  0
LINE
  5
6376
330
A
100
AcDbEntity
  8
MODEL
100
AcDbLine
 10
229.9360978725811
 20
242.0961252601155
 30
0.0
 11
228.7740978725808
 21
240.9341252601155
 31
0.0
  0
LINE
  5
6377
102
{ACAD_REACTORS
330
65C5
102
}
330
A
100
AcDbEntity
  8
MODEL
100
AcDbLine
 10
258.7740978725808
 20
201.6181252601154
 30
0.0
 11
249.2740978725808
 21
201.6181252601154
 31
0.0
  0
LINE
  5
6378
330
A
100
AcDbEntity
  8
MODEL
100
AcDbLine
 10
258.7740978725808
 20
271.6181252601154
 30
0.0
 11
249.2740978725808
 21
271.6181252601154
 31
0.0
  0
LINE
  5
6379
330
A
100
AcDbEntity
  8
MODEL
100
AcDbLine
 10
260.7740978725808
 20
269.6181252601154
 30
0.0
 11
260.7740978725808
 21
203.6181252601154
 31
0.0
  0
LINE
  5
637C
330
A
100
AcDbEntity
  8
MODEL
100
AcDbLine
 10
333.7740978725808
 20
252.6181252601154
 30
0.0
 11
333.7740978725808
 21
223.8229252601155
 31
0.0
  0
LINE
  5
637E
330
A
100
AcDbEntity
  8
MODEL
100
AcDbLine
 10
294.6020978725808
 20
254.6181252601154
 30
0.0
 11
331.7740978725808
 21
254.6181252601154
 31
0.0
  0
LINE
  5
637F
330
A
100
AcDbEntity
  8
MODEL
100
AcDbLine
 10
332.122097872581
 20
221.8533252601155
 30
0.0
 11
313.7740978725808
 21
218.6181252601154
 31
0.0
  0
LINE
  5
6380
330
A
100
AcDbEntity
  8
MODEL
100
AcDbLine
 10
290.110097872581
 20
258.2821252601154
 30
0.0
 11
293.188097872581
 21
255.2041252601155
 31
0.0
  0
LINE
  5
6381
330
A
100
AcDbEntity
  8
MODEL
100
AcDbLine
 10
300.2740978725808
 20
214.3681252601154
 30
0.0
 11
303.976097872581
 21
214.3681252601154
 31
0.0
  0
LINE
  5
6382
330
A
100
AcDbEntity
  8
MODEL
100
AcDbLine
 10
249.2740978725808
 20
201.6181252601154
 30
0.0
 11
249.2740978725808
 21
271.6181252601154
 31
0.0
  0
LINE
  5
6384
330
A
100
AcDbEntity
  8
MODEL
100
AcDbLine
 10
261.2740978725808
 20
258.8681252601154
 30
0.0
 11
288.6960978725808
 21
258.8681252601154
 31
0.0
  0
LINE
  5
6385
330
A
100
AcDbEntity
  8
MODEL
100
AcDbLine
 10
260.7740978725808
 20
217.2775252601155
 30
0.0
 11
289.2740978725808
 21
217.2775252601155
 31
0.0
  0
LINE
  5
6386
330
A
100
AcDbEntity
  8
MODEL
100
AcDbLine
 10
268.296097872581
 20
205.7801252601155
 30
0.0
 11
289.2520978725809
 21
205.7801252601155
 31
0.0
  0
LINE
  5
6387
330
A
100
AcDbEntity
  8
MODEL
100
AcDbLine
 10
229.9360978725811
 20
242.0961252601155
 30
0.0
 11
229.9360978725811
 21
221.1405252601155
 31
0.0
  0
LINE
  5
638A
330
A
100
AcDbEntity
  8
MODEL
100
AcDbLine
 10
123.8937622511938
 20
217.2733252601155
 30
0.0
 11
123.8937622511938
 21
205.7801252601155
 31
0.0
  0
LINE
  5
638B
330
A
100
AcDbEntity
  8
MODEL
100
AcDbLine
 10
125.0557622511939
 20
214.6181252601154
 30
0.0
 11
125.0557622511939
 21
204.6181252601154
 31
0.0
  0
LINE
  5
638C
330
A
100
AcDbEntity
  8
MODEL
100
AcDbLine
 10
125.0557622511939
 20
204.6181252601154
 30
0.0
 11
143.6877622511939
 21
204.6181252601154
 31
0.0
  0
LINE
  5
638D
330
A
100
AcDbEntity
  8
MODEL
100
AcDbLine
 10
123.8937622511938
 20
205.7801252601155
 30
0.0
 11
125.0557622511939
 21
204.6181252601154
 31
0.0
  0
LINE
  5
638E
330
A
100
AcDbEntity
  8
MODEL
100
AcDbLine
 10
123.8937622511938
 20
216.6307252601155
 30
0.0
 11
125.0557622511939
 21
214.6181252601154
 31
0.0
  0
LINE
  5
638F
330
A
100
AcDbEntity
  8
MODEL
100
AcDbLine
 10
144.8497622511937
 20
217.2733252601155
 30
0.0
 11
144.8497622511937
 21
205.7801252601155
 31
0.0
  0
LINE
  5
6390
330
A
100
AcDbEntity
  8
MODEL
100
AcDbLine
 10
144.8497622511937
 20
216.6307252601155
 30
0.0
 11
143.6877622511939
 21
214.6181252601154
 31
0.0
  0
LINE
  5
6391
330
A
100
AcDbEntity
  8
MODEL
100
AcDbLine
 10
144.8497622511937
 20
214.6181252601154
 30
0.0
 11
123.8937622511938
 21
214.6181252601154
 31
0.0
  0
LINE
  5
6392
330
A
100
AcDbEntity
  8
MODEL
100
AcDbLine
 10
143.6877622511939
 20
214.6181252601154
 30
0.0
 11
143.6877622511939
 21
204.6181252601154
 31
0.0
  0
LINE
  5
6393
330
A
100
AcDbEntity
  8
MODEL
100
AcDbLine
 10
144.8497622511937
 20
205.7801252601155
 30
0.0
 11
143.6877622511939
 21
204.6181252601154
 31
0.0
  0
LINE
  5
6394
330
A
100
AcDbEntity
  8
MODEL
100
AcDbLine
 10
144.8497622511937
 20
205.7801252601155
 30
0.0
 11
123.8937622511938
 21
205.7801252601155
 31
0.0
  0
LINE
  5
6396
330
A
100
AcDbEntity
  8
MODEL
100
AcDbLine
 10
125.3717622511939
 20
252.6181252601154
 30
0.0
 11
125.3717622511939
 21
218.6181252601154
 31
0.0
  0
LINE
  5
6397
330
A
100
AcDbEntity
  8
MODEL
100
AcDbLine
 10
143.3717622511939
 20
252.6181252601154
 30
0.0
 11
143.3717622511939
 21
218.6181252601154
 31
0.0
  0
LINE
  5
6398
330
A
100
AcDbEntity
  8
MODEL
100
AcDbLine
 10
122.3717622511938
 20
254.6181252601154
 30
0.0
 11
146.3717622511939
 21
254.6181252601154
 31
0.0
  0
LINE
  5
6399
330
A
100
AcDbEntity
  8
MODEL
100
AcDbLine
 10
124.7617622511938
 20
221.5549252601155
 30
0.0
 11
122.9597622511938
 21
219.8139252601155
 31
0.0
  0
LINE
  5
639A
330
A
100
AcDbEntity
  8
MODEL
100
AcDbLine
 10
143.9817622511938
 20
221.5549252601155
 30
0.0
 11
145.7837622511939
 21
219.8139252601155
 31
0.0
  0
LINE
  5
639B
330
A
100
AcDbEntity
  8
MODEL
100
AcDbLine
 10
130.3717622511939
 20
244.6181252601154
 30
0.0
 11
138.3717622511939
 21
244.6181252601154
 31
0.0
  0
LINE
  5
639C
330
A
100
AcDbEntity
  8
MODEL
100
AcDbLine
 10
131.1457622511938
 20
245.2181252601155
 30
0.0
 11
137.5977622511938
 21
245.2181252601155
 31
0.0
  0
LINE
  5
639D
330
A
100
AcDbEntity
  8
MODEL
100
AcDbLine
 10
131.1457622511938
 20
244.0181252601155
 30
0.0
 11
137.5977622511938
 21
244.0181252601155
 31
0.0
  0
LINE
  5
639E
330
A
100
AcDbEntity
  8
MODEL
100
AcDbLine
 10
144.8497622511937
 20
453.1577144679329
 30
0.0
 11
144.8497622511937
 21
466.3785241040462
 31
0.0
  0
LINE
  5
639F
330
A
100
AcDbEntity
  8
MODEL
100
AcDbLine
 10
143.6877622511939
 20
453.1577144679329
 30
0.0
 11
143.6877622511939
 21
467.540524104046
 31
0.0
  0
LINE
  5
63A0
330
A
100
AcDbEntity
  8
MODEL
100
AcDbLine
 10
125.0557622511939
 20
467.540524104046
 30
0.0
 11
143.6877622511939
 21
467.540524104046
 31
0.0
  0
LINE
  5
63A1
330
A
100
AcDbEntity
  8
MODEL
100
AcDbLine
 10
144.8497622511937
 20
466.3785241040462
 30
0.0
 11
143.6877622511939
 21
467.540524104046
 31
0.0
  0
LINE
  5
63A2
330
A
100
AcDbEntity
  8
MODEL
100
AcDbLine
 10
125.0557622511939
 20
453.1577144679329
 30
0.0
 11
125.0557622511939
 21
467.540524104046
 31
0.0
  0
LINE
  5
63A3
330
A
100
AcDbEntity
  8
MODEL
100
AcDbLine
 10
123.8937622511938
 20
453.1577144679329
 30
0.0
 11
123.8937622511938
 21
466.3785241040462
 31
0.0
  0
LINE
  5
63A4
330
A
100
AcDbEntity
  8
MODEL
100
AcDbLine
 10
123.8937622511938
 20
466.3785241040462
 30
0.0
 11
125.0557622511939
 21
467.540524104046
 31
0.0
  0
LINE
  5
63A6
330
A
100
AcDbEntity
  8
MODEL
100
AcDbLine
 10
123.8937622511938
 20
466.3785241040462
 30
0.0
 11
144.8497622511937
 21
466.3785241040462
 31
0.0
  0
LINE
  5
63AA
330
A
100
AcDbEntity
  8
MODEL
100
AcDbLine
 10
154.6217622511939
 20
362.5405241040461
 30
0.0
 11
143.8717622511939
 21
362.5405241040461
 31
0.0
  0
LINE
  5
63AC
330
A
100
AcDbEntity
  8
MODEL
100
AcDbLine
 10
143.3717622511939
 20
378.2705241040461
 30
0.0
 11
143.3717622511939
 21
363.0405241040461
 31
0.0
  0
LINE
  5
63AD
330
A
100
AcDbEntity
  8
MODEL
100
AcDbLine
 10
125.3717622511939
 20
378.2705241040461
 30
0.0
 11
125.3717622511939
 21
363.0405241040461
 31
0.0
  0
LINE
  5
63AE
330
A
100
AcDbEntity
  8
MODEL
100
AcDbLine
 10
124.8717622511939
 20
362.5405241040461
 30
0.0
 11
114.1217622511938
 21
362.5405241040461
 31
0.0
  0
LINE
  5
63AF
330
A
100
AcDbEntity
  8
MODEL
100
AcDbLine
 10
147.4517622511938
 20
362.5405241040461
 30
0.0
 11
147.4517622511938
 21
397.6705241040461
 31
0.0
  0
LINE
  5
63B0
330
A
100
AcDbEntity
  8
MODEL
100
AcDbLine
 10
121.2917622511938
 20
362.5405241040461
 30
0.0
 11
121.2917622511938
 21
397.6705241040461
 31
0.0
  0
LINE
  5
63B1
330
A
100
AcDbEntity
  8
MODEL
100
AcDbLine
 10
99.37176225119384
 20
437.540524104046
 30
0.0
 11
99.37176225119384
 21
447.040524104046
 31
0.0
  0
LINE
  5
63B2
330
A
100
AcDbEntity
  8
MODEL
100
AcDbLine
 10
169.3717622511939
 20
437.540524104046
 30
0.0
 11
169.3717622511939
 21
447.040524104046
 31
0.0
  0
LINE
  5
63B3
330
A
100
AcDbEntity
  8
MODEL
100
AcDbLine
 10
99.37176225119384
 20
447.040524104046
 30
0.0
 11
169.3717622511939
 21
447.040524104046
 31
0.0
  0
LINE
  5
63B4
330
A
100
AcDbEntity
  8
MODEL
100
AcDbLine
 10
101.3717622511938
 20
435.540524104046
 30
0.0
 11
167.3717622511939
 21
435.540524104046
 31
0.0
  0
LINE
  5
63B5
330
A
100
AcDbEntity
  8
MODEL
100
AcDbLine
 10
112.1217622511938
 20
435.540524104046
 30
0.0
 11
112.1217622511938
 21
364.5405241040461
 31
0.0
  0
LINE
  5
63B6
330
A
100
AcDbEntity
  8
MODEL
100
AcDbLine
 10
156.6217622511939
 20
435.540524104046
 30
0.0
 11
156.6217622511939
 21
364.5405241040461
 31
0.0
  0
ARC
  5
63B8
330
A
100
AcDbEntity
  8
MODEL
100
AcDbCircle
 10
258.7740978725808
 20
203.6181252601154
 30
0.0
 40
2.0
100
AcDbArc
 50
269.9997710000043
 51
359.9998570000012
  0
ARC
  5
63B9
330
A
100
AcDbEntity
  8
MODEL
100
AcDbCircle
 10
258.7740978725808
 20
269.6181252601154
 30
0.0
 40
2.0
100
AcDbArc
 50
359.9998430000011
 51
89.99992099999987
  0
ARC
  5
63BA
330
A
100
AcDbEntity
  8
MODEL
100
AcDbCircle
 10
331.7740978725808
 20
223.8228672601155
 30
0.0
 40
2.0
100
AcDbArc
 50
279.9997780000008
 51
359.9998570000012
  0
ARC
  5
63BB
330
A
100
AcDbEntity
  8
MODEL
100
AcDbCircle
 10
331.7740978725808
 20
252.6181252601154
 30
0.0
 40
2.0
100
AcDbArc
 50
359.9998430000011
 51
89.99992099999987
  0
ARC
  5
63BC
330
A
100
AcDbEntity
  8
MODEL
100
AcDbCircle
 10
288.6956678725808
 20
256.8681252601154
 30
0.0
 40
2.0
100
AcDbArc
 50
44.99988599999778
 51
89.99992099999987
  0
ARC
  5
63BD
330
A
100
AcDbEntity
  8
MODEL
100
AcDbCircle
 10
294.6025278725808
 20
256.6181252601154
 30
0.0
 40
2.0
100
AcDbArc
 50
225.0000390000053
 51
270.0000790000001
  0
ARC
  5
63BE
330
A
100
AcDbEntity
  8
MODEL
100
AcDbCircle
 10
261.2740978725808
 20
259.3681252601154
 30
0.0
 40
0.5
100
AcDbArc
 50
180.0
 51
270.0000790000132
  0
CIRCLE
  5
63BF
330
A
100
AcDbEntity
  8
MODEL
100
AcDbCircle
 10
134.3717622511939
 20
236.6181252601154
 30
0.0
 40
22.0
  0
ARC
  5
63C0
330
A
100
AcDbEntity
  8
MODEL
100
AcDbCircle
 10
122.3717622511938
 20
252.6181252601154
 30
0.0
 40
2.0
100
AcDbArc
 50
90.00007900000014
 51
126.8700099999984
  0
ARC
  5
63C1
330
A
100
AcDbEntity
  8
MODEL
100
AcDbCircle
 10
123.3717622511938
 20
252.6181252601154
 30
0.0
 40
2.0
100
AcDbArc
 50
0.0
 51
90.00007900000014
  0
ARC
  5
63C2
330
A
100
AcDbEntity
  8
MODEL
100
AcDbCircle
 10
145.3717622511939
 20
252.6181252601154
 30
0.0
 40
2.0
100
AcDbArc
 50
90.00007900000014
 51
180.0001569999989
  0
ARC
  5
63C3
330
A
100
AcDbEntity
  8
MODEL
100
AcDbCircle
 10
146.3717622511939
 20
252.6181252601154
 30
0.0
 40
2.0
100
AcDbArc
 50
53.13014700000195
 51
90.00007900000014
  0
ARC
  5
63C4
330
A
100
AcDbEntity
  8
MODEL
100
AcDbCircle
 10
123.3717622511938
 20
222.9931712601154
 30
0.0
 40
2.0
100
AcDbArc
 50
314.0213239999956
 51
0.0
  0
ARC
  5
63C5
330
A
100
AcDbEntity
  8
MODEL
100
AcDbCircle
 10
121.5700662511939
 20
221.2520212601155
 30
0.0
 40
2.0
100
AcDbArc
 50
230.2018440000003
 51
314.0213239999973
  0
ARC
  5
63C6
330
A
100
AcDbEntity
  8
MODEL
100
AcDbCircle
 10
147.1734582511939
 20
221.2520212601155
 30
0.0
 40
2.0
100
AcDbArc
 50
225.9785300000015
 51
309.7980060000004
  0
ARC
  5
63C7
330
A
100
AcDbEntity
  8
MODEL
100
AcDbCircle
 10
145.3717622511939
 20
222.9931712601154
 30
0.0
 40
2.0
100
AcDbArc
 50
179.999856999998
 51
225.9785300000009
  0
CIRCLE
  5
63C8
330
A
100
AcDbEntity
  8
MODEL
100
AcDbCircle
 10
134.3717622511939
 20
236.6181252601154
 30
0.0
 40
35.0
  0
CIRCLE
  5
63C9
330
A
100
AcDbEntity
  8
MODEL
100
AcDbCircle
 10
134.3717622511939
 20
244.6181252601154
 30
0.0
 40
4.0
  0
CIRCLE
  5
63CA
330
A
100
AcDbEntity
  8
MODEL
100
AcDbCircle
 10
134.3717622511939
 20
244.6181252601154
 30
0.0
 40
3.5
  0
CIRCLE
  5
63CB
330
A
100
AcDbEntity
  8
MODEL
100
AcDbCircle
 10
134.3717622511939
 20
244.6181252601154
 30
0.0
 40
3.281278
  0
ARC
  5
63CC
102
{ACAD_REACTORS
330
6496
102
}
330
A
100
AcDbEntity
  8
MODEL
100
AcDbCircle
 10
154.6217622511939
 20
364.5405241040461
 30
0.0
 40
2.0
100
AcDbArc
 50
269.9999209999999
 51
359.9999960000009
  0
ARC
  5
63CD
102
{ACAD_REACTORS
330
6496
102
}
330
A
100
AcDbEntity
  8
MODEL
100
AcDbCircle
 10
114.1217622511938
 20
364.5405241040461
 30
0.0
 40
2.0
100
AcDbArc
 50
179.999856999998
 51
269.9999279999999
  0
ARC
  5
63CE
330
A
100
AcDbEntity
  8
MODEL
100
AcDbCircle
 10
134.3717622511939
 20
382.5405241040461
 30
0.0
 40
12.01204
100
AcDbArc
 50
319.3997369999995
 51
220.6004069999996
  0
ARC
  5
63CF
330
A
100
AcDbEntity
  8
MODEL
100
AcDbCircle
 10
134.3717622511939
 20
382.5405241040461
 30
0.0
 40
9.915728
100
AcDbArc
 50
335.7946909999999
 51
204.2054659999994
  0
ARC
  5
63D0
330
A
100
AcDbEntity
  8
MODEL
100
AcDbCircle
 10
143.8717622511939
 20
374.3979761040462
 30
0.0
 40
0.5
100
AcDbArc
 50
139.3998939999997
 51
180.0001570000054
  0
ARC
  5
63D1
330
A
100
AcDbEntity
  8
MODEL
100
AcDbCircle
 10
143.8717622511939
 20
378.2700161040461
 30
0.0
 40
0.5
100
AcDbArc
 50
155.794834000001
 51
180.0001570000054
  0
ARC
  5
63D2
330
A
100
AcDbEntity
  8
MODEL
100
AcDbCircle
 10
124.8717622511939
 20
374.3979761040462
 30
0.0
 40
0.5
100
AcDbArc
 50
359.9999959999944
 51
40.60026000001618
  0
ARC
  5
63D3
330
A
100
AcDbEntity
  8
MODEL
100
AcDbCircle
 10
124.8717622511939
 20
378.2700161040461
 30
0.0
 40
0.5
100
AcDbArc
 50
359.9999959999944
 51
24.20531799999477
  0
ARC
  5
63D4
330
A
100
AcDbEntity
  8
MODEL
100
AcDbCircle
 10
134.3717622511939
 20
382.5405241040461
 30
0.0
 40
20.000016
100
AcDbArc
 50
49.15967200000004
 51
130.8404850000003
  0
ARC
  5
63D5
330
A
100
AcDbEntity
  8
MODEL
100
AcDbCircle
 10
143.8717622511939
 20
363.0405241040461
 30
0.0
 40
0.5
100
AcDbArc
 50
179.9998570000012
 51
269.9999280000032
  0
ARC
  5
63D6
330
A
100
AcDbEntity
  8
MODEL
100
AcDbCircle
 10
124.8717622511939
 20
363.0405241040461
 30
0.0
 40
0.5
100
AcDbArc
 50
269.9999209999868
 51
359.9999960000074
  0
ARC
  5
63D7
330
A
100
AcDbEntity
  8
MODEL
100
AcDbCircle
 10
134.3717622511939
 20
389.6530121040461
 30
0.0
 40
15.341252
100
AcDbArc
 50
31.51061300000021
 51
148.489544
  0
ARC
  5
63D8
330
A
100
AcDbEntity
  8
MODEL
100
AcDbCircle
 10
101.3717622511938
 20
437.540524104046
 30
0.0
 40
2.0
100
AcDbArc
 50
180.0001429999988
 51
270.000228999999
  0
ARC
  5
63D9
330
A
100
AcDbEntity
  8
MODEL
100
AcDbCircle
 10
167.3717622511939
 20
437.540524104046
 30
0.0
 40
2.0
100
AcDbArc
 50
269.9999209999999
 51
0.0
  0
LINE
  5
63DA
330
A
100
AcDbEntity
  8
MODEL
100
AcDbLine
 10
303.9763118725809
 20
214.3677332601155
 30
0.0
 11
304.078609872581
 21
215.0744052601154
 31
0.0
  0
LINE
  5
63DB
330
A
100
AcDbEntity
  8
MODEL
100
AcDbLine
 10
304.078609872581
 20
215.0744052601154
 30
0.0
 11
304.415597872581
 21
215.7059812601154
 31
0.0
  0
LINE
  5
63DC
330
A
100
AcDbEntity
  8
MODEL
100
AcDbLine
 10
304.415597872581
 20
215.7059812601154
 30
0.0
 11
304.898739872581
 21
216.2366252601155
 31
0.0
  0
LINE
  5
63DD
330
A
100
AcDbEntity
  8
MODEL
100
AcDbLine
 10
304.898739872581
 20
216.2366252601155
 30
0.0
 11
305.4651598725809
 21
216.6784972601155
 31
0.0
  0
LINE
  5
63DE
330
A
100
AcDbEntity
  8
MODEL
100
AcDbLine
 10
305.4651598725809
 20
216.6784972601155
 30
0.0
 11
306.0807398725808
 21
217.0489292601155
 31
0.0
  0
LINE
  5
63DF
330
A
100
AcDbEntity
  8
MODEL
100
AcDbLine
 10
306.0807398725808
 20
217.0489292601155
 30
0.0
 11
306.728269872581
 21
217.3622472601155
 31
0.0
  0
LINE
  5
63E0
330
A
100
AcDbEntity
  8
MODEL
100
AcDbLine
 10
306.728269872581
 20
217.3622472601155
 30
0.0
 11
307.3964338725809
 21
217.6279152601155
 31
0.0
  0
LINE
  5
63E1
330
A
100
AcDbEntity
  8
MODEL
100
AcDbLine
 10
307.3964338725809
 20
217.6279152601155
 30
0.0
 11
308.079769872581
 21
217.8534252601155
 31
0.0
  0
LINE
  5
63E2
330
A
100
AcDbEntity
  8
MODEL
100
AcDbLine
 10
308.079769872581
 20
217.8534252601155
 30
0.0
 11
308.7731738725809
 21
218.0436412601155
 31
0.0
  0
LINE
  5
63E3
330
A
100
AcDbEntity
  8
MODEL
100
AcDbLine
 10
308.7731738725809
 20
218.0436412601155
 30
0.0
 11
309.4750898725808
 21
218.2027372601154
 31
0.0
  0
LINE
  5
63E4
330
A
100
AcDbEntity
  8
MODEL
100
AcDbLine
 10
309.4750898725808
 20
218.2027372601154
 30
0.0
 11
310.1829018725809
 21
218.3333872601155
 31
0.0
  0
LINE
  5
63E5
330
A
100
AcDbEntity
  8
MODEL
100
AcDbLine
 10
310.1829018725809
 20
218.3333872601155
 30
0.0
 11
310.895065872581
 21
218.4377312601155
 31
0.0
  0
LINE
  5
63E6
330
A
100
AcDbEntity
  8
MODEL
100
AcDbLine
 10
310.895065872581
 20
218.4377312601155
 30
0.0
 11
311.6104598725808
 21
218.5173812601155
 31
0.0
  0
LINE
  5
63E7
330
A
100
AcDbEntity
  8
MODEL
100
AcDbLine
 10
311.6104598725808
 20
218.5173812601155
 30
0.0
 11
312.3281378725808
 21
218.5735032601154
 31
0.0
  0
LINE
  5
63E8
330
A
100
AcDbEntity
  8
MODEL
100
AcDbLine
 10
312.3281378725808
 20
218.5735032601154
 30
0.0
 11
313.0472518725808
 21
218.6069152601154
 31
0.0
  0
LINE
  5
63E9
330
A
100
AcDbEntity
  8
MODEL
100
AcDbLine
 10
313.0472518725808
 20
218.6069152601154
 30
0.0
 11
313.767009872581
 21
218.6181272601154
 31
0.0
  0
LINE
  5
63EA
330
A
100
AcDbEntity
  8
MODEL
100
AcDbLine
 10
289.2740978725808
 20
217.2774292601155
 30
0.0
 11
290.015913872581
 21
217.2708072601155
 31
0.0
  0
LINE
  5
63EB
330
A
100
AcDbEntity
  8
MODEL
100
AcDbLine
 10
290.015913872581
 20
217.2708072601155
 30
0.0
 11
290.7574958725809
 21
217.2508552601155
 31
0.0
  0
LINE
  5
63EC
330
A
100
AcDbEntity
  8
MODEL
100
AcDbLine
 10
290.7574958725809
 20
217.2508552601155
 30
0.0
 11
291.4972038725809
 21
217.2173952601155
 31
0.0
  0
LINE
  5
63ED
330
A
100
AcDbEntity
  8
MODEL
100
AcDbLine
 10
291.4972038725809
 20
217.2173952601155
 30
0.0
 11
292.237269872581
 21
217.1698852601155
 31
0.0
  0
LINE
  5
63EE
330
A
100
AcDbEntity
  8
MODEL
100
AcDbLine
 10
292.237269872581
 20
217.1698852601155
 30
0.0
 11
292.9776658725809
 21
217.1075732601155
 31
0.0
  0
LINE
  5
63EF
330
A
100
AcDbEntity
  8
MODEL
100
AcDbLine
 10
292.9776658725809
 20
217.1075732601155
 30
0.0
 11
293.7154438725809
 21
217.0297472601155
 31
0.0
  0
LINE
  5
63F0
330
A
100
AcDbEntity
  8
MODEL
100
AcDbLine
 10
293.7154438725809
 20
217.0297472601155
 30
0.0
 11
294.4512798725809
 21
216.9350592601155
 31
0.0
  0
LINE
  5
63F1
330
A
100
AcDbEntity
  8
MODEL
100
AcDbLine
 10
294.4512798725809
 20
216.9350592601155
 30
0.0
 11
295.1845478725809
 21
216.8217812601155
 31
0.0
  0
LINE
  5
63F2
330
A
100
AcDbEntity
  8
MODEL
100
AcDbLine
 10
295.1845478725809
 20
216.8217812601155
 30
0.0
 11
295.9143758725809
 21
216.6875412601155
 31
0.0
  0
LINE
  5
63F3
330
A
100
AcDbEntity
  8
MODEL
100
AcDbLine
 10
295.9143758725809
 20
216.6875412601155
 30
0.0
 11
296.639489872581
 21
216.5289792601155
 31
0.0
  0
LINE
  5
63F4
330
A
100
AcDbEntity
  8
MODEL
100
AcDbLine
 10
296.639489872581
 20
216.5289792601155
 30
0.0
 11
297.357875872581
 21
216.3411792601155
 31
0.0
  0
LINE
  5
63F5
330
A
100
AcDbEntity
  8
MODEL
100
AcDbLine
 10
297.357875872581
 20
216.3411792601155
 30
0.0
 11
298.0660738725808
 21
216.1165332601155
 31
0.0
  0
LINE
  5
63F6
330
A
100
AcDbEntity
  8
MODEL
100
AcDbLine
 10
298.0660738725808
 20
216.1165332601155
 30
0.0
 11
298.755629872581
 21
215.8430872601155
 31
0.0
  0
LINE
  5
63F7
330
A
100
AcDbEntity
  8
MODEL
100
AcDbLine
 10
298.755629872581
 20
215.8430872601155
 30
0.0
 11
299.411715872581
 21
215.4973332601155
 31
0.0
  0
LINE
  5
63F8
330
A
100
AcDbEntity
  8
MODEL
100
AcDbLine
 10
299.411715872581
 20
215.4973332601155
 30
0.0
 11
299.9855218725809
 21
215.0301452601155
 31
0.0
  0
LINE
  5
63F9
330
A
100
AcDbEntity
  8
MODEL
100
AcDbLine
 10
299.9855218725809
 20
215.0301452601155
 30
0.0
 11
300.2740978725808
 21
214.3681252601154
 31
0.0
  0
LINE
  5
63FA
330
A
100
AcDbEntity
  8
MODEL
100
AcDbLine
 10
125.3717622511939
 20
218.6181252601154
 30
0.0
 11
125.8048742511938
 21
217.3921952601155
 31
0.0
  0
LINE
  5
63FB
330
A
100
AcDbEntity
  8
MODEL
100
AcDbLine
 10
125.8048742511938
 20
217.3921952601155
 30
0.0
 11
126.7588402511939
 21
216.4846352601155
 31
0.0
  0
LINE
  5
63FC
330
A
100
AcDbEntity
  8
MODEL
100
AcDbLine
 10
126.7588402511939
 20
216.4846352601155
 30
0.0
 11
127.9093242511939
 21
215.8341532601155
 31
0.0
  0
LINE
  5
63FD
330
A
100
AcDbEntity
  8
MODEL
100
AcDbLine
 10
127.9093242511939
 20
215.8341532601155
 30
0.0
 11
129.1449982511939
 21
215.3618012601155
 31
0.0
  0
LINE
  5
63FE
330
A
100
AcDbEntity
  8
MODEL
100
AcDbLine
 10
129.1449982511939
 20
215.3618012601155
 30
0.0
 11
130.4244462511939
 21
215.0233772601155
 31
0.0
  0
LINE
  5
63FF
330
A
100
AcDbEntity
  8
MODEL
100
AcDbLine
 10
130.4244462511939
 20
215.0233772601155
 30
0.0
 11
131.7280402511939
 21
214.7945932601154
 31
0.0
  0
LINE
  5
6400
330
A
100
AcDbEntity
  8
MODEL
100
AcDbLine
 10
131.7280402511939
 20
214.7945932601154
 30
0.0
 11
133.0452462511938
 21
214.6618112601155
 31
0.0
  0
LINE
  5
6401
330
A
100
AcDbEntity
  8
MODEL
100
AcDbLine
 10
133.0452462511938
 20
214.6618112601155
 30
0.0
 11
134.3717622511939
 21
214.6181252601154
 31
0.0
  0
LINE
  5
6402
330
A
100
AcDbEntity
  8
MODEL
100
AcDbLine
 10
134.3717622511939
 20
214.6181252601154
 30
0.0
 11
135.6947122511939
 21
214.6615752601155
 31
0.0
  0
LINE
  5
6403
330
A
100
AcDbEntity
  8
MODEL
100
AcDbLine
 10
135.6947122511939
 20
214.6615752601155
 30
0.0
 11
137.0100642511937
 21
214.7938532601155
 31
0.0
  0
LINE
  5
6404
330
A
100
AcDbEntity
  8
MODEL
100
AcDbLine
 10
137.0100642511937
 20
214.7938532601155
 30
0.0
 11
138.3138642511939
 21
215.0222472601155
 31
0.0
  0
LINE
  5
6405
330
A
100
AcDbEntity
  8
MODEL
100
AcDbLine
 10
138.3138642511939
 20
215.0222472601155
 30
0.0
 11
139.5938802511938
 21
215.3603292601155
 31
0.0
  0
LINE
  5
6406
330
A
100
AcDbEntity
  8
MODEL
100
AcDbLine
 10
139.5938802511938
 20
215.3603292601155
 30
0.0
 11
140.8312662511938
 21
215.8328092601155
 31
0.0
  0
LINE
  5
6407
330
A
100
AcDbEntity
  8
MODEL
100
AcDbLine
 10
140.8312662511938
 20
215.8328092601155
 30
0.0
 11
141.9826102511939
 21
216.4831712601155
 31
0.0
  0
LINE
  5
6408
330
A
100
AcDbEntity
  8
MODEL
100
AcDbLine
 10
141.9826102511939
 20
216.4831712601155
 30
0.0
 11
142.9381722511938
 21
217.3915372601155
 31
0.0
  0
LINE
  5
6409
330
A
100
AcDbEntity
  8
MODEL
100
AcDbLine
 10
142.9381722511938
 20
217.3915372601155
 30
0.0
 11
143.3717622511939
 21
218.6181252601154
 31
0.0
  0
DIMENSION
  5
6420
330
A
100
AcDbEntity
  8
DIM
100
AcDbDimension
  2
*D10
 10
76.65676740996147
 20
201.6181252601154
 30
0.0
 11
76.65676740996147
 21
236.6181252601154
 31
0.0
 70
   160
 71
     5
 42
70.0
 73
     0
 74
     0
 75
     0
  3
tfrom線あり
100
AcDbAlignedDimension
 13
128.9923883783615
 23
271.6181252601154
 33
0.0
 14
128.9923883783615
 24
201.6181252601154
 34
0.0
 50
90.0
100
AcDbRotatedDimension
1001
ACAD
1000
DSTYLE
1002
{
1070
     3
1000
φ<>
1002
}
  0
MTEXT
  5
6461
330
A
100
AcDbEntity
  8
DIM
390
1D
100
AcDbMText
 10
272.30486200526
 20
190.8645872941626
 30
0.0
 40
4.8865234375
 41
0.0
 46
5.580409765625
 71
     1
 72
     1
  1
{\fＭＳ ゴシック|b0|i0|c1|p0;G1/2"}
  7
ＭＳ ゴシック
 73
     1
 44
0.7828267384257843
1001
ACAD
1000
ACAD_MTEXT_DEFINED_HEIGHT_BEGIN
1070
    46
1040
5.580409765625
1000
ACAD_MTEXT_DEFINED_HEIGHT_END
  0
MTEXT
  5
6462
330
A
100
AcDbEntity
  8
DIM
390
1D
100
AcDbMText
 10
276.1991568654188
 20
199.3630938200925
 30
0.0
 40
4.8865234375
 41
0.0
 46
5.033119140625
 71
     1
 72
     1
  1
{\fＭＳ ゴシック|b0|i0|c1|p0;▼}
  7
ＭＳ ゴシック
 73
     1
 44
0.7828267384257843
1001
ACAD
1000
ACAD_MTEXT_DEFINED_HEIGHT_BEGIN
1070
    46
1040
5.033119140625
1000
ACAD_MTEXT_DEFINED_HEIGHT_END
  0
DIMENSION
  5
6494
102
{ACAD_REACTORS
330
6496
102
}
102
{ACAD_XDICTIONARY
360
6495
102
}
330
A
100
AcDbEntity
  8
DIM
 48
0.05
100
AcDbDimension
  2
*D14
 10
156.6217622511939
 20
337.724553638669
 30
0.0
 11
134.371762251197
 21
345.224553638669
 31
0.0
 70
    32
 71
     5
 42
44.49999999999383
 73
     0
 74
     0
 75
     0
  3
tfrom線あり
100
AcDbAlignedDimension
 13
112.1217622512001
 23
364.5405290956878
 33
0.0
 14
156.6217622511939
 24
364.5405239644198
 34
0.0
100
AcDbRotatedDimension
  0
MTEXT
  5
64D6
330
A
100
AcDbEntity
  8
DIM
390
1D
100
AcDbMText
 10
199.6665093987146
 20
234.4653004887826
 30
0.0
 40
4.8865234375
 41
0.0
 46
5.580409765625
 71
     1
 72
     1
  1
{\fＭＳ ゴシック|b0|i0|c1|p0;G1/2"}
  7
ＭＳ ゴシック
 73
     1
 44
0.7828267384257843
1001
ACAD
1000
ACAD_MTEXT_DEFINED_HEIGHT_BEGIN
1070
    46
1040
5.580409765625
1000
ACAD_MTEXT_DEFINED_HEIGHT_END
  0
MTEXT
  5
64D7
330
A
100
AcDbEntity
  8
DIM
390
1D
100
AcDbMText
 10
221.5079969043836
 20
229.1452201648081
 30
0.0
 40
4.8865234375
 41
0.0
 46
5.033119140625
 71
     1
 72
     1
  1
{\fＭＳ ゴシック|b0|i0|c1|p0;▼}
  7
ＭＳ ゴシック
 11
3.061616997868383E-16
 21
1.0
 31
0.0
 73
     1
 44
0.7828267384257843
1001
ACAD
1000
ACAD_MTEXT_DEFINED_HEIGHT_BEGIN
1070
    46
1040
5.033119140625
1000
ACAD_MTEXT_DEFINED_HEIGHT_END
  0
LINE
  5
6596
330
A
100
AcDbEntity
  8
MODEL
 48
0.05
100
AcDbLine
 10
249.2740978725808
 20
265.7707645220847
 30
0.0
 11
243.1569075086939
 21
261.8739372641937
 31
0.0
  0
LINE
  5
6597
330
A
100
AcDbEntity
  8
MODEL
 48
0.05
100
AcDbLine
 10
243.1569075086939
 20
261.8739372641937
 30
0.0
 11
243.1569075086939
 21
236.6181252601154
 31
0.0
  0
LINE
  5
6598
330
A
100
AcDbEntity
  8
MODEL
 48
0.05
100
AcDbLine
 10
243.1569075086939
 20
211.3623132560371
 30
0.0
 11
243.1569075086939
 21
236.6181252601154
 31
0.0
  0
LINE
  5
6599
330
A
100
AcDbEntity
  8
MODEL
 48
0.05
100
AcDbLine
 10
249.2740978725808
 20
207.4654859981461
 30
0.0
 11
243.1569075086939
 21
211.3623132560371
 31
0.0
  0
DIMENSION
  5
65B0
330
A
100
AcDbEntity
  8
DIM
 48
0.05
100
AcDbDimension
  2
*D19
 10
190.8821473016498
 20
383.040524104046
 30
0.0
 11
183.3821473016498
 21
415.040524104046
 31
0.0
 70
    32
 71
     5
 42
64.0
 73
     0
 74
     0
 75
     0
  3
tfrom線あり
100
AcDbAlignedDimension
 13
169.3717622511939
 23
447.040524104046
 33
0.0
 14
134.3932560438501
 24
383.040524104046
 34
0.0
 50
90.0
100
AcDbRotatedDimension
  0
DIMENSION
  5
65C3
102
{ACAD_REACTORS
330
65C5
102
}
102
{ACAD_XDICTIONARY
360
65C4
102
}
330
A
100
AcDbEntity
  8
DIM
 48
0.05
100
AcDbDimension
  2
*D20
 10
278.774097872581
 20
166.569448315202
 30
0.0
 11
264.0240978725809
 21
174.069448315202
 31
0.0
 70
    32
  1
27-41
 71
     5
 42
29.50000000000023
 73
     0
 74
     0
 75
     0
  3
tfrom線あり
100
AcDbAlignedDimension
 13
249.2740978725808
 23
201.6181252601154
 33
0.0
 14
278.774097872581
 24
183.5614276374011
 34
0.0
100
AcDbRotatedDimension
  0
LINE
  5
6611
330
A
100
AcDbEntity
  8
MODEL
 48
0.05
100
AcDbLine
 10
163.5244015131632
 20
447.040524104046
 30
0.0
 11
159.6275742552722
 21
453.1577144679329
 31
0.0
  0
LINE
  5
6612
330
A
100
AcDbEntity
  8
MODEL
 48
0.05
100
AcDbLine
 10
159.6275742552722
 20
453.1577144679329
 30
0.0
 11
134.3717622511939
 21
453.1577144679329
 31
0.0
  0
LINE
  5
6613
330
A
100
AcDbEntity
  8
MODEL
 48
0.05
100
AcDbLine
 10
109.1159502471156
 20
453.1577144679329
 30
0.0
 11
134.3717622511939
 21
453.1577144679329
 31
0.0
  0
LINE
  5
6614
330
A
100
AcDbEntity
  8
MODEL
 48
0.05
100
AcDbLine
 10
105.2191229892246
 20
447.040524104046
 30
0.0
 11
109.1159502471156
 21
453.1577144679329
 31
0.0
  0
LINE
  5
667A
330
A
100
AcDbEntity
  8
MODEL
100
AcDbLine
 10
249.2740978725808
 20
277.9486568747154
 30
0.0
 11
249.2740978725808
 21
195.2875936455154
 31
0.0
  0
LINE
  5
667C
330
A
100
AcDbEntity
  8
MODEL
100
AcDbLine
 10
238.8652581950402
 20
195.287593645486
 30
0.0
 11
249.2740978725528
 21
205.6964333229986
 31
0.0
  0
LINE
  5
667D
330
A
100
AcDbEntity
  8
MODEL
100
AcDbLine
 10
243.3553862555747
 20
195.287593645486
 30
0.0
 11
249.2740978725528
 21
201.206305262464
 31
0.0
  0
LINE
  5
667E
330
A
100
AcDbEntity
  8
MODEL
100
AcDbLine
 10
247.8455143161094
 20
195.287593645486
 30
0.0
 11
249.2740978725528
 21
196.7161772019295
 31
0.0
  0
LINE
  5
667F
330
A
100
AcDbEntity
  8
MODEL
100
AcDbLine
 10
238.0814401747341
 20
198.9939036857145
 30
0.0
 11
245.0834050755658
 21
205.9958685865462
 31
0.0
  0
LINE
  5
6680
330
A
100
AcDbEntity
  8
MODEL
100
AcDbLine
 10
249.2740978725808
 20
205.9958685865462
 30
0.0
 11
238.0814401747808
 21
205.9958685865462
 31
0.0
  0
LINE
  5
6681
330
A
100
AcDbEntity
  8
MODEL
100
AcDbLine
 10
238.0814401747341
 20
203.4840317462491
 30
0.0
 11
240.5932770150312
 21
205.9958685865462
 31
0.0
  0
LINE
  5
6682
330
A
100
AcDbEntity
  8
MODEL
100
AcDbLine
 10
249.2740978725808
 20
267.2403819336846
 30
0.0
 11
238.0814401747808
 21
267.2403819336846
 31
0.0
  0
LINE
  5
6683
330
A
100
AcDbEntity
  8
MODEL
100
AcDbLine
 10
238.0814401747341
 20
275.3260807148023
 30
0.0
 11
240.7040163346724
 21
277.9486568747407
 31
0.0
  0
LINE
  5
6684
330
A
100
AcDbEntity
  8
MODEL
100
AcDbLine
 10
238.0814401747341
 20
270.8359526542678
 30
0.0
 11
245.194144395207
 21
277.9486568747407
 31
0.0
  0
LINE
  5
6685
330
A
100
AcDbEntity
  8
MODEL
100
AcDbLine
 10
243.4661255752201
 20
267.2403819336846
 30
0.0
 11
249.2740978725528
 21
273.0483542310174
 31
0.0
  0
LINE
  5
6686
330
A
100
AcDbEntity
  8
MODEL
100
AcDbLine
 10
238.9759975146856
 20
267.2403819336846
 30
0.0
 11
249.2740978725528
 21
277.5384822915519
 31
0.0
  0
LINE
  5
6687
330
A
100
AcDbEntity
  8
MODEL
100
AcDbLine
 10
247.9562536357547
 20
267.2403819336846
 30
0.0
 11
249.2740978725528
 21
268.5582261704827
 31
0.0
  0
DIMENSION
  5
6694
330
A
100
AcDbEntity
  8
DIM
 48
0.05
100
AcDbDimension
  2
*D25
 10
313.2740978725808
 20
292.8612617435255
 30
0.0
 11
281.2740978725808
 21
300.3612617435255
 31
0.0
 70
    32
 71
     5
 42
64.0
 73
     0
 74
     0
 75
     0
  3
tfrom線あり
100
AcDbAlignedDimension
 13
249.2740978725808
 23
277.9486568747154
 33
0.0
 14
313.2740978725808
 24
261.6494973910919
 34
0.0
100
AcDbRotatedDimension
  0
LINE
  5
66A1
330
A
100
AcDbEntity
  8
DIM
  6
CENTER
 48
0.005
100
AcDbLine
 10
313.2740978725808
 20
261.6494973910919
 30
0.0
 11
313.2740978725808
 21
207.3485358052764
 31
0.0
  0
VIEWPORT
  5
349
330
B
100
AcDbEntity
 67
     1
  8
0
100
AcDbViewport
 10
202.5
 20
128.5
 30
0.0
 40
486.0
 41
308.4
 68
     1
 69
     1
 12
202.5
 22
128.5
 13
0.0
 23
0.0
 14
0.5
 24
0.5
 15
0.0
 25
0.0
 16
0.0
 26
0.0
 36
1.0
 17
0.0
 27
0.0
 37
0.0
 42
50.0
 43
0.0
 44
0.0
 45
308.4
 50
0.0
 51
0.0
 72
   100
 90
   557152
  1

281
     0
 71
     1
 74
     0
110
0.0
120
0.0
130
0.0
111
1.0
121
0.0
131
0.0
112
0.0
122
1.0
132
0.0
 79
     0
146
0.0
170
     0
 61
     5
348
26C
292
     1
282
     1
141
0.0
142
0.0
 63
   256
  0
VIEWPORT
  5
34A
330
B
100
AcDbEntity
 67
     1
  8
0
100
AcDbViewport
 10
202.5
 20
128.5
 30
0.0
 40
324.0
 41
205.6
 68
     2
 69
     2
 12
986.6781359294573
 22
1427.077061889956
 13
0.0
 23
0.0
 14
0.5
 24
0.5
 15
0.0
 25
0.0
 16
0.0
 26
0.0
 36
1.0
 17
0.0
 27
0.0
 37
0.0
 42
50.0
 43
0.0
 44
0.0
 45
2890.021615685494
 50
0.0
 51
0.0
 72
   100
 90
   557152
  1

281
     0
 71
     1
 74
     0
110
0.0
120
0.0
130
0.0
111
1.0
121
0.0
131
0.0
112
0.0
122
1.0
132
0.0
 79
     0
146
0.0
170
     0
 61
     5
348
26C
292
     1
282
     1
141
0.0
142
0.0
 63
   256
  0
ENDSEC
  0
SECTION
  2
OBJECTS
  0
DICTIONARY
  5
19
330
0
100
AcDbDictionary
281
     1
  3
ACAD_COLOR
350
674
  3
ACAD_DETAILVIEWSTYLE
350
BBF
  3
ACAD_FIELDLIST
350
44C1
  3
ACAD_GROUP
350
1A
  3
ACAD_IMAGE_VARS
350
27B
  3
ACAD_LAYOUT
350
1E
  3
ACAD_MATERIAL
350
263
  3
ACAD_MLEADERSTYLE
350
336
  3
ACAD_MLINESTYLE
350
1B
  3
ACAD_PLOTSETTINGS
350
22
  3
ACAD_PLOTSTYLENAME
350
1F
  3
ACAD_SCALELIST
350
241
  3
ACAD_SECTIONVIEWSTYLE
350
BC0
  3
ACAD_TABLESTYLE
350
278
  3
ACAD_VISUALSTYLE
350
267
  3
ACDB_RECOMPOSE_DATA
350
66C6
  3
AcDbVariableDictionary
350
330
  3
APPDATA
350
27A
  3
DimOffsetDictionary
350
E38
  0
SUN
  5
904
330
15
100
AcDbSun
 90
        1
290
     0
 63
     7
421
 16777215
 40
1.0
291
     1
 91
  2455826
 92
 54000000
292
     0
 70
     2
 71
   256
280
     1
  0
DICTIONARY
  5
2E1
330
2
100
AcDbDictionary
280
     1
281
     1
  3
ACAD_LAYERSTATES
360
2E2
  3
ACLYDICTIONARY
360
DDE
  0
DICTIONARY
  5
4532
330
4530
100
AcDbDictionary
280
     1
281
     1
  3
ACAD_FIELD
360
4539
  0
DICTIONARY
  5
6495
330
6494
100
AcDbDictionary
280
     1
281
     1
  3
ACAD_DIMASSOC
360
6496
  0
DICTIONARY
  5
65C4
330
65C3
100
AcDbDictionary
280
     1
281
     1
  3
ACAD_DIMASSOC
360
65C5
  0
DICTIONARY
  5
674
102
{ACAD_REACTORS
330
19
102
}
330
19
100
AcDbDictionary
281
     1
  0
DICTIONARY
  5
BBF
102
{ACAD_REACTORS
330
19
102
}
330
19
100
AcDbDictionary
281
     1
  0
FIELDLIST
  5
44C1
102
{ACAD_REACTORS
330
19
102
}
330
19
100
AcDbIdSet
 90
        2
330
4534
330
4531
100
AcDbFieldList
  0
DICTIONARY
  5
1A
102
{ACAD_REACTORS
330
19
102
}
330
19
100
AcDbDictionary
281
     1
  0
RASTERVARIABLES
  5
27B
102
{ACAD_REACTORS
330
19
102
}
330
19
100
AcDbRasterVariables
 90
        0
 70
     1
 71
     1
 72
     1
  0
DICTIONARY
  5
1E
102
{ACAD_REACTORS
330
19
102
}
330
19
100
AcDbDictionary
281
     1
  3
Layout1
350
21
  3
Model
350
20
  0
DICTIONARY
  5
263
102
{ACAD_REACTORS
330
19
102
}
330
19
100
AcDbDictionary
281
     1
  3
ByBlock
350
6430
  3
ByLayer
350
264
  3
Global
350
266
  0
DICTIONARY
  5
336
102
{ACAD_REACTORS
330
19
102
}
330
19
100
AcDbDictionary
281
     1
  3
Standard
350
D59
  0
DICTIONARY
  5
1B
102
{ACAD_REACTORS
330
19
102
}
330
19
100
AcDbDictionary
281
     1
  3
Standard
350
1C
  0
DICTIONARY
  5
22
102
{ACAD_REACTORS
330
19
102
}
330
19
100
AcDbDictionary
281
     1
  0
ACDBDICTIONARYWDFLT
  5
1F
102
{ACAD_REACTORS
330
19
102
}
330
19
100
AcDbDictionary
281
     1
  3
Normal
350
1D
100
AcDbDictionaryWithDefault
340
1D
  0
DICTIONARY
  5
241
102
{ACAD_REACTORS
330
19
102
}
330
19
100
AcDbDictionary
281
     1
  3
A0
350
242
  3
A1
350
243
  3
A2
350
244
  3
A3
350
245
  3
A4
350
246
  3
A5
350
247
  3
A6
350
248
  3
A7
350
249
  3
A8
350
24A
  3
A9
350
24B
  3
B0
350
24C
  3
B1
350
24D
  3
B2
350
24E
  3
B3
350
24F
  3
B4
350
250
  3
B5
350
251
  3
B6
350
252
  3
B7
350
253
  3
B8
350
254
  3
B9
350
255
  3
C0
350
256
  3
C1
350
257
  3
C2
350
258
  3
C3
350
259
  3
C4
350
25A
  3
C5
350
25B
  3
C6
350
25C
  3
C7
350
25D
  3
C8
350
25E
  3
C9
350
25F
  3
D0
350
260
  3
D1
350
261
  3
D2
350
262
  0
DICTIONARY
  5
BC0
102
{ACAD_REACTORS
330
19
102
}
330
19
100
AcDbDictionary
281
     1
  0
DICTIONARY
  5
278
102
{ACAD_REACTORS
330
19
102
}
330
19
100
AcDbDictionary
281
     1
  3
Standard
350
279
  0
DICTIONARY
  5
267
102
{ACAD_REACTORS
330
19
102
}
330
19
100
AcDbDictionary
281
     1
  3
2dWireframe
350
26C
  3
3D Hidden
350
26E
  3
3dWireframe
350
26D
  3
Basic
350
26F
  3
Brighten
350
273
  3
ColorChange
350
277
  3
Conceptual
350
271
  3
Dim
350
272
  3
EdgeColorOff
350
8FE
  3
Facepattern
350
276
  3
Flat
350
268
  3
FlatWithEdges
350
269
  3
Gouraud
350
26A
  3
GouraudWithEdges
350
26B
  3
Hidden
350
8FB
  3
JitterOff
350
8FC
  3
Linepattern
350
275
  3
OverhangOff
350
8FD
  3
Realistic
350
270
  3
Shaded
350
903
  3
Shaded with edges
350
902
  3
Shades of Gray
350
8FF
  3
Sketchy
350
900
  3
Thicken
350
274
  3
Wireframe
350
8FA
  3
X-Ray
350
901
  0
XRECORD
  5
66C6
102
{ACAD_REACTORS
330
19
102
}
330
19
100
AcDbXrecord
280
     1
 90
        1
330
279
  0
DICTIONARY
  5
330
102
{ACAD_REACTORS
330
19
102
}
330
19
100
AcDbDictionary
281
     1
  3
CANNOSCALE
350
331
  3
CMLEADERSTYLE
350
D5E
  3
CTABLESTYLE
350
335
  3
HPTRANSPARENCY
350
D52
  3
XCLIPFRAME
350
896
  0
DICTIONARY
  5
27A
102
{ACAD_REACTORS
330
19
102
}
330
19
100
AcDbDictionary
281
     1
  0
DICTIONARY
  5
E38
102
{ACAD_REACTORS
330
19
102
}
330
19
100
AcDbDictionary
281
     1
  3
DIMRAILANGLE
350
38B2
  3
DIMRAILFIRSTOFFSET
350
38B0
  3
DIMRAILOFFSET
350
38B1
  3
DIMRAILSENABLED
350
38B3
  0
DICTIONARY
  5
2E2
102
{ACAD_REACTORS
330
2E1
102
}
330
2E1
100
AcDbDictionary
281
     1
  3
ARGON_LAYERP_9
350
7AA
  0
DICTIONARY
  5
DDE
102
{ACAD_REACTORS
330
2E1
102
}
330
2E1
100
AcDbDictionary
281
     1
1001
ACAD
1000
<All
  0
DICTIONARY
  5
4539
102
{ACAD_REACTORS
330
4532
102
}
330
4532
100
AcDbDictionary
280
     1
281
     1
  3
TEXT
360
4531
  0
DIMASSOC
  5
6496
102
{ACAD_REACTORS
330
6495
102
}
330
6495
100
AcDbDimAssoc
330
6494
 90
        3
 70
     0
 71
     1
  1
AcDbOsnapPointRef
 72
    13
331
63CD
 73
     0
 91
        0
 40
0.0
 10
0.0
 20
0.0
 30
0.0
 75
     0
  1
AcDbOsnapPointRef
 72
     1
331
63CC
 73
     0
 91
        0
 40
0.0
 10
0.0
 20
0.0
 30
0.0
 75
     0
  0
DIMASSOC
  5
65C5
102
{ACAD_REACTORS
330
65C4
102
}
330
65C4
100
AcDbDimAssoc
330
65C3
 90
        1
 70
     0
 71
     1
  1
AcDbOsnapPointRef
 72
     1
331
6377
 73
     0
 91
        0
 40
0.0
 10
0.0
 20
0.0
 30
0.0
 75
     0
  0
LAYOUT
  5
21
102
{ACAD_REACTORS
330
1E
102
}
330
1E
100
AcDbPlotSettings
  1

  2
none_device
  4
ISO_A3_(420.00_x_297.00_MM)
  6

 40
7.5
 41
20.0
 42
7.5
 43
20.0
 44
420.0
 45
297.0
 46
0.0
 47
0.0
 48
0.0
 49
0.0
140
0.0
141
0.0
142
1.0
143
1.0
 70
     0
 72
     1
 73
     0
 74
     0
  7

 75
     0
 76
     0
 77
     2
 78
   300
147
1.0
148
0.0
149
0.0
100
AcDbLayout
  1
Layout1
 70
     0
 71
     0
 10
-7.5
 20
-20.0
 11
412.5
 21
277.0
 12
0.0
 22
0.0
 32
0.0
 14
0.0
 24
0.0
 34
0.0
 15
0.0
 25
0.0
 35
0.0
146
0.0
 13
0.0
 23
0.0
 33
0.0
 16
0.0
 26
0.0
 36
0.0
 17
0.0
 27
0.0
 37
0.0
 76
     0
330
B
331
349
  0
LAYOUT
  5
20
102
{ACAD_REACTORS
330
1E
102
}
330
1E
100
AcDbPlotSettings
  1

  2
none_device
  4
ISO_A3_(420.00_x_297.00_MM)
  6

 40
7.5
 41
20.0
 42
7.5
 43
20.0
 44
420.0
 45
297.0
 46
0.0
 47
0.0
 48
0.0
 49
0.0
140
0.0
141
0.0
142
1.0
143
1.0
 70
  1024
 72
     1
 73
     0
 74
     0
  7

 75
     0
 76
     0
 77
     2
 78
   300
147
1.0
148
0.0
149
0.0
100
AcDbLayout
  1
Model
 70
     0
 71
     1
 10
0.0
 20
0.0
 11
420.0
 21
594.0
 12
0.0
 22
0.0
 32
0.0
 14
0.0
 24
0.0
 34
0.0
 15
420.0
 25
594.0
 35
0.0
146
0.0
 13
0.0
 23
0.0
 33
0.0
 16
0.0
 26
0.0
 36
0.0
 17
0.0
 27
0.0
 37
0.0
 76
     0
330
A
331
15
  0
MATERIAL
  5
6430
102
{ACAD_REACTORS
330
263
102
}
330
263
100
AcDbMaterial
  1
ByBlock
 72
     1
 94
      127
  0
MATERIAL
  5
264
102
{ACAD_REACTORS
330
263
102
}
330
263
100
AcDbMaterial
  1
ByLayer
 72
     1
 94
      127
  0
MATERIAL
  5
266
102
{ACAD_REACTORS
330
263
102
}
330
263
100
AcDbMaterial
  1
Global
 72
     1
 94
      127
  0
MLEADERSTYLE
  5
D59
102
{ACAD_REACTORS
330
336
102
}
330
336
100
AcDbMLeaderStyle
170
     2
171
     1
172
     0
 90
        2
 40
0.0
 41
0.0
173
     1
 91
-1056964608
340
11
 92
       -2
290
     1
 42
2.0
291
     1
 43
8.0
  3
Standard
341
0
 44
4.0
300

342
17
174
     1
178
     6
175
     1
176
     0
 93
-1056964608
 45
4.0
292
     0
297
     0
 46
4.0
343
0
 94
-1056964608
 47
1.0
 49
1.0
140
1.0
293
     1
141
0.0
294
     1
177
     0
142
1.0
295
     0
296
     0
143
3.75
1001
ACAD_MLEADERVER
1070
     2
  0
MLINESTYLE
  5
1C
102
{ACAD_REACTORS
330
1B
102
}
330
1B
100
AcDbMlineStyle
  2
Standard
 70
     0
  3

 62
     0
 51
90.0
 52
90.0
 71
     2
 49
0.5
 62
   256
  6
BYLAYER
 49
-0.5
 62
   256
  6
BYLAYER
  0
ACDBPLACEHOLDER
  5
1D
102
{ACAD_REACTORS
330
1F
102
}
330
1F
  0
SCALE
  5
242
102
{ACAD_REACTORS
330
241
102
}
330
241
100
AcDbScale
 70
     0
300
1:1
140
1.0
141
1.0
290
     1
  0
SCALE
  5
243
102
{ACAD_REACTORS
330
241
102
}
330
241
100
AcDbScale
 70
     0
300
1:2
140
1.0
141
2.0
290
     0
  0
SCALE
  5
244
102
{ACAD_REACTORS
330
241
102
}
330
241
100
AcDbScale
 70
     0
300
1:4
140
1.0
141
4.0
290
     0
  0
SCALE
  5
245
102
{ACAD_REACTORS
330
241
102
}
330
241
100
AcDbScale
 70
     0
300
1:5
140
1.0
141
5.0
290
     0
  0
SCALE
  5
246
102
{ACAD_REACTORS
330
241
102
}
330
241
100
AcDbScale
 70
     0
300
1:8
140
1.0
141
8.0
290
     0
  0
SCALE
  5
247
102
{ACAD_REACTORS
330
241
102
}
330
241
100
AcDbScale
 70
     0
300
1:10
140
1.0
141
10.0
290
     0
  0
SCALE
  5
248
102
{ACAD_REACTORS
330
241
102
}
330
241
100
AcDbScale
 70
     0
300
1:16
140
1.0
141
16.0
290
     0
  0
SCALE
  5
249
102
{ACAD_REACTORS
330
241
102
}
330
241
100
AcDbScale
 70
     0
300
1:20
140
1.0
141
20.0
290
     0
  0
SCALE
  5
24A
102
{ACAD_REACTORS
330
241
102
}
330
241
100
AcDbScale
 70
     0
300
1:30
140
1.0
141
30.0
290
     0
  0
SCALE
  5
24B
102
{ACAD_REACTORS
330
241
102
}
330
241
100
AcDbScale
 70
     0
300
1:40
140
1.0
141
40.0
290
     0
  0
SCALE
  5
24C
102
{ACAD_REACTORS
330
241
102
}
330
241
100
AcDbScale
 70
     0
300
1:50
140
1.0
141
50.0
290
     0
  0
SCALE
  5
24D
102
{ACAD_REACTORS
330
241
102
}
330
241
100
AcDbScale
 70
     0
300
1:100
140
1.0
141
100.0
290
     0
  0
SCALE
  5
24E
102
{ACAD_REACTORS
330
241
102
}
330
241
100
AcDbScale
 70
     0
300
2:1
140
2.0
141
1.0
290
     0
  0
SCALE
  5
24F
102
{ACAD_REACTORS
330
241
102
}
330
241
100
AcDbScale
 70
     0
300
4:1
140
4.0
141
1.0
290
     0
  0
SCALE
  5
250
102
{ACAD_REACTORS
330
241
102
}
330
241
100
AcDbScale
 70
     0
300
8:1
140
8.0
141
1.0
290
     0
  0
SCALE
  5
251
102
{ACAD_REACTORS
330
241
102
}
330
241
100
AcDbScale
 70
     0
300
10:1
140
10.0
141
1.0
290
     0
  0
SCALE
  5
252
102
{ACAD_REACTORS
330
241
102
}
330
241
100
AcDbScale
 70
     0
300
100:1
140
100.0
141
1.0
290
     0
  0
SCALE
  5
253
102
{ACAD_REACTORS
330
241
102
}
330
241
100
AcDbScale
 70
     0
300
1/128" = 1'-0"
140
0.0078125
141
12.0
290
     0
  0
SCALE
  5
254
102
{ACAD_REACTORS
330
241
102
}
330
241
100
AcDbScale
 70
     0
300
1/64" = 1'-0"
140
0.015625
141
12.0
290
     0
  0
SCALE
  5
255
102
{ACAD_REACTORS
330
241
102
}
330
241
100
AcDbScale
 70
     0
300
1/32" = 1'-0"
140
0.03125
141
12.0
290
     0
  0
SCALE
  5
256
102
{ACAD_REACTORS
330
241
102
}
330
241
100
AcDbScale
 70
     0
300
1/16" = 1'-0"
140
0.0625
141
12.0
290
     0
  0
SCALE
  5
257
102
{ACAD_REACTORS
330
241
102
}
330
241
100
AcDbScale
 70
     0
300
3/32" = 1'-0"
140
0.09375
141
12.0
290
     0
  0
SCALE
  5
258
102
{ACAD_REACTORS
330
241
102
}
330
241
100
AcDbScale
 70
     0
300
1/8" = 1'-0"
140
0.125
141
12.0
290
     0
  0
SCALE
  5
259
102
{ACAD_REACTORS
330
241
102
}
330
241
100
AcDbScale
 70
     0
300
3/16" = 1'-0"
140
0.1875
141
12.0
290
     0
  0
SCALE
  5
25A
102
{ACAD_REACTORS
330
241
102
}
330
241
100
AcDbScale
 70
     0
300
1/4" = 1'-0"
140
0.25
141
12.0
290
     0
  0
SCALE
  5
25B
102
{ACAD_REACTORS
330
241
102
}
330
241
100
AcDbScale
 70
     0
300
3/8" = 1'-0"
140
0.375
141
12.0
290
     0
  0
SCALE
  5
25C
102
{ACAD_REACTORS
330
241
102
}
330
241
100
AcDbScale
 70
     0
300
1/2" = 1'-0"
140
0.5
141
12.0
290
     0
  0
SCALE
  5
25D
102
{ACAD_REACTORS
330
241
102
}
330
241
100
AcDbScale
 70
     0
300
3/4" = 1'-0"
140
0.75
141
12.0
290
     0
  0
SCALE
  5
25E
102
{ACAD_REACTORS
330
241
102
}
330
241
100
AcDbScale
 70
     0
300
1" = 1'-0"
140
1.0
141
12.0
290
     0
  0
SCALE
  5
25F
102
{ACAD_REACTORS
330
241
102
}
330
241
100
AcDbScale
 70
     0
300
1-1/2" = 1'-0"
140
1.5
141
12.0
290
     0
  0
SCALE
  5
260
102
{ACAD_REACTORS
330
241
102
}
330
241
100
AcDbScale
 70
     0
300
3" = 1'-0"
140
3.0
141
12.0
290
     0
  0
SCALE
  5
261
102
{ACAD_REACTORS
330
241
102
}
330
241
100
AcDbScale
 70
     0
300
6" = 1'-0"
140
6.0
141
12.0
290
     0
  0
SCALE
  5
262
102
{ACAD_REACTORS
330
241
102
}
330
241
100
AcDbScale
 70
     0
300
1'-0" = 1'-0"
140
12.0
141
12.0
290
     0
  0
TABLESTYLE
  5
279
102
{ACAD_REACTORS
330
278
102
}
102
{ACAD_XDICTIONARY
360
66C4
102
}
330
278
100
AcDbTableStyle
  3
Standard
 70
     0
 71
     0
 40
0.06
 41
0.06
280
     0
281
     0
  7
Standard
140
4.5
170
     2
 62
     0
 63
   257
283
     0
 90
        4
 91
        0
  1

274
    -2
284
     1
 64
     0
275
    -2
285
     1
 65
     0
276
    -2
286
     1
 66
     0
277
    -2
287
     1
 67
     0
278
    -2
288
     1
 68
     0
279
    -2
289
     1
 69
     0
  7
Standard
140
6.0
170
     5
 62
     0
 63
   257
283
     0
 90
        4
 91
        0
  1

274
    -2
284
     1
 64
     0
275
    -2
285
     1
 65
     0
276
    -2
286
     1
 66
     0
277
    -2
287
     1
 67
     0
278
    -2
288
     1
 68
     0
279
    -2
289
     1
 69
     0
  7
Standard
140
4.5
170
     5
 62
     0
 63
   257
283
     0
 90
        4
 91
        0
  1

274
    -2
284
     1
 64
     0
275
    -2
285
     1
 65
     0
276
    -2
286
     1
 66
     0
277
    -2
287
     1
 67
     0
278
    -2
288
     1
 68
     0
279
    -2
289
     1
 69
     0
  0
VISUALSTYLE
  5
26C
102
{ACAD_REACTORS
330
267
102
}
330
267
100
AcDbVisualStyle
  2
2dWireframe
 70
     4
 71
     0
 72
     2
 73
     0
 90
        0
 40
-0.6
 41
-30.0
 62
     5
 63
     7
421
 16777215
 74
     1
 91
        4
 64
     7
 65
   257
 75
     1
175
     1
 42
1.0
 92
        0
 66
   257
 43
1.0
 76
     1
 77
     6
 78
     2
 67
     7
 79
     5
170
     0
171
     0
290
     0
174
     0
 93
        1
 44
0.0
173
     0
291
     0
 45
0.0
  0
VISUALSTYLE
  5
26E
102
{ACAD_REACTORS
330
267
102
}
330
267
100
AcDbVisualStyle
  2
3D Hidden
 70
     6
 71
     1
 72
     2
 73
     2
 90
        0
 40
-0.6
 41
-30.0
 62
     5
 63
     7
421
 16777215
 74
     2
 91
        2
 64
     7
 65
   257
 75
     2
175
     1
 42
40.0
 92
        0
 66
   257
 43
1.0
 76
     1
 77
     6
 78
     2
 67
     7
 79
     3
170
     0
171
     0
290
     0
174
     0
 93
        1
 44
0.0
173
     0
291
     0
 45
0.0
  0
VISUALSTYLE
  5
26D
102
{ACAD_REACTORS
330
267
102
}
330
267
100
AcDbVisualStyle
  2
3dWireframe
 70
     5
 71
     0
 72
     2
 73
     0
 90
        0
 40
-0.6
 41
-30.0
 62
     5
 63
     7
421
 16777215
 74
     1
 91
        4
 64
     7
 65
   257
 75
     1
175
     1
 42
1.0
 92
        0
 66
   257
 43
1.0
 76
     1
 77
     6
 78
     2
 67
     7
 79
     5
170
     0
171
     0
290
     0
174
     0
 93
        1
 44
0.0
173
     0
291
     0
 45
0.0
  0
VISUALSTYLE
  5
26F
102
{ACAD_REACTORS
330
267
102
}
330
267
100
AcDbVisualStyle
  2
Basic
 70
     7
 71
     1
 72
     0
 73
     1
 90
        0
 40
-0.6
 41
-30.0
 62
     5
 63
     7
421
 16777215
 74
     0
 91
        4
 64
     7
 65
   257
 75
     1
175
     1
 42
1.0
 92
        8
 66
     7
 43
1.0
 76
     1
 77
     6
 78
     2
 67
     7
 79
     5
170
     0
171
     0
290
     0
174
     0
 93
        1
 44
0.0
173
     0
291
     1
 45
0.0
  0
VISUALSTYLE
  5
273
102
{ACAD_REACTORS
330
267
102
}
330
267
100
AcDbVisualStyle
  2
Brighten
 70
    12
 71
     2
 72
     2
 73
     0
 90
        0
 40
-0.6
 41
-30.0
 62
     5
 63
     7
421
 16777215
 74
     1
 91
        4
 64
     7
 65
   257
 75
     1
175
     1
 42
1.0
 92
        8
 66
     7
 43
1.0
 76
     1
 77
     6
 78
     2
 67
     7
 79
     5
170
     0
171
     0
290
     0
174
     0
 93
        1
 44
50.0
173
     0
291
     1
 45
0.0
  0
VISUALSTYLE
  5
277
102
{ACAD_REACTORS
330
267
102
}
330
267
100
AcDbVisualStyle
  2
ColorChange
 70
    16
 71
     2
 72
     2
 73
     3
 90
        0
 40
-0.6
 41
-30.0
 62
     5
 63
     8
421
  8421504
 74
     1
 91
        4
 64
     7
 65
   257
 75
     1
175
     1
 42
1.0
 92
        8
 66
     8
424
  8421504
 43
1.0
 76
     1
 77
     6
 78
     2
 67
     7
 79
     5
170
     0
171
     0
290
     0
174
     0
 93
        1
 44
0.0
173
     0
291
     1
 45
0.0
  0
VISUALSTYLE
  5
271
102
{ACAD_REACTORS
330
267
102
}
330
267
100
AcDbVisualStyle
  2
Conceptual
 70
     9
 71
     3
 72
     2
 73
     0
 90
        0
 40
-0.6
 41
-30.0
 62
     5
 63
     7
421
 16777215
 74
     2
 91
        2
 64
     7
 65
   257
 75
     1
175
     1
 42
40.0
 92
        8
 66
     7
 43
1.0
 76
     1
 77
     6
 78
     2
 67
     7
 79
     3
170
     0
171
     0
290
     0
174
     0
 93
        1
 44
0.0
173
     0
291
     0
 45
0.0
  0
VISUALSTYLE
  5
272
102
{ACAD_REACTORS
330
267
102
}
330
267
100
AcDbVisualStyle
  2
Dim
 70
    11
 71
     2
 72
     2
 73
     0
 90
        0
 40
-0.6
 41
-30.0
 62
     5
 63
     7
421
 16777215
 74
     1
 91
        4
 64
     7
 65
   257
 75
     1
175
     1
 42
1.0
 92
        8
 66
     7
 43
1.0
 76
     1
 77
     6
 78
     2
 67
     7
 79
     5
170
     0
171
     0
290
     0
174
     0
 93
        1
 44
-50.0
173
     0
291
     1
 45
0.0
  0
VISUALSTYLE
  5
8FE
102
{ACAD_REACTORS
330
267
102
}
330
267
100
AcDbVisualStyle
  2
EdgeColorOff
 70
    22
 71
     2
 72
     2
 73
     0
 90
        0
 40
0.6
 41
30.0
 62
     5
 63
     7
421
 16777215
 74
     1
 91
        4
 64
     7
 65
   257
 75
     1
175
     1
 42
1.0
 92
        8
 66
     7
 43
1.0
 76
     1
 77
     6
 78
     2
 67
     7
 79
     5
170
     0
171
     0
290
     0
174
     0
 93
        1
 44
0.0
173
     0
291
     1
 45
0.0
  0
VISUALSTYLE
  5
276
102
{ACAD_REACTORS
330
267
102
}
330
267
100
AcDbVisualStyle
  2
Facepattern
 70
    15
 71
     2
 72
     2
 73
     0
 90
        0
 40
-0.6
 41
-30.0
 62
     5
 63
     7
421
 16777215
 74
     1
 91
        4
 64
     7
 65
   257
 75
     1
175
     1
 42
1.0
 92
        8
 66
     7
 43
1.0
 76
     1
 77
     6
 78
     2
 67
     7
 79
     5
170
     0
171
     0
290
     0
174
     0
 93
        1
 44
0.0
173
     0
291
     1
 45
0.0
  0
VISUALSTYLE
  5
268
102
{ACAD_REACTORS
330
267
102
}
330
267
100
AcDbVisualStyle
  2
Flat
 70
     0
 71
     2
 72
     1
 73
     1
 90
        2
 40
-0.6
 41
30.0
 62
     5
 63
     7
421
 16777215
 74
     0
 91
        4
 64
     7
 65
   257
 75
     1
175
     1
 42
1.0
 92
        8
 66
     7
 43
1.0
 76
     1
 77
     6
 78
     2
 67
     7
 79
     5
170
     0
171
     0
290
     0
174
     0
 93
       13
 44
0.0
173
     0
291
     1
 45
0.0
  0
VISUALSTYLE
  5
269
102
{ACAD_REACTORS
330
267
102
}
330
267
100
AcDbVisualStyle
  2
FlatWithEdges
 70
     1
 71
     2
 72
     1
 73
     1
 90
        2
 40
-0.6
 41
30.0
 62
     5
 63
     7
421
 16777215
 74
     1
 91
        4
 64
     7
 65
   257
 75
     1
175
     1
 42
1.0
 92
        0
 66
   257
 43
1.0
 76
     1
 77
     6
 78
     2
 67
     7
 79
     5
170
     0
171
     0
290
     0
174
     0
 93
       13
 44
0.0
173
     0
291
     1
 45
0.0
  0
VISUALSTYLE
  5
26A
102
{ACAD_REACTORS
330
267
102
}
330
267
100
AcDbVisualStyle
  2
Gouraud
 70
     2
 71
     2
 72
     2
 73
     1
 90
        2
 40
-0.6
 41
30.0
 62
     5
 63
     7
421
 16777215
 74
     0
 91
        4
 64
     7
 65
   257
 75
     1
175
     1
 42
1.0
 92
        0
 66
     7
 43
1.0
 76
     1
 77
     6
 78
     2
 67
     7
 79
     5
170
     0
171
     0
290
     0
174
     0
 93
       13
 44
0.0
173
     0
291
     1
 45
0.0
  0
VISUALSTYLE
  5
26B
102
{ACAD_REACTORS
330
267
102
}
330
267
100
AcDbVisualStyle
  2
GouraudWithEdges
 70
     3
 71
     2
 72
     2
 73
     1
 90
        2
 40
-0.6
 41
30.0
 62
     5
 63
     7
421
 16777215
 74
     1
 91
        4
 64
     7
 65
   257
 75
     1
175
     1
 42
1.0
 92
        0
 66
   257
 43
1.0
 76
     1
 77
     6
 78
     2
 67
     7
 79
     5
170
     0
171
     0
290
     0
174
     0
 93
       13
 44
0.0
173
     0
291
     1
 45
0.0
  0
VISUALSTYLE
  5
8FB
102
{ACAD_REACTORS
330
267
102
}
330
267
100
AcDbVisualStyle
  2
Hidden
 70
     6
 71
     1
 72
     2
 73
     2
 90
        0
 40
0.6
 41
30.0
 62
     5
 63
     7
421
 16777215
 74
     2
 91
        2
 64
     7
 65
   257
 75
     2
175
     1
 42
40.0
 92
        0
 66
   257
 43
1.0
 76
     1
 77
     6
 78
     2
 67
     7
 79
     3
170
     0
171
     0
290
     0
174
     0
 93
        1
 44
0.0
173
     0
291
     0
 45
0.0
  0
VISUALSTYLE
  5
8FC
102
{ACAD_REACTORS
330
267
102
}
330
267
100
AcDbVisualStyle
  2
JitterOff
 70
    20
 71
     2
 72
     2
 73
     0
 90
        0
 40
0.6
 41
30.0
 62
     5
 63
     7
421
 16777215
 74
     1
 91
        4
 64
     7
 65
   257
 75
     1
175
     1
 42
1.0
 92
       10
 66
     7
 43
1.0
 76
     1
 77
     6
 78
     2
 67
     7
 79
     5
170
     0
171
     0
290
     0
174
     0
 93
        1
 44
0.0
173
     0
291
     1
 45
0.0
  0
VISUALSTYLE
  5
275
102
{ACAD_REACTORS
330
267
102
}
330
267
100
AcDbVisualStyle
  2
Linepattern
 70
    14
 71
     2
 72
     2
 73
     0
 90
        0
 40
-0.6
 41
-30.0
 62
     5
 63
     7
421
 16777215
 74
     1
 91
        4
 64
     7
 65
   257
 75
     7
175
     7
 42
1.0
 92
        8
 66
     7
 43
1.0
 76
     1
 77
     6
 78
     2
 67
     7
 79
     5
170
     0
171
     0
290
     0
174
     0
 93
        1
 44
0.0
173
     0
291
     1
 45
0.0
  0
VISUALSTYLE
  5
8FD
102
{ACAD_REACTORS
330
267
102
}
330
267
100
AcDbVisualStyle
  2
OverhangOff
 70
    21
 71
     2
 72
     2
 73
     0
 90
        0
 40
0.6
 41
30.0
 62
     5
 63
     7
421
 16777215
 74
     1
 91
        4
 64
     7
 65
   257
 75
     1
175
     1
 42
1.0
 92
        9
 66
     7
 43
1.0
 76
     1
 77
     6
 78
     2
 67
     7
 79
     5
170
     0
171
     0
290
     0
174
     0
 93
        1
 44
0.0
173
     0
291
     1
 45
0.0
  0
VISUALSTYLE
  5
270
102
{ACAD_REACTORS
330
267
102
}
330
267
100
AcDbVisualStyle
  2
Realistic
 70
     8
 71
     2
 72
     2
 73
     0
 90
        0
 40
-0.6
 41
-30.0
 62
     5
 63
     7
421
 16777215
 74
     1
 91
        0
 64
     7
 65
   257
 75
     1
175
     1
 42
1.0
 92
        8
 66
     8
424
  7895160
 43
1.0
 76
     1
 77
     6
 78
     2
 67
     7
 79
     5
170
     0
171
     0
290
     0
174
     0
 93
       13
 44
0.0
173
     0
291
     0
 45
0.0
  0
VISUALSTYLE
  5
903
102
{ACAD_REACTORS
330
267
102
}
330
267
100
AcDbVisualStyle
  2
Shaded
 70
    27
 71
     2
 72
     2
 73
     1
 90
        2
 40
0.6
 41
30.0
 62
     5
 63
     7
421
 16777215
 74
     0
 91
        4
 64
     7
 65
   257
 75
     1
175
     1
 42
1.0
 92
        8
 66
   257
 43
1.0
 76
     1
 77
     6
 78
     2
 67
     8
425
  7895160
 79
     3
170
     0
171
     0
290
     0
174
     0
 93
        5
 44
0.0
173
     0
291
     0
 45
0.0
  0
VISUALSTYLE
  5
902
102
{ACAD_REACTORS
330
267
102
}
330
267
100
AcDbVisualStyle
  2
Shaded with edges
 70
    26
 71
     2
 72
     2
 73
     1
 90
        2
 40
0.6
 41
30.0
 62
     5
 63
     7
421
 16777215
 74
     1
 91
       10
 64
     7
 65
   257
 75
     2
175
     1
 42
1.0
 92
        8
 66
   257
 43
1.0
 76
     1
 77
     6
 78
     2
 67
     7
 79
     3
170
     0
171
     0
290
     0
174
     0
 93
        5
 44
0.0
173
     0
291
     0
 45
0.0
  0
VISUALSTYLE
  5
8FF
102
{ACAD_REACTORS
330
267
102
}
330
267
100
AcDbVisualStyle
  2
Shades of Gray
 70
    23
 71
     2
 72
     2
 73
     3
 90
        0
 40
0.6
 41
30.0
 62
     5
 63
     7
421
 16777215
 74
     2
 91
        2
 64
     7
 65
     7
 75
     1
175
     1
 42
40.0
 92
        8
 66
     7
 43
1.0
 76
     1
 77
     6
 78
     2
 67
     7
 79
     3
170
     0
171
     0
290
     0
174
     0
 93
        1
 44
0.0
173
     0
291
     0
 45
0.0
  0
VISUALSTYLE
  5
900
102
{ACAD_REACTORS
330
267
102
}
330
267
100
AcDbVisualStyle
  2
Sketchy
 70
    24
 71
     1
 72
     2
 73
     2
 90
        0
 40
0.6
 41
30.0
 62
     5
 63
     7
421
 16777215
 74
     2
 91
        2
 64
     7
 65
     7
 75
     1
175
     1
 42
40.0
 92
       11
 66
     7
 43
1.0
 76
     1
 77
     6
 78
     2
 67
     7
 79
     6
170
     0
171
     0
290
     0
174
     0
 93
        1
 44
0.0
173
     0
291
     0
 45
0.0
  0
VISUALSTYLE
  5
274
102
{ACAD_REACTORS
330
267
102
}
330
267
100
AcDbVisualStyle
  2
Thicken
 70
    13
 71
     2
 72
     2
 73
     0
 90
        0
 40
-0.6
 41
-30.0
 62
     5
 63
     7
421
 16777215
 74
     1
 91
        4
 64
     7
 65
   257
 75
     1
175
     1
 42
1.0
 92
       12
 66
     7
 43
1.0
 76
     1
 77
     6
 78
     2
 67
     7
 79
     5
170
     0
171
     0
290
     0
174
     0
 93
        1
 44
0.0
173
     0
291
     1
 45
0.0
  0
VISUALSTYLE
  5
8FA
102
{ACAD_REACTORS
330
267
102
}
330
267
100
AcDbVisualStyle
  2
Wireframe
 70
     5
 71
     0
 72
     2
 73
     0
 90
        0
 40
0.6
 41
30.0
 62
     5
 63
     7
421
 16777215
 74
     1
 91
        4
 64
     7
 65
   257
 75
     1
175
     1
 42
1.0
 92
        0
 66
   257
 43
1.0
 76
     1
 77
     6
 78
     2
 67
     7
 79
     3
170
     0
171
     0
290
     0
174
     0
 93
        1
 44
0.0
173
     0
291
     0
 45
0.0
  0
VISUALSTYLE
  5
901
102
{ACAD_REACTORS
330
267
102
}
330
267
100
AcDbVisualStyle
  2
X-Ray
 70
    25
 71
     2
 72
     2
 73
     1
 90
        1
 40
0.5
 41
30.0
 62
     5
 63
     7
421
 16777215
 74
     1
 91
        0
 64
     7
 65
   257
 75
     1
175
     1
 42
1.0
 92
        8
 66
     7
 43
1.0
 76
     1
 77
     6
 78
     2
 67
     7
 79
     3
170
     0
171
     0
290
     0
174
     0
 93
       13
 44
0.0
173
     0
291
     0
 45
0.0
  0
DICTIONARYVAR
  5
331
102
{ACAD_REACTORS
330
330
102
}
330
330
100
DictionaryVariables
280
     0
  1
1:1
  0
DICTIONARYVAR
  5
D5E
102
{ACAD_REACTORS
330
330
102
}
330
330
100
DictionaryVariables
280
     0
  1
Standard
  0
DICTIONARYVAR
  5
335
102
{ACAD_REACTORS
330
330
102
}
330
330
100
DictionaryVariables
280
     0
  1
Standard
  0
DICTIONARYVAR
  5
D52
102
{ACAD_REACTORS
330
330
102
}
330
330
100
DictionaryVariables
280
     0
  1
ByLayer
  0
DICTIONARYVAR
  5
896
102
{ACAD_REACTORS
330
330
102
}
330
330
100
DictionaryVariables
280
     0
  1
0
  0
DICTIONARYVAR
  5
38B2
102
{ACAD_REACTORS
330
E38
102
}
330
E38
100
DictionaryVariables
280
     0
  1
0.261799
  0
DICTIONARYVAR
  5
38B0
102
{ACAD_REACTORS
330
E38
102
}
330
E38
100
DictionaryVariables
280
     0
  1
0.400000
  0
DICTIONARYVAR
  5
38B1
102
{ACAD_REACTORS
330
E38
102
}
330
E38
100
DictionaryVariables
280
     0
  1
0.250000
  0
DICTIONARYVAR
  5
38B3
102
{ACAD_REACTORS
330
E38
102
}
330
E38
100
DictionaryVariables
280
     0
  1
1
  0
XRECORD
  5
7AA
102
{ACAD_REACTORS
330
2E2
102
}
330
2E2
100
AcDbXrecord
280
     1
 91
    34815
301

290
     0
302
HIDDEN
330
14
 90
        8
 62
     7
370
    -3
331
13
  1
Color_7
440
 33554687
330
4B
 90
        8
 62
     7
370
    20
331
13
  1
Color_7
440
 33554687
330
4C
 90
        8
 62
     3
370
    13
331
13
  1
Color_3
440
 33554687
330
4D
 90
        8
 62
     7
370
    20
331
13
  1
Color_7
440
 33554687
330
667
 90
        8
 62
     7
370
    -3
331
13
  1
Color_7
440
 33554687
330
0
 90
        8
 62
     8
370
    20
331
0
  1
Color_8
440
 33554687
330
D6B
 90
        0
 62
     4
370
    20
331
D6C
  1
Color_4
440
 33554687
330
D8C
 90
        0
 62
     7
370
    -3
331
13
  1
Color_7
440
 33554687
  0
FIELD
  5
4531
102
{ACAD_REACTORS
330
4539
102
}
330
4539
100
AcDbField
  1
_text
  2
{%<\_FldIdx 0>%N}
 90
        1
360
4534
 97
        0
 91
       63
 92
        0
 94
        8
 95
        2
 96
        0
300

 93
        1
  6
ACFD_FIELDTEXT_CHECKSUM
 93
        2
 90
        2
140
4547.0
 94
        0
300

302

304
ACVALUE_END
  7
ACFD_FIELD_VALUE
 93
        6
 90
        4
  1
{20160726N}
 94
        0
300

302

304
ACVALUE_END
301
{20160726N}
 98
       11
  0
DICTIONARY
  5
66C4
330
279
100
AcDbDictionary
280
     1
281
     1
  3
ACAD_ROUNDTRIP_2008_TABLESTYLE_CELLSTYLEMAP
360
66C5
  0
FIELD
  5
4534
330
4531
100
AcDbField
  1
AcVar
  2
\AcVar CreateDate \f "yyyyMMdd"
 90
        0
 97
        0
 91
       63
 92
        0
 94
        8
 95
        2
 96
        0
300

 93
        1
  6
Variable
 93
        2
 90
        4
  1
CreateDate
 94
        0
300

302

304
ACVALUE_END
  7
ACFD_FIELD_VALUE
 93
        6
 90
        8
 92
       16
310
E007070000001A00040020000D000000
 94
        0
300
yyyyMMdd
302

304
ACVALUE_END
301
20160726
 98
        8
  0
CELLSTYLEMAP
  5
66C5
102
{ACAD_REACTORS
330
66C4
102
}
330
66C4
100
AcDbCellStyleMap
 90
        3
300
CELLSTYLE
  1
TABLEFORMAT_BEGIN
 90
        5
170
     1
 91
        0
 92
    32768
 62
   257
 93
        1
300
CONTENTFORMAT
  1
CONTENTFORMAT_BEGIN
 90
        0
 91
        0
 92
        4
 93
        0
300

 40
0.0
140
1.0
 94
        5
 62
     0
340
17
144
6.0
309
CONTENTFORMAT_END
171
     1
301
MARGIN
  1
CELLMARGIN_BEGIN
 40
0.06
 40
0.06
 40
0.06
 40
0.06
 40
0.18
 40
0.18
309
CELLMARGIN_END
 94
        6
 95
        1
302
GRIDFORMAT
  1
GRIDFORMAT_BEGIN
 90
        0
 91
        1
 62
     0
 92
       -2
340
0
 93
        0
 40
0.045
309
GRIDFORMAT_END
 95
        2
302
GRIDFORMAT
  1
GRIDFORMAT_BEGIN
 90
        0
 91
        1
 62
     0
 92
       -2
340
0
 93
        0
 40
0.045
309
GRIDFORMAT_END
 95
        4
302
GRIDFORMAT
  1
GRIDFORMAT_BEGIN
 90
        0
 91
        1
 62
     0
 92
       -2
340
0
 93
        0
 40
0.045
309
GRIDFORMAT_END
 95
        8
302
GRIDFORMAT
  1
GRIDFORMAT_BEGIN
 90
        0
 91
        1
 62
     0
 92
       -2
340
0
 93
        0
 40
0.045
309
GRIDFORMAT_END
 95
       16
302
GRIDFORMAT
  1
GRIDFORMAT_BEGIN
 90
        0
 91
        1
 62
     0
 92
       -2
340
0
 93
        0
 40
0.045
309
GRIDFORMAT_END
 95
       32
302
GRIDFORMAT
  1
GRIDFORMAT_BEGIN
 90
        0
 91
        1
 62
     0
 92
       -2
340
0
 93
        0
 40
0.045
309
GRIDFORMAT_END
309
TABLEFORMAT_END
  1
CELLSTYLE_BEGIN
 90
        1
 91
        1
300
_TITLE
309
CELLSTYLE_END
300
CELLSTYLE
  1
TABLEFORMAT_BEGIN
 90
        5
170
     1
 91
        0
 92
        0
 62
   257
 93
        1
300
CONTENTFORMAT
  1
CONTENTFORMAT_BEGIN
 90
        0
 91
        0
 92
        4
 93
        0
300

 40
0.0
140
1.0
 94
        5
 62
     0
340
17
144
4.5
309
CONTENTFORMAT_END
171
     1
301
MARGIN
  1
CELLMARGIN_BEGIN
 40
0.06
 40
0.06
 40
0.06
 40
0.06
 40
0.18
 40
0.18
309
CELLMARGIN_END
 94
        6
 95
        1
302
GRIDFORMAT
  1
GRIDFORMAT_BEGIN
 90
        0
 91
        1
 62
     0
 92
       -2
340
0
 93
        0
 40
0.045
309
GRIDFORMAT_END
 95
        2
302
GRIDFORMAT
  1
GRIDFORMAT_BEGIN
 90
        0
 91
        1
 62
     0
 92
       -2
340
0
 93
        0
 40
0.045
309
GRIDFORMAT_END
 95
        4
302
GRIDFORMAT
  1
GRIDFORMAT_BEGIN
 90
        0
 91
        1
 62
     0
 92
       -2
340
0
 93
        0
 40
0.045
309
GRIDFORMAT_END
 95
        8
302
GRIDFORMAT
  1
GRIDFORMAT_BEGIN
 90
        0
 91
        1
 62
     0
 92
       -2
340
0
 93
        0
 40
0.045
309
GRIDFORMAT_END
 95
       16
302
GRIDFORMAT
  1
GRIDFORMAT_BEGIN
 90
        0
 91
        1
 62
     0
 92
       -2
340
0
 93
        0
 40
0.045
309
GRIDFORMAT_END
 95
       32
302
GRIDFORMAT
  1
GRIDFORMAT_BEGIN
 90
        0
 91
        1
 62
     0
 92
       -2
340
0
 93
        0
 40
0.045
309
GRIDFORMAT_END
309
TABLEFORMAT_END
  1
CELLSTYLE_BEGIN
 90
        2
 91
        1
300
_HEADER
309
CELLSTYLE_END
300
CELLSTYLE
  1
TABLEFORMAT_BEGIN
 90
        5
170
     1
 91
        0
 92
        0
 62
   257
 93
        1
300
CONTENTFORMAT
  1
CONTENTFORMAT_BEGIN
 90
        0
 91
        0
 92
        4
 93
        0
300

 40
0.0
140
1.0
 94
        2
 62
     0
340
17
144
4.5
309
CONTENTFORMAT_END
171
     1
301
MARGIN
  1
CELLMARGIN_BEGIN
 40
0.06
 40
0.06
 40
0.06
 40
0.06
 40
0.18
 40
0.18
309
CELLMARGIN_END
 94
        6
 95
        1
302
GRIDFORMAT
  1
GRIDFORMAT_BEGIN
 90
        0
 91
        1
 62
     0
 92
       -2
340
0
 93
        0
 40
0.045
309
GRIDFORMAT_END
 95
        2
302
GRIDFORMAT
  1
GRIDFORMAT_BEGIN
 90
        0
 91
        1
 62
     0
 92
       -2
340
0
 93
        0
 40
0.045
309
GRIDFORMAT_END
 95
        4
302
GRIDFORMAT
  1
GRIDFORMAT_BEGIN
 90
        0
 91
        1
 62
     0
 92
       -2
340
0
 93
        0
 40
0.045
309
GRIDFORMAT_END
 95
        8
302
GRIDFORMAT
  1
GRIDFORMAT_BEGIN
 90
        0
 91
        1
 62
     0
 92
       -2
340
0
 93
        0
 40
0.045
309
GRIDFORMAT_END
 95
       16
302
GRIDFORMAT
  1
GRIDFORMAT_BEGIN
 90
        0
 91
        1
 62
     0
 92
       -2
340
0
 93
        0
 40
0.045
309
GRIDFORMAT_END
 95
       32
302
GRIDFORMAT
  1
GRIDFORMAT_BEGIN
 90
        0
 91
        1
 62
     0
 92
       -2
340
0
 93
        0
 40
0.045
309
GRIDFORMAT_END
309
TABLEFORMAT_END
  1
CELLSTYLE_BEGIN
 90
        3
 91
        2
300
_DATA
309
CELLSTYLE_END
  0
ENDSEC
  0
EOF
