  0
SECTION
  2
HEADER
  9
$ACADVER
  1
AC1021
  9
$ACADMAINTVER
 70
    25
  9
$DWGCODEPAGE
  3
ANSI_932
  9
$LASTSAVEDBY
  1
howeNelson
  9
$INSBASE
 10
0.0
 20
0.0
 30
0.0
  9
$EXTMIN
 10
0.0
 20
0.0
 30
-0.0000000000000071
  9
$EXTMAX
 10
420.0
 20
594.0
 30
0.0000000000000071
  9
$LIMMIN
 10
0.0
 20
0.0
  9
$LIMMAX
 10
420.0
 20
594.0
  9
$ORTHOMODE
 70
     0
  9
$REGENMODE
 70
     1
  9
$FILLMODE
 70
     1
  9
$QTEXTMODE
 70
     0
  9
$MIRRTEXT
 70
     1
  9
$LTSCALE
 40
1.0
  9
$ATTMODE
 70
     1
  9
$TEXTSIZE
 40
2.5
  9
$TRACEWID
 40
1.0
  9
$TEXTSTYLE
  7
ＭＳ ゴシック
  9
$CLAYER
  8
HIDDEN
  9
$CELTYPE
  6
ByLayer
  9
$CECOLOR
 62
   256
  9
$CELTSCALE
 40
1.0
  9
$DISPSILH
 70
     0
  9
$DIMSCALE
 40
1.0
  9
$DIMASZ
 40
2.0
  9
$DIMEXO
 40
5.0
  9
$DIMDLI
 40
0.9999999999999999
  9
$DIMRND
 40
0.0
  9
$DIMDLE
 40
0.0
  9
$DIMEXE
 40
0.0
  9
$DIMTP
 40
0.0
  9
$DIMTM
 40
0.0
  9
$DIMTXT
 40
5.0
  9
$DIMCEN
 40
0.0
  9
$DIMTSZ
 40
0.0
  9
$DIMTOL
 70
     0
  9
$DIMLIM
 70
     0
  9
$DIMTIH
 70
     0
  9
$DIMTOH
 70
     0
  9
$DIMSE1
 70
     0
  9
$DIMSE2
 70
     0
  9
$DIMTAD
 70
     1
  9
$DIMZIN
 70
    11
  9
$DIMBLK
  1
DOT
  9
$DIMASO
 70
     1
  9
$DIMSHO
 70
     1
  9
$DIMPOST
  1
<>
  9
$DIMAPOST
  1
[]
  9
$DIMALT
 70
     0
  9
$DIMALTD
 70
     1
  9
$DIMALTF
 40
1.0
  9
$DIMLFAC
 40
1.0
  9
$DIMTOFL
 70
     0
  9
$DIMTVP
 40
0.0
  9
$DIMTIX
 70
     1
  9
$DIMSOXD
 70
     0
  9
$DIMSAH
 70
     0
  9
$DIMBLK1
  1

  9
$DIMBLK2
  1

  9
$DIMSTYLE
  2
tfrom線あり
  9
$DIMCLRD
 70
     0
  9
$DIMCLRE
 70
     0
  9
$DIMCLRT
 70
     0
  9
$DIMTFAC
 40
1.0
  9
$DIMGAP
 40
3.0
  9
$DIMJUST
 70
     0
  9
$DIMSD1
 70
     0
  9
$DIMSD2
 70
     0
  9
$DIMTOLJ
 70
     1
  9
$DIMTZIN
 70
    11
  9
$DIMALTZ
 70
    11
  9
$DIMALTTZ
 70
    11
  9
$DIMUPT
 70
     0
  9
$DIMDEC
 70
     0
  9
$DIMTDEC
 70
     1
  9
$DIMALTU
 70
     2
  9
$DIMALTTD
 70
     2
  9
$DIMTXSTY
  7
ＭＳ ゴシック
  9
$DIMAUNIT
 70
     0
  9
$DIMADEC
 70
     2
  9
$DIMALTRND
 40
0.0
  9
$DIMAZIN
 70
     0
  9
$DIMDSEP
 70
    46
  9
$DIMATFIT
 70
     0
  9
$DIMFRAC
 70
     2
  9
$DIMLDRBLK
  1
DOT
  9
$DIMLUNIT
 70
     2
  9
$DIMLWD
 70
    -2
  9
$DIMLWE
 70
    -2
  9
$DIMTMOVE
 70
     0
  9
$DIMFXL
 40
1.0
  9
$DIMFXLON
 70
     0
  9
$DIMJOGANG
 40
0.7853981633974483
  9
$DIMTFILL
 70
     0
  9
$DIMTFILLCLR
 70
     0
  9
$DIMARCSYM
 70
     0
  9
$DIMLTYPE
  6

  9
$DIMLTEX1
  6

  9
$DIMLTEX2
  6

  9
$LUNITS
 70
     2
  9
$LUPREC
 70
     0
  9
$SKETCHINC
 40
0.1
  9
$FILLETRAD
 40
0.0
  9
$AUNITS
 70
     0
  9
$AUPREC
 70
     0
  9
$MENU
  1
acad
  9
$ELEVATION
 40
0.0
  9
$PELEVATION
 40
0.0
  9
$THICKNESS
 40
0.0
  9
$LIMCHECK
 70
     0
  9
$CHAMFERA
 40
0.0
  9
$CHAMFERB
 40
0.0
  9
$CHAMFERC
 40
0.0
  9
$CHAMFERD
 40
0.0
  9
$SKPOLY
 70
     0
  9
$TDCREATE
 40
2447893.375
  9
$TDUCREATE
 40
0.0
  9
$TDUPDATE
 40
2458459.559138391
  9
$TDUUPDATE
 40
2458459.184138391
  9
$TDINDWG
 40
0.0
  9
$TDUSRTIMER
 40
0.0
  9
$USRTIMER
 70
     1
  9
$ANGBASE
 50
0.0
  9
$ANGDIR
 70
     0
  9
$PDMODE
 70
     1
  9
$PDSIZE
 40
-2.0
  9
$PLINEWID
 40
0.0
  9
$SPLFRAME
 70
     0
  9
$SPLINETYPE
 70
     6
  9
$SPLINESEGS
 70
     8
  9
$HANDSEED
  5
43D3
  9
$SURFTAB1
 70
     6
  9
$SURFTAB2
 70
     6
  9
$SURFTYPE
 70
     6
  9
$SURFU
 70
     6
  9
$SURFV
 70
     6
  9
$UCSBASE
  2

  9
$UCSNAME
  2

  9
$UCSORG
 10
0.0
 20
0.0
 30
0.0
  9
$UCSXDIR
 10
1.0
 20
0.0
 30
0.0
  9
$UCSYDIR
 10
0.0
 20
1.0
 30
0.0
  9
$UCSORTHOREF
  2

  9
$UCSORTHOVIEW
 70
     0
  9
$UCSORGTOP
 10
0.0
 20
0.0
 30
0.0
  9
$UCSORGBOTTOM
 10
0.0
 20
0.0
 30
0.0
  9
$UCSORGLEFT
 10
0.0
 20
0.0
 30
0.0
  9
$UCSORGRIGHT
 10
0.0
 20
0.0
 30
0.0
  9
$UCSORGFRONT
 10
0.0
 20
0.0
 30
0.0
  9
$UCSORGBACK
 10
0.0
 20
0.0
 30
0.0
  9
$PUCSBASE
  2

  9
$PUCSNAME
  2

  9
$PUCSORG
 10
0.0
 20
0.0
 30
0.0
  9
$PUCSXDIR
 10
1.0
 20
0.0
 30
0.0
  9
$PUCSYDIR
 10
0.0
 20
1.0
 30
0.0
  9
$PUCSORTHOREF
  2

  9
$PUCSORTHOVIEW
 70
     0
  9
$PUCSORGTOP
 10
0.0
 20
0.0
 30
0.0
  9
$PUCSORGBOTTOM
 10
0.0
 20
0.0
 30
0.0
  9
$PUCSORGLEFT
 10
0.0
 20
0.0
 30
0.0
  9
$PUCSORGRIGHT
 10
0.0
 20
0.0
 30
0.0
  9
$PUCSORGFRONT
 10
0.0
 20
0.0
 30
0.0
  9
$PUCSORGBACK
 10
0.0
 20
0.0
 30
0.0
  9
$USERI1
 70
     0
  9
$USERI2
 70
     0
  9
$USERI3
 70
     0
  9
$USERI4
 70
     0
  9
$USERI5
 70
     0
  9
$USERR1
 40
0.0
  9
$USERR2
 40
0.0
  9
$USERR3
 40
0.0
  9
$USERR4
 40
0.0
  9
$USERR5
 40
0.0
  9
$WORLDVIEW
 70
     1
  9
$SHADEDGE
 70
     3
  9
$SHADEDIF
 70
    70
  9
$TILEMODE
 70
     1
  9
$MAXACTVP
 70
    64
  9
$PINSBASE
 10
0.0
 20
0.0
 30
0.0
  9
$PLIMCHECK
 70
     0
  9
$PEXTMIN
 10
0.0
 20
0.0
 30
0.0
  9
$PEXTMAX
 10
0.0
 20
0.0
 30
0.0
  9
$PLIMMIN
 10
-7.5
 20
-20.0
  9
$PLIMMAX
 10
412.5
 20
277.0
  9
$UNITMODE
 70
     0
  9
$VISRETAIN
 70
     0
  9
$PLINEGEN
 70
     1
  9
$PSLTSCALE
 70
     0
  9
$TREEDEPTH
 70
  3020
  9
$CMLSTYLE
  2
Standard
  9
$CMLJUST
 70
     0
  9
$CMLSCALE
 40
1.0
  9
$PROXYGRAPHICS
 70
     0
  9
$MEASUREMENT
 70
     1
  9
$CELWEIGHT
370
    -1
  9
$ENDCAPS
280
     0
  9
$JOINSTYLE
280
     0
  9
$LWDISPLAY
290
     1
  9
$INSUNITS
 70
     4
  9
$HYPERLINKBASE
  1

  9
$STYLESHEET
  1

  9
$XEDIT
290
     1
  9
$CEPSNTYPE
380
     0
  9
$PSTYLEMODE
290
     1
  9
$FINGERPRINTGUID
  2

  9
$VERSIONGUID
  2

  9
$EXTNAMES
290
     1
  9
$PSVPSCALE
 40
0.0
  9
$OLESTARTUP
290
     0
  9
$SORTENTS
280
   127
  9
$INDEXCTL
280
     0
  9
$HIDETEXT
280
     1
  9
$XCLIPFRAME
290
     0
  9
$HALOGAP
280
     0
  9
$OBSCOLOR
 70
   257
  9
$OBSLTYPE
280
     0
  9
$INTERSECTIONDISPLAY
280
     0
  9
$INTERSECTIONCOLOR
 70
   257
  9
$DIMASSOC
280
     2
  9
$PROJECTNAME
  1

  9
$CAMERADISPLAY
290
     0
  9
$LENSLENGTH
 40
50.0
  9
$CAMERAHEIGHT
 40
0.0
  9
$STEPSPERSEC
 40
2.0
  9
$STEPSIZE
 40
6.0
  9
$3DDWFPREC
 40
2.0
  9
$PSOLWIDTH
 40
0.25
  9
$PSOLHEIGHT
 40
4.0
  9
$LOFTANG1
 40
1.570796326794897
  9
$LOFTANG2
 40
1.570796326794897
  9
$LOFTMAG1
 40
0.0
  9
$LOFTMAG2
 40
0.0
  9
$LOFTPARAM
 70
     7
  9
$LOFTNORMALS
280
     1
  9
$LATITUDE
 40
37.795
  9
$LONGITUDE
 40
-122.394
  9
$NORTHDIRECTION
 40
0.0
  9
$TIMEZONE
 70
 -8000
  9
$LIGHTGLYPHDISPLAY
280
     1
  9
$TILEMODELIGHTSYNCH
280
     1
  9
$SOLIDHIST
280
     1
  9
$SHOWHIST
280
     1
  9
$DWFFRAME
280
     2
  9
$DGNFRAME
280
     2
  9
$REALWORLDSCALE
290
     1
  9
$INTERFERECOLOR
 62
   256
  9
$CSHADOW
280
     0
  9
$SHADOWPLANELOCATION
 40
0.0
  0
ENDSEC
  0
SECTION
  2
CLASSES
  0
CLASS
  1
LWPOLYLINE
  2
AcDbPolyline
  3
ObjectDBX Classes
 90
        0
 91
        1
280
     0
281
     1
  0
CLASS
  1
IMAGE
  2
AcDbRasterImage
  3
ISM
 90
      127
 91
       37
280
     0
281
     1
  0
CLASS
  1
OLE2FRAME
  2
AcDbOle2Frame
  3
ObjectDBX Classes
 90
        0
 91
        1
280
     0
281
     1
  0
CLASS
  1
HATCH
  2
AcDbHatch
  3
ObjectDBX Classes
 90
        0
 91
        1
280
     0
281
     1
  0
CLASS
  1
DICTIONARYVAR
  2
AcDbDictionaryVar
  3
ObjectDBX Classes
 90
        0
 91
       36
280
     0
281
     0
  0
CLASS
  1
RASTERVARIABLES
  2
AcDbRasterVariables
  3
ISM
 90
        0
 91
       36
280
     0
281
     0
  0
CLASS
  1
IMAGEDEF
  2
AcDbRasterImageDef
  3
ISM
 90
        0
 91
       36
280
     0
281
     0
  0
CLASS
  1
IMAGEDEF_REACTOR
  2
AcDbRasterImageDefReactor
  3
ISM
 90
        1
 91
       36
280
     0
281
     0
  0
CLASS
  1
IDBUFFER
  2
AcDbIdBuffer
  3
ObjectDBX Classes
 90
        0
 91
       36
280
     0
281
     0
  0
CLASS
  1
SPATIAL_FILTER
  2
AcDbSpatialFilter
  3
ObjectDBX Classes
 90
        0
 91
       36
280
     0
281
     0
  0
CLASS
  1
XRECORD
  2
AcDbXrecord
  3
ObjectDBX Classes
 90
        0
 91
        1
280
     0
281
     0
  0
CLASS
  1
SORTENTSTABLE
  2
AcDbSortentsTable
  3
ObjectDBX Classes
 90
        0
 91
       36
280
     0
281
     0
  0
CLASS
  1
LAYER_INDEX
  2
AcDbLayerIndex
  3
ObjectDBX Classes
 90
        0
 91
       36
280
     0
281
     0
  0
CLASS
  1
SPATIAL_INDEX
  2
AcDbSpatialIndex
  3
AutoCAD 2000
 90
        0
 91
       36
280
     0
281
     0
  0
CLASS
  1
OBJECT_PTR
  2
CAseDLPNTableRecord
  3
ASE-LPNTableRecord
 90
        1
 91
       36
280
     0
281
     0
  0
CLASS
  1
LAYOUT
  2
AcDbLayout
  3
ObjectDBX Classes
 90
        0
 91
        1
280
     0
281
     0
  0
CLASS
  1
PLOTSETTINGS
  2
AcDbPlotSettings
  3
ObjectDBX Classes
 90
        0
 91
       36
280
     0
281
     0
  0
CLASS
  1
ACDBDICTIONARYWDFLT
  2
AcDbDictionaryWithDefault
  3
ObjectDBX Classes
 90
        0
 91
       36
280
     0
281
     0
  0
CLASS
  1
ACDBPLACEHOLDER
  2
AcDbPlaceHolder
  3
ObjectDBX Classes
 90
        0
 91
        1
280
     0
281
     0
  0
CLASS
  1
SCALE
  2
AcDbScale
  3
ObjectDBX Classes
 90
     1153
 91
       36
280
     0
281
     0
  0
CLASS
  1
MATERIAL
  2
AcDbMaterial
  3
ObjectDBX Classes
 90
     1153
 91
       36
280
     0
281
     0
  0
CLASS
  1
VISUALSTYLE
  2
AcDbVisualStyle
  3
ObjectDBX Classes
 90
     4095
 91
       36
280
     0
281
     0
  0
CLASS
  1
TABLESTYLE
  2
AcDbTableStyle
  3
ObjectDBX Classes
 90
     4095
 91
       36
280
     0
281
     0
  0
CLASS
  1
DIMASSOC
  2
AcDbDimAssoc
  3
"AcDbDimAssoc|Product Desc:     AcDim ARX App For Dimension|Company:          Autodesk, Inc.|WEB Address:      www.autodesk.com"
 90
        0
 91
       36
280
     0
281
     0
  0
CLASS
  1
CELLSTYLEMAP
  2
AcDbCellStyleMap
  3
ObjectDBX Classes
 90
     1152
 91
       36
280
     0
281
     0
  0
CLASS
  1
SUN
  2
AcDbSun
  3
SCENEOE
 90
     1153
 91
       36
280
     0
281
     0
  0
CLASS
  1
MLEADERSTYLE
  2
AcDbMLeaderStyle
  3
ACDB_MLEADERSTYLE_CLASS
 90
     4095
 91
       36
280
     0
281
     0
  0
CLASS
  1
FIELD
  2
AcDbField
  3
ObjectDBX Classes
 90
     1152
 91
       33
280
     0
281
     0
  0
CLASS
  1
FIELDLIST
  2
AcDbFieldList
  3
ObjectDBX Classes
 90
     1152
 91
       33
280
     0
281
     0
  0
ENDSEC
  0
SECTION
  2
TABLES
  0
TABLE
  2
VPORT
  5
7
330
0
100
AcDbSymbolTable
 70
     1
  0
VPORT
  5
15
330
7
100
AcDbSymbolTableRecord
100
AcDbViewportTableRecord
  2
*ACTIVE
 70
     0
 10
0.0
 20
0.0
 11
1.0
 21
1.0
 12
301.0201356709
 22
223.401285469834
 13
0.0
 23
0.0
 14
1.0
 24
1.0
 15
0.0
 25
0.0
 16
0.0
 26
0.0
 36
1.0
 17
-91.0201356709
 27
73.59871453016603
 37
-46.86809886248109
 40
605.88
 41
2.419452887537994
 42
50.0
 43
0.0
 44
0.0
 50
0.0
 51
0.0
 71
    16
 72
  2000
 73
     1
 74
     1
 75
     0
 76
     0
 77
     0
 78
     0
281
     0
 65
     1
110
0.0
120
0.0
130
0.0
111
1.0
121
0.0
131
0.0
112
0.0
122
1.0
132
0.0
 79
     0
146
0.0
348
26C
 60
     3
 61
     5
292
     1
282
     1
141
0.0
142
0.0
 63
   256
361
904
  0
ENDTAB
  0
TABLE
  2
LTYPE
  5
4
330
0
100
AcDbSymbolTable
 70
     5
  0
LTYPE
  5
11
330
4
100
AcDbSymbolTableRecord
100
AcDbLinetypeTableRecord
  2
ByBlock
 70
     0
  3

 72
    65
 73
     0
 40
0.0
  0
LTYPE
  5
12
330
4
100
AcDbSymbolTableRecord
100
AcDbLinetypeTableRecord
  2
ByLayer
 70
     0
  3

 72
    65
 73
     0
 40
0.0
  0
LTYPE
  5
13
330
4
100
AcDbSymbolTableRecord
100
AcDbLinetypeTableRecord
  2
Continuous
 70
     0
  3
Solid line
 72
    65
 73
     0
 40
0.0
  0
LTYPE
  5
D6C
330
4
100
AcDbSymbolTableRecord
100
AcDbLinetypeTableRecord
  2
BORDER
 70
     0
  3
Border __  __  . __  __  . __  __  . __  __  . 
 72
    65
 73
     6
 40
44.45
 49
12.7
 74
     0
 49
-6.35
 74
     0
 49
12.7
 74
     0
 49
-6.35
 74
     0
 49
0.0
 74
     0
 49
-6.35
 74
     0
  0
LTYPE
  5
D6D
330
4
100
AcDbSymbolTableRecord
100
AcDbLinetypeTableRecord
  2
HIDDEN
 70
     0
  3
Hidden _ _ _ _ _ _ _ _ _ _ _ _ _ _ _ _ _ _ _ _ 
 72
    65
 73
     2
 40
9.524999999999999
 49
6.35
 74
     0
 49
-3.175
 74
     0
  0
LTYPE
  5
3D55
330
4
100
AcDbSymbolTableRecord
100
AcDbLinetypeTableRecord
  2
CENTER2
 70
     0
  3
Center (.5x) ___ _ ___ _ ___ _ ___ _ ___ _ ___
 72
    65
 73
     4
 40
28.575
 49
19.05
 74
     4
 75
     0
340
0
 46
0.0
 50
0.0
 44
0.0
 45
0.0
 49
-3.175
 74
     4
 75
     0
340
0
 46
0.0
 50
0.0
 44
0.0
 45
0.0
 49
3.175
 74
     4
 75
     0
340
0
 46
0.0
 50
0.0
 44
0.0
 45
0.0
 49
-3.175
 74
     4
 75
     0
340
0
 46
0.0
 50
0.0
 44
0.0
 45
0.0
  0
LTYPE
  5
3E77
330
4
100
AcDbSymbolTableRecord
100
AcDbLinetypeTableRecord
  2
CENTER
 70
     0
  3
 Center _____  _  _____  _  _____  _  _____  _ 
 72
    65
 73
     4
 40
50.8
 49
31.75
 74
     0
 49
-6.35
 74
     0
 49
6.35
 74
     0
 49
-6.35
 74
     0
  0
ENDTAB
  0
TABLE
  2
LAYER
  5
2
102
{ACAD_XDICTIONARY
360
2E1
102
}
330
0
100
AcDbSymbolTable
 70
    20
  0
LAYER
  5
14
330
2
100
AcDbSymbolTableRecord
100
AcDbLayerTableRecord
  2
0
 70
     0
 62
     7
  6
Continuous
370
    -3
390
1D
347
266
  0
LAYER
  5
4B
330
2
100
AcDbSymbolTableRecord
100
AcDbLayerTableRecord
  2
TEMPLATE
 70
     0
 62
     7
  6
Continuous
370
    20
390
1D
347
266
  0
LAYER
  5
4C
330
2
100
AcDbSymbolTableRecord
100
AcDbLayerTableRecord
  2
DIM
 70
     0
 62
     3
  6
Continuous
370
    13
390
1D
347
266
  0
LAYER
  5
4D
330
2
100
AcDbSymbolTableRecord
100
AcDbLayerTableRecord
  2
MODEL
 70
     0
 62
     7
  6
Continuous
370
    20
390
1D
347
266
  0
LAYER
  5
88C
330
2
100
AcDbSymbolTableRecord
100
AcDbLayerTableRecord
  2
HIDDEN
 70
     0
 62
     8
  6
HIDDEN
370
    20
390
1D
347
266
1001
AcAecLayerStandard
1000

1000

  0
LAYER
  5
D6B
330
2
100
AcDbSymbolTableRecord
100
AcDbLayerTableRecord
  2
BORDER
 70
     0
 62
     4
  6
BORDER
290
     0
370
    20
390
1D
347
266
1001
AcAecLayerStandard
1000

1000

  0
LAYER
  5
D8C
330
2
100
AcDbSymbolTableRecord
100
AcDbLayerTableRecord
  2
Defpoints
 70
     0
 62
     7
  6
Continuous
290
     0
370
    -3
390
1D
347
266
  0
LAYER
  5
3653
330
2
100
AcDbSymbolTableRecord
100
AcDbLayerTableRecord
  2
Standard
 70
     0
 62
     7
  6
Continuous
370
    -3
390
1D
347
266
  0
LAYER
  5
3D4C
330
2
100
AcDbSymbolTableRecord
100
AcDbLayerTableRecord
  2
Default
 70
     0
 62
     7
  6
Continuous
370
    -3
390
1D
347
266
  0
LAYER
  5
3D4E
330
2
100
AcDbSymbolTableRecord
100
AcDbLayerTableRecord
  2
$DDT_AUDIT_GENERATED_(60)
 70
     0
 62
     7
  6
Continuous
370
    -3
390
1D
347
266
  0
LAYER
  5
3D4F
330
2
100
AcDbSymbolTableRecord
100
AcDbLayerTableRecord
  2
$DDT_AUDIT_GENERATED_(6F)
 70
     0
 62
     7
  6
Continuous
370
    -3
390
1D
347
266
  0
LAYER
  5
3D50
330
2
100
AcDbSymbolTableRecord
100
AcDbLayerTableRecord
  2
$DDT_AUDIT_GENERATED_(7B)
 70
     0
 62
     7
  6
Continuous
370
    -3
390
1D
347
266
  0
LAYER
  5
3D51
330
2
100
AcDbSymbolTableRecord
100
AcDbLayerTableRecord
  2
DV1_Standard
 70
     0
 62
     7
  6
Continuous
370
    -3
390
1D
347
266
  0
LAYER
  5
3D52
330
2
100
AcDbSymbolTableRecord
100
AcDbLayerTableRecord
  2
DV2_Standard
 70
     0
 62
     7
  6
Continuous
370
    -3
390
1D
347
266
  0
LAYER
  5
3D53
330
2
100
AcDbSymbolTableRecord
100
AcDbLayerTableRecord
  2
$DDT_AUDIT_GENERATED_(A9)
 70
     0
 62
     7
  6
Continuous
370
    -3
390
1D
347
266
  0
LAYER
  5
3D54
330
2
100
AcDbSymbolTableRecord
100
AcDbLayerTableRecord
  2
DV3_Standard
 70
     0
 62
     7
  6
Continuous
370
    -3
390
1D
347
266
  0
LAYER
  5
3F54
330
2
100
AcDbSymbolTableRecord
100
AcDbLayerTableRecord
  2
$DDT_AUDIT_GENERATED_(77)
 70
     0
 62
     7
  6
Continuous
370
    -3
390
1D
347
266
  0
LAYER
  5
3F55
330
2
100
AcDbSymbolTableRecord
100
AcDbLayerTableRecord
  2
$DDT_AUDIT_GENERATED_(BE)
 70
     0
 62
     7
  6
Continuous
370
    -3
390
1D
347
266
  0
LAYER
  5
3F56
330
2
100
AcDbSymbolTableRecord
100
AcDbLayerTableRecord
  2
$DDT_AUDIT_GENERATED_(173)
 70
     0
 62
     7
  6
Continuous
370
    -3
390
1D
347
266
  0
LAYER
  5
3F57
330
2
100
AcDbSymbolTableRecord
100
AcDbLayerTableRecord
  2
$DDT_AUDIT_GENERATED_(267)
 70
     0
 62
     7
  6
Continuous
370
    -3
390
1D
347
266
  0
ENDTAB
  0
TABLE
  2
STYLE
  5
3
330
0
100
AcDbSymbolTable
 70
     3
  0
STYLE
  5
17
330
3
100
AcDbSymbolTableRecord
100
AcDbTextStyleTableRecord
  2
Standard
 70
     0
 40
0.0
 41
1.0
 50
0.0
 71
     0
 42
2.5
  3
txt
  4
BIGFONT.SHX
  0
STYLE
  5
39
330
3
100
AcDbSymbolTableRecord
100
AcDbTextStyleTableRecord
  2
ＭＳ ゴシック
 70
     0
 40
0.0
 41
1.0
 50
0.0
 71
     0
 42
2.5
  3
msgothic.ttc
  4
ＭＳ ゴシック
1001
ACAD
1000
ＭＳ ゴシック
1071
        0
  0
STYLE
  5
41A1
330
3
100
AcDbSymbolTableRecord
100
AcDbTextStyleTableRecord
  2
SEACAD_seiso_ttf
 70
     0
 40
0.0
 41
1.0
 50
0.0
 71
     0
 42
2.5
  3
seiso.ttf
  4

  0
ENDTAB
  0
TABLE
  2
VIEW
  5
5
330
0
100
AcDbSymbolTable
 70
     0
  0
ENDTAB
  0
TABLE
  2
UCS
  5
6
330
0
100
AcDbSymbolTable
 70
     0
  0
ENDTAB
  0
TABLE
  2
APPID
  5
8
330
0
100
AcDbSymbolTable
 70
     3
  0
APPID
  5
16
330
8
100
AcDbSymbolTableRecord
100
AcDbRegAppTableRecord
  2
ACAD
 70
     0
  0
APPID
  5
7AC
330
8
100
AcDbSymbolTableRecord
100
AcDbRegAppTableRecord
  2
AcAecLayerStandard
 70
     0
  0
APPID
  5
E29
330
8
100
AcDbSymbolTableRecord
100
AcDbRegAppTableRecord
  2
ACAD_MLEADERVER
 70
     0
  0
ENDTAB
  0
TABLE
  2
DIMSTYLE
  5
9
330
0
100
AcDbSymbolTable
 70
     3
100
AcDbDimStyleTable
  0
DIMSTYLE
105
18
330
9
100
AcDbSymbolTableRecord
100
AcDbDimStyleTableRecord
  2
Standard
 70
     0
178
     0
340
17
  0
DIMSTYLE
105
57
102
{ACAD_REACTORS
330
3E3E
330
3EB7
330
3EC9
330
3F14
102
}
330
9
100
AcDbSymbolTableRecord
100
AcDbDimStyleTableRecord
  2
tfrom線あり
 70
     0
  3
<>
  4
[]
 41
2.0
 42
5.0
 43
0.9999999999999999
 44
0.0
 73
     0
 74
     0
 77
     1
 78
    11
140
5.0
141
0.0
143
1.0
147
3.0
171
     1
174
     1
178
     0
179
     2
271
     0
272
     1
276
     2
284
    11
285
    11
286
    11
289
     0
340
39
341
4E
342
4E
  0
DIMSTYLE
105
3D56
330
9
100
AcDbSymbolTableRecord
100
AcDbDimStyleTableRecord
  2
ISO-25
 70
     0
 41
2.5
 42
0.625
 43
3.75
 44
1.25
 73
     0
 74
     0
 77
     1
 78
     8
140
2.5
141
2.5
143
0.0393700787
147
0.625
171
     3
172
     1
178
     0
271
     2
272
     2
274
     3
278
    44
283
     0
284
     8
340
17
  0
ENDTAB
  0
TABLE
  2
BLOCK_RECORD
  5
1
330
0
100
AcDbSymbolTable
 70
    23
  0
BLOCK_RECORD
  5
A
102
{ACAD_XDICTIONARY
360
3D3D
102
}
330
1
100
AcDbSymbolTableRecord
100
AcDbBlockTableRecord
  2
*MODEL_SPACE
340
20
 70
     0
280
     1
281
     0
  0
BLOCK_RECORD
  5
B
330
1
100
AcDbSymbolTableRecord
100
AcDbBlockTableRecord
  2
*PAPER_SPACE
340
21
 70
     0
280
     1
281
     0
  0
BLOCK_RECORD
  5
4E
330
1
100
AcDbSymbolTableRecord
100
AcDbBlockTableRecord
  2
_DOT
340
0
102
{BLKREFS
331
3B8C
331
3B8D
331
3B98
331
3B99
331
3BA4
331
3BA5
331
3BB0
331
3BB1
331
3BBC
331
3BBD
331
3BC8
331
3BC9
331
3BD4
331
3BD5
331
3CFD
331
3CFE
331
3D0C
331
3D0D
331
3D2A
331
3D2B
331
3D36
331
3D37
331
3E47
331
3E48
331
3EC0
331
3EC1
331
3ED0
331
3ED1
331
3F1B
331
3F1C
102
}
 70
     0
280
     1
281
     0
  0
BLOCK_RECORD
  5
68D
330
1
100
AcDbSymbolTableRecord
100
AcDbBlockTableRecord
  2
block 2
340
0
102
{BLKREFS
331
68C
331
1343
102
}
 70
     0
280
     1
281
     0
  0
BLOCK_RECORD
  5
3B86
330
1
100
AcDbSymbolTableRecord
100
AcDbBlockTableRecord
  2
*D2
340
0
 70
     0
280
     1
281
     0
  0
BLOCK_RECORD
  5
3B92
330
1
100
AcDbSymbolTableRecord
100
AcDbBlockTableRecord
  2
*D3
340
0
 70
     0
280
     1
281
     0
  0
BLOCK_RECORD
  5
3B9E
330
1
100
AcDbSymbolTableRecord
100
AcDbBlockTableRecord
  2
*D4
340
0
 70
     0
280
     1
281
     0
  0
BLOCK_RECORD
  5
3BAA
330
1
100
AcDbSymbolTableRecord
100
AcDbBlockTableRecord
  2
*D5
340
0
 70
     0
280
     1
281
     0
  0
BLOCK_RECORD
  5
3BB6
330
1
100
AcDbSymbolTableRecord
100
AcDbBlockTableRecord
  2
*D6
340
0
 70
     0
280
     1
281
     0
  0
BLOCK_RECORD
  5
3BC2
330
1
100
AcDbSymbolTableRecord
100
AcDbBlockTableRecord
  2
*D7
340
0
 70
     0
280
     1
281
     0
  0
BLOCK_RECORD
  5
3BCE
330
1
100
AcDbSymbolTableRecord
100
AcDbBlockTableRecord
  2
*D8
340
0
 70
     0
280
     1
281
     0
  0
BLOCK_RECORD
  5
3CF8
330
1
100
AcDbSymbolTableRecord
100
AcDbBlockTableRecord
  2
*D9
340
0
 70
     0
280
     1
281
     0
  0
BLOCK_RECORD
  5
3D07
330
1
100
AcDbSymbolTableRecord
100
AcDbBlockTableRecord
  2
*D10
340
0
 70
     0
280
     1
281
     0
  0
BLOCK_RECORD
  5
3D24
330
1
100
AcDbSymbolTableRecord
100
AcDbBlockTableRecord
  2
*D11
340
0
 70
     0
280
     1
281
     0
  0
BLOCK_RECORD
  5
3D30
330
1
100
AcDbSymbolTableRecord
100
AcDbBlockTableRecord
  2
*D12
340
0
 70
     0
280
     1
281
     0
  0
BLOCK_RECORD
  5
3D77
330
1
100
AcDbSymbolTableRecord
100
AcDbBlockTableRecord
  2
SE
340
0
 70
     0
280
     1
281
     0
  0
BLOCK_RECORD
  5
3D9B
330
1
100
AcDbSymbolTableRecord
100
AcDbBlockTableRecord
  2
SE1
340
0
 70
     0
280
     1
281
     0
  0
BLOCK_RECORD
  5
3DBA
330
1
100
AcDbSymbolTableRecord
100
AcDbBlockTableRecord
  2
SE2
340
0
 70
     0
280
     1
281
     0
  0
BLOCK_RECORD
  5
3E41
330
1
100
AcDbSymbolTableRecord
100
AcDbBlockTableRecord
  2
*D16
340
0
 70
     0
280
     1
281
     0
  0
BLOCK_RECORD
  5
3EBA
330
1
100
AcDbSymbolTableRecord
100
AcDbBlockTableRecord
  2
*D17
340
0
 70
     0
280
     1
281
     0
  0
BLOCK_RECORD
  5
3ECA
330
1
100
AcDbSymbolTableRecord
100
AcDbBlockTableRecord
  2
*D18
340
0
 70
     0
280
     1
281
     0
  0
BLOCK_RECORD
  5
3F15
330
1
100
AcDbSymbolTableRecord
100
AcDbBlockTableRecord
  2
*D19
340
0
 70
     0
280
     1
281
     0
  0
BLOCK_RECORD
  5
3F7A
330
1
100
AcDbSymbolTableRecord
100
AcDbBlockTableRecord
  2
SEANNOT_GROUP
340
0
 70
     0
280
     1
281
     0
  0
BLOCK_RECORD
  5
3F84
330
1
100
AcDbSymbolTableRecord
100
AcDbBlockTableRecord
  2
SEANNOT_GROUP1
340
0
 70
     0
280
     1
281
     0
  0
BLOCK_RECORD
  5
3F8A
330
1
100
AcDbSymbolTableRecord
100
AcDbBlockTableRecord
  2
SEANNOT_GROUP2
340
0
 70
     0
280
     1
281
     0
  0
ENDTAB
  0
ENDSEC
  0
SECTION
  2
BLOCKS
  0
BLOCK
  5
D
330
A
100
AcDbEntity
  8
0
390
1D
100
AcDbBlockBegin
  2
*MODEL_SPACE
 70
     0
 10
0.0
 20
0.0
 30
0.0
  3
*MODEL_SPACE
  1
*MODEL_SPACE
  0
ENDBLK
  5
E
330
A
100
AcDbEntity
  8
0
390
1D
100
AcDbBlockEnd
  0
BLOCK
  5
F
330
B
100
AcDbEntity
 67
     1
  8
0
390
1D
100
AcDbBlockBegin
  2
*PAPER_SPACE
 70
     0
 10
0.0
 20
0.0
 30
0.0
  3
*PAPER_SPACE
  1
*PAPER_SPACE
  0
ENDBLK
  5
10
330
B
100
AcDbEntity
 67
     1
  8
0
390
1D
100
AcDbBlockEnd
  0
BLOCK
  5
2462
330
4E
100
AcDbEntity
  8
0
390
1D
100
AcDbBlockBegin
  2
_DOT
 70
     0
 10
0.0
 20
0.0
 30
0.0
  3
_DOT
  1
_DOT
  0
POLYLINE
  5
2464
330
4E
100
AcDbEntity
  8
0
  6
ByBlock
 62
     0
370
    -2
390
1D
100
AcDb2dPolyline
 66
     1
 10
0.0
 20
0.0
 30
0.0
 70
     1
 40
0.5
 41
0.5
  0
VERTEX
  5
2465
330
2464
100
AcDbEntity
  8
0
  6
ByBlock
 62
     0
370
    -2
390
1D
100
AcDbVertex
100
AcDb2dVertex
 10
-0.25
 20
0.0
 30
0.0
 42
1.0
  0
VERTEX
  5
2466
330
2464
100
AcDbEntity
  8
0
  6
ByBlock
 62
     0
370
    -2
390
1D
100
AcDbVertex
100
AcDb2dVertex
 10
0.25
 20
0.0
 30
0.0
 42
1.0
  0
SEQEND
  5
2467
330
2464
100
AcDbEntity
  8
0
390
1D
  0
LINE
  5
2468
330
4E
100
AcDbEntity
  8
0
  6
ByBlock
 62
     0
370
    -2
390
1D
100
AcDbLine
 10
-0.5
 20
0.0
 30
0.0
 11
-1.0
 21
0.0
 31
0.0
  0
ENDBLK
  5
2469
330
4E
100
AcDbEntity
  8
0
390
1D
100
AcDbBlockEnd
  0
BLOCK
  5
68E
330
68D
100
AcDbEntity
  8
0
100
AcDbBlockBegin
  2
block 2
 70
     0
 10
0.0
 20
0.0
 30
0.0
  3
block 2
  1
block 2
  0
ENDBLK
  5
6B0
330
68D
100
AcDbEntity
  8
0
100
AcDbBlockEnd
  0
BLOCK
  5
3B87
330
3B86
100
AcDbEntity
  8
0
100
AcDbBlockBegin
  2
*D2
 70
     1
 10
0.0
 20
0.0
 30
0.0
  3
*D2
  1

  0
LINE
  5
3B89
330
3B86
100
AcDbEntity
  8
DIM
 62
     0
370
    -2
100
AcDbLine
 10
120.4165303244005
 20
319.2077009873063
 30
0.0
 11
80.41653032440028
 21
319.2077009873061
 31
0.0
  0
LINE
  5
3B8A
330
3B86
100
AcDbEntity
  8
DIM
 62
     0
370
    -2
100
AcDbLine
 10
95.2823248987792
 20
182.2077009873063
 30
0.0
 11
80.41653032440077
 21
182.2077009873062
 31
0.0
  0
LINE
  5
3B8B
330
3B86
100
AcDbEntity
  8
DIM
 62
     0
370
    -2
100
AcDbLine
 10
80.41653032440028
 20
317.2077009873061
 30
0.0
 11
80.41653032440077
 21
184.2077009873062
 31
0.0
  0
INSERT
  5
3B8C
330
3B86
100
AcDbEntity
  8
DIM
 62
     0
370
    -2
100
AcDbBlockReference
  2
_DOT
 10
80.41653032440028
 20
319.2077009873061
 30
0.0
 41
2.0
 42
2.0
 43
2.0
 50
90.0000000000002
  0
INSERT
  5
3B8D
330
3B86
100
AcDbEntity
  8
DIM
 62
     0
370
    -2
100
AcDbBlockReference
  2
_DOT
 10
80.41653032440077
 20
182.2077009873062
 30
0.0
 41
2.0
 42
2.0
 43
2.0
 50
270.0000000000002
  0
MTEXT
  5
3B8E
330
3B86
100
AcDbEntity
  8
DIM
 62
     0
 48
0.05
100
AcDbMText
 10
72.41653032440053
 20
250.7077009873063
 30
0.0
 40
5.0
 41
0.0
 46
0.0
 71
     2
 72
     1
  1
\A1;137
  7
ＭＳ ゴシック
 11
-3.526781462166923E-15
 21
1.0
 31
0.0
 73
     1
 44
1.0
  0
POINT
  5
3B8F
330
3B86
100
AcDbEntity
  8
Defpoints
 62
     0
100
AcDbPoint
 10
125.4165303244005
 20
319.2077009873063
 30
0.0
  0
POINT
  5
3B90
330
3B86
100
AcDbEntity
  8
Defpoints
 62
     0
100
AcDbPoint
 10
100.2823248987792
 20
182.2077009873063
 30
0.0
  0
POINT
  5
3B91
330
3B86
100
AcDbEntity
  8
Defpoints
 62
     0
100
AcDbPoint
 10
80.41653032440077
 20
182.2077009873062
 30
0.0
  0
ENDBLK
  5
3B88
330
3B86
100
AcDbEntity
  8
0
100
AcDbBlockEnd
  0
BLOCK
  5
3B93
330
3B92
100
AcDbEntity
  8
0
100
AcDbBlockBegin
  2
*D3
 70
     1
 10
0.0
 20
0.0
 30
0.0
  3
*D3
  1

  0
LINE
  5
3B95
330
3B92
100
AcDbEntity
  8
DIM
 62
     0
370
    -2
100
AcDbLine
 10
100.4165303244005
 20
456.7854077805792
 30
0.0
 11
100.4165303244005
 21
469.9574301222169
 31
0.0
  0
LINE
  5
3B96
330
3B92
100
AcDbEntity
  8
DIM
 62
     0
370
    -2
100
AcDbLine
 10
172.4165303244005
 20
456.7854077805792
 30
0.0
 11
172.4165303244005
 21
469.9574301222169
 31
0.0
  0
LINE
  5
3B97
330
3B92
100
AcDbEntity
  8
DIM
 62
     0
370
    -2
100
AcDbLine
 10
102.4165303244005
 20
469.9574301222169
 30
0.0
 11
170.4165303244005
 21
469.9574301222169
 31
0.0
  0
INSERT
  5
3B98
330
3B92
100
AcDbEntity
  8
DIM
 62
     0
370
    -2
100
AcDbBlockReference
  2
_DOT
 10
100.4165303244005
 20
469.9574301222169
 30
0.0
 41
2.0
 42
2.0
 43
2.0
 50
180.0
  0
INSERT
  5
3B99
330
3B92
100
AcDbEntity
  8
DIM
 62
     0
370
    -2
100
AcDbBlockReference
  2
_DOT
 10
172.4165303244005
 20
469.9574301222169
 30
0.0
 41
2.0
 42
2.0
 43
2.0
  0
MTEXT
  5
3B9A
330
3B92
100
AcDbEntity
  8
DIM
 62
     0
 48
0.05
100
AcDbMText
 10
136.4165303244005
 20
477.9574301222169
 30
0.0
 40
5.0
 41
0.0
 46
0.0
 71
     2
 72
     1
  1
\A1;72
  7
ＭＳ ゴシック
 73
     1
 44
1.0
  0
POINT
  5
3B9B
330
3B92
100
AcDbEntity
  8
Defpoints
 62
     0
100
AcDbPoint
 10
100.4165303244005
 20
451.7854077805792
 30
0.0
  0
POINT
  5
3B9C
330
3B92
100
AcDbEntity
  8
Defpoints
 62
     0
100
AcDbPoint
 10
172.4165303244005
 20
451.7854077805792
 30
0.0
  0
POINT
  5
3B9D
330
3B92
100
AcDbEntity
  8
Defpoints
 62
     0
100
AcDbPoint
 10
172.4165303244005
 20
469.9574301222169
 30
0.0
  0
ENDBLK
  5
3B94
330
3B92
100
AcDbEntity
  8
0
100
AcDbBlockEnd
  0
BLOCK
  5
3B9F
330
3B9E
100
AcDbEntity
  8
0
100
AcDbBlockBegin
  2
*D4
 70
     1
 10
0.0
 20
0.0
 30
0.0
  3
*D4
  1

  0
LINE
  5
3BA1
330
3B9E
100
AcDbEntity
  8
DIM
 62
     0
370
    -2
100
AcDbLine
 10
95.4165303244005
 20
448.3104475998533
 30
0.0
 11
80.41653032440041
 21
448.3104475998533
 31
0.0
  0
LINE
  5
3BA2
330
3B9E
100
AcDbEntity
  8
DIM
 62
     0
370
    -2
100
AcDbLine
 10
120.4165303244005
 20
380.0604475998529
 30
0.0
 11
80.41653032440065
 21
380.0604475998528
 31
0.0
  0
LINE
  5
3BA3
330
3B9E
100
AcDbEntity
  8
DIM
 62
     0
370
    -2
100
AcDbLine
 10
80.41653032440041
 20
446.3104475998533
 30
0.0
 11
80.41653032440065
 21
382.0604475998528
 31
0.0
  0
INSERT
  5
3BA4
330
3B9E
100
AcDbEntity
  8
DIM
 62
     0
370
    -2
100
AcDbBlockReference
  2
_DOT
 10
80.41653032440041
 20
448.3104475998533
 30
0.0
 41
2.0
 42
2.0
 43
2.0
 50
90.0000000000002
  0
INSERT
  5
3BA5
330
3B9E
100
AcDbEntity
  8
DIM
 62
     0
370
    -2
100
AcDbBlockReference
  2
_DOT
 10
80.41653032440065
 20
380.0604475998528
 30
0.0
 41
2.0
 42
2.0
 43
2.0
 50
270.0000000000002
  0
MTEXT
  5
3BA6
330
3B9E
100
AcDbEntity
  8
DIM
 62
     0
 48
0.05
100
AcDbMText
 10
72.41653032440053
 20
414.1854475998531
 30
0.0
 40
5.0
 41
0.0
 46
0.0
 71
     2
 72
     1
  1
\A1;68
  7
ＭＳ ゴシック
 11
-3.539700075581425E-15
 21
1.0
 31
0.0
 73
     1
 44
1.0
  0
POINT
  5
3BA7
330
3B9E
100
AcDbEntity
  8
Defpoints
 62
     0
100
AcDbPoint
 10
100.4165303244005
 20
448.3104475998533
 30
0.0
  0
POINT
  5
3BA8
330
3B9E
100
AcDbEntity
  8
Defpoints
 62
     0
100
AcDbPoint
 10
125.4165303244005
 20
380.0604475998529
 30
0.0
  0
POINT
  5
3BA9
330
3B9E
100
AcDbEntity
  8
Defpoints
 62
     0
100
AcDbPoint
 10
80.41653032440065
 20
380.0604475998528
 30
0.0
  0
ENDBLK
  5
3BA0
330
3B9E
100
AcDbEntity
  8
0
100
AcDbBlockEnd
  0
BLOCK
  5
3BAB
330
3BAA
100
AcDbEntity
  8
0
100
AcDbBlockBegin
  2
*D5
 70
     1
 10
0.0
 20
0.0
 30
0.0
  3
*D5
  1

  0
LINE
  5
3BAD
330
3BAA
100
AcDbEntity
  8
DIM
 62
     0
370
    -2
100
AcDbLine
 10
125.4165303244005
 20
375.0604475998529
 30
0.0
 11
125.4165303244005
 21
361.7949884833052
 31
0.0
  0
LINE
  5
3BAE
330
3BAA
100
AcDbEntity
  8
DIM
 62
     0
370
    -2
100
AcDbLine
 10
147.4165303244005
 20
375.0604475998529
 30
0.0
 11
147.4165303244005
 21
361.7949884833052
 31
0.0
  0
LINE
  5
3BAF
330
3BAA
100
AcDbEntity
  8
DIM
 62
     0
370
    -2
100
AcDbLine
 10
127.4165303244005
 20
361.7949884833052
 30
0.0
 11
145.4165303244005
 21
361.7949884833052
 31
0.0
  0
INSERT
  5
3BB0
330
3BAA
100
AcDbEntity
  8
DIM
 62
     0
370
    -2
100
AcDbBlockReference
  2
_DOT
 10
125.4165303244005
 20
361.7949884833052
 30
0.0
 41
2.0
 42
2.0
 43
2.0
 50
180.0
  0
INSERT
  5
3BB1
330
3BAA
100
AcDbEntity
  8
DIM
 62
     0
370
    -2
100
AcDbBlockReference
  2
_DOT
 10
147.4165303244005
 20
361.7949884833052
 30
0.0
 41
2.0
 42
2.0
 43
2.0
  0
MTEXT
  5
3BB2
330
3BAA
100
AcDbEntity
  8
DIM
 62
     0
 48
0.05
100
AcDbMText
 10
136.4165303244005
 20
369.7949884833052
 30
0.0
 40
5.0
 41
0.0
 46
0.0
 71
     2
 72
     1
  1
\A1;22
  7
ＭＳ ゴシック
 73
     1
 44
1.0
  0
POINT
  5
3BB3
330
3BAA
100
AcDbEntity
  8
Defpoints
 62
     0
100
AcDbPoint
 10
125.4165303244005
 20
380.0604475998529
 30
0.0
  0
POINT
  5
3BB4
330
3BAA
100
AcDbEntity
  8
Defpoints
 62
     0
100
AcDbPoint
 10
147.4165303244005
 20
380.0604475998529
 30
0.0
  0
POINT
  5
3BB5
330
3BAA
100
AcDbEntity
  8
Defpoints
 62
     0
100
AcDbPoint
 10
147.4165303244005
 20
361.7949884833052
 30
0.0
  0
ENDBLK
  5
3BAC
330
3BAA
100
AcDbEntity
  8
0
100
AcDbBlockEnd
  0
BLOCK
  5
3BB7
330
3BB6
100
AcDbEntity
  8
0
100
AcDbBlockBegin
  2
*D6
 70
     1
 10
0.0
 20
0.0
 30
0.0
  3
*D6
  1

  0
LINE
  5
3BB9
330
3BB6
100
AcDbEntity
  8
DIM
 62
     0
370
    -2
100
AcDbLine
 10
176.6454837165862
 20
212.2077009873064
 30
0.0
 11
193.3903881603889
 21
212.2077009873063
 31
0.0
  0
LINE
  5
3BBA
330
3BB6
100
AcDbEntity
  8
DIM
 62
     0
370
    -2
100
AcDbLine
 10
176.6454837165862
 20
182.2077009873063
 30
0.0
 11
193.3903881603889
 21
182.2077009873062
 31
0.0
  0
LINE
  5
3BBB
330
3BB6
100
AcDbEntity
  8
DIM
 62
     0
370
    -2
100
AcDbLine
 10
193.3903881603889
 20
210.2077009873063
 30
0.0
 11
193.3903881603889
 21
184.2077009873062
 31
0.0
  0
INSERT
  5
3BBC
330
3BB6
100
AcDbEntity
  8
DIM
 62
     0
370
    -2
100
AcDbBlockReference
  2
_DOT
 10
193.3903881603889
 20
212.2077009873063
 30
0.0
 41
2.0
 42
2.0
 43
2.0
 50
89.99999999999982
  0
INSERT
  5
3BBD
330
3BB6
100
AcDbEntity
  8
DIM
 62
     0
370
    -2
100
AcDbBlockReference
  2
_DOT
 10
193.3903881603889
 20
182.2077009873062
 30
0.0
 41
2.0
 42
2.0
 43
2.0
 50
269.9999999999998
  0
MTEXT
  5
3BBE
330
3BB6
100
AcDbEntity
  8
DIM
 62
     0
 48
0.05
100
AcDbMText
 10
185.3903881603889
 20
197.2077009873064
 30
0.0
 40
5.0
 41
0.0
 46
0.0
 71
     2
 72
     1
  1
\A1;30
  7
ＭＳ ゴシック
 11
2.842170943040393E-15
 21
1.0
 31
0.0
 73
     1
 44
1.0
  0
POINT
  5
3BBF
330
3BB6
100
AcDbEntity
  8
Defpoints
 62
     0
100
AcDbPoint
 10
171.6454837165862
 20
212.2077009873064
 30
0.0
  0
POINT
  5
3BC0
330
3BB6
100
AcDbEntity
  8
Defpoints
 62
     0
100
AcDbPoint
 10
171.6454837165862
 20
182.2077009873063
 30
0.0
  0
POINT
  5
3BC1
330
3BB6
100
AcDbEntity
  8
Defpoints
 62
     0
100
AcDbPoint
 10
193.3903881603888
 20
182.2077009873062
 30
0.0
  0
ENDBLK
  5
3BB8
330
3BB6
100
AcDbEntity
  8
0
100
AcDbBlockEnd
  0
BLOCK
  5
3BC3
330
3BC2
100
AcDbEntity
  8
0
100
AcDbBlockBegin
  2
*D7
 70
     1
 10
0.0
 20
0.0
 30
0.0
  3
*D7
  1

  0
LINE
  5
3BC5
330
3BC2
100
AcDbEntity
  8
DIM
 62
     0
370
    -2
100
AcDbLine
 10
177.9901558885232
 20
438.06044758632
 30
0.0
 11
190.3107608583836
 21
438.06044758632
 31
0.0
  0
LINE
  5
3BC6
330
3BC2
100
AcDbEntity
  8
DIM
 62
     0
370
    -2
100
AcDbLine
 10
177.4165317216699
 20
448.31044758632
 30
0.0
 11
190.3107608583836
 21
448.31044758632
 31
0.0
  0
LINE
  5
3BC7
330
3BC2
100
AcDbEntity
  8
DIM
 62
     0
370
    -2
100
AcDbLine
 10
190.3107608583836
 20
440.06044758632
 30
0.0
 11
190.3107608583836
 21
446.31044758632
 31
0.0
  0
INSERT
  5
3BC8
330
3BC2
100
AcDbEntity
  8
DIM
 62
     0
370
    -2
100
AcDbBlockReference
  2
_DOT
 10
190.3107608583836
 20
438.06044758632
 30
0.0
 41
2.0
 42
2.0
 43
2.0
 50
270.0
  0
INSERT
  5
3BC9
330
3BC2
100
AcDbEntity
  8
DIM
 62
     0
370
    -2
100
AcDbBlockReference
  2
_DOT
 10
190.3107608583836
 20
448.31044758632
 30
0.0
 41
2.0
 42
2.0
 43
2.0
 50
90.0
  0
MTEXT
  5
3BCA
330
3BC2
100
AcDbEntity
  8
DIM
 62
     0
 48
0.05
100
AcDbMText
 10
182.3107608583836
 20
443.18544758632
 30
0.0
 40
5.0
 41
0.0
 46
0.0
 71
     2
 72
     1
  1
\A1;10
  7
ＭＳ ゴシック
 11
0.0
 21
1.0
 31
0.0
 73
     1
 44
1.0
  0
POINT
  5
3BCB
330
3BC2
100
AcDbEntity
  8
Defpoints
 62
     0
100
AcDbPoint
 10
172.9901558885232
 20
438.06044758632
 30
0.0
  0
POINT
  5
3BCC
330
3BC2
100
AcDbEntity
  8
Defpoints
 62
     0
100
AcDbPoint
 10
172.4165317216699
 20
448.31044758632
 30
0.0
  0
POINT
  5
3BCD
330
3BC2
100
AcDbEntity
  8
Defpoints
 62
     0
100
AcDbPoint
 10
190.3107608583836
 20
448.31044758632
 30
0.0
  0
ENDBLK
  5
3BC4
330
3BC2
100
AcDbEntity
  8
0
100
AcDbBlockEnd
  0
BLOCK
  5
3BCF
330
3BCE
100
AcDbEntity
  8
0
100
AcDbBlockBegin
  2
*D8
 70
     1
 10
0.0
 20
0.0
 30
0.0
  3
*D8
  1

  0
LINE
  5
3BD1
330
3BCE
100
AcDbEntity
  8
DIM
 62
     0
370
    -2
100
AcDbLine
 10
182.9901558885232
 20
438.06044758632
 30
0.0
 11
190.3107608583836
 21
438.06044758632
 31
0.0
  0
LINE
  5
3BD2
330
3BCE
100
AcDbEntity
  8
DIM
 62
     0
370
    -2
100
AcDbLine
 10
150.8011504144714
 20
380.0604500198659
 30
0.0
 11
190.3107608583836
 21
380.0604500198659
 31
0.0
  0
LINE
  5
3BD3
330
3BCE
100
AcDbEntity
  8
DIM
 62
     0
370
    -2
100
AcDbLine
 10
190.3107608583836
 20
436.06044758632
 30
0.0
 11
190.3107608583836
 21
382.0604500198659
 31
0.0
  0
INSERT
  5
3BD4
330
3BCE
100
AcDbEntity
  8
DIM
 62
     0
370
    -2
100
AcDbBlockReference
  2
_DOT
 10
190.3107608583836
 20
438.06044758632
 30
0.0
 41
2.0
 42
2.0
 43
2.0
 50
90.0
  0
INSERT
  5
3BD5
330
3BCE
100
AcDbEntity
  8
DIM
 62
     0
370
    -2
100
AcDbBlockReference
  2
_DOT
 10
190.3107608583836
 20
380.0604500198659
 30
0.0
 41
2.0
 42
2.0
 43
2.0
 50
270.0
  0
MTEXT
  5
3BD6
330
3BCE
100
AcDbEntity
  8
DIM
 62
     0
 48
0.05
100
AcDbMText
 10
184.8107608583836
 20
409.060448803093
 30
0.0
 40
5.0
 41
0.0
 46
0.0
 71
     5
 72
     1
  1
\A1;58
  7
ＭＳ ゴシック
 11
0.0
 21
1.0
 31
0.0
 73
     1
 44
1.0
  0
POINT
  5
3BD7
330
3BCE
100
AcDbEntity
  8
Defpoints
 62
     0
100
AcDbPoint
 10
177.9901558885232
 20
438.06044758632
 30
0.0
  0
POINT
  5
3BD8
330
3BCE
100
AcDbEntity
  8
Defpoints
 62
     0
100
AcDbPoint
 10
145.8011504144714
 20
380.0604500198659
 30
0.0
  0
POINT
  5
3BD9
330
3BCE
100
AcDbEntity
  8
Defpoints
 62
     0
100
AcDbPoint
 10
190.3107608583836
 20
380.0604500198659
 30
0.0
  0
ENDBLK
  5
3BD0
330
3BCE
100
AcDbEntity
  8
0
100
AcDbBlockEnd
  0
BLOCK
  5
3CF9
330
3CF8
100
AcDbEntity
  8
0
100
AcDbBlockBegin
  2
*D9
 70
     1
 10
0.0
 20
0.0
 30
0.0
  3
*D9
  1

  0
LINE
  5
3CFA
330
3CF8
100
AcDbEntity
  8
DIM
 62
     0
370
    -2
100
AcDbLine
 10
0.5
 20
67.50177050455927
 30
0.0
 11
0.5
 21
97.57489301398171
 31
0.0
  0
LINE
  5
3CFB
330
3CF8
100
AcDbEntity
  8
DIM
 62
     0
370
    -2
100
AcDbLine
 10
57.58899696048613
 20
67.50177050455927
 30
0.0
 11
57.58899696048613
 21
97.57489301398171
 31
0.0
  0
LINE
  5
3CFC
330
3CF8
100
AcDbEntity
  8
DIM
 62
     0
370
    -2
100
AcDbLine
 10
2.5
 20
97.57489301398171
 30
0.0
 11
55.58899696048613
 21
97.57489301398171
 31
0.0
  0
INSERT
  5
3CFD
330
3CF8
100
AcDbEntity
  8
DIM
 62
     0
370
    -2
100
AcDbBlockReference
  2
_DOT
 10
0.5
 20
97.57489301398171
 30
0.0
 41
2.0
 42
2.0
 43
2.0
 50
180.0
  0
INSERT
  5
3CFE
330
3CF8
100
AcDbEntity
  8
DIM
 62
     0
370
    -2
100
AcDbBlockReference
  2
_DOT
 10
57.58899696048613
 20
97.57489301398171
 30
0.0
 41
2.0
 42
2.0
 43
2.0
  0
MTEXT
  5
3CFF
330
3CF8
100
AcDbEntity
  8
DIM
 62
     0
100
AcDbMText
 10
29.04449848024305
 20
103.0748930139817
 30
0.0
 40
5.0
 41
0.0
 46
0.0
 71
     5
 72
     1
  1
\A1;57
  7
ＭＳ ゴシック
 73
     1
 44
1.0
  0
POINT
  5
3D00
330
3CF8
100
AcDbEntity
  8
Defpoints
 62
     0
100
AcDbPoint
 10
0.5
 20
62.50177050455927
 30
0.0
  0
POINT
  5
3D01
330
3CF8
100
AcDbEntity
  8
Defpoints
 62
     0
100
AcDbPoint
 10
57.58899696048613
 20
62.50177050455927
 30
0.0
  0
POINT
  5
3D02
330
3CF8
100
AcDbEntity
  8
Defpoints
 62
     0
100
AcDbPoint
 10
57.58899696048613
 20
97.57489301398171
 30
0.0
  0
ENDBLK
  5
3D03
330
3CF8
100
AcDbEntity
  8
0
100
AcDbBlockEnd
  0
BLOCK
  5
3D08
330
3D07
100
AcDbEntity
  8
0
100
AcDbBlockBegin
  2
*D10
 70
     1
 10
0.0
 20
0.0
 30
0.0
  3
*D10
  1

  0
LINE
  5
3D09
330
3D07
100
AcDbEntity
  8
DIM
 62
     0
370
    -2
100
AcDbLine
 10
10.10104278775087
 20
57.50177050455927
 30
0.0
 11
10.10104278775087
 21
19.15243768996962
 31
0.0
  0
LINE
  5
3D0A
330
3D07
100
AcDbEntity
  8
DIM
 62
     0
370
    -2
100
AcDbLine
 10
47.98795417273527
 20
57.50177050455927
 30
0.0
 11
47.98795417273527
 21
19.15243768996962
 31
0.0
  0
LINE
  5
3D0B
330
3D07
100
AcDbEntity
  8
DIM
 62
     0
370
    -2
100
AcDbLine
 10
12.10104278775087
 20
19.15243768996962
 30
0.0
 11
45.98795417273527
 21
19.15243768996962
 31
0.0
  0
INSERT
  5
3D0C
330
3D07
100
AcDbEntity
  8
DIM
 62
     0
370
    -2
100
AcDbBlockReference
  2
_DOT
 10
10.10104278775087
 20
19.15243768996962
 30
0.0
 41
2.0
 42
2.0
 43
2.0
 50
180.0
  0
INSERT
  5
3D0D
330
3D07
100
AcDbEntity
  8
DIM
 62
     0
370
    -2
100
AcDbBlockReference
  2
_DOT
 10
47.98795417273527
 20
19.15243768996962
 30
0.0
 41
2.0
 42
2.0
 43
2.0
  0
MTEXT
  5
3D0E
330
3D07
100
AcDbEntity
  8
DIM
 62
     0
100
AcDbMText
 10
29.04449848024307
 20
24.65243768996962
 30
0.0
 40
5.0
 41
0.0
 46
0.0
 71
     5
 72
     1
  1
\A1;38
  7
ＭＳ ゴシック
 73
     1
 44
1.0
  0
POINT
  5
3D0F
330
3D07
100
AcDbEntity
  8
Defpoints
 62
     0
100
AcDbPoint
 10
10.10104278775087
 20
62.50177050455927
 30
0.0
  0
POINT
  5
3D10
330
3D07
100
AcDbEntity
  8
Defpoints
 62
     0
100
AcDbPoint
 10
47.98795417273527
 20
62.50177050455927
 30
0.0
  0
POINT
  5
3D11
330
3D07
100
AcDbEntity
  8
Defpoints
 62
     0
100
AcDbPoint
 10
47.98795417273527
 20
19.15243768996962
 30
0.0
  0
ENDBLK
  5
3D12
330
3D07
100
AcDbEntity
  8
0
100
AcDbBlockEnd
  0
BLOCK
  5
3D25
330
3D24
100
AcDbEntity
  8
0
100
AcDbBlockBegin
  2
*D11
 70
     1
 10
0.0
 20
0.0
 30
0.0
  3
*D11
  1

  0
LINE
  5
3D27
330
3D24
100
AcDbEntity
  8
DIM
 62
     0
370
    -2
100
AcDbLine
 10
164.9604863221886
 20
338.6076747477204
 30
0.0
 11
164.9604863221886
 21
403.7539197665653
 31
0.0
  0
LINE
  5
3D28
330
3D24
100
AcDbEntity
  8
DIM
 62
     0
370
    -2
100
AcDbLine
 10
279.1384802431609
 20
338.6076747477204
 30
0.0
 11
279.1384802431609
 21
403.7539197665653
 31
0.0
  0
LINE
  5
3D29
330
3D24
100
AcDbEntity
  8
DIM
 62
     0
370
    -2
100
AcDbLine
 10
166.9604863221886
 20
403.7539197665653
 30
0.0
 11
277.1384802431609
 21
403.7539197665653
 31
0.0
  0
INSERT
  5
3D2A
330
3D24
100
AcDbEntity
  8
DIM
 62
     0
370
    -2
100
AcDbBlockReference
  2
_DOT
 10
164.9604863221886
 20
403.7539197665653
 30
0.0
 41
2.0
 42
2.0
 43
2.0
 50
180.0
  0
INSERT
  5
3D2B
330
3D24
100
AcDbEntity
  8
DIM
 62
     0
370
    -2
100
AcDbBlockReference
  2
_DOT
 10
279.1384802431609
 20
403.7539197665653
 30
0.0
 41
2.0
 42
2.0
 43
2.0
  0
MTEXT
  5
3D2C
330
3D24
100
AcDbEntity
  8
DIM
 62
     0
100
AcDbMText
 10
222.0494832826747
 20
409.2539197665653
 30
0.0
 40
5.0
 41
0.0
 46
0.0
 71
     5
 72
     1
  1
\A1;114
  7
ＭＳ ゴシック
 73
     1
 44
1.0
  0
POINT
  5
3D2D
330
3D24
100
AcDbEntity
  8
Defpoints
 62
     0
100
AcDbPoint
 10
164.9604863221886
 20
333.6076747477204
 30
0.0
  0
POINT
  5
3D2E
330
3D24
100
AcDbEntity
  8
Defpoints
 62
     0
100
AcDbPoint
 10
279.1384802431609
 20
333.6076747477204
 30
0.0
  0
POINT
  5
3D2F
330
3D24
100
AcDbEntity
  8
Defpoints
 62
     0
100
AcDbPoint
 10
279.1384802431609
 20
403.7539197665653
 30
0.0
  0
ENDBLK
  5
3D26
330
3D24
100
AcDbEntity
  8
0
100
AcDbBlockEnd
  0
BLOCK
  5
3D31
330
3D30
100
AcDbEntity
  8
0
100
AcDbBlockBegin
  2
*D12
 70
     1
 10
0.0
 20
0.0
 30
0.0
  3
*D12
  1

  0
LINE
  5
3D33
330
3D30
100
AcDbEntity
  8
DIM
 62
     0
370
    -2
100
AcDbLine
 10
184.1625718976903
 20
328.6076747477204
 30
0.0
 11
184.1625718976903
 21
246.9090091185411
 31
0.0
  0
LINE
  5
3D34
330
3D30
100
AcDbEntity
  8
DIM
 62
     0
370
    -2
100
AcDbLine
 10
259.9363946676591
 20
328.6076747477204
 30
0.0
 11
259.9363946676591
 21
246.9090091185411
 31
0.0
  0
LINE
  5
3D35
330
3D30
100
AcDbEntity
  8
DIM
 62
     0
370
    -2
100
AcDbLine
 10
186.1625718976903
 20
246.9090091185411
 30
0.0
 11
257.9363946676591
 21
246.9090091185411
 31
0.0
  0
INSERT
  5
3D36
330
3D30
100
AcDbEntity
  8
DIM
 62
     0
370
    -2
100
AcDbBlockReference
  2
_DOT
 10
184.1625718976903
 20
246.9090091185411
 30
0.0
 41
2.0
 42
2.0
 43
2.0
 50
180.0
  0
INSERT
  5
3D37
330
3D30
100
AcDbEntity
  8
DIM
 62
     0
370
    -2
100
AcDbBlockReference
  2
_DOT
 10
259.9363946676591
 20
246.9090091185411
 30
0.0
 41
2.0
 42
2.0
 43
2.0
  0
MTEXT
  5
3D38
330
3D30
100
AcDbEntity
  8
DIM
 62
     0
100
AcDbMText
 10
222.0494832826747
 20
252.4090091185411
 30
0.0
 40
5.0
 41
0.0
 46
0.0
 71
     5
 72
     1
  1
\A1;76
  7
ＭＳ ゴシック
 73
     1
 44
1.0
  0
POINT
  5
3D39
330
3D30
100
AcDbEntity
  8
Defpoints
 62
     0
100
AcDbPoint
 10
184.1625718976903
 20
333.6076747477204
 30
0.0
  0
POINT
  5
3D3A
330
3D30
100
AcDbEntity
  8
Defpoints
 62
     0
100
AcDbPoint
 10
259.9363946676591
 20
333.6076747477204
 30
0.0
  0
POINT
  5
3D3B
330
3D30
100
AcDbEntity
  8
Defpoints
 62
     0
100
AcDbPoint
 10
259.9363946676591
 20
246.9090091185411
 30
0.0
  0
ENDBLK
  5
3D32
330
3D30
100
AcDbEntity
  8
0
100
AcDbBlockEnd
  0
BLOCK
  5
3D78
330
3D77
100
AcDbEntity
  8
0
100
AcDbBlockBegin
  2
SE
 70
     0
 10
0.0
 20
0.0
 30
0.0
  3
SE
  1

  0
CIRCLE
  5
3D79
330
3D77
100
AcDbEntity
  8
$DDT_AUDIT_GENERATED_(60)
  6
Continuous
 62
     7
100
AcDbCircle
 10
31.4104492566
 20
303.2980438544
 30
0.0
 40
18.5
  0
LINE
  5
3D7A
330
3D77
100
AcDbEntity
  8
$DDT_AUDIT_GENERATED_(60)
  6
Continuous
 62
     7
100
AcDbLine
 10
40.6604492566
 20
317.2987681099
 30
0.0
 11
40.6604492566
 21
318.110156039
 31
0.0
  0
LINE
  5
3D7B
330
3D77
100
AcDbEntity
  8
$DDT_AUDIT_GENERATED_(60)
  6
Continuous
 62
     7
100
AcDbLine
 10
40.6604492566
 20
289.297319599
 30
0.0
 11
40.6604492566
 21
317.2987681099
 31
0.0
  0
LINE
  5
3D7C
330
3D77
100
AcDbEntity
  8
$DDT_AUDIT_GENERATED_(60)
  6
Continuous
 62
     7
100
AcDbLine
 10
40.6604492566
 20
288.4859316699
 30
0.0
 11
40.6604492566
 21
289.297319599
 31
0.0
  0
LINE
  5
3D7D
330
3D77
100
AcDbEntity
  8
$DDT_AUDIT_GENERATED_(60)
  6
Continuous
 62
     7
100
AcDbLine
 10
22.1604492566
 20
318.1567841063
 30
0.0
 11
22.1604492566
 21
318.110156039
 31
0.0
  0
LINE
  5
3D7E
330
3D77
100
AcDbEntity
  8
$DDT_AUDIT_GENERATED_(60)
  6
Continuous
 62
     7
100
AcDbLine
 10
22.1604492566
 20
318.110156039
 30
0.0
 11
22.1604492566
 21
317.2987681099
 31
0.0
  0
LINE
  5
3D7F
330
3D77
100
AcDbEntity
  8
$DDT_AUDIT_GENERATED_(60)
  6
Continuous
 62
     7
100
AcDbLine
 10
22.1604492566
 20
317.2987681099
 30
0.0
 11
22.1604492566
 21
289.297319599
 31
0.0
  0
LINE
  5
3D80
330
3D77
100
AcDbEntity
  8
$DDT_AUDIT_GENERATED_(60)
  6
Continuous
 62
     7
100
AcDbLine
 10
22.1604492566
 20
289.297319599
 30
0.0
 11
22.1604492566
 21
288.4859316699
 31
0.0
  0
LINE
  5
3D81
330
3D77
100
AcDbEntity
  8
$DDT_AUDIT_GENERATED_(60)
  6
Continuous
 62
     7
100
AcDbLine
 10
22.1604492566
 20
288.4859316699
 30
0.0
 11
22.1604492566
 21
288.4054079292
 31
0.0
  0
ARC
  5
3D82
330
3D77
100
AcDbEntity
  8
$DDT_AUDIT_GENERATED_(60)
  6
Continuous
 62
     7
100
AcDbCircle
 10
40.9604488979
 20
318.1101282989
 30
0.0
 40
0.300012085982
100
AcDbArc
 50
57.191212556
 51
179.994702038
  0
ARC
  5
3D83
330
3D77
100
AcDbEntity
  8
$DDT_AUDIT_GENERATED_(60)
  6
Continuous
 62
     7
100
AcDbCircle
 10
40.9604488979
 20
288.48595941
 30
0.0
 40
0.3000120859819783
100
AcDbArc
 50
180.005297962
 51
302.808787444
  0
ARC
  5
3D84
330
3D77
100
AcDbEntity
  8
$DDT_AUDIT_GENERATED_(60)
  6
Continuous
 62
     7
100
AcDbCircle
 10
21.8604492566
 20
318.1567841063
 30
0.0
 40
0.2999999999999999
100
AcDbArc
 50
0.0
 51
90.0
  0
ARC
  5
3D85
330
3D77
100
AcDbEntity
  8
$DDT_AUDIT_GENERATED_(60)
  6
Continuous
 62
     7
100
AcDbCircle
 10
21.8604492566
 20
318.1567841063
 30
0.0
 40
0.2999999999999999
100
AcDbArc
 50
90.0
 51
122.2558218072
  0
ARC
  5
3D86
330
3D77
100
AcDbEntity
  8
$DDT_AUDIT_GENERATED_(60)
  6
Continuous
 62
     7
100
AcDbCircle
 10
21.8604492566
 20
288.4054079292
 30
0.0
 40
0.3
100
AcDbArc
 50
238.1012963655
 51
0.0
  0
CIRCLE
  5
3D87
330
3D77
100
AcDbEntity
  8
$DDT_AUDIT_GENERATED_(6F)
  6
Continuous
 62
     7
100
AcDbCircle
 10
31.4104492566
 20
303.2980438544
 30
0.0
 40
3.452443098511236
  0
LINE
  5
3D88
330
3D77
100
AcDbEntity
  8
$DDT_AUDIT_GENERATED_(6F)
  6
Continuous
 62
     7
100
AcDbLine
 10
30.9104492566
 20
300.0235363425
 30
0.0
 11
30.9104492566
 21
300.5284510878
 31
0.0
  0
LINE
  5
3D89
330
3D77
100
AcDbEntity
  8
$DDT_AUDIT_GENERATED_(6F)
  6
Continuous
 62
     7
100
AcDbLine
 10
30.9104492566
 20
306.0676366211
 30
0.0
 11
30.9104492566
 21
306.5725513664
 31
0.0
  0
LINE
  5
3D8A
330
3D77
100
AcDbEntity
  8
$DDT_AUDIT_GENERATED_(6F)
  6
Continuous
 62
     7
100
AcDbLine
 10
31.9104492566
 20
300.5284510878
 30
0.0
 11
31.9104492566
 21
300.0235363425
 31
0.0
  0
LINE
  5
3D8B
330
3D77
100
AcDbEntity
  8
$DDT_AUDIT_GENERATED_(6F)
  6
Continuous
 62
     7
100
AcDbLine
 10
31.9104492566
 20
306.5725513664
 30
0.0
 11
31.9104492566
 21
306.0676366211
 31
0.0
  0
LINE
  5
3D8C
330
3D77
100
AcDbEntity
  8
$DDT_AUDIT_GENERATED_(6F)
  6
Continuous
 62
     7
100
AcDbLine
 10
31.9104492566
 20
306.5725513664
 30
0.0
 11
31.9104492566
 21
306.6206515487
 31
0.0
  0
LINE
  5
3D8D
330
3D77
100
AcDbEntity
  8
$DDT_AUDIT_GENERATED_(6F)
  6
Continuous
 62
     7
100
AcDbLine
 10
31.9104492566
 20
306.0676366211
 30
0.0
 11
31.9104492566
 21
300.5284510878
 31
0.0
  0
LINE
  5
3D8E
330
3D77
100
AcDbEntity
  8
$DDT_AUDIT_GENERATED_(6F)
  6
Continuous
 62
     7
100
AcDbLine
 10
30.9104492566
 20
306.6206515487
 30
0.0
 11
30.9104492566
 21
306.5725513664
 31
0.0
  0
LINE
  5
3D8F
330
3D77
100
AcDbEntity
  8
$DDT_AUDIT_GENERATED_(6F)
  6
Continuous
 62
     7
100
AcDbLine
 10
31.9104492566
 20
299.9754361602
 30
0.0
 11
31.9104492566
 21
300.0235363425
 31
0.0
  0
LINE
  5
3D90
330
3D77
100
AcDbEntity
  8
$DDT_AUDIT_GENERATED_(6F)
  6
Continuous
 62
     7
100
AcDbLine
 10
30.9104492566
 20
300.0235363425
 30
0.0
 11
30.9104492566
 21
299.9754361602
 31
0.0
  0
LINE
  5
3D91
330
3D77
100
AcDbEntity
  8
$DDT_AUDIT_GENERATED_(6F)
  6
Continuous
 62
     7
100
AcDbLine
 10
30.9104492566
 20
300.5284510878
 30
0.0
 11
30.9104492566
 21
306.0676366211
 31
0.0
  0
CIRCLE
  5
3D92
330
3D77
100
AcDbEntity
  8
$DDT_AUDIT_GENERATED_(7B)
  6
Continuous
 62
     7
100
AcDbCircle
 10
31.4104486364
 20
303.2980396235
 30
0.0
 40
24.99562174649566
  0
LINE
  5
3D93
330
3D77
100
AcDbEntity
  8
DV1_Standard
  6
CENTER2
 62
     7
100
AcDbLine
 10
51.4104481893
 20
303.2980396235
 30
0.0
 11
11.4104490834
 21
303.2980396235
 31
0.0
  0
LINE
  5
3D94
330
3D77
100
AcDbEntity
  8
DV1_Standard
  6
CENTER2
 62
     7
100
AcDbLine
 10
31.4104486364
 20
323.2980391765
 30
0.0
 11
31.4104486364
 21
283.2980400706
 31
0.0
  0
LINE
  5
3D95
330
3D77
100
AcDbEntity
  8
DV1_Standard
  6
CENTER2
 62
     7
100
AcDbLine
 10
56.4104480776
 20
303.2980396235
 30
0.0
 11
59.9060703828
 21
303.2980396235
 31
0.0
  0
LINE
  5
3D96
330
3D77
100
AcDbEntity
  8
DV1_Standard
  6
CENTER2
 62
     7
100
AcDbLine
 10
31.4104486364
 20
328.2980390648
 30
0.0
 11
31.4104486364
 21
331.79366137
 31
0.0
  0
LINE
  5
3D97
330
3D77
100
AcDbEntity
  8
DV1_Standard
  6
CENTER2
 62
     7
100
AcDbLine
 10
6.4104491951
 20
303.2980396235
 30
0.0
 11
2.9148268899
 21
303.2980396235
 31
0.0
  0
LINE
  5
3D98
330
3D77
100
AcDbEntity
  8
DV1_Standard
  6
CENTER2
 62
     7
100
AcDbLine
 10
31.4104486364
 20
278.2980401823
 30
0.0
 11
31.4104486364
 21
274.8024178771
 31
0.0
  0
ENDBLK
  5
3D99
330
3D77
100
AcDbEntity
  8
0
100
AcDbBlockEnd
  0
BLOCK
  5
3D9C
330
3D9B
100
AcDbEntity
  8
0
100
AcDbBlockBegin
  2
SE1
 70
     0
 10
0.0
 20
0.0
 30
0.0
  3
SE1
  1

  0
ARC
  5
3D9D
330
3D9B
100
AcDbEntity
  8
$DDT_AUDIT_GENERATED_(60)
  6
Continuous
 62
     7
100
AcDbCircle
 10
-271.5327297067
 20
303.2980438544
 30
0.0
 40
499.9086796190104
100
AcDbArc
 50
358.3941685054
 51
1.6058314946
  0
LINE
  5
3D9E
330
3D9B
100
AcDbEntity
  8
$DDT_AUDIT_GENERATED_(60)
  6
Continuous
 62
     7
100
AcDbLine
 10
167.4329290158
 20
284.8526920313
 30
0.0
 11
203.2820802331
 21
285.1655428344
 31
0.0
  0
LINE
  5
3D9F
330
3D9B
100
AcDbEntity
  8
$DDT_AUDIT_GENERATED_(60)
  6
Continuous
 62
     7
100
AcDbLine
 10
201.3783563957
 20
321.4471584207
 30
0.0
 11
167.4329290158
 21
321.7433956776
 31
0.0
  0
SPLINE
  5
3DA0
330
3D9B
100
AcDbEntity
  8
$DDT_AUDIT_GENERATED_(60)
  6
Continuous
 62
     7
100
AcDbSpline
210
0.0
220
0.0
230
1.0
 70
     8
 71
     3
 72
    64
 73
    60
 74
     0
 42
0.000000001
 43
0.0000000001
 40
0.0
 40
0.0
 40
0.0
 40
0.0
 40
0.0236168882362479
 40
0.0475748080322853
 40
0.0717160558319964
 40
0.0954555732878764
 40
0.1186981079045333
 40
0.1413741143938411
 40
0.1634538619411255
 40
0.1849423258661675
 40
0.2035354822776867
 40
0.2231790813757421
 40
0.2426481553140218
 40
0.2619208394298073
 40
0.2809496010669227
 40
0.2997018947203067
 40
0.3181610926494061
 40
0.3363264505722147
 40
0.3542263044771827
 40
0.3720821451854652
 40
0.3905859568959878
 40
0.4096678098961282
 40
0.4293527984147789
 40
0.449641512577808
 40
0.4705070057858324
 40
0.4918891647476287
 40
0.5137059587724327
 40
0.5360833413878154
 40
0.5593412439043478
 40
0.5829580974019577
 40
0.6068630202476993
 40
0.6309618195382437
 40
0.6551470193713929
 40
0.6792875924797999
 40
0.7030731479465874
 40
0.7266453641528319
 40
0.7499461727049187
 40
0.7729055114507143
 40
0.7954750850808
 40
0.8176289503243156
 40
0.8393689823063317
 40
0.8605237542348905
 40
0.8814759574561082
 40
0.902355259140284
 40
0.9231007910619099
 40
0.9436602664994965
 40
0.9639930762655577
 40
0.984076905358872
 40
0.9890664031759668
 40
0.9916573460745927
 40
0.9938267101161156
 40
0.9940983250191189
 40
0.9942573869485422
 40
0.9944336019530191
 40
0.9948819060596633
 40
0.996026881491702
 40
0.9974546541490982
 40
0.9997696683476199
 40
1.0
 40
1.0
 40
1.0
 40
1.0
 10
222.5468151128251
 20
318.4173689336353
 30
0.0
 10
222.3628600831814
 20
318.315217586822
 30
0.0
 10
222.0493903513863
 20
318.1418955884906
 30
0.0
 10
221.5023652551448
 20
317.8535860757616
 30
0.0
 10
220.9462442867817
 20
317.5762365578751
 30
0.0
 10
220.3698317642147
 20
317.3071265517513
 30
0.0
 10
219.7851782436163
 20
317.0547170427011
 30
0.0
 10
219.1943128913336
 20
316.8216857149097
 30
0.0
 10
218.6002917403866
 20
316.6108908884561
 30
0.0
 10
218.0267478247693
 20
316.4305193543163
 30
0.0
 10
217.4620439359242
 20
316.2765064103551
 30
0.0
 10
216.9039634883438
 20
316.1493518605917
 30
0.0
 10
216.3287258552252
 20
316.0436823840429
 30
0.0
 10
215.7510035350882
 20
315.9631657856871
 30
0.0
 10
215.1741488323065
 20
315.9084245287912
 30
0.0
 10
214.6014960606389
 20
315.8798933849485
 30
0.0
 10
214.0359767311769
 20
315.8777777440057
 30
0.0
 10
213.4798947237501
 20
315.9018946357184
 30
0.0
 10
212.9332745659946
 20
315.9528162825259
 30
0.0
 10
212.3886767928122
 20
316.028688855848
 30
0.0
 10
211.8395553024266
 20
316.1292418079302
 30
0.0
 10
211.2816775382906
 20
316.2552306520956
 30
0.0
 10
210.7176287144574
 20
316.405993295762
 30
0.0
 10
210.1495139580636
 20
316.5807219772126
 30
0.0
 10
209.5801927507167
 20
316.7781232817395
 30
0.0
 10
209.013104575507
 20
316.9962263102489
 30
0.0
 10
208.4505697793358
 20
317.2336342036282
 30
0.0
 10
207.8901959084808
 20
317.4884794429078
 30
0.0
 10
207.3346875059542
 20
317.7585761823977
 30
0.0
 10
206.7881019848147
 20
318.0407406183963
 30
0.0
 10
206.2570939061765
 20
318.329672622002
 30
0.0
 10
205.7446899323991
 20
318.6214952466078
 30
0.0
 10
205.2540601817922
 20
318.9120014333173
 30
0.0
 10
204.7892927154962
 20
319.1959524513099
 30
0.0
 10
204.3534025153186
 20
319.4697480814613
 30
0.0
 10
203.9477974865034
 20
319.730939359503
 30
0.0
 10
203.5726692180993
 20
319.9778754391174
 30
0.0
 10
203.2291796771144
 20
320.2083865109286
 30
0.0
 10
202.9181373727562
 20
320.4206018756922
 30
0.0
 10
202.639908778838
 20
320.6130543673697
 30
0.0
 10
202.3949728908893
 20
320.7842491138499
 30
0.0
 10
202.1831579654155
 20
320.9334209578493
 30
0.0
 10
202.0023660497533
 20
321.0617066716978
 30
0.0
 10
201.8511998726472
 20
321.1697362115878
 30
0.0
 10
201.7298787455629
 20
321.2570356842472
 30
0.0
 10
201.6386953136777
 20
321.3230819857422
 30
0.0
 10
201.5783508416696
 20
321.3670779089096
 30
0.0
 10
201.5544919955153
 20
321.3845568473293
 30
0.0
 10
201.5502018734428
 20
321.3877345313694
 30
0.0
 10
201.5476709475297
 20
321.3895616251726
 30
0.0
 10
201.5493174270358
 20
321.3884079116573
 30
0.0
 10
201.5445239295122
 20
321.3918464026608
 30
0.0
 10
201.5418149420036
 20
321.3937505111139
 30
0.0
 10
201.5361916037784
 20
321.3976029153316
 30
0.0
 10
201.5208020252263
 20
321.4074710164032
 30
0.0
 10
201.4936348119543
 20
321.4219854278368
 30
0.0
 10
201.447065323288
 20
321.4386124582359
 30
0.0
 10
201.4050572941515
 20
321.4491581815435
 30
0.0
 10
201.3805917598461
 20
321.4464654998306
 30
0.0
 10
201.3780217372077
 20
321.446179996886
 30
0.0
  0
SPLINE
  5
3DA1
330
3D9B
100
AcDbEntity
  8
$DDT_AUDIT_GENERATED_(60)
  6
Continuous
 62
     7
100
AcDbSpline
210
0.0
220
0.0
230
1.0
 70
     8
 71
     3
 72
     8
 73
     4
 74
     0
 42
0.000000001
 43
0.0000000001
 40
0.0
 40
0.0
 40
0.0
 40
0.0
 40
0.0087956619758144
 40
0.0087956619758144
 40
0.0087956619758144
 40
0.0087956619758144
 10
222.5464839018604
 20
318.4173645138397
 30
0.0
 10
222.4778432978686
 20
318.3792018584286
 30
0.0
 10
222.4133390610448
 20
318.3433912725283
 30
0.0
 10
222.3506687903366
 20
318.3087616956876
 30
0.0
  0
SPLINE
  5
3DA2
330
3D9B
100
AcDbEntity
  8
$DDT_AUDIT_GENERATED_(60)
  6
Continuous
 62
     7
100
AcDbSpline
210
0.0
220
0.0
230
1.0
 70
     8
 71
     3
 72
    13
 73
     9
 74
     0
 42
0.000000001
 43
0.0000000001
 40
0.8821964303931753
 40
0.8821964303931753
 40
0.8821964303931753
 40
0.8821964303931753
 40
0.8984538488539187
 40
0.9190839486561055
 40
0.9395433411113104
 40
0.9597942553440377
 40
0.979803113023535
 40
0.9880951280816397
 40
0.9880951280816397
 40
0.9880951280816397
 40
0.9880951280816397
 10
201.9781104375595
 20
321.0791159973496
 30
0.0
 10
201.9363022196566
 20
321.1089098189883
 30
0.0
 10
201.8480488179022
 20
321.1719854915585
 30
0.0
 10
201.7345740778069
 20
321.2535972123038
 30
0.0
 10
201.6425600919843
 20
321.3202134651578
 30
0.0
 10
201.5798753375099
 20
321.3659166597968
 30
0.0
 10
201.5564337480602
 20
321.3830950914663
 30
0.0
 10
201.5485989469003
 20
321.3889064982608
 30
0.0
 10
201.5494210752861
 20
321.3882916539594
 30
0.0
  0
ARC
  5
3DA3
330
3D9B
100
AcDbEntity
  8
$DDT_AUDIT_GENERATED_(60)
  6
Continuous
 62
     7
100
AcDbCircle
 10
222.693631832
 20
318.1567841063
 30
0.0
 40
0.3000000000000007
100
AcDbArc
 50
89.4056393058
 51
119.3887316997
  0
SPLINE
  5
3DA4
330
3D9B
100
AcDbEntity
  8
$DDT_AUDIT_GENERATED_(60)
  6
Continuous
 62
     7
100
AcDbSpline
210
0.0
220
0.0
230
1.0
 70
     8
 71
     3
 72
     8
 73
     4
 74
     0
 42
0.000000001
 43
0.0000000001
 40
0.0
 40
0.0
 40
0.0
 40
0.0
 40
1.0
 40
1.0
 40
1.0
 40
1.0
 10
227.189418479915
 20
318.410133834655
 30
0.0
 10
225.0928371723309
 20
318.4319149410932
 30
0.0
 10
223.5952788863358
 20
318.4474532953745
 30
0.0
 10
222.6967436219299
 20
318.456748897499
 30
0.0
  0
SPLINE
  5
3DA5
330
3D9B
100
AcDbEntity
  8
$DDT_AUDIT_GENERATED_(60)
  6
Continuous
 62
     7
100
AcDbSpline
210
0.0
220
0.0
230
1.0
 70
     8
 71
     3
 72
    16
 73
    12
 74
     0
 42
0.000000001
 43
0.0000000001
 40
0.0
 40
0.0
 40
0.0
 40
0.0
 40
0.0674776195176967
 40
0.2076300230807879
 40
0.3323962939200241
 40
0.4533818378176353
 40
0.5702613249729056
 40
0.6836542168905766
 40
0.7945641152522172
 40
0.913378822154462
 40
1.0
 40
1.0
 40
1.0
 40
1.0
 10
228.171613824763
 20
317.372327597014
 30
0.0
 10
228.1697572466547
 20
317.4111269793094
 30
0.0
 10
228.1641980396322
 20
317.5128374939864
 30
0.0
 10
228.1174424463287
 20
317.6867074339754
 30
0.0
 10
228.037682862631
 20
317.8713912351058
 30
0.0
 10
227.9334993724876
 20
318.0316413623211
 30
0.0
 10
227.8080328052624
 20
318.1669440743674
 30
0.0
 10
227.6645762647364
 20
318.2755239911664
 30
0.0
 10
227.503984186747
 20
318.3551998083018
 30
0.0
 10
227.3397094216462
 20
318.4029065310679
 30
0.0
 10
227.2391434031259
 20
318.4056126254897
 30
0.0
 10
227.1892857435384
 20
318.406398083519
 30
0.0
  0
SPLINE
  5
3DA6
330
3D9B
100
AcDbEntity
  8
$DDT_AUDIT_GENERATED_(60)
  6
Continuous
 62
     7
100
AcDbSpline
210
0.0
220
0.0
230
1.0
 70
     8
 71
     3
 72
    16
 73
    12
 74
     0
 42
0.000000001
 43
0.0000000001
 40
0.0
 40
0.0
 40
0.0
 40
0.0
 40
0.1042815724612146
 40
0.2148976151579449
 40
0.3281468928093864
 40
0.4414791437183943
 40
0.5585532215876542
 40
0.6785089464509428
 40
0.8036610167117688
 40
0.932833936176413
 40
1.0
 40
1.0
 40
1.0
 40
1.0
 10
227.1894265708734
 20
288.1874397244113
 30
0.0
 10
227.2498256369345
 20
288.1902406082972
 30
0.0
 10
227.3553614716845
 20
288.1965119819318
 30
0.0
 10
227.5252192000154
 20
288.2493215325754
 30
0.0
 10
227.6825430194663
 20
288.3319050257958
 30
0.0
 10
227.8255291535021
 20
288.445240529707
 30
0.0
 10
227.9483879750686
 20
288.5841003302776
 30
0.0
 10
228.0496555280291
 20
288.7475099525726
 30
0.0
 10
228.1236653992632
 20
288.9295894743223
 30
0.0
 10
228.1663630089531
 20
289.09930733632
 30
0.0
 10
228.1710902766869
 20
289.1961328072269
 30
0.0
 10
228.1727291926517
 20
289.2350421674227
 30
0.0
  0
SPLINE
  5
3DA7
330
3D9B
100
AcDbEntity
  8
$DDT_AUDIT_GENERATED_(60)
  6
Continuous
 62
     7
100
AcDbSpline
210
0.0
220
0.0
230
1.0
 70
     8
 71
     3
 72
     8
 73
     4
 74
     0
 42
0.000000001
 43
0.0000000001
 40
0.0
 40
0.0
 40
0.0
 40
0.0
 40
1.0
 40
1.0
 40
1.0
 40
1.0
 10
219.4282619332535
 20
288.1054418083235
 30
0.0
 10
223.0501355941848
 20
288.1429552157719
 30
0.0
 10
225.6371876387675
 20
288.1698101586682
 30
0.0
 10
227.1894180670015
 20
288.1860066370124
 30
0.0
  0
LINE
  5
3DA8
330
3D9B
100
AcDbEntity
  8
$DDT_AUDIT_GENERATED_(60)
  6
Continuous
 62
     7
100
AcDbLine
 10
219.4282603551
 20
288.1055920528
 30
0.0
 11
227.1894177464
 21
288.1860215027
 31
0.0
  0
ARC
  5
3DA9
330
3D9B
100
AcDbEntity
  8
$DDT_AUDIT_GENERATED_(60)
  6
Continuous
 62
     7
100
AcDbCircle
 10
219.4251521621
 20
288.4054079292
 30
0.0
 40
0.3000000000000003
100
AcDbArc
 50
251.0965472917
 51
270.5939655869
  0
SPLINE
  5
3DAA
330
3D9B
100
AcDbEntity
  8
$DDT_AUDIT_GENERATED_(60)
  6
Continuous
 62
     7
100
AcDbSpline
210
0.0
220
0.0
230
1.0
 70
     8
 71
     3
 72
    47
 73
    43
 74
     0
 42
0.000000001
 43
0.0000000001
 40
0.0169243775319553
 40
0.0169243775319553
 40
0.0169243775319553
 40
0.0169243775319553
 40
0.018164595167074
 40
0.0277653071995402
 40
0.0493810543313388
 40
0.0740146231586998
 40
0.0990706941556006
 40
0.1243606070811668
 40
0.1498371499678346
 40
0.175456724499762
 40
0.2011140529551749
 40
0.2272883594573977
 40
0.2538170105454043
 40
0.280669851822252
 40
0.3078741365938795
 40
0.3354369758810529
 40
0.3633480326749944
 40
0.3915071590843436
 40
0.4201402176673481
 40
0.4487369196659288
 40
0.4771701411530644
 40
0.5053316325720132
 40
0.533128987251238
 40
0.5604924664934835
 40
0.5873788745992535
 40
0.6137725901388583
 40
0.6396843630828374
 40
0.6651486850815567
 40
0.6901860179211269
 40
0.7142276790781381
 40
0.7380008347563625
 40
0.7618712620399225
 40
0.7857702366324966
 40
0.8096080596475346
 40
0.833319304567382
 40
0.8568833329316418
 40
0.8806258830506973
 40
0.9051466795693571
 40
0.9302953172086053
 40
0.9560361582880499
 40
0.9822987571398989
 40
1.0
 40
1.0
 40
1.0
 40
1.0
 10
203.4320441488923
 20
285.212432868312
 30
0.0
 10
203.4320576151804
 20
285.2124414509826
 30
0.0
 10
203.4326042435769
 20
285.2127895927624
 30
0.0
 10
203.4375381752355
 20
285.2159012826702
 30
0.0
 10
203.4613755100987
 20
285.2308524847061
 30
0.0
 10
203.5186573062271
 20
285.2664652116183
 30
0.0
 10
203.6089227896937
 20
285.322092797531
 30
0.0
 10
203.7302158324277
 20
285.3961804746813
 30
0.0
 10
203.8822089170293
 20
285.4881865263653
 30
0.0
 10
204.0645438221388
 20
285.5975421431134
 30
0.0
 10
204.277264033707
 20
285.7239248601346
 30
0.0
 10
204.5201194173671
 20
285.8661852717583
 30
0.0
 10
204.7944738481584
 20
286.0240315132891
 30
0.0
 10
205.0996820532236
 20
286.1959109865891
 30
0.0
 10
205.4356139880315
 20
286.3805033423892
 30
0.0
 10
205.8020897183867
 20
286.5763476720355
 30
0.0
 10
206.1985137951314
 20
286.7817808120385
 30
0.0
 10
206.6244273875368
 20
286.9953166060995
 30
0.0
 10
207.0781960660128
 20
287.2133721787965
 30
0.0
 10
207.5574574490257
 20
287.4322623997926
 30
0.0
 10
208.0573106918548
 20
287.6473271889902
 30
0.0
 10
208.5746899308242
 20
287.8550560113654
 30
0.0
 10
209.1065196100821
 20
288.0522243232239
 30
0.0
 10
209.6498170046765
 20
288.2359721825965
 30
0.0
 10
210.2018372411273
 20
288.4038624419239
 30
0.0
 10
210.7601770061951
 20
288.5538845932712
 30
0.0
 10
211.3228227729287
 20
288.6844488450952
 30
0.0
 10
211.8879407308635
 20
288.7941955117985
 30
0.0
 10
212.4491691932957
 20
288.8815743531109
 30
0.0
 10
213.0057093431118
 20
288.9445784503754
 30
0.0
 10
213.5584958832807
 20
288.9853442510119
 30
0.0
 10
214.1130165238532
 20
289.0047125000962
 30
0.0
 10
214.6685462447071
 20
289.0026026486005
 30
0.0
 10
215.2209934029889
 20
288.9788777431371
 30
0.0
 10
215.7666635813438
 20
288.9337421333298
 30
0.0
 10
216.3048605395223
 20
288.86680979312
 30
0.0
 10
216.8406551282786
 20
288.779527423386
 30
0.0
 10
217.3774169972535
 20
288.6722486037835
 30
0.0
 10
217.9173847396046
 20
288.5449541434814
 30
0.0
 10
218.4508153880349
 20
288.4004138322562
 30
0.0
 10
218.9338118175806
 20
288.2544998981496
 30
0.0
 10
219.1997408570799
 20
288.1636937692978
 30
0.0
 10
219.325877070595
 20
288.1203680100028
 30
0.0
  0
SPLINE
  5
3DAB
330
3D9B
100
AcDbEntity
  8
$DDT_AUDIT_GENERATED_(60)
  6
Continuous
 62
     7
100
AcDbSpline
210
0.0
220
0.0
230
1.0
 70
     8
 71
     3
 72
    14
 73
    10
 74
     0
 42
0.000000001
 43
0.0000000001
 40
0.8473977703257682
 40
0.8473977703257682
 40
0.8473977703257682
 40
0.8473977703257682
 40
0.8559563288409922
 40
0.8798831462242794
 40
0.9045496570829359
 40
0.9297549816915976
 40
0.9555268563608752
 40
0.9818671032663039
 40
1.0
 40
1.0
 40
1.0
 40
1.0
 10
216.1111946105143
 20
288.8898373160928
 30
0.0
 10
216.1754624942186
 20
288.8815323767117
 30
0.0
 10
216.4187691394502
 20
288.8483694425947
 30
0.0
 10
216.8422749018619
 20
288.7795494735261
 30
0.0
 10
217.3782991977169
 20
288.6725878507082
 30
0.0
 10
217.9162767302743
 20
288.5457962958697
 30
0.0
 10
218.4472180862204
 20
288.4018666589486
 30
0.0
 10
218.930435752288
 20
288.2557175086774
 30
0.0
 10
219.1975929158526
 20
288.1645087689112
 30
0.0
 10
219.3259441056568
 20
288.1204242863238
 30
0.0
  0
LINE
  5
3DAC
330
3D9B
100
AcDbEntity
  8
$DDT_AUDIT_GENERATED_(7B)
  6
Continuous
 62
     7
100
AcDbLine
 10
159.3708681957
 20
328.2980438544
 30
0.0
 11
159.3708681957
 21
278.2980438544
 31
0.0
  0
ARC
  5
3DAD
330
3D9B
100
AcDbEntity
  8
$DDT_AUDIT_GENERATED_(7B)
  6
Continuous
 62
     7
100
AcDbCircle
 10
-332.2037406903
 20
303.2980438544
 30
0.0
 40
500.0
100
AcDbArc
 50
2.1850434561
 51
2.7513985256
  0
ARC
  5
3DAE
330
3D9B
100
AcDbEntity
  8
$DDT_AUDIT_GENERATED_(7B)
  6
Continuous
 62
     7
100
AcDbCircle
 10
-332.2037406903
 20
303.2980438544
 30
0.0
 40
500.0
100
AcDbArc
 50
357.2485989627
 51
357.8149565439
  0
SPLINE
  5
3DAF
330
3D9B
100
AcDbEntity
  8
$DDT_AUDIT_GENERATED_(7B)
  6
Continuous
 62
     7
100
AcDbSpline
210
0.0
220
0.0
230
1.0
 70
     8
 71
     3
 72
    14
 73
    10
 74
     0
 42
0.000000001
 43
0.0000000001
 40
0.0
 40
0.0
 40
0.0
 40
0.0
 40
0.2432830427872809
 40
0.3597448323261433
 40
0.472019733032886
 40
0.5858671654130236
 40
0.7095704257143698
 40
0.8482643297627759
 40
1.0
 40
1.0
 40
1.0
 40
1.0
 10
167.2198663399576
 20
327.299309257171
 30
0.0
 10
167.2147740083163
 20
327.4509324148642
 30
0.0
 10
167.2027178386898
 20
327.6396140867564
 30
0.0
 10
167.1218933112017
 20
327.9003157090419
 30
0.0
 10
167.0159683619273
 20
328.0659669197609
 30
0.0
 10
166.8578809229896
 20
328.1921843073448
 30
0.0
 10
166.6564939124231
 20
328.2678523434543
 30
0.0
 10
166.4179740628547
 20
328.297439732251
 30
0.0
 10
166.265484352571
 20
328.2989721758817
 30
0.0
 10
166.1708681956895
 20
328.2980438544442
 30
0.0
  0
SPLINE
  5
3DB0
330
3D9B
100
AcDbEntity
  8
$DDT_AUDIT_GENERATED_(7B)
  6
Continuous
 62
     7
100
AcDbSpline
210
0.0
220
0.0
230
1.0
 70
     8
 71
     3
 72
    14
 73
    10
 74
     0
 42
0.000000001
 43
0.0000000001
 40
0.0
 40
0.0
 40
0.0
 40
0.0
 40
0.2433122597952543
 40
0.3598098157829066
 40
0.4721092871872183
 40
0.5859468548548692
 40
0.7096123811118996
 40
0.8482728650970828
 40
1.0
 40
1.0
 40
1.0
 40
1.0
 10
166.1708681956991
 20
278.2980438544442
 30
0.0
 10
166.3225790859505
 20
278.295823923307
 30
0.0
 10
166.5116426891608
 20
278.2987632467157
 30
0.0
 10
166.7760411875306
 20
278.3666928597837
 30
0.0
 10
166.9467626877324
 20
278.4642798949181
 30
0.0
 10
167.0806834118863
 20
278.6158836817728
 30
0.0
 10
167.1661843369473
 20
278.813259337966
 30
0.0
 10
167.2073657728932
 20
279.0500142269748
 30
0.0
 10
167.2162407664798
 20
279.202232908213
 30
0.0
 10
167.2198663654414
 20
279.2967789819928
 30
0.0
  0
LINE
  5
3DB1
330
3D9B
100
AcDbEntity
  8
$DDT_AUDIT_GENERATED_(7B)
  6
Continuous
 62
     7
100
AcDbLine
 10
159.3708681957
 20
278.2980438544
 30
0.0
 11
166.1908681957
 21
278.2980438544
 31
0.0
  0
LINE
  5
3DB2
330
3D9B
100
AcDbEntity
  8
$DDT_AUDIT_GENERATED_(7B)
  6
Continuous
 62
     7
100
AcDbLine
 10
166.1908681957
 20
328.2980438544
 30
0.0
 11
159.3708681957
 21
328.2980438544
 31
0.0
  0
ARC
  5
3DB3
330
3D9B
100
AcDbEntity
  8
$DDT_AUDIT_GENERATED_(7B)
  6
Continuous
 62
     7
100
AcDbCircle
 10
167.1329290158
 20
284.2460023144
 30
0.0
 40
0.3000000000001055
100
AcDbArc
 50
357.8149565444
 51
0.0
  0
ARC
  5
3DB4
330
3D9B
100
AcDbEntity
  8
$DDT_AUDIT_GENERATED_(7B)
  6
Continuous
 62
     7
100
AcDbCircle
 10
167.1329290158
 20
322.3500853945
 30
0.0
 40
0.2999999999999999
100
AcDbArc
 50
0.0
 51
2.185043455599999
  0
LINE
  5
3DB5
330
3D9B
100
AcDbEntity
  8
$DDT_AUDIT_GENERATED_(7B)
  6
Continuous
 62
     7
100
AcDbLine
 10
167.4329290158
 20
284.2460023144
 30
0.0
 11
167.4329290158
 21
322.3500853945
 31
0.0
  0
LINE
  5
3DB6
330
3D9B
100
AcDbEntity
  8
DV2_Standard
  6
CENTER2
 62
     7
100
AcDbLine
 10
179.3708677487
 20
303.2980438544
 30
0.0
 11
139.3708686427
 21
303.2980438544
 31
0.0
  0
LINE
  5
3DB7
330
3D9B
100
AcDbEntity
  8
DV2_Standard
  6
CENTER2
 62
     7
100
AcDbLine
 10
159.3708681957
 20
323.2980434074
 30
0.0
 11
159.3708681957
 21
283.2980443015
 31
0.0
  0
ENDBLK
  5
3DB8
330
3D9B
100
AcDbEntity
  8
0
100
AcDbBlockEnd
  0
BLOCK
  5
3DBB
330
3DBA
100
AcDbEntity
  8
0
100
AcDbBlockBegin
  2
SE2
 70
     0
 10
0.0
 20
0.0
 30
0.0
  3
SE2
  1

  0
LINE
  5
3DBC
330
3DBA
100
AcDbEntity
  8
$DDT_AUDIT_GENERATED_(A9)
  6
Continuous
 62
     7
100
AcDbLine
 10
22.4104492566
 20
109.0458847847
 30
0.0
 11
22.4104492566
 21
109.188656715
 31
0.0
  0
LINE
  5
3DBD
330
3DBA
100
AcDbEntity
  8
$DDT_AUDIT_GENERATED_(A9)
  6
Continuous
 62
     7
100
AcDbLine
 10
22.4104492566
 20
115.7918074483
 30
0.0
 11
22.4104492566
 21
113.4222047305
 31
0.0
  0
LINE
  5
3DBE
330
3DBA
100
AcDbEntity
  8
$DDT_AUDIT_GENERATED_(A9)
  6
Continuous
 62
     7
100
AcDbLine
 10
22.4104492566
 20
113.4222047305
 30
0.0
 11
22.4104492566
 21
109.188656715
 31
0.0
  0
LINE
  5
3DBF
330
3DBA
100
AcDbEntity
  8
$DDT_AUDIT_GENERATED_(A9)
  6
Continuous
 62
     7
100
AcDbLine
 10
40.4104492566
 20
109.0458847847
 30
0.0
 11
40.4104492566
 21
109.188656715
 31
0.0
  0
SPLINE
  5
3DC0
330
3DBA
100
AcDbEntity
  8
$DDT_AUDIT_GENERATED_(A9)
  6
Continuous
 62
     7
100
AcDbSpline
210
0.0
220
0.0
230
1.0
 70
     8
 71
     3
 72
    30
 73
    26
 74
     0
 42
0.000000001
 43
0.0000000001
 40
0.0
 40
0.0
 40
0.0
 40
0.0
 40
0.1249999999999996
 40
0.1249999999999996
 40
0.1874999999999994
 40
0.1874999999999994
 40
0.2499999999999993
 40
0.2499999999999993
 40
0.3749999999999994
 40
0.3749999999999994
 40
0.4374999999999995
 40
0.4374999999999995
 40
0.4999999999999996
 40
0.4999999999999996
 40
0.6249999999999998
 40
0.6249999999999998
 40
0.7499999999999998
 40
0.7499999999999998
 40
0.8124999999999999
 40
0.8124999999999999
 40
0.8749999999999999
 40
0.8749999999999999
 40
0.9375
 40
0.9375
 40
1.0
 40
1.0
 40
1.0
 40
1.0
 10
22.35646653773127
 20
116.0162708570801
 30
0.0
 10
21.57078798199694
 20
117.5034455936294
 30
0.0
 10
21.14496786829961
 20
119.2532542910511
 30
0.0
 10
21.27990202026296
 20
121.9464375806271
 30
0.0
 10
21.44896123197654
 20
122.8122595224192
 30
0.0
 10
21.99063241352745
 20
124.4405383758161
 30
0.0
 10
22.35306922862958
 20
125.1828525308095
 30
0.0
 10
23.69428881591737
 20
127.2569422611844
 30
0.0
 10
24.9131577518489
 20
128.4027609527651
 30
0.0
 10
27.11445523197256
 20
129.6311386713525
 30
0.0
 10
27.92456313660957
 20
129.9622455076225
 30
0.0
 10
29.61279732393832
 20
130.4083771433846
 30
0.0
 10
30.48590200523368
 20
130.5262679729755
 30
0.0
 10
33.18797617447096
 20
130.5324983157242
 30
0.0
 10
34.93066009519872
 20
130.0585566591957
 30
0.0
 10
37.89950832796692
 20
128.4127506346467
 30
0.0
 10
39.11754245263089
 20
127.2637382750521
 30
0.0
 10
40.45291809955646
 20
125.2094458890249
 30
0.0
 10
40.82344533050738
 20
124.455715776734
 30
0.0
 10
41.36671361662396
 20
122.8331709050655
 30
0.0
 10
41.53845285691421
 20
121.9578349635822
 30
0.0
 10
41.63133550578921
 20
120.18178658574
 30
0.0
 10
41.55169880559745
 20
119.2788432648
 30
0.0
 10
41.16337432221096
 20
117.5696230223889
 30
0.0
 10
40.85837713261213
 20
116.7619514932358
 30
0.0
 10
40.46443197549279
 20
116.0162708570801
 30
0.0
  0
LINE
  5
3DC1
330
3DBA
100
AcDbEntity
  8
$DDT_AUDIT_GENERATED_(A9)
  6
Continuous
 62
     7
100
AcDbLine
 10
40.4104492566
 20
113.4222047305
 30
0.0
 11
40.4104492566
 21
115.7918074483
 31
0.0
  0
LINE
  5
3DC2
330
3DBA
100
AcDbEntity
  8
$DDT_AUDIT_GENERATED_(A9)
  6
Continuous
 62
     7
100
AcDbLine
 10
40.4104492566
 20
109.188656715
 30
0.0
 11
40.4104492566
 21
113.4222047305
 31
0.0
  0
ELLIPSE
  5
3DC3
330
3DBA
100
AcDbEntity
  8
$DDT_AUDIT_GENERATED_(A9)
  6
Continuous
 62
     7
100
AcDbEllipse
 10
40.9104492566
 20
115.7918074483
 30
0.0
 11
0.4423131720809031
 21
-0.2331502901643662
 31
0.0
210
0.0
220
0.0
230
1.0
 40
0.3384456906
 41
3.14159265358967
 42
3.197239581909939
  0
ELLIPSE
  5
3DC4
330
3DBA
100
AcDbEntity
  8
$DDT_AUDIT_GENERATED_(A9)
  6
Continuous
 62
     7
100
AcDbEllipse
 10
21.9104492566
 20
115.7918074483
 30
0.0
 11
-0.4423131720809048
 21
-0.2331502901643662
 31
0.0
210
0.0
220
0.0
230
1.0
 40
0.3384456906
 41
3.085945725269845
 42
3.141592653589838
  0
ARC
  5
3DC5
330
3DBA
100
AcDbEntity
  8
$DDT_AUDIT_GENERATED_(A9)
  6
Continuous
 62
     7
100
AcDbCircle
 10
40.9104492566
 20
109.0458847847
 30
0.0
 40
0.5000000000000004
100
AcDbArc
 50
180.0
 51
239.3168470131
  0
ARC
  5
3DC6
330
3DBA
100
AcDbEntity
  8
$DDT_AUDIT_GENERATED_(A9)
  6
Continuous
 62
     7
100
AcDbCircle
 10
21.9104492566
 20
109.0458847847
 30
0.0
 40
0.4999999999999713
100
AcDbArc
 50
300.564258974
 51
0.0
  0
ARC
  5
3DC7
330
3DBA
100
AcDbEntity
  8
$DDT_AUDIT_GENERATED_(A9)
  6
Continuous
 62
     7
100
AcDbCircle
 10
40.9104492566
 20
115.7918074483
 30
0.0
 40
0.5000000000000001
100
AcDbArc
 50
152.205574107
 51
180.0
  0
ARC
  5
3DC8
330
3DBA
100
AcDbEntity
  8
$DDT_AUDIT_GENERATED_(A9)
  6
Continuous
 62
     7
100
AcDbCircle
 10
21.9104492566
 20
115.7918074483
 30
0.0
 40
0.5000000000000022
100
AcDbArc
 50
0.0
 51
27.794425893
  0
LINE
  5
3DC9
330
3DBA
100
AcDbEntity
  8
$DDT_AUDIT_GENERATED_(60)
  6
Continuous
 62
     7
100
AcDbLine
 10
40.6604492566
 20
107.5397010357
 30
0.0
 11
40.6604492566
 21
112.0323728725
 31
0.0
  0
LINE
  5
3DCA
330
3DBA
100
AcDbEntity
  8
$DDT_AUDIT_GENERATED_(60)
  6
Continuous
 62
     7
100
AcDbLine
 10
40.6604492566
 20
106.8462123212
 30
0.0
 11
40.6604492566
 21
107.5397010357
 31
0.0
  0
LINE
  5
3DCB
330
3DBA
100
AcDbEntity
  8
$DDT_AUDIT_GENERATED_(60)
  6
Continuous
 62
     7
100
AcDbLine
 10
40.6604492566
 20
106.8462123212
 30
0.0
 11
40.6604492566
 21
106.65
 31
0.0
  0
LINE
  5
3DCC
330
3DBA
100
AcDbEntity
  8
$DDT_AUDIT_GENERATED_(60)
  6
Continuous
 62
     7
100
AcDbLine
 10
22.1604492566
 20
112.0323728725
 30
0.0
 11
22.1604492566
 21
107.5397010357
 31
0.0
  0
LINE
  5
3DCD
330
3DBA
100
AcDbEntity
  8
$DDT_AUDIT_GENERATED_(60)
  6
Continuous
 62
     7
100
AcDbLine
 10
22.1604492566
 20
107.5397010357
 30
0.0
 11
22.1604492566
 21
106.8462123212
 31
0.0
  0
LINE
  5
3DCE
330
3DBA
100
AcDbEntity
  8
$DDT_AUDIT_GENERATED_(60)
  6
Continuous
 62
     7
100
AcDbLine
 10
22.1604492566
 20
106.8462123212
 30
0.0
 11
22.1604492566
 21
106.65
 31
0.0
  0
ARC
  5
3DCF
330
3DBA
100
AcDbEntity
  8
$DDT_AUDIT_GENERATED_(60)
  6
Continuous
 62
     7
100
AcDbCircle
 10
40.9604492566
 20
112.0323728725
 30
0.0
 40
0.2999999999999999
100
AcDbArc
 50
138.2531299769
 51
180.0
  0
ARC
  5
3DD0
330
3DBA
100
AcDbEntity
  8
$DDT_AUDIT_GENERATED_(60)
  6
Continuous
 62
     7
100
AcDbCircle
 10
21.8604492566
 20
112.0323728725
 30
0.0
 40
0.3000000000000038
100
AcDbArc
 50
0.0
 51
41.7468700231
  0
ARC
  5
3DD1
330
3DBA
100
AcDbEntity
  8
$DDT_AUDIT_GENERATED_(60)
  6
Continuous
 62
     7
100
AcDbCircle
 10
31.4104492566
 20
120.5551365088
 30
0.0
 40
12.5
100
AcDbArc
 50
318.2531299769
 51
221.7468700231
  0
ARC
  5
3DD2
330
3DBA
100
AcDbEntity
  8
$DDT_AUDIT_GENERATED_(60)
  6
Continuous
 62
     7
100
AcDbCircle
 10
14.4865420038
 20
107.5458096105
 30
0.0
 40
0.9999999999999981
100
AcDbArc
 50
180.5
 51
268.0564039047
  0
ARC
  5
3DD3
330
3DBA
100
AcDbEntity
  8
$DDT_AUDIT_GENERATED_(60)
  6
Continuous
 62
     7
100
AcDbCircle
 10
48.3343565094
 20
107.5458096105
 30
0.0
 40
1.000000000000158
100
AcDbArc
 50
271.9435960953
 51
359.5000000000001
  0
ARC
  5
3DD4
330
3DBA
100
AcDbEntity
  8
$DDT_AUDIT_GENERATED_(60)
  6
Continuous
 62
     7
100
AcDbCircle
 10
31.4104492566
 20
606.2587344112
 30
0.0
 40
499.9999999999999
100
AcDbArc
 50
268.0564039045
 51
268.9049269383
  0
ARC
  5
3DD5
330
3DBA
100
AcDbEntity
  8
$DDT_AUDIT_GENERATED_(60)
  6
Continuous
 62
     7
100
AcDbCircle
 10
31.4104492566
 20
606.2587344112
 30
0.0
 40
500.0
100
AcDbArc
 50
271.0950730617
 51
271.9435960955001
  0
LINE
  5
3DD6
330
3DBA
100
AcDbEntity
  8
$DDT_AUDIT_GENERATED_(60)
  6
Continuous
 62
     7
100
AcDbLine
 10
12.9650974335
 20
167.2930756887
 30
0.0
 11
13.4865800807
 21
107.537083075
 31
0.0
  0
LINE
  5
3DD7
330
3DBA
100
AcDbEntity
  8
$DDT_AUDIT_GENERATED_(60)
  6
Continuous
 62
     7
100
AcDbLine
 10
49.3343184325
 20
107.537083075
 30
0.0
 11
49.8558010797
 21
167.2930756887
 31
0.0
  0
ARC
  5
3DD8
330
3DBA
100
AcDbEntity
  8
$DDT_AUDIT_GENERATED_(60)
  6
Continuous
 62
     7
100
AcDbCircle
 10
40.9604492566
 20
106.65
 30
0.0
 40
0.2999999999999999
100
AcDbArc
 50
180.0
 51
271.0950730617
  0
ARC
  5
3DD9
330
3DBA
100
AcDbEntity
  8
$DDT_AUDIT_GENERATED_(60)
  6
Continuous
 62
     7
100
AcDbCircle
 10
21.8604492566
 20
106.65
 30
0.0
 40
0.3000000000000147
100
AcDbArc
 50
268.9049269383
 51
0.0
  0
LINE
  5
3DDA
330
3DBA
100
AcDbEntity
  8
$DDT_AUDIT_GENERATED_(7B)
  6
Continuous
 62
     7
100
AcDbLine
 10
6.4104492566
 20
175.3551365088
 30
0.0
 11
56.4104492566
 21
175.3551365088
 31
0.0
  0
ARC
  5
3DDB
330
3DBA
100
AcDbEntity
  8
$DDT_AUDIT_GENERATED_(7B)
  6
Continuous
 62
     7
100
AcDbCircle
 10
31.4104492566
 20
666.9297453948
 30
0.0
 40
500.0
100
AcDbArc
 50
272.1850434561
 51
272.7513978096
  0
ARC
  5
3DDC
330
3DBA
100
AcDbEntity
  8
$DDT_AUDIT_GENERATED_(7B)
  6
Continuous
 62
     7
100
AcDbCircle
 10
31.4104492566
 20
666.9297453948
 30
0.0
 40
500.0
100
AcDbArc
 50
267.248603027
 51
267.8149565439
  0
SPLINE
  5
3DDD
330
3DBA
100
AcDbEntity
  8
$DDT_AUDIT_GENERATED_(7B)
  6
Continuous
 62
     7
100
AcDbSpline
210
0.0
220
0.0
230
1.0
 70
     8
 71
     3
 72
    14
 73
    10
 74
     0
 42
0.000000001
 43
0.0000000001
 40
0.0
 40
0.0
 40
0.0
 40
0.0
 40
0.2432830755570687
 40
0.3597448767956425
 40
0.4720197801676991
 40
0.5858672000146847
 40
0.7095704385858473
 40
0.8482643275545448
 40
1.0
 40
1.0
 40
1.0
 40
1.0
 10
55.41171412149115
 20
167.5061383386722
 30
0.0
 10
55.56333732590483
 20
167.5112306711639
 30
0.0
 10
55.75201905454468
 20
167.5232868412417
 30
0.0
 10
56.01272079765033
 20
167.6041113384327
 30
0.0
 10
56.1783721062093
 20
167.7100362530509
 30
0.0
 10
56.3045895991135
 20
167.8681236731678
 30
0.0
 10
56.38025771266931
 20
168.0695106998462
 30
0.0
 10
56.40984513408397
 20
168.3080305928964
 30
0.0
 10
56.41137757962903
 20
168.4605203300978
 30
0.0
 10
56.41044925702295
 20
168.5551365088018
 30
0.0
  0
SPLINE
  5
3DDE
330
3DBA
100
AcDbEntity
  8
$DDT_AUDIT_GENERATED_(7B)
  6
Continuous
 62
     7
100
AcDbSpline
210
0.0
220
0.0
230
1.0
 70
     8
 71
     3
 72
    14
 73
    10
 74
     0
 42
0.000000001
 43
0.0000000001
 40
0.0
 40
0.0
 40
0.0
 40
0.0
 40
0.243312232909469
 40
0.3598098028291373
 40
0.4721092960935402
 40
0.5859468870495556
 40
0.7096124271005451
 40
0.8482729032158284
 40
1.0
 40
1.0
 40
1.0
 40
1.0
 10
6.410449256080655
 20
168.5551365088038
 30
0.0
 10
6.408229327715024
 20
168.4034255957937
 30
0.0
 10
6.411168652146311
 20
168.2143619604759
 30
0.0
 10
6.479098280174275
 20
167.9499634820735
 30
0.0
 10
6.576685338502308
 20
167.779241989693
 30
0.0
 10
6.728289143670373
 20
167.6453212812574
 30
0.0
 10
6.925664803496622
 20
167.5598203652421
 30
0.0
 10
7.162419676954371
 20
167.5186389301014
 30
0.0
 10
7.314638352968583
 20
167.5097639371334
 30
0.0
 10
7.409184415390118
 20
167.5061383375293
 30
0.0
  0
LINE
  5
3DDF
330
3DBA
100
AcDbEntity
  8
$DDT_AUDIT_GENERATED_(7B)
  6
Continuous
 62
     7
100
AcDbLine
 10
6.4104492566
 20
175.3551365088
 30
0.0
 11
6.4104492566
 21
168.5351365088
 31
0.0
  0
LINE
  5
3DE0
330
3DBA
100
AcDbEntity
  8
$DDT_AUDIT_GENERATED_(7B)
  6
Continuous
 62
     7
100
AcDbLine
 10
56.4104492566
 20
168.5351365088
 30
0.0
 11
56.4104492566
 21
175.3551365088
 31
0.0
  0
ARC
  5
3DE1
330
3DBA
100
AcDbEntity
  8
$DDT_AUDIT_GENERATED_(7B)
  6
Continuous
 62
     7
100
AcDbCircle
 10
12.3584077166
 20
167.5930756887
 30
0.0
 40
0.3000000000001055
100
AcDbArc
 50
267.8149565444
 51
270.0
  0
ARC
  5
3DE2
330
3DBA
100
AcDbEntity
  8
$DDT_AUDIT_GENERATED_(7B)
  6
Continuous
 62
     7
100
AcDbCircle
 10
50.4624907967
 20
167.5930756887
 30
0.0
 40
0.2999999999999999
100
AcDbArc
 50
270.0
 51
272.1850434556
  0
LINE
  5
3DE3
330
3DBA
100
AcDbEntity
  8
$DDT_AUDIT_GENERATED_(7B)
  6
Continuous
 62
     7
100
AcDbLine
 10
12.3584077166
 20
167.2930756887
 30
0.0
 11
50.4624907967
 21
167.2930756887
 31
0.0
  0
LINE
  5
3DE4
330
3DBA
100
AcDbEntity
  8
DV3_Standard
  6
CENTER2
 62
     7
100
AcDbLine
 10
51.4104488096
 20
175.3551365088
 30
0.0
 11
11.4104497036
 21
175.3551365088
 31
0.0
  0
LINE
  5
3DE5
330
3DBA
100
AcDbEntity
  8
DV3_Standard
  6
CENTER2
 62
     7
100
AcDbLine
 10
31.4104492566
 20
195.3551360618
 30
0.0
 11
31.4104492566
 21
155.3551369558
 31
0.0
  0
ENDBLK
  5
3DE6
330
3DBA
100
AcDbEntity
  8
0
100
AcDbBlockEnd
  0
BLOCK
  5
3E42
330
3E41
100
AcDbEntity
  8
0
100
AcDbBlockBegin
  2
*D16
 70
     1
 10
0.0
 20
0.0
 30
0.0
  3
*D16
  1

  0
LINE
  5
3E44
330
3E41
100
AcDbEntity
  8
DIM
 62
     0
370
    -2
100
AcDbLine
 10
122.2695950110771
 20
451.6961109735182
 30
0.0
 11
122.2695950110771
 21
459.7496602253619
 31
0.0
  0
LINE
  5
3E45
330
3E41
100
AcDbEntity
  8
DIM
 62
     0
370
    -2
100
AcDbLine
 10
140.2695950110771
 20
451.6961109735182
 30
0.0
 11
140.2695950110771
 21
459.7496602253619
 31
0.0
  0
LINE
  5
3E46
330
3E41
100
AcDbEntity
  8
DIM
 62
     0
370
    -2
100
AcDbLine
 10
124.2695950110771
 20
459.7496602253619
 30
0.0
 11
138.2695950110771
 21
459.7496602253619
 31
0.0
  0
INSERT
  5
3E47
330
3E41
100
AcDbEntity
  8
DIM
 62
     0
370
    -2
100
AcDbBlockReference
  2
_DOT
 10
122.2695950110771
 20
459.7496602253619
 30
0.0
 41
2.0
 42
2.0
 43
2.0
 50
180.0
  0
INSERT
  5
3E48
330
3E41
100
AcDbEntity
  8
DIM
 62
     0
370
    -2
100
AcDbBlockReference
  2
_DOT
 10
140.2695950110771
 20
459.7496602253619
 30
0.0
 41
2.0
 42
2.0
 43
2.0
  0
MTEXT
  5
3E49
330
3E41
100
AcDbEntity
  8
DIM
 62
     0
100
AcDbMText
 10
131.269595011077
 20
465.2496602253619
 30
0.0
 40
5.0
 41
0.0
 46
0.0
 71
     5
 72
     1
  1
\A1;18
  7
ＭＳ ゴシック
 73
     1
 44
1.0
  0
POINT
  5
3E4A
330
3E41
100
AcDbEntity
  8
Defpoints
 62
     0
100
AcDbPoint
 10
122.2695950110771
 20
446.6961109735182
 30
0.0
  0
POINT
  5
3E4B
330
3E41
100
AcDbEntity
  8
Defpoints
 62
     0
100
AcDbPoint
 10
140.2695950110771
 20
446.6961109735182
 30
0.0
  0
POINT
  5
3E4C
330
3E41
100
AcDbEntity
  8
Defpoints
 62
     0
100
AcDbPoint
 10
140.2695950110771
 20
459.7496602253619
 30
0.0
  0
ENDBLK
  5
3E43
330
3E41
100
AcDbEntity
  8
0
100
AcDbBlockEnd
  0
BLOCK
  5
3EBB
330
3EBA
100
AcDbEntity
  8
0
100
AcDbBlockBegin
  2
*D17
 70
     1
 10
0.0
 20
0.0
 30
0.0
  3
*D17
  1

  0
LINE
  5
3EBD
330
3EBA
100
AcDbEntity
  8
DIM
 62
     0
370
    -2
100
AcDbLine
 10
106.2695950110771
 20
445.0366745027212
 30
0.0
 11
106.2695950110771
 21
475.9084826599225
 31
0.0
  0
LINE
  5
3EBE
330
3EBA
100
AcDbEntity
  8
DIM
 62
     0
370
    -2
100
AcDbLine
 10
156.2695950110771
 20
445.0366745027212
 30
0.0
 11
156.2695950110771
 21
475.9084826599225
 31
0.0
  0
LINE
  5
3EBF
330
3EBA
100
AcDbEntity
  8
DIM
 62
     0
370
    -2
100
AcDbLine
 10
108.2695950110771
 20
475.9084826599225
 30
0.0
 11
154.2695950110771
 21
475.9084826599225
 31
0.0
  0
INSERT
  5
3EC0
330
3EBA
100
AcDbEntity
  8
DIM
 62
     0
370
    -2
100
AcDbBlockReference
  2
_DOT
 10
106.2695950110771
 20
475.9084826599225
 30
0.0
 41
2.0
 42
2.0
 43
2.0
 50
180.0
  0
INSERT
  5
3EC1
330
3EBA
100
AcDbEntity
  8
DIM
 62
     0
370
    -2
100
AcDbBlockReference
  2
_DOT
 10
156.2695950110771
 20
475.9084826599225
 30
0.0
 41
2.0
 42
2.0
 43
2.0
  0
MTEXT
  5
3EC2
330
3EBA
100
AcDbEntity
  8
DIM
 62
     0
100
AcDbMText
 10
131.2695950110771
 20
481.4084826599225
 30
0.0
 40
5.0
 41
0.0
 46
0.0
 71
     5
 72
     1
  1
\A1;%%c50
  7
ＭＳ ゴシック
 73
     1
 44
1.0
  0
POINT
  5
3EC3
330
3EBA
100
AcDbEntity
  8
Defpoints
 62
     0
100
AcDbPoint
 10
106.2695950110771
 20
440.0366745027212
 30
0.0
  0
POINT
  5
3EC4
330
3EBA
100
AcDbEntity
  8
Defpoints
 62
     0
100
AcDbPoint
 10
156.2695950110771
 20
440.0366745027212
 30
0.0
  0
POINT
  5
3EC5
330
3EBA
100
AcDbEntity
  8
Defpoints
 62
     0
100
AcDbPoint
 10
156.2695950110771
 20
475.9084826599225
 30
0.0
  0
ENDBLK
  5
3EBC
330
3EBA
100
AcDbEntity
  8
0
100
AcDbBlockEnd
  0
BLOCK
  5
3ECB
330
3ECA
100
AcDbEntity
  8
0
100
AcDbBlockBegin
  2
*D18
 70
     1
 10
0.0
 20
0.0
 30
0.0
  3
*D18
  1

  0
LINE
  5
3ECD
330
3ECA
100
AcDbEntity
  8
DIM
 62
     0
370
    -2
100
AcDbLine
 10
259.2300139501771
 20
241.8534298726372
 30
0.0
 11
259.2300139501771
 21
220.9512321310471
 31
0.0
  0
LINE
  5
3ECE
330
3ECA
100
AcDbEntity
  8
DIM
 62
     0
370
    -2
100
AcDbLine
 10
314.2300139501771
 20
241.8534298726373
 30
0.0
 11
314.2300139501771
 21
220.9512321310471
 31
0.0
  0
LINE
  5
3ECF
330
3ECA
100
AcDbEntity
  8
DIM
 62
     0
370
    -2
100
AcDbLine
 10
261.2300139501771
 20
220.9512321310471
 30
0.0
 11
312.2300139501771
 21
220.9512321310471
 31
0.0
  0
INSERT
  5
3ED0
330
3ECA
100
AcDbEntity
  8
DIM
 62
     0
370
    -2
100
AcDbBlockReference
  2
_DOT
 10
259.2300139501771
 20
220.9512321310471
 30
0.0
 41
2.0
 42
2.0
 43
2.0
 50
180.0
  0
INSERT
  5
3ED1
330
3ECA
100
AcDbEntity
  8
DIM
 62
     0
370
    -2
100
AcDbBlockReference
  2
_DOT
 10
314.2300139501771
 20
220.9512321310471
 30
0.0
 41
2.0
 42
2.0
 43
2.0
  0
MTEXT
  5
3ED2
330
3ECA
100
AcDbEntity
  8
DIM
 62
     0
100
AcDbMText
 10
286.7300139501771
 20
226.4512321310471
 30
0.0
 40
5.0
 41
0.0
 46
0.0
 71
     5
 72
     1
  1
\A1;55
  7
ＭＳ ゴシック
 73
     1
 44
1.0
  0
POINT
  5
3ED3
330
3ECA
100
AcDbEntity
  8
Defpoints
 62
     0
100
AcDbPoint
 10
259.2300139501771
 20
246.8534298726372
 30
0.0
  0
POINT
  5
3ED4
330
3ECA
100
AcDbEntity
  8
Defpoints
 62
     0
100
AcDbPoint
 10
314.2300139501771
 20
246.8534298726373
 30
0.0
  0
POINT
  5
3ED5
330
3ECA
100
AcDbEntity
  8
Defpoints
 62
     0
100
AcDbPoint
 10
314.2300139501771
 20
220.9512321310471
 30
0.0
  0
ENDBLK
  5
3ECC
330
3ECA
100
AcDbEntity
  8
0
100
AcDbBlockEnd
  0
BLOCK
  5
3F16
330
3F15
100
AcDbEntity
  8
0
100
AcDbBlockBegin
  2
*D19
 70
     1
 10
0.0
 20
0.0
 30
0.0
  3
*D19
  1

  0
LINE
  5
3F18
330
3F15
100
AcDbEntity
  8
DIM
 62
     0
370
    -2
100
AcDbLine
 10
159.6922695548814
 20
371.1173884760379
 30
0.0
 11
190.532319314434
 21
371.1173884760379
 31
0.0
  0
LINE
  5
3F19
330
3F15
100
AcDbEntity
  8
DIM
 62
     0
370
    -2
100
AcDbLine
 10
161.2695950110771
 20
440.0366745027212
 30
0.0
 11
190.532319314434
 21
440.0366745027212
 31
0.0
  0
LINE
  5
3F1A
330
3F15
100
AcDbEntity
  8
DIM
 62
     0
370
    -2
100
AcDbLine
 10
190.532319314434
 20
373.1173884760379
 30
0.0
 11
190.532319314434
 21
438.0366745027212
 31
0.0
  0
INSERT
  5
3F1B
330
3F15
100
AcDbEntity
  8
DIM
 62
     0
370
    -2
100
AcDbBlockReference
  2
_DOT
 10
190.532319314434
 20
371.1173884760379
 30
0.0
 41
2.0
 42
2.0
 43
2.0
 50
270.0
  0
INSERT
  5
3F1C
330
3F15
100
AcDbEntity
  8
DIM
 62
     0
370
    -2
100
AcDbBlockReference
  2
_DOT
 10
190.532319314434
 20
440.0366745027212
 30
0.0
 41
2.0
 42
2.0
 43
2.0
 50
90.0
  0
MTEXT
  5
3F1D
330
3F15
100
AcDbEntity
  8
DIM
 62
     0
100
AcDbMText
 10
185.032319314434
 20
405.5770314893796
 30
0.0
 40
5.0
 41
0.0
 46
0.0
 71
     5
 72
     1
  1
\A1;69
  7
ＭＳ ゴシック
 11
0.0
 21
1.0
 31
0.0
 73
     1
 44
1.0
  0
POINT
  5
3F1E
330
3F15
100
AcDbEntity
  8
Defpoints
 62
     0
100
AcDbPoint
 10
154.6922695548814
 20
371.1173884760379
 30
0.0
  0
POINT
  5
3F1F
330
3F15
100
AcDbEntity
  8
Defpoints
 62
     0
100
AcDbPoint
 10
156.2695950110771
 20
440.0366745027212
 30
0.0
  0
POINT
  5
3F20
330
3F15
100
AcDbEntity
  8
Defpoints
 62
     0
100
AcDbPoint
 10
190.532319314434
 20
440.0366745027212
 30
0.0
  0
ENDBLK
  5
3F17
330
3F15
100
AcDbEntity
  8
0
100
AcDbBlockEnd
  0
BLOCK
  5
3F7B
330
3F7A
100
AcDbEntity
  8
0
100
AcDbBlockBegin
  2
SEANNOT_GROUP
 70
     0
 10
0.0
 20
0.0
 30
0.0
  3
SEANNOT_GROUP
  1

  0
LINE
  5
3F7C
330
3F7A
100
AcDbEntity
  8
Default
  6
CENTER2
 62
     7
100
AcDbLine
 10
53.7145765868
 20
123.3500007738
 30
0.0
 11
13.7145774809
 21
123.3500007738
 31
0.0
  0
LINE
  5
3F7D
330
3F7A
100
AcDbEntity
  8
Default
  6
CENTER2
 62
     7
100
AcDbLine
 10
33.7145770339
 20
143.3500003268
 30
0.0
 11
33.7145770339
 21
103.3500012209
 31
0.0
  0
LINE
  5
3F7E
330
3F7A
100
AcDbEntity
  8
Default
  6
CENTER2
 62
     7
100
AcDbLine
 10
58.7145764751
 20
123.3500007738
 30
0.0
 11
52.7645770339
 21
123.3500007738
 31
0.0
  0
LINE
  5
3F7F
330
3F7A
100
AcDbEntity
  8
Default
  6
CENTER2
 62
     7
100
AcDbLine
 10
33.7145770339
 20
148.350000215
 30
0.0
 11
33.7145770339
 21
142.4000007738
 31
0.0
  0
LINE
  5
3F80
330
3F7A
100
AcDbEntity
  8
Default
  6
CENTER2
 62
     7
100
AcDbLine
 10
8.7145775927
 20
123.3500007738
 30
0.0
 11
14.6645770339
 21
123.3500007738
 31
0.0
  0
LINE
  5
3F81
330
3F7A
100
AcDbEntity
  8
Default
  6
CENTER2
 62
     7
100
AcDbLine
 10
33.7145770339
 20
98.3500013326
 30
0.0
 11
33.7145770339
 21
104.3000007738
 31
0.0
  0
ENDBLK
  5
3F82
330
3F7A
100
AcDbEntity
  8
0
100
AcDbBlockEnd
  0
BLOCK
  5
3F85
330
3F84
100
AcDbEntity
  8
0
100
AcDbBlockBegin
  2
SEANNOT_GROUP1
 70
     0
 10
0.0
 20
0.0
 30
0.0
  3
SEANNOT_GROUP1
  1

  0
LINE
  5
3F86
330
3F84
100
AcDbEntity
  8
Default
  6
CENTER2
 62
     7
100
AcDbLine
 10
53.7145765868
 20
203.6696278544
 30
0.0
 11
13.7145774809
 21
203.6696278544
 31
0.0
  0
LINE
  5
3F87
330
3F84
100
AcDbEntity
  8
Default
  6
CENTER2
 62
     7
100
AcDbLine
 10
33.7145770339
 20
223.6696274074
 30
0.0
 11
33.7145770339
 21
183.6696283014
 31
0.0
  0
ENDBLK
  5
3F88
330
3F84
100
AcDbEntity
  8
0
100
AcDbBlockEnd
  0
BLOCK
  5
3F8B
330
3F8A
100
AcDbEntity
  8
0
100
AcDbBlockBegin
  2
SEANNOT_GROUP2
 70
     0
 10
0.0
 20
0.0
 30
0.0
  3
SEANNOT_GROUP2
  1

  0
LINE
  5
3F8C
330
3F8A
100
AcDbEntity
  8
Default
  6
CENTER2
 62
     7
100
AcDbLine
 10
148.3224445842
 20
203.6696278544
 30
0.0
 11
108.3224454783
 21
203.6696278544
 31
0.0
  0
LINE
  5
3F8D
330
3F8A
100
AcDbEntity
  8
Default
  6
CENTER2
 62
     7
100
AcDbLine
 10
128.3224450312
 20
223.6696274074
 30
0.0
 11
128.3224450312
 21
183.6696283014
 31
0.0
  0
ENDBLK
  5
3F8E
330
3F8A
100
AcDbEntity
  8
0
100
AcDbBlockEnd
  0
ENDSEC
  0
SECTION
  2
ENTITIES
  0
MTEXT
  5
177
330
A
100
AcDbEntity
  8
TEMPLATE
390
1D
100
AcDbMText
 10
15.84042890954615
 20
68.74635032628565
 30
0.0
 40
3.257682291666665
 41
0.0
 46
0.0
 71
     1
 72
     1
  1
品名
  7
ＭＳ ゴシック
 73
     1
 44
0.7828267384257843
  0
MTEXT
  5
178
330
A
100
AcDbEntity
  8
TEMPLATE
390
1D
100
AcDbMText
 10
15.84042890954615
 20
51.7463503262856
 30
0.0
 40
3.257682291666665
 41
0.0
 46
0.0
 71
     1
 72
     1
  1
仕様
  7
ＭＳ ゴシック
 73
     1
 44
0.7828267384257843
  0
LINE
  5
179
330
A
100
AcDbEntity
  8
TEMPLATE
390
1D
100
AcDbLine
 10
404.4404289094496
 20
53.42933470128568
 30
0.0
 11
14.44042890944975
 21
53.42933470128568
 31
0.0
  0
LWPOLYLINE
  5
17A
330
A
100
AcDbEntity
  8
TEMPLATE
390
1D
100
AcDbPolyline
 90
        5
 70
   128
 43
0.0
 10
404.4404289094496
 20
579.4293347012853
 10
14.44042890944975
 20
579.4293347012853
 10
14.44042890944975
 20
19.42933470128565
 10
404.4404289094496
 20
19.42933470128565
 10
404.4404289094496
 20
579.4293347012853
  0
LINE
  5
17B
330
A
100
AcDbEntity
  8
TEMPLATE
390
1D
100
AcDbLine
 10
404.4404289094496
 20
70.42933470128564
 30
0.0
 11
14.44042890944975
 21
70.42933470128564
 31
0.0
  0
LINE
  5
17C
330
A
100
AcDbEntity
  8
TEMPLATE
390
1D
100
AcDbLine
 10
404.4404289095464
 20
36.42933470128565
 30
0.0
 11
253.840428909546
 21
36.42933470128565
 31
0.0
  0
MTEXT
  5
17E
330
A
100
AcDbEntity
  8
TEMPLATE
390
1D
100
AcDbMText
 10
259.8147101599982
 20
30.44725580662403
 30
0.0
 40
4.8865234375
 41
0.0
 46
0.0
 71
     1
 72
     1
  1
大洋金物株式会社 ティーフォルム事業部
  7
ＭＳ ゴシック
 73
     1
 44
0.7828267384257843
  0
MTEXT
  5
180
330
A
100
AcDbEntity
  8
TEMPLATE
390
1D
100
AcDbMText
 10
366.240428909598
 20
46.02985813878564
 30
0.0
 40
4.8865234375
 41
0.0
 46
4.8865234375
 71
     1
 72
     1
  1
{1:2}
  7
ＭＳ ゴシック
 73
     1
 44
0.7828267384257843
1001
ACAD
1000
ACAD_MTEXT_DEFINED_HEIGHT_BEGIN
1070
    46
1040
4.8865234375
1000
ACAD_MTEXT_DEFINED_HEIGHT_END
  0
MTEXT
  5
181
330
A
100
AcDbEntity
  8
TEMPLATE
390
1D
100
AcDbMText
 10
355.640428909598
 20
51.7463503262856
 30
0.0
 40
3.257682291666665
 41
0.0
 46
0.0
 71
     1
 72
     1
  1
縮尺
  7
ＭＳ ゴシック
 73
     1
 44
0.7828267384257843
  0
LINE
  5
182
330
A
100
AcDbEntity
  8
TEMPLATE
390
1D
100
AcDbLine
 10
354.240428909598
 20
36.42933470128565
 30
0.0
 11
354.240428909598
 21
53.42933470128568
 31
0.0
  0
MTEXT
  5
183
330
A
100
AcDbEntity
  8
TEMPLATE
390
1D
100
AcDbMText
 10
305.440428909598
 20
51.7463503262856
 30
0.0
 40
3.257682291666665
 41
0.0
 46
0.0
 71
     1
 72
     1
  1
容量
  7
ＭＳ ゴシック
 73
     1
 44
0.7828267384257843
  0
LINE
  5
184
330
A
100
AcDbEntity
  8
TEMPLATE
390
1D
100
AcDbLine
 10
304.040428909598
 20
36.42933470128565
 30
0.0
 11
304.040428909598
 21
53.42933470128568
 31
0.0
  0
MTEXT
  5
185
330
A
100
AcDbEntity
  8
TEMPLATE
390
1D
100
AcDbMText
 10
255.240428909598
 20
68.74635032628565
 30
0.0
 40
3.257682291666665
 41
0.0
 46
0.0
 71
     1
 72
     1
  1
品番
  7
ＭＳ ゴシック
 73
     1
 44
0.7828267384257843
  0
MTEXT
  5
186
330
A
100
AcDbEntity
  8
TEMPLATE
390
1D
100
AcDbMText
 10
255.240428909598
 20
51.7463503262856
 30
0.0
 40
3.257682291666665
 41
0.0
 46
0.0
 71
     1
 72
     1
  1
重量
  7
ＭＳ ゴシック
 73
     1
 44
0.7828267384257843
  0
MTEXT
  5
187
330
A
100
AcDbEntity
  8
TEMPLATE
390
1D
100
AcDbMText
 10
265.840428909598
 20
63.02985813878564
 30
0.0
 40
4.8865234375
 41
0.0
 46
4.8865234375
 71
     1
 72
     1
  1
{FHT73-3331}
  7
ＭＳ ゴシック
 73
     1
 44
0.7828267384257843
1001
ACAD
1000
ACAD_MTEXT_DEFINED_HEIGHT_BEGIN
1070
    46
1040
4.8865234375
1000
ACAD_MTEXT_DEFINED_HEIGHT_END
  0
LINE
  5
188
330
A
100
AcDbEntity
  8
TEMPLATE
390
1D
100
AcDbLine
 10
253.840428909598
 20
19.42933470128565
 30
0.0
 11
253.840428909598
 21
70.42933470128564
 31
0.0
  0
MTEXT
  5
189
330
A
100
AcDbEntity
  8
TEMPLATE
390
1D
100
AcDbMText
 10
26.44042890954615
 20
63.02985813878564
 30
0.0
 40
4.8865234375
 41
0.0
 46
5.7025728515625
 71
     1
 72
     1
  1
{シャワーフック　-GROHE, ShowerSystem-}
  7
ＭＳ ゴシック
 73
     1
 44
0.7828267384257843
1001
ACAD
1000
ACAD_MTEXT_DEFINED_HEIGHT_BEGIN
1070
    46
1040
5.7025728515625
1000
ACAD_MTEXT_DEFINED_HEIGHT_END
  0
INSERT
  5
68C
330
A
100
AcDbEntity
  8
TEMPLATE
100
AcDbBlockReference
  2
block 2
 10
367.7097207081031
 20
3.349230605734547
 30
0.0
 41
0.1524
 42
0.1524
 43
0.1524
  0
LWPOLYLINE
  5
D69
330
A
100
AcDbEntity
  8
BORDER
100
AcDbPolyline
 90
        4
 70
     1
 43
0.0
 10
0.0
 20
0.0
 10
0.0
 20
594.0
 10
420.0
 20
594.0
 10
420.0
 20
0.0
  0
INSERT
  5
1343
330
A
100
AcDbEntity
  8
TEMPLATE
100
AcDbBlockReference
  2
block 2
 10
838.6973883465873
 20
9.774128564918277
 30
0.0
 41
0.1524
 42
0.1524
 43
0.1524
  0
HATCH
  5
3C64
102
{ACAD_REACTORS
330
3C75
102
}
330
A
100
AcDbEntity
  8
TEMPLATE
100
AcDbHatch
 10
0.0
 20
0.0
 30
0.0
210
0.0
220
0.0
230
1.0
  2
SOLID
 70
     1
 71
     1
 91
        6
 92
        1
 93
        8
 72
     1
 10
386.9584116981973
 20
30.78695932253559
 11
386.9584116981973
 21
29.60507779640349
 72
     1
 10
386.9584116981973
 20
29.60507779640349
 11
385.086293388135
 21
29.60507779640349
 72
     1
 10
385.086293388135
 20
29.60507779640349
 11
385.086293388135
 21
24.78695932282479
 72
     1
 10
385.086293388135
 20
24.78695932282479
 11
383.4397707574798
 21
24.78695932282479
 72
     1
 10
383.4397707574798
 20
24.78695932282479
 11
383.4397707574798
 21
29.60507779640349
 72
     1
 10
383.4397707574798
 20
29.60507779640349
 11
381.6008304705712
 21
29.60507779640349
 72
     1
 10
381.6008304705712
 20
29.60507779640349
 11
381.6008304705712
 21
30.78695932253559
 72
     1
 10
381.6008304705712
 20
30.78695932253559
 11
386.9584116981973
 21
30.78695932253559
 97
        1
330
3C65
 92
        1
 93
        1
 72
     4
 94
        3
 73
     0
 74
     1
 95
       56
 96
       52
 40
0.0
 40
0.0
 40
0.0
 40
0.0
 40
1.0
 40
1.0
 40
1.0
 40
2.0
 40
2.0
 40
2.0
 40
3.0
 40
3.0
 40
3.0
 40
4.0
 40
4.0
 40
4.0
 40
5.0
 40
5.0
 40
5.0
 40
6.0
 40
6.0
 40
6.0
 40
7.0
 40
7.0
 40
7.0
 40
8.0
 40
8.0
 40
8.0
 40
9.0
 40
9.0
 40
9.0
 40
10.0
 40
10.0
 40
10.0
 40
11.0
 40
11.0
 40
11.0
 40
12.0
 40
12.0
 40
12.0
 40
13.0
 40
13.0
 40
13.0
 40
14.0
 40
14.0
 40
14.0
 40
15.0
 40
15.0
 40
15.0
 40
16.0
 40
16.0
 40
16.0
 40
17.0
 40
17.0
 40
17.0
 40
17.0
 10
389.4668487850558
 20
30.64408553045313
 10
389.6976220214394
 20
30.70904304125516
 10
389.9955398401064
 20
30.65470844907718
 10
389.9955398401064
 20
30.65470844907718
 10
389.9955398401064
 20
30.65470844907718
 10
389.85241312139
 20
30.22519439059248
 10
389.85241312139
 20
30.22519439059248
 10
389.85241312139
 20
30.22519439059248
 10
389.5599406643706
 20
30.29287458221835
 10
389.3343598630008
 20
30.1149927683958
 10
389.1590668276665
 20
29.97588311974736
 10
389.0455027690426
 20
29.60625316134929
 10
389.0019398758616
 20
29.46571522112114
 10
389.0019398758616
 20
29.46571522112114
 10
388.8077219770962
 20
28.86958202304137
 10
388.8077219770962
 20
28.86958202304137
 10
388.8077219770962
 20
28.86958202304137
 10
389.4445466071603
 20
28.86958202304137
 10
389.4445466071603
 20
28.86958202304137
 10
389.4445466071603
 20
28.86958202304137
 10
389.34550351293
 20
28.49438767869736
 10
389.34550351293
 20
28.49438767869736
 10
389.34550351293
 20
28.49438767869736
 10
388.7034864478522
 20
28.49438767869736
 10
388.7034864478522
 20
28.49438767869736
 10
388.7034864478522
 20
28.49438767869736
 10
387.5547978229109
 20
24.78695932282479
 10
387.5547978229109
 20
24.78695932282479
 10
387.5547978229109
 20
24.78695932282479
 10
387.1951510275336
 20
24.78695932282479
 10
387.1951510275336
 20
24.78695932282479
 10
387.1951510275336
 20
24.78695932282479
 10
388.3448811150849
 20
28.49438767869736
 10
388.3448811150849
 20
28.49438767869736
 10
388.3448811150849
 20
28.49438767869736
 10
387.8711346517413
 20
28.49438767869736
 10
387.8711346517413
 20
28.49438767869736
 10
387.8711346517413
 20
28.49438767869736
 10
387.9704455506427
 20
28.86958202304137
 10
387.9704455506427
 20
28.86958202304137
 10
387.9704455506427
 20
28.86958202304137
 10
388.4491166443289
 20
28.86958202304137
 10
388.4491166443289
 20
28.86958202304137
 10
388.4491166443289
 20
28.86958202304137
 10
388.6184287086733
 20
29.38948015805433
 10
388.6184287086733
 20
29.38948015805433
 10
388.7553364078029
 20
29.82536201649855
 10
388.8715041229524
 20
30.059378665011
 10
388.971082826525
 20
30.23581730921654
 10
389.0696051894502
 20
30.41240473379499
 10
389.2645967461546
 20
30.58586777054282
 10
389.4668487850558
 20
30.64408553045313
 97
        1
330
3C70
 92
        1
 93
        1
 72
     4
 94
        3
 73
     0
 74
     1
 95
       32
 96
       28
 40
0.0
 40
0.0
 40
0.0
 40
0.0
 40
1.0
 40
1.0
 40
1.0
 40
2.0
 40
2.0
 40
2.0
 40
3.0
 40
3.0
 40
3.0
 40
4.0
 40
4.0
 40
4.0
 40
5.0
 40
5.0
 40
5.0
 40
6.0
 40
6.0
 40
6.0
 40
7.0
 40
7.0
 40
7.0
 40
8.0
 40
8.0
 40
8.0
 40
9.0
 40
9.0
 40
9.0
 40
9.0
 10
390.3419600603343
 20
28.64284073476305
 10
390.1254548617105
 20
28.36279143887966
 10
389.9587315758544
 20
28.11075748721071
 10
389.6888142233646
 20
27.31860614785359
 10
389.4406634394279
 20
26.59401597582401
 10
389.2827479516467
 20
26.06685735861421
 10
389.2588984578731
 20
25.42484029353638
 10
389.240747252381
 20
24.94707676012474
 10
389.5316723935223
 20
24.78695932282479
 10
389.9582257225866
 20
24.78695932282479
 10
390.1420587513246
 20
24.78695932282479
 10
390.6059559539832
 20
24.79865346013363
 10
390.9363078939394
 20
25.20702582763122
 10
391.1675721055534
 20
25.49393389870466
 10
391.38071486775
 20
25.79134586410385
 10
391.6664624519149
 20
26.76695828126675
 10
391.9042432438614
 20
27.58257228542799
 10
392.068883604497
 20
28.10971602460051
 10
392.056713369995
 20
28.40985067082352
 10
392.056713369995
 20
28.40985067082352
 10
392.056713369995
 20
28.40985067082352
 10
392.056713369995
 20
28.40985067082352
 10
391.9791690396468
 20
28.91055613773418
 10
391.615639076537
 20
29.01635386089345
 10
391.4079416759881
 20
29.01635386089345
 10
391.2033686632698
 20
29.01635386089345
 10
390.6552022574085
 20
29.05174871160303
 10
390.3419600603343
 20
28.64284073476305
 97
        1
330
3C73
 92
        1
 93
        1
 72
     4
 94
        3
 73
     0
 74
     1
 95
       38
 96
       34
 40
0.0
 40
0.0
 40
0.0
 40
0.0
 40
1.0
 40
1.0
 40
1.0
 40
2.0
 40
2.0
 40
2.0
 40
3.0
 40
3.0
 40
3.0
 40
4.0
 40
4.0
 40
4.0
 40
5.0
 40
5.0
 40
5.0
 40
6.0
 40
6.0
 40
6.0
 40
7.0
 40
7.0
 40
7.0
 40
8.0
 40
8.0
 40
8.0
 40
9.0
 40
9.0
 40
9.0
 40
10.0
 40
10.0
 40
10.0
 40
11.0
 40
11.0
 40
11.0
 40
11.0
 10
393.3716045494872
 20
28.85519496098328
 10
393.3716045494872
 20
28.85519496098328
 10
393.7413535321836
 20
28.85519496098328
 10
393.7413535321836
 20
28.85519496098328
 10
393.7413535321836
 20
28.85519496098328
 10
393.5761775622055
 20
28.32635512555987
 10
393.5761775622055
 20
28.32635512555987
 10
393.7016886847722
 20
28.47480818162555
 10
393.8997748732327
 20
28.67252241915381
 10
394.0698903515905
 20
28.77222014702475
 10
394.3240072284799
 20
28.92067320309043
 10
394.4692168724166
 20
28.94025270016223
 10
394.6289177246725
 20
28.93635465439262
 10
394.6289177246725
 20
28.93635465439262
 10
394.4728471135151
 20
28.43630382112264
 10
394.4728471135151
 20
28.43630382112264
 10
394.3712003627593
 20
28.47934598299858
 10
394.057958165685
 20
28.39741263165024
 10
393.8782612313133
 20
28.26815224368685
 10
393.7162096491659
 20
28.15159769956793
 10
393.6041780283826
 20
28.0524207030021
 10
393.4714361796937
 20
27.80309455411968
 10
393.3397060375404
 20
27.55339645430504
 10
393.2357383129677
 20
27.15524529842472
 10
393.0568150365349
 20
26.57765013480655
 10
393.0568150365349
 20
26.57765013480655
 10
392.4980257120495
 20
24.78695932282479
 10
392.4980257120495
 20
24.78695932282479
 10
392.4980257120495
 20
24.78695932282479
 10
392.1391674526484
 20
24.78695932282479
 10
392.1391674526484
 20
24.78695932282479
 10
392.1391674526484
 20
24.78695932282479
 10
393.3716045494872
 20
28.85519496098328
 10
393.3716045494872
 20
28.85519496098328
 97
        1
330
3C71
 92
        1
 93
        1
 72
     4
 94
        3
 73
     0
 74
     1
 95
      104
 96
      100
 40
0.0
 40
0.0
 40
0.0
 40
0.0
 40
1.0
 40
1.0
 40
1.0
 40
2.0
 40
2.0
 40
2.0
 40
3.0
 40
3.0
 40
3.0
 40
4.0
 40
4.0
 40
4.0
 40
5.0
 40
5.0
 40
5.0
 40
6.0
 40
6.0
 40
6.0
 40
7.0
 40
7.0
 40
7.0
 40
8.0
 40
8.0
 40
8.0
 40
9.0
 40
9.0
 40
9.0
 40
10.0
 40
10.0
 40
10.0
 40
11.0
 40
11.0
 40
11.0
 40
12.0
 40
12.0
 40
12.0
 40
13.0
 40
13.0
 40
13.0
 40
14.0
 40
14.0
 40
14.0
 40
15.0
 40
15.0
 40
15.0
 40
16.0
 40
16.0
 40
16.0
 40
17.0
 40
17.0
 40
17.0
 40
18.0
 40
18.0
 40
18.0
 40
19.0
 40
19.0
 40
19.0
 40
20.0
 40
20.0
 40
20.0
 40
21.0
 40
21.0
 40
21.0
 40
22.0
 40
22.0
 40
22.0
 40
23.0
 40
23.0
 40
23.0
 40
24.0
 40
24.0
 40
24.0
 40
25.0
 40
25.0
 40
25.0
 40
26.0
 40
26.0
 40
26.0
 40
27.0
 40
27.0
 40
27.0
 40
28.0
 40
28.0
 40
28.0
 40
29.0
 40
29.0
 40
29.0
 40
30.0
 40
30.0
 40
30.0
 40
31.0
 40
31.0
 40
31.0
 40
32.0
 40
32.0
 40
32.0
 40
33.0
 40
33.0
 40
33.0
 40
33.0
 10
395.4068307823444
 20
28.857396910502
 10
395.4068307823444
 20
28.857396910502
 10
395.7296544354325
 20
28.857396910502
 10
395.7296544354325
 20
28.857396910502
 10
395.7296544354325
 20
28.857396910502
 10
395.5665613906749
 20
28.32805122181077
 10
395.5665613906749
 20
28.32805122181077
 10
395.7081110374387
 20
28.55000178208216
 10
395.8351694758834
 20
28.64892585201409
 10
396.0039756869598
 20
28.77675794839777
 10
396.1732877513042
 20
28.90277492423224
 10
396.3742602789986
 20
28.92845441659237
 10
396.5137567566165
 20
28.92845441659237
 10
396.6864610134627
 20
28.92845441659237
 10
396.8531842993187
 20
28.8943539551269
 10
396.9408159389486
 20
28.70506068670399
 10
397.0079753992694
 20
28.55662250867558
 10
397.0110997871
 20
28.5391110587869
 10
396.9919071189977
 20
28.24610299242514
 10
397.1674382029287
 20
28.54650544331934
 10
397.2970854198616
 20
28.67589973361832
 10
397.5174886642549
 20
28.80022061320189
 10
397.7487826319435
 20
28.92845441659237
 10
397.8836074058529
 20
28.93805075064353
 10
398.0402433824273
 20
28.9149600367716
 10
398.2710017407735
 20
28.88087445334342
 10
398.4182943099307
 20
28.79853939498828
 10
398.4953030309365
 20
28.54832056386854
 10
398.5725795566135
 20
28.29887539068781
 10
398.5308317839817
 20
28.16507720135141
 10
398.4354040528126
 20
27.76796750808128
 10
398.3918411596316
 20
27.58711008680102
 10
398.3288177936771
 20
27.36812025595006
 10
398.2463637110236
 20
27.10754631087745
 10
398.2463637110236
 20
27.10754631087745
 10
397.5174886642549
 20
24.78695932282479
 10
397.5174886642549
 20
24.78695932282479
 10
397.5174886642549
 20
24.78695932282479
 10
397.1383962741413
 20
24.78695932282479
 10
397.1383962741413
 20
24.78695932282479
 10
397.1383962741413
 20
24.78695932282479
 10
397.7765450495241
 20
26.81569873142421
 10
397.7765450495241
 20
26.81569873142421
 10
397.9098225075554
 20
27.24016913526807
 10
398.0000429256735
 20
27.55015304217612
 10
398.0467302066851
 20
27.74450484327716
 10
398.1053199175276
 20
27.98694246089495
 10
398.1286486799962
 20
28.06694166739577
 10
398.1009160184902
 20
28.24339518963862
 10
398.0755043308013
 20
28.4076487213048
 10
397.9925146388055
 20
28.51460693137258
 10
397.8504293826993
 20
28.51460693137258
 10
397.6990007191758
 20
28.51460693137258
 10
397.5763461797686
 20
28.49775011512458
 10
397.4047131416073
 20
28.32532854098695
 10
397.2330503473714
 20
28.15159769956793
 10
397.0912031398618
 20
27.94766444245305
 10
396.9799749330922
 20
27.71312706263549
 10
396.8689847749192
 20
27.47716139123824
 10
396.7564473008682
 20
27.17806820762544
 10
396.6423625109393
 20
26.81569873142421
 10
396.6423625109393
 20
26.81569873142421
 10
396.0039756869598
 20
24.78695932282479
 10
396.0039756869598
 20
24.78695932282479
 10
396.0039756869598
 20
24.78695932282479
 10
395.6474384013758
 20
24.78695932282479
 10
395.6474384013758
 20
24.78695932282479
 10
395.6474384013758
 20
24.78695932282479
 10
396.3773549107547
 20
27.10650484826726
 10
396.3773549107547
 20
27.10650484826726
 10
396.4543636317604
 20
27.35336124295977
 10
396.5122094407385
 20
27.55457181925085
 10
396.5503269722719
 20
27.71183267339138
 10
396.6151357027011
 20
27.98253856185753
 10
396.6332869081932
 20
28.1655979326565
 10
396.5842786533645
 20
28.32805122181077
 10
396.5360440564749
 20
28.48998377965993
 10
396.4512690000045
 20
28.53134472332225
 10
396.3096895971661
 20
28.53134472332225
 10
396.1909331035284
 20
28.53134472332225
 10
396.0750331930502
 20
28.48038744560878
 10
395.9427971976291
 20
28.37899362148695
 10
395.7763119603696
 20
28.25142932977446
 10
395.7096881093912
 20
28.1466730692254
 10
395.6280076846768
 20
28.02220340926895
 10
395.5177911844429
 20
27.85754817059597
 10
395.4661941511259
 20
27.74670679279587
 10
395.3731171498484
 20
27.50348063920177
 10
395.2800103924964
 20
27.25882619402798
 10
395.1918728995987
 20
26.97412007247326
 10
395.1303968495222
 20
26.77719437092129
 10
395.1303968495222
 20
26.77719437092129
 10
394.5042100161195
 20
24.78695932282479
 10
394.5042100161195
 20
24.78695932282479
 10
394.5042100161195
 20
24.78695932282479
 10
394.1308307923247
 20
24.78695932282479
 10
394.1308307923247
 20
24.78695932282479
 10
394.1308307923247
 20
24.78695932282479
 10
395.4068307823444
 20
28.857396910502
 10
395.4068307823444
 20
28.857396910502
 97
        1
330
3C72
 92
       16
 93
        1
 72
     4
 94
        3
 73
     0
 74
     1
 95
       29
 96
       25
 40
0.0
 40
0.0
 40
0.0
 40
0.0
 40
1.0
 40
1.0
 40
1.0
 40
2.0
 40
2.0
 40
2.0
 40
3.0
 40
3.0
 40
3.0
 40
4.0
 40
4.0
 40
4.0
 40
5.0
 40
5.0
 40
5.0
 40
6.0
 40
6.0
 40
6.0
 40
7.0
 40
7.0
 40
7.0
 40
8.0
 40
8.0
 40
8.0
 40
8.0
 10
389.6462927927937
 20
25.54487629838084
 10
389.6447157208412
 20
25.82830290872873
 10
389.7341922370948
 20
26.33186495879882
 10
389.9634032795631
 20
27.00563175545052
 10
390.2756040140271
 20
27.91796788002499
 10
390.4628292352669
 20
28.25142932977446
 10
390.6266661818889
 20
28.41374871659313
 10
390.866024045788
 20
28.65010121695988
 10
391.1878062362659
 20
28.66188462249246
 10
391.2827281141673
 20
28.65010121695988
 10
391.4178206927478
 20
28.6338841563153
 10
391.6086463990114
 20
28.54546398070914
 10
391.6200429755745
 20
28.24779908867604
 10
391.629148334395
 20
27.99304245618328
 10
391.5557400984131
 20
27.51593355641234
 10
391.2987963944389
 20
26.76695828126675
 10
391.0026639402465
 20
25.896622855958
 10
390.824782126424
 20
25.55448751046927
 10
390.6821910170501
 20
25.40537982076289
 10
390.413553175767
 20
25.1258512561846
 10
390.1254548617105
 20
25.15269123545324
 10
390.0829334311396
 20
25.15269123545324
 10
390.0277061567243
 20
25.15269123545324
 10
389.6470664507327
 20
25.21261996965174
 10
389.6462927927937
 20
25.54487629838084
 97
        1
330
3C74
 75
     0
 76
     1
 98
        1
 10
371.9300318427923
 20
14.61939790801677
1001
ACAD
1010
0.0
1020
0.0
1030
0.0
  0
POLYLINE
  5
3C65
102
{ACAD_REACTORS
330
3C64
330
3C75
102
}
330
A
100
AcDbEntity
  8
TEMPLATE
100
AcDb2dPolyline
 66
     1
 10
0.0
 20
0.0
 30
0.0
  0
VERTEX
  5
3C66
330
3C65
100
AcDbEntity
  8
TEMPLATE
100
AcDbVertex
100
AcDb2dVertex
 10
386.9584116981973
 20
30.78695932253559
 30
0.0
  0
VERTEX
  5
3C67
330
3C65
100
AcDbEntity
  8
TEMPLATE
100
AcDbVertex
100
AcDb2dVertex
 10
386.9584116981973
 20
29.60507779640349
 30
0.0
  0
VERTEX
  5
3C68
330
3C65
100
AcDbEntity
  8
TEMPLATE
100
AcDbVertex
100
AcDb2dVertex
 10
385.086293388135
 20
29.60507779640349
 30
0.0
  0
VERTEX
  5
3C69
330
3C65
100
AcDbEntity
  8
TEMPLATE
100
AcDbVertex
100
AcDb2dVertex
 10
385.086293388135
 20
24.78695932282479
 30
0.0
  0
VERTEX
  5
3C6A
330
3C65
100
AcDbEntity
  8
TEMPLATE
100
AcDbVertex
100
AcDb2dVertex
 10
383.4397707574798
 20
24.78695932282479
 30
0.0
  0
VERTEX
  5
3C6B
330
3C65
100
AcDbEntity
  8
TEMPLATE
100
AcDbVertex
100
AcDb2dVertex
 10
383.4397707574798
 20
29.60507779640349
 30
0.0
  0
VERTEX
  5
3C6C
330
3C65
100
AcDbEntity
  8
TEMPLATE
100
AcDbVertex
100
AcDb2dVertex
 10
381.6008304705712
 20
29.60507779640349
 30
0.0
  0
VERTEX
  5
3C6D
330
3C65
100
AcDbEntity
  8
TEMPLATE
100
AcDbVertex
100
AcDb2dVertex
 10
381.6008304705712
 20
30.78695932253559
 30
0.0
  0
VERTEX
  5
3C6E
330
3C65
100
AcDbEntity
  8
TEMPLATE
100
AcDbVertex
100
AcDb2dVertex
 10
386.9584116981973
 20
30.78695932253559
 30
0.0
  0
SEQEND
  5
3C6F
330
3C65
100
AcDbEntity
  8
TEMPLATE
  0
SPLINE
  5
3C70
102
{ACAD_REACTORS
330
3C64
330
3C75
102
}
330
A
100
AcDbEntity
  8
TEMPLATE
100
AcDbSpline
210
0.0
220
0.0
230
1.0
 70
    11
 71
     3
 72
    56
 73
    52
 74
     0
 42
0.000000001
 43
0.0000000001
 40
0.0
 40
0.0
 40
0.0
 40
0.0
 40
1.0
 40
1.0
 40
1.0
 40
2.0
 40
2.0
 40
2.0
 40
3.0
 40
3.0
 40
3.0
 40
4.0
 40
4.0
 40
4.0
 40
5.0
 40
5.0
 40
5.0
 40
6.0
 40
6.0
 40
6.0
 40
7.0
 40
7.0
 40
7.0
 40
8.0
 40
8.0
 40
8.0
 40
9.0
 40
9.0
 40
9.0
 40
10.0
 40
10.0
 40
10.0
 40
11.0
 40
11.0
 40
11.0
 40
12.0
 40
12.0
 40
12.0
 40
13.0
 40
13.0
 40
13.0
 40
14.0
 40
14.0
 40
14.0
 40
15.0
 40
15.0
 40
15.0
 40
16.0
 40
16.0
 40
16.0
 40
17.0
 40
17.0
 40
17.0
 40
17.0
 10
389.4668487850558
 20
30.64408553045313
 30
0.0
 10
389.6976220214394
 20
30.70904304125516
 30
0.0
 10
389.9955398401064
 20
30.65470844907718
 30
0.0
 10
389.9955398401064
 20
30.65470844907718
 30
0.0
 10
389.9955398401064
 20
30.65470844907718
 30
0.0
 10
389.85241312139
 20
30.22519439059248
 30
0.0
 10
389.85241312139
 20
30.22519439059248
 30
0.0
 10
389.85241312139
 20
30.22519439059248
 30
0.0
 10
389.5599406643706
 20
30.29287458221835
 30
0.0
 10
389.3343598630008
 20
30.1149927683958
 30
0.0
 10
389.1590668276665
 20
29.97588311974736
 30
0.0
 10
389.0455027690426
 20
29.60625316134929
 30
0.0
 10
389.0019398758616
 20
29.46571522112114
 30
0.0
 10
389.0019398758616
 20
29.46571522112114
 30
0.0
 10
388.8077219770962
 20
28.86958202304137
 30
0.0
 10
388.8077219770962
 20
28.86958202304137
 30
0.0
 10
388.8077219770962
 20
28.86958202304137
 30
0.0
 10
389.4445466071603
 20
28.86958202304137
 30
0.0
 10
389.4445466071603
 20
28.86958202304137
 30
0.0
 10
389.4445466071603
 20
28.86958202304137
 30
0.0
 10
389.34550351293
 20
28.49438767869736
 30
0.0
 10
389.34550351293
 20
28.49438767869736
 30
0.0
 10
389.34550351293
 20
28.49438767869736
 30
0.0
 10
388.7034864478522
 20
28.49438767869736
 30
0.0
 10
388.7034864478522
 20
28.49438767869736
 30
0.0
 10
388.7034864478522
 20
28.49438767869736
 30
0.0
 10
387.5547978229109
 20
24.78695932282479
 30
0.0
 10
387.5547978229109
 20
24.78695932282479
 30
0.0
 10
387.5547978229109
 20
24.78695932282479
 30
0.0
 10
387.1951510275336
 20
24.78695932282479
 30
0.0
 10
387.1951510275336
 20
24.78695932282479
 30
0.0
 10
387.1951510275336
 20
24.78695932282479
 30
0.0
 10
388.3448811150849
 20
28.49438767869736
 30
0.0
 10
388.3448811150849
 20
28.49438767869736
 30
0.0
 10
388.3448811150849
 20
28.49438767869736
 30
0.0
 10
387.8711346517413
 20
28.49438767869736
 30
0.0
 10
387.8711346517413
 20
28.49438767869736
 30
0.0
 10
387.8711346517413
 20
28.49438767869736
 30
0.0
 10
387.9704455506427
 20
28.86958202304137
 30
0.0
 10
387.9704455506427
 20
28.86958202304137
 30
0.0
 10
387.9704455506427
 20
28.86958202304137
 30
0.0
 10
388.4491166443289
 20
28.86958202304137
 30
0.0
 10
388.4491166443289
 20
28.86958202304137
 30
0.0
 10
388.4491166443289
 20
28.86958202304137
 30
0.0
 10
388.6184287086733
 20
29.38948015805433
 30
0.0
 10
388.6184287086733
 20
29.38948015805433
 30
0.0
 10
388.7553364078029
 20
29.82536201649855
 30
0.0
 10
388.8715041229524
 20
30.059378665011
 30
0.0
 10
388.971082826525
 20
30.23581730921654
 30
0.0
 10
389.0696051894502
 20
30.41240473379499
 30
0.0
 10
389.2645967461546
 20
30.58586777054282
 30
0.0
 10
389.4668487850558
 20
30.64408553045313
 30
0.0
  0
SPLINE
  5
3C71
102
{ACAD_REACTORS
330
3C64
330
3C75
102
}
330
A
100
AcDbEntity
  8
TEMPLATE
100
AcDbSpline
210
0.0
220
0.0
230
1.0
 70
    11
 71
     3
 72
    38
 73
    34
 74
     0
 42
0.000000001
 43
0.0000000001
 40
0.0
 40
0.0
 40
0.0
 40
0.0
 40
1.0
 40
1.0
 40
1.0
 40
2.0
 40
2.0
 40
2.0
 40
3.0
 40
3.0
 40
3.0
 40
4.0
 40
4.0
 40
4.0
 40
5.0
 40
5.0
 40
5.0
 40
6.0
 40
6.0
 40
6.0
 40
7.0
 40
7.0
 40
7.0
 40
8.0
 40
8.0
 40
8.0
 40
9.0
 40
9.0
 40
9.0
 40
10.0
 40
10.0
 40
10.0
 40
11.0
 40
11.0
 40
11.0
 40
11.0
 10
393.3716045494872
 20
28.85519496098328
 30
0.0
 10
393.3716045494872
 20
28.85519496098328
 30
0.0
 10
393.7413535321836
 20
28.85519496098328
 30
0.0
 10
393.7413535321836
 20
28.85519496098328
 30
0.0
 10
393.7413535321836
 20
28.85519496098328
 30
0.0
 10
393.5761775622055
 20
28.32635512555987
 30
0.0
 10
393.5761775622055
 20
28.32635512555987
 30
0.0
 10
393.7016886847722
 20
28.47480818162555
 30
0.0
 10
393.8997748732327
 20
28.67252241915381
 30
0.0
 10
394.0698903515905
 20
28.77222014702475
 30
0.0
 10
394.3240072284799
 20
28.92067320309043
 30
0.0
 10
394.4692168724166
 20
28.94025270016223
 30
0.0
 10
394.6289177246725
 20
28.93635465439262
 30
0.0
 10
394.6289177246725
 20
28.93635465439262
 30
0.0
 10
394.4728471135151
 20
28.43630382112264
 30
0.0
 10
394.4728471135151
 20
28.43630382112264
 30
0.0
 10
394.3712003627593
 20
28.47934598299858
 30
0.0
 10
394.057958165685
 20
28.39741263165024
 30
0.0
 10
393.8782612313133
 20
28.26815224368685
 30
0.0
 10
393.7162096491659
 20
28.15159769956793
 30
0.0
 10
393.6041780283826
 20
28.0524207030021
 30
0.0
 10
393.4714361796937
 20
27.80309455411968
 30
0.0
 10
393.3397060375404
 20
27.55339645430504
 30
0.0
 10
393.2357383129677
 20
27.15524529842472
 30
0.0
 10
393.0568150365349
 20
26.57765013480655
 30
0.0
 10
393.0568150365349
 20
26.57765013480655
 30
0.0
 10
392.4980257120495
 20
24.78695932282479
 30
0.0
 10
392.4980257120495
 20
24.78695932282479
 30
0.0
 10
392.4980257120495
 20
24.78695932282479
 30
0.0
 10
392.1391674526484
 20
24.78695932282479
 30
0.0
 10
392.1391674526484
 20
24.78695932282479
 30
0.0
 10
392.1391674526484
 20
24.78695932282479
 30
0.0
 10
393.3716045494872
 20
28.85519496098328
 30
0.0
 10
393.3716045494872
 20
28.85519496098328
 30
0.0
  0
SPLINE
  5
3C72
102
{ACAD_REACTORS
330
3C64
330
3C75
102
}
330
A
100
AcDbEntity
  8
TEMPLATE
100
AcDbSpline
210
0.0
220
0.0
230
1.0
 70
    11
 71
     3
 72
   104
 73
   100
 74
     0
 42
0.000000001
 43
0.0000000001
 40
0.0
 40
0.0
 40
0.0
 40
0.0
 40
1.0
 40
1.0
 40
1.0
 40
2.0
 40
2.0
 40
2.0
 40
3.0
 40
3.0
 40
3.0
 40
4.0
 40
4.0
 40
4.0
 40
5.0
 40
5.0
 40
5.0
 40
6.0
 40
6.0
 40
6.0
 40
7.0
 40
7.0
 40
7.0
 40
8.0
 40
8.0
 40
8.0
 40
9.0
 40
9.0
 40
9.0
 40
10.0
 40
10.0
 40
10.0
 40
11.0
 40
11.0
 40
11.0
 40
12.0
 40
12.0
 40
12.0
 40
13.0
 40
13.0
 40
13.0
 40
14.0
 40
14.0
 40
14.0
 40
15.0
 40
15.0
 40
15.0
 40
16.0
 40
16.0
 40
16.0
 40
17.0
 40
17.0
 40
17.0
 40
18.0
 40
18.0
 40
18.0
 40
19.0
 40
19.0
 40
19.0
 40
20.0
 40
20.0
 40
20.0
 40
21.0
 40
21.0
 40
21.0
 40
22.0
 40
22.0
 40
22.0
 40
23.0
 40
23.0
 40
23.0
 40
24.0
 40
24.0
 40
24.0
 40
25.0
 40
25.0
 40
25.0
 40
26.0
 40
26.0
 40
26.0
 40
27.0
 40
27.0
 40
27.0
 40
28.0
 40
28.0
 40
28.0
 40
29.0
 40
29.0
 40
29.0
 40
30.0
 40
30.0
 40
30.0
 40
31.0
 40
31.0
 40
31.0
 40
32.0
 40
32.0
 40
32.0
 40
33.0
 40
33.0
 40
33.0
 40
33.0
 10
395.4068307823444
 20
28.857396910502
 30
0.0
 10
395.4068307823444
 20
28.857396910502
 30
0.0
 10
395.7296544354325
 20
28.857396910502
 30
0.0
 10
395.7296544354325
 20
28.857396910502
 30
0.0
 10
395.7296544354325
 20
28.857396910502
 30
0.0
 10
395.5665613906749
 20
28.32805122181077
 30
0.0
 10
395.5665613906749
 20
28.32805122181077
 30
0.0
 10
395.7081110374387
 20
28.55000178208216
 30
0.0
 10
395.8351694758834
 20
28.64892585201409
 30
0.0
 10
396.0039756869598
 20
28.77675794839777
 30
0.0
 10
396.1732877513042
 20
28.90277492423224
 30
0.0
 10
396.3742602789986
 20
28.92845441659237
 30
0.0
 10
396.5137567566165
 20
28.92845441659237
 30
0.0
 10
396.6864610134627
 20
28.92845441659237
 30
0.0
 10
396.8531842993187
 20
28.8943539551269
 30
0.0
 10
396.9408159389486
 20
28.70506068670399
 30
0.0
 10
397.0079753992694
 20
28.55662250867558
 30
0.0
 10
397.0110997871
 20
28.5391110587869
 30
0.0
 10
396.9919071189977
 20
28.24610299242514
 30
0.0
 10
397.1674382029287
 20
28.54650544331934
 30
0.0
 10
397.2970854198616
 20
28.67589973361832
 30
0.0
 10
397.5174886642549
 20
28.80022061320189
 30
0.0
 10
397.7487826319435
 20
28.92845441659237
 30
0.0
 10
397.8836074058529
 20
28.93805075064353
 30
0.0
 10
398.0402433824273
 20
28.9149600367716
 30
0.0
 10
398.2710017407735
 20
28.88087445334342
 30
0.0
 10
398.4182943099307
 20
28.79853939498828
 30
0.0
 10
398.4953030309365
 20
28.54832056386854
 30
0.0
 10
398.5725795566135
 20
28.29887539068781
 30
0.0
 10
398.5308317839817
 20
28.16507720135141
 30
0.0
 10
398.4354040528126
 20
27.76796750808128
 30
0.0
 10
398.3918411596316
 20
27.58711008680102
 30
0.0
 10
398.3288177936771
 20
27.36812025595006
 30
0.0
 10
398.2463637110236
 20
27.10754631087745
 30
0.0
 10
398.2463637110236
 20
27.10754631087745
 30
0.0
 10
397.5174886642549
 20
24.78695932282479
 30
0.0
 10
397.5174886642549
 20
24.78695932282479
 30
0.0
 10
397.5174886642549
 20
24.78695932282479
 30
0.0
 10
397.1383962741413
 20
24.78695932282479
 30
0.0
 10
397.1383962741413
 20
24.78695932282479
 30
0.0
 10
397.1383962741413
 20
24.78695932282479
 30
0.0
 10
397.7765450495241
 20
26.81569873142421
 30
0.0
 10
397.7765450495241
 20
26.81569873142421
 30
0.0
 10
397.9098225075554
 20
27.24016913526807
 30
0.0
 10
398.0000429256735
 20
27.55015304217612
 30
0.0
 10
398.0467302066851
 20
27.74450484327716
 30
0.0
 10
398.1053199175276
 20
27.98694246089495
 30
0.0
 10
398.1286486799962
 20
28.06694166739577
 30
0.0
 10
398.1009160184902
 20
28.24339518963862
 30
0.0
 10
398.0755043308013
 20
28.4076487213048
 30
0.0
 10
397.9925146388055
 20
28.51460693137258
 30
0.0
 10
397.8504293826993
 20
28.51460693137258
 30
0.0
 10
397.6990007191758
 20
28.51460693137258
 30
0.0
 10
397.5763461797686
 20
28.49775011512458
 30
0.0
 10
397.4047131416073
 20
28.32532854098695
 30
0.0
 10
397.2330503473714
 20
28.15159769956793
 30
0.0
 10
397.0912031398618
 20
27.94766444245305
 30
0.0
 10
396.9799749330922
 20
27.71312706263549
 30
0.0
 10
396.8689847749192
 20
27.47716139123824
 30
0.0
 10
396.7564473008682
 20
27.17806820762544
 30
0.0
 10
396.6423625109393
 20
26.81569873142421
 30
0.0
 10
396.6423625109393
 20
26.81569873142421
 30
0.0
 10
396.0039756869598
 20
24.78695932282479
 30
0.0
 10
396.0039756869598
 20
24.78695932282479
 30
0.0
 10
396.0039756869598
 20
24.78695932282479
 30
0.0
 10
395.6474384013758
 20
24.78695932282479
 30
0.0
 10
395.6474384013758
 20
24.78695932282479
 30
0.0
 10
395.6474384013758
 20
24.78695932282479
 30
0.0
 10
396.3773549107547
 20
27.10650484826726
 30
0.0
 10
396.3773549107547
 20
27.10650484826726
 30
0.0
 10
396.4543636317604
 20
27.35336124295977
 30
0.0
 10
396.5122094407385
 20
27.55457181925085
 30
0.0
 10
396.5503269722719
 20
27.71183267339138
 30
0.0
 10
396.6151357027011
 20
27.98253856185753
 30
0.0
 10
396.6332869081932
 20
28.1655979326565
 30
0.0
 10
396.5842786533645
 20
28.32805122181077
 30
0.0
 10
396.5360440564749
 20
28.48998377965993
 30
0.0
 10
396.4512690000045
 20
28.53134472332225
 30
0.0
 10
396.3096895971661
 20
28.53134472332225
 30
0.0
 10
396.1909331035284
 20
28.53134472332225
 30
0.0
 10
396.0750331930502
 20
28.48038744560878
 30
0.0
 10
395.9427971976291
 20
28.37899362148695
 30
0.0
 10
395.7763119603696
 20
28.25142932977446
 30
0.0
 10
395.7096881093912
 20
28.1466730692254
 30
0.0
 10
395.6280076846768
 20
28.02220340926895
 30
0.0
 10
395.5177911844429
 20
27.85754817059597
 30
0.0
 10
395.4661941511259
 20
27.74670679279587
 30
0.0
 10
395.3731171498484
 20
27.50348063920177
 30
0.0
 10
395.2800103924964
 20
27.25882619402798
 30
0.0
 10
395.1918728995987
 20
26.97412007247326
 30
0.0
 10
395.1303968495222
 20
26.77719437092129
 30
0.0
 10
395.1303968495222
 20
26.77719437092129
 30
0.0
 10
394.5042100161195
 20
24.78695932282479
 30
0.0
 10
394.5042100161195
 20
24.78695932282479
 30
0.0
 10
394.5042100161195
 20
24.78695932282479
 30
0.0
 10
394.1308307923247
 20
24.78695932282479
 30
0.0
 10
394.1308307923247
 20
24.78695932282479
 30
0.0
 10
394.1308307923247
 20
24.78695932282479
 30
0.0
 10
395.4068307823444
 20
28.857396910502
 30
0.0
 10
395.4068307823444
 20
28.857396910502
 30
0.0
  0
SPLINE
  5
3C73
102
{ACAD_REACTORS
330
3C64
330
3C75
102
}
330
A
100
AcDbEntity
  8
TEMPLATE
100
AcDbSpline
210
0.0
220
0.0
230
1.0
 70
    11
 71
     3
 72
    32
 73
    28
 74
     0
 42
0.000000001
 43
0.0000000001
 40
0.0
 40
0.0
 40
0.0
 40
0.0
 40
1.0
 40
1.0
 40
1.0
 40
2.0
 40
2.0
 40
2.0
 40
3.0
 40
3.0
 40
3.0
 40
4.0
 40
4.0
 40
4.0
 40
5.0
 40
5.0
 40
5.0
 40
6.0
 40
6.0
 40
6.0
 40
7.0
 40
7.0
 40
7.0
 40
8.0
 40
8.0
 40
8.0
 40
9.0
 40
9.0
 40
9.0
 40
9.0
 10
390.3419600603343
 20
28.64284073476305
 30
0.0
 10
390.1254548617105
 20
28.36279143887966
 30
0.0
 10
389.9587315758544
 20
28.11075748721071
 30
0.0
 10
389.6888142233646
 20
27.31860614785359
 30
0.0
 10
389.4406634394279
 20
26.59401597582401
 30
0.0
 10
389.2827479516467
 20
26.06685735861421
 30
0.0
 10
389.2588984578731
 20
25.42484029353638
 30
0.0
 10
389.240747252381
 20
24.94707676012474
 30
0.0
 10
389.5316723935223
 20
24.78695932282479
 30
0.0
 10
389.9582257225866
 20
24.78695932282479
 30
0.0
 10
390.1420587513246
 20
24.78695932282479
 30
0.0
 10
390.6059559539832
 20
24.79865346013363
 30
0.0
 10
390.9363078939394
 20
25.20702582763122
 30
0.0
 10
391.1675721055534
 20
25.49393389870466
 30
0.0
 10
391.38071486775
 20
25.79134586410385
 30
0.0
 10
391.6664624519149
 20
26.76695828126675
 30
0.0
 10
391.9042432438614
 20
27.58257228542799
 30
0.0
 10
392.068883604497
 20
28.10971602460051
 30
0.0
 10
392.056713369995
 20
28.40985067082352
 30
0.0
 10
392.056713369995
 20
28.40985067082352
 30
0.0
 10
392.056713369995
 20
28.40985067082352
 30
0.0
 10
392.056713369995
 20
28.40985067082352
 30
0.0
 10
391.9791690396468
 20
28.91055613773418
 30
0.0
 10
391.615639076537
 20
29.01635386089345
 30
0.0
 10
391.4079416759881
 20
29.01635386089345
 30
0.0
 10
391.2033686632698
 20
29.01635386089345
 30
0.0
 10
390.6552022574085
 20
29.05174871160303
 30
0.0
 10
390.3419600603343
 20
28.64284073476305
 30
0.0
  0
SPLINE
  5
3C74
102
{ACAD_REACTORS
330
3C64
330
3C75
102
}
330
A
100
AcDbEntity
  8
TEMPLATE
100
AcDbSpline
210
0.0
220
0.0
230
1.0
 70
    11
 71
     3
 72
    29
 73
    25
 74
     0
 42
0.000000001
 43
0.0000000001
 40
0.0
 40
0.0
 40
0.0
 40
0.0
 40
1.0
 40
1.0
 40
1.0
 40
2.0
 40
2.0
 40
2.0
 40
3.0
 40
3.0
 40
3.0
 40
4.0
 40
4.0
 40
4.0
 40
5.0
 40
5.0
 40
5.0
 40
6.0
 40
6.0
 40
6.0
 40
7.0
 40
7.0
 40
7.0
 40
8.0
 40
8.0
 40
8.0
 40
8.0
 10
389.6462927927937
 20
25.54487629838084
 30
0.0
 10
389.6447157208412
 20
25.82830290872873
 30
0.0
 10
389.7341922370948
 20
26.33186495879882
 30
0.0
 10
389.9634032795631
 20
27.00563175545052
 30
0.0
 10
390.2756040140271
 20
27.91796788002499
 30
0.0
 10
390.4628292352669
 20
28.25142932977446
 30
0.0
 10
390.6266661818889
 20
28.41374871659313
 30
0.0
 10
390.866024045788
 20
28.65010121695988
 30
0.0
 10
391.1878062362659
 20
28.66188462249246
 30
0.0
 10
391.2827281141673
 20
28.65010121695988
 30
0.0
 10
391.4178206927478
 20
28.6338841563153
 30
0.0
 10
391.6086463990114
 20
28.54546398070914
 30
0.0
 10
391.6200429755745
 20
28.24779908867604
 30
0.0
 10
391.629148334395
 20
27.99304245618328
 30
0.0
 10
391.5557400984131
 20
27.51593355641234
 30
0.0
 10
391.2987963944389
 20
26.76695828126675
 30
0.0
 10
391.0026639402465
 20
25.896622855958
 30
0.0
 10
390.824782126424
 20
25.55448751046927
 30
0.0
 10
390.6821910170501
 20
25.40537982076289
 30
0.0
 10
390.413553175767
 20
25.1258512561846
 30
0.0
 10
390.1254548617105
 20
25.15269123545324
 30
0.0
 10
390.0829334311396
 20
25.15269123545324
 30
0.0
 10
390.0277061567243
 20
25.15269123545324
 30
0.0
 10
389.6470664507327
 20
25.21261996965174
 30
0.0
 10
389.6462927927937
 20
25.54487629838084
 30
0.0
  0
MTEXT
  5
3CB5
102
{ACAD_XDICTIONARY
360
3CB7
102
}
330
A
100
AcDbEntity
  8
TEMPLATE
100
AcDbMText
 10
15.00779663219942
 20
17.57619761830519
 30
0.0
 40
4.0
 41
0.0
 46
4.0
 71
     1
 72
     1
  1
{20181206N}
  7
ＭＳ ゴシック
 73
     1
 44
1.0
1001
ACAD
1000
ACAD_MTEXT_DEFINED_HEIGHT_BEGIN
1070
    46
1040
4.0
1000
ACAD_MTEXT_DEFINED_HEIGHT_END
  0
MTEXT
  5
3E2E
330
A
100
AcDbEntity
  8
TEMPLATE
390
1D
100
AcDbMText
 10
189.8710618185924
 20
89.94490110266824
 30
0.0
 40
4.8865234375
 41
0.0
 46
5.4582466796875
 71
     1
 72
     1
  1
{FHT73-3331-EN1 ブラッシュドニッケル(サテンニッケル)}
  7
ＭＳ ゴシック
 73
     1
 44
0.7828267384257843
1001
ACAD
1000
ACAD_MTEXT_DEFINED_HEIGHT_BEGIN
1070
    46
1040
5.4582466796875
1000
ACAD_MTEXT_DEFINED_HEIGHT_END
  0
MTEXT
  5
3E2F
330
A
100
AcDbEntity
  8
TEMPLATE
390
1D
100
AcDbMText
 10
189.8710618185924
 20
98.63456833962871
 30
0.0
 40
4.8865234375
 41
0.0
 46
5.471522093371094
 71
     1
 72
     1
  1
{FHT73-3331-DL1 \H1.02322x;ブラッシュドウォームサンセット(サテンコッパー)}
  7
ＭＳ ゴシック
 73
     1
 44
0.7828267384257843
1001
ACAD
1000
ACAD_MTEXT_DEFINED_HEIGHT_BEGIN
1070
    46
1040
5.471522093371094
1000
ACAD_MTEXT_DEFINED_HEIGHT_END
  0
MTEXT
  5
3E30
330
A
100
AcDbEntity
  8
TEMPLATE
390
1D
100
AcDbMText
 10
189.8710618185924
 20
106.6000966401758
 30
0.0
 40
4.8865234375
 41
0.0
 46
5.4582466796875
 71
     1
 72
     1
  1
{FHT73-3331-DC1 スーパースチール}
  7
ＭＳ ゴシック
 73
     1
 44
0.7828267384257843
1001
ACAD
1000
ACAD_MTEXT_DEFINED_HEIGHT_BEGIN
1070
    46
1040
5.4582466796875
1000
ACAD_MTEXT_DEFINED_HEIGHT_END
  0
MTEXT
  5
3E31
330
A
100
AcDbEntity
  8
TEMPLATE
390
1D
100
AcDbMText
 10
189.8710618185924
 20
115.5311435226074
 30
0.0
 40
4.8865234375
 41
0.0
 46
5.471522093371094
 71
     1
 72
     1
  1
{FHT73-3331-DA1 \H1.02322x;ウォームサンセット(ポリッシュドコッパー)}
  7
ＭＳ ゴシック
 73
     1
 44
0.7828267384257843
1001
ACAD
1000
ACAD_MTEXT_DEFINED_HEIGHT_BEGIN
1070
    46
1040
5.471522093371094
1000
ACAD_MTEXT_DEFINED_HEIGHT_END
  0
MTEXT
  5
3E32
330
A
100
AcDbEntity
  8
TEMPLATE
390
1D
100
AcDbMText
 10
189.8710618185924
 20
123.7380514686257
 30
0.0
 40
4.8865234375
 41
0.0
 46
5.471522093371094
 71
     1
 72
     1
  1
{FHT73-3331-AL1 \H1.02322x;ブラッシュドハードグラファイト(サテンガンメタル)}
  7
ＭＳ ゴシック
 73
     1
 44
0.7828267384257843
1001
ACAD
1000
ACAD_MTEXT_DEFINED_HEIGHT_BEGIN
1070
    46
1040
5.471522093371094
1000
ACAD_MTEXT_DEFINED_HEIGHT_END
  0
MTEXT
  5
3E33
330
A
100
AcDbEntity
  8
TEMPLATE
390
1D
100
AcDbMText
 10
189.8710618185924
 20
132.4277187055862
 30
0.0
 40
4.8865234375
 41
0.0
 46
5.4582466796875
 71
     1
 72
     1
  1
{FHT73-3331-001 クローム}
  7
ＭＳ ゴシック
 73
     1
 44
0.7828267384257843
1001
ACAD
1000
ACAD_MTEXT_DEFINED_HEIGHT_BEGIN
1070
    46
1040
5.4582466796875
1000
ACAD_MTEXT_DEFINED_HEIGHT_END
  0
MTEXT
  5
3E34
330
A
100
AcDbEntity
  8
TEMPLATE
390
1D
100
AcDbMText
 10
189.8710618185924
 20
81.49661351117888
 30
0.0
 40
4.8865234375
 41
0.0
 46
5.4582466796875
 71
     1
 72
     1
  1
{FHT73-3331-GN1 ブラッシュドクールサンライズ(サテンゴールド)}
  7
ＭＳ ゴシック
 73
     1
 44
0.7828267384257843
1001
ACAD
1000
ACAD_MTEXT_DEFINED_HEIGHT_BEGIN
1070
    46
1040
5.4582466796875
1000
ACAD_MTEXT_DEFINED_HEIGHT_END
  0
DIMENSION
  5
3E3E
330
A
100
AcDbEntity
  8
DIM
100
AcDbDimension
  2
*D16
 10
140.2695950110771
 20
459.7496602253619
 30
0.0
 11
131.269595011077
 21
459.7496602253619
 31
0.0
 70
   160
 71
     5
 42
18.0
 73
     0
 74
     0
 75
     0
  3
tfrom線あり
100
AcDbAlignedDimension
 13
122.2695950110771
 23
446.6961109735182
 33
0.0
 14
140.2695950110771
 24
446.6961109735182
 34
0.0
100
AcDbRotatedDimension
1001
ACAD
1000
DSTYLE
1002
{
1070
   144
1040
1.0
1002
}
  0
LINE
  5
3E4D
330
A
100
AcDbEntity
  8
MODEL
100
AcDbLine
 10
122.2695950110771
 20
373.7274227786211
 30
0.0
 11
122.2695950110771
 21
373.8701947089211
 31
0.0
  0
LINE
  5
3E4E
330
A
100
AcDbEntity
  8
MODEL
100
AcDbLine
 10
122.2695950110771
 20
380.4733454422212
 30
0.0
 11
122.2695950110771
 21
378.1037427244212
 31
0.0
  0
LINE
  5
3E4F
330
A
100
AcDbEntity
  8
MODEL
100
AcDbLine
 10
122.2695950110771
 20
378.1037427244212
 30
0.0
 11
122.2695950110771
 21
373.8701947089211
 31
0.0
  0
LINE
  5
3E50
330
A
100
AcDbEntity
  8
MODEL
100
AcDbLine
 10
140.2695950110771
 20
373.7274227786211
 30
0.0
 11
140.2695950110771
 21
373.8701947089211
 31
0.0
  0
SPLINE
  5
3E51
330
A
100
AcDbEntity
  8
MODEL
100
AcDbSpline
210
0.0
220
0.0
230
1.0
 70
     8
 71
     3
 72
    30
 73
    26
 74
     0
 42
0.000000001
 43
0.0000000001
 40
0.0
 40
0.0
 40
0.0
 40
0.0
 40
0.1249999999999996
 40
0.1249999999999996
 40
0.1874999999999994
 40
0.1874999999999994
 40
0.2499999999999993
 40
0.2499999999999993
 40
0.3749999999999994
 40
0.3749999999999994
 40
0.4374999999999995
 40
0.4374999999999995
 40
0.4999999999999996
 40
0.4999999999999996
 40
0.6249999999999998
 40
0.6249999999999998
 40
0.7499999999999998
 40
0.7499999999999998
 40
0.8124999999999999
 40
0.8124999999999999
 40
0.8749999999999999
 40
0.8749999999999999
 40
0.9375
 40
0.9375
 40
1.0
 40
1.0
 40
1.0
 40
1.0
 10
122.2156122922083
 20
380.6978088510012
 30
0.0
 10
121.429933736474
 20
382.1849835875506
 30
0.0
 10
121.0041136227767
 20
383.9347922849723
 30
0.0
 10
121.13904777474
 20
386.6279755745483
 30
0.0
 10
121.3081069864536
 20
387.4937975163404
 30
0.0
 10
121.8497781680045
 20
389.1220763697373
 30
0.0
 10
122.2122149831067
 20
389.8643905247307
 30
0.0
 10
123.5534345703945
 20
391.9384802551056
 30
0.0
 10
124.772303506326
 20
393.0842989466863
 30
0.0
 10
126.9736009864496
 20
394.3126766652737
 30
0.0
 10
127.7837088910867
 20
394.6437835015437
 30
0.0
 10
129.4719430784154
 20
395.0899151373058
 30
0.0
 10
130.3450477597108
 20
395.2078059668967
 30
0.0
 10
133.0471219289481
 20
395.2140363096454
 30
0.0
 10
134.7898058496758
 20
394.7400946531168
 30
0.0
 10
137.758654082444
 20
393.0942886285678
 30
0.0
 10
138.976688207108
 20
391.9452762689733
 30
0.0
 10
140.3120638540335
 20
389.890983882946
 30
0.0
 10
140.6825910849845
 20
389.1372537706551
 30
0.0
 10
141.2258593711011
 20
387.5147088989867
 30
0.0
 10
141.3975986113913
 20
386.6393729575034
 30
0.0
 10
141.4904812602663
 20
384.8633245796611
 30
0.0
 10
141.4108445600745
 20
383.9603812587212
 30
0.0
 10
141.022520076688
 20
382.25116101631
 30
0.0
 10
140.7175228870892
 20
381.443489487157
 30
0.0
 10
140.3235777299699
 20
380.6978088510012
 30
0.0
  0
LINE
  5
3E52
330
A
100
AcDbEntity
  8
MODEL
100
AcDbLine
 10
140.2695950110771
 20
378.1037427244212
 30
0.0
 11
140.2695950110771
 21
380.4733454422212
 31
0.0
  0
LINE
  5
3E53
330
A
100
AcDbEntity
  8
MODEL
100
AcDbLine
 10
140.2695950110771
 20
373.8701947089211
 30
0.0
 11
140.2695950110771
 21
378.1037427244212
 31
0.0
  0
ELLIPSE
  5
3E54
330
A
100
AcDbEntity
  8
MODEL
100
AcDbEllipse
 10
140.7695950110771
 20
380.4733454422212
 30
0.0
 11
0.4423131720809031
 21
-0.2331502901643662
 31
0.0
210
0.0
220
0.0
230
1.0
 40
0.3384456906
 41
3.14159265358967
 42
3.197239581909939
  0
ELLIPSE
  5
3E55
330
A
100
AcDbEntity
  8
MODEL
100
AcDbEllipse
 10
121.7695950110771
 20
380.4733454422212
 30
0.0
 11
-0.4423131720809048
 21
-0.2331502901643662
 31
0.0
210
0.0
220
0.0
230
1.0
 40
0.3384456906
 41
3.085945725269845
 42
3.141592653589838
  0
ARC
  5
3E56
330
A
100
AcDbEntity
  8
MODEL
100
AcDbCircle
 10
140.7695950110771
 20
373.7274227786211
 30
0.0
 40
0.5000000000000004
100
AcDbArc
 50
180.0
 51
239.3168470130986
  0
ARC
  5
3E57
330
A
100
AcDbEntity
  8
MODEL
100
AcDbCircle
 10
121.7695950110771
 20
373.7274227786211
 30
0.0
 40
0.4999999999999713
100
AcDbArc
 50
300.5642589739998
 51
0.0
  0
ARC
  5
3E58
330
A
100
AcDbEntity
  8
MODEL
100
AcDbCircle
 10
140.7695950110771
 20
380.4733454422212
 30
0.0
 40
0.5000000000000001
100
AcDbArc
 50
152.2055741070014
 51
180.0
  0
ARC
  5
3E59
330
A
100
AcDbEntity
  8
MODEL
100
AcDbCircle
 10
121.7695950110771
 20
380.4733454422212
 30
0.0
 40
0.5000000000000022
100
AcDbArc
 50
0.0
 51
27.79442589299785
  0
LINE
  5
3E5A
330
A
100
AcDbEntity
  8
MODEL
100
AcDbLine
 10
140.5195950110771
 20
372.2212390296212
 30
0.0
 11
140.5195950110771
 21
376.7139108664211
 31
0.0
  0
LINE
  5
3E5B
330
A
100
AcDbEntity
  8
MODEL
100
AcDbLine
 10
140.5195950110771
 20
371.5277503151211
 30
0.0
 11
140.5195950110771
 21
372.2212390296212
 31
0.0
  0
LINE
  5
3E5C
330
A
100
AcDbEntity
  8
MODEL
100
AcDbLine
 10
140.5195950110771
 20
371.5277503151211
 30
0.0
 11
140.5195950110771
 21
371.3315379939212
 31
0.0
  0
LINE
  5
3E5D
330
A
100
AcDbEntity
  8
MODEL
100
AcDbLine
 10
122.0195950110771
 20
376.7139108664211
 30
0.0
 11
122.0195950110771
 21
372.2212390296212
 31
0.0
  0
LINE
  5
3E5E
330
A
100
AcDbEntity
  8
MODEL
100
AcDbLine
 10
122.0195950110771
 20
372.2212390296212
 30
0.0
 11
122.0195950110771
 21
371.5277503151211
 31
0.0
  0
LINE
  5
3E5F
330
A
100
AcDbEntity
  8
MODEL
100
AcDbLine
 10
122.0195950110771
 20
371.5277503151211
 30
0.0
 11
122.0195950110771
 21
371.3315379939212
 31
0.0
  0
ARC
  5
3E60
330
A
100
AcDbEntity
  8
MODEL
100
AcDbCircle
 10
140.8195950110771
 20
376.7139108664211
 30
0.0
 40
0.2999999999999999
100
AcDbArc
 50
138.2531299768957
 51
180.0
  0
ARC
  5
3E61
330
A
100
AcDbEntity
  8
MODEL
100
AcDbCircle
 10
121.7195950110771
 20
376.7139108664211
 30
0.0
 40
0.3000000000000038
100
AcDbArc
 50
0.0
 51
41.74687002310429
  0
ARC
  5
3E62
330
A
100
AcDbEntity
  8
MODEL
100
AcDbCircle
 10
131.2695950110771
 20
385.2366745027211
 30
0.0
 40
12.5
100
AcDbArc
 50
318.2531299769002
 51
221.7468700230998
  0
ARC
  5
3E63
330
A
100
AcDbEntity
  8
MODEL
100
AcDbCircle
 10
114.3456877582771
 20
372.2273476044211
 30
0.0
 40
0.9999999999999981
100
AcDbArc
 50
180.4999999999981
 51
268.0564039047001
  0
ARC
  5
3E64
330
A
100
AcDbEntity
  8
MODEL
100
AcDbCircle
 10
148.1935022638771
 20
372.2273476044211
 30
0.0
 40
1.000000000000158
100
AcDbArc
 50
271.9435960953004
 51
359.5000000000019
  0
ARC
  5
3E65
330
A
100
AcDbEntity
  8
MODEL
100
AcDbCircle
 10
131.2695950110771
 20
870.940272405121
 30
0.0
 40
499.9999999999999
100
AcDbArc
 50
268.0564039045
 51
268.9049269383
  0
ARC
  5
3E66
330
A
100
AcDbEntity
  8
MODEL
100
AcDbCircle
 10
131.2695950110771
 20
870.940272405121
 30
0.0
 40
500.0
100
AcDbArc
 50
271.0950730617
 51
271.9435960955001
  0
LINE
  5
3E67
330
A
100
AcDbEntity
  8
MODEL
100
AcDbLine
 10
112.8242431879771
 20
431.9746136826211
 30
0.0
 11
113.3457258351771
 21
372.2186210689212
 31
0.0
  0
LINE
  5
3E68
330
A
100
AcDbEntity
  8
MODEL
100
AcDbLine
 10
149.1934641869771
 20
372.2186210689212
 30
0.0
 11
149.7149468341771
 21
431.9746136826211
 31
0.0
  0
ARC
  5
3E69
330
A
100
AcDbEntity
  8
MODEL
100
AcDbCircle
 10
140.8195950110771
 20
371.3315379939212
 30
0.0
 40
0.2999999999999999
100
AcDbArc
 50
180.0
 51
271.095073061705
  0
ARC
  5
3E6A
330
A
100
AcDbEntity
  8
MODEL
100
AcDbCircle
 10
121.7195950110771
 20
371.3315379939212
 30
0.0
 40
0.3000000000000147
100
AcDbArc
 50
268.9049269383004
 51
0.0
  0
LINE
  5
3E6B
102
{ACAD_REACTORS
330
3EB9
102
}
330
A
100
AcDbEntity
  8
MODEL
100
AcDbLine
 10
106.2695950110771
 20
440.0366745027212
 30
0.0
 11
156.2695950110771
 21
440.0366745027212
 31
0.0
  0
ARC
  5
3E6C
330
A
100
AcDbEntity
  8
MODEL
100
AcDbCircle
 10
131.2695950110771
 20
931.6112833887212
 30
0.0
 40
500.0
100
AcDbArc
 50
272.1850434561
 51
272.7513978096
  0
ARC
  5
3E6D
330
A
100
AcDbEntity
  8
MODEL
100
AcDbCircle
 10
131.2695950110771
 20
931.6112833887212
 30
0.0
 40
500.0
100
AcDbArc
 50
267.248603027
 51
267.8149565439
  0
SPLINE
  5
3E6E
330
A
100
AcDbEntity
  8
MODEL
100
AcDbSpline
210
0.0
220
0.0
230
1.0
 70
     8
 71
     3
 72
    14
 73
    10
 74
     0
 42
0.000000001
 43
0.0000000001
 40
0.0
 40
0.0
 40
0.0
 40
0.0
 40
0.2432830755570687
 40
0.3597448767956425
 40
0.4720197801676991
 40
0.5858672000146847
 40
0.7095704385858473
 40
0.8482643275545448
 40
1.0
 40
1.0
 40
1.0
 40
1.0
 10
155.2708598759682
 20
432.1876763325934
 30
0.0
 10
155.4224830803819
 20
432.1927686650851
 30
0.0
 10
155.6111648090218
 20
432.2048248351629
 30
0.0
 10
155.8718665521274
 20
432.2856493323538
 30
0.0
 10
156.0375178606864
 20
432.391574246972
 30
0.0
 10
156.1637353535906
 20
432.5496616670889
 30
0.0
 10
156.2394034671464
 20
432.7510486937674
 30
0.0
 10
156.2689908885611
 20
432.9895685868175
 30
0.0
 10
156.2705233341061
 20
433.142058324019
 30
0.0
 10
156.2695950115
 20
433.236674502723
 30
0.0
  0
SPLINE
  5
3E6F
330
A
100
AcDbEntity
  8
MODEL
100
AcDbSpline
210
0.0
220
0.0
230
1.0
 70
     8
 71
     3
 72
    14
 73
    10
 74
     0
 42
0.000000001
 43
0.0000000001
 40
0.0
 40
0.0
 40
0.0
 40
0.0
 40
0.243312232909469
 40
0.3598098028291373
 40
0.4721092960935402
 40
0.5859468870495556
 40
0.7096124271005451
 40
0.8482729032158284
 40
1.0
 40
1.0
 40
1.0
 40
1.0
 10
106.2695950105577
 20
433.236674502725
 30
0.0
 10
106.2673750821921
 20
433.0849635897148
 30
0.0
 10
106.2703144066234
 20
432.8958999543971
 30
0.0
 10
106.3382440346514
 20
432.6315014759947
 30
0.0
 10
106.4358310929794
 20
432.4607799836141
 30
0.0
 10
106.5874348981474
 20
432.3268592751785
 30
0.0
 10
106.7848105579737
 20
432.2413583591633
 30
0.0
 10
107.0215654314315
 20
432.2001769240226
 30
0.0
 10
107.1737841074457
 20
432.1913019310546
 30
0.0
 10
107.2683301698672
 20
432.1876763314505
 30
0.0
  0
LINE
  5
3E70
102
{ACAD_REACTORS
330
3EB9
102
}
330
A
100
AcDbEntity
  8
MODEL
100
AcDbLine
 10
106.2695950110771
 20
440.0366745027212
 30
0.0
 11
106.2695950110771
 21
433.2166745027212
 31
0.0
  0
LINE
  5
3E71
330
A
100
AcDbEntity
  8
MODEL
100
AcDbLine
 10
156.2695950110771
 20
433.2166745027212
 30
0.0
 11
156.2695950110771
 21
440.0366745027212
 31
0.0
  0
ARC
  5
3E72
330
A
100
AcDbEntity
  8
MODEL
100
AcDbCircle
 10
112.2175534710771
 20
432.2746136826212
 30
0.0
 40
0.3000000000001055
100
AcDbArc
 50
267.8149565443994
 51
270.0
  0
ARC
  5
3E73
330
A
100
AcDbEntity
  8
MODEL
100
AcDbCircle
 10
150.3216365511771
 20
432.2746136826212
 30
0.0
 40
0.2999999999999999
100
AcDbArc
 50
270.0
 51
272.1850434555983
  0
LINE
  5
3E74
330
A
100
AcDbEntity
  8
MODEL
100
AcDbLine
 10
112.2175534710771
 20
431.9746136826211
 30
0.0
 11
150.3216365511771
 21
431.9746136826211
 31
0.0
  0
LINE
  5
3E75
330
A
100
AcDbEntity
  8
MODEL
100
AcDbLine
 10
151.2695945640771
 20
440.0366745027212
 30
0.0
 11
111.2695954580771
 21
440.0366745027212
 31
0.0
  0
LINE
  5
3E76
330
A
100
AcDbEntity
  8
MODEL
  6
CENTER
 48
0.25
100
AcDbLine
 10
122.2695950110771
 20
446.8869305446036
 30
0.0
 11
122.2695950110771
 21
433.1864184608386
 31
0.0
  0
LINE
  5
3E78
330
A
100
AcDbEntity
  8
MODEL
  6
CENTER
 48
0.25
100
AcDbLine
 10
140.2695950110768
 20
446.886930544604
 30
0.0
 11
140.2695950110773
 21
433.186418460839
 31
0.0
  0
CIRCLE
  5
3E7C
330
A
100
AcDbEntity
  8
MODEL
100
AcDbCircle
 10
131.2695950110771
 20
271.8534298726372
 30
0.0
 40
18.5
  0
LINE
  5
3E7D
330
A
100
AcDbEntity
  8
MODEL
100
AcDbLine
 10
140.5195950110771
 20
285.8541541281372
 30
0.0
 11
140.5195950110771
 21
286.6655420572372
 31
0.0
  0
LINE
  5
3E7E
330
A
100
AcDbEntity
  8
MODEL
100
AcDbLine
 10
140.5195950110771
 20
257.8527056172372
 30
0.0
 11
140.5195950110771
 21
285.8541541281372
 31
0.0
  0
LINE
  5
3E7F
330
A
100
AcDbEntity
  8
MODEL
100
AcDbLine
 10
140.5195950110771
 20
257.0413176881373
 30
0.0
 11
140.5195950110771
 21
257.8527056172372
 31
0.0
  0
LINE
  5
3E80
330
A
100
AcDbEntity
  8
MODEL
100
AcDbLine
 10
122.0195950110771
 20
286.7121701245372
 30
0.0
 11
122.0195950110771
 21
286.6655420572372
 31
0.0
  0
LINE
  5
3E81
330
A
100
AcDbEntity
  8
MODEL
100
AcDbLine
 10
122.0195950110771
 20
286.6655420572372
 30
0.0
 11
122.0195950110771
 21
285.8541541281372
 31
0.0
  0
LINE
  5
3E82
330
A
100
AcDbEntity
  8
MODEL
100
AcDbLine
 10
122.0195950110771
 20
285.8541541281372
 30
0.0
 11
122.0195950110771
 21
257.8527056172372
 31
0.0
  0
LINE
  5
3E83
330
A
100
AcDbEntity
  8
MODEL
100
AcDbLine
 10
122.0195950110771
 20
257.8527056172372
 30
0.0
 11
122.0195950110771
 21
257.0413176881373
 31
0.0
  0
LINE
  5
3E84
330
A
100
AcDbEntity
  8
MODEL
100
AcDbLine
 10
122.0195950110771
 20
257.0413176881373
 30
0.0
 11
122.0195950110771
 21
256.9607939474372
 31
0.0
  0
ARC
  5
3E85
330
A
100
AcDbEntity
  8
MODEL
100
AcDbCircle
 10
140.8195946523771
 20
286.6655143171372
 30
0.0
 40
0.300012085982
100
AcDbArc
 50
57.19121255600685
 51
179.9947020379909
  0
ARC
  5
3E86
330
A
100
AcDbEntity
  8
MODEL
100
AcDbCircle
 10
140.8195946523771
 20
257.0413454282373
 30
0.0
 40
0.3000120859819783
100
AcDbArc
 50
180.0052979620091
 51
302.8087874440036
  0
ARC
  5
3E87
330
A
100
AcDbEntity
  8
MODEL
100
AcDbCircle
 10
121.7195950110771
 20
286.7121701245372
 30
0.0
 40
0.2999999999999999
100
AcDbArc
 50
0.0
 51
90.0
  0
ARC
  5
3E88
330
A
100
AcDbEntity
  8
MODEL
100
AcDbCircle
 10
121.7195950110771
 20
286.7121701245372
 30
0.0
 40
0.2999999999999999
100
AcDbArc
 50
90.0
 51
122.2558218072059
  0
ARC
  5
3E89
330
A
100
AcDbEntity
  8
MODEL
100
AcDbCircle
 10
121.7195950110771
 20
256.9607939474372
 30
0.0
 40
0.3
100
AcDbArc
 50
238.1012963654992
 51
0.0
  0
CIRCLE
  5
3E8A
330
A
100
AcDbEntity
  8
MODEL
100
AcDbCircle
 10
131.2695950110771
 20
271.8534298726372
 30
0.0
 40
3.452443098511236
  0
LINE
  5
3E8B
330
A
100
AcDbEntity
  8
MODEL
100
AcDbLine
 10
130.7695950110771
 20
268.5789223607372
 30
0.0
 11
130.7695950110771
 21
269.0838371060372
 31
0.0
  0
LINE
  5
3E8C
330
A
100
AcDbEntity
  8
MODEL
100
AcDbLine
 10
130.7695950110771
 20
274.6230226393373
 30
0.0
 11
130.7695950110771
 21
275.1279373846372
 31
0.0
  0
LINE
  5
3E8D
330
A
100
AcDbEntity
  8
MODEL
100
AcDbLine
 10
131.7695950110771
 20
269.0838371060372
 30
0.0
 11
131.7695950110771
 21
268.5789223607372
 31
0.0
  0
LINE
  5
3E8E
330
A
100
AcDbEntity
  8
MODEL
100
AcDbLine
 10
131.7695950110771
 20
275.1279373846372
 30
0.0
 11
131.7695950110771
 21
274.6230226393373
 31
0.0
  0
LINE
  5
3E8F
330
A
100
AcDbEntity
  8
MODEL
100
AcDbLine
 10
131.7695950110771
 20
275.1279373846372
 30
0.0
 11
131.7695950110771
 21
275.1760375669372
 31
0.0
  0
LINE
  5
3E90
330
A
100
AcDbEntity
  8
MODEL
100
AcDbLine
 10
131.7695950110771
 20
274.6230226393373
 30
0.0
 11
131.7695950110771
 21
269.0838371060372
 31
0.0
  0
LINE
  5
3E91
330
A
100
AcDbEntity
  8
MODEL
100
AcDbLine
 10
130.7695950110771
 20
275.1760375669372
 30
0.0
 11
130.7695950110771
 21
275.1279373846372
 31
0.0
  0
LINE
  5
3E92
330
A
100
AcDbEntity
  8
MODEL
100
AcDbLine
 10
131.7695950110771
 20
268.5308221784372
 30
0.0
 11
131.7695950110771
 21
268.5789223607372
 31
0.0
  0
LINE
  5
3E93
330
A
100
AcDbEntity
  8
MODEL
100
AcDbLine
 10
130.7695950110771
 20
268.5789223607372
 30
0.0
 11
130.7695950110771
 21
268.5308221784372
 31
0.0
  0
LINE
  5
3E94
330
A
100
AcDbEntity
  8
MODEL
100
AcDbLine
 10
130.7695950110771
 20
269.0838371060372
 30
0.0
 11
130.7695950110771
 21
274.6230226393373
 31
0.0
  0
CIRCLE
  5
3E95
330
A
100
AcDbEntity
  8
MODEL
100
AcDbCircle
 10
131.2695943908771
 20
271.8534256417372
 30
0.0
 40
24.99562174649566
  0
ARC
  5
3E9C
330
A
100
AcDbEntity
  8
MODEL
100
AcDbCircle
 10
-171.6735839522229
 20
271.8534298726372
 30
0.0
 40
499.9086796190104
100
AcDbArc
 50
358.3941685054
 51
1.605831494600006
  0
LINE
  5
3E9D
330
A
100
AcDbEntity
  8
MODEL
100
AcDbLine
 10
267.2920747702771
 20
253.4080780495372
 30
0.0
 11
303.1412259875771
 21
253.7209288526372
 31
0.0
  0
LINE
  5
3E9E
330
A
100
AcDbEntity
  8
MODEL
100
AcDbLine
 10
301.2375021501771
 20
290.0025444389372
 30
0.0
 11
267.2920747702771
 21
290.2987816958372
 31
0.0
  0
SPLINE
  5
3E9F
330
A
100
AcDbEntity
  8
MODEL
100
AcDbSpline
210
0.0
220
0.0
230
1.0
 70
     8
 71
     3
 72
    64
 73
    60
 74
     0
 42
0.000000001
 43
0.0000000001
 40
0.0
 40
0.0
 40
0.0
 40
0.0
 40
0.0236168882362479
 40
0.0475748080322853
 40
0.0717160558319964
 40
0.0954555732878764
 40
0.1186981079045333
 40
0.1413741143938411
 40
0.1634538619411255
 40
0.1849423258661675
 40
0.2035354822776867
 40
0.2231790813757421
 40
0.2426481553140218
 40
0.2619208394298073
 40
0.2809496010669227
 40
0.2997018947203067
 40
0.3181610926494061
 40
0.3363264505722147
 40
0.3542263044771827
 40
0.3720821451854652
 40
0.3905859568959878
 40
0.4096678098961282
 40
0.4293527984147789
 40
0.449641512577808
 40
0.4705070057858324
 40
0.4918891647476287
 40
0.5137059587724327
 40
0.5360833413878154
 40
0.5593412439043478
 40
0.5829580974019577
 40
0.6068630202476993
 40
0.6309618195382437
 40
0.6551470193713929
 40
0.6792875924797999
 40
0.7030731479465874
 40
0.7266453641528319
 40
0.7499461727049187
 40
0.7729055114507143
 40
0.7954750850808
 40
0.8176289503243156
 40
0.8393689823063317
 40
0.8605237542348905
 40
0.8814759574561082
 40
0.902355259140284
 40
0.9231007910619099
 40
0.9436602664994965
 40
0.9639930762655577
 40
0.984076905358872
 40
0.9890664031759668
 40
0.9916573460745927
 40
0.9938267101161156
 40
0.9940983250191189
 40
0.9942573869485422
 40
0.9944336019530191
 40
0.9948819060596633
 40
0.996026881491702
 40
0.9974546541490982
 40
0.9997696683476199
 40
1.0
 40
1.0
 40
1.0
 40
1.0
 10
322.4059608673022
 20
286.9727549518725
 30
0.0
 10
322.2220058376585
 20
286.8706036050592
 30
0.0
 10
321.9085361058634
 20
286.6972816067279
 30
0.0
 10
321.3615110096219
 20
286.4089720939988
 30
0.0
 10
320.8053900412588
 20
286.1316225761124
 30
0.0
 10
320.2289775186917
 20
285.8625125699886
 30
0.0
 10
319.6443239980933
 20
285.6101030609383
 30
0.0
 10
319.0534586458107
 20
285.3770717331469
 30
0.0
 10
318.4594374948637
 20
285.1662769066933
 30
0.0
 10
317.8858935792464
 20
284.9859053725535
 30
0.0
 10
317.3211896904013
 20
284.8318924285924
 30
0.0
 10
316.7631092428209
 20
284.704737878829
 30
0.0
 10
316.1878716097023
 20
284.5990684022801
 30
0.0
 10
315.6101492895652
 20
284.5185518039243
 30
0.0
 10
315.0332945867836
 20
284.4638105470284
 30
0.0
 10
314.460641815116
 20
284.4352794031857
 30
0.0
 10
313.895122485654
 20
284.4331637622429
 30
0.0
 10
313.3390404782272
 20
284.4572806539556
 30
0.0
 10
312.7924203204717
 20
284.5082023007631
 30
0.0
 10
312.2478225472893
 20
284.5840748740852
 30
0.0
 10
311.6987010569037
 20
284.6846278261675
 30
0.0
 10
311.1408232927677
 20
284.8106166703328
 30
0.0
 10
310.5767744689344
 20
284.9613793139993
 30
0.0
 10
310.0086597125407
 20
285.1361079954498
 30
0.0
 10
309.4393385051937
 20
285.3335092999768
 30
0.0
 10
308.8722503299841
 20
285.5516123284862
 30
0.0
 10
308.3097155338129
 20
285.7890202218654
 30
0.0
 10
307.7493416629579
 20
286.0438654611451
 30
0.0
 10
307.1938332604313
 20
286.3139622006349
 30
0.0
 10
306.6472477392917
 20
286.5961266366335
 30
0.0
 10
306.1162396606536
 20
286.8850586402392
 30
0.0
 10
305.6038356868762
 20
287.1768812648451
 30
0.0
 10
305.1132059362693
 20
287.4673874515545
 30
0.0
 10
304.6484384699733
 20
287.7513384695471
 30
0.0
 10
304.2125482697957
 20
288.0251340996986
 30
0.0
 10
303.8069432409804
 20
288.2863253777402
 30
0.0
 10
303.4318149725764
 20
288.5332614573546
 30
0.0
 10
303.0883254315914
 20
288.7637725291659
 30
0.0
 10
302.7772831272333
 20
288.9759878939294
 30
0.0
 10
302.4990545333151
 20
289.1684403856069
 30
0.0
 10
302.2541186453664
 20
289.3396351320871
 30
0.0
 10
302.0423037198926
 20
289.4888069760865
 30
0.0
 10
301.8615118042304
 20
289.617092689935
 30
0.0
 10
301.7103456271243
 20
289.725122229825
 30
0.0
 10
301.58902450004
 20
289.8124217024845
 30
0.0
 10
301.4978410681548
 20
289.8784680039794
 30
0.0
 10
301.4374965961467
 20
289.9224639271469
 30
0.0
 10
301.4136377499924
 20
289.9399428655665
 30
0.0
 10
301.4093476279199
 20
289.9431205496066
 30
0.0
 10
301.4068167020068
 20
289.9449476434098
 30
0.0
 10
301.4084631815128
 20
289.9437939298945
 30
0.0
 10
301.4036696839893
 20
289.947232420898
 30
0.0
 10
301.4009606964807
 20
289.9491365293511
 30
0.0
 10
301.3953373582555
 20
289.9529889335688
 30
0.0
 10
301.3799477797033
 20
289.9628570346404
 30
0.0
 10
301.3527805664314
 20
289.977371446074
 30
0.0
 10
301.3062110777651
 20
289.9939984764732
 30
0.0
 10
301.2642030486286
 20
290.0045441997808
 30
0.0
 10
301.2397375143232
 20
290.0018515180678
 30
0.0
 10
301.2371674916848
 20
290.0015660151232
 30
0.0
  0
SPLINE
  5
3EA0
330
A
100
AcDbEntity
  8
MODEL
100
AcDbSpline
210
0.0
220
0.0
230
1.0
 70
     8
 71
     3
 72
     8
 73
     4
 74
     0
 42
0.000000001
 43
0.0000000001
 40
0.0
 40
0.0
 40
0.0
 40
0.0
 40
0.0087956619758144
 40
0.0087956619758144
 40
0.0087956619758144
 40
0.0087956619758144
 10
322.4056296563375
 20
286.9727505320769
 30
0.0
 10
322.3369890523456
 20
286.9345878766658
 30
0.0
 10
322.2724848155219
 20
286.8987772907656
 30
0.0
 10
322.2098145448137
 20
286.8641477139248
 30
0.0
  0
SPLINE
  5
3EA1
330
A
100
AcDbEntity
  8
MODEL
100
AcDbSpline
210
0.0
220
0.0
230
1.0
 70
     8
 71
     3
 72
    13
 73
     9
 74
     0
 42
0.000000001
 43
0.0000000001
 40
0.8821964303931753
 40
0.8821964303931753
 40
0.8821964303931753
 40
0.8821964303931753
 40
0.8984538488539187
 40
0.9190839486561055
 40
0.9395433411113104
 40
0.9597942553440377
 40
0.979803113023535
 40
0.9880951280816397
 40
0.9880951280816397
 40
0.9880951280816397
 40
0.9880951280816397
 10
301.8372561920366
 20
289.6345020155868
 30
0.0
 10
301.7954479741337
 20
289.6642958372255
 30
0.0
 10
301.7071945723793
 20
289.7273715097957
 30
0.0
 10
301.593719832284
 20
289.808983230541
 30
0.0
 10
301.5017058464614
 20
289.875599483395
 30
0.0
 10
301.439021091987
 20
289.9213026780341
 30
0.0
 10
301.4155795025373
 20
289.9384811097035
 30
0.0
 10
301.4077447013774
 20
289.944292516498
 30
0.0
 10
301.4085668297632
 20
289.9436776721966
 30
0.0
  0
ARC
  5
3EA2
330
A
100
AcDbEntity
  8
MODEL
100
AcDbCircle
 10
322.5527775864771
 20
286.7121701245372
 30
0.0
 40
0.3000000000000007
100
AcDbArc
 50
89.40563930579441
 51
119.3887316997057
  0
SPLINE
  5
3EA3
330
A
100
AcDbEntity
  8
MODEL
100
AcDbSpline
210
0.0
220
0.0
230
1.0
 70
     8
 71
     3
 72
     8
 73
     4
 74
     0
 42
0.000000001
 43
0.0000000001
 40
0.0
 40
0.0
 40
0.0
 40
0.0
 40
1.0
 40
1.0
 40
1.0
 40
1.0
 10
327.0485642343921
 20
286.9655198528923
 30
0.0
 10
324.951982926808
 20
286.9873009593305
 30
0.0
 10
323.4544246408129
 20
287.0028393136117
 30
0.0
 10
322.555889376407
 20
287.0121349157362
 30
0.0
  0
SPLINE
  5
3EA4
330
A
100
AcDbEntity
  8
MODEL
100
AcDbSpline
210
0.0
220
0.0
230
1.0
 70
     8
 71
     3
 72
    16
 73
    12
 74
     0
 42
0.000000001
 43
0.0000000001
 40
0.0
 40
0.0
 40
0.0
 40
0.0
 40
0.0674776195176967
 40
0.2076300230807879
 40
0.3323962939200241
 40
0.4533818378176353
 40
0.5702613249729056
 40
0.6836542168905766
 40
0.7945641152522172
 40
0.913378822154462
 40
1.0
 40
1.0
 40
1.0
 40
1.0
 10
328.0307595792401
 20
285.9277136152513
 30
0.0
 10
328.0289030011318
 20
285.9665129975466
 30
0.0
 10
328.0233437941093
 20
286.0682235122237
 30
0.0
 10
327.9765882008058
 20
286.2420934522127
 30
0.0
 10
327.8968286171081
 20
286.4267772533431
 30
0.0
 10
327.7926451269647
 20
286.5870273805583
 30
0.0
 10
327.6671785597395
 20
286.7223300926046
 30
0.0
 10
327.5237220192135
 20
286.8309100094036
 30
0.0
 10
327.3631299412241
 20
286.910585826539
 30
0.0
 10
327.1988551761233
 20
286.9582925493052
 30
0.0
 10
327.0982891576029
 20
286.960998643727
 30
0.0
 10
327.0484314980155
 20
286.9617841017562
 30
0.0
  0
SPLINE
  5
3EA5
330
A
100
AcDbEntity
  8
MODEL
100
AcDbSpline
210
0.0
220
0.0
230
1.0
 70
     8
 71
     3
 72
    16
 73
    12
 74
     0
 42
0.000000001
 43
0.0000000001
 40
0.0
 40
0.0
 40
0.0
 40
0.0
 40
0.1042815724612146
 40
0.2148976151579449
 40
0.3281468928093864
 40
0.4414791437183943
 40
0.5585532215876542
 40
0.6785089464509428
 40
0.8036610167117688
 40
0.932833936176413
 40
1.0
 40
1.0
 40
1.0
 40
1.0
 10
327.0485723253505
 20
256.7428257426485
 30
0.0
 10
327.1089713914116
 20
256.7456266265344
 30
0.0
 10
327.2145072261616
 20
256.751898000169
 30
0.0
 10
327.3843649544925
 20
256.8047075508126
 30
0.0
 10
327.5416887739434
 20
256.887291044033
 30
0.0
 10
327.6846749079792
 20
257.0006265479442
 30
0.0
 10
327.8075337295457
 20
257.1394863485148
 30
0.0
 10
327.9088012825061
 20
257.3028959708098
 30
0.0
 10
327.9828111537403
 20
257.4849754925596
 30
0.0
 10
328.0255087634302
 20
257.6546933545573
 30
0.0
 10
328.030236031164
 20
257.7515188254641
 30
0.0
 10
328.0318749471288
 20
257.7904281856599
 30
0.0
  0
SPLINE
  5
3EA6
330
A
100
AcDbEntity
  8
MODEL
100
AcDbSpline
210
0.0
220
0.0
230
1.0
 70
     8
 71
     3
 72
     8
 73
     4
 74
     0
 42
0.000000001
 43
0.0000000001
 40
0.0
 40
0.0
 40
0.0
 40
0.0
 40
1.0
 40
1.0
 40
1.0
 40
1.0
 10
319.2874076877306
 20
256.6608278265608
 30
0.0
 10
322.9092813486619
 20
256.6983412340091
 30
0.0
 10
325.4963333932446
 20
256.7251961769055
 30
0.0
 10
327.0485638214786
 20
256.7413926552496
 30
0.0
  0
LINE
  5
3EA7
330
A
100
AcDbEntity
  8
MODEL
100
AcDbLine
 10
319.2874061095771
 20
256.6609780710372
 30
0.0
 11
327.0485635008771
 21
256.7414075209372
 31
0.0
  0
ARC
  5
3EA8
330
A
100
AcDbEntity
  8
MODEL
100
AcDbCircle
 10
319.2842979165771
 20
256.9607939474372
 30
0.0
 40
0.3000000000000003
100
AcDbArc
 50
251.0965472916925
 51
270.5939655869026
  0
SPLINE
  5
3EA9
330
A
100
AcDbEntity
  8
MODEL
100
AcDbSpline
210
0.0
220
0.0
230
1.0
 70
     8
 71
     3
 72
    47
 73
    43
 74
     0
 42
0.000000001
 43
0.0000000001
 40
0.0169243775319553
 40
0.0169243775319553
 40
0.0169243775319553
 40
0.0169243775319553
 40
0.018164595167074
 40
0.0277653071995402
 40
0.0493810543313388
 40
0.0740146231586998
 40
0.0990706941556006
 40
0.1243606070811668
 40
0.1498371499678346
 40
0.175456724499762
 40
0.2011140529551749
 40
0.2272883594573977
 40
0.2538170105454043
 40
0.280669851822252
 40
0.3078741365938795
 40
0.3354369758810529
 40
0.3633480326749944
 40
0.3915071590843436
 40
0.4201402176673481
 40
0.4487369196659288
 40
0.4771701411530644
 40
0.5053316325720132
 40
0.533128987251238
 40
0.5604924664934835
 40
0.5873788745992535
 40
0.6137725901388583
 40
0.6396843630828374
 40
0.6651486850815567
 40
0.6901860179211269
 40
0.7142276790781381
 40
0.7380008347563625
 40
0.7618712620399225
 40
0.7857702366324966
 40
0.8096080596475346
 40
0.833319304567382
 40
0.8568833329316418
 40
0.8806258830506973
 40
0.9051466795693571
 40
0.9302953172086053
 40
0.9560361582880499
 40
0.9822987571398989
 40
1.0
 40
1.0
 40
1.0
 40
1.0
 10
303.2911899033694
 20
253.7678188865492
 30
0.0
 10
303.2912033696575
 20
253.7678274692198
 30
0.0
 10
303.291749998054
 20
253.7681756109996
 30
0.0
 10
303.2966839297126
 20
253.7712873009074
 30
0.0
 10
303.3205212645757
 20
253.7862385029433
 30
0.0
 10
303.3778030607042
 20
253.8218512298555
 30
0.0
 10
303.4680685441708
 20
253.8774788157682
 30
0.0
 10
303.5893615869048
 20
253.9515664929185
 30
0.0
 10
303.7413546715064
 20
254.0435725446025
 30
0.0
 10
303.9236895766159
 20
254.1529281613506
 30
0.0
 10
304.1364097881841
 20
254.2793108783718
 30
0.0
 10
304.3792651718442
 20
254.4215712899955
 30
0.0
 10
304.6536196026354
 20
254.5794175315263
 30
0.0
 10
304.9588278077007
 20
254.7512970048263
 30
0.0
 10
305.2947597425086
 20
254.9358893606264
 30
0.0
 10
305.6612354728638
 20
255.1317336902727
 30
0.0
 10
306.0576595496085
 20
255.3371668302757
 30
0.0
 10
306.4835731420139
 20
255.5507026243367
 30
0.0
 10
306.9373418204899
 20
255.7687581970337
 30
0.0
 10
307.4166032035027
 20
255.9876484180298
 30
0.0
 10
307.9164564463319
 20
256.2027132072274
 30
0.0
 10
308.4338356853013
 20
256.4104420296026
 30
0.0
 10
308.9656653645592
 20
256.6076103414612
 30
0.0
 10
309.5089627591536
 20
256.7913582008338
 30
0.0
 10
310.0609829956044
 20
256.9592484601611
 30
0.0
 10
310.6193227606722
 20
257.1092706115085
 30
0.0
 10
311.1819685274058
 20
257.2398348633324
 30
0.0
 10
311.7470864853406
 20
257.3495815300357
 30
0.0
 10
312.3083149477728
 20
257.4369603713482
 30
0.0
 10
312.8648550975889
 20
257.4999644686126
 30
0.0
 10
313.4176416377578
 20
257.5407302692491
 30
0.0
 10
313.9721622783303
 20
257.5600985183335
 30
0.0
 10
314.5276919991842
 20
257.5579886668377
 30
0.0
 10
315.080139157466
 20
257.5342637613743
 30
0.0
 10
315.6258093358209
 20
257.489128151567
 30
0.0
 10
316.1640062939994
 20
257.4221958113573
 30
0.0
 10
316.6998008827557
 20
257.3349134416233
 30
0.0
 10
317.2365627517306
 20
257.2276346220207
 30
0.0
 10
317.7765304940817
 20
257.1003401617186
 30
0.0
 10
318.309961142512
 20
256.9557998504935
 30
0.0
 10
318.7929575720577
 20
256.8098859163869
 30
0.0
 10
319.058886611557
 20
256.7190797875351
 30
0.0
 10
319.1850228250721
 20
256.67575402824
 30
0.0
  0
SPLINE
  5
3EAA
330
A
100
AcDbEntity
  8
MODEL
100
AcDbSpline
210
0.0
220
0.0
230
1.0
 70
     8
 71
     3
 72
    14
 73
    10
 74
     0
 42
0.000000001
 43
0.0000000001
 40
0.8473977703257682
 40
0.8473977703257682
 40
0.8473977703257682
 40
0.8473977703257682
 40
0.8559563288409922
 40
0.8798831462242794
 40
0.9045496570829359
 40
0.9297549816915976
 40
0.9555268563608752
 40
0.9818671032663039
 40
1.0
 40
1.0
 40
1.0
 40
1.0
 10
315.9703403649914
 20
257.44522333433
 30
0.0
 10
316.0346082486957
 20
257.4369183949489
 30
0.0
 10
316.2779148939273
 20
257.4037554608319
 30
0.0
 10
316.701420656339
 20
257.3349354917633
 30
0.0
 10
317.237444952194
 20
257.2279738689455
 30
0.0
 10
317.7754224847514
 20
257.1011823141069
 30
0.0
 10
318.3063638406975
 20
256.9572526771858
 30
0.0
 10
318.7895815067651
 20
256.8111035269146
 30
0.0
 10
319.0567386703297
 20
256.7198947871484
 30
0.0
 10
319.1850898601339
 20
256.675810304561
 30
0.0
  0
LINE
  5
3EAB
330
A
100
AcDbEntity
  8
MODEL
100
AcDbLine
 10
259.2300139501771
 20
296.8534298726372
 30
0.0
 11
259.2300139501771
 21
246.8534298726372
 31
0.0
  0
ARC
  5
3EAC
330
A
100
AcDbEntity
  8
MODEL
100
AcDbCircle
 10
-232.3445949358229
 20
271.8534298726372
 30
0.0
 40
500.0
100
AcDbArc
 50
2.185043456099999
 51
2.751398525600006
  0
ARC
  5
3EAD
330
A
100
AcDbEntity
  8
MODEL
100
AcDbCircle
 10
-232.3445949358229
 20
271.8534298726372
 30
0.0
 40
500.0
100
AcDbArc
 50
357.2485989627
 51
357.8149565439
  0
SPLINE
  5
3EAE
330
A
100
AcDbEntity
  8
MODEL
100
AcDbSpline
210
0.0
220
0.0
230
1.0
 70
     8
 71
     3
 72
    14
 73
    10
 74
     0
 42
0.000000001
 43
0.0000000001
 40
0.0
 40
0.0
 40
0.0
 40
0.0
 40
0.2432830427872809
 40
0.3597448323261433
 40
0.472019733032886
 40
0.5858671654130236
 40
0.7095704257143698
 40
0.8482643297627759
 40
1.0
 40
1.0
 40
1.0
 40
1.0
 10
267.0790120944347
 20
295.8546952754082
 30
0.0
 10
267.0739197627934
 20
296.0063184331015
 30
0.0
 10
267.0618635931669
 20
296.1950001049936
 30
0.0
 10
266.9810390656788
 20
296.4557017272791
 30
0.0
 10
266.8751141164043
 20
296.6213529379982
 30
0.0
 10
266.7170266774667
 20
296.747570325582
 30
0.0
 10
266.5156396669001
 20
296.8232383616916
 30
0.0
 10
266.2771198173318
 20
296.8528257504883
 30
0.0
 10
266.1246301070481
 20
296.854358194119
 30
0.0
 10
266.0300139501666
 20
296.8534298726814
 30
0.0
  0
SPLINE
  5
3EAF
330
A
100
AcDbEntity
  8
MODEL
100
AcDbSpline
210
0.0
220
0.0
230
1.0
 70
     8
 71
     3
 72
    14
 73
    10
 74
     0
 42
0.000000001
 43
0.0000000001
 40
0.0
 40
0.0
 40
0.0
 40
0.0
 40
0.2433122597952543
 40
0.3598098157829066
 40
0.4721092871872183
 40
0.5859468548548692
 40
0.7096123811118996
 40
0.8482728650970828
 40
1.0
 40
1.0
 40
1.0
 40
1.0
 10
266.0300139501762
 20
246.8534298726814
 30
0.0
 10
266.1817248404276
 20
246.8512099415442
 30
0.0
 10
266.3707884436379
 20
246.8541492649529
 30
0.0
 10
266.6351869420077
 20
246.9220788780209
 30
0.0
 10
266.8059084422094
 20
247.0196659131553
 30
0.0
 10
266.9398291663634
 20
247.17126970001
 30
0.0
 10
267.0253300914244
 20
247.3686453562032
 30
0.0
 10
267.0665115273703
 20
247.605400245212
 30
0.0
 10
267.0753865209569
 20
247.7576189264502
 30
0.0
 10
267.0790121199185
 20
247.85216500023
 30
0.0
  0
LINE
  5
3EB0
330
A
100
AcDbEntity
  8
MODEL
100
AcDbLine
 10
259.2300139501771
 20
246.8534298726372
 30
0.0
 11
266.0500139501771
 21
246.8534298726372
 31
0.0
  0
LINE
  5
3EB1
330
A
100
AcDbEntity
  8
MODEL
100
AcDbLine
 10
266.0500139501771
 20
296.8534298726372
 30
0.0
 11
259.2300139501771
 21
296.8534298726372
 31
0.0
  0
ARC
  5
3EB2
330
A
100
AcDbEntity
  8
MODEL
100
AcDbCircle
 10
266.9920747702771
 20
252.8013883326372
 30
0.0
 40
0.3000000000001055
100
AcDbArc
 50
357.8149565443967
 51
0.0
  0
ARC
  5
3EB3
330
A
100
AcDbEntity
  8
MODEL
100
AcDbCircle
 10
266.9920747702771
 20
290.9054714127373
 30
0.0
 40
0.2999999999999999
100
AcDbArc
 50
0.0
 51
2.185043455592875
  0
LINE
  5
3EB4
330
A
100
AcDbEntity
  8
MODEL
100
AcDbLine
 10
267.2920747702771
 20
252.8013883326372
 30
0.0
 11
267.2920747702771
 21
290.9054714127373
 31
0.0
  0
LINE
  5
3EB6
330
A
100
AcDbEntity
  8
MODEL
100
AcDbLine
 10
259.2300139501771
 20
291.8534294256372
 30
0.0
 11
259.2300139501771
 21
251.8534303197372
 31
0.0
  0
DIMENSION
  5
3EB7
102
{ACAD_REACTORS
330
3EB9
102
}
102
{ACAD_XDICTIONARY
360
3EB8
102
}
330
A
100
AcDbEntity
  8
DIM
100
AcDbDimension
  2
*D17
 10
156.2695950110771
 20
475.9084826599225
 30
0.0
 11
131.2695950110771
 21
481.4084826599225
 31
0.0
 70
    32
 71
     5
 42
50.0
 73
     0
 74
     0
 75
     0
  3
tfrom線あり
100
AcDbAlignedDimension
 13
106.2695950110771
 23
440.0366745027212
 33
0.0
 14
156.2695950110771
 24
440.0366745027212
 34
0.0
100
AcDbRotatedDimension
1001
ACAD
1000
DSTYLE
1002
{
1070
     3
1000
%%c<>
1070
   144
1040
1.0
1002
}
  0
DIMENSION
  5
3EC9
330
A
100
AcDbEntity
  8
DIM
100
AcDbDimension
  2
*D18
 10
314.2300139501771
 20
220.9512321310471
 30
0.0
 11
286.7300139501771
 21
226.4512321310471
 31
0.0
 70
    32
 71
     5
 42
55.0
 73
     0
 74
     0
 75
     0
  3
tfrom線あり
100
AcDbAlignedDimension
 13
259.2300139501771
 23
246.8534298726372
 33
0.0
 14
314.2300139501771
 24
246.8534298726373
 34
0.0
100
AcDbRotatedDimension
1001
ACAD
1000
DSTYLE
1002
{
1070
   144
1040
1.0
1002
}
  0
LINE
  5
3F0A
330
A
100
AcDbEntity
  8
MODEL
  6
CENTER
 48
0.5
100
AcDbLine
 10
314.230013950177
 20
298.4944432386459
 30
0.0
 11
314.2300139501775
 21
246.8534298726373
 31
0.0
  0
LINE
  5
3F0F
330
A
100
AcDbEntity
  8
HIDDEN
100
AcDbLine
 10
301.2375021501771
 20
290.0025444389372
 30
0.0
 11
303.2911899033694
 21
253.7678188865492
 31
0.0
  0
LINE
  5
3F10
330
A
100
AcDbEntity
  8
HIDDEN
100
AcDbLine
 10
319.3908456326275
 20
257.1315319190932
 30
0.0
 11
322.5558895959797
 21
287.0121539830977
 31
0.0
  0
DIMENSION
  5
3F14
330
A
100
AcDbEntity
  8
DIM
100
AcDbDimension
  2
*D19
 10
190.532319314434
 20
440.0366745027212
 30
0.0
 11
185.032319314434
 21
405.5770314893796
 31
0.0
 70
    32
 71
     5
 42
68.91928602668321
 73
     0
 74
     0
 75
     0
  3
tfrom線あり
100
AcDbAlignedDimension
 13
154.6922695548814
 23
371.1173884760379
 33
0.0
 14
156.2695950110771
 24
440.0366745027212
 34
0.0
 50
90.0
100
AcDbRotatedDimension
1001
ACAD
1000
DSTYLE
1002
{
1070
   144
1040
1.0
1002
}
  0
VIEWPORT
  5
349
330
B
100
AcDbEntity
 67
     1
  8
0
100
AcDbViewport
 10
202.5
 20
128.5
 30
0.0
 40
486.0
 41
308.4
 68
     1
 69
     1
 12
202.5
 22
128.5
 13
0.0
 23
0.0
 14
0.5
 24
0.5
 15
0.0
 25
0.0
 16
0.0
 26
0.0
 36
1.0
 17
0.0
 27
0.0
 37
0.0
 42
50.0
 43
0.0
 44
0.0
 45
308.4
 50
0.0
 51
0.0
 72
   100
 90
   557152
  1

281
     0
 71
     1
 74
     0
110
0.0
120
0.0
130
0.0
111
1.0
121
0.0
131
0.0
112
0.0
122
1.0
132
0.0
 79
     0
146
0.0
170
     0
 61
     5
348
26C
292
     1
282
     1
141
0.0
142
0.0
 63
   256
  0
VIEWPORT
  5
34A
330
B
100
AcDbEntity
 67
     1
  8
0
100
AcDbViewport
 10
202.5
 20
128.5
 30
0.0
 40
324.0
 41
205.6
 68
     2
 69
     2
 12
986.6781359294573
 22
1427.077061889956
 13
0.0
 23
0.0
 14
0.5
 24
0.5
 15
0.0
 25
0.0
 16
0.0
 26
0.0
 36
1.0
 17
0.0
 27
0.0
 37
0.0
 42
50.0
 43
0.0
 44
0.0
 45
2890.021615685494
 50
0.0
 51
0.0
 72
   100
 90
   557152
  1

281
     0
 71
     1
 74
     0
110
0.0
120
0.0
130
0.0
111
1.0
121
0.0
131
0.0
112
0.0
122
1.0
132
0.0
 79
     0
146
0.0
170
     0
 61
     5
348
26C
292
     1
282
     1
141
0.0
142
0.0
 63
   256
  0
ENDSEC
  0
SECTION
  2
OBJECTS
  0
DICTIONARY
  5
19
330
0
100
AcDbDictionary
281
     1
  3
ACAD_COLOR
350
674
  3
ACAD_DETAILVIEWSTYLE
350
BBF
  3
ACAD_FIELDLIST
350
3BE4
  3
ACAD_GROUP
350
1A
  3
ACAD_IMAGE_VARS
350
27B
  3
ACAD_LAYOUT
350
1E
  3
ACAD_MATERIAL
350
263
  3
ACAD_MLEADERSTYLE
350
336
  3
ACAD_MLINESTYLE
350
1B
  3
ACAD_PLOTSETTINGS
350
22
  3
ACAD_PLOTSTYLENAME
350
1F
  3
ACAD_SCALELIST
350
241
  3
ACAD_SECTIONVIEWSTYLE
350
BC0
  3
ACAD_TABLESTYLE
350
278
  3
ACAD_VISUALSTYLE
350
267
  3
ACDB_RECOMPOSE_DATA
350
43D2
  3
AcDbVariableDictionary
350
330
  3
APPDATA
350
27A
  3
DimOffsetDictionary
350
E38
  0
SUN
  5
904
330
15
100
AcDbSun
 90
        1
290
     0
 63
     7
421
 16777215
 40
1.0
291
     1
 91
  2455826
 92
 54000000
292
     0
 70
     2
 71
   256
280
     1
  0
DICTIONARY
  5
2E1
330
2
100
AcDbDictionary
280
     1
281
     1
  3
ACAD_LAYERSTATES
360
2E2
  3
ACLYDICTIONARY
360
DDE
  0
DICTIONARY
  5
3D3D
330
A
100
AcDbDictionary
280
     1
281
     1
  3
ACAD_SORTENTS
360
3D3E
  0
DICTIONARY
  5
3CB7
330
3CB5
100
AcDbDictionary
280
     1
281
     1
  3
ACAD_FIELD
360
3DF3
  0
DICTIONARY
  5
3EB8
330
3EB7
100
AcDbDictionary
280
     1
281
     1
  3
ACAD_DIMASSOC
360
3EB9
  0
DICTIONARY
  5
674
102
{ACAD_REACTORS
330
19
102
}
330
19
100
AcDbDictionary
281
     1
  0
DICTIONARY
  5
BBF
102
{ACAD_REACTORS
330
19
102
}
330
19
100
AcDbDictionary
281
     1
  0
FIELDLIST
  5
3BE4
102
{ACAD_REACTORS
330
19
102
}
330
19
100
AcDbIdSet
 90
        2
330
3CB9
330
3CB6
100
AcDbFieldList
  0
DICTIONARY
  5
1A
102
{ACAD_REACTORS
330
19
102
}
330
19
100
AcDbDictionary
281
     1
  3
*A1
350
3C75
  0
RASTERVARIABLES
  5
27B
102
{ACAD_REACTORS
330
19
102
}
330
19
100
AcDbRasterVariables
 90
        0
 70
     1
 71
     1
 72
     1
  0
DICTIONARY
  5
1E
102
{ACAD_REACTORS
330
19
102
}
330
19
100
AcDbDictionary
281
     1
  3
Layout1
350
21
  3
Model
350
20
  0
DICTIONARY
  5
263
102
{ACAD_REACTORS
330
19
102
}
330
19
100
AcDbDictionary
281
     1
  3
ByBlock
350
265
  3
ByLayer
350
264
  3
Global
350
266
  0
DICTIONARY
  5
336
102
{ACAD_REACTORS
330
19
102
}
330
19
100
AcDbDictionary
281
     1
  3
Standard
350
D59
  0
DICTIONARY
  5
1B
102
{ACAD_REACTORS
330
19
102
}
330
19
100
AcDbDictionary
281
     1
  3
Standard
350
1C
  0
DICTIONARY
  5
22
102
{ACAD_REACTORS
330
19
102
}
330
19
100
AcDbDictionary
281
     1
  0
ACDBDICTIONARYWDFLT
  5
1F
102
{ACAD_REACTORS
330
19
102
}
330
19
100
AcDbDictionary
281
     1
  3
Normal
350
1D
100
AcDbDictionaryWithDefault
340
1D
  0
DICTIONARY
  5
241
102
{ACAD_REACTORS
330
19
102
}
330
19
100
AcDbDictionary
281
     1
  3
A0
350
242
  3
A1
350
243
  3
A2
350
244
  3
A3
350
245
  3
A4
350
246
  3
A5
350
247
  3
A6
350
248
  3
A7
350
249
  3
A8
350
24A
  3
A9
350
24B
  3
B0
350
24C
  3
B1
350
24D
  3
B2
350
24E
  3
B3
350
24F
  3
B4
350
250
  3
B5
350
251
  3
B6
350
252
  3
B7
350
253
  3
B8
350
254
  3
B9
350
255
  3
C0
350
256
  3
C1
350
257
  3
C2
350
258
  3
C3
350
259
  3
C4
350
25A
  3
C5
350
25B
  3
C6
350
25C
  3
C7
350
25D
  3
C8
350
25E
  3
C9
350
25F
  3
D0
350
260
  3
D1
350
261
  3
D2
350
262
  0
DICTIONARY
  5
BC0
102
{ACAD_REACTORS
330
19
102
}
330
19
100
AcDbDictionary
281
     1
  0
DICTIONARY
  5
278
102
{ACAD_REACTORS
330
19
102
}
330
19
100
AcDbDictionary
281
     1
  3
Standard
350
279
  0
DICTIONARY
  5
267
102
{ACAD_REACTORS
330
19
102
}
330
19
100
AcDbDictionary
281
     1
  3
2dWireframe
350
26C
  3
3D Hidden
350
26E
  3
3dWireframe
350
26D
  3
Basic
350
26F
  3
Brighten
350
273
  3
ColorChange
350
277
  3
Conceptual
350
271
  3
Dim
350
272
  3
EdgeColorOff
350
8FE
  3
Facepattern
350
276
  3
Flat
350
268
  3
FlatWithEdges
350
269
  3
Gouraud
350
26A
  3
GouraudWithEdges
350
26B
  3
Hidden
350
8FB
  3
JitterOff
350
8FC
  3
Linepattern
350
275
  3
OverhangOff
350
8FD
  3
Realistic
350
270
  3
Shaded
350
903
  3
Shaded with edges
350
902
  3
Shades of Gray
350
8FF
  3
Sketchy
350
900
  3
Thicken
350
274
  3
Wireframe
350
8FA
  3
X-Ray
350
901
  0
XRECORD
  5
43D2
102
{ACAD_REACTORS
330
19
102
}
330
19
100
AcDbXrecord
280
     1
 90
        1
330
279
  0
DICTIONARY
  5
330
102
{ACAD_REACTORS
330
19
102
}
330
19
100
AcDbDictionary
281
     1
  3
CANNOSCALE
350
331
  3
CMLEADERSTYLE
350
D5E
  3
CTABLESTYLE
350
335
  3
HPTRANSPARENCY
350
D52
  3
XCLIPFRAME
350
896
  0
DICTIONARY
  5
27A
102
{ACAD_REACTORS
330
19
102
}
330
19
100
AcDbDictionary
281
     1
  0
DICTIONARY
  5
E38
102
{ACAD_REACTORS
330
19
102
}
330
19
100
AcDbDictionary
281
     1
  3
DIMRAILANGLE
350
246C
  3
DIMRAILFIRSTOFFSET
350
246A
  3
DIMRAILOFFSET
350
246B
  3
DIMRAILSENABLED
350
246D
  0
DICTIONARY
  5
2E2
102
{ACAD_REACTORS
330
2E1
102
}
330
2E1
100
AcDbDictionary
281
     1
  0
DICTIONARY
  5
DDE
102
{ACAD_REACTORS
330
2E1
102
}
330
2E1
100
AcDbDictionary
281
     1
1001
ACAD
1000
<All
  0
SORTENTSTABLE
  5
3D3E
102
{ACAD_REACTORS
330
3D3D
102
}
330
3D3D
100
AcDbSortentsTable
330
A
331
0
  5
3C1E
331
3C64
  5
3C1F
331
3C65
  5
3C63
331
3C70
  5
3C64
331
3C71
  5
3C65
331
3C72
  5
3C70
331
3C73
  5
3C71
331
3C74
  5
3C72
331
3CB5
  5
3C92
  0
DICTIONARY
  5
3DF3
102
{ACAD_REACTORS
330
3CB7
102
}
330
3CB7
100
AcDbDictionary
280
     1
281
     1
  3
TEXT
360
3CB6
  0
DIMASSOC
  5
3EB9
102
{ACAD_REACTORS
330
3EB8
102
}
330
3EB8
100
AcDbDimAssoc
330
3EB7
 90
        3
 70
     0
 71
     1
  1
AcDbOsnapPointRef
 72
    13
331
3E70
 73
     0
 91
        0
 40
0.0
 10
0.0
 20
0.0
 30
0.0
 75
     0
  1
AcDbOsnapPointRef
 72
     1
331
3E6B
 73
     0
 91
        0
 40
0.0
 10
0.0
 20
0.0
 30
0.0
 75
     0
  0
GROUP
  5
3C75
102
{ACAD_REACTORS
330
1A
102
}
330
1A
100
AcDbGroup
300

 70
     1
 71
     1
340
3C64
340
3C65
340
3C70
340
3C71
340
3C72
340
3C73
340
3C74
  0
LAYOUT
  5
21
102
{ACAD_REACTORS
330
1E
102
}
330
1E
100
AcDbPlotSettings
  1

  2
none_device
  4
ISO_A3_(420.00_x_297.00_MM)
  6

 40
7.5
 41
20.0
 42
7.5
 43
20.0
 44
420.0
 45
297.0
 46
0.0
 47
0.0
 48
0.0
 49
0.0
140
0.0
141
0.0
142
1.0
143
1.0
 70
     0
 72
     1
 73
     0
 74
     0
  7

 75
     0
 76
     0
 77
     2
 78
   300
147
1.0
148
0.0
149
0.0
100
AcDbLayout
  1
Layout1
 70
     0
 71
     0
 10
-7.5
 20
-20.0
 11
412.5
 21
277.0
 12
0.0
 22
0.0
 32
0.0
 14
0.0
 24
0.0
 34
0.0
 15
0.0
 25
0.0
 35
0.0
146
0.0
 13
0.0
 23
0.0
 33
0.0
 16
0.0
 26
0.0
 36
0.0
 17
0.0
 27
0.0
 37
0.0
 76
     0
330
B
331
349
  0
LAYOUT
  5
20
102
{ACAD_REACTORS
330
1E
102
}
330
1E
100
AcDbPlotSettings
  1

  2
none_device
  4
ISO_A3_(420.00_x_297.00_MM)
  6

 40
7.5
 41
20.0
 42
7.5
 43
20.0
 44
420.0
 45
297.0
 46
0.0
 47
0.0
 48
0.0
 49
0.0
140
0.0
141
0.0
142
1.0
143
1.0
 70
  1024
 72
     1
 73
     0
 74
     0
  7

 75
     0
 76
     0
 77
     2
 78
   300
147
1.0
148
0.0
149
0.0
100
AcDbLayout
  1
Model
 70
     0
 71
     1
 10
0.0
 20
0.0
 11
420.0
 21
594.0
 12
0.0
 22
0.0
 32
0.0
 14
0.0
 24
0.0
 34
-0.0000000000000071
 15
420.0
 25
594.0
 35
0.0000000000000071
146
0.0
 13
0.0
 23
0.0
 33
0.0
 16
0.0
 26
0.0
 36
0.0
 17
0.0
 27
0.0
 37
0.0
 76
     0
330
A
331
15
  0
MATERIAL
  5
265
102
{ACAD_REACTORS
330
263
102
}
330
263
100
AcDbMaterial
  1
ByBlock
 72
     1
 94
      127
  0
MATERIAL
  5
264
102
{ACAD_REACTORS
330
263
102
}
330
263
100
AcDbMaterial
  1
ByLayer
 72
     1
 94
      127
  0
MATERIAL
  5
266
102
{ACAD_REACTORS
330
263
102
}
330
263
100
AcDbMaterial
  1
Global
 72
     1
 94
      127
  0
MLEADERSTYLE
  5
D59
102
{ACAD_REACTORS
330
336
102
}
330
336
100
AcDbMLeaderStyle
170
     2
171
     1
172
     0
 90
        2
 40
0.0
 41
0.0
173
     1
 91
-1056964608
340
11
 92
       -2
290
     1
 42
2.0
291
     1
 43
8.0
  3
Standard
341
0
 44
4.0
300

342
17
174
     1
178
     6
175
     1
176
     0
 93
-1056964608
 45
4.0
292
     0
297
     0
 46
4.0
343
0
 94
-1056964608
 47
1.0
 49
1.0
140
1.0
293
     1
141
0.0
294
     1
177
     0
142
1.0
295
     0
296
     0
143
3.75
1001
ACAD_MLEADERVER
1070
     2
  0
MLINESTYLE
  5
1C
102
{ACAD_REACTORS
330
1B
102
}
330
1B
100
AcDbMlineStyle
  2
Standard
 70
     0
  3

 62
     0
 51
90.0
 52
90.0
 71
     2
 49
0.5
 62
   256
  6
BYLAYER
 49
-0.5
 62
   256
  6
BYLAYER
  0
ACDBPLACEHOLDER
  5
1D
102
{ACAD_REACTORS
330
1F
102
}
330
1F
  0
SCALE
  5
242
102
{ACAD_REACTORS
330
241
102
}
330
241
100
AcDbScale
 70
     0
300
1:1
140
1.0
141
1.0
290
     1
  0
SCALE
  5
243
102
{ACAD_REACTORS
330
241
102
}
330
241
100
AcDbScale
 70
     0
300
1:2
140
1.0
141
2.0
290
     0
  0
SCALE
  5
244
102
{ACAD_REACTORS
330
241
102
}
330
241
100
AcDbScale
 70
     0
300
1:4
140
1.0
141
4.0
290
     0
  0
SCALE
  5
245
102
{ACAD_REACTORS
330
241
102
}
330
241
100
AcDbScale
 70
     0
300
1:5
140
1.0
141
5.0
290
     0
  0
SCALE
  5
246
102
{ACAD_REACTORS
330
241
102
}
330
241
100
AcDbScale
 70
     0
300
1:8
140
1.0
141
8.0
290
     0
  0
SCALE
  5
247
102
{ACAD_REACTORS
330
241
102
}
330
241
100
AcDbScale
 70
     0
300
1:10
140
1.0
141
10.0
290
     0
  0
SCALE
  5
248
102
{ACAD_REACTORS
330
241
102
}
330
241
100
AcDbScale
 70
     0
300
1:16
140
1.0
141
16.0
290
     0
  0
SCALE
  5
249
102
{ACAD_REACTORS
330
241
102
}
330
241
100
AcDbScale
 70
     0
300
1:20
140
1.0
141
20.0
290
     0
  0
SCALE
  5
24A
102
{ACAD_REACTORS
330
241
102
}
330
241
100
AcDbScale
 70
     0
300
1:30
140
1.0
141
30.0
290
     0
  0
SCALE
  5
24B
102
{ACAD_REACTORS
330
241
102
}
330
241
100
AcDbScale
 70
     0
300
1:40
140
1.0
141
40.0
290
     0
  0
SCALE
  5
24C
102
{ACAD_REACTORS
330
241
102
}
330
241
100
AcDbScale
 70
     0
300
1:50
140
1.0
141
50.0
290
     0
  0
SCALE
  5
24D
102
{ACAD_REACTORS
330
241
102
}
330
241
100
AcDbScale
 70
     0
300
1:100
140
1.0
141
100.0
290
     0
  0
SCALE
  5
24E
102
{ACAD_REACTORS
330
241
102
}
330
241
100
AcDbScale
 70
     0
300
2:1
140
2.0
141
1.0
290
     0
  0
SCALE
  5
24F
102
{ACAD_REACTORS
330
241
102
}
330
241
100
AcDbScale
 70
     0
300
4:1
140
4.0
141
1.0
290
     0
  0
SCALE
  5
250
102
{ACAD_REACTORS
330
241
102
}
330
241
100
AcDbScale
 70
     0
300
8:1
140
8.0
141
1.0
290
     0
  0
SCALE
  5
251
102
{ACAD_REACTORS
330
241
102
}
330
241
100
AcDbScale
 70
     0
300
10:1
140
10.0
141
1.0
290
     0
  0
SCALE
  5
252
102
{ACAD_REACTORS
330
241
102
}
330
241
100
AcDbScale
 70
     0
300
100:1
140
100.0
141
1.0
290
     0
  0
SCALE
  5
253
102
{ACAD_REACTORS
330
241
102
}
330
241
100
AcDbScale
 70
     0
300
1/128" = 1'-0"
140
0.0078125
141
12.0
290
     0
  0
SCALE
  5
254
102
{ACAD_REACTORS
330
241
102
}
330
241
100
AcDbScale
 70
     0
300
1/64" = 1'-0"
140
0.015625
141
12.0
290
     0
  0
SCALE
  5
255
102
{ACAD_REACTORS
330
241
102
}
330
241
100
AcDbScale
 70
     0
300
1/32" = 1'-0"
140
0.03125
141
12.0
290
     0
  0
SCALE
  5
256
102
{ACAD_REACTORS
330
241
102
}
330
241
100
AcDbScale
 70
     0
300
1/16" = 1'-0"
140
0.0625
141
12.0
290
     0
  0
SCALE
  5
257
102
{ACAD_REACTORS
330
241
102
}
330
241
100
AcDbScale
 70
     0
300
3/32" = 1'-0"
140
0.09375
141
12.0
290
     0
  0
SCALE
  5
258
102
{ACAD_REACTORS
330
241
102
}
330
241
100
AcDbScale
 70
     0
300
1/8" = 1'-0"
140
0.125
141
12.0
290
     0
  0
SCALE
  5
259
102
{ACAD_REACTORS
330
241
102
}
330
241
100
AcDbScale
 70
     0
300
3/16" = 1'-0"
140
0.1875
141
12.0
290
     0
  0
SCALE
  5
25A
102
{ACAD_REACTORS
330
241
102
}
330
241
100
AcDbScale
 70
     0
300
1/4" = 1'-0"
140
0.25
141
12.0
290
     0
  0
SCALE
  5
25B
102
{ACAD_REACTORS
330
241
102
}
330
241
100
AcDbScale
 70
     0
300
3/8" = 1'-0"
140
0.375
141
12.0
290
     0
  0
SCALE
  5
25C
102
{ACAD_REACTORS
330
241
102
}
330
241
100
AcDbScale
 70
     0
300
1/2" = 1'-0"
140
0.5
141
12.0
290
     0
  0
SCALE
  5
25D
102
{ACAD_REACTORS
330
241
102
}
330
241
100
AcDbScale
 70
     0
300
3/4" = 1'-0"
140
0.75
141
12.0
290
     0
  0
SCALE
  5
25E
102
{ACAD_REACTORS
330
241
102
}
330
241
100
AcDbScale
 70
     0
300
1" = 1'-0"
140
1.0
141
12.0
290
     0
  0
SCALE
  5
25F
102
{ACAD_REACTORS
330
241
102
}
330
241
100
AcDbScale
 70
     0
300
1-1/2" = 1'-0"
140
1.5
141
12.0
290
     0
  0
SCALE
  5
260
102
{ACAD_REACTORS
330
241
102
}
330
241
100
AcDbScale
 70
     0
300
3" = 1'-0"
140
3.0
141
12.0
290
     0
  0
SCALE
  5
261
102
{ACAD_REACTORS
330
241
102
}
330
241
100
AcDbScale
 70
     0
300
6" = 1'-0"
140
6.0
141
12.0
290
     0
  0
SCALE
  5
262
102
{ACAD_REACTORS
330
241
102
}
330
241
100
AcDbScale
 70
     0
300
1'-0" = 1'-0"
140
12.0
141
12.0
290
     0
  0
TABLESTYLE
  5
279
102
{ACAD_REACTORS
330
278
102
}
102
{ACAD_XDICTIONARY
360
43D0
102
}
330
278
100
AcDbTableStyle
  3
Standard
 70
     0
 71
     0
 40
0.06
 41
0.06
280
     0
281
     0
  7
Standard
140
4.5
170
     2
 62
     0
 63
   257
283
     0
 90
        4
 91
        0
  1

274
    -2
284
     1
 64
     0
275
    -2
285
     1
 65
     0
276
    -2
286
     1
 66
     0
277
    -2
287
     1
 67
     0
278
    -2
288
     1
 68
     0
279
    -2
289
     1
 69
     0
  7
Standard
140
6.0
170
     5
 62
     0
 63
   257
283
     0
 90
        4
 91
        0
  1

274
    -2
284
     1
 64
     0
275
    -2
285
     1
 65
     0
276
    -2
286
     1
 66
     0
277
    -2
287
     1
 67
     0
278
    -2
288
     1
 68
     0
279
    -2
289
     1
 69
     0
  7
Standard
140
4.5
170
     5
 62
     0
 63
   257
283
     0
 90
        4
 91
        0
  1

274
    -2
284
     1
 64
     0
275
    -2
285
     1
 65
     0
276
    -2
286
     1
 66
     0
277
    -2
287
     1
 67
     0
278
    -2
288
     1
 68
     0
279
    -2
289
     1
 69
     0
  0
VISUALSTYLE
  5
26C
102
{ACAD_REACTORS
330
267
102
}
330
267
100
AcDbVisualStyle
  2
2dWireframe
 70
     4
 71
     0
 72
     2
 73
     0
 90
        0
 40
-0.6
 41
-30.0
 62
     5
 63
     7
421
 16777215
 74
     1
 91
        4
 64
     7
 65
   257
 75
     1
175
     1
 42
1.0
 92
        0
 66
   257
 43
1.0
 76
     1
 77
     6
 78
     2
 67
     7
 79
     5
170
     0
171
     0
290
     0
174
     0
 93
        1
 44
0.0
173
     0
291
     0
 45
0.0
  0
VISUALSTYLE
  5
26E
102
{ACAD_REACTORS
330
267
102
}
330
267
100
AcDbVisualStyle
  2
3D Hidden
 70
     6
 71
     1
 72
     2
 73
     2
 90
        0
 40
-0.6
 41
-30.0
 62
     5
 63
     7
421
 16777215
 74
     2
 91
        2
 64
     7
 65
   257
 75
     2
175
     1
 42
40.0
 92
        0
 66
   257
 43
1.0
 76
     1
 77
     6
 78
     2
 67
     7
 79
     3
170
     0
171
     0
290
     0
174
     0
 93
        1
 44
0.0
173
     0
291
     0
 45
0.0
  0
VISUALSTYLE
  5
26D
102
{ACAD_REACTORS
330
267
102
}
330
267
100
AcDbVisualStyle
  2
3dWireframe
 70
     5
 71
     0
 72
     2
 73
     0
 90
        0
 40
-0.6
 41
-30.0
 62
     5
 63
     7
421
 16777215
 74
     1
 91
        4
 64
     7
 65
   257
 75
     1
175
     1
 42
1.0
 92
        0
 66
   257
 43
1.0
 76
     1
 77
     6
 78
     2
 67
     7
 79
     5
170
     0
171
     0
290
     0
174
     0
 93
        1
 44
0.0
173
     0
291
     0
 45
0.0
  0
VISUALSTYLE
  5
26F
102
{ACAD_REACTORS
330
267
102
}
330
267
100
AcDbVisualStyle
  2
Basic
 70
     7
 71
     1
 72
     0
 73
     1
 90
        0
 40
-0.6
 41
-30.0
 62
     5
 63
     7
421
 16777215
 74
     0
 91
        4
 64
     7
 65
   257
 75
     1
175
     1
 42
1.0
 92
        8
 66
     7
 43
1.0
 76
     1
 77
     6
 78
     2
 67
     7
 79
     5
170
     0
171
     0
290
     0
174
     0
 93
        1
 44
0.0
173
     0
291
     1
 45
0.0
  0
VISUALSTYLE
  5
273
102
{ACAD_REACTORS
330
267
102
}
330
267
100
AcDbVisualStyle
  2
Brighten
 70
    12
 71
     2
 72
     2
 73
     0
 90
        0
 40
-0.6
 41
-30.0
 62
     5
 63
     7
421
 16777215
 74
     1
 91
        4
 64
     7
 65
   257
 75
     1
175
     1
 42
1.0
 92
        8
 66
     7
 43
1.0
 76
     1
 77
     6
 78
     2
 67
     7
 79
     5
170
     0
171
     0
290
     0
174
     0
 93
        1
 44
50.0
173
     0
291
     1
 45
0.0
  0
VISUALSTYLE
  5
277
102
{ACAD_REACTORS
330
267
102
}
330
267
100
AcDbVisualStyle
  2
ColorChange
 70
    16
 71
     2
 72
     2
 73
     3
 90
        0
 40
-0.6
 41
-30.0
 62
     5
 63
     8
421
  8421504
 74
     1
 91
        4
 64
     7
 65
   257
 75
     1
175
     1
 42
1.0
 92
        8
 66
     8
424
  8421504
 43
1.0
 76
     1
 77
     6
 78
     2
 67
     7
 79
     5
170
     0
171
     0
290
     0
174
     0
 93
        1
 44
0.0
173
     0
291
     1
 45
0.0
  0
VISUALSTYLE
  5
271
102
{ACAD_REACTORS
330
267
102
}
330
267
100
AcDbVisualStyle
  2
Conceptual
 70
     9
 71
     3
 72
     2
 73
     0
 90
        0
 40
-0.6
 41
-30.0
 62
     5
 63
     7
421
 16777215
 74
     2
 91
        2
 64
     7
 65
   257
 75
     1
175
     1
 42
40.0
 92
        8
 66
     7
 43
1.0
 76
     1
 77
     6
 78
     2
 67
     7
 79
     3
170
     0
171
     0
290
     0
174
     0
 93
        1
 44
0.0
173
     0
291
     0
 45
0.0
  0
VISUALSTYLE
  5
272
102
{ACAD_REACTORS
330
267
102
}
330
267
100
AcDbVisualStyle
  2
Dim
 70
    11
 71
     2
 72
     2
 73
     0
 90
        0
 40
-0.6
 41
-30.0
 62
     5
 63
     7
421
 16777215
 74
     1
 91
        4
 64
     7
 65
   257
 75
     1
175
     1
 42
1.0
 92
        8
 66
     7
 43
1.0
 76
     1
 77
     6
 78
     2
 67
     7
 79
     5
170
     0
171
     0
290
     0
174
     0
 93
        1
 44
-50.0
173
     0
291
     1
 45
0.0
  0
VISUALSTYLE
  5
8FE
102
{ACAD_REACTORS
330
267
102
}
330
267
100
AcDbVisualStyle
  2
EdgeColorOff
 70
    22
 71
     2
 72
     2
 73
     0
 90
        0
 40
0.6
 41
30.0
 62
     5
 63
     7
421
 16777215
 74
     1
 91
        4
 64
     7
 65
   257
 75
     1
175
     1
 42
1.0
 92
        8
 66
     7
 43
1.0
 76
     1
 77
     6
 78
     2
 67
     7
 79
     5
170
     0
171
     0
290
     0
174
     0
 93
        1
 44
0.0
173
     0
291
     1
 45
0.0
  0
VISUALSTYLE
  5
276
102
{ACAD_REACTORS
330
267
102
}
330
267
100
AcDbVisualStyle
  2
Facepattern
 70
    15
 71
     2
 72
     2
 73
     0
 90
        0
 40
-0.6
 41
-30.0
 62
     5
 63
     7
421
 16777215
 74
     1
 91
        4
 64
     7
 65
   257
 75
     1
175
     1
 42
1.0
 92
        8
 66
     7
 43
1.0
 76
     1
 77
     6
 78
     2
 67
     7
 79
     5
170
     0
171
     0
290
     0
174
     0
 93
        1
 44
0.0
173
     0
291
     1
 45
0.0
  0
VISUALSTYLE
  5
268
102
{ACAD_REACTORS
330
267
102
}
330
267
100
AcDbVisualStyle
  2
Flat
 70
     0
 71
     2
 72
     1
 73
     1
 90
        2
 40
-0.6
 41
30.0
 62
     5
 63
     7
421
 16777215
 74
     0
 91
        4
 64
     7
 65
   257
 75
     1
175
     1
 42
1.0
 92
        8
 66
     7
 43
1.0
 76
     1
 77
     6
 78
     2
 67
     7
 79
     5
170
     0
171
     0
290
     0
174
     0
 93
       13
 44
0.0
173
     0
291
     1
 45
0.0
  0
VISUALSTYLE
  5
269
102
{ACAD_REACTORS
330
267
102
}
330
267
100
AcDbVisualStyle
  2
FlatWithEdges
 70
     1
 71
     2
 72
     1
 73
     1
 90
        2
 40
-0.6
 41
30.0
 62
     5
 63
     7
421
 16777215
 74
     1
 91
        4
 64
     7
 65
   257
 75
     1
175
     1
 42
1.0
 92
        0
 66
   257
 43
1.0
 76
     1
 77
     6
 78
     2
 67
     7
 79
     5
170
     0
171
     0
290
     0
174
     0
 93
       13
 44
0.0
173
     0
291
     1
 45
0.0
  0
VISUALSTYLE
  5
26A
102
{ACAD_REACTORS
330
267
102
}
330
267
100
AcDbVisualStyle
  2
Gouraud
 70
     2
 71
     2
 72
     2
 73
     1
 90
        2
 40
-0.6
 41
30.0
 62
     5
 63
     7
421
 16777215
 74
     0
 91
        4
 64
     7
 65
   257
 75
     1
175
     1
 42
1.0
 92
        0
 66
     7
 43
1.0
 76
     1
 77
     6
 78
     2
 67
     7
 79
     5
170
     0
171
     0
290
     0
174
     0
 93
       13
 44
0.0
173
     0
291
     1
 45
0.0
  0
VISUALSTYLE
  5
26B
102
{ACAD_REACTORS
330
267
102
}
330
267
100
AcDbVisualStyle
  2
GouraudWithEdges
 70
     3
 71
     2
 72
     2
 73
     1
 90
        2
 40
-0.6
 41
30.0
 62
     5
 63
     7
421
 16777215
 74
     1
 91
        4
 64
     7
 65
   257
 75
     1
175
     1
 42
1.0
 92
        0
 66
   257
 43
1.0
 76
     1
 77
     6
 78
     2
 67
     7
 79
     5
170
     0
171
     0
290
     0
174
     0
 93
       13
 44
0.0
173
     0
291
     1
 45
0.0
  0
VISUALSTYLE
  5
8FB
102
{ACAD_REACTORS
330
267
102
}
330
267
100
AcDbVisualStyle
  2
Hidden
 70
     6
 71
     1
 72
     2
 73
     2
 90
        0
 40
0.6
 41
30.0
 62
     5
 63
     7
421
 16777215
 74
     2
 91
        2
 64
     7
 65
   257
 75
     2
175
     1
 42
40.0
 92
        0
 66
   257
 43
1.0
 76
     1
 77
     6
 78
     2
 67
     7
 79
     3
170
     0
171
     0
290
     0
174
     0
 93
        1
 44
0.0
173
     0
291
     0
 45
0.0
  0
VISUALSTYLE
  5
8FC
102
{ACAD_REACTORS
330
267
102
}
330
267
100
AcDbVisualStyle
  2
JitterOff
 70
    20
 71
     2
 72
     2
 73
     0
 90
        0
 40
0.6
 41
30.0
 62
     5
 63
     7
421
 16777215
 74
     1
 91
        4
 64
     7
 65
   257
 75
     1
175
     1
 42
1.0
 92
       10
 66
     7
 43
1.0
 76
     1
 77
     6
 78
     2
 67
     7
 79
     5
170
     0
171
     0
290
     0
174
     0
 93
        1
 44
0.0
173
     0
291
     1
 45
0.0
  0
VISUALSTYLE
  5
275
102
{ACAD_REACTORS
330
267
102
}
330
267
100
AcDbVisualStyle
  2
Linepattern
 70
    14
 71
     2
 72
     2
 73
     0
 90
        0
 40
-0.6
 41
-30.0
 62
     5
 63
     7
421
 16777215
 74
     1
 91
        4
 64
     7
 65
   257
 75
     7
175
     7
 42
1.0
 92
        8
 66
     7
 43
1.0
 76
     1
 77
     6
 78
     2
 67
     7
 79
     5
170
     0
171
     0
290
     0
174
     0
 93
        1
 44
0.0
173
     0
291
     1
 45
0.0
  0
VISUALSTYLE
  5
8FD
102
{ACAD_REACTORS
330
267
102
}
330
267
100
AcDbVisualStyle
  2
OverhangOff
 70
    21
 71
     2
 72
     2
 73
     0
 90
        0
 40
0.6
 41
30.0
 62
     5
 63
     7
421
 16777215
 74
     1
 91
        4
 64
     7
 65
   257
 75
     1
175
     1
 42
1.0
 92
        9
 66
     7
 43
1.0
 76
     1
 77
     6
 78
     2
 67
     7
 79
     5
170
     0
171
     0
290
     0
174
     0
 93
        1
 44
0.0
173
     0
291
     1
 45
0.0
  0
VISUALSTYLE
  5
270
102
{ACAD_REACTORS
330
267
102
}
330
267
100
AcDbVisualStyle
  2
Realistic
 70
     8
 71
     2
 72
     2
 73
     0
 90
        0
 40
-0.6
 41
-30.0
 62
     5
 63
     7
421
 16777215
 74
     1
 91
        0
 64
     7
 65
   257
 75
     1
175
     1
 42
1.0
 92
        8
 66
     8
424
  7895160
 43
1.0
 76
     1
 77
     6
 78
     2
 67
     7
 79
     5
170
     0
171
     0
290
     0
174
     0
 93
       13
 44
0.0
173
     0
291
     0
 45
0.0
  0
VISUALSTYLE
  5
903
102
{ACAD_REACTORS
330
267
102
}
330
267
100
AcDbVisualStyle
  2
Shaded
 70
    27
 71
     2
 72
     2
 73
     1
 90
        2
 40
0.6
 41
30.0
 62
     5
 63
     7
421
 16777215
 74
     0
 91
        4
 64
     7
 65
   257
 75
     1
175
     1
 42
1.0
 92
        8
 66
   257
 43
1.0
 76
     1
 77
     6
 78
     2
 67
     8
425
  7895160
 79
     3
170
     0
171
     0
290
     0
174
     0
 93
        5
 44
0.0
173
     0
291
     0
 45
0.0
  0
VISUALSTYLE
  5
902
102
{ACAD_REACTORS
330
267
102
}
330
267
100
AcDbVisualStyle
  2
Shaded with edges
 70
    26
 71
     2
 72
     2
 73
     1
 90
        2
 40
0.6
 41
30.0
 62
     5
 63
     7
421
 16777215
 74
     1
 91
       10
 64
     7
 65
   257
 75
     2
175
     1
 42
1.0
 92
        8
 66
   257
 43
1.0
 76
     1
 77
     6
 78
     2
 67
     7
 79
     3
170
     0
171
     0
290
     0
174
     0
 93
        5
 44
0.0
173
     0
291
     0
 45
0.0
  0
VISUALSTYLE
  5
8FF
102
{ACAD_REACTORS
330
267
102
}
330
267
100
AcDbVisualStyle
  2
Shades of Gray
 70
    23
 71
     2
 72
     2
 73
     3
 90
        0
 40
0.6
 41
30.0
 62
     5
 63
     7
421
 16777215
 74
     2
 91
        2
 64
     7
 65
     7
 75
     1
175
     1
 42
40.0
 92
        8
 66
     7
 43
1.0
 76
     1
 77
     6
 78
     2
 67
     7
 79
     3
170
     0
171
     0
290
     0
174
     0
 93
        1
 44
0.0
173
     0
291
     0
 45
0.0
  0
VISUALSTYLE
  5
900
102
{ACAD_REACTORS
330
267
102
}
330
267
100
AcDbVisualStyle
  2
Sketchy
 70
    24
 71
     1
 72
     2
 73
     2
 90
        0
 40
0.6
 41
30.0
 62
     5
 63
     7
421
 16777215
 74
     2
 91
        2
 64
     7
 65
     7
 75
     1
175
     1
 42
40.0
 92
       11
 66
     7
 43
1.0
 76
     1
 77
     6
 78
     2
 67
     7
 79
     6
170
     0
171
     0
290
     0
174
     0
 93
        1
 44
0.0
173
     0
291
     0
 45
0.0
  0
VISUALSTYLE
  5
274
102
{ACAD_REACTORS
330
267
102
}
330
267
100
AcDbVisualStyle
  2
Thicken
 70
    13
 71
     2
 72
     2
 73
     0
 90
        0
 40
-0.6
 41
-30.0
 62
     5
 63
     7
421
 16777215
 74
     1
 91
        4
 64
     7
 65
   257
 75
     1
175
     1
 42
1.0
 92
       12
 66
     7
 43
1.0
 76
     1
 77
     6
 78
     2
 67
     7
 79
     5
170
     0
171
     0
290
     0
174
     0
 93
        1
 44
0.0
173
     0
291
     1
 45
0.0
  0
VISUALSTYLE
  5
8FA
102
{ACAD_REACTORS
330
267
102
}
330
267
100
AcDbVisualStyle
  2
Wireframe
 70
     5
 71
     0
 72
     2
 73
     0
 90
        0
 40
0.6
 41
30.0
 62
     5
 63
     7
421
 16777215
 74
     1
 91
        4
 64
     7
 65
   257
 75
     1
175
     1
 42
1.0
 92
        0
 66
   257
 43
1.0
 76
     1
 77
     6
 78
     2
 67
     7
 79
     3
170
     0
171
     0
290
     0
174
     0
 93
        1
 44
0.0
173
     0
291
     0
 45
0.0
  0
VISUALSTYLE
  5
901
102
{ACAD_REACTORS
330
267
102
}
330
267
100
AcDbVisualStyle
  2
X-Ray
 70
    25
 71
     2
 72
     2
 73
     1
 90
        1
 40
0.5
 41
30.0
 62
     5
 63
     7
421
 16777215
 74
     1
 91
        0
 64
     7
 65
   257
 75
     1
175
     1
 42
1.0
 92
        8
 66
     7
 43
1.0
 76
     1
 77
     6
 78
     2
 67
     7
 79
     3
170
     0
171
     0
290
     0
174
     0
 93
       13
 44
0.0
173
     0
291
     0
 45
0.0
  0
DICTIONARYVAR
  5
331
102
{ACAD_REACTORS
330
330
102
}
330
330
100
DictionaryVariables
280
     0
  1
1:1
  0
DICTIONARYVAR
  5
D5E
102
{ACAD_REACTORS
330
330
102
}
330
330
100
DictionaryVariables
280
     0
  1
Standard
  0
DICTIONARYVAR
  5
335
102
{ACAD_REACTORS
330
330
102
}
330
330
100
DictionaryVariables
280
     0
  1
Standard
  0
DICTIONARYVAR
  5
D52
102
{ACAD_REACTORS
330
330
102
}
330
330
100
DictionaryVariables
280
     0
  1
ByLayer
  0
DICTIONARYVAR
  5
896
102
{ACAD_REACTORS
330
330
102
}
330
330
100
DictionaryVariables
280
     0
  1
0
  0
DICTIONARYVAR
  5
246C
102
{ACAD_REACTORS
330
E38
102
}
330
E38
100
DictionaryVariables
280
     0
  1
0.261799
  0
DICTIONARYVAR
  5
246A
102
{ACAD_REACTORS
330
E38
102
}
330
E38
100
DictionaryVariables
280
     0
  1
0.400000
  0
DICTIONARYVAR
  5
246B
102
{ACAD_REACTORS
330
E38
102
}
330
E38
100
DictionaryVariables
280
     0
  1
0.250000
  0
DICTIONARYVAR
  5
246D
102
{ACAD_REACTORS
330
E38
102
}
330
E38
100
DictionaryVariables
280
     0
  1
1
  0
FIELD
  5
3CB6
102
{ACAD_REACTORS
330
3DF3
102
}
330
3DF3
100
AcDbField
  1
_text
  2
{%<\_FldIdx 0>%N}
 90
        1
360
3CB9
 97
        0
 91
       63
 92
        0
 94
       11
 95
        2
 96
        0
300

 93
        1
  6
ACFD_FIELDTEXT_CHECKSUM
 93
        2
 90
        2
140
4512.0
 94
        0
300

302

304
ACVALUE_END
  7
ACFD_FIELD_VALUE
 93
        6
 90
        4
  1
{20181206N}
 94
        0
300

302

304
ACVALUE_END
301
{20181206N}
 98
       11
  0
DICTIONARY
  5
43D0
330
279
100
AcDbDictionary
280
     1
281
     1
  3
ACAD_ROUNDTRIP_2008_TABLESTYLE_CELLSTYLEMAP
360
43D1
  0
FIELD
  5
3CB9
330
3CB6
100
AcDbField
  1
AcVar
  2
\AcVar CreateDate \f "yyyyMMdd"
 90
        0
 97
        0
 91
       63
 92
        0
 94
       11
 95
        2
 96
        0
300

 93
        1
  6
Variable
 93
        2
 90
        4
  1
CreateDate
 94
        0
300

302

304
ACVALUE_END
  7
ACFD_FIELD_VALUE
 93
        6
 90
        8
 92
       16
310
E2070C000000060002000B000F000000
 94
        0
300
yyyyMMdd
302

304
ACVALUE_END
301
20181206
 98
        8
  0
CELLSTYLEMAP
  5
43D1
102
{ACAD_REACTORS
330
43D0
102
}
330
43D0
100
AcDbCellStyleMap
 90
        3
300
CELLSTYLE
  1
TABLEFORMAT_BEGIN
 90
        5
170
     1
 91
        0
 92
    32768
 62
   257
 93
        1
300
CONTENTFORMAT
  1
CONTENTFORMAT_BEGIN
 90
        0
 91
        0
 92
        4
 93
        0
300

 40
0.0
140
1.0
 94
        5
 62
     0
340
17
144
6.0
309
CONTENTFORMAT_END
171
     1
301
MARGIN
  1
CELLMARGIN_BEGIN
 40
0.06
 40
0.06
 40
0.06
 40
0.06
 40
0.18
 40
0.18
309
CELLMARGIN_END
 94
        6
 95
        1
302
GRIDFORMAT
  1
GRIDFORMAT_BEGIN
 90
        0
 91
        1
 62
     0
 92
       -2
340
0
 93
        0
 40
0.045
309
GRIDFORMAT_END
 95
        2
302
GRIDFORMAT
  1
GRIDFORMAT_BEGIN
 90
        0
 91
        1
 62
     0
 92
       -2
340
0
 93
        0
 40
0.045
309
GRIDFORMAT_END
 95
        4
302
GRIDFORMAT
  1
GRIDFORMAT_BEGIN
 90
        0
 91
        1
 62
     0
 92
       -2
340
0
 93
        0
 40
0.045
309
GRIDFORMAT_END
 95
        8
302
GRIDFORMAT
  1
GRIDFORMAT_BEGIN
 90
        0
 91
        1
 62
     0
 92
       -2
340
0
 93
        0
 40
0.045
309
GRIDFORMAT_END
 95
       16
302
GRIDFORMAT
  1
GRIDFORMAT_BEGIN
 90
        0
 91
        1
 62
     0
 92
       -2
340
0
 93
        0
 40
0.045
309
GRIDFORMAT_END
 95
       32
302
GRIDFORMAT
  1
GRIDFORMAT_BEGIN
 90
        0
 91
        1
 62
     0
 92
       -2
340
0
 93
        0
 40
0.045
309
GRIDFORMAT_END
309
TABLEFORMAT_END
  1
CELLSTYLE_BEGIN
 90
        1
 91
        1
300
_TITLE
309
CELLSTYLE_END
300
CELLSTYLE
  1
TABLEFORMAT_BEGIN
 90
        5
170
     1
 91
        0
 92
        0
 62
   257
 93
        1
300
CONTENTFORMAT
  1
CONTENTFORMAT_BEGIN
 90
        0
 91
        0
 92
        4
 93
        0
300

 40
0.0
140
1.0
 94
        5
 62
     0
340
17
144
4.5
309
CONTENTFORMAT_END
171
     1
301
MARGIN
  1
CELLMARGIN_BEGIN
 40
0.06
 40
0.06
 40
0.06
 40
0.06
 40
0.18
 40
0.18
309
CELLMARGIN_END
 94
        6
 95
        1
302
GRIDFORMAT
  1
GRIDFORMAT_BEGIN
 90
        0
 91
        1
 62
     0
 92
       -2
340
0
 93
        0
 40
0.045
309
GRIDFORMAT_END
 95
        2
302
GRIDFORMAT
  1
GRIDFORMAT_BEGIN
 90
        0
 91
        1
 62
     0
 92
       -2
340
0
 93
        0
 40
0.045
309
GRIDFORMAT_END
 95
        4
302
GRIDFORMAT
  1
GRIDFORMAT_BEGIN
 90
        0
 91
        1
 62
     0
 92
       -2
340
0
 93
        0
 40
0.045
309
GRIDFORMAT_END
 95
        8
302
GRIDFORMAT
  1
GRIDFORMAT_BEGIN
 90
        0
 91
        1
 62
     0
 92
       -2
340
0
 93
        0
 40
0.045
309
GRIDFORMAT_END
 95
       16
302
GRIDFORMAT
  1
GRIDFORMAT_BEGIN
 90
        0
 91
        1
 62
     0
 92
       -2
340
0
 93
        0
 40
0.045
309
GRIDFORMAT_END
 95
       32
302
GRIDFORMAT
  1
GRIDFORMAT_BEGIN
 90
        0
 91
        1
 62
     0
 92
       -2
340
0
 93
        0
 40
0.045
309
GRIDFORMAT_END
309
TABLEFORMAT_END
  1
CELLSTYLE_BEGIN
 90
        2
 91
        1
300
_HEADER
309
CELLSTYLE_END
300
CELLSTYLE
  1
TABLEFORMAT_BEGIN
 90
        5
170
     1
 91
        0
 92
        0
 62
   257
 93
        1
300
CONTENTFORMAT
  1
CONTENTFORMAT_BEGIN
 90
        0
 91
        0
 92
        4
 93
        0
300

 40
0.0
140
1.0
 94
        2
 62
     0
340
17
144
4.5
309
CONTENTFORMAT_END
171
     1
301
MARGIN
  1
CELLMARGIN_BEGIN
 40
0.06
 40
0.06
 40
0.06
 40
0.06
 40
0.18
 40
0.18
309
CELLMARGIN_END
 94
        6
 95
        1
302
GRIDFORMAT
  1
GRIDFORMAT_BEGIN
 90
        0
 91
        1
 62
     0
 92
       -2
340
0
 93
        0
 40
0.045
309
GRIDFORMAT_END
 95
        2
302
GRIDFORMAT
  1
GRIDFORMAT_BEGIN
 90
        0
 91
        1
 62
     0
 92
       -2
340
0
 93
        0
 40
0.045
309
GRIDFORMAT_END
 95
        4
302
GRIDFORMAT
  1
GRIDFORMAT_BEGIN
 90
        0
 91
        1
 62
     0
 92
       -2
340
0
 93
        0
 40
0.045
309
GRIDFORMAT_END
 95
        8
302
GRIDFORMAT
  1
GRIDFORMAT_BEGIN
 90
        0
 91
        1
 62
     0
 92
       -2
340
0
 93
        0
 40
0.045
309
GRIDFORMAT_END
 95
       16
302
GRIDFORMAT
  1
GRIDFORMAT_BEGIN
 90
        0
 91
        1
 62
     0
 92
       -2
340
0
 93
        0
 40
0.045
309
GRIDFORMAT_END
 95
       32
302
GRIDFORMAT
  1
GRIDFORMAT_BEGIN
 90
        0
 91
        1
 62
     0
 92
       -2
340
0
 93
        0
 40
0.045
309
GRIDFORMAT_END
309
TABLEFORMAT_END
  1
CELLSTYLE_BEGIN
 90
        3
 91
        2
300
_DATA
309
CELLSTYLE_END
  0
ENDSEC
  0
EOF
