  0
SECTION
  2
HEADER
  9
$ACADVER
  1
AC1021
  9
$ACADMAINTVER
 70
    25
  9
$DWGCODEPAGE
  3
ANSI_932
  9
$LASTSAVEDBY
  1
howeNelson
  9
$INSBASE
 10
0.0
 20
0.0
 30
0.0
  9
$EXTMIN
 10
0.0
 20
0.0
 30
-0.0000000000000071
  9
$EXTMAX
 10
840.0
 20
1188.0
 30
0.0000000000000142
  9
$LIMMIN
 10
0.0
 20
0.0
  9
$LIMMAX
 10
840.0
 20
1188.0
  9
$ORTHOMODE
 70
     1
  9
$REGENMODE
 70
     1
  9
$FILLMODE
 70
     1
  9
$QTEXTMODE
 70
     0
  9
$MIRRTEXT
 70
     1
  9
$LTSCALE
 40
2.0
  9
$ATTMODE
 70
     1
  9
$TEXTSIZE
 40
2.5
  9
$TRACEWID
 40
1.0
  9
$TEXTSTYLE
  7
ＭＳ ゴシック
  9
$CLAYER
  8
MODEL
  9
$CELTYPE
  6
ByLayer
  9
$CECOLOR
 62
   256
  9
$CELTSCALE
 40
1.0
  9
$DISPSILH
 70
     0
  9
$DIMSCALE
 40
1.0
  9
$DIMASZ
 40
4.0
  9
$DIMEXO
 40
5.0
  9
$DIMDLI
 40
0.9999999999999999
  9
$DIMRND
 40
0.0
  9
$DIMDLE
 40
0.0
  9
$DIMEXE
 40
0.0
  9
$DIMTP
 40
0.0
  9
$DIMTM
 40
0.0
  9
$DIMTXT
 40
10.0
  9
$DIMCEN
 40
0.0
  9
$DIMTSZ
 40
0.0
  9
$DIMTOL
 70
     0
  9
$DIMLIM
 70
     0
  9
$DIMTIH
 70
     0
  9
$DIMTOH
 70
     0
  9
$DIMSE1
 70
     0
  9
$DIMSE2
 70
     0
  9
$DIMTAD
 70
     1
  9
$DIMZIN
 70
    11
  9
$DIMBLK
  1
DOT
  9
$DIMASO
 70
     1
  9
$DIMSHO
 70
     1
  9
$DIMPOST
  1
<>
  9
$DIMAPOST
  1
[]
  9
$DIMALT
 70
     0
  9
$DIMALTD
 70
     1
  9
$DIMALTF
 40
1.0
  9
$DIMLFAC
 40
1.0
  9
$DIMTOFL
 70
     0
  9
$DIMTVP
 40
0.0
  9
$DIMTIX
 70
     1
  9
$DIMSOXD
 70
     0
  9
$DIMSAH
 70
     0
  9
$DIMBLK1
  1

  9
$DIMBLK2
  1

  9
$DIMSTYLE
  2
tfrom線あり
  9
$DIMCLRD
 70
     0
  9
$DIMCLRE
 70
     0
  9
$DIMCLRT
 70
     0
  9
$DIMTFAC
 40
1.0
  9
$DIMGAP
 40
8.0
  9
$DIMJUST
 70
     0
  9
$DIMSD1
 70
     0
  9
$DIMSD2
 70
     0
  9
$DIMTOLJ
 70
     1
  9
$DIMTZIN
 70
    11
  9
$DIMALTZ
 70
    11
  9
$DIMALTTZ
 70
    11
  9
$DIMUPT
 70
     0
  9
$DIMDEC
 70
     0
  9
$DIMTDEC
 70
     1
  9
$DIMALTU
 70
     2
  9
$DIMALTTD
 70
     2
  9
$DIMTXSTY
  7
ＭＳ ゴシック
  9
$DIMAUNIT
 70
     0
  9
$DIMADEC
 70
     2
  9
$DIMALTRND
 40
0.0
  9
$DIMAZIN
 70
     0
  9
$DIMDSEP
 70
    46
  9
$DIMATFIT
 70
     0
  9
$DIMFRAC
 70
     2
  9
$DIMLDRBLK
  1
DOT
  9
$DIMLUNIT
 70
     2
  9
$DIMLWD
 70
    -2
  9
$DIMLWE
 70
    -2
  9
$DIMTMOVE
 70
     0
  9
$DIMFXL
 40
1.0
  9
$DIMFXLON
 70
     0
  9
$DIMJOGANG
 40
0.7853981633974483
  9
$DIMTFILL
 70
     0
  9
$DIMTFILLCLR
 70
     0
  9
$DIMARCSYM
 70
     0
  9
$DIMLTYPE
  6

  9
$DIMLTEX1
  6

  9
$DIMLTEX2
  6

  9
$LUNITS
 70
     2
  9
$LUPREC
 70
     0
  9
$SKETCHINC
 40
0.1
  9
$FILLETRAD
 40
0.0
  9
$AUNITS
 70
     0
  9
$AUPREC
 70
     0
  9
$MENU
  1
acad
  9
$ELEVATION
 40
0.0
  9
$PELEVATION
 40
0.0
  9
$THICKNESS
 40
0.0
  9
$LIMCHECK
 70
     0
  9
$CHAMFERA
 40
0.0
  9
$CHAMFERB
 40
0.0
  9
$CHAMFERC
 40
0.0
  9
$CHAMFERD
 40
0.0
  9
$SKPOLY
 70
     0
  9
$TDCREATE
 40
2447893.375
  9
$TDUCREATE
 40
0.0
  9
$TDUPDATE
 40
2458676.491731053
  9
$TDUUPDATE
 40
2458676.116731053
  9
$TDINDWG
 40
0.007893206
  9
$TDUSRTIMER
 40
0.0003772917
  9
$USRTIMER
 70
     1
  9
$ANGBASE
 50
0.0
  9
$ANGDIR
 70
     0
  9
$PDMODE
 70
     1
  9
$PDSIZE
 40
-2.0
  9
$PLINEWID
 40
0.0
  9
$SPLFRAME
 70
     0
  9
$SPLINETYPE
 70
     6
  9
$SPLINESEGS
 70
     8
  9
$HANDSEED
  5
5E7F
  9
$SURFTAB1
 70
     6
  9
$SURFTAB2
 70
     6
  9
$SURFTYPE
 70
     6
  9
$SURFU
 70
     6
  9
$SURFV
 70
     6
  9
$UCSBASE
  2

  9
$UCSNAME
  2

  9
$UCSORG
 10
0.0
 20
0.0
 30
0.0
  9
$UCSXDIR
 10
1.0
 20
0.0
 30
0.0
  9
$UCSYDIR
 10
0.0
 20
1.0
 30
0.0
  9
$UCSORTHOREF
  2

  9
$UCSORTHOVIEW
 70
     0
  9
$UCSORGTOP
 10
0.0
 20
0.0
 30
0.0
  9
$UCSORGBOTTOM
 10
0.0
 20
0.0
 30
0.0
  9
$UCSORGLEFT
 10
0.0
 20
0.0
 30
0.0
  9
$UCSORGRIGHT
 10
0.0
 20
0.0
 30
0.0
  9
$UCSORGFRONT
 10
0.0
 20
0.0
 30
0.0
  9
$UCSORGBACK
 10
0.0
 20
0.0
 30
0.0
  9
$PUCSBASE
  2

  9
$PUCSNAME
  2

  9
$PUCSORG
 10
0.0
 20
0.0
 30
0.0
  9
$PUCSXDIR
 10
1.0
 20
0.0
 30
0.0
  9
$PUCSYDIR
 10
0.0
 20
1.0
 30
0.0
  9
$PUCSORTHOREF
  2

  9
$PUCSORTHOVIEW
 70
     0
  9
$PUCSORGTOP
 10
0.0
 20
0.0
 30
0.0
  9
$PUCSORGBOTTOM
 10
0.0
 20
0.0
 30
0.0
  9
$PUCSORGLEFT
 10
0.0
 20
0.0
 30
0.0
  9
$PUCSORGRIGHT
 10
0.0
 20
0.0
 30
0.0
  9
$PUCSORGFRONT
 10
0.0
 20
0.0
 30
0.0
  9
$PUCSORGBACK
 10
0.0
 20
0.0
 30
0.0
  9
$USERI1
 70
     0
  9
$USERI2
 70
     0
  9
$USERI3
 70
     0
  9
$USERI4
 70
     0
  9
$USERI5
 70
     0
  9
$USERR1
 40
0.0
  9
$USERR2
 40
0.0
  9
$USERR3
 40
0.0
  9
$USERR4
 40
0.0
  9
$USERR5
 40
0.0
  9
$WORLDVIEW
 70
     1
  9
$SHADEDGE
 70
     3
  9
$SHADEDIF
 70
    70
  9
$TILEMODE
 70
     1
  9
$MAXACTVP
 70
    64
  9
$PINSBASE
 10
0.0
 20
0.0
 30
0.0
  9
$PLIMCHECK
 70
     0
  9
$PEXTMIN
 10
0.0
 20
0.0
 30
0.0
  9
$PEXTMAX
 10
0.0
 20
0.0
 30
0.0
  9
$PLIMMIN
 10
-7.5
 20
-20.0
  9
$PLIMMAX
 10
412.5
 20
277.0
  9
$UNITMODE
 70
     0
  9
$VISRETAIN
 70
     0
  9
$PLINEGEN
 70
     1
  9
$PSLTSCALE
 70
     0
  9
$TREEDEPTH
 70
  3020
  9
$CMLSTYLE
  2
Standard
  9
$CMLJUST
 70
     0
  9
$CMLSCALE
 40
1.0
  9
$PROXYGRAPHICS
 70
     0
  9
$MEASUREMENT
 70
     1
  9
$CELWEIGHT
370
    -1
  9
$ENDCAPS
280
     0
  9
$JOINSTYLE
280
     0
  9
$LWDISPLAY
290
     1
  9
$INSUNITS
 70
     4
  9
$HYPERLINKBASE
  1

  9
$STYLESHEET
  1

  9
$XEDIT
290
     1
  9
$CEPSNTYPE
380
     0
  9
$PSTYLEMODE
290
     1
  9
$FINGERPRINTGUID
  2

  9
$VERSIONGUID
  2

  9
$EXTNAMES
290
     1
  9
$PSVPSCALE
 40
0.0
  9
$OLESTARTUP
290
     0
  9
$SORTENTS
280
   127
  9
$INDEXCTL
280
     0
  9
$HIDETEXT
280
     1
  9
$XCLIPFRAME
290
     0
  9
$HALOGAP
280
     0
  9
$OBSCOLOR
 70
   257
  9
$OBSLTYPE
280
     0
  9
$INTERSECTIONDISPLAY
280
     0
  9
$INTERSECTIONCOLOR
 70
   257
  9
$DIMASSOC
280
     2
  9
$PROJECTNAME
  1

  9
$CAMERADISPLAY
290
     0
  9
$LENSLENGTH
 40
50.0
  9
$CAMERAHEIGHT
 40
0.0
  9
$STEPSPERSEC
 40
2.0
  9
$STEPSIZE
 40
6.0
  9
$3DDWFPREC
 40
2.0
  9
$PSOLWIDTH
 40
0.25
  9
$PSOLHEIGHT
 40
4.0
  9
$LOFTANG1
 40
1.570796326794897
  9
$LOFTANG2
 40
1.570796326794897
  9
$LOFTMAG1
 40
0.0
  9
$LOFTMAG2
 40
0.0
  9
$LOFTPARAM
 70
     7
  9
$LOFTNORMALS
280
     1
  9
$LATITUDE
 40
37.795
  9
$LONGITUDE
 40
-122.394
  9
$NORTHDIRECTION
 40
0.0
  9
$TIMEZONE
 70
 -8000
  9
$LIGHTGLYPHDISPLAY
280
     1
  9
$TILEMODELIGHTSYNCH
280
     1
  9
$SOLIDHIST
280
     1
  9
$SHOWHIST
280
     1
  9
$DWFFRAME
280
     2
  9
$DGNFRAME
280
     2
  9
$REALWORLDSCALE
290
     1
  9
$INTERFERECOLOR
 62
   256
  9
$CSHADOW
280
     0
  9
$SHADOWPLANELOCATION
 40
0.0
  0
ENDSEC
  0
SECTION
  2
CLASSES
  0
CLASS
  1
LWPOLYLINE
  2
AcDbPolyline
  3
ObjectDBX Classes
 90
        0
 91
        1
280
     0
281
     1
  0
CLASS
  1
IMAGE
  2
AcDbRasterImage
  3
ISM
 90
      127
 91
        5
280
     0
281
     1
  0
CLASS
  1
OLE2FRAME
  2
AcDbOle2Frame
  3
ObjectDBX Classes
 90
        0
 91
        1
280
     0
281
     1
  0
CLASS
  1
HATCH
  2
AcDbHatch
  3
ObjectDBX Classes
 90
        0
 91
        1
280
     0
281
     1
  0
CLASS
  1
DICTIONARYVAR
  2
AcDbDictionaryVar
  3
ObjectDBX Classes
 90
        0
 91
        4
280
     0
281
     0
  0
CLASS
  1
RASTERVARIABLES
  2
AcDbRasterVariables
  3
ISM
 90
        0
 91
        4
280
     0
281
     0
  0
CLASS
  1
IMAGEDEF
  2
AcDbRasterImageDef
  3
ISM
 90
        0
 91
        4
280
     0
281
     0
  0
CLASS
  1
IMAGEDEF_REACTOR
  2
AcDbRasterImageDefReactor
  3
ISM
 90
        1
 91
        4
280
     0
281
     0
  0
CLASS
  1
IDBUFFER
  2
AcDbIdBuffer
  3
ObjectDBX Classes
 90
        0
 91
        4
280
     0
281
     0
  0
CLASS
  1
SPATIAL_FILTER
  2
AcDbSpatialFilter
  3
ObjectDBX Classes
 90
        0
 91
        4
280
     0
281
     0
  0
CLASS
  1
XRECORD
  2
AcDbXrecord
  3
ObjectDBX Classes
 90
        0
 91
        1
280
     0
281
     0
  0
CLASS
  1
SORTENTSTABLE
  2
AcDbSortentsTable
  3
ObjectDBX Classes
 90
        0
 91
        4
280
     0
281
     0
  0
CLASS
  1
LAYER_INDEX
  2
AcDbLayerIndex
  3
ObjectDBX Classes
 90
        0
 91
        4
280
     0
281
     0
  0
CLASS
  1
SPATIAL_INDEX
  2
AcDbSpatialIndex
  3
AutoCAD 2000
 90
        0
 91
        4
280
     0
281
     0
  0
CLASS
  1
OBJECT_PTR
  2
CAseDLPNTableRecord
  3
ASE-LPNTableRecord
 90
        1
 91
        4
280
     0
281
     0
  0
CLASS
  1
LAYOUT
  2
AcDbLayout
  3
ObjectDBX Classes
 90
        0
 91
        1
280
     0
281
     0
  0
CLASS
  1
PLOTSETTINGS
  2
AcDbPlotSettings
  3
ObjectDBX Classes
 90
        0
 91
        4
280
     0
281
     0
  0
CLASS
  1
ACDBDICTIONARYWDFLT
  2
AcDbDictionaryWithDefault
  3
ObjectDBX Classes
 90
        0
 91
        4
280
     0
281
     0
  0
CLASS
  1
ACDBPLACEHOLDER
  2
AcDbPlaceHolder
  3
ObjectDBX Classes
 90
        0
 91
        1
280
     0
281
     0
  0
CLASS
  1
SCALE
  2
AcDbScale
  3
ObjectDBX Classes
 90
     1153
 91
        4
280
     0
281
     0
  0
CLASS
  1
MATERIAL
  2
AcDbMaterial
  3
ObjectDBX Classes
 90
     1153
 91
        4
280
     0
281
     0
  0
CLASS
  1
VISUALSTYLE
  2
AcDbVisualStyle
  3
ObjectDBX Classes
 90
     4095
 91
        4
280
     0
281
     0
  0
CLASS
  1
TABLESTYLE
  2
AcDbTableStyle
  3
ObjectDBX Classes
 90
     4095
 91
        4
280
     0
281
     0
  0
CLASS
  1
DIMASSOC
  2
AcDbDimAssoc
  3
"AcDbDimAssoc|Product Desc:     AcDim ARX App For Dimension|Company:          Autodesk, Inc.|WEB Address:      www.autodesk.com"
 90
        0
 91
        4
280
     0
281
     0
  0
CLASS
  1
CELLSTYLEMAP
  2
AcDbCellStyleMap
  3
ObjectDBX Classes
 90
     1152
 91
        4
280
     0
281
     0
  0
CLASS
  1
SUN
  2
AcDbSun
  3
SCENEOE
 90
     1153
 91
        4
280
     0
281
     0
  0
CLASS
  1
MLEADERSTYLE
  2
AcDbMLeaderStyle
  3
ACDB_MLEADERSTYLE_CLASS
 90
     4095
 91
        4
280
     0
281
     0
  0
CLASS
  1
FIELD
  2
AcDbField
  3
ObjectDBX Classes
 90
     1152
 91
        4
280
     0
281
     0
  0
CLASS
  1
FIELDLIST
  2
AcDbFieldList
  3
ObjectDBX Classes
 90
     1152
 91
        4
280
     0
281
     0
  0
ENDSEC
  0
SECTION
  2
TABLES
  0
TABLE
  2
VPORT
  5
7
330
0
100
AcDbSymbolTable
 70
     1
  0
VPORT
  5
15
330
7
100
AcDbSymbolTableRecord
100
AcDbViewportTableRecord
  2
*ACTIVE
 70
     0
 10
0.0
 20
0.0
 11
1.0
 21
1.0
 12
511.0201356708985
 22
520.401285469834
 13
0.0
 23
0.0
 14
1.0
 24
1.0
 15
0.0
 25
0.0
 16
0.0
 26
0.0
 36
1.0
 17
-91.02013567089853
 27
73.59871453016603
 37
-46.86809886248109
 40
1211.76
 41
2.310294117647059
 42
50.0
 43
0.0
 44
0.0
 50
0.0
 51
0.0
 71
    16
 72
  2000
 73
     1
 74
     1
 75
     0
 76
     0
 77
     0
 78
     0
281
     0
 65
     1
110
0.0
120
0.0
130
0.0
111
1.0
121
0.0
131
0.0
112
0.0
122
1.0
132
0.0
 79
     0
146
0.0
348
26C
 60
     3
 61
     5
292
     1
282
     1
141
0.0
142
0.0
 63
   256
361
904
  0
ENDTAB
  0
TABLE
  2
LTYPE
  5
4
330
0
100
AcDbSymbolTable
 70
     2
  0
LTYPE
  5
11
330
4
100
AcDbSymbolTableRecord
100
AcDbLinetypeTableRecord
  2
ByBlock
 70
     0
  3

 72
    65
 73
     0
 40
0.0
  0
LTYPE
  5
12
330
4
100
AcDbSymbolTableRecord
100
AcDbLinetypeTableRecord
  2
ByLayer
 70
     0
  3

 72
    65
 73
     0
 40
0.0
  0
LTYPE
  5
13
330
4
100
AcDbSymbolTableRecord
100
AcDbLinetypeTableRecord
  2
Continuous
 70
     0
  3
Solid line
 72
    65
 73
     0
 40
0.0
  0
LTYPE
  5
D6C
330
4
100
AcDbSymbolTableRecord
100
AcDbLinetypeTableRecord
  2
BORDER
 70
     0
  3
Border __  __  . __  __  . __  __  . __  __  . 
 72
    65
 73
     6
 40
44.45
 49
12.7
 74
     0
 49
-6.35
 74
     0
 49
12.7
 74
     0
 49
-6.35
 74
     0
 49
0.0
 74
     0
 49
-6.35
 74
     0
  0
ENDTAB
  0
TABLE
  2
LAYER
  5
2
102
{ACAD_XDICTIONARY
360
2E1
102
}
330
0
100
AcDbSymbolTable
 70
     7
  0
LAYER
  5
14
330
2
100
AcDbSymbolTableRecord
100
AcDbLayerTableRecord
  2
0
 70
     0
 62
     7
  6
Continuous
370
    -3
390
1D
347
266
  0
LAYER
  5
4B
330
2
100
AcDbSymbolTableRecord
100
AcDbLayerTableRecord
  2
TEMPLATE
 70
     0
 62
     7
  6
Continuous
370
    20
390
1D
347
266
  0
LAYER
  5
4C
330
2
100
AcDbSymbolTableRecord
100
AcDbLayerTableRecord
  2
DIM
 70
     0
 62
     3
  6
Continuous
370
    13
390
1D
347
266
  0
LAYER
  5
4D
330
2
100
AcDbSymbolTableRecord
100
AcDbLayerTableRecord
  2
MODEL
 70
     0
 62
     7
  6
Continuous
370
    20
390
1D
347
266
  0
LAYER
  5
D6B
330
2
100
AcDbSymbolTableRecord
100
AcDbLayerTableRecord
  2
BORDER
 70
     0
 62
     4
  6
BORDER
290
     0
370
    20
390
1D
347
266
1001
AcAecLayerStandard
1000

1000

  0
LAYER
  5
D8C
330
2
100
AcDbSymbolTableRecord
100
AcDbLayerTableRecord
  2
Defpoints
 70
     0
 62
     7
  6
Continuous
290
     0
370
    -3
390
1D
347
266
  0
LAYER
  5
3653
330
2
100
AcDbSymbolTableRecord
100
AcDbLayerTableRecord
  2
Standard
 70
     0
 62
     7
  6
Continuous
370
    -3
390
1D
347
266
  0
ENDTAB
  0
TABLE
  2
STYLE
  5
3
330
0
100
AcDbSymbolTable
 70
     2
  0
STYLE
  5
17
330
3
100
AcDbSymbolTableRecord
100
AcDbTextStyleTableRecord
  2
Standard
 70
     0
 40
0.0
 41
1.0
 50
0.0
 71
     0
 42
2.5
  3
txt
  4
BIGFONT.SHX
  0
STYLE
  5
39
330
3
100
AcDbSymbolTableRecord
100
AcDbTextStyleTableRecord
  2
ＭＳ ゴシック
 70
     0
 40
0.0
 41
1.0
 50
0.0
 71
     0
 42
2.5
  3
msgothic.ttc
  4
ＭＳ ゴシック
1001
ACAD
1000
ＭＳ ゴシック
1071
        0
  0
ENDTAB
  0
TABLE
  2
VIEW
  5
5
330
0
100
AcDbSymbolTable
 70
     0
  0
ENDTAB
  0
TABLE
  2
UCS
  5
6
330
0
100
AcDbSymbolTable
 70
     0
  0
ENDTAB
  0
TABLE
  2
APPID
  5
8
330
0
100
AcDbSymbolTable
 70
     3
  0
APPID
  5
16
330
8
100
AcDbSymbolTableRecord
100
AcDbRegAppTableRecord
  2
ACAD
 70
     0
  0
APPID
  5
7AC
330
8
100
AcDbSymbolTableRecord
100
AcDbRegAppTableRecord
  2
AcAecLayerStandard
 70
     0
  0
APPID
  5
E29
330
8
100
AcDbSymbolTableRecord
100
AcDbRegAppTableRecord
  2
ACAD_MLEADERVER
 70
     0
  0
ENDTAB
  0
TABLE
  2
DIMSTYLE
  5
9
330
0
100
AcDbSymbolTable
 70
     2
100
AcDbDimStyleTable
  0
DIMSTYLE
105
18
330
9
100
AcDbSymbolTableRecord
100
AcDbDimStyleTableRecord
  2
Standard
 70
     0
178
     0
340
17
  0
DIMSTYLE
105
57
102
{ACAD_REACTORS
330
5CC5
330
5CC6
102
}
330
9
100
AcDbSymbolTableRecord
100
AcDbDimStyleTableRecord
  2
tfrom線あり
 70
     0
  3
<>
  4
[]
 41
4.0
 42
5.0
 43
0.9999999999999999
 44
0.0
 73
     0
 74
     0
 77
     1
 78
    11
140
10.0
141
0.0
143
1.0
147
8.0
171
     1
174
     1
178
     0
179
     2
271
     0
272
     1
276
     2
284
    11
285
    11
286
    11
289
     0
340
39
341
4E
342
4E
  0
ENDTAB
  0
TABLE
  2
BLOCK_RECORD
  5
1
330
0
100
AcDbSymbolTable
 70
     4
  0
BLOCK_RECORD
  5
A
102
{ACAD_XDICTIONARY
360
3E3E
102
}
330
1
100
AcDbSymbolTableRecord
100
AcDbBlockTableRecord
  2
*MODEL_SPACE
340
20
 70
     0
280
     1
281
     0
  0
BLOCK_RECORD
  5
B
330
1
100
AcDbSymbolTableRecord
100
AcDbBlockTableRecord
  2
*PAPER_SPACE
340
21
 70
     0
280
     1
281
     0
  0
BLOCK_RECORD
  5
4E
330
1
100
AcDbSymbolTableRecord
100
AcDbBlockTableRecord
  2
_DOT
340
0
102
{BLKREFS
331
5CCD
331
5CCE
331
5CDA
331
5CDB
331
5E67
331
5E66
102
}
 70
     0
280
     1
281
     0
  0
BLOCK_RECORD
  5
5CC7
330
1
100
AcDbSymbolTableRecord
100
AcDbBlockTableRecord
  2
*D1
340
0
 70
     0
280
     1
281
     0
  0
BLOCK_RECORD
  5
5CD4
330
1
100
AcDbSymbolTableRecord
100
AcDbBlockTableRecord
  2
*D2
340
0
 70
     0
280
     1
281
     0
  0
BLOCK_RECORD
  5
5E60
330
1
100
AcDbSymbolTableRecord
100
AcDbBlockTableRecord
  2
*D3
340
0
 70
     0
280
     1
281
     0
  0
ENDTAB
  0
ENDSEC
  0
SECTION
  2
BLOCKS
  0
BLOCK
  5
D
330
A
100
AcDbEntity
  8
0
390
1D
100
AcDbBlockBegin
  2
*MODEL_SPACE
 70
     0
 10
0.0
 20
0.0
 30
0.0
  3
*MODEL_SPACE
  1
*MODEL_SPACE
  0
ENDBLK
  5
E
330
A
100
AcDbEntity
  8
0
390
1D
100
AcDbBlockEnd
  0
BLOCK
  5
F
330
B
100
AcDbEntity
 67
     1
  8
0
390
1D
100
AcDbBlockBegin
  2
*PAPER_SPACE
 70
     0
 10
0.0
 20
0.0
 30
0.0
  3
*PAPER_SPACE
  1
*PAPER_SPACE
  0
ENDBLK
  5
10
330
B
100
AcDbEntity
 67
     1
  8
0
390
1D
100
AcDbBlockEnd
  0
BLOCK
  5
3D24
330
4E
100
AcDbEntity
  8
0
390
1D
100
AcDbBlockBegin
  2
_DOT
 70
     0
 10
0.0
 20
0.0
 30
0.0
  3
_DOT
  1
_DOT
  0
POLYLINE
  5
3D26
330
4E
100
AcDbEntity
  8
0
  6
ByBlock
 62
     0
370
    -2
390
1D
100
AcDb2dPolyline
 66
     1
 10
0.0
 20
0.0
 30
0.0
 70
     1
 40
0.5
 41
0.5
  0
VERTEX
  5
3D27
330
3D26
100
AcDbEntity
  8
0
  6
ByBlock
 62
     0
370
    -2
390
1D
100
AcDbVertex
100
AcDb2dVertex
 10
-0.25
 20
0.0
 30
0.0
 42
1.0
  0
VERTEX
  5
3D28
330
3D26
100
AcDbEntity
  8
0
  6
ByBlock
 62
     0
370
    -2
390
1D
100
AcDbVertex
100
AcDb2dVertex
 10
0.25
 20
0.0
 30
0.0
 42
1.0
  0
SEQEND
  5
3D29
330
3D26
100
AcDbEntity
  8
0
390
1D
  0
LINE
  5
3D2A
330
4E
100
AcDbEntity
  8
0
  6
ByBlock
 62
     0
370
    -2
390
1D
100
AcDbLine
 10
-0.5
 20
0.0
 30
0.0
 11
-1.0
 21
0.0
 31
0.0
  0
ENDBLK
  5
3D2B
330
4E
100
AcDbEntity
  8
0
390
1D
100
AcDbBlockEnd
  0
BLOCK
  5
5CC8
330
5CC7
100
AcDbEntity
  8
0
100
AcDbBlockBegin
  2
*D1
 70
     1
 10
0.0
 20
0.0
 30
0.0
  3
*D1
  1

  0
LINE
  5
5CCA
330
5CC7
100
AcDbEntity
  8
DIM
 62
     0
370
    -2
100
AcDbLine
 10
536.730642498398
 20
940.8565610460003
 30
0.0
 11
468.537788544
 21
940.8565610460003
 31
0.0
  0
LINE
  5
5CCB
330
5CC7
100
AcDbEntity
  8
DIM
 62
     0
370
    -2
100
AcDbLine
 10
536.730642498398
 20
320.6524868960003
 30
0.0
 11
468.537788544
 21
320.6524868960003
 31
0.0
  0
LINE
  5
5CCC
330
5CC7
100
AcDbEntity
  8
DIM
 62
     0
370
    -2
100
AcDbLine
 10
468.537788544
 20
936.8565610460003
 30
0.0
 11
468.537788544
 21
324.6524868960003
 31
0.0
  0
INSERT
  5
5CCD
330
5CC7
100
AcDbEntity
  8
DIM
 62
     0
370
    -2
100
AcDbBlockReference
  2
_DOT
 10
468.537788544
 20
940.8565610460003
 30
0.0
 41
4.0
 42
4.0
 43
4.0
 50
90.0
  0
INSERT
  5
5CCE
330
5CC7
100
AcDbEntity
  8
DIM
 62
     0
370
    -2
100
AcDbBlockReference
  2
_DOT
 10
468.537788544
 20
320.6524868960003
 30
0.0
 41
4.0
 42
4.0
 43
4.0
 50
270.0
  0
MTEXT
  5
5CCF
330
5CC7
100
AcDbEntity
  8
DIM
 62
     0
100
AcDbMText
 10
455.537788544
 20
630.7545155100004
 30
0.0
 40
10.0
 41
0.0
 46
0.0
 71
     5
 72
     1
  1
\A1;920
  7
ＭＳ ゴシック
 11
0.0
 21
1.0
 31
0.0
 73
     1
 44
1.0
  0
POINT
  5
5CD0
330
5CC7
100
AcDbEntity
  8
Defpoints
 62
     0
100
AcDbPoint
 10
541.730642498398
 20
940.8565610460003
 30
0.0
  0
POINT
  5
5CD1
330
5CC7
100
AcDbEntity
  8
Defpoints
 62
     0
100
AcDbPoint
 10
541.730642498398
 20
320.6524868960003
 30
0.0
  0
POINT
  5
5CD2
330
5CC7
100
AcDbEntity
  8
Defpoints
 62
     0
100
AcDbPoint
 10
468.537788544
 20
320.6524868960003
 30
0.0
  0
ENDBLK
  5
5CC9
330
5CC7
100
AcDbEntity
  8
0
100
AcDbBlockEnd
  0
BLOCK
  5
5CD5
330
5CD4
100
AcDbEntity
  8
0
100
AcDbBlockBegin
  2
*D2
 70
     1
 10
0.0
 20
0.0
 30
0.0
  3
*D2
  1

  0
LINE
  5
5CD7
330
5CD4
100
AcDbEntity
  8
DIM
 62
     0
370
    -2
100
AcDbLine
 10
581.3882424983981
 20
293.3490404184003
 30
0.0
 11
581.3882424983981
 21
245.4564332159997
 31
0.0
  0
LINE
  5
5CD8
330
5CD4
100
AcDbEntity
  8
DIM
 62
     0
370
    -2
100
AcDbLine
 10
642.2882424983985
 20
323.4800594559997
 30
0.0
 11
642.2882424983985
 21
245.4564332159997
 31
0.0
  0
LINE
  5
5CD9
330
5CD4
100
AcDbEntity
  8
DIM
 62
     0
370
    -2
100
AcDbLine
 10
585.3882424983981
 20
245.4564332159997
 30
0.0
 11
638.2882424983985
 21
245.4564332159997
 31
0.0
  0
INSERT
  5
5CDA
330
5CD4
100
AcDbEntity
  8
DIM
 62
     0
370
    -2
100
AcDbBlockReference
  2
_DOT
 10
581.3882424983981
 20
245.4564332159997
 30
0.0
 41
4.0
 42
4.0
 43
4.0
 50
180.0
  0
INSERT
  5
5CDB
330
5CD4
100
AcDbEntity
  8
DIM
 62
     0
370
    -2
100
AcDbBlockReference
  2
_DOT
 10
642.2882424983985
 20
245.4564332159997
 30
0.0
 41
4.0
 42
4.0
 43
4.0
  0
MTEXT
  5
5CDC
330
5CD4
100
AcDbEntity
  8
DIM
 62
     0
100
AcDbMText
 10
611.8382419943986
 20
258.4564332159997
 30
0.0
 40
10.0
 41
0.0
 46
0.0
 71
     5
 72
     1
  1
\A1;\A1;61
  7
ＭＳ ゴシック
 73
     1
 44
1.0
  0
POINT
  5
5CDD
330
5CD4
100
AcDbEntity
  8
Defpoints
 62
     0
100
AcDbPoint
 10
581.3882424983981
 20
298.3490404184003
 30
0.0
  0
POINT
  5
5CDE
330
5CD4
100
AcDbEntity
  8
Defpoints
 62
     0
100
AcDbPoint
 10
642.2882424983985
 20
328.4800594559997
 30
0.0
  0
POINT
  5
5CDF
330
5CD4
100
AcDbEntity
  8
Defpoints
 62
     0
100
AcDbPoint
 10
642.2882424983985
 20
245.4564332159997
 30
0.0
  0
ENDBLK
  5
5CD6
330
5CD4
100
AcDbEntity
  8
0
100
AcDbBlockEnd
  0
BLOCK
  5
5E61
330
5E60
100
AcDbEntity
  8
0
100
AcDbBlockBegin
  2
*D3
 70
     1
 10
0.0
 20
0.0
 30
0.0
  3
*D3
  1

  0
LINE
  5
5E63
330
5E60
100
AcDbEntity
  8
MODEL
 62
     0
370
    -2
100
AcDbLine
 10
576.3882424983981
 20
959.4633072086003
 30
0.0
 11
556.5311718143992
 21
959.4633072086003
 31
0.0
  0
LINE
  5
5E64
330
5E60
100
AcDbEntity
  8
MODEL
 62
     0
370
    -2
100
AcDbLine
 10
576.3882424983981
 20
922.2498148838004
 30
0.0
 11
556.5311718143992
 21
922.2498148838004
 31
0.0
  0
LINE
  5
5E65
330
5E60
100
AcDbEntity
  8
MODEL
 62
     0
370
    -2
100
AcDbLine
 10
556.5311718143992
 20
955.4633072086003
 30
0.0
 11
556.5311718143992
 21
926.2498148838004
 31
0.0
  0
INSERT
  5
5E66
330
5E60
100
AcDbEntity
  8
MODEL
 62
     0
370
    -2
100
AcDbBlockReference
  2
_DOT
 10
556.5311718143992
 20
959.4633072086003
 30
0.0
 41
4.0
 42
4.0
 43
4.0
 50
90.0
  0
INSERT
  5
5E67
330
5E60
100
AcDbEntity
  8
MODEL
 62
     0
370
    -2
100
AcDbBlockReference
  2
_DOT
 10
556.5311718143992
 20
922.2498148838004
 30
0.0
 41
4.0
 42
4.0
 43
4.0
 50
270.0
  0
MTEXT
  5
5E68
330
5E60
100
AcDbEntity
  8
MODEL
 62
     0
100
AcDbMText
 10
543.5311718143992
 20
940.8565610462003
 30
0.0
 40
10.0
 41
0.0
 46
0.0
 71
     5
 72
     1
  1
\A1;37
  7
ＭＳ ゴシック
 11
0.0
 21
1.0
 31
0.0
 73
     1
 44
1.0
  0
POINT
  5
5E69
330
5E60
100
AcDbEntity
  8
Defpoints
 62
     0
100
AcDbPoint
 10
581.3882424983981
 20
959.4633072086003
 30
0.0
  0
POINT
  5
5E6A
330
5E60
100
AcDbEntity
  8
Defpoints
 62
     0
100
AcDbPoint
 10
581.3882424983981
 20
922.2498148838004
 30
0.0
  0
POINT
  5
5E6B
330
5E60
100
AcDbEntity
  8
Defpoints
 62
     0
100
AcDbPoint
 10
556.5311718143992
 20
922.2498148838004
 30
0.0
  0
ENDBLK
  5
5E62
330
5E60
100
AcDbEntity
  8
0
100
AcDbBlockEnd
  0
ENDSEC
  0
SECTION
  2
ENTITIES
  0
MTEXT
  5
177
330
A
100
AcDbEntity
  8
TEMPLATE
390
1D
100
AcDbMText
 10
31.6808578190923
 20
137.4927006525713
 30
0.0
 40
6.51536458333333
 41
0.0
 46
0.0
 71
     1
 72
     1
  1
品名
  7
ＭＳ ゴシック
 73
     1
 44
0.7828267384257843
  0
MTEXT
  5
178
330
A
100
AcDbEntity
  8
TEMPLATE
390
1D
100
AcDbMText
 10
31.6808578190923
 20
103.4927006525712
 30
0.0
 40
6.51536458333333
 41
0.0
 46
0.0
 71
     1
 72
     1
  1
仕様
  7
ＭＳ ゴシック
 73
     1
 44
0.7828267384257843
  0
LINE
  5
179
330
A
100
AcDbEntity
  8
TEMPLATE
390
1D
100
AcDbLine
 10
808.8808578188992
 20
106.8586694025714
 30
0.0
 11
28.8808578188995
 21
106.8586694025714
 31
0.0
  0
LWPOLYLINE
  5
17A
330
A
100
AcDbEntity
  8
TEMPLATE
390
1D
100
AcDbPolyline
 90
        5
 70
   128
 43
0.0
 10
808.8808578188992
 20
1158.858669402571
 10
28.8808578188995
 20
1158.858669402571
 10
28.8808578188995
 20
38.8586694025713
 10
808.8808578188992
 20
38.8586694025713
 10
808.8808578188992
 20
1158.858669402571
  0
LINE
  5
17B
330
A
100
AcDbEntity
  8
TEMPLATE
390
1D
100
AcDbLine
 10
808.8808578188992
 20
140.8586694025713
 30
0.0
 11
28.8808578188995
 21
140.8586694025713
 31
0.0
  0
LINE
  5
17C
330
A
100
AcDbEntity
  8
TEMPLATE
390
1D
100
AcDbLine
 10
808.8808578190929
 20
72.8586694025713
 30
0.0
 11
507.680857819092
 21
72.8586694025713
 31
0.0
  0
MTEXT
  5
17E
330
A
100
AcDbEntity
  8
TEMPLATE
390
1D
100
AcDbMText
 10
519.6294203199964
 20
60.89451161324806
 30
0.0
 40
9.773046875
 41
0.0
 46
0.0
 71
     1
 72
     1
  1
大洋金物株式会社 ティーフォルム事業部
  7
ＭＳ ゴシック
 73
     1
 44
0.7828267384257843
  0
MTEXT
  5
180
330
A
100
AcDbEntity
  8
TEMPLATE
390
1D
100
AcDbMText
 10
732.480857819196
 20
92.05971627757128
 30
0.0
 40
9.773046875
 41
0.0
 46
9.773046875
 71
     1
 72
     1
  1
{1:4}
  7
ＭＳ ゴシック
 73
     1
 44
0.7828267384257843
1001
ACAD
1000
ACAD_MTEXT_DEFINED_HEIGHT_BEGIN
1070
    46
1040
9.773046875
1000
ACAD_MTEXT_DEFINED_HEIGHT_END
  0
MTEXT
  5
181
330
A
100
AcDbEntity
  8
TEMPLATE
390
1D
100
AcDbMText
 10
711.280857819196
 20
103.4927006525712
 30
0.0
 40
6.51536458333333
 41
0.0
 46
0.0
 71
     1
 72
     1
  1
縮尺
  7
ＭＳ ゴシック
 73
     1
 44
0.7828267384257843
  0
LINE
  5
182
330
A
100
AcDbEntity
  8
TEMPLATE
390
1D
100
AcDbLine
 10
708.480857819196
 20
72.8586694025713
 30
0.0
 11
708.480857819196
 21
106.8586694025714
 31
0.0
  0
MTEXT
  5
183
330
A
100
AcDbEntity
  8
TEMPLATE
390
1D
100
AcDbMText
 10
610.880857819196
 20
103.4927006525712
 30
0.0
 40
6.51536458333333
 41
0.0
 46
0.0
 71
     1
 72
     1
  1
容量
  7
ＭＳ ゴシック
 73
     1
 44
0.7828267384257843
  0
LINE
  5
184
330
A
100
AcDbEntity
  8
TEMPLATE
390
1D
100
AcDbLine
 10
608.080857819196
 20
72.8586694025713
 30
0.0
 11
608.080857819196
 21
106.8586694025714
 31
0.0
  0
MTEXT
  5
185
330
A
100
AcDbEntity
  8
TEMPLATE
390
1D
100
AcDbMText
 10
510.480857819196
 20
137.4927006525713
 30
0.0
 40
6.51536458333333
 41
0.0
 46
0.0
 71
     1
 72
     1
  1
品番
  7
ＭＳ ゴシック
 73
     1
 44
0.7828267384257843
  0
MTEXT
  5
186
330
A
100
AcDbEntity
  8
TEMPLATE
390
1D
100
AcDbMText
 10
510.480857819196
 20
103.4927006525712
 30
0.0
 40
6.51536458333333
 41
0.0
 46
0.0
 71
     1
 72
     1
  1
重量
  7
ＭＳ ゴシック
 73
     1
 44
0.7828267384257843
  0
LINE
  5
188
330
A
100
AcDbEntity
  8
TEMPLATE
390
1D
100
AcDbLine
 10
507.680857819196
 20
38.8586694025713
 30
0.0
 11
507.680857819196
 21
140.8586694025713
 31
0.0
  0
LWPOLYLINE
  5
D69
330
A
100
AcDbEntity
  8
BORDER
100
AcDbPolyline
 90
        4
 70
     1
 43
0.0
 10
0.0
 20
0.0
 10
0.0
 20
1188.0
 10
840.0
 20
1188.0
 10
840.0
 20
0.0
  0
HATCH
  5
3CE3
102
{ACAD_REACTORS
330
3CF4
102
}
330
A
100
AcDbEntity
  8
TEMPLATE
100
AcDbHatch
 10
0.0
 20
0.0
 30
0.0
210
0.0
220
0.0
230
1.0
  2
SOLID
 70
     1
 71
     1
 91
        6
 92
        1
 93
        8
 72
     1
 10
773.8270902791126
 20
61.34344299952348
 11
773.8270902791126
 21
58.97967994725929
 72
     1
 10
773.8270902791126
 20
58.97967994725929
 11
770.0828536589879
 21
58.97967994725929
 72
     1
 10
770.0828536589879
 20
58.97967994725929
 11
770.0828536589879
 21
49.34344300010187
 72
     1
 10
770.0828536589879
 20
49.34344300010187
 11
766.7898083976775
 21
49.34344300010187
 72
     1
 10
766.7898083976775
 20
49.34344300010187
 11
766.7898083976775
 21
58.97967994725929
 72
     1
 10
766.7898083976775
 20
58.97967994725929
 11
763.1119278238602
 21
58.97967994725929
 72
     1
 10
763.1119278238602
 20
58.97967994725929
 11
763.1119278238602
 21
61.34344299952348
 72
     1
 10
763.1119278238602
 20
61.34344299952348
 11
773.8270902791126
 21
61.34344299952348
 97
        1
330
3CE4
 92
        1
 93
        1
 72
     4
 94
        3
 73
     0
 74
     1
 95
       56
 96
       52
 40
0.0
 40
0.0
 40
0.0
 40
0.0
 40
1.0
 40
1.0
 40
1.0
 40
2.0
 40
2.0
 40
2.0
 40
3.0
 40
3.0
 40
3.0
 40
4.0
 40
4.0
 40
4.0
 40
5.0
 40
5.0
 40
5.0
 40
6.0
 40
6.0
 40
6.0
 40
7.0
 40
7.0
 40
7.0
 40
8.0
 40
8.0
 40
8.0
 40
9.0
 40
9.0
 40
9.0
 40
10.0
 40
10.0
 40
10.0
 40
11.0
 40
11.0
 40
11.0
 40
12.0
 40
12.0
 40
12.0
 40
13.0
 40
13.0
 40
13.0
 40
14.0
 40
14.0
 40
14.0
 40
15.0
 40
15.0
 40
15.0
 40
16.0
 40
16.0
 40
16.0
 40
17.0
 40
17.0
 40
17.0
 40
17.0
 10
778.8439644528296
 20
61.05769541535855
 10
779.3055109255968
 20
61.18761043696263
 10
779.9013465629307
 20
61.07894125260667
 10
779.9013465629307
 20
61.07894125260667
 10
779.9013465629307
 20
61.07894125260667
 10
779.6150931254979
 20
60.21991313563727
 10
779.6150931254979
 20
60.21991313563727
 10
779.6150931254979
 20
60.21991313563727
 10
779.0301482114592
 20
60.35527351888899
 10
778.5789866087196
 20
59.9995098912439
 10
778.2284005380509
 20
59.72129059394702
 10
778.0012724208032
 20
58.98203067715087
 10
777.9141466344411
 20
58.70095479669457
 10
777.9141466344411
 20
58.70095479669457
 10
777.5257108369103
 20
57.50868840053504
 10
777.5257108369103
 20
57.50868840053504
 10
777.5257108369103
 20
57.50868840053504
 10
778.7993600970385
 20
57.50868840053504
 10
778.7993600970385
 20
57.50868840053504
 10
778.7993600970385
 20
57.50868840053504
 10
778.6012739085779
 20
56.75829971184702
 10
778.6012739085779
 20
56.75829971184702
 10
778.6012739085779
 20
56.75829971184702
 10
777.3172397784224
 20
56.75829971184702
 10
777.3172397784224
 20
56.75829971184702
 10
777.3172397784224
 20
56.75829971184702
 10
775.0198625285398
 20
49.34344300010187
 10
775.0198625285398
 20
49.34344300010187
 10
775.0198625285398
 20
49.34344300010187
 10
774.3005689377851
 20
49.34344300010187
 10
774.3005689377851
 20
49.34344300010187
 10
774.3005689377851
 20
49.34344300010187
 10
776.6000291128878
 20
56.75829971184702
 10
776.6000291128878
 20
56.75829971184702
 10
776.6000291128878
 20
56.75829971184702
 10
775.6525361862005
 20
56.75829971184702
 10
775.6525361862005
 20
56.75829971184702
 10
775.6525361862005
 20
56.75829971184702
 10
775.8511579840033
 20
57.50868840053504
 10
775.8511579840033
 20
57.50868840053504
 10
775.8511579840033
 20
57.50868840053504
 10
776.8085001713757
 20
57.50868840053504
 10
776.8085001713757
 20
57.50868840053504
 10
776.8085001713757
 20
57.50868840053504
 10
777.1471243000644
 20
58.54848467056097
 10
777.1471243000644
 20
58.54848467056097
 10
777.4209396983238
 20
59.4202483874494
 10
777.6532751286227
 20
59.88828168447431
 10
777.852432535768
 20
60.24115897288539
 10
778.0494772616182
 20
60.59433382204227
 10
778.439460375027
 20
60.94125989553794
 10
778.8439644528296
 20
61.05769541535855
 97
        1
330
3CEF
 92
        1
 93
        1
 72
     4
 94
        3
 73
     0
 74
     1
 95
       32
 96
       28
 40
0.0
 40
0.0
 40
0.0
 40
0.0
 40
1.0
 40
1.0
 40
1.0
 40
2.0
 40
2.0
 40
2.0
 40
3.0
 40
3.0
 40
3.0
 40
4.0
 40
4.0
 40
4.0
 40
5.0
 40
5.0
 40
5.0
 40
6.0
 40
6.0
 40
6.0
 40
7.0
 40
7.0
 40
7.0
 40
8.0
 40
8.0
 40
8.0
 40
9.0
 40
9.0
 40
9.0
 40
9.0
 10
780.5941870033864
 20
57.0552058239784
 10
780.161176606139
 20
56.49510723221162
 10
779.8277300344266
 20
55.99103932887373
 10
779.2878953294471
 20
54.40673665015949
 10
778.7915937615737
 20
52.95755630610032
 10
778.4757627860113
 20
51.90323907168072
 10
778.4280637984641
 20
50.61920494152507
 10
778.3917613874798
 20
49.66367787470179
 10
778.9736116697625
 20
49.34344300010187
 10
779.8267183278911
 20
49.34344300010187
 10
780.1943843853671
 20
49.34344300010187
 10
781.1221787906843
 20
49.36683127471956
 10
781.7828826705968
 20
50.18357600971474
 10
782.2454110938247
 20
50.75739215186162
 10
782.671696618218
 20
51.35221608265999
 10
783.2431917865476
 20
53.30344091698579
 10
783.7187533704407
 20
54.93466892530829
 10
784.048034091712
 20
55.98895640365332
 10
784.0236936227079
 20
56.58922569609933
 10
784.0236936227079
 20
56.58922569609933
 10
784.0236936227079
 20
56.58922569609933
 10
784.0236936227079
 20
56.58922569609933
 10
783.8686049620114
 20
57.59063662992067
 10
783.141545035792
 20
57.80223207623919
 10
782.7261502346942
 20
57.80223207623919
 10
782.3170042092574
 20
57.80223207623919
 10
781.2206713975349
 20
57.87302177765837
 10
780.5941870033864
 20
57.0552058239784
 97
        1
330
3CF2
 92
        1
 93
        1
 72
     4
 94
        3
 73
     0
 74
     1
 95
       38
 96
       34
 40
0.0
 40
0.0
 40
0.0
 40
0.0
 40
1.0
 40
1.0
 40
1.0
 40
2.0
 40
2.0
 40
2.0
 40
3.0
 40
3.0
 40
3.0
 40
4.0
 40
4.0
 40
4.0
 40
5.0
 40
5.0
 40
5.0
 40
6.0
 40
6.0
 40
6.0
 40
7.0
 40
7.0
 40
7.0
 40
8.0
 40
8.0
 40
8.0
 40
9.0
 40
9.0
 40
9.0
 40
10.0
 40
10.0
 40
10.0
 40
11.0
 40
11.0
 40
11.0
 40
11.0
 10
786.6534759816923
 20
57.47991427641887
 10
786.6534759816923
 20
57.47991427641887
 10
787.392973947085
 20
57.47991427641887
 10
787.392973947085
 20
57.47991427641887
 10
787.392973947085
 20
57.47991427641887
 10
787.062622007129
 20
56.42223460557204
 10
787.062622007129
 20
56.42223460557204
 10
787.3136442522623
 20
56.71914071770341
 10
787.7098166291833
 20
57.11456919275992
 10
788.0500475858989
 20
57.31396464850179
 10
788.5582813396777
 20
57.61087076063316
 10
788.8487006275511
 20
57.65002975477677
 10
789.168102332063
 20
57.64223366323755
 10
789.168102332063
 20
57.64223366323755
 10
788.855961109748
 20
56.64213199669759
 10
788.855961109748
 20
56.64213199669759
 10
788.6526676082365
 20
56.72821632044946
 10
788.026183214088
 20
56.56434961775278
 10
787.6667893453446
 20
56.305828841826
 10
787.3426861810497
 20
56.07271975358816
 10
787.1186229394832
 20
55.8743657604565
 10
786.8531392421053
 20
55.37571346269166
 10
786.5896789577987
 20
54.87631726306238
 10
786.3817435086532
 20
54.08001495130175
 10
786.0238969557877
 20
52.92482462406541
 10
786.0238969557877
 20
52.92482462406541
 10
784.906318306817
 20
49.34344300010187
 10
784.906318306817
 20
49.34344300010187
 10
784.906318306817
 20
49.34344300010187
 10
784.1886017880147
 20
49.34344300010187
 10
784.1886017880147
 20
49.34344300010187
 10
784.1886017880147
 20
49.34344300010187
 10
786.6534759816923
 20
57.47991427641887
 10
786.6534759816923
 20
57.47991427641887
 97
        1
330
3CF0
 92
        1
 93
        1
 72
     4
 94
        3
 73
     0
 74
     1
 95
      104
 96
      100
 40
0.0
 40
0.0
 40
0.0
 40
0.0
 40
1.0
 40
1.0
 40
1.0
 40
2.0
 40
2.0
 40
2.0
 40
3.0
 40
3.0
 40
3.0
 40
4.0
 40
4.0
 40
4.0
 40
5.0
 40
5.0
 40
5.0
 40
6.0
 40
6.0
 40
6.0
 40
7.0
 40
7.0
 40
7.0
 40
8.0
 40
8.0
 40
8.0
 40
9.0
 40
9.0
 40
9.0
 40
10.0
 40
10.0
 40
10.0
 40
11.0
 40
11.0
 40
11.0
 40
12.0
 40
12.0
 40
12.0
 40
13.0
 40
13.0
 40
13.0
 40
14.0
 40
14.0
 40
14.0
 40
15.0
 40
15.0
 40
15.0
 40
16.0
 40
16.0
 40
16.0
 40
17.0
 40
17.0
 40
17.0
 40
18.0
 40
18.0
 40
18.0
 40
19.0
 40
19.0
 40
19.0
 40
20.0
 40
20.0
 40
20.0
 40
21.0
 40
21.0
 40
21.0
 40
22.0
 40
22.0
 40
22.0
 40
23.0
 40
23.0
 40
23.0
 40
24.0
 40
24.0
 40
24.0
 40
25.0
 40
25.0
 40
25.0
 40
26.0
 40
26.0
 40
26.0
 40
27.0
 40
27.0
 40
27.0
 40
28.0
 40
28.0
 40
28.0
 40
29.0
 40
29.0
 40
29.0
 40
30.0
 40
30.0
 40
30.0
 40
31.0
 40
31.0
 40
31.0
 40
32.0
 40
32.0
 40
32.0
 40
33.0
 40
33.0
 40
33.0
 40
33.0
 10
790.7239284474067
 20
57.48431817545629
 10
790.7239284474067
 20
57.48431817545629
 10
791.3695757535829
 20
57.48431817545629
 10
791.3695757535829
 20
57.48431817545629
 10
791.3695757535829
 20
57.48431817545629
 10
791.0433896640677
 20
56.42562679807384
 10
791.0433896640677
 20
56.42562679807384
 10
791.3264889575953
 20
56.86952791861661
 10
791.5806058344847
 20
57.06737605848048
 10
791.9182182566376
 20
57.32304025124783
 10
792.2568423853263
 20
57.57507420291678
 10
792.6587874407151
 20
57.62643318763705
 10
792.937780395951
 20
57.62643318763705
 10
793.2831889096433
 20
57.62643318763705
 10
793.6166354813554
 20
57.55823226470609
 10
793.7918987606151
 20
57.17964572786029
 10
793.9262176812567
 20
56.88276937180346
 10
793.9324664569178
 20
56.8477464720261
 10
793.8940811207133
 20
56.26173033930257
 10
794.2451432885753
 20
56.86253524109098
 10
794.504437722441
 20
57.12132382168895
 10
794.9452442112276
 20
57.36996558085609
 10
795.407832146605
 20
57.62643318763705
 10
795.6774816944237
 20
57.64562585573935
 10
795.9907536475725
 20
57.59944442799551
 10
796.4522703642649
 20
57.53127326113913
 10
796.7468555025794
 20
57.36660314442886
 10
796.9008729445909
 20
56.86616548218939
 10
797.0554259959449
 20
56.36727513582792
 10
796.9719304506814
 20
56.09967875715512
 10
796.7810749883431
 20
55.30545937061487
 10
796.693949201981
 20
54.94374452805434
 10
796.5679024700721
 20
54.50576486635242
 10
796.4029943047651
 20
53.98461697620721
 10
796.4029943047651
 20
53.98461697620721
 10
794.9452442112276
 20
49.34344300010187
 10
794.9452442112276
 20
49.34344300010187
 10
794.9452442112276
 20
49.34344300010187
 10
794.1870594310005
 20
49.34344300010187
 10
794.1870594310005
 20
49.34344300010187
 10
794.1870594310005
 20
49.34344300010187
 10
795.4633569817661
 20
53.40092181730071
 10
795.4633569817661
 20
53.40092181730071
 10
795.7299118978287
 20
54.24986262498844
 10
795.9103527340649
 20
54.86983043880454
 10
796.0037272960881
 20
55.25853404100661
 10
796.1209067177731
 20
55.7434092762422
 10
796.1675642427103
 20
55.90340768924385
 10
796.1120989196984
 20
56.25631473372954
 10
796.0612755443206
 20
56.58482179706189
 10
795.8952961603288
 20
56.79873821719745
 10
795.6111256481165
 20
56.79873821719745
 10
795.3082683210696
 20
56.79873821719745
 10
795.0629592422551
 20
56.76502458470146
 10
794.7196931659325
 20
56.4201814364262
 10
794.3763675774608
 20
56.07271975358816
 10
794.0926731624415
 20
55.66485323935839
 10
793.8702167489023
 20
55.19577847972329
 10
793.6482364325564
 20
54.72384713692878
 10
793.4231614844543
 20
54.12566076970317
 10
793.1949919045965
 20
53.40092181730071
 10
793.1949919045965
 20
53.40092181730071
 10
791.9182182566376
 20
49.34344300010187
 10
791.9182182566376
 20
49.34344300010187
 10
791.9182182566376
 20
49.34344300010187
 10
791.2051436854695
 20
49.34344300010187
 10
791.2051436854695
 20
49.34344300010187
 10
791.2051436854695
 20
49.34344300010187
 10
792.6649767042272
 20
53.98253405098681
 10
792.6649767042272
 20
53.98253405098681
 10
792.8189941462388
 20
54.47624684037184
 10
792.9346857641949
 20
54.87866799295399
 10
793.0109208272618
 20
55.19318970123506
 10
793.1405382881201
 20
55.73460147816736
 10
793.1768406991043
 20
56.10072021976531
 10
793.078824189447
 20
56.42562679807384
 10
792.9823549956677
 20
56.74949191377216
 10
792.8128048827268
 20
56.8322138010968
 10
792.5296460770501
 20
56.8322138010968
 10
792.2921330897748
 20
56.8322138010968
 10
792.0603332688183
 20
56.73029924566987
 10
791.7958612779762
 20
56.5275115974262
 10
791.4628908034572
 20
56.27238301400122
 10
791.3296431015003
 20
56.0628704929031
 10
791.1662822520716
 20
55.81393117299019
 10
790.9458492516037
 20
55.48462069564424
 10
790.8426551849698
 20
55.26293794004404
 10
790.6565011824148
 20
54.77648563285584
 10
790.4702876677106
 20
54.28717674250827
 10
790.2940126819153
 20
53.71776449939881
 10
790.1710605817623
 20
53.32391309629489
 10
790.1710605817623
 20
53.32391309629489
 10
788.9186869149569
 20
49.34344300010187
 10
788.9186869149569
 20
49.34344300010187
 10
788.9186869149569
 20
49.34344300010187
 10
788.1719284673673
 20
49.34344300010187
 10
788.1719284673673
 20
49.34344300010187
 10
788.1719284673673
 20
49.34344300010187
 10
790.7239284474067
 20
57.48431817545629
 10
790.7239284474067
 20
57.48431817545629
 97
        1
330
3CF1
 92
       16
 93
        1
 72
     4
 94
        3
 73
     0
 74
     1
 95
       29
 96
       25
 40
0.0
 40
0.0
 40
0.0
 40
0.0
 40
1.0
 40
1.0
 40
1.0
 40
2.0
 40
2.0
 40
2.0
 40
3.0
 40
3.0
 40
3.0
 40
4.0
 40
4.0
 40
4.0
 40
5.0
 40
5.0
 40
5.0
 40
6.0
 40
6.0
 40
6.0
 40
7.0
 40
7.0
 40
7.0
 40
8.0
 40
8.0
 40
8.0
 40
8.0
 10
779.2028524683053
 20
50.85927695121397
 10
779.1996983244003
 20
51.42613017190976
 10
779.3786513569075
 20
52.43325427204994
 10
779.837073441844
 20
53.78078786535333
 10
780.461474910772
 20
55.60546011450228
 10
780.8359253532517
 20
56.27238301400122
 10
781.1635992464958
 20
56.59702178763855
 10
781.6423149742939
 20
57.06972678837207
 10
782.2858793552498
 20
57.09329359943722
 10
782.4757231110525
 20
57.06972678837207
 10
782.7459082682135
 20
57.03729266708291
 10
783.1275596807407
 20
56.86045231587057
 10
783.1503528338669
 20
56.26512253180438
 10
783.168563551508
 20
55.75560926681887
 10
783.0217470795442
 20
54.80139146727697
 10
782.5078596715957
 20
53.30344091698579
 10
781.915594763211
 20
51.5627700663683
 10
781.5598311355659
 20
50.87849937539085
 10
781.274648916818
 20
50.58028399597808
 10
780.7373732342519
 20
50.02122686682151
 10
780.161176606139
 20
50.07490682535878
 10
780.0761337449972
 20
50.07490682535878
 10
779.9656791961665
 20
50.07490682535878
 10
779.2043997841834
 20
50.19476429375578
 10
779.2028524683053
 20
50.85927695121397
 97
        1
330
3CF3
 75
     0
 76
     1
 98
        1
 10
743.7703305683026
 20
29.00832017048585
1001
ACAD
1010
0.0
1020
0.0
1030
0.0
  0
POLYLINE
  5
3CE4
102
{ACAD_REACTORS
330
3CE3
330
3CF4
102
}
330
A
100
AcDbEntity
  8
TEMPLATE
100
AcDb2dPolyline
 66
     1
 10
0.0
 20
0.0
 30
0.0
  0
VERTEX
  5
3CE5
330
3CE4
100
AcDbEntity
  8
TEMPLATE
100
AcDbVertex
100
AcDb2dVertex
 10
773.8270902791126
 20
61.34344299952348
 30
0.0
  0
VERTEX
  5
3CE6
330
3CE4
100
AcDbEntity
  8
TEMPLATE
100
AcDbVertex
100
AcDb2dVertex
 10
773.8270902791126
 20
58.97967994725929
 30
0.0
  0
VERTEX
  5
3CE7
330
3CE4
100
AcDbEntity
  8
TEMPLATE
100
AcDbVertex
100
AcDb2dVertex
 10
770.0828536589879
 20
58.97967994725929
 30
0.0
  0
VERTEX
  5
3CE8
330
3CE4
100
AcDbEntity
  8
TEMPLATE
100
AcDbVertex
100
AcDb2dVertex
 10
770.0828536589879
 20
49.34344300010187
 30
0.0
  0
VERTEX
  5
3CE9
330
3CE4
100
AcDbEntity
  8
TEMPLATE
100
AcDbVertex
100
AcDb2dVertex
 10
766.7898083976775
 20
49.34344300010187
 30
0.0
  0
VERTEX
  5
3CEA
330
3CE4
100
AcDbEntity
  8
TEMPLATE
100
AcDbVertex
100
AcDb2dVertex
 10
766.7898083976775
 20
58.97967994725929
 30
0.0
  0
VERTEX
  5
3CEB
330
3CE4
100
AcDbEntity
  8
TEMPLATE
100
AcDbVertex
100
AcDb2dVertex
 10
763.1119278238602
 20
58.97967994725929
 30
0.0
  0
VERTEX
  5
3CEC
330
3CE4
100
AcDbEntity
  8
TEMPLATE
100
AcDbVertex
100
AcDb2dVertex
 10
763.1119278238602
 20
61.34344299952348
 30
0.0
  0
VERTEX
  5
3CED
330
3CE4
100
AcDbEntity
  8
TEMPLATE
100
AcDbVertex
100
AcDb2dVertex
 10
773.8270902791126
 20
61.34344299952348
 30
0.0
  0
SEQEND
  5
3CEE
330
3CE4
100
AcDbEntity
  8
TEMPLATE
  0
SPLINE
  5
3CEF
102
{ACAD_REACTORS
330
3CE3
330
3CF4
102
}
330
A
100
AcDbEntity
  8
TEMPLATE
100
AcDbSpline
210
0.0
220
0.0
230
1.0
 70
    11
 71
     3
 72
    56
 73
    52
 74
     0
 42
0.000000001
 43
0.0000000001
 40
0.0
 40
0.0
 40
0.0
 40
0.0
 40
1.0
 40
1.0
 40
1.0
 40
2.0
 40
2.0
 40
2.0
 40
3.0
 40
3.0
 40
3.0
 40
4.0
 40
4.0
 40
4.0
 40
5.0
 40
5.0
 40
5.0
 40
6.0
 40
6.0
 40
6.0
 40
7.0
 40
7.0
 40
7.0
 40
8.0
 40
8.0
 40
8.0
 40
9.0
 40
9.0
 40
9.0
 40
10.0
 40
10.0
 40
10.0
 40
11.0
 40
11.0
 40
11.0
 40
12.0
 40
12.0
 40
12.0
 40
13.0
 40
13.0
 40
13.0
 40
14.0
 40
14.0
 40
14.0
 40
15.0
 40
15.0
 40
15.0
 40
16.0
 40
16.0
 40
16.0
 40
17.0
 40
17.0
 40
17.0
 40
17.0
 10
778.8439644528296
 20
61.05769541535855
 30
0.0
 10
779.3055109255968
 20
61.18761043696263
 30
0.0
 10
779.9013465629307
 20
61.07894125260667
 30
0.0
 10
779.9013465629307
 20
61.07894125260667
 30
0.0
 10
779.9013465629307
 20
61.07894125260667
 30
0.0
 10
779.6150931254979
 20
60.21991313563727
 30
0.0
 10
779.6150931254979
 20
60.21991313563727
 30
0.0
 10
779.6150931254979
 20
60.21991313563727
 30
0.0
 10
779.0301482114592
 20
60.35527351888899
 30
0.0
 10
778.5789866087196
 20
59.9995098912439
 30
0.0
 10
778.2284005380509
 20
59.72129059394702
 30
0.0
 10
778.0012724208032
 20
58.98203067715087
 30
0.0
 10
777.9141466344411
 20
58.70095479669457
 30
0.0
 10
777.9141466344411
 20
58.70095479669457
 30
0.0
 10
777.5257108369103
 20
57.50868840053504
 30
0.0
 10
777.5257108369103
 20
57.50868840053504
 30
0.0
 10
777.5257108369103
 20
57.50868840053504
 30
0.0
 10
778.7993600970385
 20
57.50868840053504
 30
0.0
 10
778.7993600970385
 20
57.50868840053504
 30
0.0
 10
778.7993600970385
 20
57.50868840053504
 30
0.0
 10
778.6012739085779
 20
56.75829971184702
 30
0.0
 10
778.6012739085779
 20
56.75829971184702
 30
0.0
 10
778.6012739085779
 20
56.75829971184702
 30
0.0
 10
777.3172397784224
 20
56.75829971184702
 30
0.0
 10
777.3172397784224
 20
56.75829971184702
 30
0.0
 10
777.3172397784224
 20
56.75829971184702
 30
0.0
 10
775.0198625285398
 20
49.34344300010187
 30
0.0
 10
775.0198625285398
 20
49.34344300010187
 30
0.0
 10
775.0198625285398
 20
49.34344300010187
 30
0.0
 10
774.3005689377851
 20
49.34344300010187
 30
0.0
 10
774.3005689377851
 20
49.34344300010187
 30
0.0
 10
774.3005689377851
 20
49.34344300010187
 30
0.0
 10
776.6000291128878
 20
56.75829971184702
 30
0.0
 10
776.6000291128878
 20
56.75829971184702
 30
0.0
 10
776.6000291128878
 20
56.75829971184702
 30
0.0
 10
775.6525361862005
 20
56.75829971184702
 30
0.0
 10
775.6525361862005
 20
56.75829971184702
 30
0.0
 10
775.6525361862005
 20
56.75829971184702
 30
0.0
 10
775.8511579840033
 20
57.50868840053504
 30
0.0
 10
775.8511579840033
 20
57.50868840053504
 30
0.0
 10
775.8511579840033
 20
57.50868840053504
 30
0.0
 10
776.8085001713757
 20
57.50868840053504
 30
0.0
 10
776.8085001713757
 20
57.50868840053504
 30
0.0
 10
776.8085001713757
 20
57.50868840053504
 30
0.0
 10
777.1471243000644
 20
58.54848467056097
 30
0.0
 10
777.1471243000644
 20
58.54848467056097
 30
0.0
 10
777.4209396983238
 20
59.4202483874494
 30
0.0
 10
777.6532751286227
 20
59.88828168447431
 30
0.0
 10
777.852432535768
 20
60.24115897288539
 30
0.0
 10
778.0494772616182
 20
60.59433382204227
 30
0.0
 10
778.439460375027
 20
60.94125989553794
 30
0.0
 10
778.8439644528296
 20
61.05769541535855
 30
0.0
  0
SPLINE
  5
3CF0
102
{ACAD_REACTORS
330
3CE3
330
3CF4
102
}
330
A
100
AcDbEntity
  8
TEMPLATE
100
AcDbSpline
210
0.0
220
0.0
230
1.0
 70
    11
 71
     3
 72
    38
 73
    34
 74
     0
 42
0.000000001
 43
0.0000000001
 40
0.0
 40
0.0
 40
0.0
 40
0.0
 40
1.0
 40
1.0
 40
1.0
 40
2.0
 40
2.0
 40
2.0
 40
3.0
 40
3.0
 40
3.0
 40
4.0
 40
4.0
 40
4.0
 40
5.0
 40
5.0
 40
5.0
 40
6.0
 40
6.0
 40
6.0
 40
7.0
 40
7.0
 40
7.0
 40
8.0
 40
8.0
 40
8.0
 40
9.0
 40
9.0
 40
9.0
 40
10.0
 40
10.0
 40
10.0
 40
11.0
 40
11.0
 40
11.0
 40
11.0
 10
786.6534759816923
 20
57.47991427641887
 30
0.0
 10
786.6534759816923
 20
57.47991427641887
 30
0.0
 10
787.392973947085
 20
57.47991427641887
 30
0.0
 10
787.392973947085
 20
57.47991427641887
 30
0.0
 10
787.392973947085
 20
57.47991427641887
 30
0.0
 10
787.062622007129
 20
56.42223460557204
 30
0.0
 10
787.062622007129
 20
56.42223460557204
 30
0.0
 10
787.3136442522623
 20
56.71914071770341
 30
0.0
 10
787.7098166291833
 20
57.11456919275992
 30
0.0
 10
788.0500475858989
 20
57.31396464850179
 30
0.0
 10
788.5582813396777
 20
57.61087076063316
 30
0.0
 10
788.8487006275511
 20
57.65002975477677
 30
0.0
 10
789.168102332063
 20
57.64223366323755
 30
0.0
 10
789.168102332063
 20
57.64223366323755
 30
0.0
 10
788.855961109748
 20
56.64213199669759
 30
0.0
 10
788.855961109748
 20
56.64213199669759
 30
0.0
 10
788.6526676082365
 20
56.72821632044946
 30
0.0
 10
788.026183214088
 20
56.56434961775278
 30
0.0
 10
787.6667893453446
 20
56.305828841826
 30
0.0
 10
787.3426861810497
 20
56.07271975358816
 30
0.0
 10
787.1186229394832
 20
55.8743657604565
 30
0.0
 10
786.8531392421053
 20
55.37571346269166
 30
0.0
 10
786.5896789577987
 20
54.87631726306238
 30
0.0
 10
786.3817435086532
 20
54.08001495130175
 30
0.0
 10
786.0238969557877
 20
52.92482462406541
 30
0.0
 10
786.0238969557877
 20
52.92482462406541
 30
0.0
 10
784.906318306817
 20
49.34344300010187
 30
0.0
 10
784.906318306817
 20
49.34344300010187
 30
0.0
 10
784.906318306817
 20
49.34344300010187
 30
0.0
 10
784.1886017880147
 20
49.34344300010187
 30
0.0
 10
784.1886017880147
 20
49.34344300010187
 30
0.0
 10
784.1886017880147
 20
49.34344300010187
 30
0.0
 10
786.6534759816923
 20
57.47991427641887
 30
0.0
 10
786.6534759816923
 20
57.47991427641887
 30
0.0
  0
SPLINE
  5
3CF1
102
{ACAD_REACTORS
330
3CE3
330
3CF4
102
}
330
A
100
AcDbEntity
  8
TEMPLATE
100
AcDbSpline
210
0.0
220
0.0
230
1.0
 70
    11
 71
     3
 72
   104
 73
   100
 74
     0
 42
0.000000001
 43
0.0000000001
 40
0.0
 40
0.0
 40
0.0
 40
0.0
 40
1.0
 40
1.0
 40
1.0
 40
2.0
 40
2.0
 40
2.0
 40
3.0
 40
3.0
 40
3.0
 40
4.0
 40
4.0
 40
4.0
 40
5.0
 40
5.0
 40
5.0
 40
6.0
 40
6.0
 40
6.0
 40
7.0
 40
7.0
 40
7.0
 40
8.0
 40
8.0
 40
8.0
 40
9.0
 40
9.0
 40
9.0
 40
10.0
 40
10.0
 40
10.0
 40
11.0
 40
11.0
 40
11.0
 40
12.0
 40
12.0
 40
12.0
 40
13.0
 40
13.0
 40
13.0
 40
14.0
 40
14.0
 40
14.0
 40
15.0
 40
15.0
 40
15.0
 40
16.0
 40
16.0
 40
16.0
 40
17.0
 40
17.0
 40
17.0
 40
18.0
 40
18.0
 40
18.0
 40
19.0
 40
19.0
 40
19.0
 40
20.0
 40
20.0
 40
20.0
 40
21.0
 40
21.0
 40
21.0
 40
22.0
 40
22.0
 40
22.0
 40
23.0
 40
23.0
 40
23.0
 40
24.0
 40
24.0
 40
24.0
 40
25.0
 40
25.0
 40
25.0
 40
26.0
 40
26.0
 40
26.0
 40
27.0
 40
27.0
 40
27.0
 40
28.0
 40
28.0
 40
28.0
 40
29.0
 40
29.0
 40
29.0
 40
30.0
 40
30.0
 40
30.0
 40
31.0
 40
31.0
 40
31.0
 40
32.0
 40
32.0
 40
32.0
 40
33.0
 40
33.0
 40
33.0
 40
33.0
 10
790.7239284474067
 20
57.48431817545629
 30
0.0
 10
790.7239284474067
 20
57.48431817545629
 30
0.0
 10
791.3695757535829
 20
57.48431817545629
 30
0.0
 10
791.3695757535829
 20
57.48431817545629
 30
0.0
 10
791.3695757535829
 20
57.48431817545629
 30
0.0
 10
791.0433896640677
 20
56.42562679807384
 30
0.0
 10
791.0433896640677
 20
56.42562679807384
 30
0.0
 10
791.3264889575953
 20
56.86952791861661
 30
0.0
 10
791.5806058344847
 20
57.06737605848048
 30
0.0
 10
791.9182182566376
 20
57.32304025124783
 30
0.0
 10
792.2568423853263
 20
57.57507420291678
 30
0.0
 10
792.6587874407151
 20
57.62643318763705
 30
0.0
 10
792.937780395951
 20
57.62643318763705
 30
0.0
 10
793.2831889096433
 20
57.62643318763705
 30
0.0
 10
793.6166354813554
 20
57.55823226470609
 30
0.0
 10
793.7918987606151
 20
57.17964572786029
 30
0.0
 10
793.9262176812567
 20
56.88276937180346
 30
0.0
 10
793.9324664569178
 20
56.8477464720261
 30
0.0
 10
793.8940811207133
 20
56.26173033930257
 30
0.0
 10
794.2451432885753
 20
56.86253524109098
 30
0.0
 10
794.504437722441
 20
57.12132382168895
 30
0.0
 10
794.9452442112276
 20
57.36996558085609
 30
0.0
 10
795.407832146605
 20
57.62643318763705
 30
0.0
 10
795.6774816944237
 20
57.64562585573935
 30
0.0
 10
795.9907536475725
 20
57.59944442799551
 30
0.0
 10
796.4522703642649
 20
57.53127326113913
 30
0.0
 10
796.7468555025794
 20
57.36660314442886
 30
0.0
 10
796.9008729445909
 20
56.86616548218939
 30
0.0
 10
797.0554259959449
 20
56.36727513582792
 30
0.0
 10
796.9719304506814
 20
56.09967875715512
 30
0.0
 10
796.7810749883431
 20
55.30545937061487
 30
0.0
 10
796.693949201981
 20
54.94374452805434
 30
0.0
 10
796.5679024700721
 20
54.50576486635242
 30
0.0
 10
796.4029943047651
 20
53.98461697620721
 30
0.0
 10
796.4029943047651
 20
53.98461697620721
 30
0.0
 10
794.9452442112276
 20
49.34344300010187
 30
0.0
 10
794.9452442112276
 20
49.34344300010187
 30
0.0
 10
794.9452442112276
 20
49.34344300010187
 30
0.0
 10
794.1870594310005
 20
49.34344300010187
 30
0.0
 10
794.1870594310005
 20
49.34344300010187
 30
0.0
 10
794.1870594310005
 20
49.34344300010187
 30
0.0
 10
795.4633569817661
 20
53.40092181730071
 30
0.0
 10
795.4633569817661
 20
53.40092181730071
 30
0.0
 10
795.7299118978287
 20
54.24986262498844
 30
0.0
 10
795.9103527340649
 20
54.86983043880454
 30
0.0
 10
796.0037272960881
 20
55.25853404100661
 30
0.0
 10
796.1209067177731
 20
55.7434092762422
 30
0.0
 10
796.1675642427103
 20
55.90340768924385
 30
0.0
 10
796.1120989196984
 20
56.25631473372954
 30
0.0
 10
796.0612755443206
 20
56.58482179706189
 30
0.0
 10
795.8952961603288
 20
56.79873821719745
 30
0.0
 10
795.6111256481165
 20
56.79873821719745
 30
0.0
 10
795.3082683210696
 20
56.79873821719745
 30
0.0
 10
795.0629592422551
 20
56.76502458470146
 30
0.0
 10
794.7196931659325
 20
56.4201814364262
 30
0.0
 10
794.3763675774608
 20
56.07271975358816
 30
0.0
 10
794.0926731624415
 20
55.66485323935839
 30
0.0
 10
793.8702167489023
 20
55.19577847972329
 30
0.0
 10
793.6482364325564
 20
54.72384713692878
 30
0.0
 10
793.4231614844543
 20
54.12566076970317
 30
0.0
 10
793.1949919045965
 20
53.40092181730071
 30
0.0
 10
793.1949919045965
 20
53.40092181730071
 30
0.0
 10
791.9182182566376
 20
49.34344300010187
 30
0.0
 10
791.9182182566376
 20
49.34344300010187
 30
0.0
 10
791.9182182566376
 20
49.34344300010187
 30
0.0
 10
791.2051436854695
 20
49.34344300010187
 30
0.0
 10
791.2051436854695
 20
49.34344300010187
 30
0.0
 10
791.2051436854695
 20
49.34344300010187
 30
0.0
 10
792.6649767042272
 20
53.98253405098681
 30
0.0
 10
792.6649767042272
 20
53.98253405098681
 30
0.0
 10
792.8189941462388
 20
54.47624684037184
 30
0.0
 10
792.9346857641949
 20
54.87866799295399
 30
0.0
 10
793.0109208272618
 20
55.19318970123506
 30
0.0
 10
793.1405382881201
 20
55.73460147816736
 30
0.0
 10
793.1768406991043
 20
56.10072021976531
 30
0.0
 10
793.078824189447
 20
56.42562679807384
 30
0.0
 10
792.9823549956677
 20
56.74949191377216
 30
0.0
 10
792.8128048827268
 20
56.8322138010968
 30
0.0
 10
792.5296460770501
 20
56.8322138010968
 30
0.0
 10
792.2921330897748
 20
56.8322138010968
 30
0.0
 10
792.0603332688183
 20
56.73029924566987
 30
0.0
 10
791.7958612779762
 20
56.5275115974262
 30
0.0
 10
791.4628908034572
 20
56.27238301400122
 30
0.0
 10
791.3296431015003
 20
56.0628704929031
 30
0.0
 10
791.1662822520716
 20
55.81393117299019
 30
0.0
 10
790.9458492516037
 20
55.48462069564424
 30
0.0
 10
790.8426551849698
 20
55.26293794004404
 30
0.0
 10
790.6565011824148
 20
54.77648563285584
 30
0.0
 10
790.4702876677106
 20
54.28717674250827
 30
0.0
 10
790.2940126819153
 20
53.71776449939881
 30
0.0
 10
790.1710605817623
 20
53.32391309629489
 30
0.0
 10
790.1710605817623
 20
53.32391309629489
 30
0.0
 10
788.9186869149569
 20
49.34344300010187
 30
0.0
 10
788.9186869149569
 20
49.34344300010187
 30
0.0
 10
788.9186869149569
 20
49.34344300010187
 30
0.0
 10
788.1719284673673
 20
49.34344300010187
 30
0.0
 10
788.1719284673673
 20
49.34344300010187
 30
0.0
 10
788.1719284673673
 20
49.34344300010187
 30
0.0
 10
790.7239284474067
 20
57.48431817545629
 30
0.0
 10
790.7239284474067
 20
57.48431817545629
 30
0.0
  0
SPLINE
  5
3CF2
102
{ACAD_REACTORS
330
3CE3
330
3CF4
102
}
330
A
100
AcDbEntity
  8
TEMPLATE
100
AcDbSpline
210
0.0
220
0.0
230
1.0
 70
    11
 71
     3
 72
    32
 73
    28
 74
     0
 42
0.000000001
 43
0.0000000001
 40
0.0
 40
0.0
 40
0.0
 40
0.0
 40
1.0
 40
1.0
 40
1.0
 40
2.0
 40
2.0
 40
2.0
 40
3.0
 40
3.0
 40
3.0
 40
4.0
 40
4.0
 40
4.0
 40
5.0
 40
5.0
 40
5.0
 40
6.0
 40
6.0
 40
6.0
 40
7.0
 40
7.0
 40
7.0
 40
8.0
 40
8.0
 40
8.0
 40
9.0
 40
9.0
 40
9.0
 40
9.0
 10
780.5941870033864
 20
57.0552058239784
 30
0.0
 10
780.161176606139
 20
56.49510723221162
 30
0.0
 10
779.8277300344266
 20
55.99103932887373
 30
0.0
 10
779.2878953294471
 20
54.40673665015949
 30
0.0
 10
778.7915937615737
 20
52.95755630610032
 30
0.0
 10
778.4757627860113
 20
51.90323907168072
 30
0.0
 10
778.4280637984641
 20
50.61920494152507
 30
0.0
 10
778.3917613874798
 20
49.66367787470179
 30
0.0
 10
778.9736116697625
 20
49.34344300010187
 30
0.0
 10
779.8267183278911
 20
49.34344300010187
 30
0.0
 10
780.1943843853671
 20
49.34344300010187
 30
0.0
 10
781.1221787906843
 20
49.36683127471956
 30
0.0
 10
781.7828826705968
 20
50.18357600971474
 30
0.0
 10
782.2454110938247
 20
50.75739215186162
 30
0.0
 10
782.671696618218
 20
51.35221608265999
 30
0.0
 10
783.2431917865476
 20
53.30344091698579
 30
0.0
 10
783.7187533704407
 20
54.93466892530829
 30
0.0
 10
784.048034091712
 20
55.98895640365332
 30
0.0
 10
784.0236936227079
 20
56.58922569609933
 30
0.0
 10
784.0236936227079
 20
56.58922569609933
 30
0.0
 10
784.0236936227079
 20
56.58922569609933
 30
0.0
 10
784.0236936227079
 20
56.58922569609933
 30
0.0
 10
783.8686049620114
 20
57.59063662992067
 30
0.0
 10
783.141545035792
 20
57.80223207623919
 30
0.0
 10
782.7261502346942
 20
57.80223207623919
 30
0.0
 10
782.3170042092574
 20
57.80223207623919
 30
0.0
 10
781.2206713975349
 20
57.87302177765837
 30
0.0
 10
780.5941870033864
 20
57.0552058239784
 30
0.0
  0
SPLINE
  5
3CF3
102
{ACAD_REACTORS
330
3CE3
330
3CF4
102
}
330
A
100
AcDbEntity
  8
TEMPLATE
100
AcDbSpline
210
0.0
220
0.0
230
1.0
 70
    11
 71
     3
 72
    29
 73
    25
 74
     0
 42
0.000000001
 43
0.0000000001
 40
0.0
 40
0.0
 40
0.0
 40
0.0
 40
1.0
 40
1.0
 40
1.0
 40
2.0
 40
2.0
 40
2.0
 40
3.0
 40
3.0
 40
3.0
 40
4.0
 40
4.0
 40
4.0
 40
5.0
 40
5.0
 40
5.0
 40
6.0
 40
6.0
 40
6.0
 40
7.0
 40
7.0
 40
7.0
 40
8.0
 40
8.0
 40
8.0
 40
8.0
 10
779.2028524683053
 20
50.85927695121397
 30
0.0
 10
779.1996983244003
 20
51.42613017190976
 30
0.0
 10
779.3786513569075
 20
52.43325427204994
 30
0.0
 10
779.837073441844
 20
53.78078786535333
 30
0.0
 10
780.461474910772
 20
55.60546011450228
 30
0.0
 10
780.8359253532517
 20
56.27238301400122
 30
0.0
 10
781.1635992464958
 20
56.59702178763855
 30
0.0
 10
781.6423149742939
 20
57.06972678837207
 30
0.0
 10
782.2858793552498
 20
57.09329359943722
 30
0.0
 10
782.4757231110525
 20
57.06972678837207
 30
0.0
 10
782.7459082682135
 20
57.03729266708291
 30
0.0
 10
783.1275596807407
 20
56.86045231587057
 30
0.0
 10
783.1503528338669
 20
56.26512253180438
 30
0.0
 10
783.168563551508
 20
55.75560926681887
 30
0.0
 10
783.0217470795442
 20
54.80139146727697
 30
0.0
 10
782.5078596715957
 20
53.30344091698579
 30
0.0
 10
781.915594763211
 20
51.5627700663683
 30
0.0
 10
781.5598311355659
 20
50.87849937539085
 30
0.0
 10
781.274648916818
 20
50.58028399597808
 30
0.0
 10
780.7373732342519
 20
50.02122686682151
 30
0.0
 10
780.161176606139
 20
50.07490682535878
 30
0.0
 10
780.0761337449972
 20
50.07490682535878
 30
0.0
 10
779.9656791961665
 20
50.07490682535878
 30
0.0
 10
779.2043997841834
 20
50.19476429375578
 30
0.0
 10
779.2028524683053
 20
50.85927695121397
 30
0.0
  0
MTEXT
  5
3DB7
102
{ACAD_XDICTIONARY
360
3DB8
102
}
330
A
100
AcDbEntity
  8
TEMPLATE
100
AcDbMText
 10
29.38137849384168
 20
35.9671265159328
 30
0.0
 40
8.0
 41
0.0
 46
8.0
 71
     1
 72
     1
  1
{20190711N}
  7
ＭＳ ゴシック
 73
     1
 44
1.0
1001
ACAD
1000
ACAD_MTEXT_DEFINED_HEIGHT_BEGIN
1070
    46
1040
8.0
1000
ACAD_MTEXT_DEFINED_HEIGHT_END
  0
MTEXT
  5
48EC
330
A
100
AcDbEntity
  8
TEMPLATE
390
1D
100
AcDbMText
 10
54.57431754310119
 20
125.6433609399583
 30
0.0
 40
9.773046875
 41
0.0
 46
11.405145703125
 71
     1
 72
     1
  1
{スライドシャワーバー　-GROHE, ShowerSystem-}
  7
ＭＳ ゴシック
 73
     1
 44
0.7828267384257843
1001
ACAD
1000
ACAD_MTEXT_DEFINED_HEIGHT_BEGIN
1070
    46
1040
11.405145703125
1000
ACAD_MTEXT_DEFINED_HEIGHT_END
  0
MTEXT
  5
48ED
330
A
100
AcDbEntity
  8
TEMPLATE
390
1D
100
AcDbMText
 10
533.374317543205
 20
125.6433609399583
 30
0.0
 40
9.773046875
 41
0.0
 46
9.773046875
 71
     1
 72
     1
  1
{FHT73-3334-001}
  7
ＭＳ ゴシック
 73
     1
 44
0.7828267384257843
1001
ACAD
1000
ACAD_MTEXT_DEFINED_HEIGHT_BEGIN
1070
    46
1040
9.773046875
1000
ACAD_MTEXT_DEFINED_HEIGHT_END
  0
LINE
  5
5CC1
330
A
100
AcDbEntity
  8
MODEL
100
AcDbLine
 10
581.3882424983981
 20
339.2592330584002
 30
0.0
 11
581.3882424983981
 21
302.0457407336003
 31
0.0
  0
DIMENSION
  5
5CC5
330
A
100
AcDbEntity
  8
DIM
100
AcDbDimension
  2
*D1
 10
468.537788544
 20
320.6524868960003
 30
0.0
 11
468.537788544
 21
630.7545155100004
 31
0.0
 70
   161
  1
920
 71
     5
 42
620.20407415
 73
     0
 74
     0
 75
     0
  3
tfrom線あり
100
AcDbAlignedDimension
 13
541.730642498398
 23
940.8565610460003
 33
0.0
 14
541.730642498398
 24
320.6524868960003
 34
0.0
  0
DIMENSION
  5
5CC6
330
A
100
AcDbEntity
  8
DIM
100
AcDbDimension
  2
*D2
 10
642.2882424983985
 20
245.4564332159997
 30
0.0
 11
611.8382419943986
 21
245.4564332159997
 31
0.0
 70
   160
  1
\A1;<>
 71
     5
 42
60.90000000000043
 73
     0
 74
     0
 75
     0
  3
tfrom線あり
100
AcDbAlignedDimension
 13
581.3882424983981
 23
298.3490404184003
 33
0.0
 14
642.2882424983985
 24
328.4800594559997
 34
0.0
100
AcDbRotatedDimension
  0
LINE
  5
5CE7
330
A
100
AcDbEntity
  8
MODEL
100
AcDbLine
 10
581.5891846687379
 20
196.0060498559995
 30
0.0
 11
581.5891846687379
 21
1043.503649855999
 31
0.0
  0
LINE
  5
5CE8
330
A
100
AcDbEntity
  8
MODEL
100
AcDbLine
 10
581.5891846687379
 20
1043.503649855999
 30
0.0
 11
560.4846685440003
 21
1014.127649856
 31
0.0
  0
LINE
  5
5CE9
330
A
100
AcDbEntity
  8
MODEL
100
AcDbLine
 10
581.5891846687379
 20
1017.652769856
 30
0.0
 11
560.4846685440003
 21
988.2767698559996
 31
0.0
  0
LINE
  5
5CEA
330
A
100
AcDbEntity
  8
MODEL
100
AcDbLine
 10
581.5891846687379
 20
989.4518098559995
 30
0.0
 11
560.4846685440003
 21
960.0758098559996
 31
0.0
  0
MTEXT
  5
5CFD
330
A
100
AcDbEntity
  8
TEMPLATE
390
1D
100
AcDbMText
 10
54.57431754310124
 20
89.54613213995829
 30
0.0
 40
9.773046875
 41
0.0
 46
9.919642578125
 71
     1
 72
     1
  1
{クローム}
  7
ＭＳ ゴシック
 73
     1
 44
0.7828267384257843
1001
ACAD
1000
ACAD_MTEXT_DEFINED_HEIGHT_BEGIN
1070
    46
1040
9.919642578125
1000
ACAD_MTEXT_DEFINED_HEIGHT_END
  0
SPLINE
  5
5D1E
330
A
100
AcDbEntity
  8
MODEL
100
AcDbSpline
210
0.0
220
0.0
230
1.0
 70
  1064
 71
     3
 72
    10
 73
     6
 74
     4
 42
0.000000001
 43
0.0000000001
 44
0.0
 40
0.0
 40
0.0
 40
0.0
 40
0.0
 40
6.667718193828404
 40
18.18314054852319
 40
23.5026215120125
 40
23.5026215120125
 40
23.5026215120125
 40
23.5026215120125
 10
620.4882424983981
 20
439.7597827225734
 30
0.0
 10
622.5854987389952
 20
440.868771502281
 30
0.0
 10
628.304802386882
 20
443.8930293161197
 30
0.0
 10
636.1242733352489
 20
435.7805155000508
 30
0.0
 10
640.8082141570087
 20
439.7494574749222
 30
0.0
 10
642.2882424983981
 20
441.0035609812796
 30
0.0
 11
620.4882424983981
 21
439.7597827225734
 31
0.0
 11
626.8244314585907
 21
441.8361197311162
 31
0.0
 11
637.7565877324812
 21
438.2177069284857
 31
0.0
 11
642.2882424983981
 21
441.0035609812796
 31
0.0
  0
SPLINE
  5
5D23
330
A
100
AcDbEntity
  8
MODEL
100
AcDbSpline
210
0.0
220
0.0
230
1.0
 70
  1064
 71
     3
 72
     9
 73
     5
 74
     3
 42
0.000000001
 43
0.0000000001
 44
0.0
 40
0.0
 40
0.0
 40
0.0
 40
0.0
 40
10.12993612282337
 40
13.65095510115768
 40
13.65095510115768
 40
13.65095510115768
 40
13.65095510115768
 10
633.5739082517024
 20
439.1283290054283
 30
0.0
 10
630.0514601847779
 20
437.950624098758
 30
0.0
 10
625.3046602222977
 20
436.3635660355638
 30
0.0
 10
621.4758225014269
 20
439.063407142565
 30
0.0
 10
620.4882424983981
 20
439.7597827225734
 30
0.0
 11
633.5739082517024
 21
439.1283290054283
 31
0.0
 11
623.5120535696152
 21
437.9558588740212
 31
0.0
 11
620.4882424983981
 21
439.7597827225734
 31
0.0
  0
SPLINE
  5
5D26
330
A
100
AcDbEntity
  8
MODEL
100
AcDbSpline
210
0.0
220
0.0
230
1.0
 70
  1064
 71
     3
 72
    10
 73
     6
 74
     4
 42
0.000000001
 43
0.0000000001
 44
0.0
 40
0.0
 40
0.0
 40
0.0
 40
0.0
 40
6.638367113538786
 40
18.15378946823361
 40
23.49961358367246
 40
23.49961358367246
 40
23.49961358367246
 40
23.49961358367246
 10
642.2882424983981
 20
408.1165739114179
 30
0.0
 10
640.2011146749434
 20
407.0105548035738
 30
0.0
 10
634.4934943441826
 20
403.9859498535562
 30
0.0
 10
626.6800354226423
 20
412.0913630079998
 30
0.0
 10
621.978769391834
 20
408.1290416356494
 30
0.0
 10
620.4882424983981
 20
406.8727956527118
 30
0.0
 11
642.2882424983981
 21
408.1165739114179
 31
0.0
 11
635.9829476947375
 21
406.0402369028751
 31
0.0
 11
625.050791420847
 21
409.6586497055057
 31
0.0
 11
620.4882424983981
 21
406.8727956527118
 31
0.0
  0
SPLINE
  5
5D27
330
A
100
AcDbEntity
  8
MODEL
100
AcDbSpline
210
0.0
220
0.0
230
1.0
 70
  1064
 71
     3
 72
     9
 73
     5
 74
     3
 42
0.000000001
 43
0.0000000001
 44
0.0
 40
0.0
 40
0.0
 40
0.0
 40
0.0
 40
10.12993612282335
 40
13.62445939640211
 40
13.62445939640211
 40
13.62445939640211
 40
13.62445939640211
 10
629.2334709016258
 20
408.7480276285631
 30
0.0
 10
632.7591706405441
 20
409.9321389822969
 30
0.0
 10
637.5011307431919
 20
411.5247331373001
 30
0.0
 10
641.3110422894672
 20
408.8122864992806
 30
0.0
 10
642.2882424983981
 20
408.1165739114179
 30
0.0
 11
629.2334709016258
 21
408.7480276285631
 31
0.0
 11
639.295325583713
 21
409.9204977599701
 31
0.0
 11
642.2882424983981
 21
408.1165739114179
 31
0.0
  0
ARC
  5
5D28
330
A
100
AcDbEntity
  8
MODEL
100
AcDbCircle
 10
620.032412032398
 20
338.5709374160003
 30
0.0
 40
0.2066646288914806
100
AcDbArc
 50
54.58595978088325
 51
88.92674988618286
  0
ARC
  5
5D29
330
A
100
AcDbEntity
  8
MODEL
100
AcDbCircle
 10
620.929167961798
 20
337.9976707653003
 30
0.0
 40
0.2166730252141313
100
AcDbArc
 50
57.02692688349785
 51
91.20015477268515
  0
SPLINE
  5
5D2A
330
A
100
AcDbEntity
  8
MODEL
100
AcDbSpline
210
0.0
220
0.0
230
1.0
 70
     8
 71
     3
 72
     8
 73
     4
 74
     0
 42
0.000000001
 43
0.0000000001
 40
0.0
 40
0.0
 40
0.0
 40
0.0
 40
1.0
 40
1.0
 40
1.0
 40
1.0
 10
623.2066145508485
 20
336.9498826415752
 30
0.0
 10
623.1704925923705
 20
336.9685101136496
 30
0.0
 10
623.1260417606478
 20
336.9755993283207
 30
0.0
 10
623.0820106301014
 20
336.9710373888605
 30
0.0
  0
SPLINE
  5
5D2B
330
A
100
AcDbEntity
  8
MODEL
100
AcDbSpline
210
0.0
220
0.0
230
1.0
 70
     8
 71
     3
 72
     8
 73
     4
 74
     0
 42
0.000000001
 43
0.0000000001
 40
0.0
 40
0.0
 40
0.0
 40
0.0
 40
1.0
 40
1.0
 40
1.0
 40
1.0
 10
625.2308922582548
 20
335.9868202902153
 30
0.0
 10
625.2253086752869
 20
335.9845126172518
 30
0.0
 10
625.2192992339751
 20
335.970857835538
 30
0.0
 10
625.2144611031729
 20
335.9486084986486
 30
0.0
  0
SPLINE
  5
5D2C
330
A
100
AcDbEntity
  8
MODEL
100
AcDbSpline
210
0.0
220
0.0
230
1.0
 70
     8
 71
     3
 72
     8
 73
     4
 74
     0
 42
0.000000001
 43
0.0000000001
 40
0.0
 40
0.0
 40
0.0
 40
0.0
 40
1.0
 40
1.0
 40
1.0
 40
1.0
 10
626.3578466971854
 20
335.5470086237511
 30
0.0
 10
626.3251095185676
 20
335.5597482241812
 30
0.0
 10
626.2829470424836
 20
335.5574887761034
 30
0.0
 10
626.2407460853344
 20
335.54249238555
 30
0.0
  0
ARC
  5
5D2D
330
A
100
AcDbEntity
  8
MODEL
100
AcDbCircle
 10
629.9314692803981
 20
284.6458783311003
 30
0.0
 40
22.09639089013253
100
AcDbArc
 50
55.21163069859998
 51
69.99556307210024
  0
LINE
  5
5D2E
330
A
100
AcDbEntity
  8
MODEL
100
AcDbLine
 10
632.4480365471981
 20
306.7615133217003
 30
0.0
 11
632.4480365471981
 21
306.7610807112003
 31
0.0
  0
LINE
  5
5D2F
330
A
100
AcDbEntity
  8
MODEL
100
AcDbLine
 10
628.8882424983981
 20
334.5710876952003
 30
0.0
 11
628.8882424983981
 21
334.4744706179004
 31
0.0
  0
LINE
  5
5D30
330
A
100
AcDbEntity
  8
MODEL
100
AcDbLine
 10
628.8882424983981
 20
334.6762943940003
 30
0.0
 11
628.8882424983981
 21
334.5710876952003
 31
0.0
  0
ELLIPSE
  5
5D31
330
A
100
AcDbEntity
  8
MODEL
100
AcDbEllipse
 10
628.688242498398
 20
334.6762943939003
 30
0.0
 11
-0.04046712625273981
 21
-0.1958632474274961
 31
0.0
210
0.0
220
0.0
230
1.0
 40
0.2318698334000001
 41
3.10645956437437
 42
3.141592653589793
  0
LINE
  5
5D32
330
A
100
AcDbEntity
  8
MODEL
100
AcDbLine
 10
581.3882424983981
 20
302.0457407336003
 30
0.0
 11
642.5186055585981
 21
302.7926261705003
 31
0.0
  0
LINE
  5
5D33
330
A
100
AcDbEntity
  8
MODEL
100
AcDbLine
 10
620.3127320082981
 20
338.7836570451003
 30
0.0
 11
581.3882424983981
 21
339.2592330584004
 31
0.0
  0
LINE
  5
5D34
330
A
100
AcDbEntity
  8
MODEL
100
AcDbLine
 10
621.235224286298
 20
338.0601030504004
 30
0.0
 11
621.234735830498
 21
338.1160745488003
 31
0.0
  0
ARC
  5
5D35
330
A
100
AcDbEntity
  8
MODEL
100
AcDbCircle
 10
620.3190212705981
 20
338.5835652755003
 30
0.0
 40
0.1999999992154178
100
AcDbArc
 50
32.20934260509009
 51
91.62786517861134
  0
ARC
  5
5D36
330
A
100
AcDbEntity
  8
MODEL
100
AcDbCircle
 10
625.7891517454981
 20
347.3292921148003
 30
0.0
 40
10.27626416929397
100
AcDbArc
 50
236.7242224708999
 51
237.8639564407001
  0
ARC
  5
5D37
330
A
100
AcDbEntity
  8
MODEL
100
AcDbCircle
 10
633.6647259452981
 20
359.5674996326003
 30
0.0
 40
24.82919934293361
100
AcDbArc
 50
237.4969286679
 51
238.3054183252
  0
SPLINE
  5
5D38
330
A
100
AcDbEntity
  8
MODEL
100
AcDbSpline
210
0.0
220
0.0
230
1.0
 70
     8
 71
     3
 72
    13
 73
     9
 74
     0
 42
0.000000001
 43
0.0000000001
 40
0.0
 40
0.0
 40
0.0
 40
0.0
 40
0.1215818473884919
 40
0.2357405885240468
 40
0.3669299579734117
 40
0.571271355970802
 40
0.821838878262399
 40
1.0
 40
1.0
 40
1.0
 40
1.0
 10
621.2321034948374
 20
338.1195568913035
 30
0.0
 10
621.2270547039747
 20
338.1592772043415
 30
0.0
 10
621.2179791992268
 20
338.2247289942036
 30
0.0
 10
621.1504066726469
 20
338.3060089344214
 30
0.0
 10
621.0633572693655
 20
338.3640772843467
 30
0.0
 10
620.9350551422257
 20
338.411107214566
 30
0.0
 10
620.7559659032744
 20
338.4477611449745
 30
0.0
 10
620.6161740173727
 20
338.458982935731
 30
0.0
 10
620.5482374035914
 20
338.4640186766626
 30
0.0
  0
ARC
  5
5D39
330
A
100
AcDbEntity
  8
MODEL
100
AcDbCircle
 10
633.3902405074981
 20
357.9896097393003
 30
0.0
 40
23.34503808719419
100
AcDbArc
 50
238.0738563485
 51
239.8929066824998
  0
ARC
  5
5D3A
330
A
100
AcDbEntity
  8
MODEL
100
AcDbCircle
 10
632.8315491525981
 20
356.4590343643004
 30
0.0
 40
21.74256482115815
100
AcDbArc
 50
239.1433162088001
 51
241.2953244761999
  0
SPLINE
  5
5D3B
330
A
100
AcDbEntity
  8
MODEL
100
AcDbSpline
210
0.0
220
0.0
230
1.0
 70
     8
 71
     3
 72
    13
 73
     9
 74
     0
 42
0.000000001
 43
0.0000000001
 40
0.0
 40
0.0
 40
0.0
 40
0.0
 40
0.1484350493245657
 40
0.3164630086345253
 40
0.495874885185916
 40
0.702470138951345
 40
0.9040665005832237
 40
1.0
 40
1.0
 40
1.0
 40
1.0
 10
623.2872492199962
 20
336.8646983509532
 30
0.0
 10
623.283162065398
 20
336.9219484276333
 30
0.0
 10
623.2735523755603
 20
337.0261516362355
 30
0.0
 10
623.1594553450481
 20
337.167242034241
 30
0.0
 10
622.993111321309
 20
337.2772928788715
 30
0.0
 10
622.764588058585
 20
337.3564906480776
 30
0.0
 10
622.5231971977189
 20
337.3976946001129
 30
0.0
 10
622.387226606677
 20
337.3960816248303
 30
0.0
 10
622.3362455203016
 20
337.3951789795033
 30
0.0
  0
ARC
  5
5D3C
330
A
100
AcDbEntity
  8
MODEL
100
AcDbCircle
 10
633.891470522298
 20
356.9422190490003
 30
0.0
 40
22.67304674783425
100
AcDbArc
 50
241.8769677413
 51
247.5563712984
  0
ARC
  5
5D3D
330
A
100
AcDbEntity
  8
MODEL
100
AcDbCircle
 10
625.4586812039981
 20
334.8942453891003
 30
0.0
 40
1.111806302787413
100
AcDbArc
 50
89.61271480800507
 51
101.8073450127009
  0
SPLINE
  5
5D3E
330
A
100
AcDbEntity
  8
MODEL
100
AcDbSpline
210
0.0
220
0.0
230
1.0
 70
     8
 71
     3
 72
    12
 73
     8
 74
     0
 42
0.000000001
 43
0.0000000001
 40
0.0
 40
0.0
 40
0.0
 40
0.0
 40
0.1222749280249409
 40
0.35609406714535
 40
0.5919169330113382
 40
0.7988872299331061
 40
1.0
 40
1.0
 40
1.0
 40
1.0
 10
626.4022643262945
 20
335.4869323711446
 30
0.0
 10
626.3898651418036
 20
335.5285788896105
 30
0.0
 10
626.3573439027494
 20
335.6320200419619
 30
0.0
 10
626.2089659235778
 20
335.7863220817966
 30
0.0
 10
625.9937127488585
 20
335.9144408950667
 30
0.0
 10
625.7306165328001
 20
335.9946099325794
 30
0.0
 10
625.5628147933354
 20
336.0026876755772
 30
0.0
 10
625.4661962921854
 20
336.0060262930764
 30
0.0
  0
ARC
  5
5D3F
330
A
100
AcDbEntity
  8
MODEL
100
AcDbCircle
 10
631.7243710612981
 20
349.9731382365003
 30
0.0
 40
15.38869554307007
100
AcDbArc
 50
249.5929127062997
 51
258.7852790997996
  0
ARC
  5
5D40
330
A
100
AcDbEntity
  8
MODEL
100
AcDbCircle
 10
642.5429291160981
 20
302.9887431173003
 30
0.0
 40
0.1901639708514695
100
AcDbArc
 50
293.0676959526951
 51
324.5435880595026
  0
ARC
  5
5D41
330
A
100
AcDbEntity
  8
MODEL
100
AcDbCircle
 10
628.688242498398
 20
334.6762943939003
 30
0.0
 40
0.1999999999999919
100
AcDbArc
 50
0.0
 51
78.32642627509863
  0
LINE
  5
5D42
330
A
100
AcDbEntity
  8
MODEL
100
AcDbLine
 10
642.2882424983981
 20
338.1675273123003
 30
0.0
 11
642.2882424983981
 21
408.116573911418
 31
0.0
  0
LINE
  5
5D43
330
A
100
AcDbEntity
  8
MODEL
100
AcDbLine
 10
642.2882424983981
 20
645.0789785855004
 30
0.0
 11
642.2882424983981
 21
923.3420869967003
 31
0.0
  0
LINE
  5
5D44
330
A
100
AcDbEntity
  8
MODEL
100
AcDbLine
 10
620.4882424983981
 20
922.8188798328003
 30
0.0
 11
620.4882424983981
 21
645.0789785855004
 31
0.0
  0
LINE
  5
5D45
330
A
100
AcDbEntity
  8
MODEL
100
AcDbLine
 10
620.4882424983981
 20
616.4300693567003
 30
0.0
 11
620.4882424983981
 21
439.7597827225734
 31
0.0
  0
LINE
  5
5D46
330
A
100
AcDbEntity
  8
MODEL
100
AcDbLine
 10
581.3882424983981
 20
927.0077658107002
 30
0.0
 11
581.3882424983981
 21
954.7053562818003
 31
0.0
  0
ARC
  5
5D47
330
A
100
AcDbEntity
  8
MODEL
100
AcDbCircle
 10
630.4283798365981
 20
975.3646313641004
 30
0.0
 40
20.774575585757
100
AcDbArc
 50
290.3810796302001
 51
307.1658447175998
  0
ARC
  5
5D48
330
A
100
AcDbEntity
  8
MODEL
100
AcDbCircle
 10
630.4283798365981
 20
906.3484907284003
 30
0.0
 40
20.77457558575858
100
AcDbArc
 50
52.79422911930028
 51
66.58701762700011
  0
ARC
  5
5D49
330
A
100
AcDbEntity
  8
MODEL
100
AcDbCircle
 10
151.3882424983981
 20
940.8565610462003
 30
0.0
 40
499.9999999999999
100
AcDbArc
 50
358.0057505618
 51
1.9942494382
  0
ARC
  5
5D4A
330
A
100
AcDbEntity
  8
MODEL
100
AcDbCircle
 10
650.585707694398
 20
923.4743649268003
 30
0.0
 40
0.4999999999999504
100
AcDbArc
 50
270.6000000000068
 51
358.0057505615148
  0
ARC
  5
5D4B
330
A
100
AcDbEntity
  8
MODEL
100
AcDbCircle
 10
650.585707694398
 20
958.2387571656004
 30
0.0
 40
0.4999999999999161
100
AcDbArc
 50
1.994249438485172
 51
89.39999999999317
  0
LINE
  5
5D4C
330
A
100
AcDbEntity
  8
MODEL
100
AcDbLine
 10
642.9817028780981
 20
922.8947056469003
 30
0.0
 11
650.5909435863981
 21
922.9743923421004
 31
0.0
  0
LINE
  5
5D4D
330
A
100
AcDbEntity
  8
MODEL
100
AcDbLine
 10
650.5909435863981
 20
958.7387297503003
 30
0.0
 11
642.9817028780981
 21
958.8184164456004
 31
0.0
  0
ARC
  5
5D4E
330
A
100
AcDbEntity
  8
MODEL
100
AcDbCircle
 10
631.3065999634981
 20
970.6257485441004
 30
0.0
 40
15.95796123831494
100
AcDbArc
 50
270.7331683102
 51
293.0914237040997
  0
ARC
  5
5D4F
330
A
100
AcDbEntity
  8
MODEL
100
AcDbCircle
 10
642.9791972017981
 20
958.6252443863004
 30
0.0
 40
0.1892456400829717
100
AcDbArc
 50
122.9300872224116
 51
126.7805144899314
  0
SPLINE
  5
5D50
330
A
100
AcDbEntity
  8
MODEL
100
AcDbSpline
210
0.0
220
0.0
230
1.0
 70
     8
 71
     3
 72
     8
 73
     4
 74
     0
 42
0.000000001
 43
0.0000000001
 40
0.0
 40
0.0
 40
0.0
 40
0.0
 40
1.0
 40
1.0
 40
1.0
 40
1.0
 10
631.5106809292909
 20
954.6658875185458
 30
0.0
 10
617.066833396975
 20
954.736522245179
 30
0.0
 10
600.4263346434574
 20
954.8157859021021
 30
0.0
 10
581.5891846687379
 20
954.9036784893146
 30
0.0
  0
ARC
  5
5D51
330
A
100
AcDbEntity
  8
MODEL
100
AcDbCircle
 10
581.5882424983981
 20
954.7053562818003
 30
0.0
 40
0.1999999999999735
100
AcDbArc
 50
89.72779719002841
 51
179.9999999998697
  0
ARC
  5
5D52
330
A
100
AcDbEntity
  8
MODEL
100
AcDbCircle
 10
631.2139776216981
 20
910.3318827274004
 30
0.0
 40
16.71090206342068
100
AcDbArc
 50
63.88614761179987
 51
88.98226397709979
  0
ARC
  5
5D53
330
A
100
AcDbEntity
  8
MODEL
100
AcDbCircle
 10
642.9760724212981
 20
923.0857838154004
 30
0.0
 40
0.1858208932160927
100
AcDbArc
 50
233.2025393806015
 51
237.7018721521879
  0
LINE
  5
5D54
330
A
100
AcDbEntity
  8
MODEL
100
AcDbLine
 10
581.5891829613981
 20
926.8098067846004
 30
0.0
 11
631.5106775537981
 21
927.0479338984003
 31
0.0
  0
ARC
  5
5D55
330
A
100
AcDbEntity
  8
MODEL
100
AcDbCircle
 10
581.5882424983981
 20
927.0077658107002
 30
0.0
 40
0.1999999999999979
100
AcDbArc
 50
180.0
 51
270.2722028099716
  0
ARC
  5
5D56
330
A
100
AcDbEntity
  8
MODEL
100
AcDbCircle
 10
630.4283798365981
 20
286.1444165781003
 30
0.0
 40
20.77457558575783
100
AcDbArc
 50
52.79422911929996
 51
66.58701762699988
  0
ARC
  5
5D57
330
A
100
AcDbEntity
  8
MODEL
100
AcDbCircle
 10
630.4283798365981
 20
355.1605572138003
 30
0.0
 40
20.77457558575768
100
AcDbArc
 50
290.3810796308998
 51
307.1658447176
  0
ARC
  5
5D58
330
A
100
AcDbEntity
  8
MODEL
100
AcDbCircle
 10
151.3882424983981
 20
320.6524868960003
 30
0.0
 40
499.9999999999999
100
AcDbArc
 50
358.0057505618
 51
1.9942494382
  0
ARC
  5
5D59
330
A
100
AcDbEntity
  8
MODEL
100
AcDbCircle
 10
650.585707694398
 20
303.2702907766003
 30
0.0
 40
0.4999999999999991
100
AcDbArc
 50
270.6000000000067
 51
358.0057505614956
  0
ARC
  5
5D5A
330
A
100
AcDbEntity
  8
MODEL
100
AcDbCircle
 10
650.585707694398
 20
338.0346830154003
 30
0.0
 40
0.4999999999999176
100
AcDbArc
 50
1.994249438498192
 51
89.39999999999324
  0
LINE
  5
5D5B
330
A
100
AcDbEntity
  8
MODEL
100
AcDbLine
 10
642.9817028780981
 20
302.6906314966003
 30
0.0
 11
650.5909435863981
 21
302.7703181919003
 31
0.0
  0
LINE
  5
5D5C
330
A
100
AcDbEntity
  8
MODEL
100
AcDbLine
 10
650.5909435863981
 20
338.5346556001003
 30
0.0
 11
642.9817028780981
 21
338.6143422953003
 31
0.0
  0
LINE
  5
5D5D
330
A
100
AcDbEntity
  8
MODEL
100
AcDbLine
 10
581.5891829884981
 20
306.6057326344003
 30
0.0
 11
631.5106774431981
 21
306.8438597476003
 31
0.0
  0
ARC
  5
5D5E
330
A
100
AcDbEntity
  8
MODEL
100
AcDbCircle
 10
631.213992218898
 20
290.1278524459003
 30
0.0
 40
16.71085624769806
100
AcDbArc
 50
63.8861263473
 51
88.98246913519995
  0
ARC
  5
5D5F
330
A
100
AcDbEntity
  8
MODEL
100
AcDbCircle
 10
642.976072421398
 20
302.8817096652003
 30
0.0
 40
0.1858208932753548
100
AcDbArc
 50
233.2025393759267
 51
237.701872146308
  0
SPLINE
  5
5D60
330
A
100
AcDbEntity
  8
MODEL
100
AcDbSpline
210
0.0
220
0.0
230
1.0
 70
     8
 71
     3
 72
     8
 73
     4
 74
     0
 42
0.000000001
 43
0.0000000001
 40
0.0
 40
0.0
 40
0.0
 40
0.0
 40
1.0
 40
1.0
 40
1.0
 40
1.0
 10
631.5106809429096
 20
334.4618133682308
 30
0.0
 10
617.0668334015147
 20
334.5324480949075
 30
0.0
 10
600.4263346604716
 20
334.6117117517722
 30
0.0
 10
581.5891847197809
 20
334.6996043388247
 30
0.0
  0
ARC
  5
5D61
330
A
100
AcDbEntity
  8
MODEL
100
AcDbCircle
 10
631.306594937698
 20
350.4216890562003
 30
0.0
 40
15.95797669699055
100
AcDbArc
 50
270.7332449356
 51
293.0914196568003
  0
ARC
  5
5D62
330
A
100
AcDbEntity
  8
MODEL
100
AcDbCircle
 10
642.9791972017981
 20
338.4211702361004
 30
0.0
 40
0.1892456400684249
100
AcDbArc
 50
122.9300872210069
 51
126.780514487109
  0
CIRCLE
  5
5D63
330
A
100
AcDbEntity
  8
MODEL
100
AcDbCircle
 10
631.3882424983981
 20
630.7545239711003
 30
0.0
 40
18.0
  0
ARC
  5
5D64
330
A
100
AcDbEntity
  8
MODEL
100
AcDbCircle
 10
631.3882170524981
 20
630.7547264226002
 30
0.0
 40
23.00000000000009
100
AcDbArc
 50
73.67075216970025
 51
106.3301654851001
  0
LINE
  5
5D65
330
A
100
AcDbEntity
  8
MODEL
100
AcDbLine
 10
638.397757866198
 20
647.6641708264003
 30
0.0
 11
638.3584986244981
 21
652.1628343307003
 31
0.0
  0
LINE
  5
5D66
330
A
100
AcDbEntity
  8
MODEL
100
AcDbLine
 10
624.418015480698
 20
652.1661698151004
 30
0.0
 11
624.3786603541981
 21
647.6565189937003
 31
0.0
  0
ARC
  5
5D67
330
A
100
AcDbEntity
  8
MODEL
100
AcDbCircle
 10
625.0921670268981
 20
652.1805368483003
 30
0.0
 40
0.665403925599821
100
AcDbArc
 50
113.9734905072992
 51
181.2027432399988
  0
ARC
  5
5D68
330
A
100
AcDbEntity
  8
MODEL
100
AcDbCircle
 10
637.678718759598
 20
652.1772214293003
 30
0.0
 40
0.6710673261555848
100
AcDbArc
 50
358.7659827063064
 51
67.00332604090512
  0
ARC
  5
5D69
330
A
100
AcDbEntity
  8
MODEL
100
AcDbCircle
 10
623.8888051425981
 20
647.6554876176003
 30
0.0
 40
0.4881594566427645
100
AcDbArc
 50
305.4579731766001
 51
358.9852342036025
  0
ARC
  5
5D6A
330
A
100
AcDbEntity
  8
MODEL
100
AcDbCircle
 10
638.866069167498
 20
647.6383910879003
 30
0.0
 40
0.4619846797634026
100
AcDbArc
 50
176.7407234390008
 51
234.1336668881031
  0
LINE
  5
5D6B
330
A
100
AcDbEntity
  8
MODEL
100
AcDbLine
 10
617.453139610998
 20
642.1499457961004
 30
0.0
 11
617.4524544384981
 21
642.1491077329003
 31
0.0
  0
LINE
  5
5D6C
330
A
100
AcDbEntity
  8
MODEL
100
AcDbLine
 10
644.0552011940981
 20
617.9645364552003
 30
0.0
 11
644.0563376962981
 21
617.9656622509003
 31
0.0
  0
LINE
  5
5D6D
330
A
100
AcDbEntity
  8
MODEL
100
AcDbLine
 10
581.3882424983981
 20
954.7053562818003
 30
0.0
 11
581.3882424983981
 21
955.1188366481003
 31
0.0
  0
LINE
  5
5D6E
330
A
100
AcDbEntity
  8
MODEL
100
AcDbLine
 10
581.3882424983981
 20
927.0077658107002
 30
0.0
 11
581.3882424983981
 21
926.5941996953004
 31
0.0
  0
LINE
  5
5D6F
330
A
100
AcDbEntity
  8
MODEL
100
AcDbLine
 10
628.8882424983981
 20
927.0354248000003
 30
0.0
 11
628.8882424983981
 21
926.9369404444003
 31
0.0
  0
SPLINE
  5
5D70
330
A
100
AcDbEntity
  8
MODEL
100
AcDbSpline
210
0.0
220
0.0
230
1.0
 70
     8
 71
     3
 72
     8
 73
     4
 74
     0
 42
0.000000001
 43
0.0000000001
 40
0.0
 40
0.0
 40
0.0
 40
0.0
 40
0.9999999999999999
 40
0.9999999999999999
 40
0.9999999999999999
 40
0.9999999999999999
 10
626.3550370499684
 20
925.9606940576214
 30
0.0
 10
626.32271615411
 20
925.9491393872606
 30
0.0
 10
626.2817481142008
 20
925.951684903443
 30
0.0
 10
626.2407437267618
 20
925.9662555981606
 30
0.0
  0
SPLINE
  5
5D71
330
A
100
AcDbEntity
  8
MODEL
100
AcDbSpline
210
0.0
220
0.0
230
1.0
 70
     8
 71
     3
 72
     8
 73
     4
 74
     0
 42
0.000000001
 43
0.0000000001
 40
0.0
 40
0.0
 40
0.0
 40
0.0
 40
1.0
 40
1.0
 40
1.0
 40
1.0
 10
625.2305247221384
 20
925.5221248991704
 30
0.0
 10
625.2250457621773
 20
925.5248652471105
 30
0.0
 10
625.2191928291168
 20
925.5384044276398
 30
0.0
 10
625.2144608356821
 20
925.5601650853239
 30
0.0
  0
SPLINE
  5
5D72
330
A
100
AcDbEntity
  8
MODEL
100
AcDbSpline
210
0.0
220
0.0
230
1.0
 70
     8
 71
     3
 72
     8
 73
     4
 74
     0
 42
0.000000001
 43
0.0000000001
 40
0.0
 40
0.0
 40
0.0
 40
0.0
 40
0.9999999999999999
 40
0.9999999999999999
 40
0.9999999999999999
 40
0.9999999999999999
 10
623.2052979787175
 20
924.5582852670302
 30
0.0
 10
623.169415168685
 20
924.5401585029394
 30
0.0
 10
623.1255071125596
 20
924.5332939251343
 30
0.0
 10
623.0820086627498
 20
924.5378004152944
 30
0.0
  0
SPLINE
  5
5D73
330
A
100
AcDbEntity
  8
MODEL
100
AcDbSpline
210
0.0
220
0.0
230
1.0
 70
     8
 71
     3
 72
     8
 73
     4
 74
     0
 42
0.000000001
 43
0.0000000001
 40
0.0
 40
0.0
 40
0.0
 40
0.0
 40
1.0
 40
1.0
 40
1.0
 40
1.0
 10
622.3608117723287
 20
924.109499168555
 30
0.0
 10
622.3493999455396
 20
924.1104306323828
 30
0.0
 10
622.3375914322398
 20
924.115368155313
 30
0.0
 10
622.3261704724838
 20
924.1239612278753
 30
0.0
  0
ARC
  5
5D74
330
A
100
AcDbEntity
  8
MODEL
100
AcDbCircle
 10
620.9291670494981
 20
923.5112649780003
 30
0.0
 40
0.2166727393160576
100
AcDbArc
 50
268.7997976873795
 51
305.5778766091642
  0
ARC
  5
5D75
330
A
100
AcDbEntity
  8
MODEL
100
AcDbCircle
 10
620.0324145503981
 20
922.9380936501004
 30
0.0
 40
0.2066618867813223
100
AcDbArc
 50
271.0725313469998
 51
304.8657401947804
  0
LINE
  5
5D76
330
A
100
AcDbEntity
  8
MODEL
100
AcDbLine
 10
581.3882424983981
 20
959.4633072086003
 30
0.0
 11
581.3882424983981
 21
955.2737954237002
 31
0.0
  0
ARC
  5
5D77
330
A
100
AcDbEntity
  8
MODEL
100
AcDbCircle
 10
629.9314692803981
 20
976.8631696111004
 30
0.0
 40
22.09639089013281
100
AcDbArc
 50
278.345682257
 51
304.7508799753998
  0
LINE
  5
5D78
330
A
100
AcDbEntity
  8
MODEL
100
AcDbLine
 10
581.3882424983981
 20
955.1188366481003
 30
0.0
 11
581.3882424983981
 21
955.2737954237002
 31
0.0
  0
LINE
  5
5D79
330
A
100
AcDbEntity
  8
MODEL
100
AcDbLine
 10
632.4098725955981
 20
954.7490586377003
 30
0.0
 11
632.4098725955981
 21
954.7486652234004
 31
0.0
  0
ARC
  5
5D7A
330
A
100
AcDbEntity
  8
MODEL
100
AcDbCircle
 10
629.6759136474981
 20
954.6931170253004
 30
0.0
 40
2.734531220122882
100
AcDbArc
 50
1.172208922799614
 51
4.451254140597146
  0
LINE
  5
5D7B
330
A
100
AcDbEntity
  8
MODEL
100
AcDbLine
 10
581.3882424983981
 20
922.2498148838004
 30
0.0
 11
581.3882424983981
 21
926.4392399881003
 31
0.0
  0
LINE
  5
5D7C
330
A
100
AcDbEntity
  8
MODEL
100
AcDbLine
 10
581.3882424983981
 20
926.4392399881003
 30
0.0
 11
581.3882424983981
 21
926.5941996953004
 31
0.0
  0
LINE
  5
5D7D
330
A
100
AcDbEntity
  8
MODEL
100
AcDbLine
 10
628.8882424983981
 20
926.9369404444003
 30
0.0
 11
628.8882424983981
 21
926.8324152911002
 31
0.0
  0
ELLIPSE
  5
5D7E
330
A
100
AcDbEntity
  8
MODEL
100
AcDbEllipse
 10
628.688242498398
 20
926.8324152911002
 30
0.0
 11
-0.04046479182035628
 21
0.1958637297279076
 31
0.0
210
0.0
220
0.0
230
1.0
 40
0.2318704133000001
 41
3.141592653589793
 42
3.167277441264316
  0
LINE
  5
5D7F
102
{ACAD_REACTORS
330
5E5F
102
}
330
A
100
AcDbEntity
  8
MODEL
100
AcDbLine
 10
642.5186055585981
 20
958.7164217717004
 30
0.0
 11
581.3882424983981
 21
959.4633072086003
 31
0.0
  0
LINE
  5
5D80
102
{ACAD_REACTORS
330
5E5F
102
}
330
A
100
AcDbEntity
  8
MODEL
100
AcDbLine
 10
581.3882424983981
 20
922.2498148838004
 30
0.0
 11
620.3127320082981
 21
922.7253908971004
 31
0.0
  0
LINE
  5
5D81
330
A
100
AcDbEntity
  8
MODEL
100
AcDbLine
 10
621.234736716598
 20
923.3930749309004
 30
0.0
 11
621.2352276856981
 21
923.4493344211003
 31
0.0
  0
ARC
  5
5D82
330
A
100
AcDbEntity
  8
MODEL
100
AcDbCircle
 10
631.8263679911981
 20
911.1395428312003
 30
0.0
 40
15.79739367132235
100
AcDbArc
 50
101.2981628168001
 51
110.2639460148002
  0
SPLINE
  5
5D83
330
A
100
AcDbEntity
  8
MODEL
100
AcDbSpline
210
0.0
220
0.0
230
1.0
 70
     8
 71
     3
 72
    13
 73
     9
 74
     0
 42
0.000000001
 43
0.0000000001
 40
0.0
 40
0.0
 40
0.0
 40
0.0
 40
0.0224517627505783
 40
0.2524306711356125
 40
0.4876088599791247
 40
0.7359192913390915
 40
0.9991093288627166
 40
1.0
 40
1.0
 40
1.0
 40
1.0
 10
625.5873617251335
 20
925.5079021355155
 30
0.0
 10
625.5972584812722
 20
925.5078408976347
 30
0.0
 10
625.6932035554205
 20
925.50736430817
 30
0.0
 10
625.8869864939224
 20
925.5579657539765
 30
0.0
 10
626.1219905182426
 20
925.6594184350624
 30
0.0
 10
626.3027711592573
 20
925.8163966559111
 30
0.0
 10
626.4061562082612
 20
925.9537315069838
 30
0.0
 10
626.4159204860898
 20
926.0267066815293
 30
0.0
 10
626.4159586005684
 20
926.0269916987061
 30
0.0
  0
ARC
  5
5D84
330
A
100
AcDbEntity
  8
MODEL
100
AcDbCircle
 10
625.4645034218981
 20
926.4544210103004
 30
0.0
 40
0.9544590839524978
100
AcDbArc
 50
255.8849646976978
 51
277.3956522523943
  0
ARC
  5
5D85
330
A
100
AcDbEntity
  8
MODEL
100
AcDbCircle
 10
634.0877144860981
 20
904.1596341204004
 30
0.0
 40
23.12471324006903
100
AcDbArc
 50
112.5085863076001
 51
118.0800904447
  0
SPLINE
  5
5D86
330
A
100
AcDbEntity
  8
MODEL
100
AcDbSpline
210
0.0
220
0.0
230
1.0
 70
     8
 71
     3
 72
    13
 73
     9
 74
     0
 42
0.000000001
 43
0.0000000001
 40
0.0
 40
0.0
 40
0.0
 40
0.0
 40
0.0725379119981341
 40
0.2666832052687683
 40
0.4660583715730013
 40
0.6812890488574891
 40
0.8573784952380455
 40
1.0
 40
1.0
 40
1.0
 40
1.0
 10
622.3605456567802
 20
924.1136001114146
 30
0.0
 10
622.3984195566308
 20
924.1128864747454
 30
0.0
 10
622.518173478635
 20
924.1111367038659
 30
0.0
 10
622.7390654896213
 20
924.147482410789
 30
0.0
 10
622.9775215324584
 20
924.2232193558189
 30
0.0
 10
623.1563316257652
 20
924.3355304066497
 30
0.0
 10
623.2742745674864
 20
924.4857513708505
 30
0.0
 10
623.2847734525187
 20
924.5890605474192
 30
0.0
 10
623.2891679396913
 20
924.6432676155457
 30
0.0
  0
ARC
  5
5D87
330
A
100
AcDbEntity
  8
MODEL
100
AcDbCircle
 10
634.3643577861981
 20
902.2706785798002
 30
0.0
 40
24.91618281402873
100
AcDbArc
 50
118.7258986268001
 51
120.7866691336
  0
ARC
  5
5D88
330
A
100
AcDbEntity
  8
MODEL
100
AcDbCircle
 10
634.5776476740981
 20
901.6446797205003
 30
0.0
 40
25.56350430457368
100
AcDbArc
 50
120.4792039281001
 51
121.9410780746001
  0
SPLINE
  5
5D89
330
A
100
AcDbEntity
  8
MODEL
100
AcDbSpline
210
0.0
220
0.0
230
1.0
 70
     8
 71
     3
 72
    12
 73
     8
 74
     0
 42
0.000000001
 43
0.0000000001
 40
0.0
 40
0.0
 40
0.0
 40
0.0
 40
0.1308888182520864
 40
0.4006979648514021
 40
0.7021209073114084
 40
0.882822690396338
 40
1.0
 40
1.0
 40
1.0
 40
1.0
 10
620.6040217137065
 20
923.0498204828232
 30
0.0
 10
620.6508665487734
 20
923.053582148792
 30
0.0
 10
620.773555483219
 20
923.0638022516086
 30
0.0
 10
620.9610164798954
 20
923.1049643836232
 30
0.0
 10
621.1052620758911
 20
923.1581773493131
 30
0.0
 10
621.2183677215255
 20
923.2748077129309
 30
0.0
 10
621.2278135622718
 20
923.3546645259016
 30
0.0
 10
621.2318453220385
 20
923.3912950578447
 30
0.0
  0
ARC
  5
5D8A
330
A
100
AcDbEntity
  8
MODEL
100
AcDbCircle
 10
632.830563910398
 20
903.2566532150004
 30
0.0
 40
23.27194529615817
100
AcDbArc
 50
121.6549826767002
 51
122.6318151464
  0
ARC
  5
5D8B
330
A
100
AcDbEntity
  8
MODEL
100
AcDbCircle
 10
624.607402544898
 20
915.9952460945003
 30
0.0
 40
8.110048130055711
100
AcDbArc
 50
122.236034493099
 51
123.3435109660988
  0
ARC
  5
5D8C
330
A
100
AcDbEntity
  8
MODEL
100
AcDbCircle
 10
620.319021270698
 20
922.9254826683002
 30
0.0
 40
0.1999999598542188
100
AcDbArc
 50
268.3721348215029
 51
0.0429420199997599
  0
ARC
  5
5D8D
330
A
100
AcDbEntity
  8
MODEL
100
AcDbCircle
 10
628.688242498398
 20
926.8324152911002
 30
0.0
 40
0.1999999999999832
100
AcDbArc
 50
281.6728908354067
 51
359.999999999935
  0
LINE
  5
5D8F
330
A
100
AcDbEntity
  8
MODEL
100
AcDbLine
 10
642.2882424983981
 20
441.0035609812796
 30
0.0
 11
642.2882424983981
 21
616.4300693567003
 31
0.0
  0
LINE
  5
5D90
330
A
100
AcDbEntity
  8
MODEL
100
AcDbLine
 10
620.4882424983981
 20
406.8727956527118
 30
0.0
 11
620.4882424983981
 21
338.5232886025003
 31
0.0
  0
LINE
  5
5DB3
330
A
100
AcDbEntity
  8
MODEL
100
AcDbLine
 10
186.2811659992982
 20
306.7147837754003
 30
0.0
 11
186.2811659992982
 21
306.3902112941003
 31
0.0
  0
LINE
  5
5DB4
330
A
100
AcDbEntity
  8
MODEL
100
AcDbLine
 10
186.2810608955982
 20
334.5887060908003
 30
0.0
 11
186.2810608955982
 21
334.9148482469003
 31
0.0
  0
ARC
  5
5DB5
330
A
100
AcDbEntity
  8
MODEL
100
AcDbCircle
 10
174.4451900528982
 20
320.6524868960003
 30
0.0
 40
18.60674616238094
100
AcDbArc
 50
230.7863549890999
 51
309.2095532524
  0
LINE
  5
5DB6
330
A
100
AcDbEntity
  8
MODEL
100
AcDbLine
 10
162.6081956004982
 20
306.3910423106003
 30
0.0
 11
162.6081956004982
 21
306.7159535642003
 31
0.0
  0
SPLINE
  5
5DB7
330
A
100
AcDbEntity
  8
MODEL
100
AcDbSpline
210
0.0
220
0.0
230
1.0
 70
     8
 71
     3
 72
     8
 73
     4
 74
     0
 42
0.000000001
 43
0.0000000001
 40
0.0
 40
0.0
 40
0.0
 40
0.0
 40
1.0
 40
1.0
 40
1.0
 40
1.0
 10
186.2811659993113
 20
306.3902112940586
 30
0.0
 10
186.2811659993113
 20
306.330633006317
 30
0.0
 10
186.2537665040073
 20
306.2729154653792
 30
0.0
 10
186.2076028860637
 20
306.2352525185264
 30
0.0
  0
SPLINE
  5
5DB8
330
A
100
AcDbEntity
  8
MODEL
100
AcDbSpline
210
0.0
220
0.0
230
1.0
 70
     8
 71
     3
 72
     8
 73
     4
 74
     0
 42
0.000000001
 43
0.0000000001
 40
0.0
 40
0.0
 40
0.0
 40
0.0
 40
1.0
 40
1.0
 40
1.0
 40
1.0
 10
162.6817476478848
 20
306.2360925639962
 30
0.0
 10
162.6355904695456
 20
306.2737557477626
 30
0.0
 10
162.608195600463
 20
306.3314688413371
 30
0.0
 10
162.608195600463
 20
306.3910423106162
 30
0.0
  0
LINE
  5
5DB9
330
A
100
AcDbEntity
  8
MODEL
100
AcDbLine
 10
162.6080451280982
 20
334.9138086981003
 30
0.0
 11
162.6080451280982
 21
334.5905209433003
 31
0.0
  0
SPLINE
  5
5DBA
330
A
100
AcDbEntity
  8
MODEL
100
AcDbSpline
210
0.0
220
0.0
230
1.0
 70
     8
 71
     3
 72
     8
 73
     4
 74
     0
 42
0.000000001
 43
0.0000000001
 40
0.0
 40
0.0
 40
0.0
 40
0.0
 40
1.0
 40
1.0
 40
1.0
 40
1.0
 10
162.6080451280986
 20
334.9138086980541
 30
0.0
 10
162.6080451280986
 20
334.9733814601214
 30
0.0
 10
162.6354392911801
 20
335.0310938735423
 30
0.0
 10
162.681595540674
 20
335.0687571106462
 30
0.0
  0
ARC
  5
5DBB
330
A
100
AcDbEntity
  8
MODEL
100
AcDbCircle
 10
174.4451900528982
 20
320.6524868960003
 30
0.0
 40
18.60674616238094
100
AcDbArc
 50
50.79086897889998
 51
54.14065921599998
  0
ARC
  5
5DBC
330
A
100
AcDbEntity
  8
MODEL
100
AcDbCircle
 10
174.4451900528982
 20
320.6524868960003
 30
0.0
 40
18.60674616238094
100
AcDbArc
 50
125.8609895338999
 51
129.2142495406999
  0
SPLINE
  5
5DBD
330
A
100
AcDbEntity
  8
MODEL
100
AcDbSpline
210
0.0
220
0.0
230
1.0
 70
     8
 71
     3
 72
     8
 73
     4
 74
     0
 42
0.000000001
 43
0.0000000001
 40
0.0
 40
0.0
 40
0.0
 40
0.0
 40
1.0
 40
1.0
 40
1.0
 40
1.0
 10
186.2074966404523
 20
335.0698079540551
 30
0.0
 10
186.253660901254
 20
335.0321450493622
 30
0.0
 10
186.2810608956263
 20
334.9744270273439
 30
0.0
 10
186.2810608956264
 20
334.9148482468684
 30
0.0
  0
LINE
  5
5DBE
330
A
100
AcDbEntity
  8
MODEL
100
AcDbLine
 10
185.3449730835982
 20
335.0213536524003
 30
0.0
 11
185.3449730835982
 21
408.1165739114179
 31
0.0
  0
LINE
  5
5DBF
330
A
100
AcDbEntity
  8
MODEL
100
AcDbLine
 10
185.3449730835982
 20
646.3029330103003
 30
0.0
 11
185.3449730835982
 21
926.4865668434004
 31
0.0
  0
LINE
  5
5DC0
330
A
100
AcDbEntity
  8
MODEL
100
AcDbLine
 10
163.5449730835982
 20
926.4876942898004
 30
0.0
 11
163.5449730835982
 21
648.3020321174004
 31
0.0
  0
LINE
  5
5DC1
330
A
100
AcDbEntity
  8
MODEL
100
AcDbLine
 10
163.5449730835982
 20
613.2068860383004
 30
0.0
 11
163.5449730835982
 21
439.7597827225734
 31
0.0
  0
ARC
  5
5DC2
330
A
100
AcDbEntity
  8
MODEL
100
AcDbCircle
 10
174.4449730835982
 20
940.8565610462003
 30
0.0
 40
18.6047677822355
100
AcDbArc
 50
311.1963828661998
 51
48.80361713380006
  0
ARC
  5
5DC3
330
A
100
AcDbEntity
  8
MODEL
100
AcDbCircle
 10
174.4449730835982
 20
940.3823498759002
 30
0.0
 40
18.44544826570159
100
AcDbArc
 50
50.51780668389997
 51
129.4819934995
  0
ARC
  5
5DC4
330
A
100
AcDbEntity
  8
MODEL
100
AcDbCircle
 10
174.4449730835982
 20
941.3307722166003
 30
0.0
 40
18.44544826570134
100
AcDbArc
 50
230.5178066838999
 51
309.4819934995
  0
ARC
  5
5DC5
330
A
100
AcDbEntity
  8
MODEL
100
AcDbCircle
 10
186.5671325982982
 20
954.7053562818003
 30
0.0
 40
0.1999999999999734
100
AcDbArc
 50
48.80361713380875
 51
114.4018085670978
  0
LINE
  5
5DC6
330
A
100
AcDbEntity
  8
MODEL
100
AcDbLine
 10
186.4844809676982
 20
954.8854356615004
 30
0.0
 11
186.0629355127982
 21
954.6934267265003
 31
0.0
  0
ARC
  5
5DC7
330
A
100
AcDbEntity
  8
MODEL
100
AcDbCircle
 10
186.5671325982982
 20
927.0077658107002
 30
0.0
 40
0.199999999999995
100
AcDbArc
 50
245.5981914332082
 51
311.1963828661974
  0
ARC
  5
5DC8
330
A
100
AcDbEntity
  8
MODEL
100
AcDbCircle
 10
149.0519356711982
 20
924.8322568566002
 30
0.0
 40
32.88665684300874
100
AcDbArc
 50
65.23509510970007
 51
66.04325228430001
  0
ARC
  5
5DC9
330
A
100
AcDbEntity
  8
MODEL
100
AcDbCircle
 10
199.8380104937982
 20
956.8808652307002
 30
0.0
 40
32.88665683735248
100
AcDbArc
 50
245.2350951094999
 51
246.0432522843999
  0
ARC
  5
5DCA
330
A
100
AcDbEntity
  8
MODEL
100
AcDbCircle
 10
162.3228135688982
 20
954.7053562818003
 30
0.0
 40
0.2000000000000108
100
AcDbArc
 50
65.59819143320075
 51
131.1963828661974
  0
ARC
  5
5DCB
330
A
100
AcDbEntity
  8
MODEL
100
AcDbCircle
 10
174.4449730835982
 20
940.8565610462003
 30
0.0
 40
18.60477874836239
100
AcDbArc
 50
131.1963828662001
 51
180.0
  0
ARC
  5
5DCC
330
A
100
AcDbEntity
  8
MODEL
100
AcDbCircle
 10
174.4449730835982
 20
940.8565610462003
 30
0.0
 40
18.60477874836239
100
AcDbArc
 50
180.0
 51
228.8036171338003
  0
LINE
  5
5DCD
330
A
100
AcDbEntity
  8
MODEL
100
AcDbLine
 10
162.4054651994982
 20
926.8276864309003
 30
0.0
 11
162.8270106543982
 21
927.0196953659004
 31
0.0
  0
ARC
  5
5DCE
330
A
100
AcDbEntity
  8
MODEL
100
AcDbCircle
 10
162.3228135688982
 20
927.0077658107002
 30
0.0
 40
0.1999999999999768
100
AcDbArc
 50
228.8036171338088
 51
294.4018085670162
  0
ARC
  5
5DCF
330
A
100
AcDbEntity
  8
MODEL
100
AcDbCircle
 10
174.4449730835982
 20
320.6524868960003
 30
0.0
 40
18.60476778223549
100
AcDbArc
 50
131.1963828662
 51
228.8036171338
  0
ARC
  5
5DD0
330
A
100
AcDbEntity
  8
MODEL
100
AcDbCircle
 10
174.4449730835982
 20
321.1266980663003
 30
0.0
 40
18.44544826570145
100
AcDbArc
 50
230.5178066839001
 51
309.4819934995
  0
ARC
  5
5DD1
330
A
100
AcDbEntity
  8
MODEL
100
AcDbCircle
 10
174.4449730835982
 20
320.1782757256003
 30
0.0
 40
18.44544826570142
100
AcDbArc
 50
50.51780668389995
 51
129.4819934995
  0
ARC
  5
5DD2
330
A
100
AcDbEntity
  8
MODEL
100
AcDbCircle
 10
162.3228135688982
 20
306.8036916604003
 30
0.0
 40
0.1999999999999956
100
AcDbArc
 50
228.803617133798
 51
294.4018085670978
  0
LINE
  5
5DD3
330
A
100
AcDbEntity
  8
MODEL
100
AcDbLine
 10
162.4054651994982
 20
306.6236122807003
 30
0.0
 11
162.8270106543982
 21
306.8156212157003
 31
0.0
  0
ARC
  5
5DD4
330
A
100
AcDbEntity
  8
MODEL
100
AcDbCircle
 10
162.3228135688982
 20
334.5012821315003
 30
0.0
 40
0.199999999999995
100
AcDbArc
 50
65.59819143320075
 51
131.1963828661912
  0
ARC
  5
5DD5
330
A
100
AcDbEntity
  8
MODEL
100
AcDbCircle
 10
199.8380104953982
 20
336.6767910843003
 30
0.0
 40
32.88665684155144
100
AcDbArc
 50
245.2350951097
 51
246.0432522843
  0
ARC
  5
5DD6
330
A
100
AcDbEntity
  8
MODEL
100
AcDbCircle
 10
149.0519356720982
 20
304.6281827086003
 30
0.0
 40
32.88665684051244
100
AcDbArc
 50
65.23509510960001
 51
66.04325228440001
  0
ARC
  5
5DD7
330
A
100
AcDbEntity
  8
MODEL
100
AcDbCircle
 10
186.5671325982982
 20
306.8036916604003
 30
0.0
 40
0.1999999999999919
100
AcDbArc
 50
245.5981914332014
 51
311.1963828662081
  0
ARC
  5
5DD8
330
A
100
AcDbEntity
  8
MODEL
100
AcDbCircle
 10
174.4449730835982
 20
320.6524868960003
 30
0.0
 40
18.60477874836239
100
AcDbArc
 50
311.1963828661999
 51
0.0
  0
ARC
  5
5DD9
330
A
100
AcDbEntity
  8
MODEL
100
AcDbCircle
 10
174.4449730835982
 20
320.6524868960003
 30
0.0
 40
18.60477874836239
100
AcDbArc
 50
0.0
 51
48.80361713380001
  0
LINE
  5
5DDA
330
A
100
AcDbEntity
  8
MODEL
100
AcDbLine
 10
186.4844809676982
 20
334.6813615113003
 30
0.0
 11
186.0629355127982
 21
334.4893525763003
 31
0.0
  0
ARC
  5
5DDB
330
A
100
AcDbEntity
  8
MODEL
100
AcDbCircle
 10
186.5671325982982
 20
334.5012821315003
 30
0.0
 40
0.1999999999999924
100
AcDbArc
 50
48.8036171337919
 51
114.4018085670978
  0
ARC
  5
5DDC
330
A
100
AcDbEntity
  8
MODEL
100
AcDbCircle
 10
170.9410080773982
 20
665.1272010967003
 30
0.0
 40
23.7200701503296
100
AcDbArc
 50
283.5589981996001
 51
308.2698751444001
  0
ARC
  5
5DDD
330
A
100
AcDbEntity
  8
MODEL
100
AcDbCircle
 10
170.9410080773982
 20
596.3818468455004
 30
0.0
 40
23.7200701503296
100
AcDbArc
 50
51.73012485559993
 51
76.44100180040006
  0
LINE
  5
5DDE
330
A
100
AcDbEntity
  8
MODEL
100
AcDbLine
 10
132.0949730835982
 20
648.0545239711003
 30
0.0
 11
132.0949730835982
 21
613.4545239711003
 31
0.0
  0
LINE
  5
5DDF
330
A
100
AcDbEntity
  8
MODEL
100
AcDbLine
 10
157.0949730835982
 20
612.9545239711003
 30
0.0
 11
157.0949730835982
 21
648.5545239711003
 31
0.0
  0
LINE
  5
5DE0
330
A
100
AcDbEntity
  8
MODEL
100
AcDbLine
 10
137.1212766040982
 20
648.7545239711003
 30
0.0
 11
132.7949730835982
 21
648.7545239711003
 31
0.0
  0
LINE
  5
5DE1
330
A
100
AcDbEntity
  8
MODEL
100
AcDbLine
 10
156.8949730835982
 20
648.7545239711003
 30
0.0
 11
152.0647956312982
 21
648.7545239711003
 31
0.0
  0
LINE
  5
5DE2
330
A
100
AcDbEntity
  8
MODEL
100
AcDbLine
 10
132.7949730835982
 20
612.7545239711003
 30
0.0
 11
156.8949730835982
 21
612.7545239711003
 31
0.0
  0
LINE
  5
5DE3
330
A
100
AcDbEntity
  8
MODEL
100
AcDbLine
 10
151.5907046111982
 20
649.2436424620003
 30
0.0
 11
151.5574480999982
 21
653.0544611924004
 31
0.0
  0
LINE
  5
5DE4
330
A
100
AcDbEntity
  8
MODEL
100
AcDbLine
 10
137.6325080721982
 20
653.0556076422004
 30
0.0
 11
137.5992061360982
 21
649.2395837448003
 31
0.0
  0
LINE
  5
5DE5
330
A
100
AcDbEntity
  8
MODEL
100
AcDbLine
 10
150.8358144854982
 20
653.7545239711003
 30
0.0
 11
138.3551412195982
 21
653.7545239711003
 31
0.0
  0
ARC
  5
5DE6
330
A
100
AcDbEntity
  8
MODEL
100
AcDbCircle
 10
132.7949730835982
 20
613.4545239711003
 30
0.0
 40
0.6999999999999923
100
AcDbArc
 50
180.0
 51
270.0
  0
ARC
  5
5DE7
330
A
100
AcDbEntity
  8
MODEL
100
AcDbCircle
 10
132.7949730835982
 20
648.0545239711003
 30
0.0
 40
0.7000000000000339
100
AcDbArc
 50
90.0
 51
180.0
  0
ARC
  5
5DE8
330
A
100
AcDbEntity
  8
MODEL
100
AcDbCircle
 10
138.3282370544982
 20
653.0665807341004
 30
0.0
 40
0.6876669449518059
100
AcDbArc
 50
87.72836847310039
 51
180.9460926329089
  0
ARC
  5
5DE9
330
A
100
AcDbEntity
  8
MODEL
100
AcDbCircle
 10
150.8602251137982
 20
653.0589456469004
 30
0.0
 40
0.6942178095821515
100
AcDbArc
 50
359.8672637533903
 51
92.01060556170046
  0
SPLINE
  5
5DEA
330
A
100
AcDbEntity
  8
MODEL
100
AcDbSpline
210
0.0
220
0.0
230
1.0
 70
     8
 71
     3
 72
    12
 73
     8
 74
     0
 42
0.000000001
 43
0.0000000001
 40
0.0
 40
0.0
 40
0.0
 40
0.0
 40
0.2109535677423834
 40
0.4435226585220747
 40
0.6827450241199524
 40
0.9489253115348488
 40
1.0
 40
1.0
 40
1.0
 40
1.0
 10
152.0673014880608
 20
648.7561473095687
 30
0.0
 10
152.0099938648847
 20
648.762887553213
 30
0.0
 10
151.9071633144445
 20
648.7774677084949
 30
0.0
 10
151.7544323663419
 20
648.8701578643422
 30
0.0
 10
151.6409031032399
 20
649.0133358583657
 30
0.0
 10
151.5883377363332
 20
649.1542138564415
 30
0.0
 10
151.5939774590433
 20
649.2286830338855
 30
0.0
 10
151.5951129171761
 20
649.2426107796435
 30
0.0
  0
ARC
  5
5DEB
330
A
100
AcDbEntity
  8
MODEL
100
AcDbCircle
 10
137.1012097444982
 20
649.2515923636004
 30
0.0
 40
0.4966375073289265
100
AcDbArc
 50
272.3758374317017
 51
359.149649930991
  0
ARC
  5
5DEC
330
A
100
AcDbEntity
  8
MODEL
100
AcDbCircle
 10
156.8949730835982
 20
612.9545239711003
 30
0.0
 40
0.2000000000000335
100
AcDbArc
 50
270.0
 51
0.0
  0
ARC
  5
5DED
330
A
100
AcDbEntity
  8
MODEL
100
AcDbCircle
 10
156.8949730835982
 20
648.5545239711003
 30
0.0
 40
0.1999999999999988
100
AcDbArc
 50
0.0
 51
90.0
  0
LINE
  5
5DEE
330
A
100
AcDbEntity
  8
MODEL
100
AcDbLine
 10
190.4449730835982
 20
613.0545239711003
 30
0.0
 11
190.4449730835982
 21
648.4545239711003
 31
0.0
  0
LINE
  5
5DEF
330
A
100
AcDbEntity
  8
MODEL
100
AcDbLine
 10
158.4449730835982
 20
648.4545239711003
 30
0.0
 11
158.4449730835982
 21
613.0545239711003
 31
0.0
  0
ARC
  5
5DF0
330
A
100
AcDbEntity
  8
MODEL
100
AcDbCircle
 10
174.4449729922982
 20
662.4437762497002
 30
0.0
 40
17.91083834044106
100
AcDbArc
 50
229.8447534458998
 51
310.1552502091001
  0
ARC
  5
5DF1
330
A
100
AcDbEntity
  8
MODEL
100
AcDbCircle
 10
174.4449729922982
 20
599.0652716925003
 30
0.0
 40
17.91083834044102
100
AcDbArc
 50
49.84474979090017
 51
130.148509175
  0
LINE
  5
5DF2
330
A
100
AcDbEntity
  8
MODEL
100
AcDbLine
 10
185.9949730835982
 20
612.7545239711003
 30
0.0
 11
190.1449730835982
 21
612.7545239711003
 31
0.0
  0
LINE
  5
5DF3
330
A
100
AcDbEntity
  8
MODEL
100
AcDbLine
 10
158.7449730835982
 20
612.7545239711003
 30
0.0
 11
162.9049093371982
 21
612.7545239711003
 31
0.0
  0
LINE
  5
5DF4
330
A
100
AcDbEntity
  8
MODEL
100
AcDbLine
 10
162.9049093371982
 20
648.7545239711003
 30
0.0
 11
158.7449730835982
 21
648.7545239711003
 31
0.0
  0
LINE
  5
5DF5
330
A
100
AcDbEntity
  8
MODEL
100
AcDbLine
 10
190.1449730835982
 20
648.7545239711003
 30
0.0
 11
185.9949730835982
 21
648.7545239711003
 31
0.0
  0
ARC
  5
5DF6
330
A
100
AcDbEntity
  8
MODEL
100
AcDbCircle
 10
190.1449730835982
 20
613.0545239711003
 30
0.0
 40
0.3000000000000225
100
AcDbArc
 50
270.0
 51
0.0
  0
ARC
  5
5DF7
330
A
100
AcDbEntity
  8
MODEL
100
AcDbCircle
 10
190.1449730835982
 20
648.4545239711003
 30
0.0
 40
0.3000000000000017
100
AcDbArc
 50
0.0
 51
90.0
  0
ARC
  5
5DF8
330
A
100
AcDbEntity
  8
MODEL
100
AcDbCircle
 10
158.7449730835982
 20
613.0545239711003
 30
0.0
 40
0.3000000000000017
100
AcDbArc
 50
180.0
 51
270.0
  0
ARC
  5
5DF9
330
A
100
AcDbEntity
  8
MODEL
100
AcDbCircle
 10
158.7449730835982
 20
648.4545239711003
 30
0.0
 40
0.3000000000000225
100
AcDbArc
 50
90.0
 51
180.0
  0
LINE
  5
5DFA
330
A
100
AcDbEntity
  8
MODEL
100
AcDbLine
 10
190.6449730835982
 20
614.0545239711003
 30
0.0
 11
191.2949730835982
 21
614.0545239711003
 31
0.0
  0
LINE
  5
5DFB
330
A
100
AcDbEntity
  8
MODEL
100
AcDbLine
 10
191.2949730835982
 20
647.4545239711003
 30
0.0
 11
190.6449730835982
 21
647.4545239711003
 31
0.0
  0
LINE
  5
5DFC
330
A
100
AcDbEntity
  8
MODEL
100
AcDbLine
 10
157.0949730835982
 20
614.0545239711003
 30
0.0
 11
158.2449730835982
 21
614.0545239711003
 31
0.0
  0
LINE
  5
5DFD
330
A
100
AcDbEntity
  8
MODEL
100
AcDbLine
 10
158.2449730835982
 20
647.4545239711003
 30
0.0
 11
157.0949730835982
 21
647.4545239711003
 31
0.0
  0
ARC
  5
5DFE
330
A
100
AcDbEntity
  8
MODEL
100
AcDbCircle
 10
190.6449730835982
 20
613.8545239711003
 30
0.0
 40
0.1999999999999988
100
AcDbArc
 50
90.0
 51
180.0
  0
ARC
  5
5DFF
330
A
100
AcDbEntity
  8
MODEL
100
AcDbCircle
 10
190.6449730835982
 20
647.6545239711004
 30
0.0
 40
0.2000000000000335
100
AcDbArc
 50
180.0
 51
270.0
  0
ARC
  5
5E00
330
A
100
AcDbEntity
  8
MODEL
100
AcDbCircle
 10
158.2449730835982
 20
613.8545239711003
 30
0.0
 40
0.2000000000000335
100
AcDbArc
 50
0.0
 51
90.0
  0
ARC
  5
5E01
330
A
100
AcDbEntity
  8
MODEL
100
AcDbCircle
 10
158.2449730835982
 20
647.6545239711004
 30
0.0
 40
0.1999999999999988
100
AcDbArc
 50
270.0
 51
0.0
  0
LINE
  5
5E02
330
A
100
AcDbEntity
  8
MODEL
100
AcDbLine
 10
191.2949730835982
 20
648.5545239711003
 30
0.0
 11
191.2949730835982
 21
612.9545239711003
 31
0.0
  0
LINE
  5
5E03
330
A
100
AcDbEntity
  8
MODEL
100
AcDbLine
 10
237.7949730835982
 20
645.1159305875003
 30
0.0
 11
237.7949730835982
 21
616.3931173548003
 31
0.0
  0
LINE
  5
5E04
330
A
100
AcDbEntity
  8
MODEL
100
AcDbLine
 10
191.4949730835982
 20
612.7545239711003
 30
0.0
 11
211.7428922157982
 21
612.7545239711003
 31
0.0
  0
LINE
  5
5E05
330
A
100
AcDbEntity
  8
MODEL
100
AcDbLine
 10
209.9148768959982
 20
648.7545239711003
 30
0.0
 11
191.4949730835982
 21
648.7545239711003
 31
0.0
  0
ARC
  5
5E06
330
A
100
AcDbEntity
  8
MODEL
100
AcDbCircle
 10
191.4949730835982
 20
612.9545239711003
 30
0.0
 40
0.2000000000000023
100
AcDbArc
 50
180.0
 51
270.0
  0
ARC
  5
5E07
330
A
100
AcDbEntity
  8
MODEL
100
AcDbCircle
 10
191.4949730835982
 20
648.5545239711003
 30
0.0
 40
0.2000000000000335
100
AcDbArc
 50
90.0
 51
180.0
  0
SPLINE
  5
5E08
330
A
100
AcDbEntity
  8
MODEL
100
AcDbSpline
210
0.0
220
0.0
230
1.0
 70
     8
 71
     3
 72
    49
 73
    45
 74
     0
 42
0.000000001
 43
0.0000000001
 40
0.0
 40
0.0
 40
0.0
 40
0.0
 40
0.0088462799794271
 40
0.0410688232751364
 40
0.0735464009536855
 40
0.1066852941430427
 40
0.139277686249261
 40
0.1708138964682689
 40
0.2011971991242763
 40
0.2265093684223891
 40
0.2533898280360746
 40
0.2797295397652043
 40
0.3053686356431476
 40
0.3301530536411224
 40
0.3540392842956356
 40
0.3771735310698919
 40
0.4008282997754787
 40
0.425757447180534
 40
0.4515984182616732
 40
0.4785451707461959
 40
0.5067364792468055
 40
0.5362490318431758
 40
0.5670710386389992
 40
0.5990702011437049
 40
0.6319653672407143
 40
0.6653238506730516
 40
0.6948786925351433
 40
0.7262254018986206
 40
0.7574932411227422
 40
0.7884014163930254
 40
0.8187588790242107
 40
0.8484352375027577
 40
0.8773644439611001
 40
0.905542481183807
 40
0.933021672288649
 40
0.9599071795163209
 40
0.986399411412622
 40
0.989800061571027
 40
0.9905857980439552
 40
0.9910281286340809
 40
0.9915154710461145
 40
0.9927461136564721
 40
0.9956230121120883
 40
1.0
 40
1.0
 40
1.0
 40
1.0
 10
233.4482258533523
 20
645.8676957962685
 30
0.0
 10
233.3788529537257
 20
645.8228055133688
 30
0.0
 10
233.1030123999078
 20
645.6445344859088
 30
0.0
 10
232.5147086202265
 20
645.2827477174568
 30
0.0
 10
231.7265830943491
 20
644.816455310516
 30
0.0
 10
230.8800394674088
 20
644.3487512394695
 30
0.0
 10
229.9986405508806
 20
643.9036850715866
 30
0.0
 10
229.0978014700821
 20
643.4979202197112
 30
0.0
 10
228.2284370332733
 20
643.1568454071839
 30
0.0
 10
227.374022256724
 20
642.8736887312355
 30
0.0
 10
226.5327430040014
 20
642.6521257647603
 30
0.0
 10
225.6652210616818
 20
642.481722106836
 30
0.0
 10
224.8041924845626
 20
642.3716467243769
 30
0.0
 10
223.9611949164852
 20
642.3232719561661
 30
0.0
 10
223.1444344585728
 20
642.3368329702203
 30
0.0
 10
222.3466221248822
 20
642.4119134246223
 30
0.0
 10
221.5485175975875
 20
642.5385226675794
 30
0.0
 10
220.7379498007911
 20
642.7201858832557
 30
0.0
 10
219.9151345019272
 20
642.9568532444615
 30
0.0
 10
219.0864684479683
 20
643.2460791062831
 30
0.0
 10
218.2534703519718
 20
643.5857741325111
 30
0.0
 10
217.4195659102881
 20
643.9722632254054
 30
0.0
 10
216.5904273682793
 20
644.3994333011802
 30
0.0
 10
215.774245477637
 20
644.8579645036541
 30
0.0
 10
214.9819534769598
 20
645.3346538135006
 30
0.0
 10
214.2536890686578
 20
645.7953519299059
 30
0.0
 10
213.5810562595491
 20
646.2333933254538
 30
0.0
 10
212.9715128891924
 20
646.6424418922777
 30
0.0
 10
212.4043968888044
 20
647.0333360563284
 30
0.0
 10
211.8971846386428
 20
647.39162744672
 30
0.0
 10
211.4544263763204
 20
647.7113804168549
 30
0.0
 10
211.0787906723612
 20
647.9881529403956
 30
0.0
 10
210.7713325593802
 20
648.2188435102023
 30
0.0
 10
210.5319805205138
 20
648.4014319781136
 30
0.0
 10
210.3594530920313
 20
648.5350036579036
 30
0.0
 10
210.2531324040174
 20
648.6185756846886
 30
0.0
 10
210.2207494357949
 20
648.6440133621472
 30
0.0
 10
210.2163622576939
 20
648.6477022665199
 30
0.0
 10
210.2069914072168
 20
648.6548494336405
 30
0.0
 10
210.1986503700614
 20
648.660974632825
 30
0.0
 10
210.1815714217229
 20
648.672947102933
 30
0.0
 10
210.1367748447866
 20
648.7007222899065
 30
0.0
 10
210.0471677503045
 20
648.7412024613675
 30
0.0
 10
209.9700393340725
 20
648.7482254799686
 30
0.0
 10
209.9154914480323
 20
648.752133035885
 30
0.0
  0
LINE
  5
5E09
330
A
100
AcDbEntity
  8
MODEL
100
AcDbLine
 10
236.7949730835982
 20
645.9514624278004
 30
0.0
 11
233.7225277550982
 21
645.9514624278004
 31
0.0
  0
SPLINE
  5
5E0A
330
A
100
AcDbEntity
  8
MODEL
100
AcDbSpline
210
0.0
220
0.0
230
1.0
 70
     8
 71
     3
 72
    14
 73
    10
 74
     0
 42
0.000000001
 43
0.0000000001
 40
0.0
 40
0.0
 40
0.0
 40
0.0
 40
0.027182556903894
 40
0.1991628674378016
 40
0.3661101878748936
 40
0.531325560634671
 40
0.7036220160300628
 40
0.8818138219926285
 40
1.0
 40
1.0
 40
1.0
 40
1.0
 10
237.7904851496741
 20
645.1171629224084
 30
0.0
 10
237.7920405450889
 20
645.1309666209527
 30
0.0
 10
237.8015119132649
 20
645.2179554928648
 30
0.0
 10
237.751729392918
 20
645.3934147441885
 30
0.0
 10
237.635381204928
 20
645.5970498208537
 30
0.0
 10
237.4588469374526
 20
645.7618306763916
 30
0.0
 10
237.2396693277723
 20
645.8789409040003
 30
0.0
 10
237.0047173715126
 20
645.9447418454447
 30
0.0
 10
236.861521447101
 20
645.9453789503848
 30
0.0
 10
236.7947853784644
 20
645.9448981366013
 30
0.0
  0
SPLINE
  5
5E0B
330
A
100
AcDbEntity
  8
MODEL
100
AcDbSpline
210
0.0
220
0.0
230
1.0
 70
     8
 71
     3
 72
    13
 73
     9
 74
     0
 42
0.000000001
 43
0.0000000001
 40
0.0
 40
0.0
 40
0.0
 40
0.0
 40
0.1529559737241816
 40
0.3287838672146954
 40
0.5134813492022128
 40
0.6806183615593973
 40
0.8433959111267334
 40
1.0
 40
1.0
 40
1.0
 40
1.0
 10
236.7949320345742
 20
615.5605368846182
 30
0.0
 10
236.8812487080727
 20
615.563198678276
 30
0.0
 10
237.039604326217
 20
615.5704760151968
 30
0.0
 10
237.2910916364944
 20
615.6505034915965
 30
0.0
 10
237.5078896340597
 20
615.7832481647451
 30
0.0
 10
237.6717004548722
 20
615.9623234932319
 30
0.0
 10
237.7764786473902
 20
616.173913910334
 30
0.0
 10
237.7869042772372
 20
616.3131677575087
 30
0.0
 10
237.7912610264338
 20
616.3933389064171
 30
0.0
  0
LINE
  5
5E0C
330
A
100
AcDbEntity
  8
MODEL
100
AcDbLine
 10
231.4497249498982
 20
615.5575855144003
 30
0.0
 11
236.7949730835982
 21
615.5575855144003
 31
0.0
  0
SPLINE
  5
5E0D
330
A
100
AcDbEntity
  8
MODEL
100
AcDbSpline
210
0.0
220
0.0
230
1.0
 70
     8
 71
     3
 72
    46
 73
    42
 74
     0
 42
0.000000001
 43
0.0000000001
 40
0.0
 40
0.0
 40
0.0
 40
0.0
 40
0.0010415646370357
 40
0.0044449866790905
 40
0.0071142853905507
 40
0.008832561228583
 40
0.0101072005008881
 40
0.0116832827908986
 40
0.0144884242914984
 40
0.0211097043370761
 40
0.0351042390933181
 40
0.065552774615735
 40
0.0978864572322379
 40
0.1297076818267978
 40
0.161980317059459
 40
0.1949582405064945
 40
0.2286805037901188
 40
0.2631015526529878
 40
0.2981092395249976
 40
0.3335323768363756
 40
0.3692035932293254
 40
0.4054228390651921
 40
0.4427224956157281
 40
0.4793338918092138
 40
0.5147854066533343
 40
0.5487946939049133
 40
0.5812793354424126
 40
0.6123238615653518
 40
0.6421328360045695
 40
0.6709331640162247
 40
0.6982796811188713
 40
0.7252796307493322
 40
0.752927828814612
 40
0.7811761265005969
 40
0.809927507627039
 40
0.8391504825850323
 40
0.8699992672079839
 40
0.9024064628763404
 40
0.9362279441210276
 40
0.9714795500274119
 40
1.0
 40
1.0
 40
1.0
 40
1.0
 10
211.7448697647214
 20
612.7581087438708
 30
0.0
 10
211.7556072339121
 20
612.7572952313865
 30
0.0
 10
211.7948664478241
 20
612.7544687553876
 30
0.0
 10
211.8628959854322
 20
612.7684645494353
 30
0.0
 10
211.930652612432
 20
612.7911060733152
 30
0.0
 10
211.9714280898788
 20
612.8108086101159
 30
0.0
 10
211.9929717213656
 20
612.8227356163011
 30
0.0
 10
212.008997449769
 20
612.8323947178063
 30
0.0
 10
212.0246895423671
 20
612.8425842997361
 30
0.0
 10
212.0400819482313
 20
612.8532213503598
 30
0.0
 10
212.0714988953728
 20
612.8756379324551
 30
0.0
 10
212.1450749396485
 20
612.929427978088
 30
0.0
 10
212.2972838316877
 20
613.0399969356298
 30
0.0
 10
212.5131985148481
 20
613.1945703709303
 30
0.0
 10
212.7892365019751
 20
613.3885805218597
 30
0.0
 10
213.127995226586
 20
613.6216609817919
 30
0.0
 10
213.5304024233218
 20
613.8919579979665
 30
0.0
 10
213.9960237837552
 20
614.1963995874214
 30
0.0
 10
214.5231951613039
 20
614.5309153572944
 30
0.0
 10
215.1090213041529
 20
614.8902980118914
 30
0.0
 10
215.752771200601
 20
615.2711934003995
 30
0.0
 10
216.4542908100152
 20
615.6672922343558
 30
0.0
 10
217.2103041956125
 20
616.065509618032
 30
0.0
 10
218.0092713622402
 20
616.4493438344138
 30
0.0
 10
218.829881688495
 20
616.8003353049005
 30
0.0
 10
219.6603612328145
 20
617.1077874200621
 30
0.0
 10
220.4917290641535
 20
617.3646769113784
 30
0.0
 10
221.3181012321188
 20
617.5671796168867
 30
0.0
 10
222.1358961430241
 20
617.7131023894503
 30
0.0
 10
222.9363512705945
 20
617.8020698414059
 30
0.0
 10
223.719537901755
 20
617.8304951520897
 30
0.0
 10
224.4920810726049
 20
617.8065423282195
 30
0.0
 10
225.2664054202014
 20
617.7327125221384
 30
0.0
 10
226.0435456422308
 20
617.6091899502106
 30
0.0
 10
226.8146251423121
 20
617.4368106146369
 30
0.0
 10
227.5821787122496
 20
617.2151314455384
 30
0.0
 10
228.3512065835606
 20
616.9505162012781
 30
0.0
 10
229.1244133121518
 20
616.6417594615532
 30
0.0
 10
229.887134227523
 20
616.2984794046185
 30
0.0
 10
230.6030259778003
 20
615.9442919325284
 30
0.0
 10
230.9989099162063
 20
615.7317370696228
 30
0.0
 10
231.2074164903827
 20
615.619040049291
 30
0.0
  0
ARC
  5
5E0E
330
A
100
AcDbEntity
  8
MODEL
100
AcDbCircle
 10
231.4497249498982
 20
616.0575855144003
 30
0.0
 40
0.5000000000000163
100
AcDbArc
 50
241.4304045040016
 51
270.0
  0
ARC
  5
5E0F
330
A
100
AcDbEntity
  8
MODEL
100
AcDbCircle
 10
233.7225277550982
 20
645.4514624278004
 30
0.0
 40
0.5000000000000004
100
AcDbArc
 50
90.0
 51
122.7788291928104
  0
LINE
  5
5E10
330
A
100
AcDbEntity
  8
MODEL
100
AcDbLine
 10
162.6087801678982
 20
954.7942641668003
 30
0.0
 11
162.6087801678982
 21
955.1188366481003
 31
0.0
  0
LINE
  5
5E11
330
A
100
AcDbEntity
  8
MODEL
100
AcDbLine
 10
162.6088852715982
 20
926.9203418515003
 30
0.0
 11
162.6088852715982
 21
926.5941996953004
 31
0.0
  0
ARC
  5
5E12
330
A
100
AcDbEntity
  8
MODEL
100
AcDbCircle
 10
174.4447561142982
 20
940.8565610462003
 30
0.0
 40
18.60674616238096
100
AcDbArc
 50
50.78635498910002
 51
129.2095532524002
  0
LINE
  5
5E13
330
A
100
AcDbEntity
  8
MODEL
100
AcDbLine
 10
186.2817505666982
 20
955.1180056316002
 30
0.0
 11
186.2817505666982
 21
954.7930943780004
 31
0.0
  0
SPLINE
  5
5E14
330
A
100
AcDbEntity
  8
MODEL
100
AcDbSpline
210
0.0
220
0.0
230
1.0
 70
     8
 71
     3
 72
     8
 73
     4
 74
     0
 42
0.000000001
 43
0.0000000001
 40
0.0
 40
0.0
 40
0.0
 40
0.0
 40
1.0
 40
1.0
 40
1.0
 40
1.0
 10
162.6087801678854
 20
955.1188366481153
 30
0.0
 10
162.6087801678854
 20
955.1784149358568
 30
0.0
 10
162.6361796631894
 20
955.2361324767946
 30
0.0
 10
162.682343281133
 20
955.2737954236479
 30
0.0
  0
SPLINE
  5
5E15
330
A
100
AcDbEntity
  8
MODEL
100
AcDbSpline
210
0.0
220
0.0
230
1.0
 70
     8
 71
     3
 72
     8
 73
     4
 74
     0
 42
0.000000001
 43
0.0000000001
 40
0.0
 40
0.0
 40
0.0
 40
0.0
 40
1.0
 40
1.0
 40
1.0
 40
1.0
 10
186.2081985193118
 20
955.2729553781778
 30
0.0
 10
186.2543556976511
 20
955.2352921944114
 30
0.0
 10
186.2817505667336
 20
955.1775791008367
 30
0.0
 10
186.2817505667337
 20
955.1180056315577
 30
0.0
  0
LINE
  5
5E16
330
A
100
AcDbEntity
  8
MODEL
100
AcDbLine
 10
186.2819010390982
 20
926.5952392441004
 30
0.0
 11
186.2819010390982
 21
926.9185269989002
 31
0.0
  0
SPLINE
  5
5E17
330
A
100
AcDbEntity
  8
MODEL
100
AcDbSpline
210
0.0
220
0.0
230
1.0
 70
     8
 71
     3
 72
     8
 73
     4
 74
     0
 42
0.000000001
 43
0.0000000001
 40
0.0
 40
0.0
 40
0.0
 40
0.0
 40
1.0
 40
1.0
 40
1.0
 40
1.0
 10
186.2819010390981
 20
926.5952392441197
 30
0.0
 10
186.2819010390981
 20
926.5356664820524
 30
0.0
 10
186.2545068760166
 20
926.4779540686318
 30
0.0
 10
186.2083506265227
 20
926.4402908315276
 30
0.0
  0
ARC
  5
5E18
330
A
100
AcDbEntity
  8
MODEL
100
AcDbCircle
 10
174.4447561142982
 20
940.8565610462003
 30
0.0
 40
18.6067461623809
100
AcDbArc
 50
230.7908689789001
 51
234.1406592160002
  0
ARC
  5
5E19
330
A
100
AcDbEntity
  8
MODEL
100
AcDbCircle
 10
174.4447561142982
 20
940.8565610462003
 30
0.0
 40
18.6067461623809
100
AcDbArc
 50
305.8609895338998
 51
309.2142495407001
  0
SPLINE
  5
5E1A
330
A
100
AcDbEntity
  8
MODEL
100
AcDbSpline
210
0.0
220
0.0
230
1.0
 70
     8
 71
     3
 72
     8
 73
     4
 74
     0
 42
0.000000001
 43
0.0000000001
 40
0.0
 40
0.0
 40
0.0
 40
0.0
 40
1.0
 40
1.0
 40
1.0
 40
1.0
 10
162.6824495267444
 20
926.439239988119
 30
0.0
 10
162.6362852659427
 20
926.4769028928117
 30
0.0
 10
162.6088852715704
 20
926.5346209148299
 30
0.0
 10
162.6088852715704
 20
926.5941996953054
 30
0.0
  0
LINE
  5
5E1B
330
A
100
AcDbEntity
  8
MODEL
100
AcDbLine
 10
162.3228135688982
 20
1088.7501182172
 30
0.0
 11
156.0401943351982
 21
1088.7501182172
 31
0.0
  0
LINE
  5
5E1C
330
A
100
AcDbEntity
  8
MODEL
100
AcDbLine
 10
186.5671325982982
 20
1088.7501182172
 30
0.0
 11
192.8497518319982
 21
1088.7501182172
 31
0.0
  0
LINE
  5
5E1D
330
A
100
AcDbEntity
  8
MODEL
100
AcDbLine
 10
162.5228026027982
 20
1088.552212574
 30
0.0
 11
163.0455981527982
 21
1038.6307398783
 31
0.0
  0
ARC
  5
5E1E
330
A
100
AcDbEntity
  8
MODEL
100
AcDbCircle
 10
174.4449730835982
 20
1038.7501182172
 30
0.0
 40
11.4
100
AcDbArc
 50
180.5999999999996
 51
359.4000000000004
  0
LINE
  5
5E1F
330
A
100
AcDbEntity
  8
MODEL
100
AcDbLine
 10
185.8443480143982
 20
1038.6307398783
 30
0.0
 11
186.3671435643982
 21
1088.552212574
 31
0.0
  0
ARC
  5
5E20
330
A
100
AcDbEntity
  8
MODEL
100
AcDbCircle
 10
186.5671325982982
 20
1088.5501182172
 30
0.0
 40
0.2
100
AcDbArc
 50
90.0
 51
179.3999999999673
  0
ARC
  5
5E21
330
A
100
AcDbEntity
  8
MODEL
100
AcDbCircle
 10
162.3228135688982
 20
1088.5501182172
 30
0.0
 40
0.2
100
AcDbArc
 50
0.6000000000326463
 51
90.0
  0
ARC
  5
5E22
330
A
100
AcDbEntity
  8
MODEL
100
AcDbCircle
 10
174.4449730835982
 20
1518.7501182172
 30
0.0
 40
499.9999999999999
100
AcDbArc
 50
268.0057505618
 51
271.9942494381999
  0
ARC
  5
5E23
330
A
100
AcDbEntity
  8
MODEL
100
AcDbCircle
 10
157.0627769641982
 20
1019.5526530212
 30
0.0
 40
0.4999999999999953
100
AcDbArc
 50
180.5999999999936
 51
268.0057505614985
  0
ARC
  5
5E24
330
A
100
AcDbEntity
  8
MODEL
100
AcDbCircle
 10
191.8271692029982
 20
1019.5526530212
 30
0.0
 40
0.4999999999999175
100
AcDbArc
 50
271.9942494384986
 51
359.4000000000063
  0
LINE
  5
5E25
330
A
100
AcDbEntity
  8
MODEL
100
AcDbLine
 10
155.8402053013982
 20
1088.5480238604
 30
0.0
 11
156.5628043794982
 21
1019.5474171292
 31
0.0
  0
LINE
  5
5E26
330
A
100
AcDbEntity
  8
MODEL
100
AcDbLine
 10
192.3271417876982
 20
1019.5474171292
 30
0.0
 11
193.0497408657982
 21
1088.5480238604
 31
0.0
  0
ARC
  5
5E27
330
A
100
AcDbEntity
  8
MODEL
100
AcDbCircle
 10
192.8497518319982
 20
1088.5501182172
 30
0.0
 40
0.2000000000000009
100
AcDbArc
 50
359.4000000000324
 51
90.0
  0
ARC
  5
5E28
330
A
100
AcDbEntity
  8
MODEL
100
AcDbCircle
 10
156.0401943351982
 20
1088.5501182172
 30
0.0
 40
0.2000000000000028
100
AcDbArc
 50
90.0
 51
180.5999999999676
  0
LINE
  5
5E29
330
A
100
AcDbEntity
  8
MODEL
100
AcDbLine
 10
132.0949730835982
 20
1056.0501182172
 30
0.0
 11
132.0949730835982
 21
1021.4501182172
 31
0.0
  0
LINE
  5
5E2A
330
A
100
AcDbEntity
  8
MODEL
100
AcDbLine
 10
156.1732043631982
 20
1056.7501182172
 30
0.0
 11
132.7949730835982
 21
1056.7501182172
 31
0.0
  0
LINE
  5
5E2B
330
A
100
AcDbEntity
  8
MODEL
100
AcDbLine
 10
132.7949730835982
 20
1020.7501182172
 30
0.0
 11
156.5502092627982
 21
1020.7501182172
 31
0.0
  0
ARC
  5
5E2C
330
A
100
AcDbEntity
  8
MODEL
100
AcDbCircle
 10
132.7949730835982
 20
1021.4501182172
 30
0.0
 40
0.7000000000000062
100
AcDbArc
 50
180.0
 51
270.0
  0
ARC
  5
5E2D
330
A
100
AcDbEntity
  8
MODEL
100
AcDbCircle
 10
132.7949730835982
 20
1056.0501182172
 30
0.0
 40
0.6999999999999923
100
AcDbArc
 50
90.0
 51
180.0
  0
LINE
  5
5E2E
330
A
100
AcDbEntity
  8
MODEL
100
AcDbLine
 10
233.5812229465982
 20
1047.7501182172
 30
0.0
 11
232.7040859791982
 21
1047.7501182172
 31
0.0
  0
LINE
  5
5E2F
330
A
100
AcDbEntity
  8
MODEL
100
AcDbLine
 10
233.5812375145982
 20
1029.7501182172
 30
0.0
 11
232.7040859791982
 21
1029.7501182172
 31
0.0
  0
SPLINE
  5
5E30
330
A
100
AcDbEntity
  8
MODEL
100
AcDbSpline
210
0.0
220
0.0
230
1.0
 70
     8
 71
     3
 72
    30
 73
    26
 74
     0
 42
0.000000001
 43
0.0000000001
 40
0.0
 40
0.0
 40
0.0
 40
0.0
 40
0.0625000000000002
 40
0.0625000000000002
 40
0.1250000000000004
 40
0.1250000000000004
 40
0.1875000000000004
 40
0.1875000000000004
 40
0.2500000000000004
 40
0.2500000000000004
 40
0.3750000000000003
 40
0.3750000000000003
 40
0.5000000000000002
 40
0.5000000000000002
 40
0.6250000000000002
 40
0.6250000000000002
 40
0.7500000000000001
 40
0.7500000000000001
 40
0.8125000000000001
 40
0.8125000000000001
 40
0.8750000000000001
 40
0.8750000000000001
 40
0.9375000000000001
 40
0.9375000000000001
 40
1.0
 40
1.0
 40
1.0
 40
1.0
 10
227.991841021166
 20
1029.312489572785
 30
0.0
 10
227.2384919431319
 20
1028.959587034933
 30
0.0
 10
226.4144685480994
 20
1028.689661627836
 30
0.0
 10
224.6935780205565
 20
1028.37707223114
 30
0.0
 10
223.7812170526593
 20
1028.335907443583
 30
0.0
 10
222.0270282945489
 20
1028.49745799055
 30
0.0
 10
221.1680586719886
 20
1028.699221193814
 30
0.0
 10
219.5977000977242
 20
1029.280178789896
 30
0.0
 10
218.8613111567761
 20
1029.665771555711
 30
0.0
 10
216.8591520439744
 20
1031.033346402493
 30
0.0
 10
215.7454995804523
 20
1032.255553515287
 30
0.0
 10
214.1532954336578
 20
1035.174581355965
 30
0.0
 10
213.6717825356296
 20
1036.940391988627
 30
0.0
 10
213.6623603400613
 20
1040.504123012431
 30
0.0
 10
214.1222205203283
 20
1042.252928797442
 30
0.0
 10
215.7327477994323
 20
1045.236639297025
 30
0.0
 10
216.8453096078925
 20
1046.453869191718
 30
0.0
 10
218.8453794874342
 20
1047.825335267949
 30
0.0
 10
219.5823002009253
 20
1048.213080712582
 30
0.0
 10
221.1569448373
 20
1048.798161996871
 30
0.0
 10
222.0154564560301
 20
1049.000825051444
 30
0.0
 10
223.7733472852611
 20
1049.164482161609
 30
0.0
 10
224.6870164599177
 20
1049.123883282453
 30
0.0
 10
226.4107801752101
 20
1048.811714762936
 30
0.0
 10
227.2367628830974
 20
1048.541459368832
 30
0.0
 10
227.991841021166
 20
1048.187746861615
 30
0.0
  0
ARC
  5
5E31
330
A
100
AcDbEntity
  8
MODEL
100
AcDbCircle
 10
229.8583623992982
 20
1025.5516386008
 30
0.0
 40
4.198559525382723
100
AcDbArc
 50
89.64650276169957
 51
116.3953397540001
  0
LINE
  5
5E32
330
A
100
AcDbEntity
  8
MODEL
100
AcDbLine
 10
229.8842660485982
 20
1029.7501182172
 30
0.0
 11
232.7040859791982
 21
1029.7501182172
 31
0.0
  0
LINE
  5
5E33
330
A
100
AcDbEntity
  8
MODEL
100
AcDbLine
 10
232.7040859791982
 20
1029.7501182172
 30
0.0
 11
232.1138694443982
 21
1029.7157006292
 31
0.0
  0
LINE
  5
5E34
330
A
100
AcDbEntity
  8
MODEL
100
AcDbLine
 10
232.7040859791982
 20
1047.7501182172
 30
0.0
 11
229.8842660485982
 21
1047.7501182172
 31
0.0
  0
ARC
  5
5E35
330
A
100
AcDbEntity
  8
MODEL
100
AcDbCircle
 10
229.8583623992982
 20
1051.9485978336
 30
0.0
 40
4.198559525382572
100
AcDbArc
 50
243.6046602459992
 51
270.3534972383005
  0
LINE
  5
5E36
330
A
100
AcDbEntity
  8
MODEL
100
AcDbLine
 10
232.1138694443982
 20
1047.7845358052
 30
0.0
 11
232.7040859791982
 21
1047.7501182172
 31
0.0
  0
LINE
  5
5E37
330
A
100
AcDbEntity
  8
MODEL
100
AcDbLine
 10
228.0736929613982
 20
1029.3703113909
 30
0.0
 11
228.0442760742982
 21
1029.3563165386
 31
0.0
  0
LINE
  5
5E38
330
A
100
AcDbEntity
  8
MODEL
100
AcDbLine
 10
236.7949730835982
 20
1047.7501182172
 30
0.0
 11
233.7225277550982
 21
1047.7501182172
 31
0.0
  0
ARC
  5
5E39
330
A
100
AcDbEntity
  8
MODEL
100
AcDbCircle
 10
236.7949730835982
 20
1028.7501182172
 30
0.0
 40
0.9999999999999936
100
AcDbArc
 50
0.0
 51
90.0
  0
ARC
  5
5E3A
330
A
100
AcDbEntity
  8
MODEL
100
AcDbCircle
 10
236.7949730835982
 20
1048.7501182172
 30
0.0
 40
1.000000000000006
100
AcDbArc
 50
270.0
 51
0.0
  0
LINE
  5
5E3B
330
A
100
AcDbEntity
  8
MODEL
100
AcDbLine
 10
237.7949730835982
 20
1028.7501182172
 30
0.0
 11
237.7949730835982
 21
1021.2501182172
 31
0.0
  0
LINE
  5
5E3C
330
A
100
AcDbEntity
  8
MODEL
100
AcDbLine
 10
237.7949730835982
 20
1056.2501182172
 30
0.0
 11
237.7949730835982
 21
1048.7501182172
 31
0.0
  0
LINE
  5
5E3D
330
A
100
AcDbEntity
  8
MODEL
100
AcDbLine
 10
233.7225277550982
 20
1047.7501182172
 30
0.0
 11
233.5830015576982
 21
1047.7501182172
 31
0.0
  0
SPLINE
  5
5E3E
330
A
100
AcDbEntity
  8
MODEL
100
AcDbSpline
210
0.0
220
0.0
230
1.0
 70
     8
 71
     3
 72
    40
 73
    36
 74
     0
 42
0.000000001
 43
0.0000000001
 40
0.0
 40
0.0
 40
0.0
 40
0.0
 40
0.0625000000000003
 40
0.0625000000000003
 40
0.1250000000000006
 40
0.1250000000000006
 40
0.1562500000000007
 40
0.1562500000000007
 40
0.1875000000000009
 40
0.1875000000000009
 40
0.2500000000000008
 40
0.2500000000000008
 40
0.3125000000000008
 40
0.3125000000000008
 40
0.3750000000000008
 40
0.3750000000000008
 40
0.4375000000000008
 40
0.4375000000000008
 40
0.5000000000000008
 40
0.5000000000000008
 40
0.5625000000000008
 40
0.5625000000000008
 40
0.6250000000000007
 40
0.6250000000000007
 40
0.6875000000000007
 40
0.6875000000000007
 40
0.7500000000000006
 40
0.7500000000000006
 40
0.8125000000000006
 40
0.8125000000000006
 40
0.8750000000000004
 40
0.8750000000000004
 40
0.9375000000000002
 40
0.9375000000000002
 40
1.0
 40
1.0
 40
1.0
 40
1.0
 10
233.21532467583
 20
1047.902185840054
 30
0.0
 10
232.3383308049587
 20
1048.759065931612
 30
0.0
 10
231.3410394028342
 20
1049.490321289363
 30
0.0
 10
229.16557950311
 20
1050.658833907623
 30
0.0
 10
227.9945186555953
 20
1051.102113966669
 30
0.0
 10
226.0160697758523
 20
1051.524011698346
 30
0.0
 10
225.3431589902862
 20
1051.617203481509
 30
0.0
 10
223.9654145374764
 20
1051.703478697776
 30
0.0
 10
223.2599691998119
 20
1051.694451072104
 30
0.0
 10
221.2182535043741
 20
1051.516832985326
 30
0.0
 10
219.9182594396463
 20
1051.198467248504
 30
0.0
 10
217.5709198510652
 20
1050.272805024355
 30
0.0
 10
216.4936577978941
 20
1049.658019336519
 30
0.0
 10
214.5648903777793
 20
1048.175656335507
 30
0.0
 10
213.6866557099809
 20
1047.285027519626
 30
0.0
 10
212.2042236864197
 20
1045.247847538826
 30
0.0
 10
211.5869772582533
 20
1044.080082071134
 30
0.0
 10
210.7345877532501
 20
1041.546011613652
 30
0.0
 10
210.4991368764656
 20
1040.158277174316
 30
0.0
 10
210.4918879575792
 20
1037.409106255886
 30
0.0
 10
210.7197903194279
 20
1036.019326975339
 30
0.0
 10
211.5621320060003
 20
1033.473869729211
 30
0.0
 10
212.1735088013702
 20
1032.302914415598
 30
0.0
 10
213.6602532801507
 20
1030.243487528303
 30
0.0
 10
214.5266227736539
 20
1029.359770896737
 30
0.0
 10
216.4556167732995
 20
1027.865897539084
 30
0.0
 10
217.5341704018992
 20
1027.246439413294
 30
0.0
 10
219.8729699711004
 20
1026.315268410976
 30
0.0
 10
221.1703945254975
 20
1025.991953796157
 30
0.0
 10
223.901653852847
 20
1025.745712561251
 30
0.0
 10
225.3243457607551
 20
1025.832665289803
 30
0.0
 10
227.9504481935127
 20
1026.384889288985
 30
0.0
 10
229.1533526929569
 20
1026.835367490887
 30
0.0
 10
231.3444495293128
 20
1028.011216582055
 30
0.0
 10
232.3256107207425
 20
1028.728742152614
 30
0.0
 10
233.21532467583
 20
1029.598050594345
 30
0.0
  0
ARC
  5
5E3F
330
A
100
AcDbEntity
  8
MODEL
100
AcDbCircle
 10
233.5883558365982
 20
1048.2835918703
 30
0.0
 40
0.5335005218667112
100
AcDbArc
 50
225.6360038556
 51
269.4249626278975
  0
ARC
  5
5E40
330
A
100
AcDbEntity
  8
MODEL
100
AcDbCircle
 10
233.5864514806982
 20
1029.2212490134
 30
0.0
 40
0.5288804559944529
100
AcDbArc
 50
90.37374690229942
 51
134.565286614296
  0
LINE
  5
5E41
330
A
100
AcDbEntity
  8
MODEL
100
AcDbLine
 10
233.7225277550982
 20
1029.7501182172
 30
0.0
 11
236.7949730835982
 21
1029.7501182172
 31
0.0
  0
LINE
  5
5E42
330
A
100
AcDbEntity
  8
MODEL
100
AcDbLine
 10
233.5830015576982
 20
1029.7501182172
 30
0.0
 11
233.7225277550982
 21
1029.7501182172
 31
0.0
  0
LINE
  5
5E43
330
A
100
AcDbEntity
  8
MODEL
100
AcDbLine
 10
192.3397369043982
 20
1020.7501182172
 30
0.0
 11
237.2949730835982
 21
1020.7501182172
 31
0.0
  0
LINE
  5
5E44
330
A
100
AcDbEntity
  8
MODEL
100
AcDbLine
 10
237.2949730835982
 20
1056.7501182172
 30
0.0
 11
192.7167418039982
 21
1056.7501182172
 31
0.0
  0
ARC
  5
5E45
330
A
100
AcDbEntity
  8
MODEL
100
AcDbCircle
 10
237.2949730835982
 20
1021.2501182172
 30
0.0
 40
0.5000000000000004
100
AcDbArc
 50
270.0
 51
0.0
  0
ARC
  5
5E46
330
A
100
AcDbEntity
  8
MODEL
100
AcDbCircle
 10
237.2949730835982
 20
1056.2501182172
 30
0.0
 40
0.5000000000000004
100
AcDbArc
 50
0.0
 51
90.0
  0
ARC
  5
5E47
330
A
100
AcDbEntity
  8
MODEL
100
AcDbCircle
 10
231.4497249498982
 20
1029.2501182172
 30
0.0
 40
0.5000000000000004
100
AcDbArc
 50
90.0
 51
130.1111975008031
  0
ARC
  5
5E48
330
A
100
AcDbEntity
  8
MODEL
100
AcDbCircle
 10
231.4497249498982
 20
1048.2501182172
 30
0.0
 40
0.499999999999992
100
AcDbArc
 50
229.8888024991969
 51
270.0
  0
LINE
  5
5E49
330
A
100
AcDbEntity
  8
MODEL
100
AcDbLine
 10
186.2817505666982
 20
1088.7501182172
 30
0.0
 11
186.5671325982982
 21
1088.7501182172
 31
0.0
  0
LINE
  5
5E4A
330
A
100
AcDbEntity
  8
MODEL
100
AcDbLine
 10
162.6823432810982
 20
1088.7501182172
 30
0.0
 11
186.2081985192982
 21
1088.7501182172
 31
0.0
  0
LINE
  5
5E4B
330
A
100
AcDbEntity
  8
MODEL
100
AcDbLine
 10
162.6087801678982
 20
1088.7501182172
 30
0.0
 11
162.6823432810982
 21
1088.7501182172
 31
0.0
  0
LINE
  5
5E4C
330
A
100
AcDbEntity
  8
MODEL
100
AcDbLine
 10
186.2081985192982
 20
1088.7501182172
 30
0.0
 11
186.2817505666982
 21
1088.7501182172
 31
0.0
  0
LINE
  5
5E4D
330
A
100
AcDbEntity
  8
MODEL
100
AcDbLine
 10
186.2817505666982
 20
1088.7501182172
 30
0.0
 11
185.7470341075982
 21
1037.6903241684
 31
0.0
  0
ARC
  5
5E4E
330
A
100
AcDbEntity
  8
MODEL
100
AcDbCircle
 10
174.4468263405982
 20
1038.7523055352
 30
0.0
 40
11.35
100
AcDbArc
 50
185.1753533805004
 51
354.6311731316991
  0
LINE
  5
5E4F
330
A
100
AcDbEntity
  8
MODEL
100
AcDbLine
 10
163.1430969604982
 20
1037.72848812
 30
0.0
 11
162.6087801678982
 21
1088.7501182172
 31
0.0
  0
ARC
  5
5E50
330
A
100
AcDbEntity
  8
MODEL
100
AcDbCircle
 10
163.2335489549982
 20
1037.2148159473
 30
0.0
 40
0.5215751760796017
100
AcDbArc
 50
91.69112158940005
 51
99.98677265369746
  0
ARC
  5
5E51
330
A
100
AcDbEntity
  8
MODEL
100
AcDbCircle
 10
185.6570900017982
 20
1037.2035374983
 30
0.0
 40
0.4950264683053751
100
AcDbArc
 50
79.53146367490032
 51
88.27536740219982
  0
LINE
  5
5E52
330
A
100
AcDbEntity
  8
MODEL
100
AcDbLine
 10
162.2996356562982
 20
1088.7501182172
 30
0.0
 11
162.6087801678982
 21
1088.7501182172
 31
0.0
  0
LINE
  5
5E53
330
A
100
AcDbEntity
  8
MODEL
100
AcDbLine
 10
173.4949730835982
 20
1027.4422889403
 30
0.0
 11
173.4949730835982
 21
1027.3990094546
 31
0.0
  0
SPLINE
  5
5E70
330
A
100
AcDbEntity
  8
MODEL
100
AcDbSpline
210
0.0
220
0.0
230
1.0
 70
  1064
 71
     3
 72
    10
 73
     6
 74
     4
 42
0.000000001
 43
0.0000000001
 44
0.0
 40
0.0
 40
0.0
 40
0.0
 40
0.0
 40
6.667718193828404
 40
18.18314054852319
 40
23.5026215120125
 40
23.5026215120125
 40
23.5026215120125
 40
23.5026215120125
 10
163.5449730835983
 20
439.7597827225734
 30
0.0
 10
165.6422293241954
 20
440.868771502281
 30
0.0
 10
171.3615329720823
 20
443.8930293161197
 30
0.0
 10
179.181003920449
 20
435.7805155000508
 30
0.0
 10
183.8649447422089
 20
439.7494574749222
 30
0.0
 10
185.3449730835982
 20
441.0035609812796
 30
0.0
 11
163.5449730835983
 21
439.7597827225734
 31
0.0
 11
169.8811620437908
 21
441.8361197311162
 31
0.0
 11
180.8133183176814
 21
438.2177069284857
 31
0.0
 11
185.3449730835982
 21
441.0035609812796
 31
0.0
  0
SPLINE
  5
5E71
330
A
100
AcDbEntity
  8
MODEL
100
AcDbSpline
210
0.0
220
0.0
230
1.0
 70
  1064
 71
     3
 72
     9
 73
     5
 74
     3
 42
0.000000001
 43
0.0000000001
 44
0.0
 40
0.0
 40
0.0
 40
0.0
 40
0.0
 40
10.12993612282337
 40
13.65095510115768
 40
13.65095510115768
 40
13.65095510115768
 40
13.65095510115768
 10
176.6306388369026
 20
439.1283290054283
 30
0.0
 10
173.1081907699781
 20
437.950624098758
 30
0.0
 10
168.3613908074979
 20
436.3635660355638
 30
0.0
 10
164.5325530866272
 20
439.063407142565
 30
0.0
 10
163.5449730835983
 20
439.7597827225734
 30
0.0
 11
176.6306388369026
 21
439.1283290054283
 31
0.0
 11
166.5687841548154
 21
437.9558588740212
 31
0.0
 11
163.5449730835983
 21
439.7597827225734
 31
0.0
  0
SPLINE
  5
5E72
330
A
100
AcDbEntity
  8
MODEL
100
AcDbSpline
210
0.0
220
0.0
230
1.0
 70
  1064
 71
     3
 72
    10
 73
     6
 74
     4
 42
0.000000001
 43
0.0000000001
 44
0.0
 40
0.0
 40
0.0
 40
0.0
 40
0.0
 40
6.638367113538786
 40
18.15378946823361
 40
23.49961358367246
 40
23.49961358367246
 40
23.49961358367246
 40
23.49961358367246
 10
185.3449730835982
 20
408.1165739114179
 30
0.0
 10
183.2578452601436
 20
407.0105548035738
 30
0.0
 10
177.5502249293828
 20
403.9859498535562
 30
0.0
 10
169.7367660078422
 20
412.0913630079998
 30
0.0
 10
165.0354999770342
 20
408.1290416356494
 30
0.0
 10
163.5449730835983
 20
406.8727956527118
 30
0.0
 11
185.3449730835982
 21
408.1165739114179
 31
0.0
 11
179.0396782799377
 21
406.0402369028751
 31
0.0
 11
168.1075220060471
 21
409.6586497055057
 31
0.0
 11
163.5449730835983
 21
406.8727956527118
 31
0.0
  0
SPLINE
  5
5E73
330
A
100
AcDbEntity
  8
MODEL
100
AcDbSpline
210
0.0
220
0.0
230
1.0
 70
  1064
 71
     3
 72
     9
 73
     5
 74
     3
 42
0.000000001
 43
0.0000000001
 44
0.0
 40
0.0
 40
0.0
 40
0.0
 40
0.0
 40
10.12993612282335
 40
13.62445939640211
 40
13.62445939640211
 40
13.62445939640211
 40
13.62445939640211
 10
172.2902014868259
 20
408.7480276285631
 30
0.0
 10
175.8159012257444
 20
409.9321389822969
 30
0.0
 10
180.5578613283923
 20
411.5247331373001
 30
0.0
 10
184.3677728746674
 20
408.8122864992806
 30
0.0
 10
185.3449730835982
 20
408.1165739114179
 30
0.0
 11
172.2902014868259
 21
408.7480276285631
 31
0.0
 11
182.3520561689131
 21
409.9204977599701
 31
0.0
 11
185.3449730835982
 21
408.1165739114179
 31
0.0
  0
LINE
  5
5E74
330
A
100
AcDbEntity
  8
MODEL
100
AcDbLine
 10
185.3449730835982
 20
441.0035609812795
 30
0.0
 11
185.3449730835982
 21
615.2058010081003
 31
0.0
  0
LINE
  5
5E75
330
A
100
AcDbEntity
  8
MODEL
100
AcDbLine
 10
163.5449730835982
 20
406.8727956527117
 30
0.0
 11
163.5449730835982
 21
335.0224810988003
 31
0.0
  0
VIEWPORT
  5
349
330
B
100
AcDbEntity
 67
     1
  8
0
100
AcDbViewport
 10
202.5
 20
128.5
 30
0.0
 40
486.0
 41
308.4
 68
     1
 69
     1
 12
202.5
 22
128.5
 13
0.0
 23
0.0
 14
0.5
 24
0.5
 15
0.0
 25
0.0
 16
0.0
 26
0.0
 36
1.0
 17
0.0
 27
0.0
 37
0.0
 42
50.0
 43
0.0
 44
0.0
 45
308.4
 50
0.0
 51
0.0
 72
   100
 90
   557152
  1

281
     0
 71
     1
 74
     0
110
0.0
120
0.0
130
0.0
111
1.0
121
0.0
131
0.0
112
0.0
122
1.0
132
0.0
 79
     0
146
0.0
170
     0
 61
     5
348
26C
292
     1
282
     1
141
0.0
142
0.0
 63
   256
  0
VIEWPORT
  5
34A
330
B
100
AcDbEntity
 67
     1
  8
0
100
AcDbViewport
 10
202.5
 20
128.5
 30
0.0
 40
324.0
 41
205.6
 68
     2
 69
     2
 12
986.6781359294573
 22
1427.077061889956
 13
0.0
 23
0.0
 14
0.5
 24
0.5
 15
0.0
 25
0.0
 16
0.0
 26
0.0
 36
1.0
 17
0.0
 27
0.0
 37
0.0
 42
50.0
 43
0.0
 44
0.0
 45
2890.021615685494
 50
0.0
 51
0.0
 72
   100
 90
   557152
  1

281
     0
 71
     1
 74
     0
110
0.0
120
0.0
130
0.0
111
1.0
121
0.0
131
0.0
112
0.0
122
1.0
132
0.0
 79
     0
146
0.0
170
     0
 61
     5
348
26C
292
     1
282
     1
141
0.0
142
0.0
 63
   256
  0
ENDSEC
  0
SECTION
  2
OBJECTS
  0
DICTIONARY
  5
19
330
0
100
AcDbDictionary
281
     1
  3
ACAD_COLOR
350
674
  3
ACAD_DETAILVIEWSTYLE
350
BBF
  3
ACAD_FIELDLIST
350
3BE4
  3
ACAD_GROUP
350
1A
  3
ACAD_IMAGE_VARS
350
27B
  3
ACAD_LAYOUT
350
1E
  3
ACAD_MATERIAL
350
263
  3
ACAD_MLEADERSTYLE
350
336
  3
ACAD_MLINESTYLE
350
1B
  3
ACAD_PLOTSETTINGS
350
22
  3
ACAD_PLOTSTYLENAME
350
1F
  3
ACAD_SCALELIST
350
241
  3
ACAD_SECTIONVIEWSTYLE
350
BC0
  3
ACAD_TABLESTYLE
350
278
  3
ACAD_VISUALSTYLE
350
267
  3
ACDB_RECOMPOSE_DATA
350
5E7E
  3
AcDbVariableDictionary
350
330
  3
APPDATA
350
27A
  3
DimOffsetDictionary
350
E38
  0
SUN
  5
904
330
15
100
AcDbSun
 90
        1
290
     0
 63
     7
421
 16777215
 40
1.0
291
     1
 91
  2455826
 92
 54000000
292
     0
 70
     2
 71
   256
280
     1
  0
DICTIONARY
  5
2E1
330
2
100
AcDbDictionary
280
     1
281
     1
  3
ACAD_LAYERSTATES
360
2E2
  3
ACLYDICTIONARY
360
DDE
  0
DICTIONARY
  5
3E3E
330
A
100
AcDbDictionary
280
     1
281
     1
  3
ACAD_SORTENTS
360
3E3F
  0
DICTIONARY
  5
3DB8
330
3DB7
100
AcDbDictionary
280
     1
281
     1
  3
ACAD_FIELD
360
5D1D
  0
DICTIONARY
  5
674
102
{ACAD_REACTORS
330
19
102
}
330
19
100
AcDbDictionary
281
     1
  0
DICTIONARY
  5
BBF
102
{ACAD_REACTORS
330
19
102
}
330
19
100
AcDbDictionary
281
     1
  0
FIELDLIST
  5
3BE4
102
{ACAD_REACTORS
330
19
102
}
330
19
100
AcDbIdSet
 90
        2
330
3DBB
330
3DBA
100
AcDbFieldList
  0
DICTIONARY
  5
1A
102
{ACAD_REACTORS
330
19
102
}
330
19
100
AcDbDictionary
281
     1
  3
*A1
350
3CF4
  0
RASTERVARIABLES
  5
27B
102
{ACAD_REACTORS
330
19
102
}
330
19
100
AcDbRasterVariables
 90
        0
 70
     1
 71
     1
 72
     1
  0
DICTIONARY
  5
1E
102
{ACAD_REACTORS
330
19
102
}
330
19
100
AcDbDictionary
281
     1
  3
Layout1
350
21
  3
Model
350
20
  0
DICTIONARY
  5
263
102
{ACAD_REACTORS
330
19
102
}
330
19
100
AcDbDictionary
281
     1
  3
ByBlock
350
265
  3
ByLayer
350
264
  3
Global
350
266
  0
DICTIONARY
  5
336
102
{ACAD_REACTORS
330
19
102
}
330
19
100
AcDbDictionary
281
     1
  3
Standard
350
D59
  0
DICTIONARY
  5
1B
102
{ACAD_REACTORS
330
19
102
}
330
19
100
AcDbDictionary
281
     1
  3
Standard
350
1C
  0
DICTIONARY
  5
22
102
{ACAD_REACTORS
330
19
102
}
330
19
100
AcDbDictionary
281
     1
  0
ACDBDICTIONARYWDFLT
  5
1F
102
{ACAD_REACTORS
330
19
102
}
330
19
100
AcDbDictionary
281
     1
  3
Normal
350
1D
100
AcDbDictionaryWithDefault
340
1D
  0
DICTIONARY
  5
241
102
{ACAD_REACTORS
330
19
102
}
330
19
100
AcDbDictionary
281
     1
  3
A0
350
242
  3
A1
350
243
  3
A2
350
244
  3
A3
350
245
  3
A4
350
246
  3
A5
350
247
  3
A6
350
248
  3
A7
350
249
  3
A8
350
24A
  3
A9
350
24B
  3
B0
350
24C
  3
B1
350
24D
  3
B2
350
24E
  3
B3
350
24F
  3
B4
350
250
  3
B5
350
251
  3
B6
350
252
  3
B7
350
253
  3
B8
350
254
  3
B9
350
255
  3
C0
350
256
  3
C1
350
257
  3
C2
350
258
  3
C3
350
259
  3
C4
350
25A
  3
C5
350
25B
  3
C6
350
25C
  3
C7
350
25D
  3
C8
350
25E
  3
C9
350
25F
  3
D0
350
260
  3
D1
350
261
  3
D2
350
262
  0
DICTIONARY
  5
BC0
102
{ACAD_REACTORS
330
19
102
}
330
19
100
AcDbDictionary
281
     1
  0
DICTIONARY
  5
278
102
{ACAD_REACTORS
330
19
102
}
330
19
100
AcDbDictionary
281
     1
  3
Standard
350
279
  0
DICTIONARY
  5
267
102
{ACAD_REACTORS
330
19
102
}
330
19
100
AcDbDictionary
281
     1
  3
2dWireframe
350
26C
  3
3D Hidden
350
26E
  3
3dWireframe
350
26D
  3
Basic
350
26F
  3
Brighten
350
273
  3
ColorChange
350
277
  3
Conceptual
350
271
  3
Dim
350
272
  3
EdgeColorOff
350
8FE
  3
Facepattern
350
276
  3
Flat
350
268
  3
FlatWithEdges
350
269
  3
Gouraud
350
26A
  3
GouraudWithEdges
350
26B
  3
Hidden
350
8FB
  3
JitterOff
350
8FC
  3
Linepattern
350
275
  3
OverhangOff
350
8FD
  3
Realistic
350
270
  3
Shaded
350
903
  3
Shaded with edges
350
902
  3
Shades of Gray
350
8FF
  3
Sketchy
350
900
  3
Thicken
350
274
  3
Wireframe
350
8FA
  3
X-Ray
350
901
  0
XRECORD
  5
5E7E
102
{ACAD_REACTORS
330
19
102
}
330
19
100
AcDbXrecord
280
     1
 90
        1
330
279
  0
DICTIONARY
  5
330
102
{ACAD_REACTORS
330
19
102
}
330
19
100
AcDbDictionary
281
     1
  3
CANNOSCALE
350
331
  3
CMLEADERSTYLE
350
D5E
  3
CTABLESTYLE
350
335
  3
HPTRANSPARENCY
350
D52
  3
XCLIPFRAME
350
896
  0
DICTIONARY
  5
27A
102
{ACAD_REACTORS
330
19
102
}
330
19
100
AcDbDictionary
281
     1
  0
DICTIONARY
  5
E38
102
{ACAD_REACTORS
330
19
102
}
330
19
100
AcDbDictionary
281
     1
  3
DIMRAILANGLE
350
246C
  3
DIMRAILFIRSTOFFSET
350
246A
  3
DIMRAILOFFSET
350
246B
  3
DIMRAILSENABLED
350
246D
  0
DICTIONARY
  5
2E2
102
{ACAD_REACTORS
330
2E1
102
}
330
2E1
100
AcDbDictionary
281
     1
  0
DICTIONARY
  5
DDE
102
{ACAD_REACTORS
330
2E1
102
}
330
2E1
100
AcDbDictionary
281
     1
1001
ACAD
1000
<All
  0
SORTENTSTABLE
  5
3E3F
102
{ACAD_REACTORS
330
3E3E
102
}
330
3E3E
100
AcDbSortentsTable
330
A
331
0
  5
3C4A
331
3CE3
  5
3C4B
331
3CE4
  5
3CE2
331
3CEF
  5
3CE3
331
3CF0
  5
3CE4
331
3CF1
  5
3CEF
331
3CF2
  5
3CF0
331
3CF3
  5
3CF1
331
3DB7
  5
3D2F
  0
DICTIONARY
  5
5D1D
102
{ACAD_REACTORS
330
3DB8
102
}
330
3DB8
100
AcDbDictionary
280
     1
281
     1
  3
TEXT
360
3DBA
  0
GROUP
  5
3CF4
102
{ACAD_REACTORS
330
1A
102
}
330
1A
100
AcDbGroup
300

 70
     1
 71
     1
340
3CE3
340
3CE4
340
3CEF
340
3CF0
340
3CF1
340
3CF2
340
3CF3
  0
LAYOUT
  5
21
102
{ACAD_REACTORS
330
1E
102
}
330
1E
100
AcDbPlotSettings
  1

  2
none_device
  4
ISO_A3_(420.00_x_297.00_MM)
  6

 40
7.5
 41
20.0
 42
7.5
 43
20.0
 44
420.0
 45
297.0
 46
0.0
 47
0.0
 48
0.0
 49
0.0
140
0.0
141
0.0
142
1.0
143
1.0
 70
     0
 72
     1
 73
     0
 74
     0
  7

 75
     0
 76
     0
 77
     2
 78
   300
147
1.0
148
0.0
149
0.0
100
AcDbLayout
  1
Layout1
 70
     0
 71
     0
 10
-7.5
 20
-20.0
 11
412.5
 21
277.0
 12
0.0
 22
0.0
 32
0.0
 14
0.0
 24
0.0
 34
0.0
 15
0.0
 25
0.0
 35
0.0
146
0.0
 13
0.0
 23
0.0
 33
0.0
 16
0.0
 26
0.0
 36
0.0
 17
0.0
 27
0.0
 37
0.0
 76
     0
330
B
331
349
  0
LAYOUT
  5
20
102
{ACAD_REACTORS
330
1E
102
}
330
1E
100
AcDbPlotSettings
  1

  2
none_device
  4
ISO_A3_(420.00_x_297.00_MM)
  6

 40
7.5
 41
20.0
 42
7.5
 43
20.0
 44
420.0
 45
297.0
 46
0.0
 47
0.0
 48
0.0
 49
0.0
140
0.0
141
0.0
142
1.0
143
1.0
 70
  1024
 72
     1
 73
     0
 74
     0
  7

 75
     0
 76
     0
 77
     2
 78
   300
147
1.0
148
0.0
149
0.0
100
AcDbLayout
  1
Model
 70
     0
 71
     1
 10
0.0
 20
0.0
 11
840.0
 21
1188.0
 12
0.0
 22
0.0
 32
0.0
 14
0.0
 24
0.0
 34
-0.0000000000000071
 15
840.0
 25
1188.0
 35
0.0000000000000142
146
0.0
 13
0.0
 23
0.0
 33
0.0
 16
0.0
 26
0.0
 36
0.0
 17
0.0
 27
0.0
 37
0.0
 76
     0
330
A
331
15
  0
MATERIAL
  5
265
102
{ACAD_REACTORS
330
263
102
}
330
263
100
AcDbMaterial
  1
ByBlock
 72
     1
 94
      127
  0
MATERIAL
  5
264
102
{ACAD_REACTORS
330
263
102
}
330
263
100
AcDbMaterial
  1
ByLayer
 72
     1
 94
      127
  0
MATERIAL
  5
266
102
{ACAD_REACTORS
330
263
102
}
330
263
100
AcDbMaterial
  1
Global
 72
     1
 94
      127
  0
MLEADERSTYLE
  5
D59
102
{ACAD_REACTORS
330
336
102
}
330
336
100
AcDbMLeaderStyle
170
     2
171
     1
172
     0
 90
        2
 40
0.0
 41
0.0
173
     1
 91
-1056964608
340
11
 92
       -2
290
     1
 42
2.0
291
     1
 43
8.0
  3
Standard
341
0
 44
4.0
300

342
17
174
     1
178
     6
175
     1
176
     0
 93
-1056964608
 45
4.0
292
     0
297
     0
 46
4.0
343
0
 94
-1056964608
 47
1.0
 49
1.0
140
1.0
293
     1
141
0.0
294
     1
177
     0
142
1.0
295
     0
296
     0
143
3.75
1001
ACAD_MLEADERVER
1070
     2
  0
MLINESTYLE
  5
1C
102
{ACAD_REACTORS
330
1B
102
}
330
1B
100
AcDbMlineStyle
  2
Standard
 70
     0
  3

 62
     0
 51
90.0
 52
90.0
 71
     2
 49
0.5
 62
   256
  6
BYLAYER
 49
-0.5
 62
   256
  6
BYLAYER
  0
ACDBPLACEHOLDER
  5
1D
102
{ACAD_REACTORS
330
1F
102
}
330
1F
  0
SCALE
  5
242
102
{ACAD_REACTORS
330
241
102
}
330
241
100
AcDbScale
 70
     0
300
1:1
140
1.0
141
1.0
290
     1
  0
SCALE
  5
243
102
{ACAD_REACTORS
330
241
102
}
330
241
100
AcDbScale
 70
     0
300
1:2
140
1.0
141
2.0
290
     0
  0
SCALE
  5
244
102
{ACAD_REACTORS
330
241
102
}
330
241
100
AcDbScale
 70
     0
300
1:4
140
1.0
141
4.0
290
     0
  0
SCALE
  5
245
102
{ACAD_REACTORS
330
241
102
}
330
241
100
AcDbScale
 70
     0
300
1:5
140
1.0
141
5.0
290
     0
  0
SCALE
  5
246
102
{ACAD_REACTORS
330
241
102
}
330
241
100
AcDbScale
 70
     0
300
1:8
140
1.0
141
8.0
290
     0
  0
SCALE
  5
247
102
{ACAD_REACTORS
330
241
102
}
330
241
100
AcDbScale
 70
     0
300
1:10
140
1.0
141
10.0
290
     0
  0
SCALE
  5
248
102
{ACAD_REACTORS
330
241
102
}
330
241
100
AcDbScale
 70
     0
300
1:16
140
1.0
141
16.0
290
     0
  0
SCALE
  5
249
102
{ACAD_REACTORS
330
241
102
}
330
241
100
AcDbScale
 70
     0
300
1:20
140
1.0
141
20.0
290
     0
  0
SCALE
  5
24A
102
{ACAD_REACTORS
330
241
102
}
330
241
100
AcDbScale
 70
     0
300
1:30
140
1.0
141
30.0
290
     0
  0
SCALE
  5
24B
102
{ACAD_REACTORS
330
241
102
}
330
241
100
AcDbScale
 70
     0
300
1:40
140
1.0
141
40.0
290
     0
  0
SCALE
  5
24C
102
{ACAD_REACTORS
330
241
102
}
330
241
100
AcDbScale
 70
     0
300
1:50
140
1.0
141
50.0
290
     0
  0
SCALE
  5
24D
102
{ACAD_REACTORS
330
241
102
}
330
241
100
AcDbScale
 70
     0
300
1:100
140
1.0
141
100.0
290
     0
  0
SCALE
  5
24E
102
{ACAD_REACTORS
330
241
102
}
330
241
100
AcDbScale
 70
     0
300
2:1
140
2.0
141
1.0
290
     0
  0
SCALE
  5
24F
102
{ACAD_REACTORS
330
241
102
}
330
241
100
AcDbScale
 70
     0
300
4:1
140
4.0
141
1.0
290
     0
  0
SCALE
  5
250
102
{ACAD_REACTORS
330
241
102
}
330
241
100
AcDbScale
 70
     0
300
8:1
140
8.0
141
1.0
290
     0
  0
SCALE
  5
251
102
{ACAD_REACTORS
330
241
102
}
330
241
100
AcDbScale
 70
     0
300
10:1
140
10.0
141
1.0
290
     0
  0
SCALE
  5
252
102
{ACAD_REACTORS
330
241
102
}
330
241
100
AcDbScale
 70
     0
300
100:1
140
100.0
141
1.0
290
     0
  0
SCALE
  5
253
102
{ACAD_REACTORS
330
241
102
}
330
241
100
AcDbScale
 70
     0
300
1/128" = 1'-0"
140
0.0078125
141
12.0
290
     0
  0
SCALE
  5
254
102
{ACAD_REACTORS
330
241
102
}
330
241
100
AcDbScale
 70
     0
300
1/64" = 1'-0"
140
0.015625
141
12.0
290
     0
  0
SCALE
  5
255
102
{ACAD_REACTORS
330
241
102
}
330
241
100
AcDbScale
 70
     0
300
1/32" = 1'-0"
140
0.03125
141
12.0
290
     0
  0
SCALE
  5
256
102
{ACAD_REACTORS
330
241
102
}
330
241
100
AcDbScale
 70
     0
300
1/16" = 1'-0"
140
0.0625
141
12.0
290
     0
  0
SCALE
  5
257
102
{ACAD_REACTORS
330
241
102
}
330
241
100
AcDbScale
 70
     0
300
3/32" = 1'-0"
140
0.09375
141
12.0
290
     0
  0
SCALE
  5
258
102
{ACAD_REACTORS
330
241
102
}
330
241
100
AcDbScale
 70
     0
300
1/8" = 1'-0"
140
0.125
141
12.0
290
     0
  0
SCALE
  5
259
102
{ACAD_REACTORS
330
241
102
}
330
241
100
AcDbScale
 70
     0
300
3/16" = 1'-0"
140
0.1875
141
12.0
290
     0
  0
SCALE
  5
25A
102
{ACAD_REACTORS
330
241
102
}
330
241
100
AcDbScale
 70
     0
300
1/4" = 1'-0"
140
0.25
141
12.0
290
     0
  0
SCALE
  5
25B
102
{ACAD_REACTORS
330
241
102
}
330
241
100
AcDbScale
 70
     0
300
3/8" = 1'-0"
140
0.375
141
12.0
290
     0
  0
SCALE
  5
25C
102
{ACAD_REACTORS
330
241
102
}
330
241
100
AcDbScale
 70
     0
300
1/2" = 1'-0"
140
0.5
141
12.0
290
     0
  0
SCALE
  5
25D
102
{ACAD_REACTORS
330
241
102
}
330
241
100
AcDbScale
 70
     0
300
3/4" = 1'-0"
140
0.75
141
12.0
290
     0
  0
SCALE
  5
25E
102
{ACAD_REACTORS
330
241
102
}
330
241
100
AcDbScale
 70
     0
300
1" = 1'-0"
140
1.0
141
12.0
290
     0
  0
SCALE
  5
25F
102
{ACAD_REACTORS
330
241
102
}
330
241
100
AcDbScale
 70
     0
300
1-1/2" = 1'-0"
140
1.5
141
12.0
290
     0
  0
SCALE
  5
260
102
{ACAD_REACTORS
330
241
102
}
330
241
100
AcDbScale
 70
     0
300
3" = 1'-0"
140
3.0
141
12.0
290
     0
  0
SCALE
  5
261
102
{ACAD_REACTORS
330
241
102
}
330
241
100
AcDbScale
 70
     0
300
6" = 1'-0"
140
6.0
141
12.0
290
     0
  0
SCALE
  5
262
102
{ACAD_REACTORS
330
241
102
}
330
241
100
AcDbScale
 70
     0
300
1'-0" = 1'-0"
140
12.0
141
12.0
290
     0
  0
TABLESTYLE
  5
279
102
{ACAD_REACTORS
330
278
102
}
102
{ACAD_XDICTIONARY
360
5E7C
102
}
330
278
100
AcDbTableStyle
  3
Standard
 70
     0
 71
     0
 40
0.06
 41
0.06
280
     0
281
     0
  7
Standard
140
4.5
170
     2
 62
     0
 63
   257
283
     0
 90
        4
 91
        0
  1

274
    -2
284
     1
 64
     0
275
    -2
285
     1
 65
     0
276
    -2
286
     1
 66
     0
277
    -2
287
     1
 67
     0
278
    -2
288
     1
 68
     0
279
    -2
289
     1
 69
     0
  7
Standard
140
6.0
170
     5
 62
     0
 63
   257
283
     0
 90
        4
 91
        0
  1

274
    -2
284
     1
 64
     0
275
    -2
285
     1
 65
     0
276
    -2
286
     1
 66
     0
277
    -2
287
     1
 67
     0
278
    -2
288
     1
 68
     0
279
    -2
289
     1
 69
     0
  7
Standard
140
4.5
170
     5
 62
     0
 63
   257
283
     0
 90
        4
 91
        0
  1

274
    -2
284
     1
 64
     0
275
    -2
285
     1
 65
     0
276
    -2
286
     1
 66
     0
277
    -2
287
     1
 67
     0
278
    -2
288
     1
 68
     0
279
    -2
289
     1
 69
     0
  0
VISUALSTYLE
  5
26C
102
{ACAD_REACTORS
330
267
102
}
330
267
100
AcDbVisualStyle
  2
2dWireframe
 70
     4
 71
     0
 72
     2
 73
     0
 90
        0
 40
-0.6
 41
-30.0
 62
     5
 63
     7
421
 16777215
 74
     1
 91
        4
 64
     7
 65
   257
 75
     1
175
     1
 42
1.0
 92
        0
 66
   257
 43
1.0
 76
     1
 77
     6
 78
     2
 67
     7
 79
     5
170
     0
171
     0
290
     0
174
     0
 93
        1
 44
0.0
173
     0
291
     0
 45
0.0
  0
VISUALSTYLE
  5
26E
102
{ACAD_REACTORS
330
267
102
}
330
267
100
AcDbVisualStyle
  2
3D Hidden
 70
     6
 71
     1
 72
     2
 73
     2
 90
        0
 40
-0.6
 41
-30.0
 62
     5
 63
     7
421
 16777215
 74
     2
 91
        2
 64
     7
 65
   257
 75
     2
175
     1
 42
40.0
 92
        0
 66
   257
 43
1.0
 76
     1
 77
     6
 78
     2
 67
     7
 79
     3
170
     0
171
     0
290
     0
174
     0
 93
        1
 44
0.0
173
     0
291
     0
 45
0.0
  0
VISUALSTYLE
  5
26D
102
{ACAD_REACTORS
330
267
102
}
330
267
100
AcDbVisualStyle
  2
3dWireframe
 70
     5
 71
     0
 72
     2
 73
     0
 90
        0
 40
-0.6
 41
-30.0
 62
     5
 63
     7
421
 16777215
 74
     1
 91
        4
 64
     7
 65
   257
 75
     1
175
     1
 42
1.0
 92
        0
 66
   257
 43
1.0
 76
     1
 77
     6
 78
     2
 67
     7
 79
     5
170
     0
171
     0
290
     0
174
     0
 93
        1
 44
0.0
173
     0
291
     0
 45
0.0
  0
VISUALSTYLE
  5
26F
102
{ACAD_REACTORS
330
267
102
}
330
267
100
AcDbVisualStyle
  2
Basic
 70
     7
 71
     1
 72
     0
 73
     1
 90
        0
 40
-0.6
 41
-30.0
 62
     5
 63
     7
421
 16777215
 74
     0
 91
        4
 64
     7
 65
   257
 75
     1
175
     1
 42
1.0
 92
        8
 66
     7
 43
1.0
 76
     1
 77
     6
 78
     2
 67
     7
 79
     5
170
     0
171
     0
290
     0
174
     0
 93
        1
 44
0.0
173
     0
291
     1
 45
0.0
  0
VISUALSTYLE
  5
273
102
{ACAD_REACTORS
330
267
102
}
330
267
100
AcDbVisualStyle
  2
Brighten
 70
    12
 71
     2
 72
     2
 73
     0
 90
        0
 40
-0.6
 41
-30.0
 62
     5
 63
     7
421
 16777215
 74
     1
 91
        4
 64
     7
 65
   257
 75
     1
175
     1
 42
1.0
 92
        8
 66
     7
 43
1.0
 76
     1
 77
     6
 78
     2
 67
     7
 79
     5
170
     0
171
     0
290
     0
174
     0
 93
        1
 44
50.0
173
     0
291
     1
 45
0.0
  0
VISUALSTYLE
  5
277
102
{ACAD_REACTORS
330
267
102
}
330
267
100
AcDbVisualStyle
  2
ColorChange
 70
    16
 71
     2
 72
     2
 73
     3
 90
        0
 40
-0.6
 41
-30.0
 62
     5
 63
     8
421
  8421504
 74
     1
 91
        4
 64
     7
 65
   257
 75
     1
175
     1
 42
1.0
 92
        8
 66
     8
424
  8421504
 43
1.0
 76
     1
 77
     6
 78
     2
 67
     7
 79
     5
170
     0
171
     0
290
     0
174
     0
 93
        1
 44
0.0
173
     0
291
     1
 45
0.0
  0
VISUALSTYLE
  5
271
102
{ACAD_REACTORS
330
267
102
}
330
267
100
AcDbVisualStyle
  2
Conceptual
 70
     9
 71
     3
 72
     2
 73
     0
 90
        0
 40
-0.6
 41
-30.0
 62
     5
 63
     7
421
 16777215
 74
     2
 91
        2
 64
     7
 65
   257
 75
     1
175
     1
 42
40.0
 92
        8
 66
     7
 43
1.0
 76
     1
 77
     6
 78
     2
 67
     7
 79
     3
170
     0
171
     0
290
     0
174
     0
 93
        1
 44
0.0
173
     0
291
     0
 45
0.0
  0
VISUALSTYLE
  5
272
102
{ACAD_REACTORS
330
267
102
}
330
267
100
AcDbVisualStyle
  2
Dim
 70
    11
 71
     2
 72
     2
 73
     0
 90
        0
 40
-0.6
 41
-30.0
 62
     5
 63
     7
421
 16777215
 74
     1
 91
        4
 64
     7
 65
   257
 75
     1
175
     1
 42
1.0
 92
        8
 66
     7
 43
1.0
 76
     1
 77
     6
 78
     2
 67
     7
 79
     5
170
     0
171
     0
290
     0
174
     0
 93
        1
 44
-50.0
173
     0
291
     1
 45
0.0
  0
VISUALSTYLE
  5
8FE
102
{ACAD_REACTORS
330
267
102
}
330
267
100
AcDbVisualStyle
  2
EdgeColorOff
 70
    22
 71
     2
 72
     2
 73
     0
 90
        0
 40
0.6
 41
30.0
 62
     5
 63
     7
421
 16777215
 74
     1
 91
        4
 64
     7
 65
   257
 75
     1
175
     1
 42
1.0
 92
        8
 66
     7
 43
1.0
 76
     1
 77
     6
 78
     2
 67
     7
 79
     5
170
     0
171
     0
290
     0
174
     0
 93
        1
 44
0.0
173
     0
291
     1
 45
0.0
  0
VISUALSTYLE
  5
276
102
{ACAD_REACTORS
330
267
102
}
330
267
100
AcDbVisualStyle
  2
Facepattern
 70
    15
 71
     2
 72
     2
 73
     0
 90
        0
 40
-0.6
 41
-30.0
 62
     5
 63
     7
421
 16777215
 74
     1
 91
        4
 64
     7
 65
   257
 75
     1
175
     1
 42
1.0
 92
        8
 66
     7
 43
1.0
 76
     1
 77
     6
 78
     2
 67
     7
 79
     5
170
     0
171
     0
290
     0
174
     0
 93
        1
 44
0.0
173
     0
291
     1
 45
0.0
  0
VISUALSTYLE
  5
268
102
{ACAD_REACTORS
330
267
102
}
330
267
100
AcDbVisualStyle
  2
Flat
 70
     0
 71
     2
 72
     1
 73
     1
 90
        2
 40
-0.6
 41
30.0
 62
     5
 63
     7
421
 16777215
 74
     0
 91
        4
 64
     7
 65
   257
 75
     1
175
     1
 42
1.0
 92
        8
 66
     7
 43
1.0
 76
     1
 77
     6
 78
     2
 67
     7
 79
     5
170
     0
171
     0
290
     0
174
     0
 93
       13
 44
0.0
173
     0
291
     1
 45
0.0
  0
VISUALSTYLE
  5
269
102
{ACAD_REACTORS
330
267
102
}
330
267
100
AcDbVisualStyle
  2
FlatWithEdges
 70
     1
 71
     2
 72
     1
 73
     1
 90
        2
 40
-0.6
 41
30.0
 62
     5
 63
     7
421
 16777215
 74
     1
 91
        4
 64
     7
 65
   257
 75
     1
175
     1
 42
1.0
 92
        0
 66
   257
 43
1.0
 76
     1
 77
     6
 78
     2
 67
     7
 79
     5
170
     0
171
     0
290
     0
174
     0
 93
       13
 44
0.0
173
     0
291
     1
 45
0.0
  0
VISUALSTYLE
  5
26A
102
{ACAD_REACTORS
330
267
102
}
330
267
100
AcDbVisualStyle
  2
Gouraud
 70
     2
 71
     2
 72
     2
 73
     1
 90
        2
 40
-0.6
 41
30.0
 62
     5
 63
     7
421
 16777215
 74
     0
 91
        4
 64
     7
 65
   257
 75
     1
175
     1
 42
1.0
 92
        0
 66
     7
 43
1.0
 76
     1
 77
     6
 78
     2
 67
     7
 79
     5
170
     0
171
     0
290
     0
174
     0
 93
       13
 44
0.0
173
     0
291
     1
 45
0.0
  0
VISUALSTYLE
  5
26B
102
{ACAD_REACTORS
330
267
102
}
330
267
100
AcDbVisualStyle
  2
GouraudWithEdges
 70
     3
 71
     2
 72
     2
 73
     1
 90
        2
 40
-0.6
 41
30.0
 62
     5
 63
     7
421
 16777215
 74
     1
 91
        4
 64
     7
 65
   257
 75
     1
175
     1
 42
1.0
 92
        0
 66
   257
 43
1.0
 76
     1
 77
     6
 78
     2
 67
     7
 79
     5
170
     0
171
     0
290
     0
174
     0
 93
       13
 44
0.0
173
     0
291
     1
 45
0.0
  0
VISUALSTYLE
  5
8FB
102
{ACAD_REACTORS
330
267
102
}
330
267
100
AcDbVisualStyle
  2
Hidden
 70
     6
 71
     1
 72
     2
 73
     2
 90
        0
 40
0.6
 41
30.0
 62
     5
 63
     7
421
 16777215
 74
     2
 91
        2
 64
     7
 65
   257
 75
     2
175
     1
 42
40.0
 92
        0
 66
   257
 43
1.0
 76
     1
 77
     6
 78
     2
 67
     7
 79
     3
170
     0
171
     0
290
     0
174
     0
 93
        1
 44
0.0
173
     0
291
     0
 45
0.0
  0
VISUALSTYLE
  5
8FC
102
{ACAD_REACTORS
330
267
102
}
330
267
100
AcDbVisualStyle
  2
JitterOff
 70
    20
 71
     2
 72
     2
 73
     0
 90
        0
 40
0.6
 41
30.0
 62
     5
 63
     7
421
 16777215
 74
     1
 91
        4
 64
     7
 65
   257
 75
     1
175
     1
 42
1.0
 92
       10
 66
     7
 43
1.0
 76
     1
 77
     6
 78
     2
 67
     7
 79
     5
170
     0
171
     0
290
     0
174
     0
 93
        1
 44
0.0
173
     0
291
     1
 45
0.0
  0
VISUALSTYLE
  5
275
102
{ACAD_REACTORS
330
267
102
}
330
267
100
AcDbVisualStyle
  2
Linepattern
 70
    14
 71
     2
 72
     2
 73
     0
 90
        0
 40
-0.6
 41
-30.0
 62
     5
 63
     7
421
 16777215
 74
     1
 91
        4
 64
     7
 65
   257
 75
     7
175
     7
 42
1.0
 92
        8
 66
     7
 43
1.0
 76
     1
 77
     6
 78
     2
 67
     7
 79
     5
170
     0
171
     0
290
     0
174
     0
 93
        1
 44
0.0
173
     0
291
     1
 45
0.0
  0
VISUALSTYLE
  5
8FD
102
{ACAD_REACTORS
330
267
102
}
330
267
100
AcDbVisualStyle
  2
OverhangOff
 70
    21
 71
     2
 72
     2
 73
     0
 90
        0
 40
0.6
 41
30.0
 62
     5
 63
     7
421
 16777215
 74
     1
 91
        4
 64
     7
 65
   257
 75
     1
175
     1
 42
1.0
 92
        9
 66
     7
 43
1.0
 76
     1
 77
     6
 78
     2
 67
     7
 79
     5
170
     0
171
     0
290
     0
174
     0
 93
        1
 44
0.0
173
     0
291
     1
 45
0.0
  0
VISUALSTYLE
  5
270
102
{ACAD_REACTORS
330
267
102
}
330
267
100
AcDbVisualStyle
  2
Realistic
 70
     8
 71
     2
 72
     2
 73
     0
 90
        0
 40
-0.6
 41
-30.0
 62
     5
 63
     7
421
 16777215
 74
     1
 91
        0
 64
     7
 65
   257
 75
     1
175
     1
 42
1.0
 92
        8
 66
     8
424
  7895160
 43
1.0
 76
     1
 77
     6
 78
     2
 67
     7
 79
     5
170
     0
171
     0
290
     0
174
     0
 93
       13
 44
0.0
173
     0
291
     0
 45
0.0
  0
VISUALSTYLE
  5
903
102
{ACAD_REACTORS
330
267
102
}
330
267
100
AcDbVisualStyle
  2
Shaded
 70
    27
 71
     2
 72
     2
 73
     1
 90
        2
 40
0.6
 41
30.0
 62
     5
 63
     7
421
 16777215
 74
     0
 91
        4
 64
     7
 65
   257
 75
     1
175
     1
 42
1.0
 92
        8
 66
   257
 43
1.0
 76
     1
 77
     6
 78
     2
 67
     8
425
  7895160
 79
     3
170
     0
171
     0
290
     0
174
     0
 93
        5
 44
0.0
173
     0
291
     0
 45
0.0
  0
VISUALSTYLE
  5
902
102
{ACAD_REACTORS
330
267
102
}
330
267
100
AcDbVisualStyle
  2
Shaded with edges
 70
    26
 71
     2
 72
     2
 73
     1
 90
        2
 40
0.6
 41
30.0
 62
     5
 63
     7
421
 16777215
 74
     1
 91
       10
 64
     7
 65
   257
 75
     2
175
     1
 42
1.0
 92
        8
 66
   257
 43
1.0
 76
     1
 77
     6
 78
     2
 67
     7
 79
     3
170
     0
171
     0
290
     0
174
     0
 93
        5
 44
0.0
173
     0
291
     0
 45
0.0
  0
VISUALSTYLE
  5
8FF
102
{ACAD_REACTORS
330
267
102
}
330
267
100
AcDbVisualStyle
  2
Shades of Gray
 70
    23
 71
     2
 72
     2
 73
     3
 90
        0
 40
0.6
 41
30.0
 62
     5
 63
     7
421
 16777215
 74
     2
 91
        2
 64
     7
 65
     7
 75
     1
175
     1
 42
40.0
 92
        8
 66
     7
 43
1.0
 76
     1
 77
     6
 78
     2
 67
     7
 79
     3
170
     0
171
     0
290
     0
174
     0
 93
        1
 44
0.0
173
     0
291
     0
 45
0.0
  0
VISUALSTYLE
  5
900
102
{ACAD_REACTORS
330
267
102
}
330
267
100
AcDbVisualStyle
  2
Sketchy
 70
    24
 71
     1
 72
     2
 73
     2
 90
        0
 40
0.6
 41
30.0
 62
     5
 63
     7
421
 16777215
 74
     2
 91
        2
 64
     7
 65
     7
 75
     1
175
     1
 42
40.0
 92
       11
 66
     7
 43
1.0
 76
     1
 77
     6
 78
     2
 67
     7
 79
     6
170
     0
171
     0
290
     0
174
     0
 93
        1
 44
0.0
173
     0
291
     0
 45
0.0
  0
VISUALSTYLE
  5
274
102
{ACAD_REACTORS
330
267
102
}
330
267
100
AcDbVisualStyle
  2
Thicken
 70
    13
 71
     2
 72
     2
 73
     0
 90
        0
 40
-0.6
 41
-30.0
 62
     5
 63
     7
421
 16777215
 74
     1
 91
        4
 64
     7
 65
   257
 75
     1
175
     1
 42
1.0
 92
       12
 66
     7
 43
1.0
 76
     1
 77
     6
 78
     2
 67
     7
 79
     5
170
     0
171
     0
290
     0
174
     0
 93
        1
 44
0.0
173
     0
291
     1
 45
0.0
  0
VISUALSTYLE
  5
8FA
102
{ACAD_REACTORS
330
267
102
}
330
267
100
AcDbVisualStyle
  2
Wireframe
 70
     5
 71
     0
 72
     2
 73
     0
 90
        0
 40
0.6
 41
30.0
 62
     5
 63
     7
421
 16777215
 74
     1
 91
        4
 64
     7
 65
   257
 75
     1
175
     1
 42
1.0
 92
        0
 66
   257
 43
1.0
 76
     1
 77
     6
 78
     2
 67
     7
 79
     3
170
     0
171
     0
290
     0
174
     0
 93
        1
 44
0.0
173
     0
291
     0
 45
0.0
  0
VISUALSTYLE
  5
901
102
{ACAD_REACTORS
330
267
102
}
330
267
100
AcDbVisualStyle
  2
X-Ray
 70
    25
 71
     2
 72
     2
 73
     1
 90
        1
 40
0.5
 41
30.0
 62
     5
 63
     7
421
 16777215
 74
     1
 91
        0
 64
     7
 65
   257
 75
     1
175
     1
 42
1.0
 92
        8
 66
     7
 43
1.0
 76
     1
 77
     6
 78
     2
 67
     7
 79
     3
170
     0
171
     0
290
     0
174
     0
 93
       13
 44
0.0
173
     0
291
     0
 45
0.0
  0
DICTIONARYVAR
  5
331
102
{ACAD_REACTORS
330
330
102
}
330
330
100
DictionaryVariables
280
     0
  1
1:1
  0
DICTIONARYVAR
  5
D5E
102
{ACAD_REACTORS
330
330
102
}
330
330
100
DictionaryVariables
280
     0
  1
Standard
  0
DICTIONARYVAR
  5
335
102
{ACAD_REACTORS
330
330
102
}
330
330
100
DictionaryVariables
280
     0
  1
Standard
  0
DICTIONARYVAR
  5
D52
102
{ACAD_REACTORS
330
330
102
}
330
330
100
DictionaryVariables
280
     0
  1
ByLayer
  0
DICTIONARYVAR
  5
896
102
{ACAD_REACTORS
330
330
102
}
330
330
100
DictionaryVariables
280
     0
  1
0
  0
DICTIONARYVAR
  5
246C
102
{ACAD_REACTORS
330
E38
102
}
330
E38
100
DictionaryVariables
280
     0
  1
0.261799
  0
DICTIONARYVAR
  5
246A
102
{ACAD_REACTORS
330
E38
102
}
330
E38
100
DictionaryVariables
280
     0
  1
0.400000
  0
DICTIONARYVAR
  5
246B
102
{ACAD_REACTORS
330
E38
102
}
330
E38
100
DictionaryVariables
280
     0
  1
0.250000
  0
DICTIONARYVAR
  5
246D
102
{ACAD_REACTORS
330
E38
102
}
330
E38
100
DictionaryVariables
280
     0
  1
1
  0
FIELD
  5
3DBA
102
{ACAD_REACTORS
330
5D1D
102
}
330
5D1D
100
AcDbField
  1
_text
  2
{%<\_FldIdx 0>%N}
 90
        1
360
3DBB
 97
        0
 91
       63
 92
        0
 94
       11
 95
        2
 96
        0
300

 93
        1
  6
ACFD_FIELDTEXT_CHECKSUM
 93
        2
 90
        2
140
4509.0
 94
        0
300

302

304
ACVALUE_END
  7
ACFD_FIELD_VALUE
 93
        6
 90
        4
  1
{20190711N}
 94
        0
300

302

304
ACVALUE_END
301
{20190711N}
 98
       11
  0
DICTIONARY
  5
5E7C
330
279
100
AcDbDictionary
280
     1
281
     1
  3
ACAD_ROUNDTRIP_2008_TABLESTYLE_CELLSTYLEMAP
360
5E7D
  0
FIELD
  5
3DBB
330
3DBA
100
AcDbField
  1
AcVar
  2
\AcVar CreateDate \f "yyyyMMdd"
 90
        0
 97
        0
 91
       63
 92
        0
 94
       11
 95
        2
 96
        0
300

 93
        1
  6
Variable
 93
        2
 90
        4
  1
CreateDate
 94
        0
300

302

304
ACVALUE_END
  7
ACFD_FIELD_VALUE
 93
        6
 90
        8
 92
       16
310
E307070000000B0002002F0031000000
 94
        0
300
yyyyMMdd
302

304
ACVALUE_END
301
20190711
 98
        8
  0
CELLSTYLEMAP
  5
5E7D
102
{ACAD_REACTORS
330
5E7C
102
}
330
5E7C
100
AcDbCellStyleMap
 90
        3
300
CELLSTYLE
  1
TABLEFORMAT_BEGIN
 90
        5
170
     1
 91
        0
 92
    32768
 62
   257
 93
        1
300
CONTENTFORMAT
  1
CONTENTFORMAT_BEGIN
 90
        0
 91
        0
 92
        4
 93
        0
300

 40
0.0
140
1.0
 94
        5
 62
     0
340
17
144
6.0
309
CONTENTFORMAT_END
171
     1
301
MARGIN
  1
CELLMARGIN_BEGIN
 40
0.06
 40
0.06
 40
0.06
 40
0.06
 40
0.18
 40
0.18
309
CELLMARGIN_END
 94
        6
 95
        1
302
GRIDFORMAT
  1
GRIDFORMAT_BEGIN
 90
        0
 91
        1
 62
     0
 92
       -2
340
0
 93
        0
 40
0.045
309
GRIDFORMAT_END
 95
        2
302
GRIDFORMAT
  1
GRIDFORMAT_BEGIN
 90
        0
 91
        1
 62
     0
 92
       -2
340
0
 93
        0
 40
0.045
309
GRIDFORMAT_END
 95
        4
302
GRIDFORMAT
  1
GRIDFORMAT_BEGIN
 90
        0
 91
        1
 62
     0
 92
       -2
340
0
 93
        0
 40
0.045
309
GRIDFORMAT_END
 95
        8
302
GRIDFORMAT
  1
GRIDFORMAT_BEGIN
 90
        0
 91
        1
 62
     0
 92
       -2
340
0
 93
        0
 40
0.045
309
GRIDFORMAT_END
 95
       16
302
GRIDFORMAT
  1
GRIDFORMAT_BEGIN
 90
        0
 91
        1
 62
     0
 92
       -2
340
0
 93
        0
 40
0.045
309
GRIDFORMAT_END
 95
       32
302
GRIDFORMAT
  1
GRIDFORMAT_BEGIN
 90
        0
 91
        1
 62
     0
 92
       -2
340
0
 93
        0
 40
0.045
309
GRIDFORMAT_END
309
TABLEFORMAT_END
  1
CELLSTYLE_BEGIN
 90
        1
 91
        1
300
_TITLE
309
CELLSTYLE_END
300
CELLSTYLE
  1
TABLEFORMAT_BEGIN
 90
        5
170
     1
 91
        0
 92
        0
 62
   257
 93
        1
300
CONTENTFORMAT
  1
CONTENTFORMAT_BEGIN
 90
        0
 91
        0
 92
        4
 93
        0
300

 40
0.0
140
1.0
 94
        5
 62
     0
340
17
144
4.5
309
CONTENTFORMAT_END
171
     1
301
MARGIN
  1
CELLMARGIN_BEGIN
 40
0.06
 40
0.06
 40
0.06
 40
0.06
 40
0.18
 40
0.18
309
CELLMARGIN_END
 94
        6
 95
        1
302
GRIDFORMAT
  1
GRIDFORMAT_BEGIN
 90
        0
 91
        1
 62
     0
 92
       -2
340
0
 93
        0
 40
0.045
309
GRIDFORMAT_END
 95
        2
302
GRIDFORMAT
  1
GRIDFORMAT_BEGIN
 90
        0
 91
        1
 62
     0
 92
       -2
340
0
 93
        0
 40
0.045
309
GRIDFORMAT_END
 95
        4
302
GRIDFORMAT
  1
GRIDFORMAT_BEGIN
 90
        0
 91
        1
 62
     0
 92
       -2
340
0
 93
        0
 40
0.045
309
GRIDFORMAT_END
 95
        8
302
GRIDFORMAT
  1
GRIDFORMAT_BEGIN
 90
        0
 91
        1
 62
     0
 92
       -2
340
0
 93
        0
 40
0.045
309
GRIDFORMAT_END
 95
       16
302
GRIDFORMAT
  1
GRIDFORMAT_BEGIN
 90
        0
 91
        1
 62
     0
 92
       -2
340
0
 93
        0
 40
0.045
309
GRIDFORMAT_END
 95
       32
302
GRIDFORMAT
  1
GRIDFORMAT_BEGIN
 90
        0
 91
        1
 62
     0
 92
       -2
340
0
 93
        0
 40
0.045
309
GRIDFORMAT_END
309
TABLEFORMAT_END
  1
CELLSTYLE_BEGIN
 90
        2
 91
        1
300
_HEADER
309
CELLSTYLE_END
300
CELLSTYLE
  1
TABLEFORMAT_BEGIN
 90
        5
170
     1
 91
        0
 92
        0
 62
   257
 93
        1
300
CONTENTFORMAT
  1
CONTENTFORMAT_BEGIN
 90
        0
 91
        0
 92
        4
 93
        0
300

 40
0.0
140
1.0
 94
        2
 62
     0
340
17
144
4.5
309
CONTENTFORMAT_END
171
     1
301
MARGIN
  1
CELLMARGIN_BEGIN
 40
0.06
 40
0.06
 40
0.06
 40
0.06
 40
0.18
 40
0.18
309
CELLMARGIN_END
 94
        6
 95
        1
302
GRIDFORMAT
  1
GRIDFORMAT_BEGIN
 90
        0
 91
        1
 62
     0
 92
       -2
340
0
 93
        0
 40
0.045
309
GRIDFORMAT_END
 95
        2
302
GRIDFORMAT
  1
GRIDFORMAT_BEGIN
 90
        0
 91
        1
 62
     0
 92
       -2
340
0
 93
        0
 40
0.045
309
GRIDFORMAT_END
 95
        4
302
GRIDFORMAT
  1
GRIDFORMAT_BEGIN
 90
        0
 91
        1
 62
     0
 92
       -2
340
0
 93
        0
 40
0.045
309
GRIDFORMAT_END
 95
        8
302
GRIDFORMAT
  1
GRIDFORMAT_BEGIN
 90
        0
 91
        1
 62
     0
 92
       -2
340
0
 93
        0
 40
0.045
309
GRIDFORMAT_END
 95
       16
302
GRIDFORMAT
  1
GRIDFORMAT_BEGIN
 90
        0
 91
        1
 62
     0
 92
       -2
340
0
 93
        0
 40
0.045
309
GRIDFORMAT_END
 95
       32
302
GRIDFORMAT
  1
GRIDFORMAT_BEGIN
 90
        0
 91
        1
 62
     0
 92
       -2
340
0
 93
        0
 40
0.045
309
GRIDFORMAT_END
309
TABLEFORMAT_END
  1
CELLSTYLE_BEGIN
 90
        3
 91
        2
300
_DATA
309
CELLSTYLE_END
  0
ENDSEC
  0
EOF
