  0
SECTION
  2
HEADER
  9
$ACADVER
  1
AC1021
  9
$ACADMAINTVER
 70
    25
  9
$DWGCODEPAGE
  3
ANSI_932
  9
$LASTSAVEDBY
  1
howeNelson
  9
$INSBASE
 10
0.0
 20
0.0
 30
0.0
  9
$EXTMIN
 10
0.0
 20
0.0
 30
-0.0000000000000071
  9
$EXTMAX
 10
840.0
 20
1188.0
 30
0.0000000000000142
  9
$LIMMIN
 10
0.0
 20
0.0
  9
$LIMMAX
 10
840.0
 20
1188.0
  9
$ORTHOMODE
 70
     0
  9
$REGENMODE
 70
     1
  9
$FILLMODE
 70
     1
  9
$QTEXTMODE
 70
     0
  9
$MIRRTEXT
 70
     1
  9
$LTSCALE
 40
2.0
  9
$ATTMODE
 70
     1
  9
$TEXTSIZE
 40
2.5
  9
$TRACEWID
 40
1.0
  9
$TEXTSTYLE
  7
ＭＳ ゴシック
  9
$CLAYER
  8
DIM
  9
$CELTYPE
  6
ByLayer
  9
$CECOLOR
 62
   256
  9
$CELTSCALE
 40
1.0
  9
$DISPSILH
 70
     0
  9
$DIMSCALE
 40
1.0
  9
$DIMASZ
 40
4.0
  9
$DIMEXO
 40
5.0
  9
$DIMDLI
 40
0.9999999999999999
  9
$DIMRND
 40
0.0
  9
$DIMDLE
 40
0.0
  9
$DIMEXE
 40
0.0
  9
$DIMTP
 40
0.0
  9
$DIMTM
 40
0.0
  9
$DIMTXT
 40
10.0
  9
$DIMCEN
 40
0.0
  9
$DIMTSZ
 40
0.0
  9
$DIMTOL
 70
     0
  9
$DIMLIM
 70
     0
  9
$DIMTIH
 70
     0
  9
$DIMTOH
 70
     0
  9
$DIMSE1
 70
     0
  9
$DIMSE2
 70
     0
  9
$DIMTAD
 70
     1
  9
$DIMZIN
 70
    11
  9
$DIMBLK
  1
DOT
  9
$DIMASO
 70
     1
  9
$DIMSHO
 70
     1
  9
$DIMPOST
  1
<>
  9
$DIMAPOST
  1
[]
  9
$DIMALT
 70
     0
  9
$DIMALTD
 70
     1
  9
$DIMALTF
 40
1.0
  9
$DIMLFAC
 40
1.0
  9
$DIMTOFL
 70
     0
  9
$DIMTVP
 40
0.0
  9
$DIMTIX
 70
     1
  9
$DIMSOXD
 70
     0
  9
$DIMSAH
 70
     0
  9
$DIMBLK1
  1

  9
$DIMBLK2
  1

  9
$DIMSTYLE
  2
tfrom線あり
  9
$DIMCLRD
 70
     0
  9
$DIMCLRE
 70
     0
  9
$DIMCLRT
 70
     0
  9
$DIMTFAC
 40
1.0
  9
$DIMGAP
 40
8.0
  9
$DIMJUST
 70
     0
  9
$DIMSD1
 70
     0
  9
$DIMSD2
 70
     0
  9
$DIMTOLJ
 70
     1
  9
$DIMTZIN
 70
    11
  9
$DIMALTZ
 70
    11
  9
$DIMALTTZ
 70
    11
  9
$DIMUPT
 70
     0
  9
$DIMDEC
 70
     0
  9
$DIMTDEC
 70
     1
  9
$DIMALTU
 70
     2
  9
$DIMALTTD
 70
     2
  9
$DIMTXSTY
  7
ＭＳ ゴシック
  9
$DIMAUNIT
 70
     0
  9
$DIMADEC
 70
     2
  9
$DIMALTRND
 40
0.0
  9
$DIMAZIN
 70
     0
  9
$DIMDSEP
 70
    46
  9
$DIMATFIT
 70
     0
  9
$DIMFRAC
 70
     2
  9
$DIMLDRBLK
  1
DOT
  9
$DIMLUNIT
 70
     2
  9
$DIMLWD
 70
    -2
  9
$DIMLWE
 70
    -2
  9
$DIMTMOVE
 70
     0
  9
$DIMFXL
 40
1.0
  9
$DIMFXLON
 70
     0
  9
$DIMJOGANG
 40
0.7853981633974483
  9
$DIMTFILL
 70
     0
  9
$DIMTFILLCLR
 70
     0
  9
$DIMARCSYM
 70
     0
  9
$DIMLTYPE
  6

  9
$DIMLTEX1
  6

  9
$DIMLTEX2
  6

  9
$LUNITS
 70
     2
  9
$LUPREC
 70
     0
  9
$SKETCHINC
 40
0.1
  9
$FILLETRAD
 40
0.0
  9
$AUNITS
 70
     0
  9
$AUPREC
 70
     0
  9
$MENU
  1
acad
  9
$ELEVATION
 40
0.0
  9
$PELEVATION
 40
0.0
  9
$THICKNESS
 40
0.0
  9
$LIMCHECK
 70
     0
  9
$CHAMFERA
 40
0.0
  9
$CHAMFERB
 40
0.0
  9
$CHAMFERC
 40
0.0
  9
$CHAMFERD
 40
0.0
  9
$SKPOLY
 70
     0
  9
$TDCREATE
 40
2447893.375
  9
$TDUCREATE
 40
0.0
  9
$TDUPDATE
 40
2458550.571977037
  9
$TDUUPDATE
 40
2458550.196977037
  9
$TDINDWG
 40
0.0008643981
  9
$TDUSRTIMER
 40
0.0003029514
  9
$USRTIMER
 70
     1
  9
$ANGBASE
 50
0.0
  9
$ANGDIR
 70
     0
  9
$PDMODE
 70
     1
  9
$PDSIZE
 40
-2.0
  9
$PLINEWID
 40
0.0
  9
$SPLFRAME
 70
     0
  9
$SPLINETYPE
 70
     6
  9
$SPLINESEGS
 70
     8
  9
$HANDSEED
  5
5D1D
  9
$SURFTAB1
 70
     6
  9
$SURFTAB2
 70
     6
  9
$SURFTYPE
 70
     6
  9
$SURFU
 70
     6
  9
$SURFV
 70
     6
  9
$UCSBASE
  2

  9
$UCSNAME
  2

  9
$UCSORG
 10
0.0
 20
0.0
 30
0.0
  9
$UCSXDIR
 10
1.0
 20
0.0
 30
0.0
  9
$UCSYDIR
 10
0.0
 20
1.0
 30
0.0
  9
$UCSORTHOREF
  2

  9
$UCSORTHOVIEW
 70
     0
  9
$UCSORGTOP
 10
0.0
 20
0.0
 30
0.0
  9
$UCSORGBOTTOM
 10
0.0
 20
0.0
 30
0.0
  9
$UCSORGLEFT
 10
0.0
 20
0.0
 30
0.0
  9
$UCSORGRIGHT
 10
0.0
 20
0.0
 30
0.0
  9
$UCSORGFRONT
 10
0.0
 20
0.0
 30
0.0
  9
$UCSORGBACK
 10
0.0
 20
0.0
 30
0.0
  9
$PUCSBASE
  2

  9
$PUCSNAME
  2

  9
$PUCSORG
 10
0.0
 20
0.0
 30
0.0
  9
$PUCSXDIR
 10
1.0
 20
0.0
 30
0.0
  9
$PUCSYDIR
 10
0.0
 20
1.0
 30
0.0
  9
$PUCSORTHOREF
  2

  9
$PUCSORTHOVIEW
 70
     0
  9
$PUCSORGTOP
 10
0.0
 20
0.0
 30
0.0
  9
$PUCSORGBOTTOM
 10
0.0
 20
0.0
 30
0.0
  9
$PUCSORGLEFT
 10
0.0
 20
0.0
 30
0.0
  9
$PUCSORGRIGHT
 10
0.0
 20
0.0
 30
0.0
  9
$PUCSORGFRONT
 10
0.0
 20
0.0
 30
0.0
  9
$PUCSORGBACK
 10
0.0
 20
0.0
 30
0.0
  9
$USERI1
 70
     0
  9
$USERI2
 70
     0
  9
$USERI3
 70
     0
  9
$USERI4
 70
     0
  9
$USERI5
 70
     0
  9
$USERR1
 40
0.0
  9
$USERR2
 40
0.0
  9
$USERR3
 40
0.0
  9
$USERR4
 40
0.0
  9
$USERR5
 40
0.0
  9
$WORLDVIEW
 70
     1
  9
$SHADEDGE
 70
     3
  9
$SHADEDIF
 70
    70
  9
$TILEMODE
 70
     1
  9
$MAXACTVP
 70
    64
  9
$PINSBASE
 10
0.0
 20
0.0
 30
0.0
  9
$PLIMCHECK
 70
     0
  9
$PEXTMIN
 10
0.0
 20
0.0
 30
0.0
  9
$PEXTMAX
 10
0.0
 20
0.0
 30
0.0
  9
$PLIMMIN
 10
-7.5
 20
-20.0
  9
$PLIMMAX
 10
412.5
 20
277.0
  9
$UNITMODE
 70
     0
  9
$VISRETAIN
 70
     0
  9
$PLINEGEN
 70
     1
  9
$PSLTSCALE
 70
     0
  9
$TREEDEPTH
 70
  3020
  9
$CMLSTYLE
  2
Standard
  9
$CMLJUST
 70
     0
  9
$CMLSCALE
 40
1.0
  9
$PROXYGRAPHICS
 70
     0
  9
$MEASUREMENT
 70
     1
  9
$CELWEIGHT
370
    -1
  9
$ENDCAPS
280
     0
  9
$JOINSTYLE
280
     0
  9
$LWDISPLAY
290
     1
  9
$INSUNITS
 70
     4
  9
$HYPERLINKBASE
  1

  9
$STYLESHEET
  1

  9
$XEDIT
290
     1
  9
$CEPSNTYPE
380
     0
  9
$PSTYLEMODE
290
     1
  9
$FINGERPRINTGUID
  2

  9
$VERSIONGUID
  2

  9
$EXTNAMES
290
     1
  9
$PSVPSCALE
 40
0.0
  9
$OLESTARTUP
290
     0
  9
$SORTENTS
280
   127
  9
$INDEXCTL
280
     0
  9
$HIDETEXT
280
     1
  9
$XCLIPFRAME
290
     0
  9
$HALOGAP
280
     0
  9
$OBSCOLOR
 70
   257
  9
$OBSLTYPE
280
     0
  9
$INTERSECTIONDISPLAY
280
     0
  9
$INTERSECTIONCOLOR
 70
   257
  9
$DIMASSOC
280
     2
  9
$PROJECTNAME
  1

  9
$CAMERADISPLAY
290
     0
  9
$LENSLENGTH
 40
50.0
  9
$CAMERAHEIGHT
 40
0.0
  9
$STEPSPERSEC
 40
2.0
  9
$STEPSIZE
 40
6.0
  9
$3DDWFPREC
 40
2.0
  9
$PSOLWIDTH
 40
0.25
  9
$PSOLHEIGHT
 40
4.0
  9
$LOFTANG1
 40
1.570796326794897
  9
$LOFTANG2
 40
1.570796326794897
  9
$LOFTMAG1
 40
0.0
  9
$LOFTMAG2
 40
0.0
  9
$LOFTPARAM
 70
     7
  9
$LOFTNORMALS
280
     1
  9
$LATITUDE
 40
37.795
  9
$LONGITUDE
 40
-122.394
  9
$NORTHDIRECTION
 40
0.0
  9
$TIMEZONE
 70
 -8000
  9
$LIGHTGLYPHDISPLAY
280
     1
  9
$TILEMODELIGHTSYNCH
280
     1
  9
$SOLIDHIST
280
     1
  9
$SHOWHIST
280
     1
  9
$DWFFRAME
280
     2
  9
$DGNFRAME
280
     2
  9
$REALWORLDSCALE
290
     1
  9
$INTERFERECOLOR
 62
   256
  9
$CSHADOW
280
     0
  9
$SHADOWPLANELOCATION
 40
0.0
  0
ENDSEC
  0
SECTION
  2
CLASSES
  0
CLASS
  1
LWPOLYLINE
  2
AcDbPolyline
  3
ObjectDBX Classes
 90
        0
 91
        1
280
     0
281
     1
  0
CLASS
  1
IMAGE
  2
AcDbRasterImage
  3
ISM
 90
      127
 91
        7
280
     0
281
     1
  0
CLASS
  1
OLE2FRAME
  2
AcDbOle2Frame
  3
ObjectDBX Classes
 90
        0
 91
        1
280
     0
281
     1
  0
CLASS
  1
HATCH
  2
AcDbHatch
  3
ObjectDBX Classes
 90
        0
 91
        1
280
     0
281
     1
  0
CLASS
  1
DICTIONARYVAR
  2
AcDbDictionaryVar
  3
ObjectDBX Classes
 90
        0
 91
        6
280
     0
281
     0
  0
CLASS
  1
RASTERVARIABLES
  2
AcDbRasterVariables
  3
ISM
 90
        0
 91
        6
280
     0
281
     0
  0
CLASS
  1
IMAGEDEF
  2
AcDbRasterImageDef
  3
ISM
 90
        0
 91
        6
280
     0
281
     0
  0
CLASS
  1
IMAGEDEF_REACTOR
  2
AcDbRasterImageDefReactor
  3
ISM
 90
        1
 91
        6
280
     0
281
     0
  0
CLASS
  1
IDBUFFER
  2
AcDbIdBuffer
  3
ObjectDBX Classes
 90
        0
 91
        6
280
     0
281
     0
  0
CLASS
  1
SPATIAL_FILTER
  2
AcDbSpatialFilter
  3
ObjectDBX Classes
 90
        0
 91
        6
280
     0
281
     0
  0
CLASS
  1
XRECORD
  2
AcDbXrecord
  3
ObjectDBX Classes
 90
        0
 91
        1
280
     0
281
     0
  0
CLASS
  1
SORTENTSTABLE
  2
AcDbSortentsTable
  3
ObjectDBX Classes
 90
        0
 91
        6
280
     0
281
     0
  0
CLASS
  1
LAYER_INDEX
  2
AcDbLayerIndex
  3
ObjectDBX Classes
 90
        0
 91
        6
280
     0
281
     0
  0
CLASS
  1
SPATIAL_INDEX
  2
AcDbSpatialIndex
  3
AutoCAD 2000
 90
        0
 91
        6
280
     0
281
     0
  0
CLASS
  1
OBJECT_PTR
  2
CAseDLPNTableRecord
  3
ASE-LPNTableRecord
 90
        1
 91
        6
280
     0
281
     0
  0
CLASS
  1
LAYOUT
  2
AcDbLayout
  3
ObjectDBX Classes
 90
        0
 91
        1
280
     0
281
     0
  0
CLASS
  1
PLOTSETTINGS
  2
AcDbPlotSettings
  3
ObjectDBX Classes
 90
        0
 91
        6
280
     0
281
     0
  0
CLASS
  1
ACDBDICTIONARYWDFLT
  2
AcDbDictionaryWithDefault
  3
ObjectDBX Classes
 90
        0
 91
        6
280
     0
281
     0
  0
CLASS
  1
ACDBPLACEHOLDER
  2
AcDbPlaceHolder
  3
ObjectDBX Classes
 90
        0
 91
        1
280
     0
281
     0
  0
CLASS
  1
SCALE
  2
AcDbScale
  3
ObjectDBX Classes
 90
     1153
 91
        6
280
     0
281
     0
  0
CLASS
  1
MATERIAL
  2
AcDbMaterial
  3
ObjectDBX Classes
 90
     1153
 91
        6
280
     0
281
     0
  0
CLASS
  1
VISUALSTYLE
  2
AcDbVisualStyle
  3
ObjectDBX Classes
 90
     4095
 91
        6
280
     0
281
     0
  0
CLASS
  1
TABLESTYLE
  2
AcDbTableStyle
  3
ObjectDBX Classes
 90
     4095
 91
        6
280
     0
281
     0
  0
CLASS
  1
DIMASSOC
  2
AcDbDimAssoc
  3
"AcDbDimAssoc|Product Desc:     AcDim ARX App For Dimension|Company:          Autodesk, Inc.|WEB Address:      www.autodesk.com"
 90
        0
 91
        6
280
     0
281
     0
  0
CLASS
  1
CELLSTYLEMAP
  2
AcDbCellStyleMap
  3
ObjectDBX Classes
 90
     1152
 91
        6
280
     0
281
     0
  0
CLASS
  1
SUN
  2
AcDbSun
  3
SCENEOE
 90
     1153
 91
        6
280
     0
281
     0
  0
CLASS
  1
MLEADERSTYLE
  2
AcDbMLeaderStyle
  3
ACDB_MLEADERSTYLE_CLASS
 90
     4095
 91
        6
280
     0
281
     0
  0
CLASS
  1
FIELD
  2
AcDbField
  3
ObjectDBX Classes
 90
     1152
 91
        6
280
     0
281
     0
  0
CLASS
  1
FIELDLIST
  2
AcDbFieldList
  3
ObjectDBX Classes
 90
     1152
 91
        6
280
     0
281
     0
  0
ENDSEC
  0
SECTION
  2
TABLES
  0
TABLE
  2
VPORT
  5
7
330
0
100
AcDbSymbolTable
 70
     1
  0
VPORT
  5
15
330
7
100
AcDbSymbolTableRecord
100
AcDbViewportTableRecord
  2
*ACTIVE
 70
     0
 10
0.0
 20
0.0
 11
1.0
 21
1.0
 12
511.020135670899
 22
520.401285469834
 13
0.0
 23
0.0
 14
1.0
 24
1.0
 15
0.0
 25
0.0
 16
0.0
 26
0.0
 36
1.0
 17
-91.02013567089898
 27
73.59871453016603
 37
-46.86809886248109
 40
1211.76
 41
2.412121212121212
 42
50.0
 43
0.0
 44
0.0
 50
0.0
 51
0.0
 71
    16
 72
  2000
 73
     1
 74
     1
 75
     0
 76
     0
 77
     0
 78
     0
281
     0
 65
     1
110
0.0
120
0.0
130
0.0
111
1.0
121
0.0
131
0.0
112
0.0
122
1.0
132
0.0
 79
     0
146
0.0
348
26C
 60
     3
 61
     5
292
     1
282
     1
141
0.0
142
0.0
 63
   256
361
904
  0
ENDTAB
  0
TABLE
  2
LTYPE
  5
4
330
0
100
AcDbSymbolTable
 70
     2
  0
LTYPE
  5
11
330
4
100
AcDbSymbolTableRecord
100
AcDbLinetypeTableRecord
  2
ByBlock
 70
     0
  3

 72
    65
 73
     0
 40
0.0
  0
LTYPE
  5
12
330
4
100
AcDbSymbolTableRecord
100
AcDbLinetypeTableRecord
  2
ByLayer
 70
     0
  3

 72
    65
 73
     0
 40
0.0
  0
LTYPE
  5
13
330
4
100
AcDbSymbolTableRecord
100
AcDbLinetypeTableRecord
  2
Continuous
 70
     0
  3
Solid line
 72
    65
 73
     0
 40
0.0
  0
LTYPE
  5
D6C
330
4
100
AcDbSymbolTableRecord
100
AcDbLinetypeTableRecord
  2
BORDER
 70
     0
  3
Border __  __  . __  __  . __  __  . __  __  . 
 72
    65
 73
     6
 40
44.45
 49
12.7
 74
     0
 49
-6.35
 74
     0
 49
12.7
 74
     0
 49
-6.35
 74
     0
 49
0.0
 74
     0
 49
-6.35
 74
     0
  0
ENDTAB
  0
TABLE
  2
LAYER
  5
2
102
{ACAD_XDICTIONARY
360
2E1
102
}
330
0
100
AcDbSymbolTable
 70
    16
  0
LAYER
  5
14
330
2
100
AcDbSymbolTableRecord
100
AcDbLayerTableRecord
  2
0
 70
     0
 62
     7
  6
Continuous
370
    -3
390
1D
347
266
  0
LAYER
  5
4B
330
2
100
AcDbSymbolTableRecord
100
AcDbLayerTableRecord
  2
TEMPLATE
 70
     0
 62
     7
  6
Continuous
370
    20
390
1D
347
266
  0
LAYER
  5
4C
330
2
100
AcDbSymbolTableRecord
100
AcDbLayerTableRecord
  2
DIM
 70
     0
 62
     3
  6
Continuous
370
    13
390
1D
347
266
  0
LAYER
  5
4D
330
2
100
AcDbSymbolTableRecord
100
AcDbLayerTableRecord
  2
MODEL
 70
     0
 62
     7
  6
Continuous
370
    20
390
1D
347
266
  0
LAYER
  5
D6B
330
2
100
AcDbSymbolTableRecord
100
AcDbLayerTableRecord
  2
BORDER
 70
     0
 62
     4
  6
BORDER
290
     0
370
    20
390
1D
347
266
1001
AcAecLayerStandard
1000

1000

  0
LAYER
  5
D8C
330
2
100
AcDbSymbolTableRecord
100
AcDbLayerTableRecord
  2
Defpoints
 70
     0
 62
     7
  6
Continuous
290
     0
370
    -3
390
1D
347
266
  0
LAYER
  5
3653
330
2
100
AcDbSymbolTableRecord
100
AcDbLayerTableRecord
  2
Standard
 70
     0
 62
     7
  6
Continuous
370
    -3
390
1D
347
266
  0
LAYER
  5
4E2C
330
2
100
AcDbSymbolTableRecord
100
AcDbLayerTableRecord
  2
Default
 70
     0
 62
     7
  6
Continuous
370
    -3
390
1D
347
266
  0
LAYER
  5
5B5E
330
2
100
AcDbSymbolTableRecord
100
AcDbLayerTableRecord
  2
$DDT_AUDIT_GENERATED_(8F)
 70
     0
 62
     7
  6
Continuous
370
    -3
390
1D
347
266
  0
LAYER
  5
5B5F
330
2
100
AcDbSymbolTableRecord
100
AcDbLayerTableRecord
  2
$DDT_AUDIT_GENERATED_(9B)
 70
     0
 62
     7
  6
Continuous
370
    -3
390
1D
347
266
  0
LAYER
  5
5B60
330
2
100
AcDbSymbolTableRecord
100
AcDbLayerTableRecord
  2
$DDT_AUDIT_GENERATED_(A0)
 70
     0
 62
     7
  6
Continuous
370
    -3
390
1D
347
266
  0
LAYER
  5
5B61
330
2
100
AcDbSymbolTableRecord
100
AcDbLayerTableRecord
  2
$DDT_AUDIT_GENERATED_(BB)
 70
     0
 62
     7
  6
Continuous
370
    -3
390
1D
347
266
  0
LAYER
  5
5B62
330
2
100
AcDbSymbolTableRecord
100
AcDbLayerTableRecord
  2
$DDT_AUDIT_GENERATED_(BE)
 70
     0
 62
     7
  6
Continuous
370
    -3
390
1D
347
266
  0
LAYER
  5
5B63
330
2
100
AcDbSymbolTableRecord
100
AcDbLayerTableRecord
  2
$DDT_AUDIT_GENERATED_(CF)
 70
     0
 62
     7
  6
Continuous
370
    -3
390
1D
347
266
  0
LAYER
  5
5B64
330
2
100
AcDbSymbolTableRecord
100
AcDbLayerTableRecord
  2
$DDT_AUDIT_GENERATED_(E4)
 70
     0
 62
     7
  6
Continuous
370
    -3
390
1D
347
266
  0
LAYER
  5
5B65
330
2
100
AcDbSymbolTableRecord
100
AcDbLayerTableRecord
  2
$DDT_AUDIT_GENERATED_(182)
 70
     0
 62
     7
  6
Continuous
370
    -3
390
1D
347
266
  0
ENDTAB
  0
TABLE
  2
STYLE
  5
3
330
0
100
AcDbSymbolTable
 70
     3
  0
STYLE
  5
17
330
3
100
AcDbSymbolTableRecord
100
AcDbTextStyleTableRecord
  2
Standard
 70
     0
 40
0.0
 41
1.0
 50
0.0
 71
     0
 42
2.5
  3
txt
  4
BIGFONT.SHX
  0
STYLE
  5
39
330
3
100
AcDbSymbolTableRecord
100
AcDbTextStyleTableRecord
  2
ＭＳ ゴシック
 70
     0
 40
0.0
 41
1.0
 50
0.0
 71
     0
 42
2.5
  3
msgothic.ttc
  4
ＭＳ ゴシック
1001
ACAD
1000
ＭＳ ゴシック
1071
        0
  0
STYLE
  5
4E32
330
3
100
AcDbSymbolTableRecord
100
AcDbTextStyleTableRecord
  2
SEACAD_seiso_ttf
 70
     0
 40
0.0
 41
1.0
 50
0.0
 71
     0
 42
2.5
  3
seiso.ttf
  4

  0
ENDTAB
  0
TABLE
  2
VIEW
  5
5
330
0
100
AcDbSymbolTable
 70
     0
  0
ENDTAB
  0
TABLE
  2
UCS
  5
6
330
0
100
AcDbSymbolTable
 70
     0
  0
ENDTAB
  0
TABLE
  2
APPID
  5
8
330
0
100
AcDbSymbolTable
 70
     3
  0
APPID
  5
16
330
8
100
AcDbSymbolTableRecord
100
AcDbRegAppTableRecord
  2
ACAD
 70
     0
  0
APPID
  5
7AC
330
8
100
AcDbSymbolTableRecord
100
AcDbRegAppTableRecord
  2
AcAecLayerStandard
 70
     0
  0
APPID
  5
E29
330
8
100
AcDbSymbolTableRecord
100
AcDbRegAppTableRecord
  2
ACAD_MLEADERVER
 70
     0
  0
ENDTAB
  0
TABLE
  2
DIMSTYLE
  5
9
330
0
100
AcDbSymbolTable
 70
     2
100
AcDbDimStyleTable
  0
DIMSTYLE
105
18
330
9
100
AcDbSymbolTableRecord
100
AcDbDimStyleTableRecord
  2
Standard
 70
     0
178
     0
340
17
  0
DIMSTYLE
105
57
102
{ACAD_REACTORS
330
5CC5
330
5CC6
102
}
330
9
100
AcDbSymbolTableRecord
100
AcDbDimStyleTableRecord
  2
tfrom線あり
 70
     0
  3
<>
  4
[]
 41
4.0
 42
5.0
 43
0.9999999999999999
 44
0.0
 73
     0
 74
     0
 77
     1
 78
    11
140
10.0
141
0.0
143
1.0
147
8.0
171
     1
174
     1
178
     0
179
     2
271
     0
272
     1
276
     2
284
    11
285
    11
286
    11
289
     0
340
39
341
4E
342
4E
  0
ENDTAB
  0
TABLE
  2
BLOCK_RECORD
  5
1
330
0
100
AcDbSymbolTable
 70
     7
  0
BLOCK_RECORD
  5
A
102
{ACAD_XDICTIONARY
360
3E3E
102
}
330
1
100
AcDbSymbolTableRecord
100
AcDbBlockTableRecord
  2
*MODEL_SPACE
340
20
 70
     0
280
     1
281
     0
  0
BLOCK_RECORD
  5
B
330
1
100
AcDbSymbolTableRecord
100
AcDbBlockTableRecord
  2
*PAPER_SPACE
340
21
 70
     0
280
     1
281
     0
  0
BLOCK_RECORD
  5
4E
330
1
100
AcDbSymbolTableRecord
100
AcDbBlockTableRecord
  2
_DOT
340
0
102
{BLKREFS
331
5CCD
331
5CCE
331
5CDA
331
5CDB
102
}
 70
     0
280
     1
281
     0
  0
BLOCK_RECORD
  5
68D
330
1
100
AcDbSymbolTableRecord
100
AcDbBlockTableRecord
  2
block 2
340
0
102
{BLKREFS
331
68C
331
1343
102
}
 70
     0
280
     1
281
     0
  0
BLOCK_RECORD
  5
5B90
330
1
100
AcDbSymbolTableRecord
100
AcDbBlockTableRecord
  2
SE_View_7
340
0
102
{BLKREFS
331
5CC2
102
}
 70
     0
280
     1
281
     0
  0
BLOCK_RECORD
  5
5BFC
330
1
100
AcDbSymbolTableRecord
100
AcDbBlockTableRecord
  2
SE1_View_8
340
0
102
{BLKREFS
331
5CC3
102
}
 70
     0
280
     1
281
     0
  0
BLOCK_RECORD
  5
5C66
330
1
100
AcDbSymbolTableRecord
100
AcDbBlockTableRecord
  2
SE2_View_9
340
0
102
{BLKREFS
331
5CC4
102
}
 70
     0
280
     1
281
     0
  0
BLOCK_RECORD
  5
5CC7
330
1
100
AcDbSymbolTableRecord
100
AcDbBlockTableRecord
  2
*D5
340
0
 70
     0
280
     1
281
     0
  0
BLOCK_RECORD
  5
5CD4
330
1
100
AcDbSymbolTableRecord
100
AcDbBlockTableRecord
  2
*D6
340
0
 70
     0
280
     1
281
     0
  0
ENDTAB
  0
ENDSEC
  0
SECTION
  2
BLOCKS
  0
BLOCK
  5
D
330
A
100
AcDbEntity
  8
0
390
1D
100
AcDbBlockBegin
  2
*MODEL_SPACE
 70
     0
 10
0.0
 20
0.0
 30
0.0
  3
*MODEL_SPACE
  1
*MODEL_SPACE
  0
ENDBLK
  5
E
330
A
100
AcDbEntity
  8
0
390
1D
100
AcDbBlockEnd
  0
BLOCK
  5
F
330
B
100
AcDbEntity
 67
     1
  8
0
390
1D
100
AcDbBlockBegin
  2
*PAPER_SPACE
 70
     0
 10
0.0
 20
0.0
 30
0.0
  3
*PAPER_SPACE
  1
*PAPER_SPACE
  0
ENDBLK
  5
10
330
B
100
AcDbEntity
 67
     1
  8
0
390
1D
100
AcDbBlockEnd
  0
BLOCK
  5
3D24
330
4E
100
AcDbEntity
  8
0
390
1D
100
AcDbBlockBegin
  2
_DOT
 70
     0
 10
0.0
 20
0.0
 30
0.0
  3
_DOT
  1
_DOT
  0
POLYLINE
  5
3D26
330
4E
100
AcDbEntity
  8
0
  6
ByBlock
 62
     0
370
    -2
390
1D
100
AcDb2dPolyline
 66
     1
 10
0.0
 20
0.0
 30
0.0
 70
     1
 40
0.5
 41
0.5
  0
VERTEX
  5
3D27
330
3D26
100
AcDbEntity
  8
0
  6
ByBlock
 62
     0
370
    -2
390
1D
100
AcDbVertex
100
AcDb2dVertex
 10
-0.25
 20
0.0
 30
0.0
 42
1.0
  0
VERTEX
  5
3D28
330
3D26
100
AcDbEntity
  8
0
  6
ByBlock
 62
     0
370
    -2
390
1D
100
AcDbVertex
100
AcDb2dVertex
 10
0.25
 20
0.0
 30
0.0
 42
1.0
  0
SEQEND
  5
3D29
330
3D26
100
AcDbEntity
  8
0
390
1D
  0
LINE
  5
3D2A
330
4E
100
AcDbEntity
  8
0
  6
ByBlock
 62
     0
370
    -2
390
1D
100
AcDbLine
 10
-0.5
 20
0.0
 30
0.0
 11
-1.0
 21
0.0
 31
0.0
  0
ENDBLK
  5
3D2B
330
4E
100
AcDbEntity
  8
0
390
1D
100
AcDbBlockEnd
  0
BLOCK
  5
68E
330
68D
100
AcDbEntity
  8
0
100
AcDbBlockBegin
  2
block 2
 70
     0
 10
0.0
 20
0.0
 30
0.0
  3
block 2
  1
block 2
  0
ENDBLK
  5
6B0
330
68D
100
AcDbEntity
  8
0
100
AcDbBlockEnd
  0
BLOCK
  5
5B91
330
5B90
100
AcDbEntity
  8
0
100
AcDbBlockBegin
  2
SE_View_7
 70
     0
 10
0.0
 20
0.0
 30
0.0
  3
SE_View_7
  1

  0
LINE
  5
5B92
330
5B90
100
AcDbEntity
  8
$DDT_AUDIT_GENERATED_(8F)
  6
Continuous
 62
     7
100
AcDbLine
 10
54.1861929157
 20
4.6690430418
 30
0.0
 11
54.1861929157
 21
4.3444705605
 31
0.0
  0
LINE
  5
5B93
330
5B90
100
AcDbEntity
  8
$DDT_AUDIT_GENERATED_(8F)
  6
Continuous
 62
     7
100
AcDbLine
 10
54.186087812
 20
32.5429653572
 30
0.0
 11
54.186087812
 21
32.8691075133
 31
0.0
  0
ARC
  5
5B94
330
5B90
100
AcDbEntity
  8
$DDT_AUDIT_GENERATED_(8F)
  6
Continuous
 62
     7
100
AcDbCircle
 10
42.3502169693
 20
18.6067461624
 30
0.0
 40
18.60674616238094
100
AcDbArc
 50
230.7863549891
 51
309.2095532524
  0
LINE
  5
5B95
330
5B90
100
AcDbEntity
  8
$DDT_AUDIT_GENERATED_(8F)
  6
Continuous
 62
     7
100
AcDbLine
 10
30.5132225169
 20
4.345301577
 30
0.0
 11
30.5132225169
 21
4.6702128306
 31
0.0
  0
SPLINE
  5
5B96
330
5B90
100
AcDbEntity
  8
$DDT_AUDIT_GENERATED_(8F)
  6
Continuous
 62
     7
100
AcDbSpline
210
0.0
220
0.0
230
1.0
 70
     8
 71
     3
 72
     8
 73
     4
 74
     0
 42
0.000000001
 43
0.0000000001
 40
0.0
 40
0.0
 40
0.0
 40
0.0
 40
1.0
 40
1.0
 40
1.0
 40
1.0
 10
54.18619291571306
 20
4.344470560458319
 30
0.0
 10
54.18619291571306
 20
4.284892272716718
 30
0.0
 10
54.15879342040909
 20
4.227174731778916
 30
0.0
 10
54.11262980246553
 20
4.189511784926026
 30
0.0
  0
SPLINE
  5
5B97
330
5B90
100
AcDbEntity
  8
$DDT_AUDIT_GENERATED_(8F)
  6
Continuous
 62
     7
100
AcDbSpline
210
0.0
220
0.0
230
1.0
 70
     8
 71
     3
 72
     8
 73
     4
 74
     0
 42
0.000000001
 43
0.0000000001
 40
0.0
 40
0.0
 40
0.0
 40
0.0
 40
1.0
 40
1.0
 40
1.0
 40
1.0
 10
30.58677456428664
 20
4.190351830395912
 30
0.0
 10
30.54061738594736
 20
4.228015014162224
 30
0.0
 10
30.51322251686484
 20
4.285728107736816
 30
0.0
 10
30.51322251686482
 20
4.345301577015903
 30
0.0
  0
LINE
  5
5B98
330
5B90
100
AcDbEntity
  8
$DDT_AUDIT_GENERATED_(8F)
  6
Continuous
 62
     7
100
AcDbLine
 10
30.5130720445
 20
32.8680679645
 30
0.0
 11
30.5130720445
 21
32.5447802097
 31
0.0
  0
SPLINE
  5
5B99
330
5B90
100
AcDbEntity
  8
$DDT_AUDIT_GENERATED_(8F)
  6
Continuous
 62
     7
100
AcDbSpline
210
0.0
220
0.0
230
1.0
 70
     8
 71
     3
 72
     8
 73
     4
 74
     0
 42
0.000000001
 43
0.0000000001
 40
0.0
 40
0.0
 40
0.0
 40
0.0
 40
1.0
 40
1.0
 40
1.0
 40
1.0
 10
30.5130720445004
 20
32.86806796445381
 30
0.0
 10
30.51307204450038
 20
32.92764072652108
 30
0.0
 10
30.54046620758194
 20
32.98535313994194
 30
0.0
 10
30.58662245707583
 20
33.02301637704591
 30
0.0
  0
ARC
  5
5B9A
330
5B90
100
AcDbEntity
  8
$DDT_AUDIT_GENERATED_(8F)
  6
Continuous
 62
     7
100
AcDbCircle
 10
42.3502169693
 20
18.6067461624
 30
0.0
 40
18.60674616238094
100
AcDbArc
 50
50.7908689789
 51
54.140659216
  0
ARC
  5
5B9B
330
5B90
100
AcDbEntity
  8
$DDT_AUDIT_GENERATED_(8F)
  6
Continuous
 62
     7
100
AcDbCircle
 10
42.3502169693
 20
18.6067461624
 30
0.0
 40
18.60674616238094
100
AcDbArc
 50
125.8609895339
 51
129.2142495407
  0
SPLINE
  5
5B9C
330
5B90
100
AcDbEntity
  8
$DDT_AUDIT_GENERATED_(8F)
  6
Continuous
 62
     7
100
AcDbSpline
210
0.0
220
0.0
230
1.0
 70
     8
 71
     3
 72
     8
 73
     4
 74
     0
 42
0.000000001
 43
0.0000000001
 40
0.0
 40
0.0
 40
0.0
 40
0.0
 40
1.0
 40
1.0
 40
1.0
 40
1.0
 10
54.11252355685411
 20
33.02406722045481
 30
0.0
 10
54.15868781765577
 20
32.98640431576189
 30
0.0
 10
54.18608781202813
 20
32.92868629374362
 30
0.0
 10
54.18608781202814
 20
32.86910751326809
 30
0.0
  0
LINE
  5
5B9D
330
5B90
100
AcDbEntity
  8
$DDT_AUDIT_GENERATED_(9B)
  6
Continuous
 62
     7
100
AcDbLine
 10
53.25
 20
32.9756129188
 30
0.0
 11
53.25
 21
313.1600602745
 31
0.0
  0
LINE
  5
5B9E
330
5B90
100
AcDbEntity
  8
$DDT_AUDIT_GENERATED_(9B)
  6
Continuous
 62
     7
100
AcDbLine
 10
53.25
 20
344.2571922767
 30
0.0
 11
53.25
 21
624.4408261098
 31
0.0
  0
LINE
  5
5B9F
330
5B90
100
AcDbEntity
  8
$DDT_AUDIT_GENERATED_(9B)
  6
Continuous
 62
     7
100
AcDbLine
 10
31.45
 20
624.4419535562
 30
0.0
 11
31.45
 21
346.2562913838
 31
0.0
  0
LINE
  5
5BA0
330
5B90
100
AcDbEntity
  8
$DDT_AUDIT_GENERATED_(9B)
  6
Continuous
 62
     7
100
AcDbLine
 10
31.45
 20
311.1611453047
 30
0.0
 11
31.45
 21
32.9767403652
 31
0.0
  0
ARC
  5
5BA1
330
5B90
100
AcDbEntity
  8
$DDT_AUDIT_GENERATED_(A0)
  6
Continuous
 62
     7
100
AcDbCircle
 10
42.35
 20
638.8108203126
 30
0.0
 40
18.6047677822355
100
AcDbArc
 50
311.1963828661999
 51
48.80361713380001
  0
ARC
  5
5BA2
330
5B90
100
AcDbEntity
  8
$DDT_AUDIT_GENERATED_(A0)
  6
Continuous
 62
     7
100
AcDbCircle
 10
42.35
 20
638.3366091423
 30
0.0
 40
18.44544826570159
100
AcDbArc
 50
50.51780668389999
 51
129.4819934995
  0
ARC
  5
5BA3
330
5B90
100
AcDbEntity
  8
$DDT_AUDIT_GENERATED_(A0)
  6
Continuous
 62
     7
100
AcDbCircle
 10
42.35
 20
639.285031483
 30
0.0
 40
18.44544826570134
100
AcDbArc
 50
230.5178066839
 51
309.4819934995
  0
ARC
  5
5BA4
330
5B90
100
AcDbEntity
  8
$DDT_AUDIT_GENERATED_(A0)
  6
Continuous
 62
     7
100
AcDbCircle
 10
54.4721595147
 20
652.6596155482
 30
0.0
 40
0.1999999999999734
100
AcDbArc
 50
48.80361713380001
 51
114.4018085671
  0
LINE
  5
5BA5
330
5B90
100
AcDbEntity
  8
$DDT_AUDIT_GENERATED_(A0)
  6
Continuous
 62
     7
100
AcDbLine
 10
54.3895078841
 20
652.8396949279
 30
0.0
 11
53.9679624292
 21
652.6476859929
 31
0.0
  0
ARC
  5
5BA6
330
5B90
100
AcDbEntity
  8
$DDT_AUDIT_GENERATED_(A0)
  6
Continuous
 62
     7
100
AcDbCircle
 10
54.4721595147
 20
624.9620250771
 30
0.0
 40
0.199999999999995
100
AcDbArc
 50
245.5981914332
 51
311.1963828661999
  0
ARC
  5
5BA7
330
5B90
100
AcDbEntity
  8
$DDT_AUDIT_GENERATED_(A0)
  6
Continuous
 62
     7
100
AcDbCircle
 10
16.9569625876
 20
622.786516123
 30
0.0
 40
32.88665684300874
100
AcDbArc
 50
65.2350951097
 51
66.0432522843
  0
ARC
  5
5BA8
330
5B90
100
AcDbEntity
  8
$DDT_AUDIT_GENERATED_(A0)
  6
Continuous
 62
     7
100
AcDbCircle
 10
67.7430374102
 20
654.8351244971
 30
0.0
 40
32.88665683735248
100
AcDbArc
 50
245.2350951095
 51
246.0432522844
  0
ARC
  5
5BA9
330
5B90
100
AcDbEntity
  8
$DDT_AUDIT_GENERATED_(A0)
  6
Continuous
 62
     7
100
AcDbCircle
 10
30.2278404853
 20
652.6596155482
 30
0.0
 40
0.2000000000000108
100
AcDbArc
 50
65.59819143319999
 51
131.1963828662
  0
ARC
  5
5BAA
330
5B90
100
AcDbEntity
  8
$DDT_AUDIT_GENERATED_(A0)
  6
Continuous
 62
     7
100
AcDbCircle
 10
42.35
 20
638.8108203126
 30
0.0
 40
18.60477874836239
100
AcDbArc
 50
131.1963828662
 51
180.0
  0
ARC
  5
5BAB
330
5B90
100
AcDbEntity
  8
$DDT_AUDIT_GENERATED_(A0)
  6
Continuous
 62
     7
100
AcDbCircle
 10
42.35
 20
638.8108203126
 30
0.0
 40
18.60477874836239
100
AcDbArc
 50
180.0
 51
228.8036171338
  0
LINE
  5
5BAC
330
5B90
100
AcDbEntity
  8
$DDT_AUDIT_GENERATED_(A0)
  6
Continuous
 62
     7
100
AcDbLine
 10
30.3104921159
 20
624.7819456973
 30
0.0
 11
30.7320375708
 21
624.9739546323
 31
0.0
  0
ARC
  5
5BAD
330
5B90
100
AcDbEntity
  8
$DDT_AUDIT_GENERATED_(A0)
  6
Continuous
 62
     7
100
AcDbCircle
 10
30.2278404853
 20
624.9620250771
 30
0.0
 40
0.1999999999999768
100
AcDbArc
 50
228.8036171338
 51
294.401808567
  0
ARC
  5
5BAE
330
5B90
100
AcDbEntity
  8
$DDT_AUDIT_GENERATED_(A0)
  6
Continuous
 62
     7
100
AcDbCircle
 10
42.35
 20
18.6067461624
 30
0.0
 40
18.60476778223549
100
AcDbArc
 50
131.1963828662
 51
228.8036171338
  0
ARC
  5
5BAF
330
5B90
100
AcDbEntity
  8
$DDT_AUDIT_GENERATED_(A0)
  6
Continuous
 62
     7
100
AcDbCircle
 10
42.35
 20
19.0809573327
 30
0.0
 40
18.44544826570145
100
AcDbArc
 50
230.5178066839
 51
309.4819934995
  0
ARC
  5
5BB0
330
5B90
100
AcDbEntity
  8
$DDT_AUDIT_GENERATED_(A0)
  6
Continuous
 62
     7
100
AcDbCircle
 10
42.35
 20
18.132534992
 30
0.0
 40
18.44544826570142
100
AcDbArc
 50
50.51780668389999
 51
129.4819934995
  0
ARC
  5
5BB1
330
5B90
100
AcDbEntity
  8
$DDT_AUDIT_GENERATED_(A0)
  6
Continuous
 62
     7
100
AcDbCircle
 10
30.2278404853
 20
4.7579509268
 30
0.0
 40
0.1999999999999956
100
AcDbArc
 50
228.8036171338
 51
294.4018085671
  0
LINE
  5
5BB2
330
5B90
100
AcDbEntity
  8
$DDT_AUDIT_GENERATED_(A0)
  6
Continuous
 62
     7
100
AcDbLine
 10
30.3104921159
 20
4.5778715471
 30
0.0
 11
30.7320375708
 21
4.7698804821
 31
0.0
  0
ARC
  5
5BB3
330
5B90
100
AcDbEntity
  8
$DDT_AUDIT_GENERATED_(A0)
  6
Continuous
 62
     7
100
AcDbCircle
 10
30.2278404853
 20
32.4555413979
 30
0.0
 40
0.199999999999995
100
AcDbArc
 50
65.59819143319999
 51
131.1963828662
  0
ARC
  5
5BB4
330
5B90
100
AcDbEntity
  8
$DDT_AUDIT_GENERATED_(A0)
  6
Continuous
 62
     7
100
AcDbCircle
 10
67.7430374118
 20
34.6310503507
 30
0.0
 40
32.88665684155144
100
AcDbArc
 50
245.2350951097
 51
246.0432522843
  0
ARC
  5
5BB5
330
5B90
100
AcDbEntity
  8
$DDT_AUDIT_GENERATED_(A0)
  6
Continuous
 62
     7
100
AcDbCircle
 10
16.9569625885
 20
2.582441975
 30
0.0
 40
32.88665684051244
100
AcDbArc
 50
65.23509510960001
 51
66.0432522844
  0
ARC
  5
5BB6
330
5B90
100
AcDbEntity
  8
$DDT_AUDIT_GENERATED_(A0)
  6
Continuous
 62
     7
100
AcDbCircle
 10
54.4721595147
 20
4.7579509268
 30
0.0
 40
0.1999999999999919
100
AcDbArc
 50
245.5981914332
 51
311.1963828661999
  0
ARC
  5
5BB7
330
5B90
100
AcDbEntity
  8
$DDT_AUDIT_GENERATED_(A0)
  6
Continuous
 62
     7
100
AcDbCircle
 10
42.35
 20
18.6067461624
 30
0.0
 40
18.60477874836239
100
AcDbArc
 50
311.1963828661999
 51
360.0
  0
ARC
  5
5BB8
330
5B90
100
AcDbEntity
  8
$DDT_AUDIT_GENERATED_(A0)
  6
Continuous
 62
     7
100
AcDbCircle
 10
42.35
 20
18.6067461624
 30
0.0
 40
18.60477874836239
100
AcDbArc
 50
0.0
 51
48.80361713380001
  0
LINE
  5
5BB9
330
5B90
100
AcDbEntity
  8
$DDT_AUDIT_GENERATED_(A0)
  6
Continuous
 62
     7
100
AcDbLine
 10
54.3895078841
 20
32.6356207777
 30
0.0
 11
53.9679624292
 21
32.4436118427
 31
0.0
  0
ARC
  5
5BBA
330
5B90
100
AcDbEntity
  8
$DDT_AUDIT_GENERATED_(A0)
  6
Continuous
 62
     7
100
AcDbCircle
 10
54.4721595147
 20
32.4555413979
 30
0.0
 40
0.1999999999999924
100
AcDbArc
 50
48.80361713380001
 51
114.4018085671
  0
ARC
  5
5BBB
330
5B90
100
AcDbEntity
  8
$DDT_AUDIT_GENERATED_(BB)
  6
Continuous
 62
     7
100
AcDbCircle
 10
38.8460349938
 20
363.0814603631
 30
0.0
 40
23.7200701503296
100
AcDbArc
 50
283.5589981996
 51
308.2698751444
  0
ARC
  5
5BBC
330
5B90
100
AcDbEntity
  8
$DDT_AUDIT_GENERATED_(BB)
  6
Continuous
 62
     7
100
AcDbCircle
 10
38.8460349938
 20
294.3361061119
 30
0.0
 40
23.7200701503296
100
AcDbArc
 50
51.7301248556
 51
76.4410018004
  0
LINE
  5
5BBD
330
5B90
100
AcDbEntity
  8
$DDT_AUDIT_GENERATED_(BE)
  6
Continuous
 62
     7
100
AcDbLine
 10
0.0
 20
346.0087832375
 30
0.0
 11
0.0
 21
311.4087832375
 31
0.0
  0
LINE
  5
5BBE
330
5B90
100
AcDbEntity
  8
$DDT_AUDIT_GENERATED_(BE)
  6
Continuous
 62
     7
100
AcDbLine
 10
25.0
 20
310.9087832375
 30
0.0
 11
25.0
 21
346.5087832375
 31
0.0
  0
LINE
  5
5BBF
330
5B90
100
AcDbEntity
  8
$DDT_AUDIT_GENERATED_(BE)
  6
Continuous
 62
     7
100
AcDbLine
 10
5.0263035205
 20
346.7087832375
 30
0.0
 11
0.7
 21
346.7087832375
 31
0.0
  0
LINE
  5
5BC0
330
5B90
100
AcDbEntity
  8
$DDT_AUDIT_GENERATED_(BE)
  6
Continuous
 62
     7
100
AcDbLine
 10
24.8
 20
346.7087832375
 30
0.0
 11
19.9698225477
 21
346.7087832375
 31
0.0
  0
LINE
  5
5BC1
330
5B90
100
AcDbEntity
  8
$DDT_AUDIT_GENERATED_(BE)
  6
Continuous
 62
     7
100
AcDbLine
 10
0.7
 20
310.7087832375
 30
0.0
 11
24.8
 21
310.7087832375
 31
0.0
  0
LINE
  5
5BC2
330
5B90
100
AcDbEntity
  8
$DDT_AUDIT_GENERATED_(BE)
  6
Continuous
 62
     7
100
AcDbLine
 10
19.4957315276
 20
347.1979017284
 30
0.0
 11
19.4624750164
 21
351.0087204588
 31
0.0
  0
LINE
  5
5BC3
330
5B90
100
AcDbEntity
  8
$DDT_AUDIT_GENERATED_(BE)
  6
Continuous
 62
     7
100
AcDbLine
 10
5.5375349886
 20
351.0098669086
 30
0.0
 11
5.5042330525
 21
347.1938430112
 31
0.0
  0
LINE
  5
5BC4
330
5B90
100
AcDbEntity
  8
$DDT_AUDIT_GENERATED_(BE)
  6
Continuous
 62
     7
100
AcDbLine
 10
18.7408414019
 20
351.7087832375
 30
0.0
 11
6.260168136
 21
351.7087832375
 31
0.0
  0
ARC
  5
5BC5
330
5B90
100
AcDbEntity
  8
$DDT_AUDIT_GENERATED_(BE)
  6
Continuous
 62
     7
100
AcDbCircle
 10
0.7
 20
311.4087832375
 30
0.0
 40
0.6999999999999923
100
AcDbArc
 50
180.0
 51
270.0
  0
ARC
  5
5BC6
330
5B90
100
AcDbEntity
  8
$DDT_AUDIT_GENERATED_(BE)
  6
Continuous
 62
     7
100
AcDbCircle
 10
0.7
 20
346.0087832375
 30
0.0
 40
0.7000000000000339
100
AcDbArc
 50
90.0
 51
180.0
  0
ARC
  5
5BC7
330
5B90
100
AcDbEntity
  8
$DDT_AUDIT_GENERATED_(BE)
  6
Continuous
 62
     7
100
AcDbCircle
 10
6.2332639709
 20
351.0208400005
 30
0.0
 40
0.6876669449518059
100
AcDbArc
 50
87.7283684731
 51
180.9460926329
  0
ARC
  5
5BC8
330
5B90
100
AcDbEntity
  8
$DDT_AUDIT_GENERATED_(BE)
  6
Continuous
 62
     7
100
AcDbCircle
 10
18.7652520302
 20
351.0132049133
 30
0.0
 40
0.6942178095821515
100
AcDbArc
 50
359.8672637534
 51
92.01060556169999
  0
SPLINE
  5
5BC9
330
5B90
100
AcDbEntity
  8
$DDT_AUDIT_GENERATED_(BE)
  6
Continuous
 62
     7
100
AcDbSpline
210
0.0
220
0.0
230
1.0
 70
     8
 71
     3
 72
    12
 73
     8
 74
     0
 42
0.000000001
 43
0.0000000001
 40
0.0
 40
0.0
 40
0.0
 40
0.0
 40
0.2109535677423834
 40
0.4435226585220747
 40
0.6827450241199524
 40
0.9489253115348488
 40
1.0
 40
1.0
 40
1.0
 40
1.0
 10
19.97232840446256
 20
346.7104065759684
 30
0.0
 10
19.91502078128653
 20
346.7171468196127
 30
0.0
 10
19.81219023084634
 20
346.7317269748946
 30
0.0
 10
19.6594592827437
 20
346.8244171307419
 30
0.0
 10
19.54593001964163
 20
346.9675951247654
 30
0.0
 10
19.49336465273501
 20
347.1084731228412
 30
0.0
 10
19.49900437544508
 20
347.1829423002853
 30
0.0
 10
19.50013983357788
 20
347.1968700460432
 30
0.0
  0
ARC
  5
5BCA
330
5B90
100
AcDbEntity
  8
$DDT_AUDIT_GENERATED_(BE)
  6
Continuous
 62
     7
100
AcDbCircle
 10
5.0062366609
 20
347.20585163
 30
0.0
 40
0.4966375073289265
100
AcDbArc
 50
272.3758374317
 51
359.1496499310001
  0
ARC
  5
5BCB
330
5B90
100
AcDbEntity
  8
$DDT_AUDIT_GENERATED_(BE)
  6
Continuous
 62
     7
100
AcDbCircle
 10
24.8
 20
310.9087832375
 30
0.0
 40
0.2000000000000335
100
AcDbArc
 50
270.0
 51
0.0
  0
ARC
  5
5BCC
330
5B90
100
AcDbEntity
  8
$DDT_AUDIT_GENERATED_(BE)
  6
Continuous
 62
     7
100
AcDbCircle
 10
24.8
 20
346.5087832375
 30
0.0
 40
0.1999999999999988
100
AcDbArc
 50
0.0
 51
90.0
  0
LINE
  5
5BCD
330
5B90
100
AcDbEntity
  8
$DDT_AUDIT_GENERATED_(CF)
  6
Continuous
 62
     7
100
AcDbLine
 10
58.35
 20
311.0087832375
 30
0.0
 11
58.35
 21
346.4087832375
 31
0.0
  0
LINE
  5
5BCE
330
5B90
100
AcDbEntity
  8
$DDT_AUDIT_GENERATED_(CF)
  6
Continuous
 62
     7
100
AcDbLine
 10
26.35
 20
346.4087832375
 30
0.0
 11
26.35
 21
311.0087832375
 31
0.0
  0
ARC
  5
5BCF
330
5B90
100
AcDbEntity
  8
$DDT_AUDIT_GENERATED_(CF)
  6
Continuous
 62
     7
100
AcDbCircle
 10
42.3499999087
 20
360.3980355161
 30
0.0
 40
17.91083834044106
100
AcDbArc
 50
229.8447534459
 51
310.1552502091
  0
ARC
  5
5BD0
330
5B90
100
AcDbEntity
  8
$DDT_AUDIT_GENERATED_(CF)
  6
Continuous
 62
     7
100
AcDbCircle
 10
42.3499999087
 20
297.0195309589
 30
0.0
 40
17.91083834044102
100
AcDbArc
 50
49.8447497909
 51
130.148509175
  0
LINE
  5
5BD1
330
5B90
100
AcDbEntity
  8
$DDT_AUDIT_GENERATED_(CF)
  6
Continuous
 62
     7
100
AcDbLine
 10
53.9
 20
310.7087832375
 30
0.0
 11
58.05
 21
310.7087832375
 31
0.0
  0
LINE
  5
5BD2
330
5B90
100
AcDbEntity
  8
$DDT_AUDIT_GENERATED_(CF)
  6
Continuous
 62
     7
100
AcDbLine
 10
26.65
 20
310.7087832375
 30
0.0
 11
30.8099362536
 21
310.7087832375
 31
0.0
  0
LINE
  5
5BD3
330
5B90
100
AcDbEntity
  8
$DDT_AUDIT_GENERATED_(CF)
  6
Continuous
 62
     7
100
AcDbLine
 10
30.8099362536
 20
346.7087832375
 30
0.0
 11
26.65
 21
346.7087832375
 31
0.0
  0
LINE
  5
5BD4
330
5B90
100
AcDbEntity
  8
$DDT_AUDIT_GENERATED_(CF)
  6
Continuous
 62
     7
100
AcDbLine
 10
58.05
 20
346.7087832375
 30
0.0
 11
53.9
 21
346.7087832375
 31
0.0
  0
ARC
  5
5BD5
330
5B90
100
AcDbEntity
  8
$DDT_AUDIT_GENERATED_(CF)
  6
Continuous
 62
     7
100
AcDbCircle
 10
58.05
 20
311.0087832375
 30
0.0
 40
0.3000000000000225
100
AcDbArc
 50
270.0
 51
0.0
  0
ARC
  5
5BD6
330
5B90
100
AcDbEntity
  8
$DDT_AUDIT_GENERATED_(CF)
  6
Continuous
 62
     7
100
AcDbCircle
 10
58.05
 20
346.4087832375
 30
0.0
 40
0.3000000000000017
100
AcDbArc
 50
0.0
 51
90.0
  0
ARC
  5
5BD7
330
5B90
100
AcDbEntity
  8
$DDT_AUDIT_GENERATED_(CF)
  6
Continuous
 62
     7
100
AcDbCircle
 10
26.65
 20
311.0087832375
 30
0.0
 40
0.3000000000000017
100
AcDbArc
 50
180.0
 51
270.0
  0
ARC
  5
5BD8
330
5B90
100
AcDbEntity
  8
$DDT_AUDIT_GENERATED_(CF)
  6
Continuous
 62
     7
100
AcDbCircle
 10
26.65
 20
346.4087832375
 30
0.0
 40
0.3000000000000225
100
AcDbArc
 50
90.0
 51
180.0
  0
LINE
  5
5BD9
330
5B90
100
AcDbEntity
  8
$DDT_AUDIT_GENERATED_(CF)
  6
Continuous
 62
     7
100
AcDbLine
 10
58.55
 20
312.0087832375
 30
0.0
 11
59.2
 21
312.0087832375
 31
0.0
  0
LINE
  5
5BDA
330
5B90
100
AcDbEntity
  8
$DDT_AUDIT_GENERATED_(CF)
  6
Continuous
 62
     7
100
AcDbLine
 10
59.2
 20
345.4087832375
 30
0.0
 11
58.55
 21
345.4087832375
 31
0.0
  0
LINE
  5
5BDB
330
5B90
100
AcDbEntity
  8
$DDT_AUDIT_GENERATED_(CF)
  6
Continuous
 62
     7
100
AcDbLine
 10
25.0
 20
312.0087832375
 30
0.0
 11
26.15
 21
312.0087832375
 31
0.0
  0
LINE
  5
5BDC
330
5B90
100
AcDbEntity
  8
$DDT_AUDIT_GENERATED_(CF)
  6
Continuous
 62
     7
100
AcDbLine
 10
26.15
 20
345.4087832375
 30
0.0
 11
25.0
 21
345.4087832375
 31
0.0
  0
ARC
  5
5BDD
330
5B90
100
AcDbEntity
  8
$DDT_AUDIT_GENERATED_(CF)
  6
Continuous
 62
     7
100
AcDbCircle
 10
58.55
 20
311.8087832375
 30
0.0
 40
0.1999999999999988
100
AcDbArc
 50
90.0
 51
180.0
  0
ARC
  5
5BDE
330
5B90
100
AcDbEntity
  8
$DDT_AUDIT_GENERATED_(CF)
  6
Continuous
 62
     7
100
AcDbCircle
 10
58.55
 20
345.6087832375
 30
0.0
 40
0.2000000000000335
100
AcDbArc
 50
180.0
 51
270.0
  0
ARC
  5
5BDF
330
5B90
100
AcDbEntity
  8
$DDT_AUDIT_GENERATED_(CF)
  6
Continuous
 62
     7
100
AcDbCircle
 10
26.15
 20
311.8087832375
 30
0.0
 40
0.2000000000000335
100
AcDbArc
 50
0.0
 51
90.0
  0
ARC
  5
5BE0
330
5B90
100
AcDbEntity
  8
$DDT_AUDIT_GENERATED_(CF)
  6
Continuous
 62
     7
100
AcDbCircle
 10
26.15
 20
345.6087832375
 30
0.0
 40
0.1999999999999988
100
AcDbArc
 50
270.0
 51
0.0
  0
LINE
  5
5BE1
330
5B90
100
AcDbEntity
  8
$DDT_AUDIT_GENERATED_(E4)
  6
Continuous
 62
     7
100
AcDbLine
 10
59.2
 20
346.5087832375
 30
0.0
 11
59.2
 21
310.9087832375
 31
0.0
  0
LINE
  5
5BE2
330
5B90
100
AcDbEntity
  8
$DDT_AUDIT_GENERATED_(E4)
  6
Continuous
 62
     7
100
AcDbLine
 10
105.7
 20
343.0701898539
 30
0.0
 11
105.7
 21
314.3473766212
 31
0.0
  0
LINE
  5
5BE3
330
5B90
100
AcDbEntity
  8
$DDT_AUDIT_GENERATED_(E4)
  6
Continuous
 62
     7
100
AcDbLine
 10
59.4
 20
310.7087832375
 30
0.0
 11
79.6479191322
 21
310.7087832375
 31
0.0
  0
LINE
  5
5BE4
330
5B90
100
AcDbEntity
  8
$DDT_AUDIT_GENERATED_(E4)
  6
Continuous
 62
     7
100
AcDbLine
 10
77.8199038124
 20
346.7087832375
 30
0.0
 11
59.4
 21
346.7087832375
 31
0.0
  0
ARC
  5
5BE5
330
5B90
100
AcDbEntity
  8
$DDT_AUDIT_GENERATED_(E4)
  6
Continuous
 62
     7
100
AcDbCircle
 10
59.4
 20
310.9087832375
 30
0.0
 40
0.2000000000000023
100
AcDbArc
 50
180.0
 51
270.0
  0
ARC
  5
5BE6
330
5B90
100
AcDbEntity
  8
$DDT_AUDIT_GENERATED_(E4)
  6
Continuous
 62
     7
100
AcDbCircle
 10
59.4
 20
346.5087832375
 30
0.0
 40
0.2000000000000335
100
AcDbArc
 50
90.0
 51
180.0
  0
SPLINE
  5
5BE7
330
5B90
100
AcDbEntity
  8
$DDT_AUDIT_GENERATED_(E4)
  6
Continuous
 62
     7
100
AcDbSpline
210
0.0
220
0.0
230
1.0
 70
     8
 71
     3
 72
    49
 73
    45
 74
     0
 42
0.000000001
 43
0.0000000001
 40
0.0
 40
0.0
 40
0.0
 40
0.0
 40
0.0088462799794271
 40
0.0410688232751364
 40
0.0735464009536855
 40
0.1066852941430427
 40
0.139277686249261
 40
0.1708138964682689
 40
0.2011971991242763
 40
0.2265093684223891
 40
0.2533898280360746
 40
0.2797295397652043
 40
0.3053686356431476
 40
0.3301530536411224
 40
0.3540392842956356
 40
0.3771735310698919
 40
0.4008282997754787
 40
0.425757447180534
 40
0.4515984182616732
 40
0.4785451707461959
 40
0.5067364792468055
 40
0.5362490318431758
 40
0.5670710386389992
 40
0.5990702011437049
 40
0.6319653672407143
 40
0.6653238506730516
 40
0.6948786925351433
 40
0.7262254018986206
 40
0.7574932411227422
 40
0.7884014163930254
 40
0.8187588790242107
 40
0.8484352375027577
 40
0.8773644439611001
 40
0.905542481183807
 40
0.933021672288649
 40
0.9599071795163209
 40
0.986399411412622
 40
0.989800061571027
 40
0.9905857980439552
 40
0.9910281286340809
 40
0.9915154710461145
 40
0.9927461136564721
 40
0.9956230121120883
 40
1.0
 40
1.0
 40
1.0
 40
1.0
 10
101.3532527697541
 20
343.8219550626682
 30
0.0
 10
101.2838798701275
 20
343.7770647797686
 30
0.0
 10
101.0080393163096
 20
343.5987937523085
 30
0.0
 10
100.4197355366283
 20
343.2370069838565
 30
0.0
 10
99.63161001075085
 20
342.7707145769157
 30
0.0
 10
98.78506638381063
 20
342.3030105058691
 30
0.0
 10
97.90366746728243
 20
341.8579443379862
 30
0.0
 10
97.00282838648394
 20
341.4521794861109
 30
0.0
 10
96.13346394967513
 20
341.1111046735836
 30
0.0
 10
95.27904917312583
 20
340.8279479976351
 30
0.0
 10
94.43776992040324
 20
340.60638503116
 30
0.0
 10
93.57024797808361
 20
340.4359813732356
 30
0.0
 10
92.70921940096436
 20
340.3259059907766
 30
0.0
 10
91.86622183288704
 20
340.2775312225658
 30
0.0
 10
91.04946137497465
 20
340.2910922366199
 30
0.0
 10
90.25164904128403
 20
340.366172691022
 30
0.0
 10
89.45354451398934
 20
340.4927819339791
 30
0.0
 10
88.64297671719284
 20
340.6744451496554
 30
0.0
 10
87.82016141832905
 20
340.9111125108612
 30
0.0
 10
86.99149536437007
 20
341.2003383726828
 30
0.0
 10
86.1584972683736
 20
341.5400333989108
 30
0.0
 10
85.32459282668987
 20
341.9265224918051
 30
0.0
 10
84.4954542846811
 20
342.3536925675799
 30
0.0
 10
83.67927239403876
 20
342.8122237700537
 30
0.0
 10
82.88698039336161
 20
343.2889130799003
 30
0.0
 10
82.15871598505962
 20
343.7496111963056
 30
0.0
 10
81.48608317595095
 20
344.1876525918534
 30
0.0
 10
80.87653980559419
 20
344.5967011586774
 30
0.0
 10
80.3094238052062
 20
344.9875953227281
 30
0.0
 10
79.80221155504456
 20
345.3458867131197
 30
0.0
 10
79.35945329272221
 20
345.6656396832546
 30
0.0
 10
78.98381758876302
 20
345.9424122067952
 30
0.0
 10
78.67635947578196
 20
346.1731027766019
 30
0.0
 10
78.43700743691562
 20
346.3556912445133
 30
0.0
 10
78.26448000843313
 20
346.4892629243034
 30
0.0
 10
78.15815932041917
 20
346.5728349510883
 30
0.0
 10
78.12577635219664
 20
346.5982726285469
 30
0.0
 10
78.1213891740957
 20
346.6019615329196
 30
0.0
 10
78.11201832361856
 20
346.6091087000402
 30
0.0
 10
78.10367728646318
 20
346.6152338992247
 30
0.0
 10
78.0865983381247
 20
346.6272063693327
 30
0.0
 10
78.04180176118841
 20
346.6549815563062
 30
0.0
 10
77.95219466670629
 20
346.6954617277671
 30
0.0
 10
77.87506625047433
 20
346.7024847463682
 30
0.0
 10
77.8205183644341
 20
346.7063923022847
 30
0.0
  0
LINE
  5
5BE8
330
5B90
100
AcDbEntity
  8
$DDT_AUDIT_GENERATED_(E4)
  6
Continuous
 62
     7
100
AcDbLine
 10
104.7
 20
343.9057216942
 30
0.0
 11
101.6275546715
 21
343.9057216942
 31
0.0
  0
SPLINE
  5
5BE9
330
5B90
100
AcDbEntity
  8
$DDT_AUDIT_GENERATED_(E4)
  6
Continuous
 62
     7
100
AcDbSpline
210
0.0
220
0.0
230
1.0
 70
     8
 71
     3
 72
    14
 73
    10
 74
     0
 42
0.000000001
 43
0.0000000001
 40
0.0
 40
0.0
 40
0.0
 40
0.0
 40
0.027182556903894
 40
0.1991628674378016
 40
0.3661101878748936
 40
0.531325560634671
 40
0.7036220160300628
 40
0.8818138219926285
 40
1.0
 40
1.0
 40
1.0
 40
1.0
 10
105.6955120660759
 20
343.0714221888081
 30
0.0
 10
105.6970674614907
 20
343.0852258873524
 30
0.0
 10
105.7065388296667
 20
343.1722147592645
 30
0.0
 10
105.6567563093198
 20
343.3476740105882
 30
0.0
 10
105.5404081213298
 20
343.5513090872534
 30
0.0
 10
105.3638738538544
 20
343.7160899427913
 30
0.0
 10
105.1446962441741
 20
343.8332001703999
 30
0.0
 10
104.9097442879144
 20
343.8990011118443
 30
0.0
 10
104.7665483635028
 20
343.8996382167845
 30
0.0
 10
104.6998122948662
 20
343.8991574030009
 30
0.0
  0
SPLINE
  5
5BEA
330
5B90
100
AcDbEntity
  8
$DDT_AUDIT_GENERATED_(E4)
  6
Continuous
 62
     7
100
AcDbSpline
210
0.0
220
0.0
230
1.0
 70
     8
 71
     3
 72
    13
 73
     9
 74
     0
 42
0.000000001
 43
0.0000000001
 40
0.0
 40
0.0
 40
0.0
 40
0.0
 40
0.1529559737241816
 40
0.3287838672146954
 40
0.5134813492022128
 40
0.6806183615593973
 40
0.8433959111267334
 40
1.0
 40
1.0
 40
1.0
 40
1.0
 10
104.699958950976
 20
313.5147961510179
 30
0.0
 10
104.7862756244745
 20
313.5174579446756
 30
0.0
 10
104.9446312426188
 20
313.5247352815965
 30
0.0
 10
105.1961185528962
 20
313.6047627579961
 30
0.0
 10
105.4129165504615
 20
313.7375074311448
 30
0.0
 10
105.576727371274
 20
313.9165827596315
 30
0.0
 10
105.681505563792
 20
314.1281731767337
 30
0.0
 10
105.691931193639
 20
314.2674270239084
 30
0.0
 10
105.6962879428356
 20
314.3475981728168
 30
0.0
  0
LINE
  5
5BEB
330
5B90
100
AcDbEntity
  8
$DDT_AUDIT_GENERATED_(E4)
  6
Continuous
 62
     7
100
AcDbLine
 10
99.3547518663
 20
313.5118447808
 30
0.0
 11
104.7
 21
313.5118447808
 31
0.0
  0
SPLINE
  5
5BEC
330
5B90
100
AcDbEntity
  8
$DDT_AUDIT_GENERATED_(E4)
  6
Continuous
 62
     7
100
AcDbSpline
210
0.0
220
0.0
230
1.0
 70
     8
 71
     3
 72
    46
 73
    42
 74
     0
 42
0.000000001
 43
0.0000000001
 40
0.0
 40
0.0
 40
0.0
 40
0.0
 40
0.0010415646370357
 40
0.0044449866790905
 40
0.0071142853905507
 40
0.008832561228583
 40
0.0101072005008881
 40
0.0116832827908986
 40
0.0144884242914984
 40
0.0211097043370761
 40
0.0351042390933181
 40
0.065552774615735
 40
0.0978864572322379
 40
0.1297076818267978
 40
0.161980317059459
 40
0.1949582405064945
 40
0.2286805037901188
 40
0.2631015526529878
 40
0.2981092395249976
 40
0.3335323768363756
 40
0.3692035932293254
 40
0.4054228390651921
 40
0.4427224956157281
 40
0.4793338918092138
 40
0.5147854066533343
 40
0.5487946939049133
 40
0.5812793354424126
 40
0.6123238615653518
 40
0.6421328360045695
 40
0.6709331640162247
 40
0.6982796811188713
 40
0.7252796307493322
 40
0.752927828814612
 40
0.7811761265005969
 40
0.809927507627039
 40
0.8391504825850323
 40
0.8699992672079839
 40
0.9024064628763404
 40
0.9362279441210276
 40
0.9714795500274119
 40
1.0
 40
1.0
 40
1.0
 40
1.0
 10
79.64989668112322
 20
310.7123680102705
 30
0.0
 10
79.66063415031387
 20
310.7115544977862
 30
0.0
 10
79.69989336422589
 20
310.7087280217873
 30
0.0
 10
79.76792290183398
 20
310.7227238158349
 30
0.0
 10
79.8356795288338
 20
310.7453653397149
 30
0.0
 10
79.87645500628058
 20
310.7650678765156
 30
0.0
 10
79.89799863776739
 20
310.7769948827008
 30
0.0
 10
79.9140243661708
 20
310.786653984206
 30
0.0
 10
79.9297164587689
 20
310.7968435661358
 30
0.0
 10
79.94510886463306
 20
310.8074806167595
 30
0.0
 10
79.97652581177458
 20
310.8298971988548
 30
0.0
 10
80.05010185605029
 20
310.8836872444877
 30
0.0
 10
80.20231074808949
 20
310.9942562020295
 30
0.0
 10
80.41822543124988
 20
311.1488296373299
 30
0.0
 10
80.6942634183769
 20
311.3428397882594
 30
0.0
 10
81.03302214298778
 20
311.5759202481916
 30
0.0
 10
81.43542933972356
 20
311.8462172643662
 30
0.0
 10
81.901050700157
 20
312.1506588538211
 30
0.0
 10
82.42822207770571
 20
312.4851746236941
 30
0.0
 10
83.01404822055471
 20
312.8445572782912
 30
0.0
 10
83.65779811700276
 20
313.2254526667992
 30
0.0
 10
84.35931772641695
 20
313.6215515007555
 30
0.0
 10
85.11533111201433
 20
314.0197688844317
 30
0.0
 10
85.91429827864202
 20
314.4036031008134
 30
0.0
 10
86.7349086048968
 20
314.7545945713001
 30
0.0
 10
87.56538814921628
 20
315.0620466864617
 30
0.0
 10
88.39675598055527
 20
315.3189361777781
 30
0.0
 10
89.22312814852057
 20
315.5214388832864
 30
0.0
 10
90.04092305942591
 20
315.66736165585
 30
0.0
 10
90.84137818699625
 20
315.7563291078056
 30
0.0
 10
91.62456481815684
 20
315.7847544184894
 30
0.0
 10
92.39710798900666
 20
315.7608015946192
 30
0.0
 10
93.17143233660322
 20
315.6869717885381
 30
0.0
 10
93.94857255863253
 20
315.5634492166103
 30
0.0
 10
94.71965205871385
 20
315.3910698810365
 30
0.0
 10
95.48720562865144
 20
315.1693907119381
 30
0.0
 10
96.25623349996233
 20
314.9047754676778
 30
0.0
 10
97.02944022855364
 20
314.5960187279529
 30
0.0
 10
97.79216114392483
 20
314.2527386710182
 30
0.0
 10
98.50805289420214
 20
313.898551198928
 30
0.0
 10
98.90393683260815
 20
313.6859963360225
 30
0.0
 10
99.11244340678454
 20
313.5732993156907
 30
0.0
  0
ARC
  5
5BED
330
5B90
100
AcDbEntity
  8
$DDT_AUDIT_GENERATED_(E4)
  6
Continuous
 62
     7
100
AcDbCircle
 10
99.3547518663
 20
314.0118447808
 30
0.0
 40
0.5000000000000163
100
AcDbArc
 50
241.430404504
 51
270.0
  0
ARC
  5
5BEE
330
5B90
100
AcDbEntity
  8
$DDT_AUDIT_GENERATED_(E4)
  6
Continuous
 62
     7
100
AcDbCircle
 10
101.6275546715
 20
343.4057216942
 30
0.0
 40
0.5000000000000004
100
AcDbArc
 50
90.0
 51
122.7788291928
  0
LINE
  5
5BEF
330
5B90
100
AcDbEntity
  8
$DDT_AUDIT_GENERATED_(8F)
  6
Continuous
 62
     7
100
AcDbLine
 10
30.5138070843
 20
652.7485234332
 30
0.0
 11
30.5138070843
 21
653.0730959145
 31
0.0
  0
LINE
  5
5BF0
330
5B90
100
AcDbEntity
  8
$DDT_AUDIT_GENERATED_(8F)
  6
Continuous
 62
     7
100
AcDbLine
 10
30.513912188
 20
624.8746011179
 30
0.0
 11
30.513912188
 21
624.5484589617
 31
0.0
  0
ARC
  5
5BF1
330
5B90
100
AcDbEntity
  8
$DDT_AUDIT_GENERATED_(8F)
  6
Continuous
 62
     7
100
AcDbCircle
 10
42.3497830307
 20
638.8108203126
 30
0.0
 40
18.60674616238096
100
AcDbArc
 50
50.78635498909999
 51
129.2095532524
  0
LINE
  5
5BF2
330
5B90
100
AcDbEntity
  8
$DDT_AUDIT_GENERATED_(8F)
  6
Continuous
 62
     7
100
AcDbLine
 10
54.1867774831
 20
653.072264898
 30
0.0
 11
54.1867774831
 21
652.7473536444
 31
0.0
  0
SPLINE
  5
5BF3
330
5B90
100
AcDbEntity
  8
$DDT_AUDIT_GENERATED_(8F)
  6
Continuous
 62
     7
100
AcDbSpline
210
0.0
220
0.0
230
1.0
 70
     8
 71
     3
 72
     8
 73
     4
 74
     0
 42
0.000000001
 43
0.0000000001
 40
0.0
 40
0.0
 40
0.0
 40
0.0
 40
1.0
 40
1.0
 40
1.0
 40
1.0
 10
30.51380708428724
 20
653.0730959145151
 30
0.0
 10
30.51380708428724
 20
653.1326742022566
 30
0.0
 10
30.54120657959121
 20
653.1903917431944
 30
0.0
 10
30.58737019753477
 20
653.2280546900477
 30
0.0
  0
SPLINE
  5
5BF4
330
5B90
100
AcDbEntity
  8
$DDT_AUDIT_GENERATED_(8F)
  6
Continuous
 62
     7
100
AcDbSpline
210
0.0
220
0.0
230
1.0
 70
     8
 71
     3
 72
     8
 73
     4
 74
     0
 42
0.000000001
 43
0.0000000001
 40
0.0
 40
0.0
 40
0.0
 40
0.0
 40
1.0
 40
1.0
 40
1.0
 40
1.0
 10
54.11322543571364
 20
653.2272146445775
 30
0.0
 10
54.15938261405294
 20
653.1895514608111
 30
0.0
 10
54.18677748313546
 20
653.1318383672365
 30
0.0
 10
54.18677748313547
 20
653.0722648979574
 30
0.0
  0
LINE
  5
5BF5
330
5B90
100
AcDbEntity
  8
$DDT_AUDIT_GENERATED_(8F)
  6
Continuous
 62
     7
100
AcDbLine
 10
54.1869279555
 20
624.5494985105
 30
0.0
 11
54.1869279555
 21
624.8727862653
 31
0.0
  0
SPLINE
  5
5BF6
330
5B90
100
AcDbEntity
  8
$DDT_AUDIT_GENERATED_(8F)
  6
Continuous
 62
     7
100
AcDbSpline
210
0.0
220
0.0
230
1.0
 70
     8
 71
     3
 72
     8
 73
     4
 74
     0
 42
0.000000001
 43
0.0000000001
 40
0.0
 40
0.0
 40
0.0
 40
0.0
 40
1.0
 40
1.0
 40
1.0
 40
1.0
 10
54.1869279554999
 20
624.5494985105195
 30
0.0
 10
54.1869279554999
 20
624.4899257484522
 30
0.0
 10
54.15953379241835
 20
624.4322133350315
 30
0.0
 10
54.11337754292446
 20
624.3945500979273
 30
0.0
  0
ARC
  5
5BF7
330
5B90
100
AcDbEntity
  8
$DDT_AUDIT_GENERATED_(8F)
  6
Continuous
 62
     7
100
AcDbCircle
 10
42.3497830307
 20
638.8108203126
 30
0.0
 40
18.6067461623809
100
AcDbArc
 50
230.7908689789
 51
234.140659216
  0
ARC
  5
5BF8
330
5B90
100
AcDbEntity
  8
$DDT_AUDIT_GENERATED_(8F)
  6
Continuous
 62
     7
100
AcDbCircle
 10
42.3497830307
 20
638.8108203126
 30
0.0
 40
18.6067461623809
100
AcDbArc
 50
305.8609895339
 51
309.2142495407
  0
SPLINE
  5
5BF9
330
5B90
100
AcDbEntity
  8
$DDT_AUDIT_GENERATED_(8F)
  6
Continuous
 62
     7
100
AcDbSpline
210
0.0
220
0.0
230
1.0
 70
     8
 71
     3
 72
     8
 73
     4
 74
     0
 42
0.000000001
 43
0.0000000001
 40
0.0
 40
0.0
 40
0.0
 40
0.0
 40
1.0
 40
1.0
 40
1.0
 40
1.0
 10
30.58747644314617
 20
624.3934992545187
 30
0.0
 10
30.54131218234453
 20
624.4311621592115
 30
0.0
 10
30.51391218797217
 20
624.4888801812297
 30
0.0
 10
30.51391218797216
 20
624.5484589617051
 30
0.0
  0
ENDBLK
  5
5BFA
330
5B90
100
AcDbEntity
  8
0
100
AcDbBlockEnd
  0
BLOCK
  5
5BFD
330
5BFC
100
AcDbEntity
  8
0
100
AcDbBlockBegin
  2
SE1_View_8
 70
     0
 10
0.0
 20
0.0
 30
0.0
  3
SE1_View_8
  1

  0
ARC
  5
5BFE
330
5BFC
100
AcDbEntity
  8
$DDT_AUDIT_GENERATED_(8F)
  6
Continuous
 62
     7
100
AcDbCircle
 10
38.644169534
 20
36.5251966824
 30
0.0
 40
0.2066646288914806
100
AcDbArc
 50
54.5859597809
 51
88.9267498862
  0
ARC
  5
5BFF
330
5BFC
100
AcDbEntity
  8
$DDT_AUDIT_GENERATED_(8F)
  6
Continuous
 62
     7
100
AcDbCircle
 10
39.5409254634
 20
35.9519300317
 30
0.0
 40
0.2166730252141313
100
AcDbArc
 50
57.0269268835
 51
91.2001547727
  0
SPLINE
  5
5C00
330
5BFC
100
AcDbEntity
  8
$DDT_AUDIT_GENERATED_(8F)
  6
Continuous
 62
     7
100
AcDbSpline
210
0.0
220
0.0
230
1.0
 70
     8
 71
     3
 72
     8
 73
     4
 74
     0
 42
0.000000001
 43
0.0000000001
 40
0.0
 40
0.0
 40
0.0
 40
0.0
 40
1.0
 40
1.0
 40
1.0
 40
1.0
 10
41.81837205245043
 20
34.90414190797486
 30
0.0
 10
41.78225009397241
 20
34.92276938004926
 30
0.0
 10
41.73779926224975
 20
34.92985859472037
 30
0.0
 10
41.69376813170331
 20
34.92529665526018
 30
0.0
  0
SPLINE
  5
5C01
330
5BFC
100
AcDbEntity
  8
$DDT_AUDIT_GENERATED_(8F)
  6
Continuous
 62
     7
100
AcDbSpline
210
0.0
220
0.0
230
1.0
 70
     8
 71
     3
 72
     8
 73
     4
 74
     0
 42
0.000000001
 43
0.0000000001
 40
0.0
 40
0.0
 40
0.0
 40
0.0
 40
1.0
 40
1.0
 40
1.0
 40
1.0
 10
43.8426497598567
 20
33.94107955661497
 30
0.0
 10
43.83706617688884
 20
33.9387718836515
 30
0.0
 10
43.83105673557705
 20
33.9251171019377
 30
0.0
 10
43.82621860477477
 20
33.90286776504831
 30
0.0
  0
SPLINE
  5
5C02
330
5BFC
100
AcDbEntity
  8
$DDT_AUDIT_GENERATED_(8F)
  6
Continuous
 62
     7
100
AcDbSpline
210
0.0
220
0.0
230
1.0
 70
     8
 71
     3
 72
     8
 73
     4
 74
     0
 42
0.000000001
 43
0.0000000001
 40
0.0
 40
0.0
 40
0.0
 40
0.0
 40
1.0
 40
1.0
 40
1.0
 40
1.0
 10
44.96960419878738
 20
33.50126789015081
 30
0.0
 10
44.9368670201695
 20
33.51400749058087
 30
0.0
 10
44.89470454408544
 20
33.51174804250309
 30
0.0
 10
44.85250358693631
 20
33.49675165194969
 30
0.0
  0
ARC
  5
5C03
330
5BFC
100
AcDbEntity
  8
$DDT_AUDIT_GENERATED_(8F)
  6
Continuous
 62
     7
100
AcDbCircle
 10
48.543226782
 20
-17.3998624025
 30
0.0
 40
22.09639089013253
100
AcDbArc
 50
55.2116306986
 51
69.9955630721
  0
LINE
  5
5C04
330
5BFC
100
AcDbEntity
  8
$DDT_AUDIT_GENERATED_(8F)
  6
Continuous
 62
     7
100
AcDbLine
 10
51.0597940488
 20
4.7157725881
 30
0.0
 11
51.0597940488
 21
4.7153399776
 31
0.0
  0
LINE
  5
5C05
330
5BFC
100
AcDbEntity
  8
$DDT_AUDIT_GENERATED_(8F)
  6
Continuous
 62
     7
100
AcDbLine
 10
47.5
 20
32.5253469616
 30
0.0
 11
47.5
 21
32.4287298843
 31
0.0
  0
LINE
  5
5C06
330
5BFC
100
AcDbEntity
  8
$DDT_AUDIT_GENERATED_(8F)
  6
Continuous
 62
     7
100
AcDbLine
 10
47.5
 20
32.6305536604
 30
0.0
 11
47.5
 21
32.5253469616
 31
0.0
  0
ELLIPSE
  5
5C07
330
5BFC
100
AcDbEntity
  8
$DDT_AUDIT_GENERATED_(8F)
  6
Continuous
 62
     7
100
AcDbEllipse
 10
47.3
 20
32.6305536603
 30
0.0
 11
-0.04046712625273981
 21
-0.1958632474274961
 31
0.0
210
0.0
220
0.0
230
1.0
 40
0.2318698334
 41
3.10645956437437
 42
3.141592653589793
  0
LINE
  5
5C08
330
5BFC
100
AcDbEntity
  8
$DDT_AUDIT_GENERATED_(8F)
  6
Continuous
 62
     7
100
AcDbLine
 10
0.0
 20
0.0
 30
0.0
 11
61.1303630602
 21
0.7468854369
 31
0.0
  0
LINE
  5
5C09
330
5BFC
100
AcDbEntity
  8
$DDT_AUDIT_GENERATED_(8F)
  6
Continuous
 62
     7
100
AcDbLine
 10
38.9244895099
 20
36.7379163115
 30
0.0
 11
0.0
 21
37.2134923248
 31
0.0
  0
LINE
  5
5C0A
330
5BFC
100
AcDbEntity
  8
$DDT_AUDIT_GENERATED_(8F)
  6
Continuous
 62
     7
100
AcDbLine
 10
39.8469817879
 20
36.0143623168
 30
0.0
 11
39.8464933321
 21
36.0703338152
 31
0.0
  0
ARC
  5
5C0B
330
5BFC
100
AcDbEntity
  8
$DDT_AUDIT_GENERATED_(8F)
  6
Continuous
 62
     7
100
AcDbCircle
 10
38.9307787722
 20
36.5378245419
 30
0.0
 40
0.1999999992154178
100
AcDbArc
 50
32.2093426051
 51
91.6278651786
  0
ARC
  5
5C0C
330
5BFC
100
AcDbEntity
  8
$DDT_AUDIT_GENERATED_(8F)
  6
Continuous
 62
     7
100
AcDbCircle
 10
44.4009092471
 20
45.2835513812
 30
0.0
 40
10.27626416929397
100
AcDbArc
 50
236.7242224709
 51
237.8639564407
  0
ARC
  5
5C0D
330
5BFC
100
AcDbEntity
  8
$DDT_AUDIT_GENERATED_(8F)
  6
Continuous
 62
     7
100
AcDbCircle
 10
52.2764834469
 20
57.521758899
 30
0.0
 40
24.82919934293361
100
AcDbArc
 50
237.4969286679
 51
238.3054183252
  0
SPLINE
  5
5C0E
330
5BFC
100
AcDbEntity
  8
$DDT_AUDIT_GENERATED_(8F)
  6
Continuous
 62
     7
100
AcDbSpline
210
0.0
220
0.0
230
1.0
 70
     8
 71
     3
 72
    13
 73
     9
 74
     0
 42
0.000000001
 43
0.0000000001
 40
0.0
 40
0.0
 40
0.0
 40
0.0
 40
0.1215818473884919
 40
0.2357405885240468
 40
0.3669299579734117
 40
0.571271355970802
 40
0.821838878262399
 40
1.0
 40
1.0
 40
1.0
 40
1.0
 10
39.84386099643925
 20
36.07381615770316
 30
0.0
 10
39.83881220557655
 20
36.11353647074117
 30
0.0
 10
39.82973670082865
 20
36.17898826060326
 30
0.0
 10
39.76216417424885
 20
36.26026820082109
 30
0.0
 10
39.67511477096744
 20
36.31833655074638
 30
0.0
 10
39.54681264382762
 20
36.36536648096569
 30
0.0
 10
39.36772340487633
 20
36.40202041137417
 30
0.0
 10
39.2279315189746
 20
36.41324220213068
 30
0.0
 10
39.15999490519332
 20
36.41827794306226
 30
0.0
  0
ARC
  5
5C0F
330
5BFC
100
AcDbEntity
  8
$DDT_AUDIT_GENERATED_(8F)
  6
Continuous
 62
     7
100
AcDbCircle
 10
52.0019980091
 20
55.9438690057
 30
0.0
 40
23.34503808719419
100
AcDbArc
 50
238.0738563485
 51
239.8929066825
  0
ARC
  5
5C10
330
5BFC
100
AcDbEntity
  8
$DDT_AUDIT_GENERATED_(8F)
  6
Continuous
 62
     7
100
AcDbCircle
 10
51.4433066542
 20
54.4132936307
 30
0.0
 40
21.74256482115815
100
AcDbArc
 50
239.1433162088
 51
241.2953244762
  0
SPLINE
  5
5C11
330
5BFC
100
AcDbEntity
  8
$DDT_AUDIT_GENERATED_(8F)
  6
Continuous
 62
     7
100
AcDbSpline
210
0.0
220
0.0
230
1.0
 70
     8
 71
     3
 72
    13
 73
     9
 74
     0
 42
0.000000001
 43
0.0000000001
 40
0.0
 40
0.0
 40
0.0
 40
0.0
 40
0.1484350493245657
 40
0.3164630086345253
 40
0.495874885185916
 40
0.702470138951345
 40
0.9040665005832237
 40
1.0
 40
1.0
 40
1.0
 40
1.0
 10
41.89900672159811
 20
34.81895761735291
 30
0.0
 10
41.89491956699985
 20
34.87620769403298
 30
0.0
 10
41.8853098771622
 20
34.98041090263519
 30
0.0
 10
41.77121284665
 20
35.12150130064072
 30
0.0
 10
41.6048688229109
 20
35.23155214527117
 30
0.0
 10
41.37634556018693
 20
35.3107499144773
 30
0.0
 10
41.13495469932084
 20
35.35195386651259
 30
0.0
 10
40.9989841082789
 20
35.35034089122996
 30
0.0
 10
40.94800302190353
 20
35.349438245903
 30
0.0
  0
ARC
  5
5C12
330
5BFC
100
AcDbEntity
  8
$DDT_AUDIT_GENERATED_(8F)
  6
Continuous
 62
     7
100
AcDbCircle
 10
52.5032280239
 20
54.8964783154
 30
0.0
 40
22.67304674783425
100
AcDbArc
 50
241.8769677413
 51
247.5563712984
  0
ARC
  5
5C13
330
5BFC
100
AcDbEntity
  8
$DDT_AUDIT_GENERATED_(8F)
  6
Continuous
 62
     7
100
AcDbCircle
 10
44.0704387056
 20
32.8485046555
 30
0.0
 40
1.111806302787413
100
AcDbArc
 50
89.61271480799999
 51
101.8073450127
  0
SPLINE
  5
5C14
330
5BFC
100
AcDbEntity
  8
$DDT_AUDIT_GENERATED_(8F)
  6
Continuous
 62
     7
100
AcDbSpline
210
0.0
220
0.0
230
1.0
 70
     8
 71
     3
 72
    12
 73
     8
 74
     0
 42
0.000000001
 43
0.0000000001
 40
0.0
 40
0.0
 40
0.0
 40
0.0
 40
0.1222749280249409
 40
0.35609406714535
 40
0.5919169330113382
 40
0.7988872299331061
 40
1.0
 40
1.0
 40
1.0
 40
1.0
 10
45.01402182789641
 20
33.44119163754431
 30
0.0
 10
45.00162264340551
 20
33.48283815601019
 30
0.0
 10
44.96910140435133
 20
33.58627930836161
 30
0.0
 10
44.82072342517975
 20
33.74058134819632
 30
0.0
 10
44.6054702504604
 20
33.86870016146639
 30
0.0
 10
44.34237403440201
 20
33.94886919897908
 30
0.0
 10
44.17457229493735
 20
33.95694694197692
 30
0.0
 10
44.07795379378732
 20
33.96028555947606
 30
0.0
  0
ARC
  5
5C15
330
5BFC
100
AcDbEntity
  8
$DDT_AUDIT_GENERATED_(8F)
  6
Continuous
 62
     7
100
AcDbCircle
 10
50.3361285629
 20
47.9273975029
 30
0.0
 40
15.38869554307007
100
AcDbArc
 50
249.5929127063
 51
258.7852790998
  0
ARC
  5
5C16
330
5BFC
100
AcDbEntity
  8
$DDT_AUDIT_GENERATED_(8F)
  6
Continuous
 62
     7
100
AcDbCircle
 10
61.1546866177
 20
0.9430023837
 30
0.0
 40
0.1901639708514695
100
AcDbArc
 50
293.0676959527
 51
324.5435880595
  0
ARC
  5
5C17
330
5BFC
100
AcDbEntity
  8
$DDT_AUDIT_GENERATED_(8F)
  6
Continuous
 62
     7
100
AcDbCircle
 10
47.3
 20
32.6305536603
 30
0.0
 40
0.1999999999999919
100
AcDbArc
 50
0.0
 51
78.3264262751
  0
LINE
  5
5C18
330
5BFC
100
AcDbEntity
  8
$DDT_AUDIT_GENERATED_(9B)
  6
Continuous
 62
     7
100
AcDbLine
 10
60.9
 20
36.1217865787
 30
0.0
 11
60.9
 21
314.3843286231
 31
0.0
  0
LINE
  5
5C19
330
5BFC
100
AcDbEntity
  8
$DDT_AUDIT_GENERATED_(9B)
  6
Continuous
 62
     7
100
AcDbLine
 10
60.9
 20
343.0332378519
 30
0.0
 11
60.9
 21
621.2963462631
 31
0.0
  0
LINE
  5
5C1A
330
5BFC
100
AcDbEntity
  8
$DDT_AUDIT_GENERATED_(9B)
  6
Continuous
 62
     7
100
AcDbLine
 10
39.1
 20
620.7731390992
 30
0.0
 11
39.1
 21
343.0332378519
 31
0.0
  0
LINE
  5
5C1B
330
5BFC
100
AcDbEntity
  8
$DDT_AUDIT_GENERATED_(9B)
  6
Continuous
 62
     7
100
AcDbLine
 10
39.1
 20
314.3843286231
 30
0.0
 11
39.1
 21
36.4775478689
 31
0.0
  0
LINE
  5
5C1C
330
5BFC
100
AcDbEntity
  8
$DDT_AUDIT_GENERATED_(A0)
  6
Continuous
 62
     7
100
AcDbLine
 10
0.0
 20
624.9620250771
 30
0.0
 11
0.0
 21
652.6596155482
 31
0.0
  0
ARC
  5
5C1D
330
5BFC
100
AcDbEntity
  8
$DDT_AUDIT_GENERATED_(A0)
  6
Continuous
 62
     7
100
AcDbCircle
 10
49.0401373382
 20
673.3188906305
 30
0.0
 40
20.774575585757
100
AcDbArc
 50
290.3810796302
 51
307.1658447176
  0
ARC
  5
5C1E
330
5BFC
100
AcDbEntity
  8
$DDT_AUDIT_GENERATED_(A0)
  6
Continuous
 62
     7
100
AcDbCircle
 10
49.0401373382
 20
604.3027499948
 30
0.0
 40
20.77457558575858
100
AcDbArc
 50
52.79422911930001
 51
66.58701762700001
  0
ARC
  5
5C1F
330
5BFC
100
AcDbEntity
  8
$DDT_AUDIT_GENERATED_(A0)
  6
Continuous
 62
     7
100
AcDbCircle
 10
-430.0
 20
638.8108203126
 30
0.0
 40
499.9999999999999
100
AcDbArc
 50
358.0057505618
 51
1.9942494382
  0
ARC
  5
5C20
330
5BFC
100
AcDbEntity
  8
$DDT_AUDIT_GENERATED_(A0)
  6
Continuous
 62
     7
100
AcDbCircle
 10
69.197465196
 20
621.4286241932
 30
0.0
 40
0.4999999999999504
100
AcDbArc
 50
270.6
 51
358.0057505615
  0
ARC
  5
5C21
330
5BFC
100
AcDbEntity
  8
$DDT_AUDIT_GENERATED_(A0)
  6
Continuous
 62
     7
100
AcDbCircle
 10
69.197465196
 20
656.193016432
 30
0.0
 40
0.4999999999999161
100
AcDbArc
 50
1.9942494385
 51
89.40000000000002
  0
LINE
  5
5C22
330
5BFC
100
AcDbEntity
  8
$DDT_AUDIT_GENERATED_(A0)
  6
Continuous
 62
     7
100
AcDbLine
 10
61.5934603797
 20
620.8489649133
 30
0.0
 11
69.202701088
 21
620.9286516085
 31
0.0
  0
LINE
  5
5C23
330
5BFC
100
AcDbEntity
  8
$DDT_AUDIT_GENERATED_(A0)
  6
Continuous
 62
     7
100
AcDbLine
 10
69.202701088
 20
656.6929890167
 30
0.0
 11
61.5934603797
 21
656.772675712
 31
0.0
  0
ARC
  5
5C24
330
5BFC
100
AcDbEntity
  8
$DDT_AUDIT_GENERATED_(A0)
  6
Continuous
 62
     7
100
AcDbCircle
 10
49.9183574651
 20
668.5800078105
 30
0.0
 40
15.95796123831494
100
AcDbArc
 50
270.7331683102
 51
293.0914237041
  0
ARC
  5
5C25
330
5BFC
100
AcDbEntity
  8
$DDT_AUDIT_GENERATED_(A0)
  6
Continuous
 62
     7
100
AcDbCircle
 10
61.5909547034
 20
656.5795036527
 30
0.0
 40
0.1892456400829717
100
AcDbArc
 50
122.9300872224
 51
126.7805144899
  0
SPLINE
  5
5C26
330
5BFC
100
AcDbEntity
  8
$DDT_AUDIT_GENERATED_(A0)
  6
Continuous
 62
     7
100
AcDbSpline
210
0.0
220
0.0
230
1.0
 70
     8
 71
     3
 72
     8
 73
     4
 74
     0
 42
0.000000001
 43
0.0000000001
 40
0.0
 40
0.0
 40
0.0
 40
0.0
 40
1.0
 40
1.0
 40
1.0
 40
1.0
 10
50.1224384308928
 20
652.6201467849455
 30
0.0
 10
35.67859089857691
 20
652.6907815115787
 30
0.0
 10
19.03809214505924
 20
652.7700451685018
 30
0.0
 10
0.2009421703397436
 20
652.8579377557144
 30
0.0
  0
ARC
  5
5C27
330
5BFC
100
AcDbEntity
  8
$DDT_AUDIT_GENERATED_(A0)
  6
Continuous
 62
     7
100
AcDbCircle
 10
0.2
 20
652.6596155482
 30
0.0
 40
0.1999999999999735
100
AcDbArc
 50
89.72779718999999
 51
179.9999999999
  0
ARC
  5
5C28
330
5BFC
100
AcDbEntity
  8
$DDT_AUDIT_GENERATED_(A0)
  6
Continuous
 62
     7
100
AcDbCircle
 10
49.8257351233
 20
608.2861419938
 30
0.0
 40
16.71090206342068
100
AcDbArc
 50
63.8861476118
 51
88.9822639771
  0
ARC
  5
5C29
330
5BFC
100
AcDbEntity
  8
$DDT_AUDIT_GENERATED_(A0)
  6
Continuous
 62
     7
100
AcDbCircle
 10
61.5878299229
 20
621.0400430818
 30
0.0
 40
0.1858208932160927
100
AcDbArc
 50
233.2025393806
 51
237.7018721522
  0
LINE
  5
5C2A
330
5BFC
100
AcDbEntity
  8
$DDT_AUDIT_GENERATED_(A0)
  6
Continuous
 62
     7
100
AcDbLine
 10
0.200940463
 20
624.764066051
 30
0.0
 11
50.1224350554
 21
625.0021931648
 31
0.0
  0
ARC
  5
5C2B
330
5BFC
100
AcDbEntity
  8
$DDT_AUDIT_GENERATED_(A0)
  6
Continuous
 62
     7
100
AcDbCircle
 10
0.2
 20
624.9620250771
 30
0.0
 40
0.1999999999999979
100
AcDbArc
 50
180.0
 51
270.27220281
  0
ARC
  5
5C2C
330
5BFC
100
AcDbEntity
  8
$DDT_AUDIT_GENERATED_(A0)
  6
Continuous
 62
     7
100
AcDbCircle
 10
49.0401373382
 20
-15.9013241555
 30
0.0
 40
20.77457558575783
100
AcDbArc
 50
52.79422911930001
 51
66.58701762700001
  0
ARC
  5
5C2D
330
5BFC
100
AcDbEntity
  8
$DDT_AUDIT_GENERATED_(A0)
  6
Continuous
 62
     7
100
AcDbCircle
 10
49.0401373382
 20
53.1148164802
 30
0.0
 40
20.77457558575768
100
AcDbArc
 50
290.3810796309
 51
307.1658447176
  0
ARC
  5
5C2E
330
5BFC
100
AcDbEntity
  8
$DDT_AUDIT_GENERATED_(A0)
  6
Continuous
 62
     7
100
AcDbCircle
 10
-430.0
 20
18.6067461624
 30
0.0
 40
499.9999999999999
100
AcDbArc
 50
358.0057505618
 51
1.9942494382
  0
ARC
  5
5C2F
330
5BFC
100
AcDbEntity
  8
$DDT_AUDIT_GENERATED_(A0)
  6
Continuous
 62
     7
100
AcDbCircle
 10
69.197465196
 20
1.224550043
 30
0.0
 40
0.4999999999999991
100
AcDbArc
 50
270.6
 51
358.0057505615
  0
ARC
  5
5C30
330
5BFC
100
AcDbEntity
  8
$DDT_AUDIT_GENERATED_(A0)
  6
Continuous
 62
     7
100
AcDbCircle
 10
69.197465196
 20
35.9889422818
 30
0.0
 40
0.4999999999999176
100
AcDbArc
 50
1.9942494385
 51
89.40000000000002
  0
LINE
  5
5C31
330
5BFC
100
AcDbEntity
  8
$DDT_AUDIT_GENERATED_(A0)
  6
Continuous
 62
     7
100
AcDbLine
 10
61.5934603797
 20
0.644890763
 30
0.0
 11
69.202701088
 21
0.7245774583
 31
0.0
  0
LINE
  5
5C32
330
5BFC
100
AcDbEntity
  8
$DDT_AUDIT_GENERATED_(A0)
  6
Continuous
 62
     7
100
AcDbLine
 10
69.202701088
 20
36.4889148665
 30
0.0
 11
61.5934603797
 21
36.5686015617
 31
0.0
  0
LINE
  5
5C33
330
5BFC
100
AcDbEntity
  8
$DDT_AUDIT_GENERATED_(A0)
  6
Continuous
 62
     7
100
AcDbLine
 10
0.2009404901
 20
4.5599919008
 30
0.0
 11
50.1224349448
 21
4.798119014
 31
0.0
  0
ARC
  5
5C34
330
5BFC
100
AcDbEntity
  8
$DDT_AUDIT_GENERATED_(A0)
  6
Continuous
 62
     7
100
AcDbCircle
 10
49.8257497205
 20
-11.9178882877
 30
0.0
 40
16.71085624769806
100
AcDbArc
 50
63.8861263473
 51
88.9824691352
  0
ARC
  5
5C35
330
5BFC
100
AcDbEntity
  8
$DDT_AUDIT_GENERATED_(A0)
  6
Continuous
 62
     7
100
AcDbCircle
 10
61.587829923
 20
0.8359689316
 30
0.0
 40
0.1858208932753548
100
AcDbArc
 50
233.2025393759
 51
237.7018721463
  0
SPLINE
  5
5C36
330
5BFC
100
AcDbEntity
  8
$DDT_AUDIT_GENERATED_(A0)
  6
Continuous
 62
     7
100
AcDbSpline
210
0.0
220
0.0
230
1.0
 70
     8
 71
     3
 72
     8
 73
     4
 74
     0
 42
0.000000001
 43
0.0000000001
 40
0.0
 40
0.0
 40
0.0
 40
0.0
 40
1.0
 40
1.0
 40
1.0
 40
1.0
 10
50.12243844451152
 20
32.4160726346305
 30
0.0
 10
35.6785909031166
 20
32.4867073613072
 30
0.0
 10
19.03809216207353
 20
32.56597101817187
 30
0.0
 10
0.2009422213827179
 20
32.65386360522439
 30
0.0
  0
ARC
  5
5C37
330
5BFC
100
AcDbEntity
  8
$DDT_AUDIT_GENERATED_(A0)
  6
Continuous
 62
     7
100
AcDbCircle
 10
49.9183524393
 20
48.3759483226
 30
0.0
 40
15.95797669699055
100
AcDbArc
 50
270.7332449356
 51
293.0914196568
  0
ARC
  5
5C38
330
5BFC
100
AcDbEntity
  8
$DDT_AUDIT_GENERATED_(A0)
  6
Continuous
 62
     7
100
AcDbCircle
 10
61.5909547034
 20
36.3754295025
 30
0.0
 40
0.1892456400684249
100
AcDbArc
 50
122.930087221
 51
126.7805144871
  0
CIRCLE
  5
5C39
330
5BFC
100
AcDbEntity
  8
$DDT_AUDIT_GENERATED_(BE)
  6
Continuous
 62
     7
100
AcDbCircle
 10
50.0
 20
328.7087832375
 30
0.0
 40
18.0
  0
ARC
  5
5C3A
330
5BFC
100
AcDbEntity
  8
$DDT_AUDIT_GENERATED_(BE)
  6
Continuous
 62
     7
100
AcDbCircle
 10
49.9999745541
 20
328.708985689
 30
0.0
 40
23.00000000000009
100
AcDbArc
 50
73.6707521697
 51
106.3301654851
  0
LINE
  5
5C3B
330
5BFC
100
AcDbEntity
  8
$DDT_AUDIT_GENERATED_(BE)
  6
Continuous
 62
     7
100
AcDbLine
 10
57.0095153678
 20
345.6184300928
 30
0.0
 11
56.9702561261
 21
350.1170935971
 31
0.0
  0
LINE
  5
5C3C
330
5BFC
100
AcDbEntity
  8
$DDT_AUDIT_GENERATED_(BE)
  6
Continuous
 62
     7
100
AcDbLine
 10
43.0297729823
 20
350.1204290815
 30
0.0
 11
42.9904178558
 21
345.6107782601
 31
0.0
  0
ARC
  5
5C3D
330
5BFC
100
AcDbEntity
  8
$DDT_AUDIT_GENERATED_(BE)
  6
Continuous
 62
     7
100
AcDbCircle
 10
43.7039245285
 20
350.1347961147
 30
0.0
 40
0.665403925599821
100
AcDbArc
 50
113.9734905073
 51
181.20274324
  0
ARC
  5
5C3E
330
5BFC
100
AcDbEntity
  8
$DDT_AUDIT_GENERATED_(BE)
  6
Continuous
 62
     7
100
AcDbCircle
 10
56.2904762612
 20
350.1314806957
 30
0.0
 40
0.6710673261555848
100
AcDbArc
 50
358.7659827063
 51
67.0033260409
  0
ARC
  5
5C3F
330
5BFC
100
AcDbEntity
  8
$DDT_AUDIT_GENERATED_(BE)
  6
Continuous
 62
     7
100
AcDbCircle
 10
42.5005626442
 20
345.609746884
 30
0.0
 40
0.4881594566427645
100
AcDbArc
 50
305.4579731765999
 51
358.9852342036
  0
ARC
  5
5C40
330
5BFC
100
AcDbEntity
  8
$DDT_AUDIT_GENERATED_(BE)
  6
Continuous
 62
     7
100
AcDbCircle
 10
57.4778266691
 20
345.5926503543
 30
0.0
 40
0.4619846797634026
100
AcDbArc
 50
176.740723439
 51
234.1336668881
  0
LINE
  5
5C41
330
5BFC
100
AcDbEntity
  8
$DDT_AUDIT_GENERATED_(E4)
  6
Continuous
 62
     7
100
AcDbLine
 10
36.0648971126
 20
340.1042050625
 30
0.0
 11
36.0642119401
 21
340.1033669993
 31
0.0
  0
LINE
  5
5C42
330
5BFC
100
AcDbEntity
  8
$DDT_AUDIT_GENERATED_(E4)
  6
Continuous
 62
     7
100
AcDbLine
 10
62.6669586957
 20
315.9187957216
 30
0.0
 11
62.6680951979
 21
315.9199215173
 31
0.0
  0
LINE
  5
5C43
330
5BFC
100
AcDbEntity
  8
$DDT_AUDIT_GENERATED_(8F)
  6
Continuous
 62
     7
100
AcDbLine
 10
0.0
 20
652.6596155482
 30
0.0
 11
0.0
 21
653.0730959145
 31
0.0
  0
LINE
  5
5C44
330
5BFC
100
AcDbEntity
  8
$DDT_AUDIT_GENERATED_(8F)
  6
Continuous
 62
     7
100
AcDbLine
 10
0.0
 20
624.9620250771
 30
0.0
 11
0.0
 21
624.5484589617
 31
0.0
  0
LINE
  5
5C45
330
5BFC
100
AcDbEntity
  8
$DDT_AUDIT_GENERATED_(8F)
  6
Continuous
 62
     7
100
AcDbLine
 10
47.5
 20
624.9896840664
 30
0.0
 11
47.5
 21
624.8911997108
 31
0.0
  0
SPLINE
  5
5C46
330
5BFC
100
AcDbEntity
  8
$DDT_AUDIT_GENERATED_(8F)
  6
Continuous
 62
     7
100
AcDbSpline
210
0.0
220
0.0
230
1.0
 70
     8
 71
     3
 72
     8
 73
     4
 74
     0
 42
0.000000001
 43
0.0000000001
 40
0.0
 40
0.0
 40
0.0
 40
0.0
 40
0.9999999999999999
 40
0.9999999999999999
 40
0.9999999999999999
 40
0.9999999999999999
 10
44.9667945515703
 20
623.9149533240211
 30
0.0
 10
44.93447365571197
 20
623.9033986536604
 30
0.0
 10
44.8935056158027
 20
623.9059441698428
 30
0.0
 10
44.85250122836371
 20
623.9205148645603
 30
0.0
  0
SPLINE
  5
5C47
330
5BFC
100
AcDbEntity
  8
$DDT_AUDIT_GENERATED_(8F)
  6
Continuous
 62
     7
100
AcDbSpline
210
0.0
220
0.0
230
1.0
 70
     8
 71
     3
 72
     8
 73
     4
 74
     0
 42
0.000000001
 43
0.0000000001
 40
0.0
 40
0.0
 40
0.0
 40
0.0
 40
1.0
 40
1.0
 40
1.0
 40
1.0
 10
43.84228222374034
 20
623.4763841655702
 30
0.0
 10
43.83680326377922
 20
623.4791245135102
 30
0.0
 10
43.83095033071871
 20
623.4926636940395
 30
0.0
 10
43.82621833728402
 20
623.5144243517236
 30
0.0
  0
SPLINE
  5
5C48
330
5BFC
100
AcDbEntity
  8
$DDT_AUDIT_GENERATED_(8F)
  6
Continuous
 62
     7
100
AcDbSpline
210
0.0
220
0.0
230
1.0
 70
     8
 71
     3
 72
     8
 73
     4
 74
     0
 42
0.000000001
 43
0.0000000001
 40
0.0
 40
0.0
 40
0.0
 40
0.0
 40
0.9999999999999999
 40
0.9999999999999999
 40
0.9999999999999999
 40
0.9999999999999999
 10
41.8170554803194
 20
622.51254453343
 30
0.0
 10
41.78117267028685
 20
622.4944177693392
 30
0.0
 10
41.73726461416155
 20
622.4875531915341
 30
0.0
 10
41.69376616435173
 20
622.4920596816942
 30
0.0
  0
SPLINE
  5
5C49
330
5BFC
100
AcDbEntity
  8
$DDT_AUDIT_GENERATED_(8F)
  6
Continuous
 62
     7
100
AcDbSpline
210
0.0
220
0.0
230
1.0
 70
     8
 71
     3
 72
     8
 73
     4
 74
     0
 42
0.000000001
 43
0.0000000001
 40
0.0
 40
0.0
 40
0.0
 40
0.0
 40
1.0
 40
1.0
 40
1.0
 40
1.0
 10
40.97256927393065
 20
622.0637584349547
 30
0.0
 10
40.96115744714152
 20
622.0646898987825
 30
0.0
 10
40.94934893384172
 20
622.0696274217128
 30
0.0
 10
40.93792797408574
 20
622.078220494275
 30
0.0
  0
ARC
  5
5C4A
330
5BFC
100
AcDbEntity
  8
$DDT_AUDIT_GENERATED_(8F)
  6
Continuous
 62
     7
100
AcDbCircle
 10
39.5409245511
 20
621.4655242444
 30
0.0
 40
0.2166727393160576
100
AcDbArc
 50
268.7997976874
 51
305.5778766092
  0
ARC
  5
5C4B
330
5BFC
100
AcDbEntity
  8
$DDT_AUDIT_GENERATED_(8F)
  6
Continuous
 62
     7
100
AcDbCircle
 10
38.644172052
 20
620.8923529165
 30
0.0
 40
0.2066618867813223
100
AcDbArc
 50
271.072531347
 51
304.8657401948
  0
LINE
  5
5C4C
330
5BFC
100
AcDbEntity
  8
$DDT_AUDIT_GENERATED_(8F)
  6
Continuous
 62
     7
100
AcDbLine
 10
0.0
 20
657.417566475
 30
0.0
 11
0.0
 21
653.2280546901
 31
0.0
  0
ARC
  5
5C4D
330
5BFC
100
AcDbEntity
  8
$DDT_AUDIT_GENERATED_(8F)
  6
Continuous
 62
     7
100
AcDbCircle
 10
48.543226782
 20
674.8174288775
 30
0.0
 40
22.09639089013281
100
AcDbArc
 50
278.345682257
 51
304.7508799753999
  0
LINE
  5
5C4E
330
5BFC
100
AcDbEntity
  8
$DDT_AUDIT_GENERATED_(8F)
  6
Continuous
 62
     7
100
AcDbLine
 10
0.0
 20
653.0730959145
 30
0.0
 11
0.0
 21
653.2280546901
 31
0.0
  0
LINE
  5
5C4F
330
5BFC
100
AcDbEntity
  8
$DDT_AUDIT_GENERATED_(8F)
  6
Continuous
 62
     7
100
AcDbLine
 10
51.0216300972
 20
652.7033179041
 30
0.0
 11
51.0216300972
 21
652.7029244898
 31
0.0
  0
ARC
  5
5C50
330
5BFC
100
AcDbEntity
  8
$DDT_AUDIT_GENERATED_(8F)
  6
Continuous
 62
     7
100
AcDbCircle
 10
48.2876711491
 20
652.6473762917
 30
0.0
 40
2.734531220122882
100
AcDbArc
 50
1.1722089228
 51
4.4512541406
  0
LINE
  5
5C51
330
5BFC
100
AcDbEntity
  8
$DDT_AUDIT_GENERATED_(8F)
  6
Continuous
 62
     7
100
AcDbLine
 10
0.0
 20
620.2040741502
 30
0.0
 11
0.0
 21
624.3934992545
 31
0.0
  0
LINE
  5
5C52
330
5BFC
100
AcDbEntity
  8
$DDT_AUDIT_GENERATED_(8F)
  6
Continuous
 62
     7
100
AcDbLine
 10
0.0
 20
624.3934992545
 30
0.0
 11
0.0
 21
624.5484589617
 31
0.0
  0
LINE
  5
5C53
330
5BFC
100
AcDbEntity
  8
$DDT_AUDIT_GENERATED_(8F)
  6
Continuous
 62
     7
100
AcDbLine
 10
47.5
 20
624.8911997108
 30
0.0
 11
47.5
 21
624.7866745575
 31
0.0
  0
ELLIPSE
  5
5C54
330
5BFC
100
AcDbEntity
  8
$DDT_AUDIT_GENERATED_(8F)
  6
Continuous
 62
     7
100
AcDbEllipse
 10
47.3
 20
624.7866745575
 30
0.0
 11
-0.04046479182035628
 21
0.1958637297279076
 31
0.0
210
0.0
220
0.0
230
1.0
 40
0.2318704133
 41
3.141592653589793
 42
3.167277441264316
  0
LINE
  5
5C55
330
5BFC
100
AcDbEntity
  8
$DDT_AUDIT_GENERATED_(8F)
  6
Continuous
 62
     7
100
AcDbLine
 10
61.1303630602
 20
656.6706810381
 30
0.0
 11
0.0
 21
657.417566475
 31
0.0
  0
LINE
  5
5C56
330
5BFC
100
AcDbEntity
  8
$DDT_AUDIT_GENERATED_(8F)
  6
Continuous
 62
     7
100
AcDbLine
 10
0.0
 20
620.2040741502
 30
0.0
 11
38.9244895099
 21
620.6796501635
 31
0.0
  0
LINE
  5
5C57
330
5BFC
100
AcDbEntity
  8
$DDT_AUDIT_GENERATED_(8F)
  6
Continuous
 62
     7
100
AcDbLine
 10
39.8464942182
 20
621.3473341973
 30
0.0
 11
39.8469851873
 21
621.4035936875
 31
0.0
  0
ARC
  5
5C58
330
5BFC
100
AcDbEntity
  8
$DDT_AUDIT_GENERATED_(8F)
  6
Continuous
 62
     7
100
AcDbCircle
 10
50.4381254928
 20
609.0938020976
 30
0.0
 40
15.79739367132235
100
AcDbArc
 50
101.2981628168
 51
110.2639460148
  0
SPLINE
  5
5C59
330
5BFC
100
AcDbEntity
  8
$DDT_AUDIT_GENERATED_(8F)
  6
Continuous
 62
     7
100
AcDbSpline
210
0.0
220
0.0
230
1.0
 70
     8
 71
     3
 72
    13
 73
     9
 74
     0
 42
0.000000001
 43
0.0000000001
 40
0.0
 40
0.0
 40
0.0
 40
0.0
 40
0.0224517627505783
 40
0.2524306711356125
 40
0.4876088599791247
 40
0.7359192913390915
 40
0.9991093288627166
 40
1.0
 40
1.0
 40
1.0
 40
1.0
 10
44.19911922673541
 20
623.4621614019152
 30
0.0
 10
44.20901598287415
 20
623.4621001640344
 30
0.0
 10
44.30496105702244
 20
623.4616235745698
 30
0.0
 10
44.49874399552434
 20
623.5122250203763
 30
0.0
 10
44.73374801984451
 20
623.6136777014622
 30
0.0
 10
44.91452866085925
 20
623.7706559223109
 30
0.0
 10
45.01791370986311
 20
623.9079907733835
 30
0.0
 10
45.0276779876917
 20
623.980965947929
 30
0.0
 10
45.02771610217027
 20
623.9812509651058
 30
0.0
  0
ARC
  5
5C5A
330
5BFC
100
AcDbEntity
  8
$DDT_AUDIT_GENERATED_(8F)
  6
Continuous
 62
     7
100
AcDbCircle
 10
44.0762609235
 20
624.4086802767
 30
0.0
 40
0.9544590839524978
100
AcDbArc
 50
255.8849646977
 51
277.3956522524
  0
ARC
  5
5C5B
330
5BFC
100
AcDbEntity
  8
$DDT_AUDIT_GENERATED_(8F)
  6
Continuous
 62
     7
100
AcDbCircle
 10
52.6994719877
 20
602.1138933868
 30
0.0
 40
23.12471324006903
100
AcDbArc
 50
112.5085863076
 51
118.0800904447
  0
SPLINE
  5
5C5C
330
5BFC
100
AcDbEntity
  8
$DDT_AUDIT_GENERATED_(8F)
  6
Continuous
 62
     7
100
AcDbSpline
210
0.0
220
0.0
230
1.0
 70
     8
 71
     3
 72
    13
 73
     9
 74
     0
 42
0.000000001
 43
0.0000000001
 40
0.0
 40
0.0
 40
0.0
 40
0.0
 40
0.0725379119981341
 40
0.2666832052687683
 40
0.4660583715730013
 40
0.6812890488574891
 40
0.8573784952380455
 40
1.0
 40
1.0
 40
1.0
 40
1.0
 10
40.97230315838212
 20
622.0678593778143
 30
0.0
 10
41.01017705823264
 20
622.0671457411452
 30
0.0
 10
41.12993098023699
 20
622.0653959702656
 30
0.0
 10
41.35082299122323
 20
622.1017416771888
 30
0.0
 10
41.5892790340603
 20
622.1774786222186
 30
0.0
 10
41.76808912736712
 20
622.2897896730494
 30
0.0
 10
41.88603206908826
 20
622.4400106372502
 30
0.0
 10
41.89653095412061
 20
622.5433198138189
 30
0.0
 10
41.90092544129325
 20
622.5975268819454
 30
0.0
  0
ARC
  5
5C5D
330
5BFC
100
AcDbEntity
  8
$DDT_AUDIT_GENERATED_(8F)
  6
Continuous
 62
     7
100
AcDbCircle
 10
52.9761152878
 20
600.2249378462
 30
0.0
 40
24.91618281402873
100
AcDbArc
 50
118.7258986268
 51
120.7866691336
  0
ARC
  5
5C5E
330
5BFC
100
AcDbEntity
  8
$DDT_AUDIT_GENERATED_(8F)
  6
Continuous
 62
     7
100
AcDbCircle
 10
53.1894051757
 20
599.5989389869
 30
0.0
 40
25.56350430457368
100
AcDbArc
 50
120.4792039281
 51
121.9410780746
  0
SPLINE
  5
5C5F
330
5BFC
100
AcDbEntity
  8
$DDT_AUDIT_GENERATED_(8F)
  6
Continuous
 62
     7
100
AcDbSpline
210
0.0
220
0.0
230
1.0
 70
     8
 71
     3
 72
    12
 73
     8
 74
     0
 42
0.000000001
 43
0.0000000001
 40
0.0
 40
0.0
 40
0.0
 40
0.0
 40
0.1308888182520864
 40
0.4006979648514021
 40
0.7021209073114084
 40
0.882822690396338
 40
1.0
 40
1.0
 40
1.0
 40
1.0
 10
39.2157792153084
 20
621.0040797492229
 30
0.0
 10
39.26262405037525
 20
621.0078414151917
 30
0.0
 10
39.3853129848209
 20
621.0180615180084
 30
0.0
 10
39.57277398149731
 20
621.0592236500229
 30
0.0
 10
39.71701957749301
 20
621.1124366157128
 30
0.0
 10
39.83012522312745
 20
621.2290669793306
 30
0.0
 10
39.83957106387371
 20
621.3089237923014
 30
0.0
 10
39.84360282364034
 20
621.3455543242444
 30
0.0
  0
ARC
  5
5C60
330
5BFC
100
AcDbEntity
  8
$DDT_AUDIT_GENERATED_(8F)
  6
Continuous
 62
     7
100
AcDbCircle
 10
51.442321412
 20
601.2109124814
 30
0.0
 40
23.27194529615817
100
AcDbArc
 50
121.6549826767
 51
122.6318151464
  0
ARC
  5
5C61
330
5BFC
100
AcDbEntity
  8
$DDT_AUDIT_GENERATED_(8F)
  6
Continuous
 62
     7
100
AcDbCircle
 10
43.2191600465
 20
613.9495053609
 30
0.0
 40
8.110048130055711
100
AcDbArc
 50
122.2360344931
 51
123.3435109661
  0
ARC
  5
5C62
330
5BFC
100
AcDbEntity
  8
$DDT_AUDIT_GENERATED_(8F)
  6
Continuous
 62
     7
100
AcDbCircle
 10
38.9307787723
 20
620.8797419347
 30
0.0
 40
0.1999999598542188
100
AcDbArc
 50
268.3721348215
 51
0.04294202
  0
ARC
  5
5C63
330
5BFC
100
AcDbEntity
  8
$DDT_AUDIT_GENERATED_(8F)
  6
Continuous
 62
     7
100
AcDbCircle
 10
47.3
 20
624.7866745575
 30
0.0
 40
0.1999999999999832
100
AcDbArc
 50
281.6728908354
 51
359.9999999999
  0
ENDBLK
  5
5C64
330
5BFC
100
AcDbEntity
  8
0
100
AcDbBlockEnd
  0
BLOCK
  5
5C67
330
5C66
100
AcDbEntity
  8
0
100
AcDbBlockBegin
  2
SE2_View_9
 70
     0
 10
0.0
 20
0.0
 30
0.0
  3
SE2_View_9
  1

  0
LINE
  5
5C68
330
5C66
100
AcDbEntity
  8
$DDT_AUDIT_GENERATED_(A0)
  6
Continuous
 62
     7
100
AcDbLine
 10
30.2278404853
 20
70.0
 30
0.0
 11
23.9452212516
 21
70.0
 31
0.0
  0
LINE
  5
5C69
330
5C66
100
AcDbEntity
  8
$DDT_AUDIT_GENERATED_(A0)
  6
Continuous
 62
     7
100
AcDbLine
 10
54.4721595147
 20
70.0
 30
0.0
 11
60.7547787484
 21
70.0
 31
0.0
  0
LINE
  5
5C6A
330
5C66
100
AcDbEntity
  8
$DDT_AUDIT_GENERATED_(A0)
  6
Continuous
 62
     7
100
AcDbLine
 10
30.4278295192
 20
69.8020943568
 30
0.0
 11
30.9506250692
 21
19.8806216611
 31
0.0
  0
ARC
  5
5C6B
330
5C66
100
AcDbEntity
  8
$DDT_AUDIT_GENERATED_(A0)
  6
Continuous
 62
     7
100
AcDbCircle
 10
42.35
 20
20.0
 30
0.0
 40
11.4
100
AcDbArc
 50
180.6
 51
359.3999999999999
  0
LINE
  5
5C6C
330
5C66
100
AcDbEntity
  8
$DDT_AUDIT_GENERATED_(A0)
  6
Continuous
 62
     7
100
AcDbLine
 10
53.7493749308
 20
19.8806216611
 30
0.0
 11
54.2721704808
 21
69.8020943568
 31
0.0
  0
ARC
  5
5C6D
330
5C66
100
AcDbEntity
  8
$DDT_AUDIT_GENERATED_(A0)
  6
Continuous
 62
     7
100
AcDbCircle
 10
54.4721595147
 20
69.8
 30
0.0
 40
0.2
100
AcDbArc
 50
90.0
 51
179.4
  0
ARC
  5
5C6E
330
5C66
100
AcDbEntity
  8
$DDT_AUDIT_GENERATED_(A0)
  6
Continuous
 62
     7
100
AcDbCircle
 10
30.2278404853
 20
69.8
 30
0.0
 40
0.2
100
AcDbArc
 50
0.6
 51
90.0
  0
ARC
  5
5C6F
330
5C66
100
AcDbEntity
  8
$DDT_AUDIT_GENERATED_(A0)
  6
Continuous
 62
     7
100
AcDbCircle
 10
42.35
 20
500.0
 30
0.0
 40
499.9999999999999
100
AcDbArc
 50
268.0057505618
 51
271.9942494381999
  0
ARC
  5
5C70
330
5C66
100
AcDbEntity
  8
$DDT_AUDIT_GENERATED_(A0)
  6
Continuous
 62
     7
100
AcDbCircle
 10
24.9678038806
 20
0.802534804
 30
0.0
 40
0.4999999999999953
100
AcDbArc
 50
180.6
 51
268.0057505615
  0
ARC
  5
5C71
330
5C66
100
AcDbEntity
  8
$DDT_AUDIT_GENERATED_(A0)
  6
Continuous
 62
     7
100
AcDbCircle
 10
59.7321961194
 20
0.802534804
 30
0.0
 40
0.4999999999999175
100
AcDbArc
 50
271.9942494385
 51
359.3999999999999
  0
LINE
  5
5C72
330
5C66
100
AcDbEntity
  8
$DDT_AUDIT_GENERATED_(A0)
  6
Continuous
 62
     7
100
AcDbLine
 10
23.7452322178
 20
69.7979056432
 30
0.0
 11
24.4678312959
 21
0.797298912
 31
0.0
  0
LINE
  5
5C73
330
5C66
100
AcDbEntity
  8
$DDT_AUDIT_GENERATED_(A0)
  6
Continuous
 62
     7
100
AcDbLine
 10
60.2321687041
 20
0.797298912
 30
0.0
 11
60.9547677822
 21
69.7979056432
 31
0.0
  0
ARC
  5
5C74
330
5C66
100
AcDbEntity
  8
$DDT_AUDIT_GENERATED_(A0)
  6
Continuous
 62
     7
100
AcDbCircle
 10
60.7547787484
 20
69.8
 30
0.0
 40
0.2000000000000009
100
AcDbArc
 50
359.3999999999999
 51
90.0
  0
ARC
  5
5C75
330
5C66
100
AcDbEntity
  8
$DDT_AUDIT_GENERATED_(A0)
  6
Continuous
 62
     7
100
AcDbCircle
 10
23.9452212516
 20
69.8
 30
0.0
 40
0.2000000000000028
100
AcDbArc
 50
90.0
 51
180.6
  0
LINE
  5
5C76
330
5C66
100
AcDbEntity
  8
$DDT_AUDIT_GENERATED_(BE)
  6
Continuous
 62
     7
100
AcDbLine
 10
0.0
 20
37.3
 30
0.0
 11
0.0
 21
2.7
 31
0.0
  0
LINE
  5
5C77
330
5C66
100
AcDbEntity
  8
$DDT_AUDIT_GENERATED_(BE)
  6
Continuous
 62
     7
100
AcDbLine
 10
24.0782312796
 20
38.0
 30
0.0
 11
0.7
 21
38.0
 31
0.0
  0
LINE
  5
5C78
330
5C66
100
AcDbEntity
  8
$DDT_AUDIT_GENERATED_(BE)
  6
Continuous
 62
     7
100
AcDbLine
 10
0.7
 20
2.0
 30
0.0
 11
24.4552361792
 21
2.0
 31
0.0
  0
ARC
  5
5C79
330
5C66
100
AcDbEntity
  8
$DDT_AUDIT_GENERATED_(BE)
  6
Continuous
 62
     7
100
AcDbCircle
 10
0.7
 20
2.7
 30
0.0
 40
0.7000000000000062
100
AcDbArc
 50
180.0
 51
270.0
  0
ARC
  5
5C7A
330
5C66
100
AcDbEntity
  8
$DDT_AUDIT_GENERATED_(BE)
  6
Continuous
 62
     7
100
AcDbCircle
 10
0.7
 20
37.3
 30
0.0
 40
0.6999999999999923
100
AcDbArc
 50
90.0
 51
180.0
  0
LINE
  5
5C7B
330
5C66
100
AcDbEntity
  8
$DDT_AUDIT_GENERATED_(182)
  6
Continuous
 62
     7
100
AcDbLine
 10
101.486249863
 20
29.0
 30
0.0
 11
100.6091128956
 21
29.0
 31
0.0
  0
LINE
  5
5C7C
330
5C66
100
AcDbEntity
  8
$DDT_AUDIT_GENERATED_(182)
  6
Continuous
 62
     7
100
AcDbLine
 10
101.486264431
 20
11.0
 30
0.0
 11
100.6091128956
 21
11.0
 31
0.0
  0
SPLINE
  5
5C7D
330
5C66
100
AcDbEntity
  8
$DDT_AUDIT_GENERATED_(182)
  6
Continuous
 62
     7
100
AcDbSpline
210
0.0
220
0.0
230
1.0
 70
     8
 71
     3
 72
    30
 73
    26
 74
     0
 42
0.000000001
 43
0.0000000001
 40
0.0
 40
0.0
 40
0.0
 40
0.0
 40
0.0625000000000002
 40
0.0625000000000002
 40
0.1250000000000004
 40
0.1250000000000004
 40
0.1875000000000004
 40
0.1875000000000004
 40
0.2500000000000004
 40
0.2500000000000004
 40
0.3750000000000003
 40
0.3750000000000003
 40
0.5000000000000002
 40
0.5000000000000002
 40
0.6250000000000002
 40
0.6250000000000002
 40
0.7500000000000001
 40
0.7500000000000001
 40
0.8125000000000001
 40
0.8125000000000001
 40
0.8750000000000001
 40
0.8750000000000001
 40
0.9375000000000001
 40
0.9375000000000001
 40
1.0
 40
1.0
 40
1.0
 40
1.0
 10
95.8968679375678
 20
10.56237135558469
 30
0.0
 10
95.1435188595337
 20
10.2094688177327
 30
0.0
 10
94.3194954645012
 20
9.939543410636404
 30
0.0
 10
92.59860493695824
 20
9.626954013939894
 30
0.0
 10
91.68624396906111
 20
9.585789226383113
 30
0.0
 10
89.93205521095074
 20
9.74733977335039
 30
0.0
 10
89.07308558839041
 20
9.949102976613688
 30
0.0
 10
87.50272701412598
 20
10.53006057269559
 30
0.0
 10
86.76633807317788
 20
10.91565333851079
 30
0.0
 10
84.76417896037619
 20
12.2832281852932
 30
0.0
 10
83.65052649685408
 20
13.50543529808719
 30
0.0
 10
82.05832235005961
 20
16.42446313876489
 30
0.0
 10
81.57680945203138
 20
18.19027377142729
 30
0.0
 10
81.56738725646306
 20
21.7540047952306
 30
0.0
 10
82.02724743673012
 20
23.50281058024169
 30
0.0
 10
83.63777471583407
 20
26.48652107982468
 30
0.0
 10
84.75033652429434
 20
27.70375097451759
 30
0.0
 10
86.75040640383597
 20
29.07521705074939
 30
0.0
 10
87.4873271173271
 20
29.4629624953819
 30
0.0
 10
89.06197175370176
 20
30.04804377967091
 30
0.0
 10
89.92048337243192
 20
30.25070683424408
 30
0.0
 10
91.67837420166286
 20
30.41436394440873
 30
0.0
 10
92.59204337631951
 20
30.373765065253
 30
0.0
 10
94.3158070916119
 20
30.06159654573648
 30
0.0
 10
95.14178979949921
 20
29.79134115163188
 30
0.0
 10
95.8968679375678
 20
29.4376286444151
 30
0.0
  0
ARC
  5
5C7E
330
5C66
100
AcDbEntity
  8
$DDT_AUDIT_GENERATED_(182)
  6
Continuous
 62
     7
100
AcDbCircle
 10
97.7633893157
 20
6.8015203836
 30
0.0
 40
4.198559525382723
100
AcDbArc
 50
89.64650276170002
 51
116.395339754
  0
LINE
  5
5C7F
330
5C66
100
AcDbEntity
  8
$DDT_AUDIT_GENERATED_(182)
  6
Continuous
 62
     7
100
AcDbLine
 10
97.789292965
 20
11.0
 30
0.0
 11
100.6091128956
 21
11.0
 31
0.0
  0
LINE
  5
5C80
330
5C66
100
AcDbEntity
  8
$DDT_AUDIT_GENERATED_(182)
  6
Continuous
 62
     7
100
AcDbLine
 10
100.6091128956
 20
11.0
 30
0.0
 11
100.0188963608
 21
10.965582412
 31
0.0
  0
LINE
  5
5C81
330
5C66
100
AcDbEntity
  8
$DDT_AUDIT_GENERATED_(182)
  6
Continuous
 62
     7
100
AcDbLine
 10
100.6091128956
 20
29.0
 30
0.0
 11
97.789292965
 21
29.0
 31
0.0
  0
ARC
  5
5C82
330
5C66
100
AcDbEntity
  8
$DDT_AUDIT_GENERATED_(182)
  6
Continuous
 62
     7
100
AcDbCircle
 10
97.7633893157
 20
33.1984796164
 30
0.0
 40
4.198559525382572
100
AcDbArc
 50
243.604660246
 51
270.3534972383
  0
LINE
  5
5C83
330
5C66
100
AcDbEntity
  8
$DDT_AUDIT_GENERATED_(182)
  6
Continuous
 62
     7
100
AcDbLine
 10
100.0188963608
 20
29.034417588
 30
0.0
 11
100.6091128956
 21
29.0
 31
0.0
  0
LINE
  5
5C84
330
5C66
100
AcDbEntity
  8
$DDT_AUDIT_GENERATED_(182)
  6
Continuous
 62
     7
100
AcDbLine
 10
95.9787198778
 20
10.6201931737
 30
0.0
 11
95.9493029907
 21
10.6061983214
 31
0.0
  0
LINE
  5
5C85
330
5C66
100
AcDbEntity
  8
$DDT_AUDIT_GENERATED_(E4)
  6
Continuous
 62
     7
100
AcDbLine
 10
104.7
 20
29.0
 30
0.0
 11
101.6275546715
 21
29.0
 31
0.0
  0
ARC
  5
5C86
330
5C66
100
AcDbEntity
  8
$DDT_AUDIT_GENERATED_(E4)
  6
Continuous
 62
     7
100
AcDbCircle
 10
104.7
 20
10.0
 30
0.0
 40
0.9999999999999936
100
AcDbArc
 50
0.0
 51
90.0
  0
ARC
  5
5C87
330
5C66
100
AcDbEntity
  8
$DDT_AUDIT_GENERATED_(E4)
  6
Continuous
 62
     7
100
AcDbCircle
 10
104.7
 20
30.0
 30
0.0
 40
1.000000000000006
100
AcDbArc
 50
270.0
 51
0.0
  0
LINE
  5
5C88
330
5C66
100
AcDbEntity
  8
$DDT_AUDIT_GENERATED_(E4)
  6
Continuous
 62
     7
100
AcDbLine
 10
105.7
 20
10.0
 30
0.0
 11
105.7
 21
2.5
 31
0.0
  0
LINE
  5
5C89
330
5C66
100
AcDbEntity
  8
$DDT_AUDIT_GENERATED_(E4)
  6
Continuous
 62
     7
100
AcDbLine
 10
105.7
 20
37.5
 30
0.0
 11
105.7
 21
30.0
 31
0.0
  0
LINE
  5
5C8A
330
5C66
100
AcDbEntity
  8
$DDT_AUDIT_GENERATED_(E4)
  6
Continuous
 62
     7
100
AcDbLine
 10
101.6275546715
 20
29.0
 30
0.0
 11
101.4880284741
 21
29.0
 31
0.0
  0
SPLINE
  5
5C8B
330
5C66
100
AcDbEntity
  8
$DDT_AUDIT_GENERATED_(E4)
  6
Continuous
 62
     7
100
AcDbSpline
210
0.0
220
0.0
230
1.0
 70
     8
 71
     3
 72
    40
 73
    36
 74
     0
 42
0.000000001
 43
0.0000000001
 40
0.0
 40
0.0
 40
0.0
 40
0.0
 40
0.0625000000000003
 40
0.0625000000000003
 40
0.1250000000000006
 40
0.1250000000000006
 40
0.1562500000000007
 40
0.1562500000000007
 40
0.1875000000000009
 40
0.1875000000000009
 40
0.2500000000000008
 40
0.2500000000000008
 40
0.3125000000000008
 40
0.3125000000000008
 40
0.3750000000000008
 40
0.3750000000000008
 40
0.4375000000000008
 40
0.4375000000000008
 40
0.5000000000000008
 40
0.5000000000000008
 40
0.5625000000000008
 40
0.5625000000000008
 40
0.6250000000000007
 40
0.6250000000000007
 40
0.6875000000000007
 40
0.6875000000000007
 40
0.7500000000000006
 40
0.7500000000000006
 40
0.8125000000000006
 40
0.8125000000000006
 40
0.8750000000000004
 40
0.8750000000000004
 40
0.9375000000000002
 40
0.9375000000000002
 40
1.0
 40
1.0
 40
1.0
 40
1.0
 10
101.1203515922318
 20
29.15206762285439
 30
0.0
 10
100.2433577213605
 20
30.00894771441151
 30
0.0
 10
99.24606631923601
 20
30.74020307216298
 30
0.0
 10
97.0706064195118
 20
31.90871569042341
 30
0.0
 10
95.89954557199711
 20
32.35199574946918
 30
0.0
 10
93.92109669225411
 20
32.77389348114599
 30
0.0
 10
93.24818590668798
 20
32.86708526430948
 30
0.0
 10
91.87044145387816
 20
32.9533604805757
 30
0.0
 10
91.16499611621373
 20
32.94433285490379
 30
0.0
 10
89.12328042077591
 20
32.76671476812589
 30
0.0
 10
87.82328635604813
 20
32.44834903130368
 30
0.0
 10
85.47594676746701
 20
31.52268680715449
 30
0.0
 10
84.3986847142959
 20
30.90790111931929
 30
0.0
 10
82.46991729418107
 20
29.42553811830652
 30
0.0
 10
81.59168262638273
 20
28.534909302426
 30
0.0
 10
80.10925060282152
 20
26.49772932162608
 30
0.0
 10
79.49200417465514
 20
25.32996385393369
 30
0.0
 10
78.63961466965185
 20
22.79589339645219
 30
0.0
 10
78.40416379286737
 20
21.4081589571159
 30
0.0
 10
78.39691487398099
 20
18.6589880386861
 30
0.0
 10
78.62481723582975
 20
17.26920875813938
 30
0.0
 10
79.46715892240208
 20
14.72375151201129
 30
0.0
 10
80.07853571777198
 20
13.5527961983981
 30
0.0
 10
81.56528019655252
 20
11.49336931110331
 30
0.0
 10
82.43164969005566
 20
10.6096526795374
 30
0.0
 10
84.36064368970128
 20
9.115779321883593
 30
0.0
 10
85.43919731830098
 20
8.496321196093788
 30
0.0
 10
87.77799688750221
 20
7.565150193775992
 30
0.0
 10
89.07542144189928
 20
7.241835578957193
 30
0.0
 10
91.80668076924883
 20
6.995594344050886
 30
0.0
 10
93.22937267715692
 20
7.082547072603091
 30
0.0
 10
95.85547510991451
 20
7.634771071784499
 30
0.0
 10
97.05837960935871
 20
8.085249273686799
 30
0.0
 10
99.2494764457146
 20
9.2610983648554
 30
0.0
 10
100.2306376371443
 20
9.978623935414092
 30
0.0
 10
101.1203515922318
 20
10.84793237714541
 30
0.0
  0
ARC
  5
5C8C
330
5C66
100
AcDbEntity
  8
$DDT_AUDIT_GENERATED_(E4)
  6
Continuous
 62
     7
100
AcDbCircle
 10
101.493382753
 20
29.5334736531
 30
0.0
 40
0.5335005218667112
100
AcDbArc
 50
225.6360038556
 51
269.4249626279
  0
ARC
  5
5C8D
330
5C66
100
AcDbEntity
  8
$DDT_AUDIT_GENERATED_(E4)
  6
Continuous
 62
     7
100
AcDbCircle
 10
101.4914783971
 20
10.4711307962
 30
0.0
 40
0.5288804559944529
100
AcDbArc
 50
90.3737469023
 51
134.5652866143
  0
LINE
  5
5C8E
330
5C66
100
AcDbEntity
  8
$DDT_AUDIT_GENERATED_(E4)
  6
Continuous
 62
     7
100
AcDbLine
 10
101.6275546715
 20
11.0
 30
0.0
 11
104.7
 21
11.0
 31
0.0
  0
LINE
  5
5C8F
330
5C66
100
AcDbEntity
  8
$DDT_AUDIT_GENERATED_(E4)
  6
Continuous
 62
     7
100
AcDbLine
 10
101.4880284741
 20
11.0
 30
0.0
 11
101.6275546715
 21
11.0
 31
0.0
  0
LINE
  5
5C90
330
5C66
100
AcDbEntity
  8
$DDT_AUDIT_GENERATED_(E4)
  6
Continuous
 62
     7
100
AcDbLine
 10
60.2447638208
 20
2.0
 30
0.0
 11
105.2
 21
2.0
 31
0.0
  0
LINE
  5
5C91
330
5C66
100
AcDbEntity
  8
$DDT_AUDIT_GENERATED_(E4)
  6
Continuous
 62
     7
100
AcDbLine
 10
105.2
 20
38.0
 30
0.0
 11
60.6217687204
 21
38.0
 31
0.0
  0
ARC
  5
5C92
330
5C66
100
AcDbEntity
  8
$DDT_AUDIT_GENERATED_(E4)
  6
Continuous
 62
     7
100
AcDbCircle
 10
105.2
 20
2.5
 30
0.0
 40
0.5000000000000004
100
AcDbArc
 50
270.0
 51
0.0
  0
ARC
  5
5C93
330
5C66
100
AcDbEntity
  8
$DDT_AUDIT_GENERATED_(E4)
  6
Continuous
 62
     7
100
AcDbCircle
 10
105.2
 20
37.5
 30
0.0
 40
0.5000000000000004
100
AcDbArc
 50
0.0
 51
90.0
  0
ARC
  5
5C94
330
5C66
100
AcDbEntity
  8
$DDT_AUDIT_GENERATED_(E4)
  6
Continuous
 62
     7
100
AcDbCircle
 10
99.3547518663
 20
10.5
 30
0.0
 40
0.5000000000000004
100
AcDbArc
 50
90.0
 51
130.1111975008
  0
ARC
  5
5C95
330
5C66
100
AcDbEntity
  8
$DDT_AUDIT_GENERATED_(E4)
  6
Continuous
 62
     7
100
AcDbCircle
 10
99.3547518663
 20
29.5
 30
0.0
 40
0.499999999999992
100
AcDbArc
 50
229.8888024992
 51
270.0
  0
LINE
  5
5C96
330
5C66
100
AcDbEntity
  8
$DDT_AUDIT_GENERATED_(8F)
  6
Continuous
 62
     7
100
AcDbLine
 10
54.1867774831
 20
70.0
 30
0.0
 11
54.4721595147
 21
70.0
 31
0.0
  0
LINE
  5
5C97
330
5C66
100
AcDbEntity
  8
$DDT_AUDIT_GENERATED_(8F)
  6
Continuous
 62
     7
100
AcDbLine
 10
30.5873701975
 20
70.0
 30
0.0
 11
54.1132254357
 21
70.0
 31
0.0
  0
LINE
  5
5C98
330
5C66
100
AcDbEntity
  8
$DDT_AUDIT_GENERATED_(8F)
  6
Continuous
 62
     7
100
AcDbLine
 10
30.5138070843
 20
70.0
 30
0.0
 11
30.5873701975
 21
70.0
 31
0.0
  0
LINE
  5
5C99
330
5C66
100
AcDbEntity
  8
$DDT_AUDIT_GENERATED_(8F)
  6
Continuous
 62
     7
100
AcDbLine
 10
54.1132254357
 20
70.0
 30
0.0
 11
54.1867774831
 21
70.0
 31
0.0
  0
LINE
  5
5C9A
330
5C66
100
AcDbEntity
  8
$DDT_AUDIT_GENERATED_(8F)
  6
Continuous
 62
     7
100
AcDbLine
 10
54.1867774831
 20
70.0
 30
0.0
 11
53.652061024
 21
18.9402059512
 31
0.0
  0
ARC
  5
5C9B
330
5C66
100
AcDbEntity
  8
$DDT_AUDIT_GENERATED_(8F)
  6
Continuous
 62
     7
100
AcDbCircle
 10
42.351853257
 20
20.002187318
 30
0.0
 40
11.35
100
AcDbArc
 50
185.1753533805
 51
354.6311731317
  0
LINE
  5
5C9C
330
5C66
100
AcDbEntity
  8
$DDT_AUDIT_GENERATED_(8F)
  6
Continuous
 62
     7
100
AcDbLine
 10
31.0481238769
 20
18.9783699028
 30
0.0
 11
30.5138070843
 21
70.0
 31
0.0
  0
ARC
  5
5C9D
330
5C66
100
AcDbEntity
  8
$DDT_AUDIT_GENERATED_(8F)
  6
Continuous
 62
     7
100
AcDbCircle
 10
31.1385758714
 20
18.4646977301
 30
0.0
 40
0.5215751760796017
100
AcDbArc
 50
91.6911215894
 51
99.98677265369999
  0
ARC
  5
5C9E
330
5C66
100
AcDbEntity
  8
$DDT_AUDIT_GENERATED_(8F)
  6
Continuous
 62
     7
100
AcDbCircle
 10
53.5621169182
 20
18.4534192811
 30
0.0
 40
0.4950264683053751
100
AcDbArc
 50
79.53146367489998
 51
88.2753674022
  0
LINE
  5
5C9F
330
5C66
100
AcDbEntity
  8
$DDT_AUDIT_GENERATED_(8F)
  6
Continuous
 62
     7
100
AcDbLine
 10
30.2046625727
 20
70.0
 30
0.0
 11
30.5138070843
 21
70.0
 31
0.0
  0
LINE
  5
5CA0
330
5C66
100
AcDbEntity
  8
$DDT_AUDIT_GENERATED_(8F)
  6
Continuous
 62
     7
100
AcDbLine
 10
41.4
 20
8.6921707231
 30
0.0
 11
41.4
 21
8.6488912374
 31
0.0
  0
ENDBLK
  5
5CA1
330
5C66
100
AcDbEntity
  8
0
100
AcDbBlockEnd
  0
BLOCK
  5
5CC8
330
5CC7
100
AcDbEntity
  8
0
100
AcDbBlockBegin
  2
*D5
 70
     1
 10
0.0
 20
0.0
 30
0.0
  3
*D5
  1

  0
LINE
  5
5CCA
330
5CC7
100
AcDbEntity
  8
DIM
 62
     0
370
    -2
100
AcDbLine
 10
536.730642498398
 20
940.8565610460003
 30
0.0
 11
468.537788544
 21
940.8565610460003
 31
0.0
  0
LINE
  5
5CCB
330
5CC7
100
AcDbEntity
  8
DIM
 62
     0
370
    -2
100
AcDbLine
 10
536.730642498398
 20
320.6524868960003
 30
0.0
 11
468.537788544
 21
320.6524868960003
 31
0.0
  0
LINE
  5
5CCC
330
5CC7
100
AcDbEntity
  8
DIM
 62
     0
370
    -2
100
AcDbLine
 10
468.537788544
 20
936.8565610460003
 30
0.0
 11
468.537788544
 21
324.6524868960003
 31
0.0
  0
INSERT
  5
5CCD
330
5CC7
100
AcDbEntity
  8
DIM
 62
     0
370
    -2
100
AcDbBlockReference
  2
_DOT
 10
468.537788544
 20
940.8565610460003
 30
0.0
 41
4.0
 42
4.0
 43
4.0
 50
90.0
  0
INSERT
  5
5CCE
330
5CC7
100
AcDbEntity
  8
DIM
 62
     0
370
    -2
100
AcDbBlockReference
  2
_DOT
 10
468.537788544
 20
320.6524868960003
 30
0.0
 41
4.0
 42
4.0
 43
4.0
 50
270.0
  0
MTEXT
  5
5CCF
330
5CC7
100
AcDbEntity
  8
DIM
 62
     0
100
AcDbMText
 10
455.537788544
 20
630.7545155100004
 30
0.0
 40
10.0
 41
0.0
 46
0.0
 71
     5
 72
     1
  1
\A1;\A1;620
  7
ＭＳ ゴシック
 11
0.0
 21
1.0
 31
0.0
 73
     1
 44
1.0
  0
POINT
  5
5CD0
330
5CC7
100
AcDbEntity
  8
Defpoints
 62
     0
100
AcDbPoint
 10
541.730642498398
 20
940.8565610460003
 30
0.0
  0
POINT
  5
5CD1
330
5CC7
100
AcDbEntity
  8
Defpoints
 62
     0
100
AcDbPoint
 10
541.730642498398
 20
320.6524868960003
 30
0.0
  0
POINT
  5
5CD2
330
5CC7
100
AcDbEntity
  8
Defpoints
 62
     0
100
AcDbPoint
 10
468.537788544
 20
320.6524868960003
 30
0.0
  0
ENDBLK
  5
5CC9
330
5CC7
100
AcDbEntity
  8
0
100
AcDbBlockEnd
  0
BLOCK
  5
5CD5
330
5CD4
100
AcDbEntity
  8
0
100
AcDbBlockBegin
  2
*D6
 70
     1
 10
0.0
 20
0.0
 30
0.0
  3
*D6
  1

  0
LINE
  5
5CD7
330
5CD4
100
AcDbEntity
  8
DIM
 62
     0
370
    -2
100
AcDbLine
 10
581.3882424983981
 20
293.3490404184003
 30
0.0
 11
581.3882424983981
 21
245.4564332159997
 31
0.0
  0
LINE
  5
5CD8
330
5CD4
100
AcDbEntity
  8
DIM
 62
     0
370
    -2
100
AcDbLine
 10
642.2882424983985
 20
323.4800594559997
 30
0.0
 11
642.2882424983985
 21
245.4564332159997
 31
0.0
  0
LINE
  5
5CD9
330
5CD4
100
AcDbEntity
  8
DIM
 62
     0
370
    -2
100
AcDbLine
 10
585.3882424983981
 20
245.4564332159997
 30
0.0
 11
638.2882424983985
 21
245.4564332159997
 31
0.0
  0
INSERT
  5
5CDA
330
5CD4
100
AcDbEntity
  8
DIM
 62
     0
370
    -2
100
AcDbBlockReference
  2
_DOT
 10
581.3882424983981
 20
245.4564332159997
 30
0.0
 41
4.0
 42
4.0
 43
4.0
 50
180.0
  0
INSERT
  5
5CDB
330
5CD4
100
AcDbEntity
  8
DIM
 62
     0
370
    -2
100
AcDbBlockReference
  2
_DOT
 10
642.2882424983985
 20
245.4564332159997
 30
0.0
 41
4.0
 42
4.0
 43
4.0
  0
MTEXT
  5
5CDC
330
5CD4
100
AcDbEntity
  8
DIM
 62
     0
100
AcDbMText
 10
611.8382419943986
 20
258.4564332159997
 30
0.0
 40
10.0
 41
0.0
 46
0.0
 71
     5
 72
     1
  1
\A1;\A1;61
  7
ＭＳ ゴシック
 73
     1
 44
1.0
  0
POINT
  5
5CDD
330
5CD4
100
AcDbEntity
  8
Defpoints
 62
     0
100
AcDbPoint
 10
581.3882424983981
 20
298.3490404184003
 30
0.0
  0
POINT
  5
5CDE
330
5CD4
100
AcDbEntity
  8
Defpoints
 62
     0
100
AcDbPoint
 10
642.2882424983985
 20
328.4800594559997
 30
0.0
  0
POINT
  5
5CDF
330
5CD4
100
AcDbEntity
  8
Defpoints
 62
     0
100
AcDbPoint
 10
642.2882424983985
 20
245.4564332159997
 30
0.0
  0
ENDBLK
  5
5CD6
330
5CD4
100
AcDbEntity
  8
0
100
AcDbBlockEnd
  0
ENDSEC
  0
SECTION
  2
ENTITIES
  0
MTEXT
  5
177
330
A
100
AcDbEntity
  8
TEMPLATE
390
1D
100
AcDbMText
 10
31.6808578190923
 20
137.4927006525713
 30
0.0
 40
6.51536458333333
 41
0.0
 46
0.0
 71
     1
 72
     1
  1
品名
  7
ＭＳ ゴシック
 73
     1
 44
0.7828267384257843
  0
MTEXT
  5
178
330
A
100
AcDbEntity
  8
TEMPLATE
390
1D
100
AcDbMText
 10
31.6808578190923
 20
103.4927006525712
 30
0.0
 40
6.51536458333333
 41
0.0
 46
0.0
 71
     1
 72
     1
  1
仕様
  7
ＭＳ ゴシック
 73
     1
 44
0.7828267384257843
  0
LINE
  5
179
330
A
100
AcDbEntity
  8
TEMPLATE
390
1D
100
AcDbLine
 10
808.8808578188992
 20
106.8586694025714
 30
0.0
 11
28.8808578188995
 21
106.8586694025714
 31
0.0
  0
LWPOLYLINE
  5
17A
330
A
100
AcDbEntity
  8
TEMPLATE
390
1D
100
AcDbPolyline
 90
        5
 70
   128
 43
0.0
 10
808.8808578188992
 20
1158.858669402571
 10
28.8808578188995
 20
1158.858669402571
 10
28.8808578188995
 20
38.8586694025713
 10
808.8808578188992
 20
38.8586694025713
 10
808.8808578188992
 20
1158.858669402571
  0
LINE
  5
17B
330
A
100
AcDbEntity
  8
TEMPLATE
390
1D
100
AcDbLine
 10
808.8808578188992
 20
140.8586694025713
 30
0.0
 11
28.8808578188995
 21
140.8586694025713
 31
0.0
  0
LINE
  5
17C
330
A
100
AcDbEntity
  8
TEMPLATE
390
1D
100
AcDbLine
 10
808.8808578190929
 20
72.8586694025713
 30
0.0
 11
507.680857819092
 21
72.8586694025713
 31
0.0
  0
MTEXT
  5
17E
330
A
100
AcDbEntity
  8
TEMPLATE
390
1D
100
AcDbMText
 10
519.6294203199964
 20
60.89451161324806
 30
0.0
 40
9.773046875
 41
0.0
 46
0.0
 71
     1
 72
     1
  1
大洋金物株式会社 ティーフォルム事業部
  7
ＭＳ ゴシック
 73
     1
 44
0.7828267384257843
  0
MTEXT
  5
180
330
A
100
AcDbEntity
  8
TEMPLATE
390
1D
100
AcDbMText
 10
732.480857819196
 20
92.05971627757128
 30
0.0
 40
9.773046875
 41
0.0
 46
9.773046875
 71
     1
 72
     1
  1
{1:4}
  7
ＭＳ ゴシック
 73
     1
 44
0.7828267384257843
1001
ACAD
1000
ACAD_MTEXT_DEFINED_HEIGHT_BEGIN
1070
    46
1040
9.773046875
1000
ACAD_MTEXT_DEFINED_HEIGHT_END
  0
MTEXT
  5
181
330
A
100
AcDbEntity
  8
TEMPLATE
390
1D
100
AcDbMText
 10
711.280857819196
 20
103.4927006525712
 30
0.0
 40
6.51536458333333
 41
0.0
 46
0.0
 71
     1
 72
     1
  1
縮尺
  7
ＭＳ ゴシック
 73
     1
 44
0.7828267384257843
  0
LINE
  5
182
330
A
100
AcDbEntity
  8
TEMPLATE
390
1D
100
AcDbLine
 10
708.480857819196
 20
72.8586694025713
 30
0.0
 11
708.480857819196
 21
106.8586694025714
 31
0.0
  0
MTEXT
  5
183
330
A
100
AcDbEntity
  8
TEMPLATE
390
1D
100
AcDbMText
 10
610.880857819196
 20
103.4927006525712
 30
0.0
 40
6.51536458333333
 41
0.0
 46
0.0
 71
     1
 72
     1
  1
容量
  7
ＭＳ ゴシック
 73
     1
 44
0.7828267384257843
  0
LINE
  5
184
330
A
100
AcDbEntity
  8
TEMPLATE
390
1D
100
AcDbLine
 10
608.080857819196
 20
72.8586694025713
 30
0.0
 11
608.080857819196
 21
106.8586694025714
 31
0.0
  0
MTEXT
  5
185
330
A
100
AcDbEntity
  8
TEMPLATE
390
1D
100
AcDbMText
 10
510.480857819196
 20
137.4927006525713
 30
0.0
 40
6.51536458333333
 41
0.0
 46
0.0
 71
     1
 72
     1
  1
品番
  7
ＭＳ ゴシック
 73
     1
 44
0.7828267384257843
  0
MTEXT
  5
186
330
A
100
AcDbEntity
  8
TEMPLATE
390
1D
100
AcDbMText
 10
510.480857819196
 20
103.4927006525712
 30
0.0
 40
6.51536458333333
 41
0.0
 46
0.0
 71
     1
 72
     1
  1
重量
  7
ＭＳ ゴシック
 73
     1
 44
0.7828267384257843
  0
LINE
  5
188
330
A
100
AcDbEntity
  8
TEMPLATE
390
1D
100
AcDbLine
 10
507.680857819196
 20
38.8586694025713
 30
0.0
 11
507.680857819196
 21
140.8586694025713
 31
0.0
  0
INSERT
  5
68C
330
A
100
AcDbEntity
  8
TEMPLATE
100
AcDbBlockReference
  2
block 2
 10
367.7097207081031
 20
3.349230605734547
 30
0.0
 41
0.1524
 42
0.1524
 43
0.1524
  0
LWPOLYLINE
  5
D69
330
A
100
AcDbEntity
  8
BORDER
100
AcDbPolyline
 90
        4
 70
     1
 43
0.0
 10
0.0
 20
0.0
 10
0.0
 20
1188.0
 10
840.0
 20
1188.0
 10
840.0
 20
0.0
  0
INSERT
  5
1343
330
A
100
AcDbEntity
  8
TEMPLATE
100
AcDbBlockReference
  2
block 2
 10
838.6973883465873
 20
9.774128564918277
 30
0.0
 41
0.1524
 42
0.1524
 43
0.1524
  0
HATCH
  5
3CE3
102
{ACAD_REACTORS
330
3CF4
102
}
330
A
100
AcDbEntity
  8
TEMPLATE
100
AcDbHatch
 10
0.0
 20
0.0
 30
0.0
210
0.0
220
0.0
230
1.0
  2
SOLID
 70
     1
 71
     1
 91
        6
 92
        1
 93
        8
 72
     1
 10
773.8270902791126
 20
61.34344299952348
 11
773.8270902791126
 21
58.97967994725929
 72
     1
 10
773.8270902791126
 20
58.97967994725929
 11
770.0828536589879
 21
58.97967994725929
 72
     1
 10
770.0828536589879
 20
58.97967994725929
 11
770.0828536589879
 21
49.34344300010187
 72
     1
 10
770.0828536589879
 20
49.34344300010187
 11
766.7898083976775
 21
49.34344300010187
 72
     1
 10
766.7898083976775
 20
49.34344300010187
 11
766.7898083976775
 21
58.97967994725929
 72
     1
 10
766.7898083976775
 20
58.97967994725929
 11
763.1119278238602
 21
58.97967994725929
 72
     1
 10
763.1119278238602
 20
58.97967994725929
 11
763.1119278238602
 21
61.34344299952348
 72
     1
 10
763.1119278238602
 20
61.34344299952348
 11
773.8270902791126
 21
61.34344299952348
 97
        1
330
3CE4
 92
        1
 93
        1
 72
     4
 94
        3
 73
     0
 74
     1
 95
       56
 96
       52
 40
0.0
 40
0.0
 40
0.0
 40
0.0
 40
1.0
 40
1.0
 40
1.0
 40
2.0
 40
2.0
 40
2.0
 40
3.0
 40
3.0
 40
3.0
 40
4.0
 40
4.0
 40
4.0
 40
5.0
 40
5.0
 40
5.0
 40
6.0
 40
6.0
 40
6.0
 40
7.0
 40
7.0
 40
7.0
 40
8.0
 40
8.0
 40
8.0
 40
9.0
 40
9.0
 40
9.0
 40
10.0
 40
10.0
 40
10.0
 40
11.0
 40
11.0
 40
11.0
 40
12.0
 40
12.0
 40
12.0
 40
13.0
 40
13.0
 40
13.0
 40
14.0
 40
14.0
 40
14.0
 40
15.0
 40
15.0
 40
15.0
 40
16.0
 40
16.0
 40
16.0
 40
17.0
 40
17.0
 40
17.0
 40
17.0
 10
778.8439644528296
 20
61.05769541535855
 10
779.3055109255968
 20
61.18761043696263
 10
779.9013465629307
 20
61.07894125260667
 10
779.9013465629307
 20
61.07894125260667
 10
779.9013465629307
 20
61.07894125260667
 10
779.6150931254979
 20
60.21991313563727
 10
779.6150931254979
 20
60.21991313563727
 10
779.6150931254979
 20
60.21991313563727
 10
779.0301482114592
 20
60.35527351888899
 10
778.5789866087196
 20
59.9995098912439
 10
778.2284005380509
 20
59.72129059394702
 10
778.0012724208032
 20
58.98203067715087
 10
777.9141466344411
 20
58.70095479669457
 10
777.9141466344411
 20
58.70095479669457
 10
777.5257108369103
 20
57.50868840053504
 10
777.5257108369103
 20
57.50868840053504
 10
777.5257108369103
 20
57.50868840053504
 10
778.7993600970385
 20
57.50868840053504
 10
778.7993600970385
 20
57.50868840053504
 10
778.7993600970385
 20
57.50868840053504
 10
778.6012739085779
 20
56.75829971184702
 10
778.6012739085779
 20
56.75829971184702
 10
778.6012739085779
 20
56.75829971184702
 10
777.3172397784224
 20
56.75829971184702
 10
777.3172397784224
 20
56.75829971184702
 10
777.3172397784224
 20
56.75829971184702
 10
775.0198625285398
 20
49.34344300010187
 10
775.0198625285398
 20
49.34344300010187
 10
775.0198625285398
 20
49.34344300010187
 10
774.3005689377851
 20
49.34344300010187
 10
774.3005689377851
 20
49.34344300010187
 10
774.3005689377851
 20
49.34344300010187
 10
776.6000291128878
 20
56.75829971184702
 10
776.6000291128878
 20
56.75829971184702
 10
776.6000291128878
 20
56.75829971184702
 10
775.6525361862005
 20
56.75829971184702
 10
775.6525361862005
 20
56.75829971184702
 10
775.6525361862005
 20
56.75829971184702
 10
775.8511579840033
 20
57.50868840053504
 10
775.8511579840033
 20
57.50868840053504
 10
775.8511579840033
 20
57.50868840053504
 10
776.8085001713757
 20
57.50868840053504
 10
776.8085001713757
 20
57.50868840053504
 10
776.8085001713757
 20
57.50868840053504
 10
777.1471243000644
 20
58.54848467056097
 10
777.1471243000644
 20
58.54848467056097
 10
777.4209396983238
 20
59.4202483874494
 10
777.6532751286227
 20
59.88828168447431
 10
777.852432535768
 20
60.24115897288539
 10
778.0494772616182
 20
60.59433382204227
 10
778.439460375027
 20
60.94125989553794
 10
778.8439644528296
 20
61.05769541535855
 97
        1
330
3CEF
 92
        1
 93
        1
 72
     4
 94
        3
 73
     0
 74
     1
 95
       32
 96
       28
 40
0.0
 40
0.0
 40
0.0
 40
0.0
 40
1.0
 40
1.0
 40
1.0
 40
2.0
 40
2.0
 40
2.0
 40
3.0
 40
3.0
 40
3.0
 40
4.0
 40
4.0
 40
4.0
 40
5.0
 40
5.0
 40
5.0
 40
6.0
 40
6.0
 40
6.0
 40
7.0
 40
7.0
 40
7.0
 40
8.0
 40
8.0
 40
8.0
 40
9.0
 40
9.0
 40
9.0
 40
9.0
 10
780.5941870033864
 20
57.0552058239784
 10
780.161176606139
 20
56.49510723221162
 10
779.8277300344266
 20
55.99103932887373
 10
779.2878953294471
 20
54.40673665015949
 10
778.7915937615737
 20
52.95755630610032
 10
778.4757627860113
 20
51.90323907168072
 10
778.4280637984641
 20
50.61920494152507
 10
778.3917613874798
 20
49.66367787470179
 10
778.9736116697625
 20
49.34344300010187
 10
779.8267183278911
 20
49.34344300010187
 10
780.1943843853671
 20
49.34344300010187
 10
781.1221787906843
 20
49.36683127471956
 10
781.7828826705968
 20
50.18357600971474
 10
782.2454110938247
 20
50.75739215186162
 10
782.671696618218
 20
51.35221608265999
 10
783.2431917865476
 20
53.30344091698579
 10
783.7187533704407
 20
54.93466892530829
 10
784.048034091712
 20
55.98895640365332
 10
784.0236936227079
 20
56.58922569609933
 10
784.0236936227079
 20
56.58922569609933
 10
784.0236936227079
 20
56.58922569609933
 10
784.0236936227079
 20
56.58922569609933
 10
783.8686049620114
 20
57.59063662992067
 10
783.141545035792
 20
57.80223207623919
 10
782.7261502346942
 20
57.80223207623919
 10
782.3170042092574
 20
57.80223207623919
 10
781.2206713975349
 20
57.87302177765837
 10
780.5941870033864
 20
57.0552058239784
 97
        1
330
3CF2
 92
        1
 93
        1
 72
     4
 94
        3
 73
     0
 74
     1
 95
       38
 96
       34
 40
0.0
 40
0.0
 40
0.0
 40
0.0
 40
1.0
 40
1.0
 40
1.0
 40
2.0
 40
2.0
 40
2.0
 40
3.0
 40
3.0
 40
3.0
 40
4.0
 40
4.0
 40
4.0
 40
5.0
 40
5.0
 40
5.0
 40
6.0
 40
6.0
 40
6.0
 40
7.0
 40
7.0
 40
7.0
 40
8.0
 40
8.0
 40
8.0
 40
9.0
 40
9.0
 40
9.0
 40
10.0
 40
10.0
 40
10.0
 40
11.0
 40
11.0
 40
11.0
 40
11.0
 10
786.6534759816923
 20
57.47991427641887
 10
786.6534759816923
 20
57.47991427641887
 10
787.392973947085
 20
57.47991427641887
 10
787.392973947085
 20
57.47991427641887
 10
787.392973947085
 20
57.47991427641887
 10
787.062622007129
 20
56.42223460557204
 10
787.062622007129
 20
56.42223460557204
 10
787.3136442522623
 20
56.71914071770341
 10
787.7098166291833
 20
57.11456919275992
 10
788.0500475858989
 20
57.31396464850179
 10
788.5582813396777
 20
57.61087076063316
 10
788.8487006275511
 20
57.65002975477677
 10
789.168102332063
 20
57.64223366323755
 10
789.168102332063
 20
57.64223366323755
 10
788.855961109748
 20
56.64213199669759
 10
788.855961109748
 20
56.64213199669759
 10
788.6526676082365
 20
56.72821632044946
 10
788.026183214088
 20
56.56434961775278
 10
787.6667893453446
 20
56.305828841826
 10
787.3426861810497
 20
56.07271975358816
 10
787.1186229394832
 20
55.8743657604565
 10
786.8531392421053
 20
55.37571346269166
 10
786.5896789577987
 20
54.87631726306238
 10
786.3817435086532
 20
54.08001495130175
 10
786.0238969557877
 20
52.92482462406541
 10
786.0238969557877
 20
52.92482462406541
 10
784.906318306817
 20
49.34344300010187
 10
784.906318306817
 20
49.34344300010187
 10
784.906318306817
 20
49.34344300010187
 10
784.1886017880147
 20
49.34344300010187
 10
784.1886017880147
 20
49.34344300010187
 10
784.1886017880147
 20
49.34344300010187
 10
786.6534759816923
 20
57.47991427641887
 10
786.6534759816923
 20
57.47991427641887
 97
        1
330
3CF0
 92
        1
 93
        1
 72
     4
 94
        3
 73
     0
 74
     1
 95
      104
 96
      100
 40
0.0
 40
0.0
 40
0.0
 40
0.0
 40
1.0
 40
1.0
 40
1.0
 40
2.0
 40
2.0
 40
2.0
 40
3.0
 40
3.0
 40
3.0
 40
4.0
 40
4.0
 40
4.0
 40
5.0
 40
5.0
 40
5.0
 40
6.0
 40
6.0
 40
6.0
 40
7.0
 40
7.0
 40
7.0
 40
8.0
 40
8.0
 40
8.0
 40
9.0
 40
9.0
 40
9.0
 40
10.0
 40
10.0
 40
10.0
 40
11.0
 40
11.0
 40
11.0
 40
12.0
 40
12.0
 40
12.0
 40
13.0
 40
13.0
 40
13.0
 40
14.0
 40
14.0
 40
14.0
 40
15.0
 40
15.0
 40
15.0
 40
16.0
 40
16.0
 40
16.0
 40
17.0
 40
17.0
 40
17.0
 40
18.0
 40
18.0
 40
18.0
 40
19.0
 40
19.0
 40
19.0
 40
20.0
 40
20.0
 40
20.0
 40
21.0
 40
21.0
 40
21.0
 40
22.0
 40
22.0
 40
22.0
 40
23.0
 40
23.0
 40
23.0
 40
24.0
 40
24.0
 40
24.0
 40
25.0
 40
25.0
 40
25.0
 40
26.0
 40
26.0
 40
26.0
 40
27.0
 40
27.0
 40
27.0
 40
28.0
 40
28.0
 40
28.0
 40
29.0
 40
29.0
 40
29.0
 40
30.0
 40
30.0
 40
30.0
 40
31.0
 40
31.0
 40
31.0
 40
32.0
 40
32.0
 40
32.0
 40
33.0
 40
33.0
 40
33.0
 40
33.0
 10
790.7239284474067
 20
57.48431817545629
 10
790.7239284474067
 20
57.48431817545629
 10
791.3695757535829
 20
57.48431817545629
 10
791.3695757535829
 20
57.48431817545629
 10
791.3695757535829
 20
57.48431817545629
 10
791.0433896640677
 20
56.42562679807384
 10
791.0433896640677
 20
56.42562679807384
 10
791.3264889575953
 20
56.86952791861661
 10
791.5806058344847
 20
57.06737605848048
 10
791.9182182566376
 20
57.32304025124783
 10
792.2568423853263
 20
57.57507420291678
 10
792.6587874407151
 20
57.62643318763705
 10
792.937780395951
 20
57.62643318763705
 10
793.2831889096433
 20
57.62643318763705
 10
793.6166354813554
 20
57.55823226470609
 10
793.7918987606151
 20
57.17964572786029
 10
793.9262176812567
 20
56.88276937180346
 10
793.9324664569178
 20
56.8477464720261
 10
793.8940811207133
 20
56.26173033930257
 10
794.2451432885753
 20
56.86253524109098
 10
794.504437722441
 20
57.12132382168895
 10
794.9452442112276
 20
57.36996558085609
 10
795.407832146605
 20
57.62643318763705
 10
795.6774816944237
 20
57.64562585573935
 10
795.9907536475725
 20
57.59944442799551
 10
796.4522703642649
 20
57.53127326113913
 10
796.7468555025794
 20
57.36660314442886
 10
796.9008729445909
 20
56.86616548218939
 10
797.0554259959449
 20
56.36727513582792
 10
796.9719304506814
 20
56.09967875715512
 10
796.7810749883431
 20
55.30545937061487
 10
796.693949201981
 20
54.94374452805434
 10
796.5679024700721
 20
54.50576486635242
 10
796.4029943047651
 20
53.98461697620721
 10
796.4029943047651
 20
53.98461697620721
 10
794.9452442112276
 20
49.34344300010187
 10
794.9452442112276
 20
49.34344300010187
 10
794.9452442112276
 20
49.34344300010187
 10
794.1870594310005
 20
49.34344300010187
 10
794.1870594310005
 20
49.34344300010187
 10
794.1870594310005
 20
49.34344300010187
 10
795.4633569817661
 20
53.40092181730071
 10
795.4633569817661
 20
53.40092181730071
 10
795.7299118978287
 20
54.24986262498844
 10
795.9103527340649
 20
54.86983043880454
 10
796.0037272960881
 20
55.25853404100661
 10
796.1209067177731
 20
55.7434092762422
 10
796.1675642427103
 20
55.90340768924385
 10
796.1120989196984
 20
56.25631473372954
 10
796.0612755443206
 20
56.58482179706189
 10
795.8952961603288
 20
56.79873821719745
 10
795.6111256481165
 20
56.79873821719745
 10
795.3082683210696
 20
56.79873821719745
 10
795.0629592422551
 20
56.76502458470146
 10
794.7196931659325
 20
56.4201814364262
 10
794.3763675774608
 20
56.07271975358816
 10
794.0926731624415
 20
55.66485323935839
 10
793.8702167489023
 20
55.19577847972329
 10
793.6482364325564
 20
54.72384713692878
 10
793.4231614844543
 20
54.12566076970317
 10
793.1949919045965
 20
53.40092181730071
 10
793.1949919045965
 20
53.40092181730071
 10
791.9182182566376
 20
49.34344300010187
 10
791.9182182566376
 20
49.34344300010187
 10
791.9182182566376
 20
49.34344300010187
 10
791.2051436854695
 20
49.34344300010187
 10
791.2051436854695
 20
49.34344300010187
 10
791.2051436854695
 20
49.34344300010187
 10
792.6649767042272
 20
53.98253405098681
 10
792.6649767042272
 20
53.98253405098681
 10
792.8189941462388
 20
54.47624684037184
 10
792.9346857641949
 20
54.87866799295399
 10
793.0109208272618
 20
55.19318970123506
 10
793.1405382881201
 20
55.73460147816736
 10
793.1768406991043
 20
56.10072021976531
 10
793.078824189447
 20
56.42562679807384
 10
792.9823549956677
 20
56.74949191377216
 10
792.8128048827268
 20
56.8322138010968
 10
792.5296460770501
 20
56.8322138010968
 10
792.2921330897748
 20
56.8322138010968
 10
792.0603332688183
 20
56.73029924566987
 10
791.7958612779762
 20
56.5275115974262
 10
791.4628908034572
 20
56.27238301400122
 10
791.3296431015003
 20
56.0628704929031
 10
791.1662822520716
 20
55.81393117299019
 10
790.9458492516037
 20
55.48462069564424
 10
790.8426551849698
 20
55.26293794004404
 10
790.6565011824148
 20
54.77648563285584
 10
790.4702876677106
 20
54.28717674250827
 10
790.2940126819153
 20
53.71776449939881
 10
790.1710605817623
 20
53.32391309629489
 10
790.1710605817623
 20
53.32391309629489
 10
788.9186869149569
 20
49.34344300010187
 10
788.9186869149569
 20
49.34344300010187
 10
788.9186869149569
 20
49.34344300010187
 10
788.1719284673673
 20
49.34344300010187
 10
788.1719284673673
 20
49.34344300010187
 10
788.1719284673673
 20
49.34344300010187
 10
790.7239284474067
 20
57.48431817545629
 10
790.7239284474067
 20
57.48431817545629
 97
        1
330
3CF1
 92
       16
 93
        1
 72
     4
 94
        3
 73
     0
 74
     1
 95
       29
 96
       25
 40
0.0
 40
0.0
 40
0.0
 40
0.0
 40
1.0
 40
1.0
 40
1.0
 40
2.0
 40
2.0
 40
2.0
 40
3.0
 40
3.0
 40
3.0
 40
4.0
 40
4.0
 40
4.0
 40
5.0
 40
5.0
 40
5.0
 40
6.0
 40
6.0
 40
6.0
 40
7.0
 40
7.0
 40
7.0
 40
8.0
 40
8.0
 40
8.0
 40
8.0
 10
779.2028524683053
 20
50.85927695121397
 10
779.1996983244003
 20
51.42613017190976
 10
779.3786513569075
 20
52.43325427204994
 10
779.837073441844
 20
53.78078786535333
 10
780.461474910772
 20
55.60546011450228
 10
780.8359253532517
 20
56.27238301400122
 10
781.1635992464958
 20
56.59702178763855
 10
781.6423149742939
 20
57.06972678837207
 10
782.2858793552498
 20
57.09329359943722
 10
782.4757231110525
 20
57.06972678837207
 10
782.7459082682135
 20
57.03729266708291
 10
783.1275596807407
 20
56.86045231587057
 10
783.1503528338669
 20
56.26512253180438
 10
783.168563551508
 20
55.75560926681887
 10
783.0217470795442
 20
54.80139146727697
 10
782.5078596715957
 20
53.30344091698579
 10
781.915594763211
 20
51.5627700663683
 10
781.5598311355659
 20
50.87849937539085
 10
781.274648916818
 20
50.58028399597808
 10
780.7373732342519
 20
50.02122686682151
 10
780.161176606139
 20
50.07490682535878
 10
780.0761337449972
 20
50.07490682535878
 10
779.9656791961665
 20
50.07490682535878
 10
779.2043997841834
 20
50.19476429375578
 10
779.2028524683053
 20
50.85927695121397
 97
        1
330
3CF3
 75
     0
 76
     1
 98
        1
 10
743.7703305683026
 20
29.00832017048585
1001
ACAD
1010
0.0
1020
0.0
1030
0.0
  0
POLYLINE
  5
3CE4
102
{ACAD_REACTORS
330
3CE3
330
3CF4
102
}
330
A
100
AcDbEntity
  8
TEMPLATE
100
AcDb2dPolyline
 66
     1
 10
0.0
 20
0.0
 30
0.0
  0
VERTEX
  5
3CE5
330
3CE4
100
AcDbEntity
  8
TEMPLATE
100
AcDbVertex
100
AcDb2dVertex
 10
773.8270902791126
 20
61.34344299952348
 30
0.0
  0
VERTEX
  5
3CE6
330
3CE4
100
AcDbEntity
  8
TEMPLATE
100
AcDbVertex
100
AcDb2dVertex
 10
773.8270902791126
 20
58.97967994725929
 30
0.0
  0
VERTEX
  5
3CE7
330
3CE4
100
AcDbEntity
  8
TEMPLATE
100
AcDbVertex
100
AcDb2dVertex
 10
770.0828536589879
 20
58.97967994725929
 30
0.0
  0
VERTEX
  5
3CE8
330
3CE4
100
AcDbEntity
  8
TEMPLATE
100
AcDbVertex
100
AcDb2dVertex
 10
770.0828536589879
 20
49.34344300010187
 30
0.0
  0
VERTEX
  5
3CE9
330
3CE4
100
AcDbEntity
  8
TEMPLATE
100
AcDbVertex
100
AcDb2dVertex
 10
766.7898083976775
 20
49.34344300010187
 30
0.0
  0
VERTEX
  5
3CEA
330
3CE4
100
AcDbEntity
  8
TEMPLATE
100
AcDbVertex
100
AcDb2dVertex
 10
766.7898083976775
 20
58.97967994725929
 30
0.0
  0
VERTEX
  5
3CEB
330
3CE4
100
AcDbEntity
  8
TEMPLATE
100
AcDbVertex
100
AcDb2dVertex
 10
763.1119278238602
 20
58.97967994725929
 30
0.0
  0
VERTEX
  5
3CEC
330
3CE4
100
AcDbEntity
  8
TEMPLATE
100
AcDbVertex
100
AcDb2dVertex
 10
763.1119278238602
 20
61.34344299952348
 30
0.0
  0
VERTEX
  5
3CED
330
3CE4
100
AcDbEntity
  8
TEMPLATE
100
AcDbVertex
100
AcDb2dVertex
 10
773.8270902791126
 20
61.34344299952348
 30
0.0
  0
SEQEND
  5
3CEE
330
3CE4
100
AcDbEntity
  8
TEMPLATE
  0
SPLINE
  5
3CEF
102
{ACAD_REACTORS
330
3CE3
330
3CF4
102
}
330
A
100
AcDbEntity
  8
TEMPLATE
100
AcDbSpline
210
0.0
220
0.0
230
1.0
 70
    11
 71
     3
 72
    56
 73
    52
 74
     0
 42
0.000000001
 43
0.0000000001
 40
0.0
 40
0.0
 40
0.0
 40
0.0
 40
1.0
 40
1.0
 40
1.0
 40
2.0
 40
2.0
 40
2.0
 40
3.0
 40
3.0
 40
3.0
 40
4.0
 40
4.0
 40
4.0
 40
5.0
 40
5.0
 40
5.0
 40
6.0
 40
6.0
 40
6.0
 40
7.0
 40
7.0
 40
7.0
 40
8.0
 40
8.0
 40
8.0
 40
9.0
 40
9.0
 40
9.0
 40
10.0
 40
10.0
 40
10.0
 40
11.0
 40
11.0
 40
11.0
 40
12.0
 40
12.0
 40
12.0
 40
13.0
 40
13.0
 40
13.0
 40
14.0
 40
14.0
 40
14.0
 40
15.0
 40
15.0
 40
15.0
 40
16.0
 40
16.0
 40
16.0
 40
17.0
 40
17.0
 40
17.0
 40
17.0
 10
778.8439644528296
 20
61.05769541535855
 30
0.0
 10
779.3055109255968
 20
61.18761043696263
 30
0.0
 10
779.9013465629307
 20
61.07894125260667
 30
0.0
 10
779.9013465629307
 20
61.07894125260667
 30
0.0
 10
779.9013465629307
 20
61.07894125260667
 30
0.0
 10
779.6150931254979
 20
60.21991313563727
 30
0.0
 10
779.6150931254979
 20
60.21991313563727
 30
0.0
 10
779.6150931254979
 20
60.21991313563727
 30
0.0
 10
779.0301482114592
 20
60.35527351888899
 30
0.0
 10
778.5789866087196
 20
59.9995098912439
 30
0.0
 10
778.2284005380509
 20
59.72129059394702
 30
0.0
 10
778.0012724208032
 20
58.98203067715087
 30
0.0
 10
777.9141466344411
 20
58.70095479669457
 30
0.0
 10
777.9141466344411
 20
58.70095479669457
 30
0.0
 10
777.5257108369103
 20
57.50868840053504
 30
0.0
 10
777.5257108369103
 20
57.50868840053504
 30
0.0
 10
777.5257108369103
 20
57.50868840053504
 30
0.0
 10
778.7993600970385
 20
57.50868840053504
 30
0.0
 10
778.7993600970385
 20
57.50868840053504
 30
0.0
 10
778.7993600970385
 20
57.50868840053504
 30
0.0
 10
778.6012739085779
 20
56.75829971184702
 30
0.0
 10
778.6012739085779
 20
56.75829971184702
 30
0.0
 10
778.6012739085779
 20
56.75829971184702
 30
0.0
 10
777.3172397784224
 20
56.75829971184702
 30
0.0
 10
777.3172397784224
 20
56.75829971184702
 30
0.0
 10
777.3172397784224
 20
56.75829971184702
 30
0.0
 10
775.0198625285398
 20
49.34344300010187
 30
0.0
 10
775.0198625285398
 20
49.34344300010187
 30
0.0
 10
775.0198625285398
 20
49.34344300010187
 30
0.0
 10
774.3005689377851
 20
49.34344300010187
 30
0.0
 10
774.3005689377851
 20
49.34344300010187
 30
0.0
 10
774.3005689377851
 20
49.34344300010187
 30
0.0
 10
776.6000291128878
 20
56.75829971184702
 30
0.0
 10
776.6000291128878
 20
56.75829971184702
 30
0.0
 10
776.6000291128878
 20
56.75829971184702
 30
0.0
 10
775.6525361862005
 20
56.75829971184702
 30
0.0
 10
775.6525361862005
 20
56.75829971184702
 30
0.0
 10
775.6525361862005
 20
56.75829971184702
 30
0.0
 10
775.8511579840033
 20
57.50868840053504
 30
0.0
 10
775.8511579840033
 20
57.50868840053504
 30
0.0
 10
775.8511579840033
 20
57.50868840053504
 30
0.0
 10
776.8085001713757
 20
57.50868840053504
 30
0.0
 10
776.8085001713757
 20
57.50868840053504
 30
0.0
 10
776.8085001713757
 20
57.50868840053504
 30
0.0
 10
777.1471243000644
 20
58.54848467056097
 30
0.0
 10
777.1471243000644
 20
58.54848467056097
 30
0.0
 10
777.4209396983238
 20
59.4202483874494
 30
0.0
 10
777.6532751286227
 20
59.88828168447431
 30
0.0
 10
777.852432535768
 20
60.24115897288539
 30
0.0
 10
778.0494772616182
 20
60.59433382204227
 30
0.0
 10
778.439460375027
 20
60.94125989553794
 30
0.0
 10
778.8439644528296
 20
61.05769541535855
 30
0.0
  0
SPLINE
  5
3CF0
102
{ACAD_REACTORS
330
3CE3
330
3CF4
102
}
330
A
100
AcDbEntity
  8
TEMPLATE
100
AcDbSpline
210
0.0
220
0.0
230
1.0
 70
    11
 71
     3
 72
    38
 73
    34
 74
     0
 42
0.000000001
 43
0.0000000001
 40
0.0
 40
0.0
 40
0.0
 40
0.0
 40
1.0
 40
1.0
 40
1.0
 40
2.0
 40
2.0
 40
2.0
 40
3.0
 40
3.0
 40
3.0
 40
4.0
 40
4.0
 40
4.0
 40
5.0
 40
5.0
 40
5.0
 40
6.0
 40
6.0
 40
6.0
 40
7.0
 40
7.0
 40
7.0
 40
8.0
 40
8.0
 40
8.0
 40
9.0
 40
9.0
 40
9.0
 40
10.0
 40
10.0
 40
10.0
 40
11.0
 40
11.0
 40
11.0
 40
11.0
 10
786.6534759816923
 20
57.47991427641887
 30
0.0
 10
786.6534759816923
 20
57.47991427641887
 30
0.0
 10
787.392973947085
 20
57.47991427641887
 30
0.0
 10
787.392973947085
 20
57.47991427641887
 30
0.0
 10
787.392973947085
 20
57.47991427641887
 30
0.0
 10
787.062622007129
 20
56.42223460557204
 30
0.0
 10
787.062622007129
 20
56.42223460557204
 30
0.0
 10
787.3136442522623
 20
56.71914071770341
 30
0.0
 10
787.7098166291833
 20
57.11456919275992
 30
0.0
 10
788.0500475858989
 20
57.31396464850179
 30
0.0
 10
788.5582813396777
 20
57.61087076063316
 30
0.0
 10
788.8487006275511
 20
57.65002975477677
 30
0.0
 10
789.168102332063
 20
57.64223366323755
 30
0.0
 10
789.168102332063
 20
57.64223366323755
 30
0.0
 10
788.855961109748
 20
56.64213199669759
 30
0.0
 10
788.855961109748
 20
56.64213199669759
 30
0.0
 10
788.6526676082365
 20
56.72821632044946
 30
0.0
 10
788.026183214088
 20
56.56434961775278
 30
0.0
 10
787.6667893453446
 20
56.305828841826
 30
0.0
 10
787.3426861810497
 20
56.07271975358816
 30
0.0
 10
787.1186229394832
 20
55.8743657604565
 30
0.0
 10
786.8531392421053
 20
55.37571346269166
 30
0.0
 10
786.5896789577987
 20
54.87631726306238
 30
0.0
 10
786.3817435086532
 20
54.08001495130175
 30
0.0
 10
786.0238969557877
 20
52.92482462406541
 30
0.0
 10
786.0238969557877
 20
52.92482462406541
 30
0.0
 10
784.906318306817
 20
49.34344300010187
 30
0.0
 10
784.906318306817
 20
49.34344300010187
 30
0.0
 10
784.906318306817
 20
49.34344300010187
 30
0.0
 10
784.1886017880147
 20
49.34344300010187
 30
0.0
 10
784.1886017880147
 20
49.34344300010187
 30
0.0
 10
784.1886017880147
 20
49.34344300010187
 30
0.0
 10
786.6534759816923
 20
57.47991427641887
 30
0.0
 10
786.6534759816923
 20
57.47991427641887
 30
0.0
  0
SPLINE
  5
3CF1
102
{ACAD_REACTORS
330
3CE3
330
3CF4
102
}
330
A
100
AcDbEntity
  8
TEMPLATE
100
AcDbSpline
210
0.0
220
0.0
230
1.0
 70
    11
 71
     3
 72
   104
 73
   100
 74
     0
 42
0.000000001
 43
0.0000000001
 40
0.0
 40
0.0
 40
0.0
 40
0.0
 40
1.0
 40
1.0
 40
1.0
 40
2.0
 40
2.0
 40
2.0
 40
3.0
 40
3.0
 40
3.0
 40
4.0
 40
4.0
 40
4.0
 40
5.0
 40
5.0
 40
5.0
 40
6.0
 40
6.0
 40
6.0
 40
7.0
 40
7.0
 40
7.0
 40
8.0
 40
8.0
 40
8.0
 40
9.0
 40
9.0
 40
9.0
 40
10.0
 40
10.0
 40
10.0
 40
11.0
 40
11.0
 40
11.0
 40
12.0
 40
12.0
 40
12.0
 40
13.0
 40
13.0
 40
13.0
 40
14.0
 40
14.0
 40
14.0
 40
15.0
 40
15.0
 40
15.0
 40
16.0
 40
16.0
 40
16.0
 40
17.0
 40
17.0
 40
17.0
 40
18.0
 40
18.0
 40
18.0
 40
19.0
 40
19.0
 40
19.0
 40
20.0
 40
20.0
 40
20.0
 40
21.0
 40
21.0
 40
21.0
 40
22.0
 40
22.0
 40
22.0
 40
23.0
 40
23.0
 40
23.0
 40
24.0
 40
24.0
 40
24.0
 40
25.0
 40
25.0
 40
25.0
 40
26.0
 40
26.0
 40
26.0
 40
27.0
 40
27.0
 40
27.0
 40
28.0
 40
28.0
 40
28.0
 40
29.0
 40
29.0
 40
29.0
 40
30.0
 40
30.0
 40
30.0
 40
31.0
 40
31.0
 40
31.0
 40
32.0
 40
32.0
 40
32.0
 40
33.0
 40
33.0
 40
33.0
 40
33.0
 10
790.7239284474067
 20
57.48431817545629
 30
0.0
 10
790.7239284474067
 20
57.48431817545629
 30
0.0
 10
791.3695757535829
 20
57.48431817545629
 30
0.0
 10
791.3695757535829
 20
57.48431817545629
 30
0.0
 10
791.3695757535829
 20
57.48431817545629
 30
0.0
 10
791.0433896640677
 20
56.42562679807384
 30
0.0
 10
791.0433896640677
 20
56.42562679807384
 30
0.0
 10
791.3264889575953
 20
56.86952791861661
 30
0.0
 10
791.5806058344847
 20
57.06737605848048
 30
0.0
 10
791.9182182566376
 20
57.32304025124783
 30
0.0
 10
792.2568423853263
 20
57.57507420291678
 30
0.0
 10
792.6587874407151
 20
57.62643318763705
 30
0.0
 10
792.937780395951
 20
57.62643318763705
 30
0.0
 10
793.2831889096433
 20
57.62643318763705
 30
0.0
 10
793.6166354813554
 20
57.55823226470609
 30
0.0
 10
793.7918987606151
 20
57.17964572786029
 30
0.0
 10
793.9262176812567
 20
56.88276937180346
 30
0.0
 10
793.9324664569178
 20
56.8477464720261
 30
0.0
 10
793.8940811207133
 20
56.26173033930257
 30
0.0
 10
794.2451432885753
 20
56.86253524109098
 30
0.0
 10
794.504437722441
 20
57.12132382168895
 30
0.0
 10
794.9452442112276
 20
57.36996558085609
 30
0.0
 10
795.407832146605
 20
57.62643318763705
 30
0.0
 10
795.6774816944237
 20
57.64562585573935
 30
0.0
 10
795.9907536475725
 20
57.59944442799551
 30
0.0
 10
796.4522703642649
 20
57.53127326113913
 30
0.0
 10
796.7468555025794
 20
57.36660314442886
 30
0.0
 10
796.9008729445909
 20
56.86616548218939
 30
0.0
 10
797.0554259959449
 20
56.36727513582792
 30
0.0
 10
796.9719304506814
 20
56.09967875715512
 30
0.0
 10
796.7810749883431
 20
55.30545937061487
 30
0.0
 10
796.693949201981
 20
54.94374452805434
 30
0.0
 10
796.5679024700721
 20
54.50576486635242
 30
0.0
 10
796.4029943047651
 20
53.98461697620721
 30
0.0
 10
796.4029943047651
 20
53.98461697620721
 30
0.0
 10
794.9452442112276
 20
49.34344300010187
 30
0.0
 10
794.9452442112276
 20
49.34344300010187
 30
0.0
 10
794.9452442112276
 20
49.34344300010187
 30
0.0
 10
794.1870594310005
 20
49.34344300010187
 30
0.0
 10
794.1870594310005
 20
49.34344300010187
 30
0.0
 10
794.1870594310005
 20
49.34344300010187
 30
0.0
 10
795.4633569817661
 20
53.40092181730071
 30
0.0
 10
795.4633569817661
 20
53.40092181730071
 30
0.0
 10
795.7299118978287
 20
54.24986262498844
 30
0.0
 10
795.9103527340649
 20
54.86983043880454
 30
0.0
 10
796.0037272960881
 20
55.25853404100661
 30
0.0
 10
796.1209067177731
 20
55.7434092762422
 30
0.0
 10
796.1675642427103
 20
55.90340768924385
 30
0.0
 10
796.1120989196984
 20
56.25631473372954
 30
0.0
 10
796.0612755443206
 20
56.58482179706189
 30
0.0
 10
795.8952961603288
 20
56.79873821719745
 30
0.0
 10
795.6111256481165
 20
56.79873821719745
 30
0.0
 10
795.3082683210696
 20
56.79873821719745
 30
0.0
 10
795.0629592422551
 20
56.76502458470146
 30
0.0
 10
794.7196931659325
 20
56.4201814364262
 30
0.0
 10
794.3763675774608
 20
56.07271975358816
 30
0.0
 10
794.0926731624415
 20
55.66485323935839
 30
0.0
 10
793.8702167489023
 20
55.19577847972329
 30
0.0
 10
793.6482364325564
 20
54.72384713692878
 30
0.0
 10
793.4231614844543
 20
54.12566076970317
 30
0.0
 10
793.1949919045965
 20
53.40092181730071
 30
0.0
 10
793.1949919045965
 20
53.40092181730071
 30
0.0
 10
791.9182182566376
 20
49.34344300010187
 30
0.0
 10
791.9182182566376
 20
49.34344300010187
 30
0.0
 10
791.9182182566376
 20
49.34344300010187
 30
0.0
 10
791.2051436854695
 20
49.34344300010187
 30
0.0
 10
791.2051436854695
 20
49.34344300010187
 30
0.0
 10
791.2051436854695
 20
49.34344300010187
 30
0.0
 10
792.6649767042272
 20
53.98253405098681
 30
0.0
 10
792.6649767042272
 20
53.98253405098681
 30
0.0
 10
792.8189941462388
 20
54.47624684037184
 30
0.0
 10
792.9346857641949
 20
54.87866799295399
 30
0.0
 10
793.0109208272618
 20
55.19318970123506
 30
0.0
 10
793.1405382881201
 20
55.73460147816736
 30
0.0
 10
793.1768406991043
 20
56.10072021976531
 30
0.0
 10
793.078824189447
 20
56.42562679807384
 30
0.0
 10
792.9823549956677
 20
56.74949191377216
 30
0.0
 10
792.8128048827268
 20
56.8322138010968
 30
0.0
 10
792.5296460770501
 20
56.8322138010968
 30
0.0
 10
792.2921330897748
 20
56.8322138010968
 30
0.0
 10
792.0603332688183
 20
56.73029924566987
 30
0.0
 10
791.7958612779762
 20
56.5275115974262
 30
0.0
 10
791.4628908034572
 20
56.27238301400122
 30
0.0
 10
791.3296431015003
 20
56.0628704929031
 30
0.0
 10
791.1662822520716
 20
55.81393117299019
 30
0.0
 10
790.9458492516037
 20
55.48462069564424
 30
0.0
 10
790.8426551849698
 20
55.26293794004404
 30
0.0
 10
790.6565011824148
 20
54.77648563285584
 30
0.0
 10
790.4702876677106
 20
54.28717674250827
 30
0.0
 10
790.2940126819153
 20
53.71776449939881
 30
0.0
 10
790.1710605817623
 20
53.32391309629489
 30
0.0
 10
790.1710605817623
 20
53.32391309629489
 30
0.0
 10
788.9186869149569
 20
49.34344300010187
 30
0.0
 10
788.9186869149569
 20
49.34344300010187
 30
0.0
 10
788.9186869149569
 20
49.34344300010187
 30
0.0
 10
788.1719284673673
 20
49.34344300010187
 30
0.0
 10
788.1719284673673
 20
49.34344300010187
 30
0.0
 10
788.1719284673673
 20
49.34344300010187
 30
0.0
 10
790.7239284474067
 20
57.48431817545629
 30
0.0
 10
790.7239284474067
 20
57.48431817545629
 30
0.0
  0
SPLINE
  5
3CF2
102
{ACAD_REACTORS
330
3CE3
330
3CF4
102
}
330
A
100
AcDbEntity
  8
TEMPLATE
100
AcDbSpline
210
0.0
220
0.0
230
1.0
 70
    11
 71
     3
 72
    32
 73
    28
 74
     0
 42
0.000000001
 43
0.0000000001
 40
0.0
 40
0.0
 40
0.0
 40
0.0
 40
1.0
 40
1.0
 40
1.0
 40
2.0
 40
2.0
 40
2.0
 40
3.0
 40
3.0
 40
3.0
 40
4.0
 40
4.0
 40
4.0
 40
5.0
 40
5.0
 40
5.0
 40
6.0
 40
6.0
 40
6.0
 40
7.0
 40
7.0
 40
7.0
 40
8.0
 40
8.0
 40
8.0
 40
9.0
 40
9.0
 40
9.0
 40
9.0
 10
780.5941870033864
 20
57.0552058239784
 30
0.0
 10
780.161176606139
 20
56.49510723221162
 30
0.0
 10
779.8277300344266
 20
55.99103932887373
 30
0.0
 10
779.2878953294471
 20
54.40673665015949
 30
0.0
 10
778.7915937615737
 20
52.95755630610032
 30
0.0
 10
778.4757627860113
 20
51.90323907168072
 30
0.0
 10
778.4280637984641
 20
50.61920494152507
 30
0.0
 10
778.3917613874798
 20
49.66367787470179
 30
0.0
 10
778.9736116697625
 20
49.34344300010187
 30
0.0
 10
779.8267183278911
 20
49.34344300010187
 30
0.0
 10
780.1943843853671
 20
49.34344300010187
 30
0.0
 10
781.1221787906843
 20
49.36683127471956
 30
0.0
 10
781.7828826705968
 20
50.18357600971474
 30
0.0
 10
782.2454110938247
 20
50.75739215186162
 30
0.0
 10
782.671696618218
 20
51.35221608265999
 30
0.0
 10
783.2431917865476
 20
53.30344091698579
 30
0.0
 10
783.7187533704407
 20
54.93466892530829
 30
0.0
 10
784.048034091712
 20
55.98895640365332
 30
0.0
 10
784.0236936227079
 20
56.58922569609933
 30
0.0
 10
784.0236936227079
 20
56.58922569609933
 30
0.0
 10
784.0236936227079
 20
56.58922569609933
 30
0.0
 10
784.0236936227079
 20
56.58922569609933
 30
0.0
 10
783.8686049620114
 20
57.59063662992067
 30
0.0
 10
783.141545035792
 20
57.80223207623919
 30
0.0
 10
782.7261502346942
 20
57.80223207623919
 30
0.0
 10
782.3170042092574
 20
57.80223207623919
 30
0.0
 10
781.2206713975349
 20
57.87302177765837
 30
0.0
 10
780.5941870033864
 20
57.0552058239784
 30
0.0
  0
SPLINE
  5
3CF3
102
{ACAD_REACTORS
330
3CE3
330
3CF4
102
}
330
A
100
AcDbEntity
  8
TEMPLATE
100
AcDbSpline
210
0.0
220
0.0
230
1.0
 70
    11
 71
     3
 72
    29
 73
    25
 74
     0
 42
0.000000001
 43
0.0000000001
 40
0.0
 40
0.0
 40
0.0
 40
0.0
 40
1.0
 40
1.0
 40
1.0
 40
2.0
 40
2.0
 40
2.0
 40
3.0
 40
3.0
 40
3.0
 40
4.0
 40
4.0
 40
4.0
 40
5.0
 40
5.0
 40
5.0
 40
6.0
 40
6.0
 40
6.0
 40
7.0
 40
7.0
 40
7.0
 40
8.0
 40
8.0
 40
8.0
 40
8.0
 10
779.2028524683053
 20
50.85927695121397
 30
0.0
 10
779.1996983244003
 20
51.42613017190976
 30
0.0
 10
779.3786513569075
 20
52.43325427204994
 30
0.0
 10
779.837073441844
 20
53.78078786535333
 30
0.0
 10
780.461474910772
 20
55.60546011450228
 30
0.0
 10
780.8359253532517
 20
56.27238301400122
 30
0.0
 10
781.1635992464958
 20
56.59702178763855
 30
0.0
 10
781.6423149742939
 20
57.06972678837207
 30
0.0
 10
782.2858793552498
 20
57.09329359943722
 30
0.0
 10
782.4757231110525
 20
57.06972678837207
 30
0.0
 10
782.7459082682135
 20
57.03729266708291
 30
0.0
 10
783.1275596807407
 20
56.86045231587057
 30
0.0
 10
783.1503528338669
 20
56.26512253180438
 30
0.0
 10
783.168563551508
 20
55.75560926681887
 30
0.0
 10
783.0217470795442
 20
54.80139146727697
 30
0.0
 10
782.5078596715957
 20
53.30344091698579
 30
0.0
 10
781.915594763211
 20
51.5627700663683
 30
0.0
 10
781.5598311355659
 20
50.87849937539085
 30
0.0
 10
781.274648916818
 20
50.58028399597808
 30
0.0
 10
780.7373732342519
 20
50.02122686682151
 30
0.0
 10
780.161176606139
 20
50.07490682535878
 30
0.0
 10
780.0761337449972
 20
50.07490682535878
 30
0.0
 10
779.9656791961665
 20
50.07490682535878
 30
0.0
 10
779.2043997841834
 20
50.19476429375578
 30
0.0
 10
779.2028524683053
 20
50.85927695121397
 30
0.0
  0
MTEXT
  5
3DB7
102
{ACAD_XDICTIONARY
360
3DB8
102
}
330
A
100
AcDbEntity
  8
TEMPLATE
100
AcDbMText
 10
29.38137849384168
 20
35.9671265159328
 30
0.0
 40
8.0
 41
0.0
 46
8.0
 71
     1
 72
     1
  1
{20190307N}
  7
ＭＳ ゴシック
 73
     1
 44
1.0
1001
ACAD
1000
ACAD_MTEXT_DEFINED_HEIGHT_BEGIN
1070
    46
1040
8.0
1000
ACAD_MTEXT_DEFINED_HEIGHT_END
  0
MTEXT
  5
48EC
330
A
100
AcDbEntity
  8
TEMPLATE
390
1D
100
AcDbMText
 10
54.57431754310119
 20
125.6433609399583
 30
0.0
 40
9.773046875
 41
0.0
 46
11.405145703125
 71
     1
 72
     1
  1
{スライドシャワーバー　-GROHE, ShowerSystem-}
  7
ＭＳ ゴシック
 73
     1
 44
0.7828267384257843
1001
ACAD
1000
ACAD_MTEXT_DEFINED_HEIGHT_BEGIN
1070
    46
1040
11.405145703125
1000
ACAD_MTEXT_DEFINED_HEIGHT_END
  0
MTEXT
  5
48ED
330
A
100
AcDbEntity
  8
TEMPLATE
390
1D
100
AcDbMText
 10
533.374317543205
 20
125.6433609399583
 30
0.0
 40
9.773046875
 41
0.0
 46
9.773046875
 71
     1
 72
     1
  1
{FHT73-3335-001}
  7
ＭＳ ゴシック
 73
     1
 44
0.7828267384257843
1001
ACAD
1000
ACAD_MTEXT_DEFINED_HEIGHT_BEGIN
1070
    46
1040
9.773046875
1000
ACAD_MTEXT_DEFINED_HEIGHT_END
  0
TEXT
  5
4ECB
330
A
100
AcDbEntity
  8
Default
  6
Continuous
 62
     7
100
AcDbText
 10
923.192685230972
 20
515.5009729493377
 30
0.0
 40
10.0
  1
 
  7
SEACAD_seiso_ttf
 11
923.192685230972
 21
525.5009729493377
 31
0.0
100
AcDbText
 73
     3
  0
TEXT
  5
528A
330
A
100
AcDbEntity
  8
Default
  6
Continuous
 62
     7
100
AcDbText
 10
1007.074941804814
 20
391.4751332909553
 30
0.0
 40
10.0
  1
 
  7
SEACAD_seiso_ttf
 11
1007.074941804814
 21
401.4751332909553
 31
0.0
100
AcDbText
 73
     3
  0
LINE
  5
5CC1
330
A
100
AcDbEntity
  8
MODEL
100
AcDbLine
 10
581.3882424983981
 20
339.2592330584002
 30
0.0
 11
581.3882424983981
 21
302.0457407336003
 31
0.0
  0
INSERT
  5
5CC2
330
A
100
AcDbEntity
  8
MODEL
100
AcDbBlockReference
  2
SE_View_7
 10
132.0949730835982
 20
302.0457407336003
 30
0.0
  0
INSERT
  5
5CC3
330
A
100
AcDbEntity
  8
MODEL
100
AcDbBlockReference
  2
SE1_View_8
 10
581.3882424983981
 20
302.0457407336003
 30
0.0
  0
INSERT
  5
5CC4
330
A
100
AcDbEntity
  8
MODEL
100
AcDbBlockReference
  2
SE2_View_9
 10
132.0949730835982
 20
1018.7501182172
 30
0.0
  0
DIMENSION
  5
5CC5
330
A
100
AcDbEntity
  8
DIM
100
AcDbDimension
  2
*D5
 10
468.537788544
 20
320.6524868960003
 30
0.0
 11
468.537788544
 21
630.7545155100004
 31
0.0
 70
   161
  1
\A1;<>
 71
     5
 42
620.20407415
 73
     0
 74
     0
 75
     0
  3
tfrom線あり
100
AcDbAlignedDimension
 13
541.730642498398
 23
940.8565610460003
 33
0.0
 14
541.730642498398
 24
320.6524868960003
 34
0.0
  0
DIMENSION
  5
5CC6
330
A
100
AcDbEntity
  8
DIM
100
AcDbDimension
  2
*D6
 10
642.2882424983985
 20
245.4564332159997
 30
0.0
 11
611.8382419943986
 21
245.4564332159997
 31
0.0
 70
   160
  1
\A1;<>
 71
     5
 42
60.90000000000043
 73
     0
 74
     0
 75
     0
  3
tfrom線あり
100
AcDbAlignedDimension
 13
581.3882424983981
 23
298.3490404184003
 33
0.0
 14
642.2882424983985
 24
328.4800594559997
 34
0.0
100
AcDbRotatedDimension
  0
LINE
  5
5CE7
330
A
100
AcDbEntity
  8
MODEL
100
AcDbLine
 10
581.5891846687379
 20
196.0060498559995
 30
0.0
 11
581.5891846687379
 21
1043.503649855999
 31
0.0
  0
LINE
  5
5CE8
330
A
100
AcDbEntity
  8
MODEL
100
AcDbLine
 10
581.5891846687379
 20
1043.503649855999
 30
0.0
 11
560.4846685440003
 21
1014.127649856
 31
0.0
  0
LINE
  5
5CE9
330
A
100
AcDbEntity
  8
MODEL
100
AcDbLine
 10
581.5891846687379
 20
1017.652769856
 30
0.0
 11
560.4846685440003
 21
988.2767698559996
 31
0.0
  0
LINE
  5
5CEA
330
A
100
AcDbEntity
  8
MODEL
100
AcDbLine
 10
581.5891846687379
 20
989.4518098559995
 30
0.0
 11
560.4846685440003
 21
960.0758098559996
 31
0.0
  0
MTEXT
  5
5CFD
330
A
100
AcDbEntity
  8
TEMPLATE
390
1D
100
AcDbMText
 10
54.57431754310124
 20
89.54613213995829
 30
0.0
 40
9.773046875
 41
0.0
 46
9.919642578125
 71
     1
 72
     1
  1
{クローム}
  7
ＭＳ ゴシック
 73
     1
 44
0.7828267384257843
1001
ACAD
1000
ACAD_MTEXT_DEFINED_HEIGHT_BEGIN
1070
    46
1040
9.919642578125
1000
ACAD_MTEXT_DEFINED_HEIGHT_END
  0
VIEWPORT
  5
349
330
B
100
AcDbEntity
 67
     1
  8
0
100
AcDbViewport
 10
202.5
 20
128.5
 30
0.0
 40
486.0
 41
308.4
 68
     1
 69
     1
 12
202.5
 22
128.5
 13
0.0
 23
0.0
 14
0.5
 24
0.5
 15
0.0
 25
0.0
 16
0.0
 26
0.0
 36
1.0
 17
0.0
 27
0.0
 37
0.0
 42
50.0
 43
0.0
 44
0.0
 45
308.4
 50
0.0
 51
0.0
 72
   100
 90
   557152
  1

281
     0
 71
     1
 74
     0
110
0.0
120
0.0
130
0.0
111
1.0
121
0.0
131
0.0
112
0.0
122
1.0
132
0.0
 79
     0
146
0.0
170
     0
 61
     5
348
26C
292
     1
282
     1
141
0.0
142
0.0
 63
   256
  0
VIEWPORT
  5
34A
330
B
100
AcDbEntity
 67
     1
  8
0
100
AcDbViewport
 10
202.5
 20
128.5
 30
0.0
 40
324.0
 41
205.6
 68
     2
 69
     2
 12
986.6781359294573
 22
1427.077061889956
 13
0.0
 23
0.0
 14
0.5
 24
0.5
 15
0.0
 25
0.0
 16
0.0
 26
0.0
 36
1.0
 17
0.0
 27
0.0
 37
0.0
 42
50.0
 43
0.0
 44
0.0
 45
2890.021615685494
 50
0.0
 51
0.0
 72
   100
 90
   557152
  1

281
     0
 71
     1
 74
     0
110
0.0
120
0.0
130
0.0
111
1.0
121
0.0
131
0.0
112
0.0
122
1.0
132
0.0
 79
     0
146
0.0
170
     0
 61
     5
348
26C
292
     1
282
     1
141
0.0
142
0.0
 63
   256
  0
ENDSEC
  0
SECTION
  2
OBJECTS
  0
DICTIONARY
  5
19
330
0
100
AcDbDictionary
281
     1
  3
ACAD_COLOR
350
674
  3
ACAD_DETAILVIEWSTYLE
350
BBF
  3
ACAD_FIELDLIST
350
3BE4
  3
ACAD_GROUP
350
1A
  3
ACAD_IMAGE_VARS
350
27B
  3
ACAD_LAYOUT
350
1E
  3
ACAD_MATERIAL
350
263
  3
ACAD_MLEADERSTYLE
350
336
  3
ACAD_MLINESTYLE
350
1B
  3
ACAD_PLOTSETTINGS
350
22
  3
ACAD_PLOTSTYLENAME
350
1F
  3
ACAD_SCALELIST
350
241
  3
ACAD_SECTIONVIEWSTYLE
350
BC0
  3
ACAD_TABLESTYLE
350
278
  3
ACAD_VISUALSTYLE
350
267
  3
ACDB_RECOMPOSE_DATA
350
5D1C
  3
AcDbVariableDictionary
350
330
  3
APPDATA
350
27A
  3
DimOffsetDictionary
350
E38
  0
SUN
  5
904
330
15
100
AcDbSun
 90
        1
290
     0
 63
     7
421
 16777215
 40
1.0
291
     1
 91
  2455826
 92
 54000000
292
     0
 70
     2
 71
   256
280
     1
  0
DICTIONARY
  5
2E1
330
2
100
AcDbDictionary
280
     1
281
     1
  3
ACAD_LAYERSTATES
360
2E2
  3
ACLYDICTIONARY
360
DDE
  0
DICTIONARY
  5
3E3E
330
A
100
AcDbDictionary
280
     1
281
     1
  3
ACAD_SORTENTS
360
3E3F
  0
DICTIONARY
  5
3DB8
330
3DB7
100
AcDbDictionary
280
     1
281
     1
  3
ACAD_FIELD
360
5CFE
  0
DICTIONARY
  5
674
102
{ACAD_REACTORS
330
19
102
}
330
19
100
AcDbDictionary
281
     1
  0
DICTIONARY
  5
BBF
102
{ACAD_REACTORS
330
19
102
}
330
19
100
AcDbDictionary
281
     1
  0
FIELDLIST
  5
3BE4
102
{ACAD_REACTORS
330
19
102
}
330
19
100
AcDbIdSet
 90
        2
330
3DBB
330
3DBA
100
AcDbFieldList
  0
DICTIONARY
  5
1A
102
{ACAD_REACTORS
330
19
102
}
330
19
100
AcDbDictionary
281
     1
  3
*A1
350
3CF4
  0
RASTERVARIABLES
  5
27B
102
{ACAD_REACTORS
330
19
102
}
330
19
100
AcDbRasterVariables
 90
        0
 70
     1
 71
     1
 72
     1
  0
DICTIONARY
  5
1E
102
{ACAD_REACTORS
330
19
102
}
330
19
100
AcDbDictionary
281
     1
  3
Layout1
350
21
  3
Model
350
20
  0
DICTIONARY
  5
263
102
{ACAD_REACTORS
330
19
102
}
330
19
100
AcDbDictionary
281
     1
  3
ByBlock
350
265
  3
ByLayer
350
264
  3
Global
350
266
  0
DICTIONARY
  5
336
102
{ACAD_REACTORS
330
19
102
}
330
19
100
AcDbDictionary
281
     1
  3
Standard
350
D59
  0
DICTIONARY
  5
1B
102
{ACAD_REACTORS
330
19
102
}
330
19
100
AcDbDictionary
281
     1
  3
Standard
350
1C
  0
DICTIONARY
  5
22
102
{ACAD_REACTORS
330
19
102
}
330
19
100
AcDbDictionary
281
     1
  0
ACDBDICTIONARYWDFLT
  5
1F
102
{ACAD_REACTORS
330
19
102
}
330
19
100
AcDbDictionary
281
     1
  3
Normal
350
1D
100
AcDbDictionaryWithDefault
340
1D
  0
DICTIONARY
  5
241
102
{ACAD_REACTORS
330
19
102
}
330
19
100
AcDbDictionary
281
     1
  3
A0
350
242
  3
A1
350
243
  3
A2
350
244
  3
A3
350
245
  3
A4
350
246
  3
A5
350
247
  3
A6
350
248
  3
A7
350
249
  3
A8
350
24A
  3
A9
350
24B
  3
B0
350
24C
  3
B1
350
24D
  3
B2
350
24E
  3
B3
350
24F
  3
B4
350
250
  3
B5
350
251
  3
B6
350
252
  3
B7
350
253
  3
B8
350
254
  3
B9
350
255
  3
C0
350
256
  3
C1
350
257
  3
C2
350
258
  3
C3
350
259
  3
C4
350
25A
  3
C5
350
25B
  3
C6
350
25C
  3
C7
350
25D
  3
C8
350
25E
  3
C9
350
25F
  3
D0
350
260
  3
D1
350
261
  3
D2
350
262
  0
DICTIONARY
  5
BC0
102
{ACAD_REACTORS
330
19
102
}
330
19
100
AcDbDictionary
281
     1
  0
DICTIONARY
  5
278
102
{ACAD_REACTORS
330
19
102
}
330
19
100
AcDbDictionary
281
     1
  3
Standard
350
279
  0
DICTIONARY
  5
267
102
{ACAD_REACTORS
330
19
102
}
330
19
100
AcDbDictionary
281
     1
  3
2dWireframe
350
26C
  3
3D Hidden
350
26E
  3
3dWireframe
350
26D
  3
Basic
350
26F
  3
Brighten
350
273
  3
ColorChange
350
277
  3
Conceptual
350
271
  3
Dim
350
272
  3
EdgeColorOff
350
8FE
  3
Facepattern
350
276
  3
Flat
350
268
  3
FlatWithEdges
350
269
  3
Gouraud
350
26A
  3
GouraudWithEdges
350
26B
  3
Hidden
350
8FB
  3
JitterOff
350
8FC
  3
Linepattern
350
275
  3
OverhangOff
350
8FD
  3
Realistic
350
270
  3
Shaded
350
903
  3
Shaded with edges
350
902
  3
Shades of Gray
350
8FF
  3
Sketchy
350
900
  3
Thicken
350
274
  3
Wireframe
350
8FA
  3
X-Ray
350
901
  0
XRECORD
  5
5D1C
102
{ACAD_REACTORS
330
19
102
}
330
19
100
AcDbXrecord
280
     1
 90
        1
330
279
  0
DICTIONARY
  5
330
102
{ACAD_REACTORS
330
19
102
}
330
19
100
AcDbDictionary
281
     1
  3
CANNOSCALE
350
331
  3
CMLEADERSTYLE
350
D5E
  3
CTABLESTYLE
350
335
  3
HPTRANSPARENCY
350
D52
  3
XCLIPFRAME
350
896
  0
DICTIONARY
  5
27A
102
{ACAD_REACTORS
330
19
102
}
330
19
100
AcDbDictionary
281
     1
  0
DICTIONARY
  5
E38
102
{ACAD_REACTORS
330
19
102
}
330
19
100
AcDbDictionary
281
     1
  3
DIMRAILANGLE
350
246C
  3
DIMRAILFIRSTOFFSET
350
246A
  3
DIMRAILOFFSET
350
246B
  3
DIMRAILSENABLED
350
246D
  0
DICTIONARY
  5
2E2
102
{ACAD_REACTORS
330
2E1
102
}
330
2E1
100
AcDbDictionary
281
     1
  0
DICTIONARY
  5
DDE
102
{ACAD_REACTORS
330
2E1
102
}
330
2E1
100
AcDbDictionary
281
     1
1001
ACAD
1000
<All
  0
SORTENTSTABLE
  5
3E3F
102
{ACAD_REACTORS
330
3E3E
102
}
330
3E3E
100
AcDbSortentsTable
330
A
331
0
  5
3C4A
331
3CE3
  5
3C4B
331
3CE4
  5
3CE2
331
3CEF
  5
3CE3
331
3CF0
  5
3CE4
331
3CF1
  5
3CEF
331
3CF2
  5
3CF0
331
3CF3
  5
3CF1
331
3DB7
  5
3D2F
  0
DICTIONARY
  5
5CFE
102
{ACAD_REACTORS
330
3DB8
102
}
330
3DB8
100
AcDbDictionary
280
     1
281
     1
  3
TEXT
360
3DBA
  0
GROUP
  5
3CF4
102
{ACAD_REACTORS
330
1A
102
}
330
1A
100
AcDbGroup
300

 70
     1
 71
     1
340
3CE3
340
3CE4
340
3CEF
340
3CF0
340
3CF1
340
3CF2
340
3CF3
  0
LAYOUT
  5
21
102
{ACAD_REACTORS
330
1E
102
}
330
1E
100
AcDbPlotSettings
  1

  2
none_device
  4
ISO_A3_(420.00_x_297.00_MM)
  6

 40
7.5
 41
20.0
 42
7.5
 43
20.0
 44
420.0
 45
297.0
 46
0.0
 47
0.0
 48
0.0
 49
0.0
140
0.0
141
0.0
142
1.0
143
1.0
 70
     0
 72
     1
 73
     0
 74
     0
  7

 75
     0
 76
     0
 77
     2
 78
   300
147
1.0
148
0.0
149
0.0
100
AcDbLayout
  1
Layout1
 70
     0
 71
     0
 10
-7.5
 20
-20.0
 11
412.5
 21
277.0
 12
0.0
 22
0.0
 32
0.0
 14
0.0
 24
0.0
 34
0.0
 15
0.0
 25
0.0
 35
0.0
146
0.0
 13
0.0
 23
0.0
 33
0.0
 16
0.0
 26
0.0
 36
0.0
 17
0.0
 27
0.0
 37
0.0
 76
     0
330
B
331
349
  0
LAYOUT
  5
20
102
{ACAD_REACTORS
330
1E
102
}
330
1E
100
AcDbPlotSettings
  1

  2
none_device
  4
ISO_A3_(420.00_x_297.00_MM)
  6

 40
7.5
 41
20.0
 42
7.5
 43
20.0
 44
420.0
 45
297.0
 46
0.0
 47
0.0
 48
0.0
 49
0.0
140
0.0
141
0.0
142
1.0
143
1.0
 70
  1024
 72
     1
 73
     0
 74
     0
  7

 75
     0
 76
     0
 77
     2
 78
   300
147
1.0
148
0.0
149
0.0
100
AcDbLayout
  1
Model
 70
     0
 71
     1
 10
0.0
 20
0.0
 11
840.0
 21
1188.0
 12
0.0
 22
0.0
 32
0.0
 14
0.0
 24
0.0
 34
-0.0000000000000071
 15
840.0
 25
1188.0
 35
0.0000000000000142
146
0.0
 13
0.0
 23
0.0
 33
0.0
 16
0.0
 26
0.0
 36
0.0
 17
0.0
 27
0.0
 37
0.0
 76
     0
330
A
331
15
  0
MATERIAL
  5
265
102
{ACAD_REACTORS
330
263
102
}
330
263
100
AcDbMaterial
  1
ByBlock
 72
     1
 94
      127
  0
MATERIAL
  5
264
102
{ACAD_REACTORS
330
263
102
}
330
263
100
AcDbMaterial
  1
ByLayer
 72
     1
 94
      127
  0
MATERIAL
  5
266
102
{ACAD_REACTORS
330
263
102
}
330
263
100
AcDbMaterial
  1
Global
 72
     1
 94
      127
  0
MLEADERSTYLE
  5
D59
102
{ACAD_REACTORS
330
336
102
}
330
336
100
AcDbMLeaderStyle
170
     2
171
     1
172
     0
 90
        2
 40
0.0
 41
0.0
173
     1
 91
-1056964608
340
11
 92
       -2
290
     1
 42
2.0
291
     1
 43
8.0
  3
Standard
341
0
 44
4.0
300

342
17
174
     1
178
     6
175
     1
176
     0
 93
-1056964608
 45
4.0
292
     0
297
     0
 46
4.0
343
0
 94
-1056964608
 47
1.0
 49
1.0
140
1.0
293
     1
141
0.0
294
     1
177
     0
142
1.0
295
     0
296
     0
143
3.75
1001
ACAD_MLEADERVER
1070
     2
  0
MLINESTYLE
  5
1C
102
{ACAD_REACTORS
330
1B
102
}
330
1B
100
AcDbMlineStyle
  2
Standard
 70
     0
  3

 62
     0
 51
90.0
 52
90.0
 71
     2
 49
0.5
 62
   256
  6
BYLAYER
 49
-0.5
 62
   256
  6
BYLAYER
  0
ACDBPLACEHOLDER
  5
1D
102
{ACAD_REACTORS
330
1F
102
}
330
1F
  0
SCALE
  5
242
102
{ACAD_REACTORS
330
241
102
}
330
241
100
AcDbScale
 70
     0
300
1:1
140
1.0
141
1.0
290
     1
  0
SCALE
  5
243
102
{ACAD_REACTORS
330
241
102
}
330
241
100
AcDbScale
 70
     0
300
1:2
140
1.0
141
2.0
290
     0
  0
SCALE
  5
244
102
{ACAD_REACTORS
330
241
102
}
330
241
100
AcDbScale
 70
     0
300
1:4
140
1.0
141
4.0
290
     0
  0
SCALE
  5
245
102
{ACAD_REACTORS
330
241
102
}
330
241
100
AcDbScale
 70
     0
300
1:5
140
1.0
141
5.0
290
     0
  0
SCALE
  5
246
102
{ACAD_REACTORS
330
241
102
}
330
241
100
AcDbScale
 70
     0
300
1:8
140
1.0
141
8.0
290
     0
  0
SCALE
  5
247
102
{ACAD_REACTORS
330
241
102
}
330
241
100
AcDbScale
 70
     0
300
1:10
140
1.0
141
10.0
290
     0
  0
SCALE
  5
248
102
{ACAD_REACTORS
330
241
102
}
330
241
100
AcDbScale
 70
     0
300
1:16
140
1.0
141
16.0
290
     0
  0
SCALE
  5
249
102
{ACAD_REACTORS
330
241
102
}
330
241
100
AcDbScale
 70
     0
300
1:20
140
1.0
141
20.0
290
     0
  0
SCALE
  5
24A
102
{ACAD_REACTORS
330
241
102
}
330
241
100
AcDbScale
 70
     0
300
1:30
140
1.0
141
30.0
290
     0
  0
SCALE
  5
24B
102
{ACAD_REACTORS
330
241
102
}
330
241
100
AcDbScale
 70
     0
300
1:40
140
1.0
141
40.0
290
     0
  0
SCALE
  5
24C
102
{ACAD_REACTORS
330
241
102
}
330
241
100
AcDbScale
 70
     0
300
1:50
140
1.0
141
50.0
290
     0
  0
SCALE
  5
24D
102
{ACAD_REACTORS
330
241
102
}
330
241
100
AcDbScale
 70
     0
300
1:100
140
1.0
141
100.0
290
     0
  0
SCALE
  5
24E
102
{ACAD_REACTORS
330
241
102
}
330
241
100
AcDbScale
 70
     0
300
2:1
140
2.0
141
1.0
290
     0
  0
SCALE
  5
24F
102
{ACAD_REACTORS
330
241
102
}
330
241
100
AcDbScale
 70
     0
300
4:1
140
4.0
141
1.0
290
     0
  0
SCALE
  5
250
102
{ACAD_REACTORS
330
241
102
}
330
241
100
AcDbScale
 70
     0
300
8:1
140
8.0
141
1.0
290
     0
  0
SCALE
  5
251
102
{ACAD_REACTORS
330
241
102
}
330
241
100
AcDbScale
 70
     0
300
10:1
140
10.0
141
1.0
290
     0
  0
SCALE
  5
252
102
{ACAD_REACTORS
330
241
102
}
330
241
100
AcDbScale
 70
     0
300
100:1
140
100.0
141
1.0
290
     0
  0
SCALE
  5
253
102
{ACAD_REACTORS
330
241
102
}
330
241
100
AcDbScale
 70
     0
300
1/128" = 1'-0"
140
0.0078125
141
12.0
290
     0
  0
SCALE
  5
254
102
{ACAD_REACTORS
330
241
102
}
330
241
100
AcDbScale
 70
     0
300
1/64" = 1'-0"
140
0.015625
141
12.0
290
     0
  0
SCALE
  5
255
102
{ACAD_REACTORS
330
241
102
}
330
241
100
AcDbScale
 70
     0
300
1/32" = 1'-0"
140
0.03125
141
12.0
290
     0
  0
SCALE
  5
256
102
{ACAD_REACTORS
330
241
102
}
330
241
100
AcDbScale
 70
     0
300
1/16" = 1'-0"
140
0.0625
141
12.0
290
     0
  0
SCALE
  5
257
102
{ACAD_REACTORS
330
241
102
}
330
241
100
AcDbScale
 70
     0
300
3/32" = 1'-0"
140
0.09375
141
12.0
290
     0
  0
SCALE
  5
258
102
{ACAD_REACTORS
330
241
102
}
330
241
100
AcDbScale
 70
     0
300
1/8" = 1'-0"
140
0.125
141
12.0
290
     0
  0
SCALE
  5
259
102
{ACAD_REACTORS
330
241
102
}
330
241
100
AcDbScale
 70
     0
300
3/16" = 1'-0"
140
0.1875
141
12.0
290
     0
  0
SCALE
  5
25A
102
{ACAD_REACTORS
330
241
102
}
330
241
100
AcDbScale
 70
     0
300
1/4" = 1'-0"
140
0.25
141
12.0
290
     0
  0
SCALE
  5
25B
102
{ACAD_REACTORS
330
241
102
}
330
241
100
AcDbScale
 70
     0
300
3/8" = 1'-0"
140
0.375
141
12.0
290
     0
  0
SCALE
  5
25C
102
{ACAD_REACTORS
330
241
102
}
330
241
100
AcDbScale
 70
     0
300
1/2" = 1'-0"
140
0.5
141
12.0
290
     0
  0
SCALE
  5
25D
102
{ACAD_REACTORS
330
241
102
}
330
241
100
AcDbScale
 70
     0
300
3/4" = 1'-0"
140
0.75
141
12.0
290
     0
  0
SCALE
  5
25E
102
{ACAD_REACTORS
330
241
102
}
330
241
100
AcDbScale
 70
     0
300
1" = 1'-0"
140
1.0
141
12.0
290
     0
  0
SCALE
  5
25F
102
{ACAD_REACTORS
330
241
102
}
330
241
100
AcDbScale
 70
     0
300
1-1/2" = 1'-0"
140
1.5
141
12.0
290
     0
  0
SCALE
  5
260
102
{ACAD_REACTORS
330
241
102
}
330
241
100
AcDbScale
 70
     0
300
3" = 1'-0"
140
3.0
141
12.0
290
     0
  0
SCALE
  5
261
102
{ACAD_REACTORS
330
241
102
}
330
241
100
AcDbScale
 70
     0
300
6" = 1'-0"
140
6.0
141
12.0
290
     0
  0
SCALE
  5
262
102
{ACAD_REACTORS
330
241
102
}
330
241
100
AcDbScale
 70
     0
300
1'-0" = 1'-0"
140
12.0
141
12.0
290
     0
  0
TABLESTYLE
  5
279
102
{ACAD_REACTORS
330
278
102
}
102
{ACAD_XDICTIONARY
360
5D1A
102
}
330
278
100
AcDbTableStyle
  3
Standard
 70
     0
 71
     0
 40
0.06
 41
0.06
280
     0
281
     0
  7
Standard
140
4.5
170
     2
 62
     0
 63
   257
283
     0
 90
        4
 91
        0
  1

274
    -2
284
     1
 64
     0
275
    -2
285
     1
 65
     0
276
    -2
286
     1
 66
     0
277
    -2
287
     1
 67
     0
278
    -2
288
     1
 68
     0
279
    -2
289
     1
 69
     0
  7
Standard
140
6.0
170
     5
 62
     0
 63
   257
283
     0
 90
        4
 91
        0
  1

274
    -2
284
     1
 64
     0
275
    -2
285
     1
 65
     0
276
    -2
286
     1
 66
     0
277
    -2
287
     1
 67
     0
278
    -2
288
     1
 68
     0
279
    -2
289
     1
 69
     0
  7
Standard
140
4.5
170
     5
 62
     0
 63
   257
283
     0
 90
        4
 91
        0
  1

274
    -2
284
     1
 64
     0
275
    -2
285
     1
 65
     0
276
    -2
286
     1
 66
     0
277
    -2
287
     1
 67
     0
278
    -2
288
     1
 68
     0
279
    -2
289
     1
 69
     0
  0
VISUALSTYLE
  5
26C
102
{ACAD_REACTORS
330
267
102
}
330
267
100
AcDbVisualStyle
  2
2dWireframe
 70
     4
 71
     0
 72
     2
 73
     0
 90
        0
 40
-0.6
 41
-30.0
 62
     5
 63
     7
421
 16777215
 74
     1
 91
        4
 64
     7
 65
   257
 75
     1
175
     1
 42
1.0
 92
        0
 66
   257
 43
1.0
 76
     1
 77
     6
 78
     2
 67
     7
 79
     5
170
     0
171
     0
290
     0
174
     0
 93
        1
 44
0.0
173
     0
291
     0
 45
0.0
  0
VISUALSTYLE
  5
26E
102
{ACAD_REACTORS
330
267
102
}
330
267
100
AcDbVisualStyle
  2
3D Hidden
 70
     6
 71
     1
 72
     2
 73
     2
 90
        0
 40
-0.6
 41
-30.0
 62
     5
 63
     7
421
 16777215
 74
     2
 91
        2
 64
     7
 65
   257
 75
     2
175
     1
 42
40.0
 92
        0
 66
   257
 43
1.0
 76
     1
 77
     6
 78
     2
 67
     7
 79
     3
170
     0
171
     0
290
     0
174
     0
 93
        1
 44
0.0
173
     0
291
     0
 45
0.0
  0
VISUALSTYLE
  5
26D
102
{ACAD_REACTORS
330
267
102
}
330
267
100
AcDbVisualStyle
  2
3dWireframe
 70
     5
 71
     0
 72
     2
 73
     0
 90
        0
 40
-0.6
 41
-30.0
 62
     5
 63
     7
421
 16777215
 74
     1
 91
        4
 64
     7
 65
   257
 75
     1
175
     1
 42
1.0
 92
        0
 66
   257
 43
1.0
 76
     1
 77
     6
 78
     2
 67
     7
 79
     5
170
     0
171
     0
290
     0
174
     0
 93
        1
 44
0.0
173
     0
291
     0
 45
0.0
  0
VISUALSTYLE
  5
26F
102
{ACAD_REACTORS
330
267
102
}
330
267
100
AcDbVisualStyle
  2
Basic
 70
     7
 71
     1
 72
     0
 73
     1
 90
        0
 40
-0.6
 41
-30.0
 62
     5
 63
     7
421
 16777215
 74
     0
 91
        4
 64
     7
 65
   257
 75
     1
175
     1
 42
1.0
 92
        8
 66
     7
 43
1.0
 76
     1
 77
     6
 78
     2
 67
     7
 79
     5
170
     0
171
     0
290
     0
174
     0
 93
        1
 44
0.0
173
     0
291
     1
 45
0.0
  0
VISUALSTYLE
  5
273
102
{ACAD_REACTORS
330
267
102
}
330
267
100
AcDbVisualStyle
  2
Brighten
 70
    12
 71
     2
 72
     2
 73
     0
 90
        0
 40
-0.6
 41
-30.0
 62
     5
 63
     7
421
 16777215
 74
     1
 91
        4
 64
     7
 65
   257
 75
     1
175
     1
 42
1.0
 92
        8
 66
     7
 43
1.0
 76
     1
 77
     6
 78
     2
 67
     7
 79
     5
170
     0
171
     0
290
     0
174
     0
 93
        1
 44
50.0
173
     0
291
     1
 45
0.0
  0
VISUALSTYLE
  5
277
102
{ACAD_REACTORS
330
267
102
}
330
267
100
AcDbVisualStyle
  2
ColorChange
 70
    16
 71
     2
 72
     2
 73
     3
 90
        0
 40
-0.6
 41
-30.0
 62
     5
 63
     8
421
  8421504
 74
     1
 91
        4
 64
     7
 65
   257
 75
     1
175
     1
 42
1.0
 92
        8
 66
     8
424
  8421504
 43
1.0
 76
     1
 77
     6
 78
     2
 67
     7
 79
     5
170
     0
171
     0
290
     0
174
     0
 93
        1
 44
0.0
173
     0
291
     1
 45
0.0
  0
VISUALSTYLE
  5
271
102
{ACAD_REACTORS
330
267
102
}
330
267
100
AcDbVisualStyle
  2
Conceptual
 70
     9
 71
     3
 72
     2
 73
     0
 90
        0
 40
-0.6
 41
-30.0
 62
     5
 63
     7
421
 16777215
 74
     2
 91
        2
 64
     7
 65
   257
 75
     1
175
     1
 42
40.0
 92
        8
 66
     7
 43
1.0
 76
     1
 77
     6
 78
     2
 67
     7
 79
     3
170
     0
171
     0
290
     0
174
     0
 93
        1
 44
0.0
173
     0
291
     0
 45
0.0
  0
VISUALSTYLE
  5
272
102
{ACAD_REACTORS
330
267
102
}
330
267
100
AcDbVisualStyle
  2
Dim
 70
    11
 71
     2
 72
     2
 73
     0
 90
        0
 40
-0.6
 41
-30.0
 62
     5
 63
     7
421
 16777215
 74
     1
 91
        4
 64
     7
 65
   257
 75
     1
175
     1
 42
1.0
 92
        8
 66
     7
 43
1.0
 76
     1
 77
     6
 78
     2
 67
     7
 79
     5
170
     0
171
     0
290
     0
174
     0
 93
        1
 44
-50.0
173
     0
291
     1
 45
0.0
  0
VISUALSTYLE
  5
8FE
102
{ACAD_REACTORS
330
267
102
}
330
267
100
AcDbVisualStyle
  2
EdgeColorOff
 70
    22
 71
     2
 72
     2
 73
     0
 90
        0
 40
0.6
 41
30.0
 62
     5
 63
     7
421
 16777215
 74
     1
 91
        4
 64
     7
 65
   257
 75
     1
175
     1
 42
1.0
 92
        8
 66
     7
 43
1.0
 76
     1
 77
     6
 78
     2
 67
     7
 79
     5
170
     0
171
     0
290
     0
174
     0
 93
        1
 44
0.0
173
     0
291
     1
 45
0.0
  0
VISUALSTYLE
  5
276
102
{ACAD_REACTORS
330
267
102
}
330
267
100
AcDbVisualStyle
  2
Facepattern
 70
    15
 71
     2
 72
     2
 73
     0
 90
        0
 40
-0.6
 41
-30.0
 62
     5
 63
     7
421
 16777215
 74
     1
 91
        4
 64
     7
 65
   257
 75
     1
175
     1
 42
1.0
 92
        8
 66
     7
 43
1.0
 76
     1
 77
     6
 78
     2
 67
     7
 79
     5
170
     0
171
     0
290
     0
174
     0
 93
        1
 44
0.0
173
     0
291
     1
 45
0.0
  0
VISUALSTYLE
  5
268
102
{ACAD_REACTORS
330
267
102
}
330
267
100
AcDbVisualStyle
  2
Flat
 70
     0
 71
     2
 72
     1
 73
     1
 90
        2
 40
-0.6
 41
30.0
 62
     5
 63
     7
421
 16777215
 74
     0
 91
        4
 64
     7
 65
   257
 75
     1
175
     1
 42
1.0
 92
        8
 66
     7
 43
1.0
 76
     1
 77
     6
 78
     2
 67
     7
 79
     5
170
     0
171
     0
290
     0
174
     0
 93
       13
 44
0.0
173
     0
291
     1
 45
0.0
  0
VISUALSTYLE
  5
269
102
{ACAD_REACTORS
330
267
102
}
330
267
100
AcDbVisualStyle
  2
FlatWithEdges
 70
     1
 71
     2
 72
     1
 73
     1
 90
        2
 40
-0.6
 41
30.0
 62
     5
 63
     7
421
 16777215
 74
     1
 91
        4
 64
     7
 65
   257
 75
     1
175
     1
 42
1.0
 92
        0
 66
   257
 43
1.0
 76
     1
 77
     6
 78
     2
 67
     7
 79
     5
170
     0
171
     0
290
     0
174
     0
 93
       13
 44
0.0
173
     0
291
     1
 45
0.0
  0
VISUALSTYLE
  5
26A
102
{ACAD_REACTORS
330
267
102
}
330
267
100
AcDbVisualStyle
  2
Gouraud
 70
     2
 71
     2
 72
     2
 73
     1
 90
        2
 40
-0.6
 41
30.0
 62
     5
 63
     7
421
 16777215
 74
     0
 91
        4
 64
     7
 65
   257
 75
     1
175
     1
 42
1.0
 92
        0
 66
     7
 43
1.0
 76
     1
 77
     6
 78
     2
 67
     7
 79
     5
170
     0
171
     0
290
     0
174
     0
 93
       13
 44
0.0
173
     0
291
     1
 45
0.0
  0
VISUALSTYLE
  5
26B
102
{ACAD_REACTORS
330
267
102
}
330
267
100
AcDbVisualStyle
  2
GouraudWithEdges
 70
     3
 71
     2
 72
     2
 73
     1
 90
        2
 40
-0.6
 41
30.0
 62
     5
 63
     7
421
 16777215
 74
     1
 91
        4
 64
     7
 65
   257
 75
     1
175
     1
 42
1.0
 92
        0
 66
   257
 43
1.0
 76
     1
 77
     6
 78
     2
 67
     7
 79
     5
170
     0
171
     0
290
     0
174
     0
 93
       13
 44
0.0
173
     0
291
     1
 45
0.0
  0
VISUALSTYLE
  5
8FB
102
{ACAD_REACTORS
330
267
102
}
330
267
100
AcDbVisualStyle
  2
Hidden
 70
     6
 71
     1
 72
     2
 73
     2
 90
        0
 40
0.6
 41
30.0
 62
     5
 63
     7
421
 16777215
 74
     2
 91
        2
 64
     7
 65
   257
 75
     2
175
     1
 42
40.0
 92
        0
 66
   257
 43
1.0
 76
     1
 77
     6
 78
     2
 67
     7
 79
     3
170
     0
171
     0
290
     0
174
     0
 93
        1
 44
0.0
173
     0
291
     0
 45
0.0
  0
VISUALSTYLE
  5
8FC
102
{ACAD_REACTORS
330
267
102
}
330
267
100
AcDbVisualStyle
  2
JitterOff
 70
    20
 71
     2
 72
     2
 73
     0
 90
        0
 40
0.6
 41
30.0
 62
     5
 63
     7
421
 16777215
 74
     1
 91
        4
 64
     7
 65
   257
 75
     1
175
     1
 42
1.0
 92
       10
 66
     7
 43
1.0
 76
     1
 77
     6
 78
     2
 67
     7
 79
     5
170
     0
171
     0
290
     0
174
     0
 93
        1
 44
0.0
173
     0
291
     1
 45
0.0
  0
VISUALSTYLE
  5
275
102
{ACAD_REACTORS
330
267
102
}
330
267
100
AcDbVisualStyle
  2
Linepattern
 70
    14
 71
     2
 72
     2
 73
     0
 90
        0
 40
-0.6
 41
-30.0
 62
     5
 63
     7
421
 16777215
 74
     1
 91
        4
 64
     7
 65
   257
 75
     7
175
     7
 42
1.0
 92
        8
 66
     7
 43
1.0
 76
     1
 77
     6
 78
     2
 67
     7
 79
     5
170
     0
171
     0
290
     0
174
     0
 93
        1
 44
0.0
173
     0
291
     1
 45
0.0
  0
VISUALSTYLE
  5
8FD
102
{ACAD_REACTORS
330
267
102
}
330
267
100
AcDbVisualStyle
  2
OverhangOff
 70
    21
 71
     2
 72
     2
 73
     0
 90
        0
 40
0.6
 41
30.0
 62
     5
 63
     7
421
 16777215
 74
     1
 91
        4
 64
     7
 65
   257
 75
     1
175
     1
 42
1.0
 92
        9
 66
     7
 43
1.0
 76
     1
 77
     6
 78
     2
 67
     7
 79
     5
170
     0
171
     0
290
     0
174
     0
 93
        1
 44
0.0
173
     0
291
     1
 45
0.0
  0
VISUALSTYLE
  5
270
102
{ACAD_REACTORS
330
267
102
}
330
267
100
AcDbVisualStyle
  2
Realistic
 70
     8
 71
     2
 72
     2
 73
     0
 90
        0
 40
-0.6
 41
-30.0
 62
     5
 63
     7
421
 16777215
 74
     1
 91
        0
 64
     7
 65
   257
 75
     1
175
     1
 42
1.0
 92
        8
 66
     8
424
  7895160
 43
1.0
 76
     1
 77
     6
 78
     2
 67
     7
 79
     5
170
     0
171
     0
290
     0
174
     0
 93
       13
 44
0.0
173
     0
291
     0
 45
0.0
  0
VISUALSTYLE
  5
903
102
{ACAD_REACTORS
330
267
102
}
330
267
100
AcDbVisualStyle
  2
Shaded
 70
    27
 71
     2
 72
     2
 73
     1
 90
        2
 40
0.6
 41
30.0
 62
     5
 63
     7
421
 16777215
 74
     0
 91
        4
 64
     7
 65
   257
 75
     1
175
     1
 42
1.0
 92
        8
 66
   257
 43
1.0
 76
     1
 77
     6
 78
     2
 67
     8
425
  7895160
 79
     3
170
     0
171
     0
290
     0
174
     0
 93
        5
 44
0.0
173
     0
291
     0
 45
0.0
  0
VISUALSTYLE
  5
902
102
{ACAD_REACTORS
330
267
102
}
330
267
100
AcDbVisualStyle
  2
Shaded with edges
 70
    26
 71
     2
 72
     2
 73
     1
 90
        2
 40
0.6
 41
30.0
 62
     5
 63
     7
421
 16777215
 74
     1
 91
       10
 64
     7
 65
   257
 75
     2
175
     1
 42
1.0
 92
        8
 66
   257
 43
1.0
 76
     1
 77
     6
 78
     2
 67
     7
 79
     3
170
     0
171
     0
290
     0
174
     0
 93
        5
 44
0.0
173
     0
291
     0
 45
0.0
  0
VISUALSTYLE
  5
8FF
102
{ACAD_REACTORS
330
267
102
}
330
267
100
AcDbVisualStyle
  2
Shades of Gray
 70
    23
 71
     2
 72
     2
 73
     3
 90
        0
 40
0.6
 41
30.0
 62
     5
 63
     7
421
 16777215
 74
     2
 91
        2
 64
     7
 65
     7
 75
     1
175
     1
 42
40.0
 92
        8
 66
     7
 43
1.0
 76
     1
 77
     6
 78
     2
 67
     7
 79
     3
170
     0
171
     0
290
     0
174
     0
 93
        1
 44
0.0
173
     0
291
     0
 45
0.0
  0
VISUALSTYLE
  5
900
102
{ACAD_REACTORS
330
267
102
}
330
267
100
AcDbVisualStyle
  2
Sketchy
 70
    24
 71
     1
 72
     2
 73
     2
 90
        0
 40
0.6
 41
30.0
 62
     5
 63
     7
421
 16777215
 74
     2
 91
        2
 64
     7
 65
     7
 75
     1
175
     1
 42
40.0
 92
       11
 66
     7
 43
1.0
 76
     1
 77
     6
 78
     2
 67
     7
 79
     6
170
     0
171
     0
290
     0
174
     0
 93
        1
 44
0.0
173
     0
291
     0
 45
0.0
  0
VISUALSTYLE
  5
274
102
{ACAD_REACTORS
330
267
102
}
330
267
100
AcDbVisualStyle
  2
Thicken
 70
    13
 71
     2
 72
     2
 73
     0
 90
        0
 40
-0.6
 41
-30.0
 62
     5
 63
     7
421
 16777215
 74
     1
 91
        4
 64
     7
 65
   257
 75
     1
175
     1
 42
1.0
 92
       12
 66
     7
 43
1.0
 76
     1
 77
     6
 78
     2
 67
     7
 79
     5
170
     0
171
     0
290
     0
174
     0
 93
        1
 44
0.0
173
     0
291
     1
 45
0.0
  0
VISUALSTYLE
  5
8FA
102
{ACAD_REACTORS
330
267
102
}
330
267
100
AcDbVisualStyle
  2
Wireframe
 70
     5
 71
     0
 72
     2
 73
     0
 90
        0
 40
0.6
 41
30.0
 62
     5
 63
     7
421
 16777215
 74
     1
 91
        4
 64
     7
 65
   257
 75
     1
175
     1
 42
1.0
 92
        0
 66
   257
 43
1.0
 76
     1
 77
     6
 78
     2
 67
     7
 79
     3
170
     0
171
     0
290
     0
174
     0
 93
        1
 44
0.0
173
     0
291
     0
 45
0.0
  0
VISUALSTYLE
  5
901
102
{ACAD_REACTORS
330
267
102
}
330
267
100
AcDbVisualStyle
  2
X-Ray
 70
    25
 71
     2
 72
     2
 73
     1
 90
        1
 40
0.5
 41
30.0
 62
     5
 63
     7
421
 16777215
 74
     1
 91
        0
 64
     7
 65
   257
 75
     1
175
     1
 42
1.0
 92
        8
 66
     7
 43
1.0
 76
     1
 77
     6
 78
     2
 67
     7
 79
     3
170
     0
171
     0
290
     0
174
     0
 93
       13
 44
0.0
173
     0
291
     0
 45
0.0
  0
DICTIONARYVAR
  5
331
102
{ACAD_REACTORS
330
330
102
}
330
330
100
DictionaryVariables
280
     0
  1
1:1
  0
DICTIONARYVAR
  5
D5E
102
{ACAD_REACTORS
330
330
102
}
330
330
100
DictionaryVariables
280
     0
  1
Standard
  0
DICTIONARYVAR
  5
335
102
{ACAD_REACTORS
330
330
102
}
330
330
100
DictionaryVariables
280
     0
  1
Standard
  0
DICTIONARYVAR
  5
D52
102
{ACAD_REACTORS
330
330
102
}
330
330
100
DictionaryVariables
280
     0
  1
ByLayer
  0
DICTIONARYVAR
  5
896
102
{ACAD_REACTORS
330
330
102
}
330
330
100
DictionaryVariables
280
     0
  1
0
  0
DICTIONARYVAR
  5
246C
102
{ACAD_REACTORS
330
E38
102
}
330
E38
100
DictionaryVariables
280
     0
  1
0.261799
  0
DICTIONARYVAR
  5
246A
102
{ACAD_REACTORS
330
E38
102
}
330
E38
100
DictionaryVariables
280
     0
  1
0.400000
  0
DICTIONARYVAR
  5
246B
102
{ACAD_REACTORS
330
E38
102
}
330
E38
100
DictionaryVariables
280
     0
  1
0.250000
  0
DICTIONARYVAR
  5
246D
102
{ACAD_REACTORS
330
E38
102
}
330
E38
100
DictionaryVariables
280
     0
  1
1
  0
FIELD
  5
3DBA
102
{ACAD_REACTORS
330
5CFE
102
}
330
5CFE
100
AcDbField
  1
_text
  2
{%<\_FldIdx 0>%N}
 90
        1
360
3DBB
 97
        0
 91
       63
 92
        0
 94
       11
 95
        2
 96
        0
300

 93
        1
  6
ACFD_FIELDTEXT_CHECKSUM
 93
        2
 90
        2
140
4527.0
 94
        0
300

302

304
ACVALUE_END
  7
ACFD_FIELD_VALUE
 93
        6
 90
        4
  1
{20190307N}
 94
        0
300

302

304
ACVALUE_END
301
{20190307N}
 98
       11
  0
DICTIONARY
  5
5D1A
330
279
100
AcDbDictionary
280
     1
281
     1
  3
ACAD_ROUNDTRIP_2008_TABLESTYLE_CELLSTYLEMAP
360
5D1B
  0
FIELD
  5
3DBB
330
3DBA
100
AcDbField
  1
AcVar
  2
\AcVar CreateDate \f "yyyyMMdd"
 90
        0
 97
        0
 91
       63
 92
        0
 94
       11
 95
        2
 96
        0
300

 93
        1
  6
Variable
 93
        2
 90
        4
  1
CreateDate
 94
        0
300

302

304
ACVALUE_END
  7
ACFD_FIELD_VALUE
 93
        6
 90
        8
 92
       16
310
E30703000000070004002B0012000000
 94
        0
300
yyyyMMdd
302

304
ACVALUE_END
301
20190307
 98
        8
  0
CELLSTYLEMAP
  5
5D1B
102
{ACAD_REACTORS
330
5D1A
102
}
330
5D1A
100
AcDbCellStyleMap
 90
        3
300
CELLSTYLE
  1
TABLEFORMAT_BEGIN
 90
        5
170
     1
 91
        0
 92
    32768
 62
   257
 93
        1
300
CONTENTFORMAT
  1
CONTENTFORMAT_BEGIN
 90
        0
 91
        0
 92
        4
 93
        0
300

 40
0.0
140
1.0
 94
        5
 62
     0
340
17
144
6.0
309
CONTENTFORMAT_END
171
     1
301
MARGIN
  1
CELLMARGIN_BEGIN
 40
0.06
 40
0.06
 40
0.06
 40
0.06
 40
0.18
 40
0.18
309
CELLMARGIN_END
 94
        6
 95
        1
302
GRIDFORMAT
  1
GRIDFORMAT_BEGIN
 90
        0
 91
        1
 62
     0
 92
       -2
340
0
 93
        0
 40
0.045
309
GRIDFORMAT_END
 95
        2
302
GRIDFORMAT
  1
GRIDFORMAT_BEGIN
 90
        0
 91
        1
 62
     0
 92
       -2
340
0
 93
        0
 40
0.045
309
GRIDFORMAT_END
 95
        4
302
GRIDFORMAT
  1
GRIDFORMAT_BEGIN
 90
        0
 91
        1
 62
     0
 92
       -2
340
0
 93
        0
 40
0.045
309
GRIDFORMAT_END
 95
        8
302
GRIDFORMAT
  1
GRIDFORMAT_BEGIN
 90
        0
 91
        1
 62
     0
 92
       -2
340
0
 93
        0
 40
0.045
309
GRIDFORMAT_END
 95
       16
302
GRIDFORMAT
  1
GRIDFORMAT_BEGIN
 90
        0
 91
        1
 62
     0
 92
       -2
340
0
 93
        0
 40
0.045
309
GRIDFORMAT_END
 95
       32
302
GRIDFORMAT
  1
GRIDFORMAT_BEGIN
 90
        0
 91
        1
 62
     0
 92
       -2
340
0
 93
        0
 40
0.045
309
GRIDFORMAT_END
309
TABLEFORMAT_END
  1
CELLSTYLE_BEGIN
 90
        1
 91
        1
300
_TITLE
309
CELLSTYLE_END
300
CELLSTYLE
  1
TABLEFORMAT_BEGIN
 90
        5
170
     1
 91
        0
 92
        0
 62
   257
 93
        1
300
CONTENTFORMAT
  1
CONTENTFORMAT_BEGIN
 90
        0
 91
        0
 92
        4
 93
        0
300

 40
0.0
140
1.0
 94
        5
 62
     0
340
17
144
4.5
309
CONTENTFORMAT_END
171
     1
301
MARGIN
  1
CELLMARGIN_BEGIN
 40
0.06
 40
0.06
 40
0.06
 40
0.06
 40
0.18
 40
0.18
309
CELLMARGIN_END
 94
        6
 95
        1
302
GRIDFORMAT
  1
GRIDFORMAT_BEGIN
 90
        0
 91
        1
 62
     0
 92
       -2
340
0
 93
        0
 40
0.045
309
GRIDFORMAT_END
 95
        2
302
GRIDFORMAT
  1
GRIDFORMAT_BEGIN
 90
        0
 91
        1
 62
     0
 92
       -2
340
0
 93
        0
 40
0.045
309
GRIDFORMAT_END
 95
        4
302
GRIDFORMAT
  1
GRIDFORMAT_BEGIN
 90
        0
 91
        1
 62
     0
 92
       -2
340
0
 93
        0
 40
0.045
309
GRIDFORMAT_END
 95
        8
302
GRIDFORMAT
  1
GRIDFORMAT_BEGIN
 90
        0
 91
        1
 62
     0
 92
       -2
340
0
 93
        0
 40
0.045
309
GRIDFORMAT_END
 95
       16
302
GRIDFORMAT
  1
GRIDFORMAT_BEGIN
 90
        0
 91
        1
 62
     0
 92
       -2
340
0
 93
        0
 40
0.045
309
GRIDFORMAT_END
 95
       32
302
GRIDFORMAT
  1
GRIDFORMAT_BEGIN
 90
        0
 91
        1
 62
     0
 92
       -2
340
0
 93
        0
 40
0.045
309
GRIDFORMAT_END
309
TABLEFORMAT_END
  1
CELLSTYLE_BEGIN
 90
        2
 91
        1
300
_HEADER
309
CELLSTYLE_END
300
CELLSTYLE
  1
TABLEFORMAT_BEGIN
 90
        5
170
     1
 91
        0
 92
        0
 62
   257
 93
        1
300
CONTENTFORMAT
  1
CONTENTFORMAT_BEGIN
 90
        0
 91
        0
 92
        4
 93
        0
300

 40
0.0
140
1.0
 94
        2
 62
     0
340
17
144
4.5
309
CONTENTFORMAT_END
171
     1
301
MARGIN
  1
CELLMARGIN_BEGIN
 40
0.06
 40
0.06
 40
0.06
 40
0.06
 40
0.18
 40
0.18
309
CELLMARGIN_END
 94
        6
 95
        1
302
GRIDFORMAT
  1
GRIDFORMAT_BEGIN
 90
        0
 91
        1
 62
     0
 92
       -2
340
0
 93
        0
 40
0.045
309
GRIDFORMAT_END
 95
        2
302
GRIDFORMAT
  1
GRIDFORMAT_BEGIN
 90
        0
 91
        1
 62
     0
 92
       -2
340
0
 93
        0
 40
0.045
309
GRIDFORMAT_END
 95
        4
302
GRIDFORMAT
  1
GRIDFORMAT_BEGIN
 90
        0
 91
        1
 62
     0
 92
       -2
340
0
 93
        0
 40
0.045
309
GRIDFORMAT_END
 95
        8
302
GRIDFORMAT
  1
GRIDFORMAT_BEGIN
 90
        0
 91
        1
 62
     0
 92
       -2
340
0
 93
        0
 40
0.045
309
GRIDFORMAT_END
 95
       16
302
GRIDFORMAT
  1
GRIDFORMAT_BEGIN
 90
        0
 91
        1
 62
     0
 92
       -2
340
0
 93
        0
 40
0.045
309
GRIDFORMAT_END
 95
       32
302
GRIDFORMAT
  1
GRIDFORMAT_BEGIN
 90
        0
 91
        1
 62
     0
 92
       -2
340
0
 93
        0
 40
0.045
309
GRIDFORMAT_END
309
TABLEFORMAT_END
  1
CELLSTYLE_BEGIN
 90
        3
 91
        2
300
_DATA
309
CELLSTYLE_END
  0
ENDSEC
  0
EOF
