  0
SECTION
  2
HEADER
  9
$ACADVER
  1
AC1021
  9
$ACADMAINTVER
 70
    25
  9
$DWGCODEPAGE
  3
ANSI_932
  9
$LASTSAVEDBY
  1
tform
  9
$INSBASE
 10
0.0
 20
0.0
 30
0.0
  9
$EXTMIN
 10
0.0
 20
0.0
 30
-0.0000000000000142
  9
$EXTMAX
 10
1050.0
 20
1485.0
 30
0.0000000000000071
  9
$LIMMIN
 10
0.0
 20
0.0
  9
$LIMMAX
 10
1050.0
 20
1485.0
  9
$ORTHOMODE
 70
     0
  9
$REGENMODE
 70
     1
  9
$FILLMODE
 70
     1
  9
$QTEXTMODE
 70
     0
  9
$MIRRTEXT
 70
     1
  9
$LTSCALE
 40
2.5
  9
$ATTMODE
 70
     1
  9
$TEXTSIZE
 40
2.5
  9
$TRACEWID
 40
1.0
  9
$TEXTSTYLE
  7
ＭＳ ゴシック
  9
$CLAYER
  8
DIM
  9
$CELTYPE
  6
ByLayer
  9
$CECOLOR
 62
   256
  9
$CELTSCALE
 40
1.0
  9
$DISPSILH
 70
     0
  9
$DIMSCALE
 40
1.0
  9
$DIMASZ
 40
3.0
  9
$DIMEXO
 40
10.0
  9
$DIMDLI
 40
0.9999999999999999
  9
$DIMRND
 40
0.0
  9
$DIMDLE
 40
0.0
  9
$DIMEXE
 40
0.0
  9
$DIMTP
 40
0.0
  9
$DIMTM
 40
0.0
  9
$DIMTXT
 40
12.0
  9
$DIMCEN
 40
0.0
  9
$DIMTSZ
 40
0.0
  9
$DIMTOL
 70
     0
  9
$DIMLIM
 70
     0
  9
$DIMTIH
 70
     0
  9
$DIMTOH
 70
     0
  9
$DIMSE1
 70
     0
  9
$DIMSE2
 70
     0
  9
$DIMTAD
 70
     1
  9
$DIMZIN
 70
    11
  9
$DIMBLK
  1
DOT
  9
$DIMASO
 70
     1
  9
$DIMSHO
 70
     1
  9
$DIMPOST
  1
<>
  9
$DIMAPOST
  1
[]
  9
$DIMALT
 70
     0
  9
$DIMALTD
 70
     1
  9
$DIMALTF
 40
1.0
  9
$DIMLFAC
 40
1.0
  9
$DIMTOFL
 70
     0
  9
$DIMTVP
 40
0.0
  9
$DIMTIX
 70
     1
  9
$DIMSOXD
 70
     0
  9
$DIMSAH
 70
     0
  9
$DIMBLK1
  1

  9
$DIMBLK2
  1

  9
$DIMSTYLE
  2
tfrom線あり
  9
$DIMCLRD
 70
     0
  9
$DIMCLRE
 70
     0
  9
$DIMCLRT
 70
     0
  9
$DIMTFAC
 40
1.0
  9
$DIMGAP
 40
5.0
  9
$DIMJUST
 70
     0
  9
$DIMSD1
 70
     0
  9
$DIMSD2
 70
     0
  9
$DIMTOLJ
 70
     1
  9
$DIMTZIN
 70
    11
  9
$DIMALTZ
 70
    11
  9
$DIMALTTZ
 70
    11
  9
$DIMUPT
 70
     0
  9
$DIMDEC
 70
     0
  9
$DIMTDEC
 70
     1
  9
$DIMALTU
 70
     2
  9
$DIMALTTD
 70
     2
  9
$DIMTXSTY
  7
ＭＳ ゴシック
  9
$DIMAUNIT
 70
     0
  9
$DIMADEC
 70
     2
  9
$DIMALTRND
 40
0.0
  9
$DIMAZIN
 70
     0
  9
$DIMDSEP
 70
    46
  9
$DIMATFIT
 70
     0
  9
$DIMFRAC
 70
     2
  9
$DIMLDRBLK
  1
DOT
  9
$DIMLUNIT
 70
     2
  9
$DIMLWD
 70
    -2
  9
$DIMLWE
 70
    -2
  9
$DIMTMOVE
 70
     0
  9
$DIMFXL
 40
1.0
  9
$DIMFXLON
 70
     0
  9
$DIMJOGANG
 40
0.7853981633974483
  9
$DIMTFILL
 70
     0
  9
$DIMTFILLCLR
 70
     0
  9
$DIMARCSYM
 70
     0
  9
$DIMLTYPE
  6

  9
$DIMLTEX1
  6

  9
$DIMLTEX2
  6

  9
$LUNITS
 70
     2
  9
$LUPREC
 70
     0
  9
$SKETCHINC
 40
0.1
  9
$FILLETRAD
 40
0.0
  9
$AUNITS
 70
     0
  9
$AUPREC
 70
     0
  9
$MENU
  1
acad
  9
$ELEVATION
 40
0.0
  9
$PELEVATION
 40
0.0
  9
$THICKNESS
 40
0.0
  9
$LIMCHECK
 70
     0
  9
$CHAMFERA
 40
0.0
  9
$CHAMFERB
 40
0.0
  9
$CHAMFERC
 40
0.0
  9
$CHAMFERD
 40
0.0
  9
$SKPOLY
 70
     0
  9
$TDCREATE
 40
2447893.375
  9
$TDUCREATE
 40
0.0
  9
$TDUPDATE
 40
2460178.495441181
  9
$TDUUPDATE
 40
2460178.120441181
  9
$TDINDWG
 40
0.0
  9
$TDUSRTIMER
 40
0.0
  9
$USRTIMER
 70
     1
  9
$ANGBASE
 50
0.0
  9
$ANGDIR
 70
     0
  9
$PDMODE
 70
     1
  9
$PDSIZE
 40
-2.0
  9
$PLINEWID
 40
0.0
  9
$SPLFRAME
 70
     0
  9
$SPLINETYPE
 70
     6
  9
$SPLINESEGS
 70
     8
  9
$HANDSEED
  5
3829
  9
$SURFTAB1
 70
     6
  9
$SURFTAB2
 70
     6
  9
$SURFTYPE
 70
     6
  9
$SURFU
 70
     6
  9
$SURFV
 70
     6
  9
$UCSBASE
  2

  9
$UCSNAME
  2

  9
$UCSORG
 10
0.0
 20
0.0
 30
0.0
  9
$UCSXDIR
 10
1.0
 20
0.0
 30
0.0
  9
$UCSYDIR
 10
0.0
 20
1.0
 30
0.0
  9
$UCSORTHOREF
  2

  9
$UCSORTHOVIEW
 70
     0
  9
$UCSORGTOP
 10
0.0
 20
0.0
 30
0.0
  9
$UCSORGBOTTOM
 10
0.0
 20
0.0
 30
0.0
  9
$UCSORGLEFT
 10
0.0
 20
0.0
 30
0.0
  9
$UCSORGRIGHT
 10
0.0
 20
0.0
 30
0.0
  9
$UCSORGFRONT
 10
0.0
 20
0.0
 30
0.0
  9
$UCSORGBACK
 10
0.0
 20
0.0
 30
0.0
  9
$PUCSBASE
  2

  9
$PUCSNAME
  2

  9
$PUCSORG
 10
0.0
 20
0.0
 30
0.0
  9
$PUCSXDIR
 10
1.0
 20
0.0
 30
0.0
  9
$PUCSYDIR
 10
0.0
 20
1.0
 30
0.0
  9
$PUCSORTHOREF
  2

  9
$PUCSORTHOVIEW
 70
     0
  9
$PUCSORGTOP
 10
0.0
 20
0.0
 30
0.0
  9
$PUCSORGBOTTOM
 10
0.0
 20
0.0
 30
0.0
  9
$PUCSORGLEFT
 10
0.0
 20
0.0
 30
0.0
  9
$PUCSORGRIGHT
 10
0.0
 20
0.0
 30
0.0
  9
$PUCSORGFRONT
 10
0.0
 20
0.0
 30
0.0
  9
$PUCSORGBACK
 10
0.0
 20
0.0
 30
0.0
  9
$USERI1
 70
     0
  9
$USERI2
 70
     0
  9
$USERI3
 70
     0
  9
$USERI4
 70
     0
  9
$USERI5
 70
     0
  9
$USERR1
 40
0.0
  9
$USERR2
 40
0.0
  9
$USERR3
 40
0.0
  9
$USERR4
 40
0.0
  9
$USERR5
 40
0.0
  9
$WORLDVIEW
 70
     1
  9
$SHADEDGE
 70
     3
  9
$SHADEDIF
 70
    70
  9
$TILEMODE
 70
     1
  9
$MAXACTVP
 70
    64
  9
$PINSBASE
 10
0.0
 20
0.0
 30
0.0
  9
$PLIMCHECK
 70
     0
  9
$PEXTMIN
 10
0.0
 20
0.0
 30
0.0
  9
$PEXTMAX
 10
0.0
 20
0.0
 30
0.0
  9
$PLIMMIN
 10
-7.5
 20
-20.0
  9
$PLIMMAX
 10
412.5
 20
277.0
  9
$UNITMODE
 70
     0
  9
$VISRETAIN
 70
     0
  9
$PLINEGEN
 70
     1
  9
$PSLTSCALE
 70
     0
  9
$TREEDEPTH
 70
  3020
  9
$CMLSTYLE
  2
Standard
  9
$CMLJUST
 70
     0
  9
$CMLSCALE
 40
1.0
  9
$PROXYGRAPHICS
 70
     0
  9
$MEASUREMENT
 70
     1
  9
$CELWEIGHT
370
    -1
  9
$ENDCAPS
280
     0
  9
$JOINSTYLE
280
     0
  9
$LWDISPLAY
290
     1
  9
$INSUNITS
 70
     4
  9
$HYPERLINKBASE
  1

  9
$STYLESHEET
  1

  9
$XEDIT
290
     1
  9
$CEPSNTYPE
380
     0
  9
$PSTYLEMODE
290
     1
  9
$FINGERPRINTGUID
  2

  9
$VERSIONGUID
  2

  9
$EXTNAMES
290
     1
  9
$PSVPSCALE
 40
0.0
  9
$OLESTARTUP
290
     0
  9
$SORTENTS
280
   127
  9
$INDEXCTL
280
     0
  9
$HIDETEXT
280
     1
  9
$XCLIPFRAME
290
     0
  9
$HALOGAP
280
     0
  9
$OBSCOLOR
 70
   257
  9
$OBSLTYPE
280
     0
  9
$INTERSECTIONDISPLAY
280
     0
  9
$INTERSECTIONCOLOR
 70
   257
  9
$DIMASSOC
280
     2
  9
$PROJECTNAME
  1

  9
$CAMERADISPLAY
290
     0
  9
$LENSLENGTH
 40
50.0
  9
$CAMERAHEIGHT
 40
0.0
  9
$STEPSPERSEC
 40
2.0
  9
$STEPSIZE
 40
6.0
  9
$3DDWFPREC
 40
2.0
  9
$PSOLWIDTH
 40
0.25
  9
$PSOLHEIGHT
 40
4.0
  9
$LOFTANG1
 40
1.570796326794897
  9
$LOFTANG2
 40
1.570796326794897
  9
$LOFTMAG1
 40
0.0
  9
$LOFTMAG2
 40
0.0
  9
$LOFTPARAM
 70
     7
  9
$LOFTNORMALS
280
     1
  9
$LATITUDE
 40
37.795
  9
$LONGITUDE
 40
-122.394
  9
$NORTHDIRECTION
 40
0.0
  9
$TIMEZONE
 70
 -8000
  9
$LIGHTGLYPHDISPLAY
280
     1
  9
$TILEMODELIGHTSYNCH
280
     1
  9
$SOLIDHIST
280
     1
  9
$SHOWHIST
280
     1
  9
$DWFFRAME
280
     2
  9
$DGNFRAME
280
     2
  9
$REALWORLDSCALE
290
     1
  9
$INTERFERECOLOR
 62
   256
  9
$CSHADOW
280
     0
  9
$SHADOWPLANELOCATION
 40
0.0
  0
ENDSEC
  0
SECTION
  2
CLASSES
  0
CLASS
  1
LWPOLYLINE
  2
AcDbPolyline
  3
ObjectDBX Classes
 90
        0
 91
        1
280
     0
281
     1
  0
CLASS
  1
IMAGE
  2
AcDbRasterImage
  3
ISM
 90
      127
 91
        4
280
     0
281
     1
  0
CLASS
  1
OLE2FRAME
  2
AcDbOle2Frame
  3
ObjectDBX Classes
 90
        0
 91
        1
280
     0
281
     1
  0
CLASS
  1
HATCH
  2
AcDbHatch
  3
ObjectDBX Classes
 90
        0
 91
        1
280
     0
281
     1
  0
CLASS
  1
DICTIONARYVAR
  2
AcDbDictionaryVar
  3
ObjectDBX Classes
 90
        0
 91
        3
280
     0
281
     0
  0
CLASS
  1
RASTERVARIABLES
  2
AcDbRasterVariables
  3
ISM
 90
        0
 91
        3
280
     0
281
     0
  0
CLASS
  1
IMAGEDEF
  2
AcDbRasterImageDef
  3
ISM
 90
        0
 91
        3
280
     0
281
     0
  0
CLASS
  1
IMAGEDEF_REACTOR
  2
AcDbRasterImageDefReactor
  3
ISM
 90
        1
 91
        3
280
     0
281
     0
  0
CLASS
  1
IDBUFFER
  2
AcDbIdBuffer
  3
ObjectDBX Classes
 90
        0
 91
        3
280
     0
281
     0
  0
CLASS
  1
SPATIAL_FILTER
  2
AcDbSpatialFilter
  3
ObjectDBX Classes
 90
        0
 91
        3
280
     0
281
     0
  0
CLASS
  1
XRECORD
  2
AcDbXrecord
  3
ObjectDBX Classes
 90
        0
 91
        1
280
     0
281
     0
  0
CLASS
  1
SORTENTSTABLE
  2
AcDbSortentsTable
  3
ObjectDBX Classes
 90
        0
 91
        3
280
     0
281
     0
  0
CLASS
  1
LAYER_INDEX
  2
AcDbLayerIndex
  3
ObjectDBX Classes
 90
        0
 91
        3
280
     0
281
     0
  0
CLASS
  1
SPATIAL_INDEX
  2
AcDbSpatialIndex
  3
AutoCAD 2000
 90
        0
 91
        3
280
     0
281
     0
  0
CLASS
  1
OBJECT_PTR
  2
CAseDLPNTableRecord
  3
ASE-LPNTableRecord
 90
        1
 91
        3
280
     0
281
     0
  0
CLASS
  1
LAYOUT
  2
AcDbLayout
  3
ObjectDBX Classes
 90
        0
 91
        1
280
     0
281
     0
  0
CLASS
  1
PLOTSETTINGS
  2
AcDbPlotSettings
  3
ObjectDBX Classes
 90
        0
 91
        3
280
     0
281
     0
  0
CLASS
  1
ACDBDICTIONARYWDFLT
  2
AcDbDictionaryWithDefault
  3
ObjectDBX Classes
 90
        0
 91
        3
280
     0
281
     0
  0
CLASS
  1
ACDBPLACEHOLDER
  2
AcDbPlaceHolder
  3
ObjectDBX Classes
 90
        0
 91
        1
280
     0
281
     0
  0
CLASS
  1
SCALE
  2
AcDbScale
  3
ObjectDBX Classes
 90
     1153
 91
        3
280
     0
281
     0
  0
CLASS
  1
MATERIAL
  2
AcDbMaterial
  3
ObjectDBX Classes
 90
     1153
 91
        3
280
     0
281
     0
  0
CLASS
  1
VISUALSTYLE
  2
AcDbVisualStyle
  3
ObjectDBX Classes
 90
     4095
 91
        3
280
     0
281
     0
  0
CLASS
  1
TABLESTYLE
  2
AcDbTableStyle
  3
ObjectDBX Classes
 90
     4095
 91
        3
280
     0
281
     0
  0
CLASS
  1
DIMASSOC
  2
AcDbDimAssoc
  3
"AcDbDimAssoc|Product Desc:     AcDim ARX App For Dimension|Company:          Autodesk, Inc.|WEB Address:      www.autodesk.com"
 90
        0
 91
        3
280
     0
281
     0
  0
CLASS
  1
CELLSTYLEMAP
  2
AcDbCellStyleMap
  3
ObjectDBX Classes
 90
     1152
 91
        3
280
     0
281
     0
  0
CLASS
  1
SUN
  2
AcDbSun
  3
SCENEOE
 90
     1153
 91
        3
280
     0
281
     0
  0
CLASS
  1
MLEADERSTYLE
  2
AcDbMLeaderStyle
  3
ACDB_MLEADERSTYLE_CLASS
 90
     4095
 91
        3
280
     0
281
     0
  0
CLASS
  1
FIELD
  2
AcDbField
  3
ObjectDBX Classes
 90
     1152
 91
        3
280
     0
281
     0
  0
CLASS
  1
FIELDLIST
  2
AcDbFieldList
  3
ObjectDBX Classes
 90
     1152
 91
        3
280
     0
281
     0
  0
ENDSEC
  0
SECTION
  2
TABLES
  0
TABLE
  2
VPORT
  5
7
330
0
100
AcDbSymbolTable
 70
     1
  0
VPORT
  5
15
330
7
100
AcDbSymbolTableRecord
100
AcDbViewportTableRecord
  2
*ACTIVE
 70
     0
 10
0.0
 20
0.0
 11
1.0
 21
1.0
 12
616.0201356709006
 22
668.901285469834
 13
0.0
 23
0.0
 14
1.0
 24
1.0
 15
0.0
 25
0.0
 16
0.0
 26
0.0
 36
1.0
 17
-91.02013567090057
 27
73.59871453016603
 37
-46.86809886248109
 40
1514.7
 41
2.189300411522634
 42
50.0
 43
0.0
 44
0.0
 50
0.0
 51
0.0
 71
    16
 72
  2000
 73
     1
 74
     1
 75
     0
 76
     0
 77
     0
 78
     0
281
     0
 65
     1
110
0.0
120
0.0
130
0.0
111
1.0
121
0.0
131
0.0
112
0.0
122
1.0
132
0.0
 79
     0
146
0.0
348
26C
 60
     3
 61
     5
292
     1
282
     1
141
0.0
142
0.0
 63
   256
361
904
  0
ENDTAB
  0
TABLE
  2
LTYPE
  5
4
330
0
100
AcDbSymbolTable
 70
     3
  0
LTYPE
  5
11
330
4
100
AcDbSymbolTableRecord
100
AcDbLinetypeTableRecord
  2
ByBlock
 70
     0
  3

 72
    65
 73
     0
 40
0.0
  0
LTYPE
  5
12
330
4
100
AcDbSymbolTableRecord
100
AcDbLinetypeTableRecord
  2
ByLayer
 70
     0
  3

 72
    65
 73
     0
 40
0.0
  0
LTYPE
  5
13
330
4
100
AcDbSymbolTableRecord
100
AcDbLinetypeTableRecord
  2
Continuous
 70
     0
  3
Solid line
 72
    65
 73
     0
 40
0.0
  0
LTYPE
  5
D6C
330
4
100
AcDbSymbolTableRecord
100
AcDbLinetypeTableRecord
  2
BORDER
 70
     0
  3
Border __  __  . __  __  . __  __  . __  __  . 
 72
    65
 73
     6
 40
44.45
 49
12.7
 74
     0
 49
-6.35
 74
     0
 49
12.7
 74
     0
 49
-6.35
 74
     0
 49
0.0
 74
     0
 49
-6.35
 74
     0
  0
LTYPE
  5
D6D
330
4
100
AcDbSymbolTableRecord
100
AcDbLinetypeTableRecord
  2
HIDDEN
 70
     0
  3
Hidden _ _ _ _ _ _ _ _ _ _ _ _ _ _ _ _ _ _ _ _ 
 72
    65
 73
     2
 40
9.524999999999999
 49
6.35
 74
     0
 49
-3.175
 74
     0
  0
ENDTAB
  0
TABLE
  2
LAYER
  5
2
102
{ACAD_XDICTIONARY
360
2E1
102
}
330
0
100
AcDbSymbolTable
 70
     8
  0
LAYER
  5
14
330
2
100
AcDbSymbolTableRecord
100
AcDbLayerTableRecord
  2
0
 70
     0
 62
     7
  6
Continuous
370
    -3
390
1D
347
266
  0
LAYER
  5
4B
330
2
100
AcDbSymbolTableRecord
100
AcDbLayerTableRecord
  2
TEMPLATE
 70
     0
 62
     7
  6
Continuous
370
    20
390
1D
347
266
  0
LAYER
  5
4C
330
2
100
AcDbSymbolTableRecord
100
AcDbLayerTableRecord
  2
DIM
 70
     0
 62
     3
  6
Continuous
370
    13
390
1D
347
266
  0
LAYER
  5
4D
330
2
100
AcDbSymbolTableRecord
100
AcDbLayerTableRecord
  2
MODEL
 70
     0
 62
     7
  6
Continuous
370
    20
390
1D
347
266
  0
LAYER
  5
88C
330
2
100
AcDbSymbolTableRecord
100
AcDbLayerTableRecord
  2
HIDDEN
 70
     0
 62
     8
  6
HIDDEN
370
    20
390
1D
347
266
1001
AcAecLayerStandard
1000

1000

  0
LAYER
  5
D6B
330
2
100
AcDbSymbolTableRecord
100
AcDbLayerTableRecord
  2
BORDER
 70
     0
 62
     4
  6
BORDER
290
     0
370
    20
390
1D
347
266
1001
AcAecLayerStandard
1000

1000

  0
LAYER
  5
D8C
330
2
100
AcDbSymbolTableRecord
100
AcDbLayerTableRecord
  2
Defpoints
 70
     0
 62
     7
  6
Continuous
290
     0
370
    -3
390
1D
347
266
  0
LAYER
  5
1793
330
2
100
AcDbSymbolTableRecord
100
AcDbLayerTableRecord
  2
Standard
 70
     0
 62
     7
  6
Continuous
370
    -3
390
1D
347
266
  0
ENDTAB
  0
TABLE
  2
STYLE
  5
3
330
0
100
AcDbSymbolTable
 70
     2
  0
STYLE
  5
17
330
3
100
AcDbSymbolTableRecord
100
AcDbTextStyleTableRecord
  2
Standard
 70
     0
 40
0.0
 41
1.0
 50
0.0
 71
     0
 42
2.5
  3
txt
  4
BIGFONT.SHX
  0
STYLE
  5
39
330
3
100
AcDbSymbolTableRecord
100
AcDbTextStyleTableRecord
  2
ＭＳ ゴシック
 70
     0
 40
0.0
 41
1.0
 50
0.0
 71
     0
 42
2.5
  3
msgothic.ttc
  4
ＭＳ ゴシック
1001
ACAD
1000
ＭＳ ゴシック
1071
        0
  0
ENDTAB
  0
TABLE
  2
VIEW
  5
5
330
0
100
AcDbSymbolTable
 70
     0
  0
ENDTAB
  0
TABLE
  2
UCS
  5
6
330
0
100
AcDbSymbolTable
 70
     0
  0
ENDTAB
  0
TABLE
  2
APPID
  5
8
330
0
100
AcDbSymbolTable
 70
     4
  0
APPID
  5
16
330
8
100
AcDbSymbolTableRecord
100
AcDbRegAppTableRecord
  2
ACAD
 70
     0
  0
APPID
  5
7AC
330
8
100
AcDbSymbolTableRecord
100
AcDbRegAppTableRecord
  2
AcAecLayerStandard
 70
     0
  0
APPID
  5
E29
330
8
100
AcDbSymbolTableRecord
100
AcDbRegAppTableRecord
  2
ACAD_MLEADERVER
 70
     0
  0
APPID
  5
37F6
330
8
100
AcDbSymbolTableRecord
100
AcDbRegAppTableRecord
  2
PLOTTRANSPARENCY
 70
     0
  0
ENDTAB
  0
TABLE
  2
DIMSTYLE
  5
9
330
0
100
AcDbSymbolTable
 70
     2
100
AcDbDimStyleTable
  0
DIMSTYLE
105
18
330
9
100
AcDbSymbolTableRecord
100
AcDbDimStyleTableRecord
  2
Standard
 70
     0
178
     0
340
17
  0
DIMSTYLE
105
57
102
{ACAD_REACTORS
330
35CB
330
35CC
330
35CD
330
35D0
330
35D1
330
36DF
330
3702
102
}
330
9
100
AcDbSymbolTableRecord
100
AcDbDimStyleTableRecord
  2
tfrom線あり
 70
     0
  3
<>
  4
[]
 41
3.0
 42
10.0
 43
0.9999999999999999
 44
0.0
 73
     0
 74
     0
 77
     1
 78
    11
140
12.0
141
0.0
143
1.0
147
5.0
171
     1
174
     1
178
     0
179
     2
271
     0
272
     1
276
     2
284
    11
285
    11
286
    11
289
     0
340
39
341
4E
342
4E
  0
ENDTAB
  0
TABLE
  2
BLOCK_RECORD
  5
1
330
0
100
AcDbSymbolTable
 70
    17
  0
BLOCK_RECORD
  5
A
102
{ACAD_XDICTIONARY
360
24B4
102
}
330
1
100
AcDbSymbolTableRecord
100
AcDbBlockTableRecord
  2
*MODEL_SPACE
340
20
 70
     0
280
     1
281
     0
  0
BLOCK_RECORD
  5
B
330
1
100
AcDbSymbolTableRecord
100
AcDbBlockTableRecord
  2
*PAPER_SPACE
340
21
 70
     0
280
     1
281
     0
  0
BLOCK_RECORD
  5
4E
330
1
100
AcDbSymbolTableRecord
100
AcDbBlockTableRecord
  2
_DOT
340
0
102
{BLKREFS
331
251F
331
2520
331
252B
331
252C
331
35D8
331
35D9
331
35E5
331
35E6
331
35F8
331
35F9
331
3604
331
3605
331
3612
331
3613
331
361F
331
3620
331
362C
331
362D
331
3639
331
363A
331
3646
331
3647
331
3652
331
3653
331
36E8
331
36E9
331
36F6
331
36F7
331
3709
331
370A
102
}
 70
     0
280
     1
281
     0
  0
BLOCK_RECORD
  5
68D
330
1
100
AcDbSymbolTableRecord
100
AcDbBlockTableRecord
  2
block 2
340
0
102
{BLKREFS
331
68C
331
1343
102
}
 70
     0
280
     1
281
     0
  0
BLOCK_RECORD
  5
2519
330
1
100
AcDbSymbolTableRecord
100
AcDbBlockTableRecord
  2
*D2
340
0
 70
     0
280
     1
281
     0
  0
BLOCK_RECORD
  5
2525
330
1
100
AcDbSymbolTableRecord
100
AcDbBlockTableRecord
  2
*D3
340
0
 70
     0
280
     1
281
     0
  0
BLOCK_RECORD
  5
35D2
330
1
100
AcDbSymbolTableRecord
100
AcDbBlockTableRecord
  2
*D4
340
0
 70
     0
280
     1
281
     0
  0
BLOCK_RECORD
  5
35DF
330
1
100
AcDbSymbolTableRecord
100
AcDbBlockTableRecord
  2
*D5
340
0
 70
     0
280
     1
281
     0
  0
BLOCK_RECORD
  5
35F0
330
1
100
AcDbSymbolTableRecord
100
AcDbBlockTableRecord
  2
*D6
340
0
 70
     0
280
     1
281
     0
  0
BLOCK_RECORD
  5
35FE
330
1
100
AcDbSymbolTableRecord
100
AcDbBlockTableRecord
  2
*D7
340
0
 70
     0
280
     1
281
     0
  0
BLOCK_RECORD
  5
360C
330
1
100
AcDbSymbolTableRecord
100
AcDbBlockTableRecord
  2
*D8
340
0
 70
     0
280
     1
281
     0
  0
BLOCK_RECORD
  5
3619
330
1
100
AcDbSymbolTableRecord
100
AcDbBlockTableRecord
  2
*D9
340
0
 70
     0
280
     1
281
     0
  0
BLOCK_RECORD
  5
3626
330
1
100
AcDbSymbolTableRecord
100
AcDbBlockTableRecord
  2
*D10
340
0
 70
     0
280
     1
281
     0
  0
BLOCK_RECORD
  5
3633
330
1
100
AcDbSymbolTableRecord
100
AcDbBlockTableRecord
  2
*D11
340
0
 70
     0
280
     1
281
     0
  0
BLOCK_RECORD
  5
3640
330
1
100
AcDbSymbolTableRecord
100
AcDbBlockTableRecord
  2
*D12
340
0
 70
     0
280
     1
281
     0
  0
BLOCK_RECORD
  5
364D
330
1
100
AcDbSymbolTableRecord
100
AcDbBlockTableRecord
  2
*D13
340
0
 70
     0
280
     1
281
     0
  0
BLOCK_RECORD
  5
36E2
330
1
100
AcDbSymbolTableRecord
100
AcDbBlockTableRecord
  2
*D14
340
0
 70
     0
280
     1
281
     0
  0
BLOCK_RECORD
  5
36F0
330
1
100
AcDbSymbolTableRecord
100
AcDbBlockTableRecord
  2
*D15
340
0
 70
     0
280
     1
281
     0
  0
BLOCK_RECORD
  5
3703
330
1
100
AcDbSymbolTableRecord
100
AcDbBlockTableRecord
  2
*D16
340
0
 70
     0
280
     1
281
     0
  0
ENDTAB
  0
ENDSEC
  0
SECTION
  2
BLOCKS
  0
BLOCK
  5
D
330
A
100
AcDbEntity
  8
0
390
1D
100
AcDbBlockBegin
  2
*MODEL_SPACE
 70
     0
 10
0.0
 20
0.0
 30
0.0
  3
*MODEL_SPACE
  1
*MODEL_SPACE
  0
ENDBLK
  5
E
330
A
100
AcDbEntity
  8
0
390
1D
100
AcDbBlockEnd
  0
BLOCK
  5
F
330
B
100
AcDbEntity
 67
     1
  8
0
390
1D
100
AcDbBlockBegin
  2
*PAPER_SPACE
 70
     0
 10
0.0
 20
0.0
 30
0.0
  3
*PAPER_SPACE
  1
*PAPER_SPACE
  0
ENDBLK
  5
10
330
B
100
AcDbEntity
 67
     1
  8
0
390
1D
100
AcDbBlockEnd
  0
BLOCK
  5
36D5
330
4E
100
AcDbEntity
  8
0
390
1D
100
AcDbBlockBegin
  2
_DOT
 70
     0
 10
0.0
 20
0.0
 30
0.0
  3
_DOT
  1
_DOT
  0
POLYLINE
  5
36D7
330
4E
100
AcDbEntity
  8
0
  6
ByBlock
 62
     0
370
    -2
390
1D
100
AcDb2dPolyline
 66
     1
 10
0.0
 20
0.0
 30
0.0
 70
     1
 40
0.5
 41
0.5
  0
VERTEX
  5
36D8
330
36D7
100
AcDbEntity
  8
0
  6
ByBlock
 62
     0
370
    -2
390
1D
100
AcDbVertex
100
AcDb2dVertex
 10
-0.25
 20
0.0
 30
0.0
 42
1.0
  0
VERTEX
  5
36D9
330
36D7
100
AcDbEntity
  8
0
  6
ByBlock
 62
     0
370
    -2
390
1D
100
AcDbVertex
100
AcDb2dVertex
 10
0.25
 20
0.0
 30
0.0
 42
1.0
  0
SEQEND
  5
36DA
330
36D7
100
AcDbEntity
  8
0
390
1D
  0
LINE
  5
36DB
330
4E
100
AcDbEntity
  8
0
  6
ByBlock
 62
     0
370
    -2
390
1D
100
AcDbLine
 10
-0.5
 20
0.0
 30
0.0
 11
-1.0
 21
0.0
 31
0.0
  0
ENDBLK
  5
36DC
330
4E
100
AcDbEntity
  8
0
390
1D
100
AcDbBlockEnd
  0
BLOCK
  5
68E
330
68D
100
AcDbEntity
  8
0
100
AcDbBlockBegin
  2
block 2
 70
     0
 10
0.0
 20
0.0
 30
0.0
  3
block 2
  1
block 2
  0
ENDBLK
  5
6B0
330
68D
100
AcDbEntity
  8
0
100
AcDbBlockEnd
  0
BLOCK
  5
251A
330
2519
100
AcDbEntity
  8
0
100
AcDbBlockBegin
  2
*D2
 70
     1
 10
0.0
 20
0.0
 30
0.0
  3
*D2
  1

  0
LINE
  5
251C
330
2519
100
AcDbEntity
  8
DIM
 62
     0
370
    -2
100
AcDbLine
 10
-702.0822493748101
 20
798.5395136778114
 30
0.0
 11
-702.0822493748101
 21
963.9051262249235
 31
0.0
  0
LINE
  5
251D
330
2519
100
AcDbEntity
  8
DIM
 62
     0
370
    -2
100
AcDbLine
 10
-416.6372645723795
 20
798.5395136778114
 30
0.0
 11
-416.6372645723795
 21
963.9051262249235
 31
0.0
  0
LINE
  5
251E
330
2519
100
AcDbEntity
  8
DIM
 62
     0
370
    -2
100
AcDbLine
 10
-699.0822493748101
 20
963.9051262249235
 30
0.0
 11
-419.6372645723795
 21
963.9051262249235
 31
0.0
  0
INSERT
  5
251F
330
2519
100
AcDbEntity
  8
DIM
 62
     0
370
    -2
100
AcDbBlockReference
  2
_DOT
 10
-702.0822493748101
 20
963.9051262249235
 30
0.0
 41
3.0
 42
3.0
 43
3.0
 50
180.0
  0
INSERT
  5
2520
330
2519
100
AcDbEntity
  8
DIM
 62
     0
370
    -2
100
AcDbBlockReference
  2
_DOT
 10
-416.6372645723795
 20
963.9051262249235
 30
0.0
 41
3.0
 42
3.0
 43
3.0
  0
MTEXT
  5
2521
330
2519
100
AcDbEntity
  8
DIM
 62
     0
100
AcDbMText
 10
-559.3597569735957
 20
974.9051262249235
 30
0.0
 40
12.0
 41
0.0
 46
0.0
 71
     5
 72
     1
  1
\A1;285
  7
ＭＳ ゴシック
 73
     1
 44
1.0
  0
POINT
  5
2522
330
2519
100
AcDbEntity
  8
Defpoints
 62
     0
100
AcDbPoint
 10
-702.0822493748101
 20
788.5395136778114
 30
0.0
  0
POINT
  5
2523
330
2519
100
AcDbEntity
  8
Defpoints
 62
     0
100
AcDbPoint
 10
-416.6372645723795
 20
788.5395136778114
 30
0.0
  0
POINT
  5
2524
330
2519
100
AcDbEntity
  8
Defpoints
 62
     0
100
AcDbPoint
 10
-416.6372645723795
 20
963.9051262249235
 30
0.0
  0
ENDBLK
  5
251B
330
2519
100
AcDbEntity
  8
0
100
AcDbBlockEnd
  0
BLOCK
  5
2526
330
2525
100
AcDbEntity
  8
0
100
AcDbBlockBegin
  2
*D3
 70
     1
 10
0.0
 20
0.0
 30
0.0
  3
*D3
  1

  0
LINE
  5
2528
330
2525
100
AcDbEntity
  8
DIM
 62
     0
370
    -2
100
AcDbLine
 10
-654.0770354360566
 20
778.5395136778114
 30
0.0
 11
-654.0770354360566
 21
571.7928496048629
 31
0.0
  0
LINE
  5
2529
330
2525
100
AcDbEntity
  8
DIM
 62
     0
370
    -2
100
AcDbLine
 10
-464.642478511134
 20
778.5395136778114
 30
0.0
 11
-464.642478511134
 21
571.7928496048629
 31
0.0
  0
LINE
  5
252A
330
2525
100
AcDbEntity
  8
DIM
 62
     0
370
    -2
100
AcDbLine
 10
-651.0770354360566
 20
571.7928496048629
 30
0.0
 11
-467.642478511134
 21
571.7928496048629
 31
0.0
  0
INSERT
  5
252B
330
2525
100
AcDbEntity
  8
DIM
 62
     0
370
    -2
100
AcDbBlockReference
  2
_DOT
 10
-654.0770354360566
 20
571.7928496048629
 30
0.0
 41
3.0
 42
3.0
 43
3.0
 50
180.0
  0
INSERT
  5
252C
330
2525
100
AcDbEntity
  8
DIM
 62
     0
370
    -2
100
AcDbBlockReference
  2
_DOT
 10
-464.642478511134
 20
571.7928496048629
 30
0.0
 41
3.0
 42
3.0
 43
3.0
  0
MTEXT
  5
252D
330
2525
100
AcDbEntity
  8
DIM
 62
     0
100
AcDbMText
 10
-559.3597569735953
 20
582.7928496048629
 30
0.0
 40
12.0
 41
0.0
 46
0.0
 71
     5
 72
     1
  1
\A1;189
  7
ＭＳ ゴシック
 73
     1
 44
1.0
  0
POINT
  5
252E
330
2525
100
AcDbEntity
  8
Defpoints
 62
     0
100
AcDbPoint
 10
-654.0770354360566
 20
788.5395136778114
 30
0.0
  0
POINT
  5
252F
330
2525
100
AcDbEntity
  8
Defpoints
 62
     0
100
AcDbPoint
 10
-464.642478511134
 20
788.5395136778114
 30
0.0
  0
POINT
  5
2530
330
2525
100
AcDbEntity
  8
Defpoints
 62
     0
100
AcDbPoint
 10
-464.642478511134
 20
571.7928496048629
 30
0.0
  0
ENDBLK
  5
2527
330
2525
100
AcDbEntity
  8
0
100
AcDbBlockEnd
  0
BLOCK
  5
35D3
330
35D2
100
AcDbEntity
  8
0
100
AcDbBlockBegin
  2
*D4
 70
     1
 10
0.0
 20
0.0
 30
0.0
  3
*D4
  1

  0
LINE
  5
35D5
330
35D2
100
AcDbEntity
  8
DIM
 62
     0
370
    -2
100
AcDbLine
 10
684.9481844979123
 20
363.6481600285465
 30
0.0
 11
622.2036568539006
 21
363.6481600285465
 31
0.0
  0
LINE
  5
35D6
330
35D2
100
AcDbEntity
  8
DIM
 62
     0
370
    -2
100
AcDbLine
 10
684.9481844979123
 20
306.6481600285465
 30
0.0
 11
622.2036568539006
 21
306.6481600285465
 31
0.0
  0
LINE
  5
35D7
330
35D2
100
AcDbEntity
  8
DIM
 62
     0
370
    -2
100
AcDbLine
 10
622.2036568539006
 20
360.6481600285465
 30
0.0
 11
622.2036568539006
 21
309.6481600285465
 31
0.0
  0
INSERT
  5
35D8
330
35D2
100
AcDbEntity
  8
DIM
 62
     0
370
    -2
100
AcDbBlockReference
  2
_DOT
 10
622.2036568539006
 20
363.6481600285465
 30
0.0
 41
3.0
 42
3.0
 43
3.0
 50
90.0
  0
INSERT
  5
35D9
330
35D2
100
AcDbEntity
  8
DIM
 62
     0
370
    -2
100
AcDbBlockReference
  2
_DOT
 10
622.2036568539006
 20
306.6481600285465
 30
0.0
 41
3.0
 42
3.0
 43
3.0
 50
270.0
  0
MTEXT
  5
35DA
330
35D2
100
AcDbEntity
  8
DIM
 62
     0
100
AcDbMText
 10
611.2036568539006
 20
335.1481595480468
 30
0.0
 40
12.0
 41
0.0
 46
0.0
 71
     5
 72
     1
  1
\A1;%%c57
  7
ＭＳ ゴシック
 11
0.0
 21
1.0
 31
0.0
 73
     1
 44
1.0
  0
POINT
  5
35DB
330
35D2
100
AcDbEntity
  8
Defpoints
 62
     0
100
AcDbPoint
 10
694.9481844979123
 20
363.6481600285465
 30
0.0
  0
POINT
  5
35DC
330
35D2
100
AcDbEntity
  8
Defpoints
 62
     0
100
AcDbPoint
 10
694.9481844979123
 20
306.6481600285465
 30
0.0
  0
POINT
  5
35DD
330
35D2
100
AcDbEntity
  8
Defpoints
 62
     0
100
AcDbPoint
 10
622.2036568539006
 20
306.6481600285465
 30
0.0
  0
ENDBLK
  5
35D4
330
35D2
100
AcDbEntity
  8
0
100
AcDbBlockEnd
  0
BLOCK
  5
35E0
330
35DF
100
AcDbEntity
  8
0
100
AcDbBlockBegin
  2
*D5
 70
     1
 10
0.0
 20
0.0
 30
0.0
  3
*D5
  1

  0
LINE
  5
35E2
330
35DF
100
AcDbEntity
  8
DIM
 62
     0
370
    -2
100
AcDbLine
 10
666.1775844979124
 20
345.6061600285466
 30
0.0
 11
631.4355105593881
 21
345.6061600285466
 31
0.0
  0
LINE
  5
35E3
330
35DF
100
AcDbEntity
  8
DIM
 62
     0
370
    -2
100
AcDbLine
 10
666.1775844979124
 20
324.7061600285465
 30
0.0
 11
631.4355105593881
 21
324.7061600285465
 31
0.0
  0
LINE
  5
35E4
330
35DF
100
AcDbEntity
  8
DIM
 62
     0
370
    -2
100
AcDbLine
 10
631.4355105593881
 20
342.6061600285466
 30
0.0
 11
631.4355105593881
 21
327.7061600285465
 31
0.0
  0
INSERT
  5
35E5
330
35DF
100
AcDbEntity
  8
DIM
 62
     0
370
    -2
100
AcDbBlockReference
  2
_DOT
 10
631.4355105593881
 20
345.6061600285466
 30
0.0
 41
3.0
 42
3.0
 43
3.0
 50
90.0
  0
INSERT
  5
35E6
330
35DF
100
AcDbEntity
  8
DIM
 62
     0
370
    -2
100
AcDbBlockReference
  2
_DOT
 10
631.4355105593881
 20
324.7061600285465
 30
0.0
 41
3.0
 42
3.0
 43
3.0
 50
270.0
  0
MTEXT
  5
35E7
330
35DF
100
AcDbEntity
  8
DIM
 62
     0
100
AcDbMText
 10
614.1575105593881
 20
335.1561600285464
 30
0.0
 40
12.0
 41
0.0
 46
0.0
 71
     5
 72
     1
  1
\A1;\A1;G1/2 {}
  7
ＭＳ ゴシック
 11
0.0
 21
1.0
 31
0.0
 73
     1
 44
1.0
  0
POINT
  5
35E8
330
35DF
100
AcDbEntity
  8
Defpoints
 62
     0
100
AcDbPoint
 10
676.1775844979124
 20
345.6061600285466
 30
0.0
  0
POINT
  5
35E9
330
35DF
100
AcDbEntity
  8
Defpoints
 62
     0
100
AcDbPoint
 10
676.1775844979124
 20
324.7061600285465
 30
0.0
  0
POINT
  5
35EA
330
35DF
100
AcDbEntity
  8
Defpoints
 62
     0
100
AcDbPoint
 10
631.4355105593881
 20
324.7061600285465
 30
0.0
  0
ENDBLK
  5
35E1
330
35DF
100
AcDbEntity
  8
0
100
AcDbBlockEnd
  0
BLOCK
  5
35F1
330
35F0
100
AcDbEntity
  8
0
100
AcDbBlockBegin
  2
*D6
 70
     1
 10
0.0
 20
0.0
 30
0.0
  3
*D6
  1

  0
LINE
  5
35F3
330
35F0
100
AcDbEntity
  8
DIM
 62
     0
370
    -2
100
AcDbLine
 10
724.6181844979124
 20
296.7731599985464
 30
0.0
 11
724.6181844979124
 21
237.8470379590467
 31
0.0
  0
LINE
  5
35F4
330
35F0
100
AcDbEntity
  8
DIM
 62
     0
370
    -2
100
AcDbLine
 10
745.5781844979124
 20
296.7731599985464
 30
0.0
 11
745.5781844979124
 21
237.8470379590467
 31
0.0
  0
LINE
  5
35F5
330
35F0
100
AcDbEntity
  8
DIM
 62
     0
370
    -2
100
AcDbLine
 10
745.5781844979124
 20
237.8470379590467
 30
0.0
 11
876.1101844979124
 21
237.8470379590467
 31
0.0
  0
LINE
  5
35F6
330
35F0
100
AcDbEntity
  8
DIM
 62
     0
370
    -2
100
AcDbLine
 10
721.6181844979124
 20
237.8470379590467
 30
0.0
 11
718.6181844979124
 21
237.8470379590467
 31
0.0
  0
LINE
  5
35F7
330
35F0
100
AcDbEntity
  8
DIM
 62
     0
370
    -2
100
AcDbLine
 10
748.5781844979124
 20
237.8470379590467
 30
0.0
 11
751.5781844979124
 21
237.8470379590467
 31
0.0
  0
INSERT
  5
35F8
330
35F0
100
AcDbEntity
  8
DIM
 62
     0
370
    -2
100
AcDbBlockReference
  2
_DOT
 10
724.6181844979124
 20
237.8470379590467
 30
0.0
 41
3.0
 42
3.0
 43
3.0
  0
INSERT
  5
35F9
330
35F0
100
AcDbEntity
  8
DIM
 62
     0
370
    -2
100
AcDbBlockReference
  2
_DOT
 10
745.5781844979124
 20
237.8470379590467
 30
0.0
 41
3.0
 42
3.0
 43
3.0
 50
180.0
  0
MTEXT
  5
35FA
330
35F0
100
AcDbEntity
  8
DIM
 62
     0
100
AcDbMText
 10
856.2481844979125
 20
250.1250379590467
 30
0.0
 40
12.0
 41
0.0
 46
0.0
 71
     5
 72
     1
  1
\A1;\A1;G1/2 {}
  7
ＭＳ ゴシック
 73
     1
 44
1.0
  0
POINT
  5
35FB
330
35F0
100
AcDbEntity
  8
Defpoints
 62
     0
100
AcDbPoint
 10
724.6181844979124
 20
306.7731599985464
 30
0.0
  0
POINT
  5
35FC
330
35F0
100
AcDbEntity
  8
Defpoints
 62
     0
100
AcDbPoint
 10
745.5781844979124
 20
306.7731599985464
 30
0.0
  0
POINT
  5
35FD
330
35F0
100
AcDbEntity
  8
Defpoints
 62
     0
100
AcDbPoint
 10
745.5781844979124
 20
237.8470379590467
 30
0.0
  0
ENDBLK
  5
35F2
330
35F0
100
AcDbEntity
  8
0
100
AcDbBlockEnd
  0
BLOCK
  5
35FF
330
35FE
100
AcDbEntity
  8
0
100
AcDbBlockBegin
  2
*D7
 70
     1
 10
0.0
 20
0.0
 30
0.0
  3
*D7
  1

  0
LINE
  5
3601
330
35FE
100
AcDbEntity
  8
DIM
 62
     0
370
    -2
100
AcDbLine
 10
617.8004729647296
 20
370.2665208377011
 30
0.0
 11
617.8004729647296
 21
301.6860198135664
 31
0.0
  0
LINE
  5
3602
330
35FE
100
AcDbEntity
  8
DIM
 62
     0
370
    -2
100
AcDbLine
 10
657.9504729647293
 20
345.3381482953133
 30
0.0
 11
657.9504729647293
 21
301.6860198135664
 31
0.0
  0
LINE
  5
3603
330
35FE
100
AcDbEntity
  8
DIM
 62
     0
370
    -2
100
AcDbLine
 10
620.8004729647296
 20
301.6860198135664
 30
0.0
 11
654.9504729647293
 21
301.6860198135664
 31
0.0
  0
INSERT
  5
3604
330
35FE
100
AcDbEntity
  8
DIM
 62
     0
370
    -2
100
AcDbBlockReference
  2
_DOT
 10
617.8004729647296
 20
301.6860198135664
 30
0.0
 41
3.0
 42
3.0
 43
3.0
 50
180.0
  0
INSERT
  5
3605
330
35FE
100
AcDbEntity
  8
DIM
 62
     0
370
    -2
100
AcDbBlockReference
  2
_DOT
 10
657.9504729647293
 20
301.6860198135664
 30
0.0
 41
3.0
 42
3.0
 43
3.0
  0
MTEXT
  5
3606
330
35FE
100
AcDbEntity
  8
DIM
 62
     0
100
AcDbMText
 10
637.6255220862236
 20
312.6860198135664
 30
0.0
 40
12.0
 41
0.0
 46
0.0
 71
     5
 72
     1
  1
\A1;\A1;40
  7
ＭＳ ゴシック
 73
     1
 44
1.0
  0
POINT
  5
3607
330
35FE
100
AcDbEntity
  8
Defpoints
 62
     0
100
AcDbPoint
 10
617.8004729647296
 20
380.2665208377011
 30
0.0
  0
POINT
  5
3608
330
35FE
100
AcDbEntity
  8
Defpoints
 62
     0
100
AcDbPoint
 10
657.9504729647293
 20
355.3381482953133
 30
0.0
  0
POINT
  5
3609
330
35FE
100
AcDbEntity
  8
Defpoints
 62
     0
100
AcDbPoint
 10
657.9504729647293
 20
301.6860198135664
 30
0.0
  0
ENDBLK
  5
3600
330
35FE
100
AcDbEntity
  8
0
100
AcDbBlockEnd
  0
BLOCK
  5
360D
330
360C
100
AcDbEntity
  8
0
100
AcDbBlockBegin
  2
*D8
 70
     1
 10
0.0
 20
0.0
 30
0.0
  3
*D8
  1

  0
LINE
  5
360F
330
360C
100
AcDbEntity
  8
DIM
 62
     0
370
    -2
100
AcDbLine
 10
617.8004729647291
 20
502.9684707839205
 30
0.0
 11
617.8004729647291
 21
718.025246598332
 31
0.0
  0
LINE
  5
3610
330
360C
100
AcDbEntity
  8
DIM
 62
     0
370
    -2
100
AcDbLine
 10
865.9521414132291
 20
577.6445694912013
 30
0.0
 11
865.9521414132291
 21
718.025246598332
 31
0.0
  0
LINE
  5
3611
330
360C
100
AcDbEntity
  8
DIM
 62
     0
370
    -2
100
AcDbLine
 10
620.8004729647291
 20
718.025246598332
 30
0.0
 11
862.9521414132291
 21
718.025246598332
 31
0.0
  0
INSERT
  5
3612
330
360C
100
AcDbEntity
  8
DIM
 62
     0
370
    -2
100
AcDbBlockReference
  2
_DOT
 10
617.8004729647291
 20
718.025246598332
 30
0.0
 41
3.0
 42
3.0
 43
3.0
 50
180.0
  0
INSERT
  5
3613
330
360C
100
AcDbEntity
  8
DIM
 62
     0
370
    -2
100
AcDbBlockReference
  2
_DOT
 10
865.9521414132291
 20
718.025246598332
 30
0.0
 41
3.0
 42
3.0
 43
3.0
  0
MTEXT
  5
3614
330
360C
100
AcDbEntity
  8
DIM
 62
     0
100
AcDbMText
 10
741.1263071889792
 20
729.025246598332
 30
0.0
 40
12.0
 41
0.0
 46
0.0
 71
     5
 72
     1
  1
\A1;\A1;248
  7
ＭＳ ゴシック
 73
     1
 44
1.0
  0
POINT
  5
3615
330
360C
100
AcDbEntity
  8
Defpoints
 62
     0
100
AcDbPoint
 10
617.8004729647291
 20
492.9684707839205
 30
0.0
  0
POINT
  5
3616
330
360C
100
AcDbEntity
  8
Defpoints
 62
     0
100
AcDbPoint
 10
865.9521414132291
 20
567.6445694912013
 30
0.0
  0
POINT
  5
3617
330
360C
100
AcDbEntity
  8
Defpoints
 62
     0
100
AcDbPoint
 10
865.9521414132291
 20
718.025246598332
 30
0.0
  0
ENDBLK
  5
360E
330
360C
100
AcDbEntity
  8
0
100
AcDbBlockEnd
  0
BLOCK
  5
361A
330
3619
100
AcDbEntity
  8
0
100
AcDbBlockBegin
  2
*D9
 70
     1
 10
0.0
 20
0.0
 30
0.0
  3
*D9
  1

  0
LINE
  5
361C
330
3619
100
AcDbEntity
  8
DIM
 62
     0
370
    -2
100
AcDbLine
 10
755.4252701931773
 20
431.6388987117011
 30
0.0
 11
931.3165766052846
 21
431.6388987117011
 31
0.0
  0
LINE
  5
361D
330
3619
100
AcDbEntity
  8
DIM
 62
     0
370
    -2
100
AcDbLine
 10
875.9521414132291
 20
567.6445694912013
 30
0.0
 11
931.3165766052846
 21
567.6445694912013
 31
0.0
  0
LINE
  5
361E
330
3619
100
AcDbEntity
  8
DIM
 62
     0
370
    -2
100
AcDbLine
 10
931.3165766052846
 20
434.6388987117011
 30
0.0
 11
931.3165766052846
 21
564.6445694912013
 31
0.0
  0
INSERT
  5
361F
330
3619
100
AcDbEntity
  8
DIM
 62
     0
370
    -2
100
AcDbBlockReference
  2
_DOT
 10
931.3165766052846
 20
431.6388987117011
 30
0.0
 41
3.0
 42
3.0
 43
3.0
 50
270.0
  0
INSERT
  5
3620
330
3619
100
AcDbEntity
  8
DIM
 62
     0
370
    -2
100
AcDbBlockReference
  2
_DOT
 10
931.3165766052846
 20
567.6445694912013
 30
0.0
 41
3.0
 42
3.0
 43
3.0
 50
90.0
  0
MTEXT
  5
3621
330
3619
100
AcDbEntity
  8
DIM
 62
     0
100
AcDbMText
 10
920.3165766052846
 20
499.6417354907016
 30
0.0
 40
12.0
 41
0.0
 46
0.0
 71
     5
 72
     1
  1
\A1;\A1;136
  7
ＭＳ ゴシック
 11
0.0
 21
1.0
 31
0.0
 73
     1
 44
1.0
  0
POINT
  5
3622
330
3619
100
AcDbEntity
  8
Defpoints
 62
     0
100
AcDbPoint
 10
745.4252701931773
 20
431.6388987117011
 30
0.0
  0
POINT
  5
3623
330
3619
100
AcDbEntity
  8
Defpoints
 62
     0
100
AcDbPoint
 10
865.9521414132291
 20
567.6445694912013
 30
0.0
  0
POINT
  5
3624
330
3619
100
AcDbEntity
  8
Defpoints
 62
     0
100
AcDbPoint
 10
931.3165766052846
 20
567.6445694912013
 30
0.0
  0
ENDBLK
  5
361B
330
3619
100
AcDbEntity
  8
0
100
AcDbBlockEnd
  0
BLOCK
  5
3627
330
3626
100
AcDbEntity
  8
0
100
AcDbBlockBegin
  2
*D10
 70
     1
 10
0.0
 20
0.0
 30
0.0
  3
*D10
  1

  0
LINE
  5
3629
330
3626
100
AcDbEntity
  8
DIM
 62
     0
370
    -2
100
AcDbLine
 10
679.9829763669532
 20
431.6388987117008
 30
0.0
 11
938.9810082775052
 21
431.6388987117008
 31
0.0
  0
LINE
  5
362A
330
3626
100
AcDbEntity
  8
DIM
 62
     0
370
    -2
100
AcDbLine
 10
729.2710547411648
 20
664.598890084701
 30
0.0
 11
938.9810082775052
 21
664.598890084701
 31
0.0
  0
LINE
  5
362B
330
3626
100
AcDbEntity
  8
DIM
 62
     0
370
    -2
100
AcDbLine
 10
938.9810082775052
 20
434.6388987117008
 30
0.0
 11
938.9810082775052
 21
661.598890084701
 31
0.0
  0
INSERT
  5
362C
330
3626
100
AcDbEntity
  8
DIM
 62
     0
370
    -2
100
AcDbBlockReference
  2
_DOT
 10
938.9810082775052
 20
431.6388987117008
 30
0.0
 41
3.0
 42
3.0
 43
3.0
 50
270.0
  0
INSERT
  5
362D
330
3626
100
AcDbEntity
  8
DIM
 62
     0
370
    -2
100
AcDbBlockReference
  2
_DOT
 10
938.9810082775052
 20
664.598890084701
 30
0.0
 41
3.0
 42
3.0
 43
3.0
 50
90.0
  0
MTEXT
  5
362E
330
3626
100
AcDbEntity
  8
DIM
 62
     0
100
AcDbMText
 10
927.9810082775052
 20
548.118891578201
 30
0.0
 40
12.0
 41
0.0
 46
0.0
 71
     5
 72
     1
  1
\A1;\A1;233
  7
ＭＳ ゴシック
 11
0.0
 21
1.0
 31
0.0
 73
     1
 44
1.0
  0
POINT
  5
362F
330
3626
100
AcDbEntity
  8
Defpoints
 62
     0
100
AcDbPoint
 10
669.9829763669532
 20
431.6388987117008
 30
0.0
  0
POINT
  5
3630
330
3626
100
AcDbEntity
  8
Defpoints
 62
     0
100
AcDbPoint
 10
719.2710547411648
 20
664.598890084701
 30
0.0
  0
POINT
  5
3631
330
3626
100
AcDbEntity
  8
Defpoints
 62
     0
100
AcDbPoint
 10
938.9810082775052
 20
664.598890084701
 30
0.0
  0
ENDBLK
  5
3628
330
3626
100
AcDbEntity
  8
0
100
AcDbBlockEnd
  0
BLOCK
  5
3634
330
3633
100
AcDbEntity
  8
0
100
AcDbBlockBegin
  2
*D11
 70
     1
 10
0.0
 20
0.0
 30
0.0
  3
*D11
  1

  0
LINE
  5
3636
330
3633
100
AcDbEntity
  8
DIM
 62
     0
370
    -2
100
AcDbLine
 10
172.4813306577142
 20
1224.19494988697
 30
0.0
 11
172.4813306577142
 21
1274.009431430267
 31
0.0
  0
LINE
  5
3637
330
3633
100
AcDbEntity
  8
DIM
 62
     0
370
    -2
100
AcDbLine
 10
333.4743306577146
 20
1214.198549886968
 30
0.0
 11
333.4743306577146
 21
1274.009431430267
 31
0.0
  0
LINE
  5
3638
330
3633
100
AcDbEntity
  8
DIM
 62
     0
370
    -2
100
AcDbLine
 10
175.4813306577142
 20
1274.009431430267
 30
0.0
 11
330.4743306577146
 21
1274.009431430267
 31
0.0
  0
INSERT
  5
3639
330
3633
100
AcDbEntity
  8
DIM
 62
     0
370
    -2
100
AcDbBlockReference
  2
_DOT
 10
172.4813306577142
 20
1274.009431430267
 30
0.0
 41
3.0
 42
3.0
 43
3.0
 50
180.0
  0
INSERT
  5
363A
330
3633
100
AcDbEntity
  8
DIM
 62
     0
370
    -2
100
AcDbBlockReference
  2
_DOT
 10
333.4743306577146
 20
1274.009431430267
 30
0.0
 41
3.0
 42
3.0
 43
3.0
  0
MTEXT
  5
363B
330
3633
100
AcDbEntity
  8
DIM
 62
     0
100
AcDbMText
 10
252.9778318352153
 20
1285.009431430267
 30
0.0
 40
12.0
 41
0.0
 46
0.0
 71
     5
 72
     1
  1
\A1;\A1;150 {} %%P11
  7
ＭＳ ゴシック
 73
     1
 44
1.0
  0
POINT
  5
363C
330
3633
100
AcDbEntity
  8
Defpoints
 62
     0
100
AcDbPoint
 10
172.4813306577142
 20
1214.19494988697
 30
0.0
  0
POINT
  5
363D
330
3633
100
AcDbEntity
  8
Defpoints
 62
     0
100
AcDbPoint
 10
333.4743306577146
 20
1204.198549886968
 30
0.0
  0
POINT
  5
363E
330
3633
100
AcDbEntity
  8
Defpoints
 62
     0
100
AcDbPoint
 10
333.4743306577146
 20
1274.009431430267
 30
0.0
  0
ENDBLK
  5
3635
330
3633
100
AcDbEntity
  8
0
100
AcDbBlockEnd
  0
BLOCK
  5
3641
330
3640
100
AcDbEntity
  8
0
100
AcDbBlockBegin
  2
*D12
 70
     1
 10
0.0
 20
0.0
 30
0.0
  3
*D12
  1

  0
LINE
  5
3643
330
3640
100
AcDbEntity
  8
DIM
 62
     0
370
    -2
100
AcDbLine
 10
132.5686401438393
 20
1073.27188624702
 30
0.0
 11
132.5686401438393
 21
855.2066055059538
 31
0.0
  0
LINE
  5
3644
330
3640
100
AcDbEntity
  8
DIM
 62
     0
370
    -2
100
AcDbLine
 10
429.4862878483391
 20
1072.481177468619
 30
0.0
 11
429.4862878483391
 21
855.2066055059538
 31
0.0
  0
LINE
  5
3645
330
3640
100
AcDbEntity
  8
DIM
 62
     0
370
    -2
100
AcDbLine
 10
135.5686401438393
 20
855.2066055059538
 30
0.0
 11
426.4862878483391
 21
855.2066055059538
 31
0.0
  0
INSERT
  5
3646
330
3640
100
AcDbEntity
  8
DIM
 62
     0
370
    -2
100
AcDbBlockReference
  2
_DOT
 10
132.5686401438393
 20
855.2066055059538
 30
0.0
 41
3.0
 42
3.0
 43
3.0
 50
180.0
  0
INSERT
  5
3647
330
3640
100
AcDbEntity
  8
DIM
 62
     0
370
    -2
100
AcDbBlockReference
  2
_DOT
 10
429.4862878483391
 20
855.2066055059538
 30
0.0
 41
3.0
 42
3.0
 43
3.0
  0
MTEXT
  5
3648
330
3640
100
AcDbEntity
  8
DIM
 62
     0
100
AcDbMText
 10
281.027465567834
 20
866.2066055059538
 30
0.0
 40
12.0
 41
0.0
 46
0.0
 71
     5
 72
     1
  1
\A1;\A1;297
  7
ＭＳ ゴシック
 73
     1
 44
1.0
  0
POINT
  5
3649
330
3640
100
AcDbEntity
  8
Defpoints
 62
     0
100
AcDbPoint
 10
132.5686401438393
 20
1083.27188624702
 30
0.0
  0
POINT
  5
364A
330
3640
100
AcDbEntity
  8
Defpoints
 62
     0
100
AcDbPoint
 10
429.4862878483391
 20
1082.481177468619
 30
0.0
  0
POINT
  5
364B
330
3640
100
AcDbEntity
  8
Defpoints
 62
     0
100
AcDbPoint
 10
429.4862878483391
 20
855.2066055059538
 30
0.0
  0
ENDBLK
  5
3642
330
3640
100
AcDbEntity
  8
0
100
AcDbBlockEnd
  0
BLOCK
  5
364E
330
364D
100
AcDbEntity
  8
0
100
AcDbBlockBegin
  2
*D13
 70
     1
 10
0.0
 20
0.0
 30
0.0
  3
*D13
  1

  0
LINE
  5
3650
330
364D
100
AcDbEntity
  8
DIM
 62
     0
370
    -2
100
AcDbLine
 10
865.9521414132291
 20
556.1324142862013
 30
0.0
 11
865.9521414132291
 21
521.3656850878803
 31
0.0
  0
LINE
  5
3651
330
364D
100
AcDbEntity
  8
DIM
 62
     0
370
    -2
100
AcDbLine
 10
866.6514474160223
 20
556.210947545169
 30
0.0
 11
868.7773825175477
 21
521.4520034841215
 31
0.0
  0
INSERT
  5
3652
330
364D
100
AcDbEntity
  8
DIM
 62
     0
370
    -2
100
AcDbBlockReference
  2
_DOT
 10
865.9521414132291
 20
521.3656850878803
 30
0.0
 41
3.0
 42
3.0
 43
3.0
 50
181.8574070122376
  0
INSERT
  5
3653
330
364D
100
AcDbEntity
  8
DIM
 62
     0
370
    -2
100
AcDbBlockReference
  2
_DOT
 10
868.7773825175477
 20
521.4520034841215
 30
0.0
 41
3.0
 42
3.0
 43
3.0
 50
1.642571653672796
  0
MTEXT
  5
3654
330
364D
100
AcDbEntity
  8
DIM
 62
     0
100
AcDbMText
 10
867.83703758195
 20
510.1865935751324
 30
0.0
 40
12.0
 41
0.0
 46
0.0
 71
     5
 72
     1
  1
\A1;\A1;3%%d
  7
ＭＳ ゴシック
 11
0.9994623571569884
 21
0.03278714117144914
 31
0.0
 73
     1
 44
1.0
  0
POINT
  5
3655
330
364D
100
AcDbEntity
  8
Defpoints
 62
     0
100
AcDbPoint
 10
866.8944092781492
 20
521.3752786722716
 30
0.0
  0
POINT
  5
3656
330
364D
100
AcDbEntity
  8
Defpoints
 62
     0
100
AcDbPoint
 10
865.9521414132291
 20
567.6445694912013
 30
0.0
  0
POINT
  5
3657
330
364D
100
AcDbEntity
  8
Defpoints
 62
     0
100
AcDbPoint
 10
865.9521414132291
 20
567.6445694912013
 30
0.0
  0
POINT
  5
3658
330
364D
100
AcDbEntity
  8
Defpoints
 62
     0
100
AcDbPoint
 10
866.0409657372297
 20
566.1922957567012
 30
0.0
  0
POINT
  5
3659
330
364D
100
AcDbEntity
  8
Defpoints
 62
     0
100
AcDbPoint
 10
865.9521414132291
 20
566.1324142862013
 30
0.0
  0
ENDBLK
  5
364F
330
364D
100
AcDbEntity
  8
0
100
AcDbBlockEnd
  0
BLOCK
  5
36E3
330
36E2
100
AcDbEntity
  8
0
100
AcDbBlockBegin
  2
*D14
 70
     1
 10
0.0
 20
0.0
 30
0.0
  3
*D14
  1

  0
LINE
  5
36E5
330
36E2
100
AcDbEntity
  8
DIM
 62
     0
370
    -2
100
AcDbLine
 10
200.5309639958405
 20
1207.650602952944
 30
0.0
 11
200.5309639958405
 21
1257.217976953947
 31
0.0
  0
LINE
  5
36E6
330
36E2
100
AcDbEntity
  8
DIM
 62
     0
370
    -2
100
AcDbLine
 10
361.5239639958404
 20
1207.650602952941
 30
0.0
 11
361.5239639958404
 21
1257.217976953947
 31
0.0
  0
LINE
  5
36E7
330
36E2
100
AcDbEntity
  8
DIM
 62
     0
370
    -2
100
AcDbLine
 10
203.5309639958405
 20
1257.217976953947
 30
0.0
 11
358.5239639958404
 21
1257.217976953947
 31
0.0
  0
INSERT
  5
36E8
330
36E2
100
AcDbEntity
  8
DIM
 62
     0
370
    -2
100
AcDbBlockReference
  2
_DOT
 10
200.5309639958405
 20
1257.217976953947
 30
0.0
 41
3.0
 42
3.0
 43
3.0
 50
180.0
  0
INSERT
  5
36E9
330
36E2
100
AcDbEntity
  8
DIM
 62
     0
370
    -2
100
AcDbBlockReference
  2
_DOT
 10
361.5239639958404
 20
1257.217976953947
 30
0.0
 41
3.0
 42
3.0
 43
3.0
  0
MTEXT
  5
36EA
330
36E2
100
AcDbEntity
  8
DIM
 62
     0
100
AcDbMText
 10
281.0106213186761
 20
1268.217976953947
 30
0.0
 40
12.0
 41
0.0
 46
0.0
 71
     5
 72
     1
  1
\A1;150±11
  7
ＭＳ ゴシック
 73
     1
 44
1.0
  0
POINT
  5
36EB
330
36E2
100
AcDbEntity
  8
Defpoints
 62
     0
100
AcDbPoint
 10
200.5309639958405
 20
1197.650602952944
 30
0.0
  0
POINT
  5
36EC
330
36E2
100
AcDbEntity
  8
Defpoints
 62
     0
100
AcDbPoint
 10
361.5239639958404
 20
1197.650602952941
 30
0.0
  0
POINT
  5
36ED
330
36E2
100
AcDbEntity
  8
Defpoints
 62
     0
100
AcDbPoint
 10
361.5239639958404
 20
1257.217976953947
 30
0.0
  0
ENDBLK
  5
36E4
330
36E2
100
AcDbEntity
  8
0
100
AcDbBlockEnd
  0
BLOCK
  5
36F1
330
36F0
100
AcDbEntity
  8
0
100
AcDbBlockBegin
  2
*D15
 70
     1
 10
0.0
 20
0.0
 30
0.0
  3
*D15
  1

  0
LINE
  5
36F3
330
36F0
100
AcDbEntity
  8
DIM
 62
     0
370
    -2
100
AcDbLine
 10
327.9715897764921
 20
470.1388980283783
 30
0.0
 11
327.9715897764921
 21
705.4477580230754
 31
0.0
  0
LINE
  5
36F4
330
36F0
100
AcDbEntity
  8
DIM
 62
     0
370
    -2
100
AcDbLine
 10
252.9778306579627
 20
674.5988900847965
 30
0.0
 11
252.9778306579627
 21
705.447758023075
 31
0.0
  0
LINE
  5
36F5
330
36F0
100
AcDbEntity
  8
DIM
 62
     0
370
    -2
100
AcDbLine
 10
324.9715897764921
 20
705.4477580230754
 30
0.0
 11
255.9778306579627
 21
705.447758023075
 31
0.0
  0
INSERT
  5
36F6
330
36F0
100
AcDbEntity
  8
DIM
 62
     0
370
    -2
100
AcDbBlockReference
  2
_DOT
 10
327.9715897764921
 20
705.4477580230754
 30
0.0
 41
3.0
 42
3.0
 43
3.0
 50
0.0000000000002606
  0
INSERT
  5
36F7
330
36F0
100
AcDbEntity
  8
DIM
 62
     0
370
    -2
100
AcDbBlockReference
  2
_DOT
 10
252.9778306579627
 20
705.447758023075
 30
0.0
 41
3.0
 42
3.0
 43
3.0
 50
180.0000000000002
  0
MTEXT
  5
36F8
330
36F0
100
AcDbEntity
  8
DIM
 62
     0
100
AcDbMText
 10
290.4747102172267
 20
716.4477580230752
 30
0.0
 40
12.0
 41
0.0
 46
0.0
 71
     5
 72
     1
  1
\A1;75
  7
ＭＳ ゴシック
 73
     1
 44
1.0
  0
POINT
  5
36F9
330
36F0
100
AcDbEntity
  8
Defpoints
 62
     0
100
AcDbPoint
 10
327.9715897764921
 20
460.1388980283783
 30
0.0
  0
POINT
  5
36FA
330
36F0
100
AcDbEntity
  8
Defpoints
 62
     0
100
AcDbPoint
 10
252.9778306579627
 20
664.5988900847965
 30
0.0
  0
POINT
  5
36FB
330
36F0
100
AcDbEntity
  8
Defpoints
 62
     0
100
AcDbPoint
 10
252.9778306579627
 20
705.447758023075
 30
0.0
  0
ENDBLK
  5
36F2
330
36F0
100
AcDbEntity
  8
0
100
AcDbBlockEnd
  0
BLOCK
  5
3704
330
3703
100
AcDbEntity
  8
0
100
AcDbBlockBegin
  2
*D16
 70
     1
 10
0.0
 20
0.0
 30
0.0
  3
*D16
  1

  0
LINE
  5
3706
330
3703
100
AcDbEntity
  8
DIM
 62
     0
370
    -2
100
AcDbLine
 10
546.1461396439594
 20
431.6388987117011
 30
0.0
 11
524.7769813715369
 21
431.6388987117011
 31
0.0
  0
LINE
  5
3707
330
3703
100
AcDbEntity
  8
DIM
 62
     0
370
    -2
100
AcDbLine
 10
753.9079425299313
 20
664.5988900847013
 30
0.0
 11
524.7769813715369
 21
664.5988900847013
 31
0.0
  0
LINE
  5
3708
330
3703
100
AcDbEntity
  8
DIM
 62
     0
370
    -2
100
AcDbLine
 10
524.7769813715369
 20
434.6388987117011
 30
0.0
 11
524.7769813715369
 21
661.5988900847013
 31
0.0
  0
INSERT
  5
3709
330
3703
100
AcDbEntity
  8
DIM
 62
     0
370
    -2
100
AcDbBlockReference
  2
_DOT
 10
524.7769813715369
 20
431.6388987117011
 30
0.0
 41
3.0
 42
3.0
 43
3.0
 50
270.0
  0
INSERT
  5
370A
330
3703
100
AcDbEntity
  8
DIM
 62
     0
370
    -2
100
AcDbBlockReference
  2
_DOT
 10
524.7769813715369
 20
664.5988900847013
 30
0.0
 41
3.0
 42
3.0
 43
3.0
 50
90.0
  0
MTEXT
  5
370B
330
3703
100
AcDbEntity
  8
DIM
 62
     0
100
AcDbMText
 10
513.7769813715369
 20
548.1188915782013
 30
0.0
 40
12.0
 41
0.0
 46
0.0
 71
     5
 72
     1
  1
\A1;\A1;233
  7
ＭＳ ゴシック
 11
0.0
 21
1.0
 31
0.0
 73
     1
 44
1.0
  0
POINT
  5
370C
330
3703
100
AcDbEntity
  8
Defpoints
 62
     0
100
AcDbPoint
 10
556.1461396439594
 20
431.6388987117011
 30
0.0
  0
POINT
  5
370D
330
3703
100
AcDbEntity
  8
Defpoints
 62
     0
100
AcDbPoint
 10
763.9079425299313
 20
664.5988900847013
 30
0.0
  0
POINT
  5
370E
330
3703
100
AcDbEntity
  8
Defpoints
 62
     0
100
AcDbPoint
 10
524.7769813715367
 20
664.5988900847012
 30
0.0
  0
ENDBLK
  5
3705
330
3703
100
AcDbEntity
  8
0
100
AcDbBlockEnd
  0
ENDSEC
  0
SECTION
  2
ENTITIES
  0
MTEXT
  5
177
330
A
100
AcDbEntity
  8
TEMPLATE
390
1D
100
AcDbMText
 10
39.60107227386538
 20
171.8658758157141
 30
0.0
 40
8.144205729166663
 41
0.0
 46
0.0
 71
     1
 72
     1
  1
品名
  7
ＭＳ ゴシック
 73
     1
 44
0.7828267384257843
  0
MTEXT
  5
178
330
A
100
AcDbEntity
  8
TEMPLATE
390
1D
100
AcDbMText
 10
39.60107227386538
 20
129.365875815714
 30
0.0
 40
8.144205729166663
 41
0.0
 46
0.0
 71
     1
 72
     1
  1
仕様
  7
ＭＳ ゴシック
 73
     1
 44
0.7828267384257843
  0
LINE
  5
179
330
A
100
AcDbEntity
  8
TEMPLATE
390
1D
100
AcDbLine
 10
1011.101072273624
 20
133.5733367532142
 30
0.0
 11
36.10107227362437
 21
133.5733367532142
 31
0.0
  0
LWPOLYLINE
  5
17A
330
A
100
AcDbEntity
  8
TEMPLATE
390
1D
100
AcDbPolyline
 90
        5
 70
   128
 43
0.0
 10
1011.101072273624
 20
1448.573336753213
 10
36.10107227362437
 20
1448.573336753213
 10
36.10107227362437
 20
48.57333675321413
 10
1011.101072273624
 20
48.57333675321413
 10
1011.101072273624
 20
1448.573336753213
  0
LINE
  5
17B
330
A
100
AcDbEntity
  8
TEMPLATE
390
1D
100
AcDbLine
 10
1011.101072273624
 20
176.0733367532141
 30
0.0
 11
36.10107227362437
 21
176.0733367532141
 31
0.0
  0
LINE
  5
17C
330
A
100
AcDbEntity
  8
TEMPLATE
390
1D
100
AcDbLine
 10
1011.101072273866
 20
91.07333675321412
 30
0.0
 11
634.601072273865
 21
91.07333675321412
 31
0.0
  0
MTEXT
  5
17E
330
A
100
AcDbEntity
  8
TEMPLATE
390
1D
100
AcDbMText
 10
649.5367753999956
 20
76.11813951656006
 30
0.0
 40
12.21630859375
 41
0.0
 46
0.0
 71
     1
 72
     1
  1
大洋金物株式会社 ティーフォルム事業部
  7
ＭＳ ゴシック
 73
     1
 44
0.7828267384257843
  0
MTEXT
  5
180
330
A
100
AcDbEntity
  8
TEMPLATE
390
1D
100
AcDbMText
 10
915.601072273995
 20
115.0746453469641
 30
0.0
 40
12.21630859375
 41
0.0
 46
12.21630859375
 71
     1
 72
     1
  1
{1:5}
  7
ＭＳ ゴシック
 73
     1
 44
0.7828267384257843
1001
ACAD
1000
ACAD_MTEXT_DEFINED_HEIGHT_BEGIN
1070
    46
1040
12.21630859375
1000
ACAD_MTEXT_DEFINED_HEIGHT_END
  0
MTEXT
  5
181
330
A
100
AcDbEntity
  8
TEMPLATE
390
1D
100
AcDbMText
 10
889.101072273995
 20
129.365875815714
 30
0.0
 40
8.144205729166663
 41
0.0
 46
0.0
 71
     1
 72
     1
  1
縮尺
  7
ＭＳ ゴシック
 73
     1
 44
0.7828267384257843
  0
LINE
  5
182
330
A
100
AcDbEntity
  8
TEMPLATE
390
1D
100
AcDbLine
 10
885.601072273995
 20
91.07333675321412
 30
0.0
 11
885.601072273995
 21
133.5733367532142
 31
0.0
  0
MTEXT
  5
183
330
A
100
AcDbEntity
  8
TEMPLATE
390
1D
100
AcDbMText
 10
763.601072273995
 20
129.365875815714
 30
0.0
 40
8.144205729166663
 41
0.0
 46
0.0
 71
     1
 72
     1
  1
容量
  7
ＭＳ ゴシック
 73
     1
 44
0.7828267384257843
  0
LINE
  5
184
330
A
100
AcDbEntity
  8
TEMPLATE
390
1D
100
AcDbLine
 10
760.101072273995
 20
91.07333675321412
 30
0.0
 11
760.101072273995
 21
133.5733367532142
 31
0.0
  0
MTEXT
  5
185
330
A
100
AcDbEntity
  8
TEMPLATE
390
1D
100
AcDbMText
 10
638.101072273995
 20
171.8658758157141
 30
0.0
 40
8.144205729166663
 41
0.0
 46
0.0
 71
     1
 72
     1
  1
品番
  7
ＭＳ ゴシック
 73
     1
 44
0.7828267384257843
  0
MTEXT
  5
186
330
A
100
AcDbEntity
  8
TEMPLATE
390
1D
100
AcDbMText
 10
638.101072273995
 20
129.365875815714
 30
0.0
 40
8.144205729166663
 41
0.0
 46
0.0
 71
     1
 72
     1
  1
重量
  7
ＭＳ ゴシック
 73
     1
 44
0.7828267384257843
  0
LINE
  5
188
330
A
100
AcDbEntity
  8
TEMPLATE
390
1D
100
AcDbLine
 10
634.601072273995
 20
48.57333675321413
 30
0.0
 11
634.601072273995
 21
176.0733367532141
 31
0.0
  0
INSERT
  5
68C
330
A
100
AcDbEntity
  8
TEMPLATE
100
AcDbBlockReference
  2
block 2
 10
919.2743017702577
 20
8.373076514336368
 30
0.0
 41
0.3809999999999999
 42
0.3809999999999999
 43
0.3809999999999999
  0
LWPOLYLINE
  5
D69
330
A
100
AcDbEntity
  8
BORDER
100
AcDbPolyline
 90
        4
 70
     1
 43
0.0
 10
0.0
 20
0.0
 10
0.0
 20
1485.0
 10
1050.0
 20
1485.0
 10
1050.0
 20
0.0
  0
INSERT
  5
1343
330
A
100
AcDbEntity
  8
TEMPLATE
100
AcDbBlockReference
  2
block 2
 10
2096.743470866468
 20
24.43532141229569
 30
0.0
 41
0.3809999999999999
 42
0.3809999999999999
 43
0.3809999999999999
  0
MTEXT
  5
16ED
330
A
100
AcDbEntity
  8
TEMPLATE
390
1D
100
AcDbMText
 10
664.601072273995
 20
157.5746453469641
 30
0.0
 40
12.21630859375
 41
0.0
 46
12.21630859375
 71
     1
 72
     1
  1
{FHT73-5105-001}
  7
ＭＳ ゴシック
 73
     1
 44
0.7828267384257843
1001
ACAD
1000
ACAD_MTEXT_DEFINED_HEIGHT_BEGIN
1070
    46
1040
12.21630859375
1000
ACAD_MTEXT_DEFINED_HEIGHT_END
  0
MTEXT
  5
16EE
330
A
100
AcDbEntity
  8
TEMPLATE
390
1D
100
AcDbMText
 10
66.10107227386538
 20
157.5746453469641
 30
0.0
 40
12.21630859375
 41
0.0
 46
13.76777978515625
 71
     1
 72
     1
  1
{バス・シャワー混合栓　-GROHE, New Atrio-}
  7
ＭＳ ゴシック
 73
     1
 44
0.7828267384257843
1001
ACAD
1000
ACAD_MTEXT_DEFINED_HEIGHT_BEGIN
1070
    46
1040
13.76777978515625
1000
ACAD_MTEXT_DEFINED_HEIGHT_END
  0
MTEXT
  5
16F0
102
{ACAD_XDICTIONARY
360
16F1
102
}
330
A
100
AcDbEntity
  8
TEMPLATE
100
AcDbMText
 10
37.3643282742853
 20
41.93086052571419
 30
0.0
 40
11.0
 41
0.0
 46
11.0
 71
     1
 72
     1
  1
{20230821M}
  7
ＭＳ ゴシック
 73
     1
 44
1.0
1001
ACAD
1000
ACAD_MTEXT_DEFINED_HEIGHT_BEGIN
1070
    46
1040
11.0
1000
ACAD_MTEXT_DEFINED_HEIGHT_END
  0
HATCH
  5
2492
102
{ACAD_REACTORS
330
24A3
102
}
330
A
100
AcDbEntity
  8
TEMPLATE
100
AcDbHatch
 10
0.0
 20
0.0
 30
0.0
210
0.0
220
0.0
230
1.0
  2
SOLID
 70
     1
 71
     1
 91
        6
 92
        1
 93
        8
 72
     1
 10
967.3017148351717
 20
76.58153313569332
 11
967.3017148351717
 21
73.6268293203631
 72
     1
 10
967.3017148351717
 20
73.6268293203631
 11
962.6214190600165
 21
73.6268293203631
 72
     1
 10
962.6214190600165
 20
73.6268293203631
 11
962.6214190600165
 21
61.58153313641628
 72
     1
 10
962.6214190600165
 20
61.58153313641628
 11
958.5051124833788
 21
61.58153313641628
 72
     1
 10
958.5051124833788
 20
61.58153313641628
 11
958.5051124833788
 21
73.6268293203631
 72
     1
 10
958.5051124833788
 20
73.6268293203631
 11
953.9077617661067
 21
73.6268293203631
 72
     1
 10
953.9077617661067
 20
73.6268293203631
 11
953.9077617661067
 21
76.58153313569332
 72
     1
 10
953.9077617661067
 20
76.58153313569332
 11
967.3017148351717
 21
76.58153313569332
 97
        1
330
2493
 92
        1
 93
        1
 72
     4
 94
        3
 73
     0
 74
     1
 95
       56
 96
       52
 40
0.0
 40
0.0
 40
0.0
 40
0.0
 40
1.0
 40
1.0
 40
1.0
 40
2.0
 40
2.0
 40
2.0
 40
3.0
 40
3.0
 40
3.0
 40
4.0
 40
4.0
 40
4.0
 40
5.0
 40
5.0
 40
5.0
 40
6.0
 40
6.0
 40
6.0
 40
7.0
 40
7.0
 40
7.0
 40
8.0
 40
8.0
 40
8.0
 40
9.0
 40
9.0
 40
9.0
 40
10.0
 40
10.0
 40
10.0
 40
11.0
 40
11.0
 40
11.0
 40
12.0
 40
12.0
 40
12.0
 40
13.0
 40
13.0
 40
13.0
 40
14.0
 40
14.0
 40
14.0
 40
15.0
 40
15.0
 40
15.0
 40
16.0
 40
16.0
 40
16.0
 40
17.0
 40
17.0
 40
17.0
 40
17.0
 10
973.5728075523182
 20
76.22434865548715
 10
974.1497406432779
 20
76.38674243249227
 10
974.8945351899454
 20
76.2509059520473
 10
974.8945351899454
 20
76.2509059520473
 10
974.8945351899454
 20
76.2509059520473
 10
974.5367183931537
 20
75.17712080583556
 10
974.5367183931537
 20
75.17712080583556
 10
974.5367183931537
 20
75.17712080583556
 10
973.8055372506058
 20
75.3463212849002
 10
973.2415852471802
 20
74.90161675034386
 10
972.8033526588458
 20
74.55384262872275
 10
972.5194425122852
 20
73.6297677327276
 10
972.4105352793329
 20
73.2784228821572
 10
972.4105352793329
 20
73.2784228821572
 10
971.9249905324193
 20
71.78808988695778
 10
971.9249905324193
 20
71.78808988695778
 10
971.9249905324193
 20
71.78808988695778
 10
973.5170521075795
 20
71.78808988695778
 10
973.5170521075795
 20
71.78808988695778
 10
973.5170521075795
 20
71.78808988695778
 10
973.2694443720036
 20
70.85010402609774
 10
973.2694443720036
 20
70.85010402609774
 10
973.2694443720036
 20
70.85010402609774
 10
971.6644017093092
 20
70.85010402609774
 10
971.6644017093092
 20
70.85010402609774
 10
971.6644017093092
 20
70.85010402609774
 10
968.7926801469564
 20
61.58153313641628
 10
968.7926801469564
 20
61.58153313641628
 10
968.7926801469564
 20
61.58153313641628
 10
967.8935631585125
 20
61.58153313641628
 10
967.8935631585125
 20
61.58153313641628
 10
967.8935631585125
 20
61.58153313641628
 10
970.7678883773913
 20
70.85010402609774
 10
970.7678883773913
 20
70.85010402609774
 10
970.7678883773913
 20
70.85010402609774
 10
969.5835222190324
 20
70.85010402609774
 10
969.5835222190324
 20
70.85010402609774
 10
969.5835222190324
 20
70.85010402609774
 10
969.8317994662855
 20
71.78808988695778
 10
969.8317994662855
 20
71.78808988695778
 10
969.8317994662855
 20
71.78808988695778
 10
971.0284772005014
 20
71.78808988695778
 10
971.0284772005014
 20
71.78808988695778
 10
971.0284772005014
 20
71.78808988695778
 10
971.4517573613628
 20
73.08783522449019
 10
971.4517573613628
 20
73.08783522449019
 10
971.7940266091862
 20
74.17753987060073
 10
972.0844458970603
 20
74.76258149188186
 10
972.3333926559915
 20
75.20367810239571
 10
972.579698563304
 20
75.64514666384179
 10
973.0671774550653
 20
76.07880425571142
 10
973.5728075523182
 20
76.22434865548715
 97
        1
330
249E
 92
        1
 93
        1
 72
     4
 94
        3
 73
     0
 74
     1
 95
       32
 96
       28
 40
0.0
 40
0.0
 40
0.0
 40
0.0
 40
1.0
 40
1.0
 40
1.0
 40
2.0
 40
2.0
 40
2.0
 40
3.0
 40
3.0
 40
3.0
 40
4.0
 40
4.0
 40
4.0
 40
5.0
 40
5.0
 40
5.0
 40
6.0
 40
6.0
 40
6.0
 40
7.0
 40
7.0
 40
7.0
 40
8.0
 40
8.0
 40
8.0
 40
9.0
 40
9.0
 40
9.0
 40
9.0
 10
975.760585740514
 20
71.22123666626197
 10
975.2193227439554
 20
70.52111342655351
 10
974.8025145293147
 20
69.89102854738113
 10
974.1277211480899
 20
67.91065019898832
 10
973.5073441882485
 20
66.09917476891434
 10
973.1125554687958
 20
64.78127822588988
 10
973.0529317343623
 20
63.17623556319532
 10
973.007553720631
 20
61.98182672966618
 10
973.7348665734851
 20
61.58153313641628
 10
974.801249896145
 20
61.58153313641628
 10
975.2608324679911
 20
61.58153313641628
 10
976.420575474637
 20
61.61076847968843
 10
977.2464553245279
 20
62.6316993984324
 10
977.8246158535619
 20
63.34896957611602
 10
978.3574727590537
 20
64.092499489614
 10
979.0718417194655
 20
66.53153053252123
 10
979.6662936993323
 20
68.57056554292433
 10
980.0778946009211
 20
69.88842489085562
 10
980.0474690146664
 20
70.63876150641318
 10
980.0474690146664
 20
70.63876150641318
 10
980.0474690146664
 20
70.63876150641318
 10
980.0474690146664
 20
70.63876150641318
 10
979.8536081887958
 20
71.89052517368981
 10
978.9447832810217
 20
72.155019481588
 10
978.4255397796494
 20
72.155019481588
 10
977.914107247853
 20
72.155019481588
 10
976.5436912332004
 20
72.24350660836194
 10
975.760585740514
 20
71.22123666626197
 97
        1
330
24A1
 92
        1
 93
        1
 72
     4
 94
        3
 73
     0
 74
     1
 95
       38
 96
       34
 40
0.0
 40
0.0
 40
0.0
 40
0.0
 40
1.0
 40
1.0
 40
1.0
 40
2.0
 40
2.0
 40
2.0
 40
3.0
 40
3.0
 40
3.0
 40
4.0
 40
4.0
 40
4.0
 40
5.0
 40
5.0
 40
5.0
 40
6.0
 40
6.0
 40
6.0
 40
7.0
 40
7.0
 40
7.0
 40
8.0
 40
8.0
 40
8.0
 40
9.0
 40
9.0
 40
9.0
 40
10.0
 40
10.0
 40
10.0
 40
11.0
 40
11.0
 40
11.0
 40
11.0
 10
983.3346969633965
 20
71.75212223181256
 10
983.3346969633965
 20
71.75212223181256
 10
984.2590694201378
 20
71.75212223181256
 10
984.2590694201378
 20
71.75212223181256
 10
984.2590694201378
 20
71.75212223181256
 10
983.8461294951928
 20
70.43002264325406
 10
983.8461294951928
 20
70.43002264325406
 10
984.1599073016093
 20
70.80115528341824
 10
984.6551227727603
 20
71.29544087723889
 10
985.080411468655
 20
71.54468519691622
 10
985.7157036608785
 20
71.9158178370804
 10
986.0787277707202
 20
71.96476657975995
 10
986.4779799013602
 20
71.9550214653359
 10
986.4779799013602
 20
71.9550214653359
 10
986.0878033734668
 20
70.70489438216094
 10
986.0878033734668
 20
70.70489438216094
 10
985.8336864965765
 20
70.81249978685082
 10
985.0505810038919
 20
70.60766640847999
 10
984.6013386679622
 20
70.28451543857147
 10
984.196209712594
 20
69.9931290782742
 10
983.9161306606354
 20
69.74518658685963
 10
983.584276038913
 20
69.12187121465354
 10
983.2549506835301
 20
68.49762596511695
 10
982.9950313720981
 20
67.50224807541616
 10
982.5477231810162
 20
66.05826016637073
 10
982.5477231810162
 20
66.05826016637073
 10
981.1507498698027
 20
61.58153313641628
 10
981.1507498698027
 20
61.58153313641628
 10
981.1507498698027
 20
61.58153313641628
 10
980.2536042212994
 20
61.58153313641628
 10
980.2536042212994
 20
61.58153313641628
 10
980.2536042212994
 20
61.58153313641628
 10
983.3346969633965
 20
71.75212223181256
 10
983.3346969633965
 20
71.75212223181256
 97
        1
330
249F
 92
        1
 93
        1
 72
     4
 94
        3
 73
     0
 74
     1
 95
      104
 96
      100
 40
0.0
 40
0.0
 40
0.0
 40
0.0
 40
1.0
 40
1.0
 40
1.0
 40
2.0
 40
2.0
 40
2.0
 40
3.0
 40
3.0
 40
3.0
 40
4.0
 40
4.0
 40
4.0
 40
5.0
 40
5.0
 40
5.0
 40
6.0
 40
6.0
 40
6.0
 40
7.0
 40
7.0
 40
7.0
 40
8.0
 40
8.0
 40
8.0
 40
9.0
 40
9.0
 40
9.0
 40
10.0
 40
10.0
 40
10.0
 40
11.0
 40
11.0
 40
11.0
 40
12.0
 40
12.0
 40
12.0
 40
13.0
 40
13.0
 40
13.0
 40
14.0
 40
14.0
 40
14.0
 40
15.0
 40
15.0
 40
15.0
 40
16.0
 40
16.0
 40
16.0
 40
17.0
 40
17.0
 40
17.0
 40
18.0
 40
18.0
 40
18.0
 40
19.0
 40
19.0
 40
19.0
 40
20.0
 40
20.0
 40
20.0
 40
21.0
 40
21.0
 40
21.0
 40
22.0
 40
22.0
 40
22.0
 40
23.0
 40
23.0
 40
23.0
 40
24.0
 40
24.0
 40
24.0
 40
25.0
 40
25.0
 40
25.0
 40
26.0
 40
26.0
 40
26.0
 40
27.0
 40
27.0
 40
27.0
 40
28.0
 40
28.0
 40
28.0
 40
29.0
 40
29.0
 40
29.0
 40
30.0
 40
30.0
 40
30.0
 40
31.0
 40
31.0
 40
31.0
 40
32.0
 40
32.0
 40
32.0
 40
33.0
 40
33.0
 40
33.0
 40
33.0
 10
988.4227625455403
 20
71.75762710560934
 10
988.4227625455403
 20
71.75762710560934
 10
989.2298216782599
 20
71.75762710560934
 10
989.2298216782599
 20
71.75762710560934
 10
989.2298216782599
 20
71.75762710560934
 10
988.8220890663658
 20
70.43426288388127
 10
988.8220890663658
 20
70.43426288388127
 10
989.1759631832754
 20
70.98913928455974
 10
989.4936092793876
 20
71.23644945938958
 10
989.9156248070792
 20
71.55602970034877
 10
990.3389049679397
 20
71.87107213993494
 10
990.841336287175
 20
71.93527087083527
 10
991.19007748122
 20
71.93527087083527
 10
991.6218381233355
 20
71.93527087083527
 10
992.0386463379762
 20
71.85001971717159
 10
992.2577254370497
 20
71.37678654611435
 10
992.4256240878528
 20
71.00569110104331
 10
992.4334350574288
 20
70.96191247632157
 10
992.3854533871734
 20
70.22939231041721
 10
992.8242810970003
 20
70.9803984376527
 10
993.1483991393322
 20
71.30388416340014
 10
993.6994072503155
 20
71.6146863623591
 10
994.2776421695378
 20
71.93527087083527
 10
994.6147041043112
 20
71.95926170596317
 10
995.0062940457472
 20
71.90153492128334
 10
995.5831899416123
 20
71.8163209627129
 10
995.9514213645059
 20
71.61048331682503
 10
996.1439431670203
 20
70.98493623902573
 10
996.3371344812128
 20
70.3613233060739
 10
996.2327650496334
 20
70.02682783273289
 10
995.9941957217104
 20
69.03405359955758
 10
995.8852884887581
 20
68.58191004635688
 10
995.7277300738713
 20
68.03443546922952
 10
995.5215948672374
 20
67.38300060654797
 10
995.5215948672374
 20
67.38300060654797
 10
993.6994072503155
 20
61.58153313641628
 10
993.6994072503155
 20
61.58153313641628
 10
993.6994072503155
 20
61.58153313641628
 10
992.7516762750327
 20
61.58153313641628
 10
992.7516762750327
 20
61.58153313641628
 10
992.7516762750327
 20
61.58153313641628
 10
994.3470482134887
 20
66.65338165791485
 10
994.3470482134887
 20
66.65338165791485
 10
994.6802418585673
 20
67.71455766752453
 10
994.9057929038624
 20
68.48951743479464
 10
995.0225111063917
 20
68.97539693754726
 10
995.1689853834976
 20
69.58149098159171
 10
995.2273072896694
 20
69.78148899784378
 10
995.157975635904
 20
70.22262280345092
 10
995.0944464166821
 20
70.63325663261634
 10
994.886972186692
 20
70.9006521577858
 10
994.5317590464272
 20
70.9006521577858
 10
994.1531873876181
 20
70.9006521577858
 10
993.8465510391004
 20
70.85851011716579
 10
993.4174684436964
 20
70.42745618182173
 10
992.9883114581078
 20
69.9931290782742
 10
992.6336934393337
 20
69.48329593548695
 10
992.3556229224093
 20
68.8969524859431
 10
992.0781475269766
 20
68.30703830744997
 10
991.7968038418492
 20
67.55930534841795
 10
991.5115918670269
 20
66.65338165791485
 10
991.5115918670269
 20
66.65338165791485
 10
989.9156248070792
 20
61.58153313641628
 10
989.9156248070792
 20
61.58153313641628
 10
989.9156248070792
 20
61.58153313641628
 10
989.0242815931185
 20
61.58153313641628
 10
989.0242815931185
 20
61.58153313641628
 10
989.0242815931185
 20
61.58153313641628
 10
990.8490728665654
 20
67.38039695002249
 10
990.8490728665654
 20
67.38039695002249
 10
991.0415946690798
 20
67.99753793675379
 10
991.1862091915252
 20
68.50056437748145
 10
991.281503020359
 20
68.89371651283278
 10
991.4435248464313
 20
69.57048123399818
 10
991.4889028601626
 20
70.0281296609956
 10
991.3663822230899
 20
70.43426288388127
 10
991.2457957308659
 20
70.83909427850418
 10
991.0338580896903
 20
70.94249663765996
 10
990.6799095825943
 20
70.94249663765996
 10
990.3830183485004
 20
70.94249663765996
 10
990.0932685723044
 20
70.81510344337633
 10
989.7626785837517
 20
70.56161888307173
 10
989.3464654906027
 20
70.24270815379049
 10
989.1799058631566
 20
69.98081750241784
 10
988.9757048013705
 20
69.66964335252672
 10
988.7001635507856
 20
69.25800525584427
 10
988.571170967494
 20
68.98090181134404
 10
988.3384784643001
 20
68.37283642735878
 10
988.1057115709198
 20
67.76120031442431
 10
987.8853678386756
 20
67.04943501053751
 10
987.7316777134836
 20
66.55712075665758
 10
987.7316777134836
 20
66.55712075665758
 10
986.1662106299771
 20
61.58153313641628
 10
986.1662106299771
 20
61.58153313641628
 10
986.1662106299771
 20
61.58153313641628
 10
985.2327625704909
 20
61.58153313641628
 10
985.2327625704909
 20
61.58153313641628
 10
985.2327625704909
 20
61.58153313641628
 10
988.4227625455403
 20
71.75762710560934
 10
988.4227625455403
 20
71.75762710560934
 97
        1
330
24A0
 92
       16
 93
        1
 72
     4
 94
        3
 73
     0
 74
     1
 95
       29
 96
       25
 40
0.0
 40
0.0
 40
0.0
 40
0.0
 40
1.0
 40
1.0
 40
1.0
 40
2.0
 40
2.0
 40
2.0
 40
3.0
 40
3.0
 40
3.0
 40
4.0
 40
4.0
 40
4.0
 40
5.0
 40
5.0
 40
5.0
 40
6.0
 40
6.0
 40
6.0
 40
7.0
 40
7.0
 40
7.0
 40
8.0
 40
8.0
 40
8.0
 40
8.0
 10
974.0214175716626
 20
63.47632557530645
 10
974.0174748917814
 20
64.18489210117616
 10
974.241166182416
 20
65.44379722635136
 10
974.8141937885864
 20
67.12821421798066
 10
975.594695624746
 20
69.4090545294168
 10
976.0627586778462
 20
70.24270815379049
 10
976.4723510444016
 20
70.64850662083717
 10
977.0707457041487
 20
71.23938787175408
 10
977.8752011803442
 20
71.2688463855855
 10
978.1125058750974
 20
71.23938787175408
 10
978.450237321548
 20
71.19884522014263
 10
978.9273015872075
 20
70.97779478112719
 10
978.9557930286153
 20
70.23363255104445
 10
978.978556425667
 20
69.59674096981257
 10
978.7950358357118
 20
68.4039687203852
 10
978.152676575776
 20
66.53153053252123
 10
977.4123454402959
 20
64.35569196924934
 10
976.967640905739
 20
63.50035360552755
 10
976.6111631323035
 20
63.12758438126156
 10
975.9395685290963
 20
62.42876296981586
 10
975.2193227439554
 20
62.49586291798744
 10
975.1130191675281
 20
62.49586291798744
 10
974.9749509814899
 20
62.49586291798744
 10
974.0233517165104
 20
62.64568475348372
 10
974.0214175716626
 20
63.47632557530645
 97
        1
330
24A2
 75
     0
 76
     1
 98
        1
 10
929.7307651966601
 20
36.16262959939627
1001
ACAD
1010
0.0
1020
0.0
1030
0.0
  0
POLYLINE
  5
2493
102
{ACAD_REACTORS
330
2492
330
24A3
102
}
330
A
100
AcDbEntity
  8
TEMPLATE
100
AcDb2dPolyline
 66
     1
 10
0.0
 20
0.0
 30
0.0
  0
VERTEX
  5
2494
330
2493
100
AcDbEntity
  8
TEMPLATE
100
AcDbVertex
100
AcDb2dVertex
 10
967.3017148351717
 20
76.58153313569332
 30
0.0
  0
VERTEX
  5
2495
330
2493
100
AcDbEntity
  8
TEMPLATE
100
AcDbVertex
100
AcDb2dVertex
 10
967.3017148351717
 20
73.6268293203631
 30
0.0
  0
VERTEX
  5
2496
330
2493
100
AcDbEntity
  8
TEMPLATE
100
AcDbVertex
100
AcDb2dVertex
 10
962.6214190600165
 20
73.6268293203631
 30
0.0
  0
VERTEX
  5
2497
330
2493
100
AcDbEntity
  8
TEMPLATE
100
AcDbVertex
100
AcDb2dVertex
 10
962.6214190600165
 20
61.58153313641628
 30
0.0
  0
VERTEX
  5
2498
330
2493
100
AcDbEntity
  8
TEMPLATE
100
AcDbVertex
100
AcDb2dVertex
 10
958.5051124833788
 20
61.58153313641628
 30
0.0
  0
VERTEX
  5
2499
330
2493
100
AcDbEntity
  8
TEMPLATE
100
AcDbVertex
100
AcDb2dVertex
 10
958.5051124833788
 20
73.6268293203631
 30
0.0
  0
VERTEX
  5
249A
330
2493
100
AcDbEntity
  8
TEMPLATE
100
AcDbVertex
100
AcDb2dVertex
 10
953.9077617661067
 20
73.6268293203631
 30
0.0
  0
VERTEX
  5
249B
330
2493
100
AcDbEntity
  8
TEMPLATE
100
AcDbVertex
100
AcDb2dVertex
 10
953.9077617661067
 20
76.58153313569332
 30
0.0
  0
VERTEX
  5
249C
330
2493
100
AcDbEntity
  8
TEMPLATE
100
AcDbVertex
100
AcDb2dVertex
 10
967.3017148351717
 20
76.58153313569332
 30
0.0
  0
SEQEND
  5
249D
330
2493
100
AcDbEntity
  8
TEMPLATE
  0
SPLINE
  5
249E
102
{ACAD_REACTORS
330
2492
330
24A3
102
}
330
A
100
AcDbEntity
  8
TEMPLATE
100
AcDbSpline
210
0.0
220
0.0
230
1.0
 70
    11
 71
     3
 72
    56
 73
    52
 74
     0
 42
0.000000001
 43
0.0000000001
 40
0.0
 40
0.0
 40
0.0
 40
0.0
 40
1.0
 40
1.0
 40
1.0
 40
2.0
 40
2.0
 40
2.0
 40
3.0
 40
3.0
 40
3.0
 40
4.0
 40
4.0
 40
4.0
 40
5.0
 40
5.0
 40
5.0
 40
6.0
 40
6.0
 40
6.0
 40
7.0
 40
7.0
 40
7.0
 40
8.0
 40
8.0
 40
8.0
 40
9.0
 40
9.0
 40
9.0
 40
10.0
 40
10.0
 40
10.0
 40
11.0
 40
11.0
 40
11.0
 40
12.0
 40
12.0
 40
12.0
 40
13.0
 40
13.0
 40
13.0
 40
14.0
 40
14.0
 40
14.0
 40
15.0
 40
15.0
 40
15.0
 40
16.0
 40
16.0
 40
16.0
 40
17.0
 40
17.0
 40
17.0
 40
17.0
 10
973.5728075523182
 20
76.22434865548715
 30
0.0
 10
974.1497406432779
 20
76.38674243249227
 30
0.0
 10
974.8945351899454
 20
76.2509059520473
 30
0.0
 10
974.8945351899454
 20
76.2509059520473
 30
0.0
 10
974.8945351899454
 20
76.2509059520473
 30
0.0
 10
974.5367183931537
 20
75.17712080583556
 30
0.0
 10
974.5367183931537
 20
75.17712080583556
 30
0.0
 10
974.5367183931537
 20
75.17712080583556
 30
0.0
 10
973.8055372506058
 20
75.3463212849002
 30
0.0
 10
973.2415852471802
 20
74.90161675034386
 30
0.0
 10
972.8033526588458
 20
74.55384262872275
 30
0.0
 10
972.5194425122852
 20
73.6297677327276
 30
0.0
 10
972.4105352793329
 20
73.2784228821572
 30
0.0
 10
972.4105352793329
 20
73.2784228821572
 30
0.0
 10
971.9249905324193
 20
71.78808988695778
 30
0.0
 10
971.9249905324193
 20
71.78808988695778
 30
0.0
 10
971.9249905324193
 20
71.78808988695778
 30
0.0
 10
973.5170521075795
 20
71.78808988695778
 30
0.0
 10
973.5170521075795
 20
71.78808988695778
 30
0.0
 10
973.5170521075795
 20
71.78808988695778
 30
0.0
 10
973.2694443720036
 20
70.85010402609774
 30
0.0
 10
973.2694443720036
 20
70.85010402609774
 30
0.0
 10
973.2694443720036
 20
70.85010402609774
 30
0.0
 10
971.6644017093092
 20
70.85010402609774
 30
0.0
 10
971.6644017093092
 20
70.85010402609774
 30
0.0
 10
971.6644017093092
 20
70.85010402609774
 30
0.0
 10
968.7926801469564
 20
61.58153313641628
 30
0.0
 10
968.7926801469564
 20
61.58153313641628
 30
0.0
 10
968.7926801469564
 20
61.58153313641628
 30
0.0
 10
967.8935631585125
 20
61.58153313641628
 30
0.0
 10
967.8935631585125
 20
61.58153313641628
 30
0.0
 10
967.8935631585125
 20
61.58153313641628
 30
0.0
 10
970.7678883773913
 20
70.85010402609774
 30
0.0
 10
970.7678883773913
 20
70.85010402609774
 30
0.0
 10
970.7678883773913
 20
70.85010402609774
 30
0.0
 10
969.5835222190324
 20
70.85010402609774
 30
0.0
 10
969.5835222190324
 20
70.85010402609774
 30
0.0
 10
969.5835222190324
 20
70.85010402609774
 30
0.0
 10
969.8317994662855
 20
71.78808988695778
 30
0.0
 10
969.8317994662855
 20
71.78808988695778
 30
0.0
 10
969.8317994662855
 20
71.78808988695778
 30
0.0
 10
971.0284772005014
 20
71.78808988695778
 30
0.0
 10
971.0284772005014
 20
71.78808988695778
 30
0.0
 10
971.0284772005014
 20
71.78808988695778
 30
0.0
 10
971.4517573613628
 20
73.08783522449019
 30
0.0
 10
971.4517573613628
 20
73.08783522449019
 30
0.0
 10
971.7940266091862
 20
74.17753987060073
 30
0.0
 10
972.0844458970603
 20
74.76258149188186
 30
0.0
 10
972.3333926559915
 20
75.20367810239571
 30
0.0
 10
972.579698563304
 20
75.64514666384179
 30
0.0
 10
973.0671774550653
 20
76.07880425571142
 30
0.0
 10
973.5728075523182
 20
76.22434865548715
 30
0.0
  0
SPLINE
  5
249F
102
{ACAD_REACTORS
330
2492
330
24A3
102
}
330
A
100
AcDbEntity
  8
TEMPLATE
100
AcDbSpline
210
0.0
220
0.0
230
1.0
 70
    11
 71
     3
 72
    38
 73
    34
 74
     0
 42
0.000000001
 43
0.0000000001
 40
0.0
 40
0.0
 40
0.0
 40
0.0
 40
1.0
 40
1.0
 40
1.0
 40
2.0
 40
2.0
 40
2.0
 40
3.0
 40
3.0
 40
3.0
 40
4.0
 40
4.0
 40
4.0
 40
5.0
 40
5.0
 40
5.0
 40
6.0
 40
6.0
 40
6.0
 40
7.0
 40
7.0
 40
7.0
 40
8.0
 40
8.0
 40
8.0
 40
9.0
 40
9.0
 40
9.0
 40
10.0
 40
10.0
 40
10.0
 40
11.0
 40
11.0
 40
11.0
 40
11.0
 10
983.3346969633965
 20
71.75212223181256
 30
0.0
 10
983.3346969633965
 20
71.75212223181256
 30
0.0
 10
984.2590694201378
 20
71.75212223181256
 30
0.0
 10
984.2590694201378
 20
71.75212223181256
 30
0.0
 10
984.2590694201378
 20
71.75212223181256
 30
0.0
 10
983.8461294951928
 20
70.43002264325406
 30
0.0
 10
983.8461294951928
 20
70.43002264325406
 30
0.0
 10
984.1599073016093
 20
70.80115528341824
 30
0.0
 10
984.6551227727603
 20
71.29544087723889
 30
0.0
 10
985.080411468655
 20
71.54468519691622
 30
0.0
 10
985.7157036608785
 20
71.9158178370804
 30
0.0
 10
986.0787277707202
 20
71.96476657975995
 30
0.0
 10
986.4779799013602
 20
71.9550214653359
 30
0.0
 10
986.4779799013602
 20
71.9550214653359
 30
0.0
 10
986.0878033734668
 20
70.70489438216094
 30
0.0
 10
986.0878033734668
 20
70.70489438216094
 30
0.0
 10
985.8336864965765
 20
70.81249978685082
 30
0.0
 10
985.0505810038919
 20
70.60766640847999
 30
0.0
 10
984.6013386679622
 20
70.28451543857147
 30
0.0
 10
984.196209712594
 20
69.9931290782742
 30
0.0
 10
983.9161306606354
 20
69.74518658685963
 30
0.0
 10
983.584276038913
 20
69.12187121465354
 30
0.0
 10
983.2549506835301
 20
68.49762596511695
 30
0.0
 10
982.9950313720981
 20
67.50224807541616
 30
0.0
 10
982.5477231810162
 20
66.05826016637073
 30
0.0
 10
982.5477231810162
 20
66.05826016637073
 30
0.0
 10
981.1507498698027
 20
61.58153313641628
 30
0.0
 10
981.1507498698027
 20
61.58153313641628
 30
0.0
 10
981.1507498698027
 20
61.58153313641628
 30
0.0
 10
980.2536042212994
 20
61.58153313641628
 30
0.0
 10
980.2536042212994
 20
61.58153313641628
 30
0.0
 10
980.2536042212994
 20
61.58153313641628
 30
0.0
 10
983.3346969633965
 20
71.75212223181256
 30
0.0
 10
983.3346969633965
 20
71.75212223181256
 30
0.0
  0
SPLINE
  5
24A0
102
{ACAD_REACTORS
330
2492
330
24A3
102
}
330
A
100
AcDbEntity
  8
TEMPLATE
100
AcDbSpline
210
0.0
220
0.0
230
1.0
 70
    11
 71
     3
 72
   104
 73
   100
 74
     0
 42
0.000000001
 43
0.0000000001
 40
0.0
 40
0.0
 40
0.0
 40
0.0
 40
1.0
 40
1.0
 40
1.0
 40
2.0
 40
2.0
 40
2.0
 40
3.0
 40
3.0
 40
3.0
 40
4.0
 40
4.0
 40
4.0
 40
5.0
 40
5.0
 40
5.0
 40
6.0
 40
6.0
 40
6.0
 40
7.0
 40
7.0
 40
7.0
 40
8.0
 40
8.0
 40
8.0
 40
9.0
 40
9.0
 40
9.0
 40
10.0
 40
10.0
 40
10.0
 40
11.0
 40
11.0
 40
11.0
 40
12.0
 40
12.0
 40
12.0
 40
13.0
 40
13.0
 40
13.0
 40
14.0
 40
14.0
 40
14.0
 40
15.0
 40
15.0
 40
15.0
 40
16.0
 40
16.0
 40
16.0
 40
17.0
 40
17.0
 40
17.0
 40
18.0
 40
18.0
 40
18.0
 40
19.0
 40
19.0
 40
19.0
 40
20.0
 40
20.0
 40
20.0
 40
21.0
 40
21.0
 40
21.0
 40
22.0
 40
22.0
 40
22.0
 40
23.0
 40
23.0
 40
23.0
 40
24.0
 40
24.0
 40
24.0
 40
25.0
 40
25.0
 40
25.0
 40
26.0
 40
26.0
 40
26.0
 40
27.0
 40
27.0
 40
27.0
 40
28.0
 40
28.0
 40
28.0
 40
29.0
 40
29.0
 40
29.0
 40
30.0
 40
30.0
 40
30.0
 40
31.0
 40
31.0
 40
31.0
 40
32.0
 40
32.0
 40
32.0
 40
33.0
 40
33.0
 40
33.0
 40
33.0
 10
988.4227625455403
 20
71.75762710560934
 30
0.0
 10
988.4227625455403
 20
71.75762710560934
 30
0.0
 10
989.2298216782599
 20
71.75762710560934
 30
0.0
 10
989.2298216782599
 20
71.75762710560934
 30
0.0
 10
989.2298216782599
 20
71.75762710560934
 30
0.0
 10
988.8220890663658
 20
70.43426288388127
 30
0.0
 10
988.8220890663658
 20
70.43426288388127
 30
0.0
 10
989.1759631832754
 20
70.98913928455974
 30
0.0
 10
989.4936092793876
 20
71.23644945938958
 30
0.0
 10
989.9156248070792
 20
71.55602970034877
 30
0.0
 10
990.3389049679397
 20
71.87107213993494
 30
0.0
 10
990.841336287175
 20
71.93527087083527
 30
0.0
 10
991.19007748122
 20
71.93527087083527
 30
0.0
 10
991.6218381233355
 20
71.93527087083527
 30
0.0
 10
992.0386463379762
 20
71.85001971717159
 30
0.0
 10
992.2577254370497
 20
71.37678654611435
 30
0.0
 10
992.4256240878528
 20
71.00569110104331
 30
0.0
 10
992.4334350574288
 20
70.96191247632157
 30
0.0
 10
992.3854533871734
 20
70.22939231041721
 30
0.0
 10
992.8242810970003
 20
70.9803984376527
 30
0.0
 10
993.1483991393322
 20
71.30388416340014
 30
0.0
 10
993.6994072503155
 20
71.6146863623591
 30
0.0
 10
994.2776421695378
 20
71.93527087083527
 30
0.0
 10
994.6147041043112
 20
71.95926170596317
 30
0.0
 10
995.0062940457472
 20
71.90153492128334
 30
0.0
 10
995.5831899416123
 20
71.8163209627129
 30
0.0
 10
995.9514213645059
 20
71.61048331682503
 30
0.0
 10
996.1439431670203
 20
70.98493623902573
 30
0.0
 10
996.3371344812128
 20
70.3613233060739
 30
0.0
 10
996.2327650496334
 20
70.02682783273289
 30
0.0
 10
995.9941957217104
 20
69.03405359955758
 30
0.0
 10
995.8852884887581
 20
68.58191004635688
 30
0.0
 10
995.7277300738713
 20
68.03443546922952
 30
0.0
 10
995.5215948672374
 20
67.38300060654797
 30
0.0
 10
995.5215948672374
 20
67.38300060654797
 30
0.0
 10
993.6994072503155
 20
61.58153313641628
 30
0.0
 10
993.6994072503155
 20
61.58153313641628
 30
0.0
 10
993.6994072503155
 20
61.58153313641628
 30
0.0
 10
992.7516762750327
 20
61.58153313641628
 30
0.0
 10
992.7516762750327
 20
61.58153313641628
 30
0.0
 10
992.7516762750327
 20
61.58153313641628
 30
0.0
 10
994.3470482134887
 20
66.65338165791485
 30
0.0
 10
994.3470482134887
 20
66.65338165791485
 30
0.0
 10
994.6802418585673
 20
67.71455766752453
 30
0.0
 10
994.9057929038624
 20
68.48951743479464
 30
0.0
 10
995.0225111063917
 20
68.97539693754726
 30
0.0
 10
995.1689853834976
 20
69.58149098159171
 30
0.0
 10
995.2273072896694
 20
69.78148899784378
 30
0.0
 10
995.157975635904
 20
70.22262280345092
 30
0.0
 10
995.0944464166821
 20
70.63325663261634
 30
0.0
 10
994.886972186692
 20
70.9006521577858
 30
0.0
 10
994.5317590464272
 20
70.9006521577858
 30
0.0
 10
994.1531873876181
 20
70.9006521577858
 30
0.0
 10
993.8465510391004
 20
70.85851011716579
 30
0.0
 10
993.4174684436964
 20
70.42745618182173
 30
0.0
 10
992.9883114581078
 20
69.9931290782742
 30
0.0
 10
992.6336934393337
 20
69.48329593548695
 30
0.0
 10
992.3556229224093
 20
68.8969524859431
 30
0.0
 10
992.0781475269766
 20
68.30703830744997
 30
0.0
 10
991.7968038418492
 20
67.55930534841795
 30
0.0
 10
991.5115918670269
 20
66.65338165791485
 30
0.0
 10
991.5115918670269
 20
66.65338165791485
 30
0.0
 10
989.9156248070792
 20
61.58153313641628
 30
0.0
 10
989.9156248070792
 20
61.58153313641628
 30
0.0
 10
989.9156248070792
 20
61.58153313641628
 30
0.0
 10
989.0242815931185
 20
61.58153313641628
 30
0.0
 10
989.0242815931185
 20
61.58153313641628
 30
0.0
 10
989.0242815931185
 20
61.58153313641628
 30
0.0
 10
990.8490728665654
 20
67.38039695002249
 30
0.0
 10
990.8490728665654
 20
67.38039695002249
 30
0.0
 10
991.0415946690798
 20
67.99753793675379
 30
0.0
 10
991.1862091915252
 20
68.50056437748145
 30
0.0
 10
991.281503020359
 20
68.89371651283278
 30
0.0
 10
991.4435248464313
 20
69.57048123399818
 30
0.0
 10
991.4889028601626
 20
70.0281296609956
 30
0.0
 10
991.3663822230899
 20
70.43426288388127
 30
0.0
 10
991.2457957308659
 20
70.83909427850418
 30
0.0
 10
991.0338580896903
 20
70.94249663765996
 30
0.0
 10
990.6799095825943
 20
70.94249663765996
 30
0.0
 10
990.3830183485004
 20
70.94249663765996
 30
0.0
 10
990.0932685723044
 20
70.81510344337633
 30
0.0
 10
989.7626785837517
 20
70.56161888307173
 30
0.0
 10
989.3464654906027
 20
70.24270815379049
 30
0.0
 10
989.1799058631566
 20
69.98081750241784
 30
0.0
 10
988.9757048013705
 20
69.66964335252672
 30
0.0
 10
988.7001635507856
 20
69.25800525584427
 30
0.0
 10
988.571170967494
 20
68.98090181134404
 30
0.0
 10
988.3384784643001
 20
68.37283642735878
 30
0.0
 10
988.1057115709198
 20
67.76120031442431
 30
0.0
 10
987.8853678386756
 20
67.04943501053751
 30
0.0
 10
987.7316777134836
 20
66.55712075665758
 30
0.0
 10
987.7316777134836
 20
66.55712075665758
 30
0.0
 10
986.1662106299771
 20
61.58153313641628
 30
0.0
 10
986.1662106299771
 20
61.58153313641628
 30
0.0
 10
986.1662106299771
 20
61.58153313641628
 30
0.0
 10
985.2327625704909
 20
61.58153313641628
 30
0.0
 10
985.2327625704909
 20
61.58153313641628
 30
0.0
 10
985.2327625704909
 20
61.58153313641628
 30
0.0
 10
988.4227625455403
 20
71.75762710560934
 30
0.0
 10
988.4227625455403
 20
71.75762710560934
 30
0.0
  0
SPLINE
  5
24A1
102
{ACAD_REACTORS
330
2492
330
24A3
102
}
330
A
100
AcDbEntity
  8
TEMPLATE
100
AcDbSpline
210
0.0
220
0.0
230
1.0
 70
    11
 71
     3
 72
    32
 73
    28
 74
     0
 42
0.000000001
 43
0.0000000001
 40
0.0
 40
0.0
 40
0.0
 40
0.0
 40
1.0
 40
1.0
 40
1.0
 40
2.0
 40
2.0
 40
2.0
 40
3.0
 40
3.0
 40
3.0
 40
4.0
 40
4.0
 40
4.0
 40
5.0
 40
5.0
 40
5.0
 40
6.0
 40
6.0
 40
6.0
 40
7.0
 40
7.0
 40
7.0
 40
8.0
 40
8.0
 40
8.0
 40
9.0
 40
9.0
 40
9.0
 40
9.0
 10
975.760585740514
 20
71.22123666626197
 30
0.0
 10
975.2193227439554
 20
70.52111342655351
 30
0.0
 10
974.8025145293147
 20
69.89102854738113
 30
0.0
 10
974.1277211480899
 20
67.91065019898832
 30
0.0
 10
973.5073441882485
 20
66.09917476891434
 30
0.0
 10
973.1125554687958
 20
64.78127822588988
 30
0.0
 10
973.0529317343623
 20
63.17623556319532
 30
0.0
 10
973.007553720631
 20
61.98182672966618
 30
0.0
 10
973.7348665734851
 20
61.58153313641628
 30
0.0
 10
974.801249896145
 20
61.58153313641628
 30
0.0
 10
975.2608324679911
 20
61.58153313641628
 30
0.0
 10
976.420575474637
 20
61.61076847968843
 30
0.0
 10
977.2464553245279
 20
62.6316993984324
 30
0.0
 10
977.8246158535619
 20
63.34896957611602
 30
0.0
 10
978.3574727590537
 20
64.092499489614
 30
0.0
 10
979.0718417194655
 20
66.53153053252123
 30
0.0
 10
979.6662936993323
 20
68.57056554292433
 30
0.0
 10
980.0778946009211
 20
69.88842489085562
 30
0.0
 10
980.0474690146664
 20
70.63876150641318
 30
0.0
 10
980.0474690146664
 20
70.63876150641318
 30
0.0
 10
980.0474690146664
 20
70.63876150641318
 30
0.0
 10
980.0474690146664
 20
70.63876150641318
 30
0.0
 10
979.8536081887958
 20
71.89052517368981
 30
0.0
 10
978.9447832810217
 20
72.155019481588
 30
0.0
 10
978.4255397796494
 20
72.155019481588
 30
0.0
 10
977.914107247853
 20
72.155019481588
 30
0.0
 10
976.5436912332004
 20
72.24350660836194
 30
0.0
 10
975.760585740514
 20
71.22123666626197
 30
0.0
  0
SPLINE
  5
24A2
102
{ACAD_REACTORS
330
2492
330
24A3
102
}
330
A
100
AcDbEntity
  8
TEMPLATE
100
AcDbSpline
210
0.0
220
0.0
230
1.0
 70
    11
 71
     3
 72
    29
 73
    25
 74
     0
 42
0.000000001
 43
0.0000000001
 40
0.0
 40
0.0
 40
0.0
 40
0.0
 40
1.0
 40
1.0
 40
1.0
 40
2.0
 40
2.0
 40
2.0
 40
3.0
 40
3.0
 40
3.0
 40
4.0
 40
4.0
 40
4.0
 40
5.0
 40
5.0
 40
5.0
 40
6.0
 40
6.0
 40
6.0
 40
7.0
 40
7.0
 40
7.0
 40
8.0
 40
8.0
 40
8.0
 40
8.0
 10
974.0214175716626
 20
63.47632557530645
 30
0.0
 10
974.0174748917814
 20
64.18489210117616
 30
0.0
 10
974.241166182416
 20
65.44379722635136
 30
0.0
 10
974.8141937885864
 20
67.12821421798066
 30
0.0
 10
975.594695624746
 20
69.4090545294168
 30
0.0
 10
976.0627586778462
 20
70.24270815379049
 30
0.0
 10
976.4723510444016
 20
70.64850662083717
 30
0.0
 10
977.0707457041487
 20
71.23938787175408
 30
0.0
 10
977.8752011803442
 20
71.2688463855855
 30
0.0
 10
978.1125058750974
 20
71.23938787175408
 30
0.0
 10
978.450237321548
 20
71.19884522014263
 30
0.0
 10
978.9273015872075
 20
70.97779478112719
 30
0.0
 10
978.9557930286153
 20
70.23363255104445
 30
0.0
 10
978.978556425667
 20
69.59674096981257
 30
0.0
 10
978.7950358357118
 20
68.4039687203852
 30
0.0
 10
978.152676575776
 20
66.53153053252123
 30
0.0
 10
977.4123454402959
 20
64.35569196924934
 30
0.0
 10
976.967640905739
 20
63.50035360552755
 30
0.0
 10
976.6111631323035
 20
63.12758438126156
 30
0.0
 10
975.9395685290963
 20
62.42876296981586
 30
0.0
 10
975.2193227439554
 20
62.49586291798744
 30
0.0
 10
975.1130191675281
 20
62.49586291798744
 30
0.0
 10
974.9749509814899
 20
62.49586291798744
 30
0.0
 10
974.0233517165104
 20
62.64568475348372
 30
0.0
 10
974.0214175716626
 20
63.47632557530645
 30
0.0
  0
LINE
  5
33E2
330
A
100
AcDbEntity
  8
MODEL
100
AcDbLine
 10
395.5062878483386
 20
1115.65780295294
 30
0.0
 11
395.5062878483377
 21
1071.65780295294
 31
0.0
  0
LINE
  5
33E3
330
A
100
AcDbEntity
  8
MODEL
100
AcDbLine
 10
166.5486401438384
 20
1071.657802952945
 30
0.0
 11
166.5486401438393
 21
1115.657802952945
 31
0.0
  0
SPLINE
  5
33E4
330
A
100
AcDbEntity
  8
MODEL
100
AcDbSpline
210
0.0
220
0.0
230
1.0
 70
     8
 71
     3
 72
    25
 73
    21
 74
     0
 42
0.000000001
 43
0.0000000001
 40
0.0
 40
0.0
 40
0.0
 40
0.0
 40
0.0000218528422214
 40
0.0251067913670297
 40
0.0505128737964607
 40
0.1032622981528084
 40
0.1597150294704142
 40
0.2199059327596329
 40
0.2829492593445467
 40
0.3476304136891888
 40
0.3803412025131453
 40
0.413197205757962
 40
0.4790058581268025
 40
0.6280835351746978
 40
0.7752069006742822
 40
0.8860961609175676
 40
0.942575823069968
 40
0.9711717701275352
 40
0.9855553004631528
 40
1.0
 40
1.0
 40
1.0
 40
1.0
 10
356.0269598572759
 20
1108.242047935693
 30
0.0
 10
356.0271279036051
 20
1108.242048552554
 30
0.0
 10
356.2201968004601
 20
1108.242757266366
 30
0.0
 10
356.6086980199898
 20
1108.262064882076
 30
0.0
 10
357.3964972738413
 20
1108.360090167537
 30
0.0
 10
358.400996697259
 20
1108.611315238421
 30
0.0
 10
359.6069293522551
 20
1109.072887808036
 30
0.0
 10
360.8266376418105
 20
1109.665333748995
 30
0.0
 10
362.050227285501
 20
1110.345245556038
 30
0.0
 10
363.061782305318
 20
1110.94463797175
 30
0.0
 10
363.8640187030751
 20
1111.434364649133
 30
0.0
 10
364.6607211874243
 20
1111.928129563271
 30
0.0
 10
366.1288759578401
 20
1112.850590442135
 30
0.0
 10
368.1665488490753
 20
1114.133554591074
 30
0.0
 10
370.2167082294973
 20
1115.444316434664
 30
0.0
 10
371.5819395709568
 20
1116.377326102625
 30
0.0
 10
372.3309400436929
 20
1116.921555797972
 30
0.0
 10
372.6831550331726
 20
1117.18586639729
 30
0.0
 10
372.878746012133
 20
1117.333933487214
 30
0.0
 10
372.9732949090958
 20
1117.406832793542
 30
0.0
 10
373.0206696669011
 20
1117.44335978743
 30
0.0
  0
SPLINE
  5
33E5
330
A
100
AcDbEntity
  8
MODEL
100
AcDbSpline
210
0.0
220
0.0
230
1.0
 70
     8
 71
     3
 72
    21
 73
    17
 74
     0
 42
0.000000001
 43
0.0000000001
 40
0.0
 40
0.0
 40
0.0
 40
0.0
 40
0.0417803785522271
 40
0.1693598373888695
 40
0.3013385850126821
 40
0.4309761670594363
 40
0.5577531744882164
 40
0.6197738040635028
 40
0.6806598710508898
 40
0.7401579717852081
 40
0.7978556294169618
 40
0.8563941594420272
 40
0.9052376697932858
 40
0.9388849662750826
 40
0.9702758269944367
 40
1.0
 40
1.0
 40
1.0
 40
1.0
 10
337.0278516366043
 20
1122.637038183899
 30
0.0
 10
337.026838982858
 20
1122.60486373076
 30
0.0
 10
337.0930559864319
 20
1122.424609875068
 30
0.0
 10
337.7168870843689
 20
1121.740336311662
 30
0.0
 10
339.3725750378999
 20
1120.214600513634
 30
0.0
 10
341.6412073250785
 20
1118.150207416158
 30
0.0
 10
343.7964184099428
 20
1116.099210268563
 30
0.0
 10
345.609098638949
 20
1114.395506768026
 30
0.0
 10
346.9962258171236
 20
1113.129172884505
 30
0.0
 10
348.4175254122056
 20
1111.899650159198
 30
0.0
 10
349.8992249725434
 20
1110.724560797249
 30
0.0
 10
351.3933866797142
 20
1109.711539351891
 30
0.0
 10
352.7732788882822
 20
1108.973636962186
 30
0.0
 10
353.9665862778529
 20
1108.534007121656
 30
0.0
 10
355.0051505125075
 20
1108.286656997268
 30
0.0
 10
355.6926060156275
 20
1108.256644798782
 30
0.0
 10
356.0269598572759
 20
1108.242047935693
 30
0.0
  0
SPLINE
  5
33E6
330
A
100
AcDbEntity
  8
MODEL
100
AcDbSpline
210
0.0
220
0.0
230
1.0
 70
     8
 71
     3
 72
    13
 73
     9
 74
     0
 42
0.000000001
 43
0.0000000001
 40
0.0
 40
0.0
 40
0.0
 40
0.0
 40
0.0286255219759593
 40
0.0575982479942409
 40
0.1158046532385189
 40
0.2338005304723972
 40
0.4792664526276091
 40
1.0
 40
1.0
 40
1.0
 40
1.0
 10
373.0206696669011
 20
1117.44335978743
 30
0.0
 10
373.0563863920388
 20
1117.473769933582
 30
0.0
 10
373.1282530568196
 20
1117.534959075951
 30
0.0
 10
373.2680985306179
 20
1117.657641746005
 30
0.0
 10
373.5080015775011
 20
1117.863276987178
 30
0.0
 10
373.9612021080338
 20
1118.25796635335
 30
0.0
 10
374.7333871080773
 20
1118.932555460482
 30
0.0
 10
375.0271301392786
 20
1119.193073680741
 30
0.0
 10
375.0274546888513
 20
1119.193332291185
 30
0.0
  0
SPLINE
  5
33E7
330
A
100
AcDbEntity
  8
MODEL
100
AcDbSpline
210
0.0
220
0.0
230
1.0
 70
     8
 71
     3
 72
    21
 73
    17
 74
     0
 42
0.000000001
 43
0.0000000001
 40
0.0
 40
0.0
 40
0.0
 40
0.0
 40
0.022931411988113
 40
0.0461394066592301
 40
0.069729746749189
 40
0.0948002348721864
 40
0.2020004243669951
 40
0.2597079241810475
 40
0.3192163775381723
 40
0.3801133246466248
 40
0.4421450020941103
 40
0.5689448436547182
 40
0.6986062744142137
 40
0.8306051177985387
 40
0.9582122019764739
 40
1.0
 40
1.0
 40
1.0
 40
1.0
 10
206.0274645082627
 20
1108.24493501139
 30
0.0
 10
206.2852695277616
 20
1108.253006282995
 30
0.0
 10
206.8039890309346
 20
1108.269246178107
 30
0.0
 10
207.5765110961556
 20
1108.407021221387
 30
0.0
 10
208.3507761315304
 20
1108.626042237008
 30
0.0
 10
209.9709654017888
 20
1109.255972892185
 30
0.0
 10
211.7460949711131
 20
1110.403172269917
 30
0.0
 10
213.6366451281483
 20
1111.898335055457
 30
0.0
 10
215.0582837088814
 20
1113.12897756081
 30
0.0
 10
216.4453651949643
 20
1114.395035803949
 30
0.0
 10
218.2581393316968
 20
1116.098873872484
 30
0.0
 10
220.4134089216996
 20
1118.149896180509
 30
0.0
 10
222.6821219587864
 20
1120.214394572756
 30
0.0
 10
224.3379249307563
 20
1121.740245000168
 30
0.0
 10
224.9618375450386
 20
1122.42455171802
 30
0.0
 10
225.0280833408037
 20
1122.604849566053
 30
0.0
 10
225.0270767886323
 20
1122.637033735706
 30
0.0
  0
SPLINE
  5
33E8
330
A
100
AcDbEntity
  8
MODEL
100
AcDbSpline
210
0.0
220
0.0
230
1.0
 70
     8
 71
     3
 72
    25
 73
    21
 74
     0
 42
0.000000001
 43
0.0000000001
 40
0.0
 40
0.0
 40
0.0
 40
0.0
 40
0.0084452751138955
 40
0.0168446202159349
 40
0.0336107620723363
 40
0.0668998536414694
 40
0.1325409960021079
 40
0.2614663576213395
 40
0.3904330900551126
 40
0.5210223944087834
 40
0.5868279800312961
 40
0.6196825399310726
 40
0.6523916516733756
 40
0.7170703100432478
 40
0.7801116776303637
 40
0.8403009985336818
 40
0.896751929318744
 40
0.949499186149215
 40
0.9749043725090574
 40
1.0
 40
1.0
 40
1.0
 40
1.0
 10
189.0342279158058
 20
1117.44338323945
 30
0.0
 10
189.0617766567411
 20
1117.421774272137
 30
0.0
 10
189.1167243135342
 20
1117.37867385886
 30
0.0
 10
189.2292890270655
 20
1117.294392635845
 30
0.0
 10
189.4292230614583
 20
1117.141721988768
 30
0.0
 10
189.8448675221607
 20
1116.832732038974
 30
0.0
 10
190.7358172553786
 20
1116.190900742389
 30
0.0
 10
192.193882970294
 20
1115.214190171608
 30
0.0
 10
194.1960665120778
 20
1113.94000325749
 30
0.0
 10
196.0353148721351
 20
1112.781907223497
 30
0.0
 10
197.3939744037389
 20
1111.928280140979
 30
0.0
 10
198.1906459776437
 20
1111.434514435542
 30
0.0
 10
198.9928797061239
 20
1110.944815022229
 30
0.0
 10
200.004405978586
 20
1110.345423957441
 30
0.0
 10
201.2279684366531
 20
1109.665393312068
 30
0.0
 10
202.4476562778409
 20
1109.073211036388
 30
0.0
 10
203.6535450969695
 20
1108.610548194195
 30
0.0
 10
204.6581340454168
 20
1108.362429325742
 30
0.0
 10
205.4458787110789
 20
1108.258596729497
 30
0.0
 10
205.8343960760649
 20
1108.249470269697
 30
0.0
 10
206.0274645082627
 20
1108.24493501139
 30
0.0
  0
ARC
  5
33E9
330
A
100
AcDbEntity
  8
MODEL
100
AcDbCircle
 10
317.902994346342
 20
1267.249782661443
 30
0.0
 40
197.6084924012985
100
AcDbArc
 50
228.5247119828989
 51
229.296717015399
  0
SPLINE
  5
33EA
330
A
100
AcDbEntity
  8
MODEL
100
AcDbSpline
210
0.0
220
0.0
230
1.0
 70
     8
 71
     3
 72
    32
 73
    28
 74
     0
 42
0.000000001
 43
0.0000000001
 40
0.0
 40
0.0
 40
0.0
 40
0.0
 40
0.0005174537561116
 40
0.0005174537561116
 40
0.0627808145517729
 40
0.0627808145517729
 40
0.1250441753474342
 40
0.1250441753474342
 40
0.2495708969387568
 40
0.2495708969387568
 40
0.3740976185300793
 40
0.3740976185300793
 40
0.4986243401214019
 40
0.4986243401214019
 40
0.6231510617127245
 40
0.6231510617127245
 40
0.6854144225083858
 40
0.6854144225083858
 40
0.7476777833040471
 40
0.7476777833040471
 40
0.8099411440997084
 40
0.8099411440997084
 40
0.8722045048953696
 40
0.8722045048953696
 40
0.9967312264866922
 40
0.9967312264866922
 40
1.0
 40
1.0
 40
1.0
 40
1.0
 10
297.07746418638
 20
1119.159868059241
 30
0.0
 10
297.0774634109157
 20
1119.159690485563
 30
0.0
 10
297.0774551056202
 20
1119.159508655662
 30
0.0
 10
297.0755338590234
 20
1119.136931392982
 30
0.0
 10
296.9606161835391
 20
1119.050645520782
 30
0.0
 10
296.5240330705365
 20
1118.763367463161
 30
0.0
 10
296.1988304645329
 20
1118.559852807557
 30
0.0
 10
294.9449453490188
 20
1117.799926773216
 30
0.0
 10
293.7437885983336
 20
1117.093212270363
 30
0.0
 10
290.86776621632
 20
1115.52040587506
 30
0.0
 10
289.1778237889266
 20
1114.626705873567
 30
0.0
 10
285.4357958085429
 20
1113.172968888692
 30
0.0
 10
283.3039195673919
 20
1112.62331817246
 30
0.0
 10
278.8984127493004
 20
1112.600947390673
 30
0.0
 10
276.7631648335537
 20
1113.128954966931
 30
0.0
 10
273.9284460792987
 20
1114.212873479662
 30
0.0
 10
273.0261940138616
 20
1114.623581753142
 30
0.0
 10
271.3419100500496
 20
1115.450590052779
 30
0.0
 10
270.5591438264491
 20
1115.864993608745
 30
0.0
 10
269.1032844154051
 20
1116.658990487264
 30
0.0
 10
268.4337717041217
 20
1117.038236836858
 30
0.0
 10
267.2628772851904
 20
1117.7147043602
 30
0.0
 10
266.7537174245808
 20
1118.016440628497
 30
0.0
 10
265.4769248915736
 20
1118.788567148871
 30
0.0
 10
265.0022242197201
 20
1119.099451947538
 30
0.0
 10
264.9777843088614
 20
1119.157419336101
 30
0.0
 10
264.9774664643483
 20
1119.158727979429
 30
0.0
 10
264.9774553209681
 20
1119.159863061843
 30
0.0
  0
LINE
  5
33EB
330
A
100
AcDbEntity
  8
MODEL
100
AcDbLine
 10
265.030861711839
 20
1119.165396706943
 30
0.0
 11
228.4364488648398
 21
1119.165396706943
 31
0.0
  0
LINE
  5
33EC
330
A
100
AcDbEntity
  8
MODEL
100
AcDbLine
 10
333.6184984598385
 20
1119.165396706941
 30
0.0
 11
297.0192656223389
 21
1119.165396706942
 31
0.0
  0
LINE
  5
33ED
330
A
100
AcDbEntity
  8
MODEL
100
AcDbLine
 10
295.5274633913386
 20
1071.657802952943
 30
0.0
 11
356.0779639958382
 21
1071.657802952941
 31
0.0
  0
LINE
  5
33EE
330
A
100
AcDbEntity
  8
MODEL
100
AcDbLine
 10
205.9769639958386
 20
1071.657802952944
 30
0.0
 11
266.5274647273382
 21
1071.657802952943
 31
0.0
  0
SPLINE
  5
33EF
330
A
100
AcDbEntity
  8
MODEL
100
AcDbSpline
210
0.0
220
0.0
230
1.0
 70
     8
 71
     3
 72
     8
 73
     4
 74
     0
 42
0.000000001
 43
0.0000000001
 40
0.0
 40
0.0
 40
0.0
 40
0.0
 40
1.0
 40
1.0
 40
1.0
 40
1.0
 10
355.9037143584828
 20
1071.658834751688
 30
0.0
 10
362.0834547120621
 20
1071.658388318643
 30
0.0
 10
368.9509792086492
 20
1071.658044385756
 30
0.0
 10
376.5062878482449
 20
1071.657802953029
 30
0.0
  0
LINE
  5
33F0
330
A
100
AcDbEntity
  8
MODEL
100
AcDbLine
 10
395.5062878483386
 20
1115.65780295294
 30
0.0
 11
378.5609635008395
 21
1115.657802952941
 31
0.0
  0
LINE
  5
33F1
330
A
100
AcDbEntity
  8
MODEL
100
AcDbLine
 10
376.5062878483386
 20
1071.657802952941
 30
0.0
 11
395.5062878483377
 21
1071.65780295294
 31
0.0
  0
LINE
  5
33F2
330
A
100
AcDbEntity
  8
MODEL
100
AcDbLine
 10
183.4949674678392
 20
1115.657802952944
 30
0.0
 11
166.5486401438393
 21
1115.657802952945
 31
0.0
  0
LINE
  5
33F3
330
A
100
AcDbEntity
  8
MODEL
100
AcDbLine
 10
166.5486401438384
 20
1071.657802952945
 30
0.0
 11
185.5486401438384
 21
1071.657802952944
 31
0.0
  0
SPLINE
  5
33F4
330
A
100
AcDbEntity
  8
MODEL
100
AcDbSpline
210
0.0
220
0.0
230
1.0
 70
     8
 71
     3
 72
     8
 73
     4
 74
     0
 42
0.000000001
 43
0.0000000001
 40
0.0
 40
0.0
 40
0.0
 40
0.0
 40
1.0
 40
1.0
 40
1.0
 40
1.0
 10
185.5486401436501
 20
1071.657802953033
 30
0.0
 10
191.0949937449986
 20
1071.657904513866
 30
0.0
 10
197.921268362431
 20
1071.658250587434
 30
0.0
 10
206.0274639959471
 20
1071.658841173739
 30
0.0
  0
LINE
  5
33F5
330
A
100
AcDbEntity
  8
MODEL
100
AcDbLine
 10
187.0274639958398
 20
1162.157802952944
 30
0.0
 11
187.0274639958388
 21
1119.191606002445
 31
0.0
  0
LINE
  5
33F6
330
A
100
AcDbEntity
  8
MODEL
100
AcDbLine
 10
225.0274639958393
 20
1122.615132604943
 30
0.0
 11
225.0274639958398
 21
1162.157802952943
 31
0.0
  0
LINE
  5
33F7
330
A
100
AcDbEntity
  8
MODEL
100
AcDbLine
 10
337.02746399634
 20
1162.157802952942
 30
0.0
 11
337.0274639963395
 21
1122.615120487442
 31
0.0
  0
LINE
  5
33F8
330
A
100
AcDbEntity
  8
MODEL
100
AcDbLine
 10
375.0274639963391
 20
1119.19066322194
 30
0.0
 11
375.02746399634
 21
1162.157802952941
 31
0.0
  0
ARC
  5
33F9
330
A
100
AcDbEntity
  8
MODEL
100
AcDbCircle
 10
378.2954325008395
 20
1118.925572290941
 30
0.0
 40
3.281825101988773
100
AcDbArc
 50
174.732196046196
 51
275.3054474723975
  0
ARC
  5
33FA
330
A
100
AcDbEntity
  8
MODEL
100
AcDbCircle
 10
333.8591425303393
 20
1122.336148870942
 30
0.0
 40
3.182563174942513
100
AcDbArc
 50
264.9904022011991
 51
5.422467018195791
  0
ARC
  5
33FB
330
A
100
AcDbEntity
  8
MODEL
100
AcDbCircle
 10
183.7740028848393
 20
1118.911263459445
 30
0.0
 40
3.265664897670721
100
AcDbArc
 50
265.0448560859956
 51
4.955133384296791
  0
ARC
  5
33FC
330
A
100
AcDbEntity
  8
MODEL
100
AcDbCircle
 10
228.1957872023395
 20
1122.336151974444
 30
0.0
 40
3.182563690908608
100
AcDbArc
 50
174.5779212630017
 51
275.0103644873899
  0
LINE
  5
33FD
330
A
100
AcDbEntity
  8
MODEL
100
AcDbLine
 10
132.5686401438388
 20
1084.957802952945
 30
0.0
 11
132.5686401438393
 21
1102.357802952946
 31
0.0
  0
LINE
  5
33FE
330
A
100
AcDbEntity
  8
MODEL
100
AcDbLine
 10
134.7686401438386
 20
1102.657802952945
 30
0.0
 11
132.8686401438385
 21
1102.657802952945
 31
0.0
  0
LINE
  5
33FF
330
A
100
AcDbEntity
  8
MODEL
100
AcDbLine
 10
132.8686401438381
 20
1084.657802952945
 30
0.0
 11
134.7686401438386
 21
1084.657802952945
 31
0.0
  0
ARC
  5
3400
330
A
100
AcDbEntity
  8
MODEL
100
AcDbCircle
 10
132.8686401438385
 20
1102.357802952946
 30
0.0
 40
0.3
100
AcDbArc
 50
90.0
 51
180.0
  0
ARC
  5
3401
330
A
100
AcDbEntity
  8
MODEL
100
AcDbCircle
 10
132.8686401438381
 20
1084.957802952945
 30
0.0
 40
0.2999999999999945
100
AcDbArc
 50
180.0
 51
270.0
  0
ARC
  5
3402
330
A
100
AcDbEntity
  8
MODEL
100
AcDbCircle
 10
134.7686401438386
 20
1102.357802952946
 30
0.0
 40
0.2999999999999945
100
AcDbArc
 50
0.0
 51
90.0
  0
ARC
  5
3403
330
A
100
AcDbEntity
  8
MODEL
100
AcDbCircle
 10
134.7686401438386
 20
1084.957802952945
 30
0.0
 40
0.3
100
AcDbArc
 50
270.0
 51
0.0
  0
LINE
  5
3404
330
A
100
AcDbEntity
  8
MODEL
100
AcDbLine
 10
266.0524639958398
 20
1150.507802952942
 30
0.0
 11
296.0024639958397
 21
1150.507802952942
 31
0.0
  0
ARC
  5
3405
330
A
100
AcDbEntity
  8
MODEL
100
AcDbCircle
 10
266.0524639958398
 20
1149.507802952943
 30
0.0
 40
1.000000000000001
100
AcDbArc
 50
90.0
 51
180.0
  0
ARC
  5
3406
330
A
100
AcDbEntity
  8
MODEL
100
AcDbCircle
 10
296.0024639958397
 20
1149.507802952943
 30
0.0
 40
0.9999999999999989
100
AcDbArc
 50
359.9999999999741
 51
90.0
  0
LINE
  5
3407
330
A
100
AcDbEntity
  8
MODEL
100
AcDbLine
 10
265.0524639958398
 20
1149.507802952943
 30
0.0
 11
265.0524639958394
 21
1119.097208065943
 31
0.0
  0
LINE
  5
3408
330
A
100
AcDbEntity
  8
MODEL
100
AcDbLine
 10
297.0024639958392
 20
1119.113289299942
 30
0.0
 11
297.0024639958397
 21
1149.507802952942
 31
0.0
  0
LINE
  5
3409
330
A
100
AcDbEntity
  8
MODEL
100
AcDbLine
 10
400.4062878483392
 20
1115.15780295294
 30
0.0
 11
400.4062878483383
 21
1072.15780295294
 31
0.0
  0
LINE
  5
340A
330
A
100
AcDbEntity
  8
MODEL
100
AcDbLine
 10
399.9062878483392
 20
1115.65780295294
 30
0.0
 11
395.606287848339
 21
1115.65780295294
 31
0.0
  0
LINE
  5
340B
330
A
100
AcDbEntity
  8
MODEL
100
AcDbLine
 10
395.6062878483381
 20
1071.65780295294
 30
0.0
 11
399.9062878483383
 21
1071.65780295294
 31
0.0
  0
ARC
  5
340C
330
A
100
AcDbEntity
  8
MODEL
100
AcDbCircle
 10
395.6062878483381
 20
1071.75780295294
 30
0.0
 40
0.100000000000003
100
AcDbArc
 50
180.0
 51
270.0
  0
ARC
  5
340D
330
A
100
AcDbEntity
  8
MODEL
100
AcDbCircle
 10
395.606287848339
 20
1115.55780295294
 30
0.0
 40
0.0999999999999995
100
AcDbArc
 50
90.0
 51
180.0
  0
ARC
  5
340E
330
A
100
AcDbEntity
  8
MODEL
100
AcDbCircle
 10
399.9062878483383
 20
1072.15780295294
 30
0.0
 40
0.5000000000000006
100
AcDbArc
 50
270.0
 51
0.0
  0
ARC
  5
340F
330
A
100
AcDbEntity
  8
MODEL
100
AcDbCircle
 10
399.9062878483392
 20
1115.15780295294
 30
0.0
 40
0.5000000000000006
100
AcDbArc
 50
0.0
 51
90.0
  0
LINE
  5
3410
330
A
100
AcDbEntity
  8
MODEL
100
AcDbLine
 10
166.448640143838
 20
1071.657802952945
 30
0.0
 11
166.4486401438389
 21
1115.657802952945
 31
0.0
  0
LINE
  5
3411
330
A
100
AcDbEntity
  8
MODEL
100
AcDbLine
 10
161.6486401438383
 20
1072.157802952945
 30
0.0
 11
161.6486401438387
 21
1115.157802952945
 31
0.0
  0
LINE
  5
3412
330
A
100
AcDbEntity
  8
MODEL
100
AcDbLine
 10
162.1486401438378
 20
1071.657802952945
 30
0.0
 11
166.448640143838
 21
1071.657802952945
 31
0.0
  0
LINE
  5
3413
330
A
100
AcDbEntity
  8
MODEL
100
AcDbLine
 10
166.4486401438389
 20
1115.657802952945
 30
0.0
 11
162.1486401438387
 21
1115.657802952945
 31
0.0
  0
ARC
  5
3414
330
A
100
AcDbEntity
  8
MODEL
100
AcDbCircle
 10
166.4486401438389
 20
1115.557802952944
 30
0.0
 40
0.100000000000003
100
AcDbArc
 50
0.0
 51
90.0
  0
ARC
  5
3415
330
A
100
AcDbEntity
  8
MODEL
100
AcDbCircle
 10
166.448640143838
 20
1071.757802952944
 30
0.0
 40
0.0999999999999995
100
AcDbArc
 50
270.0
 51
0.0
  0
ARC
  5
3416
330
A
100
AcDbEntity
  8
MODEL
100
AcDbCircle
 10
162.1486401438387
 20
1115.157802952945
 30
0.0
 40
0.5000000000000006
100
AcDbArc
 50
90.0
 51
180.0
  0
ARC
  5
3417
330
A
100
AcDbEntity
  8
MODEL
100
AcDbCircle
 10
162.1486401438383
 20
1072.157802952945
 30
0.0
 40
0.5000000000000006
100
AcDbArc
 50
180.0
 51
269.9999999999479
  0
CIRCLE
  5
3418
330
A
100
AcDbEntity
  8
MODEL
100
AcDbCircle
 10
142.3638087038389
 20
1093.657807806446
 30
0.0
 40
3.999989851475967
  0
ARC
  5
3419
330
A
100
AcDbEntity
  8
MODEL
100
AcDbCircle
 10
142.3638389948392
 20
1109.711726151946
 30
0.0
 40
7.71245267585358
100
AcDbArc
 50
238.7621599538982
 51
301.2409011576957
  0
ARC
  5
341A
330
A
100
AcDbEntity
  8
MODEL
100
AcDbCircle
 10
142.3638057238386
 20
1077.578104225946
 30
0.0
 40
7.7343616510418
100
AcDbArc
 50
58.8572807898969
 51
121.1427096682047
  0
LINE
  5
341B
330
A
100
AcDbEntity
  8
MODEL
100
AcDbLine
 10
135.0686401438388
 20
1084.737802952945
 30
0.0
 11
135.0686401438393
 21
1102.577802952945
 31
0.0
  0
LINE
  5
341C
330
A
100
AcDbEntity
  8
MODEL
100
AcDbLine
 10
146.8238546253388
 20
1084.657802952945
 30
0.0
 11
161.6486401438387
 21
1084.657802952945
 31
0.0
  0
LINE
  5
341D
330
A
100
AcDbEntity
  8
MODEL
100
AcDbLine
 10
135.1486401438387
 20
1084.657802952945
 30
0.0
 11
137.9038139878385
 21
1084.657802952945
 31
0.0
  0
LINE
  5
341E
330
A
100
AcDbEntity
  8
MODEL
100
AcDbLine
 10
137.9038139878389
 20
1102.657802952945
 30
0.0
 11
135.1486401438387
 21
1102.657802952945
 31
0.0
  0
LINE
  5
341F
330
A
100
AcDbEntity
  8
MODEL
100
AcDbLine
 10
161.6486401438387
 20
1102.657802952945
 30
0.0
 11
146.8237980823387
 21
1102.657802952945
 31
0.0
  0
ARC
  5
3420
330
A
100
AcDbEntity
  8
MODEL
100
AcDbCircle
 10
138.6638139828378
 20
1054.470438708445
 30
0.0
 40
0.299999999988958
100
AcDbArc
 50
179.9821557813658
 51
270.0
  0
ARC
  5
3421
330
A
100
AcDbEntity
  8
MODEL
100
AcDbCircle
 10
146.0637969653385
 20
1054.470444976446
 30
0.0
 40
0.299999996987173
100
AcDbArc
 50
270.0
 51
358.4482728183462
  0
LINE
  5
3422
330
A
100
AcDbEntity
  8
MODEL
100
AcDbLine
 10
146.363798082838
 20
1054.470444941446
 30
0.0
 11
146.3637980828389
 21
1084.197871318946
 31
0.0
  0
LINE
  5
3423
330
A
100
AcDbEntity
  8
MODEL
100
AcDbLine
 10
138.363813982839
 20
1084.223284967446
 30
0.0
 11
138.3638139828381
 21
1054.470438708445
 31
0.0
  0
ARC
  5
3424
330
A
100
AcDbEntity
  8
MODEL
100
AcDbCircle
 10
142.3637968578387
 20
1065.336336220945
 30
0.0
 40
11.77857142857139
100
AcDbArc
 50
251.2067205692977
 51
288.7945922157967
  0
ARC
  5
3425
330
A
100
AcDbEntity
  8
MODEL
100
AcDbCircle
 10
138.6638150993394
 20
1132.845090870944
 30
0.0
 40
0.29999990933275
100
AcDbArc
 50
89.99952516504146
 51
181.5515359076162
  0
ARC
  5
3426
330
A
100
AcDbEntity
  8
MODEL
100
AcDbCircle
 10
146.0637980828396
 20
1132.845084628445
 30
0.0
 40
0.2999999999999765
100
AcDbArc
 50
0.0173742823295454
 51
89.99995162088298
  0
LINE
  5
3427
330
A
100
AcDbEntity
  8
MODEL
100
AcDbLine
 10
146.3637980828389
 20
1103.096024745446
 30
0.0
 11
146.3637980828398
 21
1132.845084628445
 31
0.0
  0
LINE
  5
3428
330
A
100
AcDbEntity
  8
MODEL
100
AcDbLine
 10
138.3638139828399
 20
1132.845090837945
 30
0.0
 11
138.363813982839
 21
1103.117802954945
 31
0.0
  0
ARC
  5
3429
330
A
100
AcDbEntity
  8
MODEL
100
AcDbCircle
 10
142.3637968578396
 20
1121.979193363945
 30
0.0
 40
11.77857142857031
100
AcDbArc
 50
71.20024161560077
 51
108.5920227099022
  0
ARC
  5
342A
330
A
100
AcDbEntity
  8
MODEL
100
AcDbCircle
 10
137.9038139878385
 20
1084.197802951446
 30
0.0
 40
0.4600000017328925
100
AcDbArc
 50
0.0000003821037621
 51
90.0
  0
ARC
  5
342B
330
A
100
AcDbEntity
  8
MODEL
100
AcDbCircle
 10
146.8237980823387
 20
1084.197802953946
 30
0.0
 40
0.459999999323494
100
AcDbArc
 50
90.00000005267663
 51
180.0000000257152
  0
ARC
  5
342C
330
A
100
AcDbEntity
  8
MODEL
100
AcDbCircle
 10
135.1486401438387
 20
1084.737802952945
 30
0.0
 40
0.0799999999999965
100
AcDbArc
 50
180.0
 51
270.0
  0
ARC
  5
342D
330
A
100
AcDbEntity
  8
MODEL
100
AcDbCircle
 10
135.1486401438387
 20
1102.577802952945
 30
0.0
 40
0.08
100
AcDbArc
 50
90.0
 51
180.0
  0
CIRCLE
  5
342E
330
A
100
AcDbEntity
  8
MODEL
100
AcDbCircle
 10
419.6911219588383
 20
1093.65770672994
 30
0.0
 40
3.999992050047462
  0
LINE
  5
342F
330
A
100
AcDbEntity
  8
MODEL
100
AcDbLine
 10
423.4878102563389
 20
1133.12910826744
 30
0.0
 11
415.8944274628393
 21
1133.129099989441
 31
0.0
  0
LINE
  5
3430
330
A
100
AcDbEntity
  8
MODEL
100
AcDbLine
 10
423.6911088893394
 20
1132.84512085944
 30
0.0
 11
415.691129436339
 21
1132.845112791941
 31
0.0
  0
ARC
  5
3431
330
A
100
AcDbEntity
  8
MODEL
100
AcDbCircle
 10
419.6911196298388
 20
1109.737652107439
 30
0.0
 40
7.73448926765845
100
AcDbArc
 50
238.8578710923964
 51
301.1421189320032
  0
ARC
  5
3432
330
A
100
AcDbEntity
  8
MODEL
100
AcDbCircle
 10
419.6911196293386
 20
1077.577968505439
 30
0.0
 40
7.734476680883851
100
AcDbArc
 50
58.85782474909957
 51
121.1421852006004
  0
LINE
  5
3433
330
A
100
AcDbEntity
  8
MODEL
100
AcDbLine
 10
426.9862878483391
 20
1102.57780295294
 30
0.0
 11
426.9862878483391
 21
1084.73780295294
 31
0.0
  0
LINE
  5
3434
330
A
100
AcDbEntity
  8
MODEL
100
AcDbLine
 10
415.2310694763391
 20
1102.65780295294
 30
0.0
 11
400.4062878483387
 21
1102.65780295294
 31
0.0
  0
LINE
  5
3435
330
A
100
AcDbEntity
  8
MODEL
100
AcDbLine
 10
426.9062878483387
 20
1102.65780295294
 30
0.0
 11
424.1511091368388
 21
1102.65780295294
 31
0.0
  0
LINE
  5
3436
330
A
100
AcDbEntity
  8
MODEL
100
AcDbLine
 10
424.0965970853385
 20
1084.65780295294
 30
0.0
 11
426.9062878483383
 21
1084.65780295294
 31
0.0
  0
LINE
  5
3437
330
A
100
AcDbEntity
  8
MODEL
100
AcDbLine
 10
400.4062878483383
 20
1084.65780295294
 30
0.0
 11
415.2313127383386
 21
1084.65780295294
 31
0.0
  0
ARC
  5
3438
330
A
100
AcDbEntity
  8
MODEL
100
AcDbCircle
 10
423.391108022839
 20
1132.84512086394
 30
0.0
 40
0.299999995139089
100
AcDbArc
 50
1.551520825996234
 51
90.00048891256931
  0
ARC
  5
3439
330
A
100
AcDbEntity
  8
MODEL
100
AcDbCircle
 10
415.9911294363392
 20
1132.845112791941
 30
0.0
 40
0.2999999999999925
100
AcDbArc
 50
108.8044919815998
 51
180.0174036573762
  0
LINE
  5
343A
330
A
100
AcDbEntity
  8
MODEL
100
AcDbLine
 10
423.691109139339
 20
1103.09232482094
 30
0.0
 11
423.6911091393395
 21
1132.845120809939
 31
0.0
  0
LINE
  5
343B
330
A
100
AcDbEntity
  8
MODEL
100
AcDbLine
 10
415.691129436339
 20
1132.845112791941
 30
0.0
 11
415.6911294363385
 21
1103.11772195494
 31
0.0
  0
ARC
  5
343C
330
A
100
AcDbEntity
  8
MODEL
100
AcDbCircle
 10
419.691131133839
 20
1121.97922168844
 30
0.0
 40
11.77857142857069
100
AcDbArc
 50
71.41027370989761
 51
108.8112748618989
  0
ARC
  5
343D
330
A
100
AcDbEntity
  8
MODEL
100
AcDbCircle
 10
415.9911302893379
 20
1054.470473438441
 30
0.0
 40
0.299999996099563
100
AcDbArc
 50
181.6360368014792
 51
270.0
  0
ARC
  5
343E
330
A
100
AcDbEntity
  8
MODEL
100
AcDbCircle
 10
423.3911090038382
 20
1054.47046537394
 30
0.0
 40
0.2999999999027435
100
AcDbArc
 50
269.9988991196606
 51
359.7998034869505
  0
LINE
  5
343F
330
A
100
AcDbEntity
  8
MODEL
100
AcDbLine
 10
423.6911091393381
 20
1054.47046538094
 30
0.0
 11
423.6911091393386
 21
1084.223280516939
 31
0.0
  0
LINE
  5
3440
330
A
100
AcDbEntity
  8
MODEL
100
AcDbLine
 10
415.6911294363381
 20
1084.197774105441
 30
0.0
 11
415.6911294363376
 21
1054.470473390441
 31
0.0
  0
ARC
  5
3441
330
A
100
AcDbEntity
  8
MODEL
100
AcDbCircle
 10
419.6911311338381
 20
1065.33636454544
 30
0.0
 40
11.77857142857089
100
AcDbArc
 50
251.4200260877994
 51
288.7610262754962
  0
ARC
  5
3442
330
A
100
AcDbEntity
  8
MODEL
100
AcDbCircle
 10
424.1511091368388
 20
1103.11780295694
 30
0.0
 40
0.4600000039875005
100
AcDbArc
 50
180.0000009419486
 51
270.0
  0
ARC
  5
3443
330
A
100
AcDbEntity
  8
MODEL
100
AcDbCircle
 10
415.2311294363385
 20
1103.117802952941
 30
0.0
 40
0.459999999999433
100
AcDbArc
 50
270.0
 51
359.9999999996601
  0
ARC
  5
3444
330
A
100
AcDbEntity
  8
MODEL
100
AcDbCircle
 10
415.2311294363381
 20
1084.19780295294
 30
0.0
 40
0.459999999997008
100
AcDbArc
 50
359.9999999995469
 51
89.99999999954687
  0
ARC
  5
3445
330
A
100
AcDbEntity
  8
MODEL
100
AcDbCircle
 10
424.1511091368384
 20
1084.197802949939
 30
0.0
 40
0.4600000038341485
100
AcDbArc
 50
89.99999983245436
 51
179.9999991796041
  0
ARC
  5
3446
330
A
100
AcDbEntity
  8
MODEL
100
AcDbCircle
 10
426.9062878483387
 20
1102.57780295294
 30
0.0
 40
0.0799999999999965
100
AcDbArc
 50
0.0
 51
90.0
  0
ARC
  5
3447
330
A
100
AcDbEntity
  8
MODEL
100
AcDbCircle
 10
426.9062878483383
 20
1084.73780295294
 30
0.0
 40
0.08
100
AcDbArc
 50
270.0
 51
0.0
  0
LINE
  5
3448
330
A
100
AcDbEntity
  8
MODEL
100
AcDbLine
 10
429.4862878483391
 20
1102.357802952941
 30
0.0
 11
429.4862878483391
 21
1084.95780295294
 31
0.0
  0
LINE
  5
3449
330
A
100
AcDbEntity
  8
MODEL
100
AcDbLine
 10
427.2862878483384
 20
1084.65780295294
 30
0.0
 11
429.186287848338
 21
1084.65780295294
 31
0.0
  0
LINE
  5
344A
330
A
100
AcDbEntity
  8
MODEL
100
AcDbLine
 10
429.1862878483385
 20
1102.65780295294
 30
0.0
 11
427.2862878483388
 21
1102.65780295294
 31
0.0
  0
ARC
  5
344B
330
A
100
AcDbEntity
  8
MODEL
100
AcDbCircle
 10
429.186287848338
 20
1084.95780295294
 30
0.0
 40
0.3000000000000015
100
AcDbArc
 50
270.0
 51
0.0
  0
ARC
  5
344C
330
A
100
AcDbEntity
  8
MODEL
100
AcDbCircle
 10
429.1862878483385
 20
1102.357802952941
 30
0.0
 40
0.2999999999999945
100
AcDbArc
 50
0.0
 51
90.0
  0
ARC
  5
344D
330
A
100
AcDbEntity
  8
MODEL
100
AcDbCircle
 10
427.2862878483384
 20
1084.95780295294
 30
0.0
 40
0.2999999999999945
100
AcDbArc
 50
180.0
 51
270.0
  0
ARC
  5
344E
330
A
100
AcDbEntity
  8
MODEL
100
AcDbCircle
 10
427.2862878483388
 20
1102.357802952941
 30
0.0
 40
0.3000000000000015
100
AcDbArc
 50
90.0
 51
180.0
  0
ARC
  5
344F
330
A
100
AcDbEntity
  8
MODEL
100
AcDbCircle
 10
281.0274639958379
 20
1094.657802952943
 30
0.0
 40
14.4999993320961
100
AcDbArc
 50
0.0000178277978022
 51
179.9999821720962
  0
ARC
  5
3450
330
A
100
AcDbEntity
  8
MODEL
100
AcDbCircle
 10
281.0282234063352
 20
929.8172120374417
 30
0.0
 40
14.48687279305791
100
AcDbArc
 50
270.0
 51
0.417779493300888
  0
ARC
  5
3451
330
A
100
AcDbEntity
  8
MODEL
100
AcDbCircle
 10
281.0282234063352
 20
929.8172120374417
 30
0.0
 40
14.48687279305791
100
AcDbArc
 50
179.5667783786935
 51
270.0
  0
LINE
  5
3452
330
A
100
AcDbEntity
  8
MODEL
100
AcDbLine
 10
266.5274646958387
 20
1094.657807464944
 30
0.0
 11
266.5274647593351
 21
929.5284990414431
 31
0.0
  0
LINE
  5
3453
330
A
100
AcDbEntity
  8
MODEL
100
AcDbLine
 10
295.5274633913359
 20
929.8162607244427
 30
0.0
 11
295.5274633918389
 21
1094.657811976442
 31
0.0
  0
ELLIPSE
  5
3454
330
A
100
AcDbEntity
  8
MODEL
100
AcDbEllipse
 10
281.0274640593357
 20
929.5329956979427
 30
0.0
 11
-14.5000000000001
 21
2.783440052190634E-11
 31
0.0
210
0.0
220
0.0
230
1.0
 40
0.9981348212000002
 41
0.0
 42
3.141592653589793
  0
LINE
  5
3455
330
A
100
AcDbEntity
  8
MODEL
100
AcDbLine
 10
327.52746399634
 20
1177.657802952942
 30
0.0
 11
384.5274639963404
 21
1177.657802952941
 31
0.0
  0
LINE
  5
3456
330
A
100
AcDbEntity
  8
MODEL
100
AcDbLine
 10
327.8274639963402
 20
1162.157802952942
 30
0.0
 11
384.2274639963398
 21
1162.157802952941
 31
0.0
  0
LINE
  5
3457
330
A
100
AcDbEntity
  8
MODEL
100
AcDbLine
 10
327.52746399634
 20
1177.657802952942
 30
0.0
 11
327.52746399634
 21
1162.457802952942
 31
0.0
  0
LINE
  5
3458
330
A
100
AcDbEntity
  8
MODEL
100
AcDbLine
 10
384.52746399634
 20
1162.457802952941
 30
0.0
 11
384.5274639963404
 21
1177.657802952941
 31
0.0
  0
ARC
  5
3459
330
A
100
AcDbEntity
  8
MODEL
100
AcDbCircle
 10
384.2274639963398
 20
1162.457802952941
 30
0.0
 40
0.2999999999999945
100
AcDbArc
 50
270.0
 51
0.0
  0
ARC
  5
345A
330
A
100
AcDbEntity
  8
MODEL
100
AcDbCircle
 10
327.8274639963402
 20
1162.457802952942
 30
0.0
 40
0.3000000000000085
100
AcDbArc
 50
180.0
 51
270.0
  0
LINE
  5
345B
330
A
100
AcDbEntity
  8
MODEL
100
AcDbLine
 10
177.5274639958402
 20
1177.657802952944
 30
0.0
 11
234.5274639958402
 21
1177.657802952943
 31
0.0
  0
LINE
  5
345C
330
A
100
AcDbEntity
  8
MODEL
100
AcDbLine
 10
177.8274639958399
 20
1162.157802952944
 30
0.0
 11
234.2274639958405
 21
1162.157802952943
 31
0.0
  0
LINE
  5
345D
330
A
100
AcDbEntity
  8
MODEL
100
AcDbLine
 10
177.5274639958402
 20
1177.657802952944
 30
0.0
 11
177.5274639958398
 21
1162.457802952945
 31
0.0
  0
LINE
  5
345E
330
A
100
AcDbEntity
  8
MODEL
100
AcDbLine
 10
234.5274639958398
 20
1162.457802952944
 30
0.0
 11
234.5274639958402
 21
1177.657802952943
 31
0.0
  0
ARC
  5
345F
330
A
100
AcDbEntity
  8
MODEL
100
AcDbCircle
 10
234.2274639958405
 20
1162.457802952944
 30
0.0
 40
0.2999999999999945
100
AcDbArc
 50
270.0
 51
0.0
  0
ARC
  5
3460
330
A
100
AcDbEntity
  8
MODEL
100
AcDbCircle
 10
177.8274639958399
 20
1162.457802952945
 30
0.0
 40
0.3000000000000085
100
AcDbArc
 50
180.0
 51
270.0
  0
ARC
  5
3461
330
A
100
AcDbEntity
  8
MODEL
100
AcDbCircle
 10
701.8004729647296
 20
431.6388987117011
 30
0.0
 40
22.0
100
AcDbArc
 50
10.47591548780087
 51
79.5243580357018
  0
ARC
  5
3462
330
A
100
AcDbEntity
  8
MODEL
100
AcDbCircle
 10
701.8004729647296
 20
431.6388987117011
 30
0.0
 40
22.0
100
AcDbArc
 50
190.4754057942998
 51
259.5243323281984
  0
ARC
  5
3463
330
A
100
AcDbEntity
  8
MODEL
100
AcDbCircle
 10
701.8004729647296
 20
431.6388987117011
 30
0.0
 40
22.0
100
AcDbArc
 50
280.4756419642982
 51
349.5245942056996
  0
LINE
  5
3464
330
A
100
AcDbEntity
  8
MODEL
100
AcDbLine
 10
715.3004729647296
 20
468.638898681701
 30
0.0
 11
705.80045796273
 21
468.638898681701
 31
0.0
  0
LINE
  5
3465
330
A
100
AcDbEntity
  8
MODEL
100
AcDbLine
 10
697.8004782597295
 20
468.638898681701
 30
0.0
 11
686.3004729647296
 21
468.638898681701
 31
0.0
  0
SPLINE
  5
3466
330
A
100
AcDbEntity
  8
MODEL
100
AcDbSpline
210
0.0
220
0.0
230
1.0
 70
     8
 71
     3
 72
     8
 73
     4
 74
     0
 42
0.000000001
 43
0.0000000001
 40
0.0
 40
0.0
 40
0.0
 40
0.0
 40
1.0
 40
1.0
 40
1.0
 40
1.0
 10
691.0523662769724
 20
451.1138377005868
 30
0.0
 10
691.1420579215496
 20
451.1529290207382
 30
0.0
 10
691.2276529347569
 20
451.1894257892091
 30
0.0
 10
691.3087321070011
 20
451.223418916119
 30
0.0
  0
SPLINE
  5
3467
330
A
100
AcDbEntity
  8
MODEL
100
AcDbSpline
210
0.0
220
0.0
230
1.0
 70
     8
 71
     3
 72
     9
 73
     5
 74
     0
 42
0.000000001
 43
0.0000000001
 40
0.0
 40
0.0
 40
0.0
 40
0.0
 40
0.5585443616736577
 40
0.9999999999999999
 40
0.9999999999999999
 40
0.9999999999999999
 40
0.9999999999999999
 10
691.7502777751438
 20
451.4029889603225
 30
0.0
 10
691.6821752773435
 20
451.3760870806527
 30
0.0
 10
691.545352708898
 20
451.3214045012382
 30
0.0
 10
691.3848801691879
 20
451.2553575994016
 30
0.0
 10
691.3099396486791
 20
451.2239682223062
 30
0.0
  0
SPLINE
  5
3468
330
A
100
AcDbEntity
  8
MODEL
100
AcDbSpline
210
0.0
220
0.0
230
1.0
 70
     8
 71
     3
 72
    12
 73
     8
 74
     0
 42
0.000000001
 43
0.0000000001
 40
0.0
 40
0.0
 40
0.0
 40
0.0
 40
0.1961600647277253
 40
0.3936863657234814
 40
0.5935102280317195
 40
0.7965169725489771
 40
0.9999999999999999
 40
0.9999999999999999
 40
0.9999999999999999
 40
0.9999999999999999
 10
685.9130903678074
 20
411.6286367718239
 30
0.0
 10
685.9070645401821
 20
411.6312260841769
 30
0.0
 10
685.89497091561
 20
411.6364227431982
 30
0.0
 10
685.7953776155568
 20
411.679687932894
 30
0.0
 10
685.637076259221
 20
411.7500712340106
 30
0.0
 10
685.4166571340543
 20
411.8514185962831
 30
0.0
 10
685.2328862153504
 20
411.9397647873288
 30
0.0
 10
685.1328581203566
 20
411.9893094455665
 30
0.0
  0
ARC
  5
3469
330
A
100
AcDbEntity
  8
MODEL
100
AcDbCircle
 10
687.4561027762297
 20
463.0564276337013
 30
0.0
 40
12.41990168443655
100
AcDbArc
 50
268.8800139674987
 51
272.9377576003984
  0
ARC
  5
346A
330
A
100
AcDbEntity
  8
MODEL
100
AcDbCircle
 10
687.4561027762297
 20
463.0564276337013
 30
0.0
 40
12.41990168443655
100
AcDbArc
 50
272.9377576003984
 51
292.1048043987992
  0
SPLINE
  5
346B
330
A
100
AcDbEntity
  8
MODEL
100
AcDbSpline
210
0.0
220
0.0
230
1.0
 70
     8
 71
     8
 72
    18
 73
     9
 74
     0
 42
0.000000001
 43
0.0000000001
 40
0.0
 40
0.0
 40
0.0
 40
0.0
 40
0.0
 40
0.0
 40
0.0
 40
0.0
 40
0.0
 40
1.0
 40
1.0
 40
1.0
 40
1.0
 40
1.0
 40
1.0
 40
1.0
 40
1.0
 40
1.0
 10
681.0162167925178
 20
412.6388987119317
 30
0.0
 10
681.6461831265992
 20
412.6388987119317
 30
0.0
 10
682.3508215112829
 20
412.6388987119317
 30
0.0
 10
682.9523220195583
 20
412.553477847694
 30
0.0
 10
683.5436695710164
 20
412.429321219623
 30
0.0
 10
684.1877845150561
 20
412.2985926197134
 30
0.0
 10
684.8172406954113
 20
412.1300578378991
 30
0.0
 10
685.334560995951
 20
411.8779585477942
 30
0.0
 10
685.9130903678074
 20
411.6286367718239
 30
0.0
  0
LINE
  5
346C
330
A
100
AcDbEntity
  8
MODEL
100
AcDbLine
 10
682.2014001182301
 20
421.6388986817014
 30
0.0
 11
682.2045550377302
 21
421.6388986817014
 31
0.0
  0
ARC
  5
346D
330
A
100
AcDbEntity
  8
MODEL
100
AcDbCircle
 10
671.9430880202294
 20
463.5388986807011
 30
0.0
 40
14.50541248775759
100
AcDbArc
 50
351.8075485166004
 51
8.19245088889972
  0
SPLINE
  5
346E
330
A
100
AcDbEntity
  8
MODEL
100
AcDbSpline
210
0.0
220
0.0
230
1.0
 70
     8
 71
     3
 72
    15
 73
    11
 74
     0
 42
0.000000001
 43
0.0000000001
 40
0.0
 40
0.0
 40
0.0
 40
0.0
 40
0.054484886275033
 40
0.2370418350953897
 40
0.4325856770149579
 40
0.6032024494873605
 40
0.747481303854412
 40
0.867463484441976
 40
0.9706281411672203
 40
1.0
 40
1.0
 40
1.0
 40
1.0
 10
694.408990800152
 20
452.3703649655126
 30
0.0
 10
694.4084538884531
 20
452.3708645102188
 30
0.0
 10
694.3856428156109
 20
452.3658286462942
 30
0.0
 10
694.2015280460496
 20
452.3063830090391
 30
0.0
 10
693.7957695947375
 20
452.1681622368487
 30
0.0
 10
693.308496539003
 20
451.9947738562346
 30
0.0
 10
692.7451748442832
 20
451.7882324030616
 30
0.0
 10
692.1033118479995
 20
451.5398623895853
 30
0.0
 10
691.5041889541076
 20
451.3068614677595
 30
0.0
 10
691.1048480530449
 20
451.1330377182935
 30
0.0
 10
691.0018042117304
 20
451.088202587307
 30
0.0
  0
ARC
  5
346F
330
A
100
AcDbEntity
  8
MODEL
100
AcDbCircle
 10
697.6468937587301
 20
444.0297372132013
 30
0.0
 40
34.4488017444056
100
AcDbArc
 50
250.0883601747991
 51
270.2617509069986
  0
LINE
  5
3470
330
A
100
AcDbEntity
  8
MODEL
100
AcDbLine
 10
633.3004729647296
 20
412.6388987117011
 30
0.0
 11
681.0162167927297
 21
412.6388987117011
 31
0.0
  0
LINE
  5
3471
330
A
100
AcDbEntity
  8
MODEL
100
AcDbLine
 10
687.3036419022296
 20
450.6388987117011
 30
0.0
 11
633.3004729647296
 21
450.6388987117011
 31
0.0
  0
LINE
  5
3472
330
A
100
AcDbEntity
  8
MODEL
100
AcDbLine
 10
686.3004729647296
 20
461.4718986817011
 30
0.0
 11
686.3004729647296
 21
451.0865653382011
 31
0.0
  0
LINE
  5
3473
330
A
100
AcDbEntity
  8
MODEL
100
AcDbLine
 10
686.3004729647296
 20
468.638898681701
 30
0.0
 11
686.3004729647296
 21
465.5796974837012
 31
0.0
  0
LINE
  5
3474
330
A
100
AcDbEntity
  8
MODEL
100
AcDbLine
 10
715.3004729647296
 20
451.324400986201
 30
0.0
 11
715.3004729647296
 21
468.638898681701
 31
0.0
  0
SPLINE
  5
3475
330
A
100
AcDbEntity
  8
MODEL
100
AcDbSpline
210
0.0
220
0.0
230
1.0
 70
     8
 71
     3
 72
     8
 73
     4
 74
     0
 42
0.000000001
 43
0.0000000001
 40
0.0
 40
0.0
 40
0.0
 40
0.0
 40
1.0
 40
1.0
 40
1.0
 40
1.0
 10
686.3004696015955
 20
451.1059892838748
 30
0.0
 10
686.299390765706
 20
450.9379935477159
 30
0.0
 10
686.297569984858
 20
450.7848495541016
 30
0.0
 10
686.289604679851
 20
450.6368483835499
 30
0.0
  0
ARC
  5
3476
330
A
100
AcDbEntity
  8
MODEL
100
AcDbCircle
 10
701.8304286512298
 20
431.335737978201
 30
0.0
 40
22.30387931376182
100
AcDbArc
 50
49.94368483890172
 51
49.96841219620267
  0
ARC
  5
3477
330
A
100
AcDbEntity
  8
MODEL
100
AcDbCircle
 10
719.9615621572298
 20
451.143726689701
 30
0.0
 40
4.664591851259846
100
AcDbArc
 50
177.780225938094
 51
215.9172804428952
  0
ARC
  5
3478
330
A
100
AcDbEntity
  8
MODEL
100
AcDbCircle
 10
688.2801478742299
 20
460.3691841427012
 30
0.0
 40
9.614406925682465
100
AcDbArc
 50
281.9889931821973
 51
291.0737770725938
  0
CIRCLE
  5
3479
330
A
100
AcDbEntity
  8
MODEL
100
AcDbCircle
 10
701.8004729647296
 20
431.6388987117011
 30
0.0
 40
9.0
  0
LINE
  5
347A
330
A
100
AcDbEntity
  8
MODEL
100
AcDbLine
 10
734.5004729647294
 20
438.6388981837013
 30
0.0
 11
734.5004729647294
 21
435.638986985201
 31
0.0
  0
LINE
  5
347B
330
A
100
AcDbEntity
  8
MODEL
100
AcDbLine
 10
734.5004729647294
 20
427.6390028852011
 30
0.0
 11
734.5004729647294
 21
424.6388991797012
 31
0.0
  0
ARC
  5
347C
330
A
100
AcDbEntity
  8
MODEL
100
AcDbCircle
 10
712.5004729647303
 20
431.6388986817014
 30
0.0
 40
29.99999999999344
100
AcDbArc
 50
346.273460381499
 51
0.0
  0
ARC
  5
347D
330
A
100
AcDbEntity
  8
MODEL
100
AcDbCircle
 10
712.5004729647303
 20
431.6388986817014
 30
0.0
 40
29.99999999999329
100
AcDbArc
 50
0.0
 51
13.72653961850012
  0
ARC
  5
347E
330
A
100
AcDbEntity
  8
MODEL
100
AcDbCircle
 10
741.1579336712298
 20
438.6388992317011
 30
0.0
 40
0.4999989516560475
100
AcDbArc
 50
13.72653961850118
 51
90.0
  0
ARC
  5
347F
330
A
100
AcDbEntity
  8
MODEL
100
AcDbCircle
 10
741.1579336712298
 20
424.6388981312011
 30
0.0
 40
0.4999989516560455
100
AcDbArc
 50
270.0
 51
346.2734603814988
  0
LINE
  5
3480
330
A
100
AcDbEntity
  8
MODEL
100
AcDbLine
 10
741.1579336712298
 20
439.1388981837013
 30
0.0
 11
735.0004729647303
 21
439.1388981837013
 31
0.0
  0
LINE
  5
3481
330
A
100
AcDbEntity
  8
MODEL
100
AcDbLine
 10
735.0004729647303
 20
424.1388991797012
 30
0.0
 11
741.1579336712298
 21
424.1388991797012
 31
0.0
  0
ARC
  5
3482
330
A
100
AcDbEntity
  8
MODEL
100
AcDbCircle
 10
735.0004729647303
 20
438.6388981837013
 30
0.0
 40
0.5000000000000006
100
AcDbArc
 50
90.0
 51
180.0
  0
ARC
  5
3483
330
A
100
AcDbEntity
  8
MODEL
100
AcDbCircle
 10
735.0004729647303
 20
424.6388991797012
 30
0.0
 40
0.5000000000000006
100
AcDbArc
 50
180.0
 51
270.0
  0
LINE
  5
3484
330
A
100
AcDbEntity
  8
MODEL
100
AcDbLine
 10
669.4504729647292
 20
411.1638986817011
 30
0.0
 11
646.4504729647292
 21
411.1638986817011
 31
0.0
  0
LINE
  5
3485
330
A
100
AcDbEntity
  8
MODEL
100
AcDbLine
 10
667.4304729647288
 20
402.2638986817014
 30
0.0
 11
648.4704729647297
 21
402.2638986817014
 31
0.0
  0
LINE
  5
3486
330
A
100
AcDbEntity
  8
MODEL
100
AcDbLine
 10
668.4304729647297
 20
403.263898681701
 30
0.0
 11
647.4704729647297
 21
403.263898681701
 31
0.0
  0
LINE
  5
3487
330
A
100
AcDbEntity
  8
MODEL
100
AcDbLine
 10
667.2004729647292
 20
409.8740395127011
 30
0.0
 11
648.7004729647301
 21
409.8740395127011
 31
0.0
  0
LINE
  5
3488
330
A
100
AcDbEntity
  8
MODEL
100
AcDbLine
 10
668.4304729647297
 20
409.1638986817015
 30
0.0
 11
647.4704729647297
 21
409.1638986817015
 31
0.0
  0
LINE
  5
3489
330
A
100
AcDbEntity
  8
MODEL
100
AcDbLine
 10
646.4504729647292
 20
412.6388987117011
 30
0.0
 11
646.4504729647292
 21
411.1638986817011
 31
0.0
  0
LINE
  5
348A
330
A
100
AcDbEntity
  8
MODEL
100
AcDbLine
 10
669.4504729647292
 20
411.1638986817011
 30
0.0
 11
669.4504729647292
 21
412.6388987117011
 31
0.0
  0
LINE
  5
348B
330
A
100
AcDbEntity
  8
MODEL
100
AcDbLine
 10
647.4704729647297
 20
403.263898681701
 30
0.0
 11
648.4704729647297
 21
402.2638986817014
 31
0.0
  0
LINE
  5
348C
330
A
100
AcDbEntity
  8
MODEL
100
AcDbLine
 10
667.4304729647288
 20
402.2638986817014
 30
0.0
 11
668.4304729647297
 21
403.263898681701
 31
0.0
  0
LINE
  5
348D
330
A
100
AcDbEntity
  8
MODEL
100
AcDbLine
 10
647.4704729647297
 20
409.1638986817015
 30
0.0
 11
647.4704729647297
 21
403.263898681701
 31
0.0
  0
LINE
  5
348E
330
A
100
AcDbEntity
  8
MODEL
100
AcDbLine
 10
668.4304729647297
 20
403.263898681701
 30
0.0
 11
668.4304729647297
 21
409.1638986817015
 31
0.0
  0
LINE
  5
348F
330
A
100
AcDbEntity
  8
MODEL
100
AcDbLine
 10
648.7004729647301
 20
411.1638986817011
 30
0.0
 11
648.7004729647301
 21
409.8740395127011
 31
0.0
  0
LINE
  5
3490
330
A
100
AcDbEntity
  8
MODEL
100
AcDbLine
 10
667.2004729647292
 20
409.8740395127011
 30
0.0
 11
667.2004729647292
 21
411.1638986817011
 31
0.0
  0
LINE
  5
3491
330
A
100
AcDbEntity
  8
MODEL
100
AcDbLine
 10
668.4304729647297
 20
409.1638986817015
 30
0.0
 11
667.2004729647292
 21
409.8740395127011
 31
0.0
  0
LINE
  5
3492
330
A
100
AcDbEntity
  8
MODEL
100
AcDbLine
 10
648.7004729647301
 20
409.8740395127011
 30
0.0
 11
647.4704729647297
 21
409.1638986817015
 31
0.0
  0
LINE
  5
3493
330
A
100
AcDbEntity
  8
MODEL
100
AcDbLine
 10
667.2654729647297
 20
409.8365117452013
 30
0.0
 11
667.2654729647297
 21
402.2638986817014
 31
0.0
  0
LINE
  5
3494
330
A
100
AcDbEntity
  8
MODEL
100
AcDbLine
 10
648.6354729647287
 20
409.8365117452013
 30
0.0
 11
648.6354729647287
 21
402.2638986817014
 31
0.0
  0
ARC
  5
3495
330
A
100
AcDbEntity
  8
MODEL
100
AcDbCircle
 10
701.8004729647296
 20
431.6388987117011
 30
0.0
 40
22.0
100
AcDbArc
 50
280.4756419642982
 51
349.5245942056996
  0
ARC
  5
3496
330
A
100
AcDbEntity
  8
MODEL
100
AcDbCircle
 10
701.8004729647296
 20
431.6388987117011
 30
0.0
 40
22.0
100
AcDbArc
 50
190.4754057942998
 51
259.5243323281984
  0
ARC
  5
3497
330
A
100
AcDbEntity
  8
MODEL
100
AcDbCircle
 10
701.8004729647296
 20
431.6388987117011
 30
0.0
 40
22.0
100
AcDbArc
 50
100.4756676718016
 51
169.5240845121998
  0
ARC
  5
3498
330
A
100
AcDbEntity
  8
MODEL
100
AcDbCircle
 10
701.8004729647296
 20
431.6388987117011
 30
0.0
 40
22.0
100
AcDbArc
 50
10.47591548780087
 51
79.5243580357018
  0
ARC
  5
3499
330
A
100
AcDbEntity
  8
MODEL
100
AcDbCircle
 10
740.9878046627296
 20
435.3389861317009
 30
0.0
 40
0.299999930773863
100
AcDbArc
 50
0.0001295323712279
 51
89.99999924579141
  0
ARC
  5
349A
330
A
100
AcDbEntity
  8
MODEL
100
AcDbCircle
 10
740.9878635017299
 20
427.9390030202012
 30
0.0
 40
0.2999999889699835
100
AcDbArc
 50
269.8002047334941
 51
0.0
  0
LINE
  5
349B
330
A
100
AcDbEntity
  8
MODEL
100
AcDbLine
 10
740.9878050432294
 20
435.638986985201
 30
0.0
 11
710.1739005072291
 21
435.638986985201
 31
0.0
  0
LINE
  5
349C
330
A
100
AcDbEntity
  8
MODEL
100
AcDbLine
 10
710.16469182423
 20
427.6390028852011
 30
0.0
 11
740.9878634512293
 21
427.6390028852011
 31
0.0
  0
ARC
  5
349D
330
A
100
AcDbEntity
  8
MODEL
100
AcDbCircle
 10
730.1219396967294
 20
431.638908548201
 30
0.0
 40
11.77857142857138
100
AcDbArc
 50
341.2226769663
 51
18.57937475749976
  0
ARC
  5
349E
330
A
100
AcDbEntity
  8
MODEL
100
AcDbCircle
 10
662.6131895697295
 20
435.3389861327014
 30
0.0
 40
0.299999995871056
100
AcDbArc
 50
91.6360533586347
 51
180.0003039532016
  0
ARC
  5
349F
330
A
100
AcDbEntity
  8
MODEL
100
AcDbCircle
 10
662.6131867512299
 20
427.9390037377011
 30
0.0
 40
0.2999999992932375
100
AcDbArc
 50
179.9996523037562
 51
269.7789588686041
  0
LINE
  5
34A0
330
A
100
AcDbEntity
  8
MODEL
100
AcDbLine
 10
693.4277271077294
 20
435.638986985201
 30
0.0
 11
662.6131895557296
 21
435.638986985201
 31
0.0
  0
LINE
  5
34A1
330
A
100
AcDbEntity
  8
MODEL
100
AcDbLine
 10
662.613186757229
 20
427.6390028852011
 30
0.0
 11
693.4336081447295
 21
427.6390028852011
 31
0.0
  0
ARC
  5
34A2
330
A
100
AcDbEntity
  8
MODEL
100
AcDbCircle
 10
673.4790825537298
 20
431.6389907912012
 30
0.0
 40
11.77857142857031
100
AcDbArc
 50
161.4224134212011
 51
198.774807645499
  0
ARC
  5
34A3
330
A
100
AcDbEntity
  8
MODEL
100
AcDbCircle
 10
698.1004791122291
 20
392.4515855262011
 30
0.0
 40
0.2999999958193585
100
AcDbArc
 50
181.6360662950778
 51
270.0003150840291
  0
ARC
  5
34A4
330
A
100
AcDbEntity
  8
MODEL
100
AcDbCircle
 10
705.5004571102295
 20
392.451584138701
 30
0.0
 40
0.299999995819272
100
AcDbArc
 50
269.999663416341
 51
358.3639431065694
  0
LINE
  5
34A5
330
A
100
AcDbEntity
  8
MODEL
100
AcDbLine
 10
697.8004782597295
 20
423.2747413517009
 30
0.0
 11
697.8004782597295
 21
392.4515855212012
 31
0.0
  0
LINE
  5
34A6
330
A
100
AcDbEntity
  8
MODEL
100
AcDbLine
 10
705.80045796273
 20
392.4515841517014
 30
0.0
 11
705.80045796273
 21
423.2654150962012
 31
0.0
  0
ARC
  5
34A7
330
A
100
AcDbEntity
  8
MODEL
100
AcDbCircle
 10
701.8004701487293
 20
403.3174799767012
 30
0.0
 40
11.77857142857069
100
AcDbArc
 50
251.4166999437045
 51
288.5836604988976
  0
ARC
  5
34A8
330
A
100
AcDbEntity
  8
MODEL
100
AcDbCircle
 10
705.5004579627289
 20
470.8262331842011
 30
0.0
 40
0.299999999999796
100
AcDbArc
 50
359.9826584677216
 51
90.00001435479895
  0
ARC
  5
34A9
330
A
100
AcDbEntity
  8
MODEL
100
AcDbCircle
 10
698.100479376229
 20
470.8262313317014
 30
0.0
 40
0.2999999953547925
100
AcDbArc
 50
89.99958798177612
 51
178.4484463936833
  0
LINE
  5
34AA
330
A
100
AcDbEntity
  8
MODEL
100
AcDbLine
 10
697.8004782597295
 20
470.8262313382011
 30
0.0
 11
697.8004782597295
 21
440.012377428201
 31
0.0
  0
LINE
  5
34AB
330
A
100
AcDbEntity
  8
MODEL
100
AcDbLine
 10
705.80045796273
 20
440.0030598347012
 30
0.0
 11
705.80045796273
 21
470.8262331842011
 31
0.0
  0
ARC
  5
34AC
330
A
100
AcDbEntity
  8
MODEL
100
AcDbCircle
 10
701.8004708337298
 20
459.9603371197013
 30
0.0
 40
11.7785714285709
100
AcDbArc
 50
71.20728707890244
 51
90.0
  0
ARC
  5
34AD
330
A
100
AcDbEntity
  8
MODEL
100
AcDbCircle
 10
701.8004708337298
 20
459.9603371197013
 30
0.0
 40
11.77857142857091
100
AcDbArc
 50
90.0
 51
108.7947804211036
  0
SPLINE
  5
34AE
330
A
100
AcDbEntity
  8
MODEL
100
AcDbSpline
210
0.0
220
0.0
230
1.0
 70
     8
 71
     3
 72
    20
 73
    16
 74
     0
 42
0.000000001
 43
0.0000000001
 40
0.0
 40
0.0
 40
0.0
 40
0.0
 40
0.0146878298782798
 40
0.3784433100331865
 40
0.5488546241555714
 40
0.5799845365275988
 40
0.5942871357807671
 40
0.6009557329148473
 40
0.6074518075882591
 40
0.6216123788683151
 40
0.6824926683713034
 40
0.7435111818073649
 40
0.826452463741844
 40
0.9491188499388146
 40
1.0
 40
1.0
 40
1.0
 40
1.0
 10
693.827850028912
 20
435.8145215313129
 30
0.0
 10
693.8287708250487
 20
435.8163447194547
 30
0.0
 10
693.8492350437878
 20
435.8568729249846
 30
0.0
 10
693.8565408108311
 20
435.8690968197848
 30
0.0
 10
693.8635383474425
 20
435.8826149812444
 30
0.0
 10
693.8622956226577
 20
435.8802742971293
 30
0.0
 10
693.8606307697214
 20
435.8771955264474
 30
0.0
 10
693.858153720405
 20
435.8727341177892
 30
0.0
 10
693.8537803141558
 20
435.8650573511713
 30
0.0
 10
693.8356790946605
 20
435.8350852536637
 30
0.0
 10
693.8003505502525
 20
435.7886535303419
 30
0.0
 10
693.7356968024001
 20
435.7281487806404
 30
0.0
 10
693.6381836397336
 20
435.669438208372
 30
0.0
 10
693.5262939495874
 20
435.6337011035248
 30
0.0
 10
693.456529372063
 20
435.6426022198898
 30
0.0
 10
693.4327642618914
 20
435.6458825020013
 30
0.0
  0
SPLINE
  5
34AF
330
A
100
AcDbEntity
  8
MODEL
100
AcDbSpline
210
0.0
220
0.0
230
1.0
 70
     8
 71
     3
 72
    19
 73
    15
 74
     0
 42
0.000000001
 43
0.0000000001
 40
0.0
 40
0.0
 40
0.0
 40
0.0
 40
0.0892888331779042
 40
0.2098528367473101
 40
0.3117682283661666
 40
0.3957127926756436
 40
0.460645173995649
 40
0.5030387452175528
 40
0.5209132250733042
 40
0.5342224672321527
 40
0.5524929254488449
 40
0.5867308976454384
 40
0.6764987747319028
 40
1.0
 40
1.0
 40
1.0
 40
1.0
 10
693.4346381709006
 20
427.6337001793927
 30
0.0
 10
693.4659057421791
 20
427.6360523027161
 30
0.0
 10
693.5287904992924
 20
427.6399302526993
 30
0.0
 10
693.6281623380014
 20
427.6104638245947
 30
0.0
 10
693.7143163758114
 20
427.5645271694029
 30
0.0
 10
693.7766551062828
 20
427.5130464031031
 30
0.0
 10
693.8170097432526
 20
427.467864030541
 30
0.0
 10
693.8403841845579
 20
427.4346205833613
 30
0.0
 10
693.8502201497636
 20
427.4187839601655
 30
0.0
 10
693.8542019857036
 20
427.412085044486
 30
0.0
 10
693.8571686409528
 20
427.40693765691
 30
0.0
 10
693.8597173197936
 20
427.4023689981141
 30
0.0
 10
693.8599504404688
 20
427.4018907533841
 30
0.0
 10
693.8557793325385
 20
427.4095749570647
 30
0.0
 10
693.8500235558281
 20
427.4205217765671
 30
0.0
  0
SPLINE
  5
34B0
330
A
100
AcDbEntity
  8
MODEL
100
AcDbSpline
210
0.0
220
0.0
230
1.0
 70
     8
 71
     3
 72
    19
 73
    15
 74
     0
 42
0.000000001
 43
0.0000000001
 40
0.0
 40
0.0
 40
0.0
 40
0.0
 40
0.1392106896300281
 40
0.4354387435130981
 40
0.5759041631755303
 40
0.6346727921862028
 40
0.6663429441003411
 40
0.6799103112710292
 40
0.6907282251669281
 40
0.7150804891688193
 40
0.7561275422020681
 40
0.8215227659768526
 40
0.9067519110706885
 40
1.0
 40
1.0
 40
1.0
 40
1.0
 10
697.6975275221607
 20
423.6294274958782
 30
0.0
 10
697.6732882665442
 20
423.641517851072
 30
0.0
 10
697.6089282745365
 20
423.6735771190874
 30
0.0
 10
697.5798249364084
 20
423.6896999671721
 30
0.0
 10
697.5638878885434
 20
423.6981800974399
 30
0.0
 10
697.5645252525924
 20
423.697826490562
 30
0.0
 10
697.5688568482642
 20
423.6954554252443
 30
0.0
 10
697.5792469234761
 20
423.6893662945404
 30
0.0
 10
697.5963220963945
 20
423.6787062224726
 30
0.0
 10
697.6289998114694
 20
423.6557450145924
 30
0.0
 10
697.6795494389094
 20
423.6108066805104
 30
0.0
 10
697.7412237598878
 20
423.5321704246612
 30
0.0
 10
697.794851620813
 20
423.412091518634
 30
0.0
 10
697.7976410229289
 20
423.3247812524237
 30
0.0
 10
697.7981318168145
 20
423.2715187166764
 30
0.0
  0
SPLINE
  5
34B1
330
A
100
AcDbEntity
  8
MODEL
100
AcDbSpline
210
0.0
220
0.0
230
1.0
 70
     8
 71
     3
 72
    20
 73
    16
 74
     0
 42
0.000000001
 43
0.0000000001
 40
0.0
 40
0.0
 40
0.0
 40
0.0
 40
0.122472878044314
 40
0.3279426645628369
 40
0.5017030366538254
 40
0.6457576362300228
 40
0.7589405270554019
 40
0.8390388667382916
 40
0.8852278255707213
 40
0.8955072036975849
 40
0.9020370324565926
 40
0.9088794459943008
 40
0.9197670984148197
 40
0.9435145145938671
 40
1.0
 40
1.0
 40
1.0
 40
1.0
 10
705.8063903761499
 20
423.2690341410198
 30
0.0
 10
705.8033902081584
 20
423.2948235831432
 30
0.0
 10
705.7971738415949
 20
423.3540373981587
 30
0.0
 10
705.8232019392358
 20
423.4518093866654
 30
0.0
 10
705.8676834500952
 20
423.5420727224241
 30
0.0
 10
705.9193399947812
 20
423.6079203951413
 30
0.0
 10
705.9674202966121
 20
423.652183042625
 30
0.0
 10
706.0046337691879
 20
423.6789744365778
 30
0.0
 10
706.0276986136146
 20
423.6928880843107
 30
0.0
 10
706.0375087677371
 20
423.6983525935348
 30
0.0
 10
706.0400947511648
 20
423.6997655260475
 30
0.0
 10
706.0417422166825
 20
423.7006566214814
 30
0.0
 10
706.0432116045872
 20
423.701444291145
 30
0.0
 10
706.0443016128779
 20
423.7020231930533
 30
0.0
 10
706.0444528809671
 20
423.702103523905
 30
0.0
 10
706.0444276979692
 20
423.7020900532725
 30
0.0
  0
SPLINE
  5
34B2
330
A
100
AcDbEntity
  8
MODEL
100
AcDbSpline
210
0.0
220
0.0
230
1.0
 70
     8
 71
     3
 72
     9
 73
     5
 74
     0
 42
0.000000001
 43
0.0000000001
 40
0.0
 40
0.0
 40
0.0
 40
0.0
 40
0.0937114848392015
 40
1.0
 40
1.0
 40
1.0
 40
1.0
 10
709.7733701536386
 20
427.4634835538081
 30
0.0
 10
709.7717529414581
 20
427.4603151739539
 30
0.0
 10
709.7553534929361
 20
427.4282474749348
 30
0.0
 10
709.7486272695774
 20
427.4158808277057
 30
0.0
 10
709.7435601466636
 20
427.40670347173
 30
0.0
  0
SPLINE
  5
34B3
330
A
100
AcDbEntity
  8
MODEL
100
AcDbSpline
210
0.0
220
0.0
230
1.0
 70
     8
 71
     3
 72
    16
 73
    12
 74
     0
 42
0.000000001
 43
0.0000000001
 40
0.0
 40
0.0
 40
0.0
 40
0.0
 40
0.1282219117270084
 40
0.1801232113023552
 40
0.2076206270235435
 40
0.2327138115307731
 40
0.272575737727886
 40
0.4461591955583656
 40
0.6951340182989454
 40
0.9344525502769878
 40
1.0
 40
1.0
 40
1.0
 40
1.0
 10
709.7408722870355
 20
427.4018252357905
 30
0.0
 10
709.7409721959034
 20
427.4019915680733
 30
0.0
 10
709.7419088302836
 20
427.4036477682316
 30
0.0
 10
709.7450143490573
 20
427.4091678526956
 30
0.0
 10
709.7493310038267
 20
427.4165207618767
 30
0.0
 10
709.7564119692029
 20
427.4280501460044
 30
0.0
 10
709.7829083500997
 20
427.4677709669427
 30
0.0
 10
709.8486375105799
 20
427.5411859853607
 30
0.0
 10
709.9666698768865
 20
427.6111019409609
 30
0.0
 10
710.0851344401576
 20
427.6450645905966
 30
0.0
 10
710.1444367695526
 20
427.6359977616162
 30
0.0
 10
710.1592389968223
 20
427.6336371285306
 30
0.0
  0
SPLINE
  5
34B4
330
A
100
AcDbEntity
  8
MODEL
100
AcDbSpline
210
0.0
220
0.0
230
1.0
 70
     8
 71
     3
 72
    22
 73
    18
 74
     0
 42
0.000000001
 43
0.0000000001
 40
0.0
 40
0.0
 40
0.0
 40
0.0
 40
0.0950793236838279
 40
0.1902116971697591
 40
0.2704964493965579
 40
0.3362615709068995
 40
0.3866908537495252
 40
0.4207785098986034
 40
0.4361763425720539
 40
0.4405853689439351
 40
0.4436580141982887
 40
0.4472257136954945
 40
0.4532456740126149
 40
0.4673098179450655
 40
0.5188255613615802
 40
0.8591480326276284
 40
1.0
 40
1.0
 40
1.0
 40
1.0
 10
710.1755060346127
 20
435.6423298500731
 30
0.0
 10
710.1341193446847
 20
435.6407209927679
 30
0.0
 10
710.0634444285283
 20
435.6392139260424
 30
0.0
 10
709.9579943183494
 20
435.6734188906457
 30
0.0
 10
709.8753130625687
 20
435.7213836212536
 30
0.0
 10
709.8162903324705
 20
435.7727421621216
 30
0.0
 10
709.7775627481119
 20
435.8183842912217
 30
0.0
 10
709.7555512367685
 20
435.8508223972544
 30
0.0
 10
709.7444789887618
 20
435.8697015465505
 30
0.0
 10
709.7406175915125
 20
435.8766689836993
 30
0.0
 10
709.7393764353433
 20
435.8789452697401
 30
0.0
 10
709.7385171128922
 20
435.8805365064791
 30
0.0
 10
709.7377340693097
 20
435.8819996058141
 30
0.0
 10
709.7370526109976
 20
435.8832854859738
 30
0.0
 10
709.7381542527914
 20
435.8811864467471
 30
0.0
 10
709.7415505301819
 20
435.8751120855636
 30
0.0
 10
709.7613979786579
 20
435.8366880389449
 30
0.0
 10
709.7682340141077
 20
435.8234632982144
 30
0.0
  0
SPLINE
  5
34B5
330
A
100
AcDbEntity
  8
MODEL
100
AcDbSpline
210
0.0
220
0.0
230
1.0
 70
     8
 71
     3
 72
     9
 73
     5
 74
     0
 42
0.000000001
 43
0.0000000001
 40
0.0
 40
0.0
 40
0.0
 40
0.0
 40
0.1548671368631307
 40
1.0
 40
1.0
 40
1.0
 40
1.0
 10
705.8951476187854
 20
439.6532113230001
 30
0.0
 10
705.8995249173627
 20
439.651076804229
 30
0.0
 10
705.9238765082978
 20
439.6392086926567
 30
0.0
 10
705.9435422288684
 20
439.6293826650844
 30
0.0
 10
705.9574774433481
 20
439.6222876042279
 30
0.0
  0
SPLINE
  5
34B6
330
A
100
AcDbEntity
  8
MODEL
100
AcDbSpline
210
0.0
220
0.0
230
1.0
 70
     8
 71
     3
 72
    17
 73
    13
 74
     0
 42
0.000000001
 43
0.0000000001
 40
0.0
 40
0.0
 40
0.0
 40
0.0
 40
0.1889172549105781
 40
0.4041174619531335
 40
0.481359777564399
 40
0.5021038612935629
 40
0.5180339326446703
 40
0.5364140245514799
 40
0.5865272489823117
 40
0.7323411811507368
 40
0.8828404820821848
 40
1.0
 40
1.0
 40
1.0
 40
1.0
 10
706.0152937425541
 20
439.591604192352
 30
0.0
 10
706.0209621847857
 20
439.588440489546
 30
0.0
 10
706.0302685562915
 20
439.5831582736178
 30
0.0
 10
706.037779052142
 20
439.5792919499149
 30
0.0
 10
706.0354284499049
 20
439.5804505124493
 30
0.0
 10
706.0262896542358
 20
439.5857218369906
 30
0.0
 10
706.0171730169118
 20
439.591200585633
 30
0.0
 10
705.9958642666311
 20
439.6048500135548
 30
0.0
 10
705.9367003725433
 20
439.6490937725303
 30
0.0
 10
705.860384997663
 20
439.7389037095295
 30
0.0
 10
705.8028797161764
 20
439.8747710539546
 30
0.0
 10
705.8043535656839
 20
439.9605594445275
 30
0.0
 10
705.8059633272374
 20
440.004283080616
 30
0.0
  0
SPLINE
  5
34B7
330
A
100
AcDbEntity
  8
MODEL
100
AcDbSpline
210
0.0
220
0.0
230
1.0
 70
     8
 71
     3
 72
    22
 73
    18
 74
     0
 42
0.000000001
 43
0.0000000001
 40
0.0
 40
0.0
 40
0.0
 40
0.0
 40
0.0380930056824306
 40
0.1415799392658866
 40
0.2290305545768478
 40
0.3019472740657843
 40
0.3599380776033277
 40
0.4019331239879297
 40
0.4273469742675238
 40
0.4339320006206662
 40
0.4375124718145629
 40
0.440637659372452
 40
0.4452010093707749
 40
0.4542998620691137
 40
0.4808217789959741
 40
0.6155450102110781
 40
1.0
 40
1.0
 40
1.0
 40
1.0
 10
697.7952501387213
 20
440.0055594888127
 30
0.0
 10
697.797853123278
 20
439.9892422966868
 30
0.0
 10
697.8058102043692
 20
439.9371159147026
 30
0.0
 10
697.7836729162614
 20
439.8442531177761
 30
0.0
 10
697.7419327063185
 20
439.7495399206118
 30
0.0
 10
697.690396656451
 20
439.6795259749797
 30
0.0
 10
697.6412854362584
 20
439.6319207247352
 30
0.0
 10
697.6016255981244
 20
439.6023249658656
 30
0.0
 10
697.57670739781
 20
439.5869014611521
 30
0.0
 10
697.564753333369
 20
439.580169591055
 30
0.0
 10
697.5613915593635
 20
439.5783258456536
 30
0.0
 10
697.5596001412582
 20
439.57735455794
 30
0.0
 10
697.5581093534925
 20
439.5765535008027
 30
0.0
 10
697.5566999969001
 20
439.5758030425827
 30
0.0
 10
697.5561235407108
 20
439.5755005002329
 30
0.0
 10
697.5615915589892
 20
439.5783883273202
 30
0.0
 10
697.5897635946371
 20
439.5931687017419
 30
0.0
 10
697.6158937209916
 20
439.6068808731002
 30
0.0
  0
LINE
  5
34B8
330
A
100
AcDbEntity
  8
MODEL
100
AcDbLine
 10
705.8005612377297
 20
392.4516153032014
 30
0.0
 11
705.8005612377297
 21
410.0056073812011
 31
0.0
  0
ARC
  5
34B9
330
A
100
AcDbEntity
  8
MODEL
100
AcDbCircle
 10
701.8005650442296
 20
403.3175083012011
 30
0.0
 40
11.77857142857033
100
AcDbArc
 50
283.3547068495974
 51
288.5745225723986
  0
LINE
  5
34BA
330
A
100
AcDbEntity
  8
MODEL
100
AcDbLine
 10
733.7004729647301
 20
427.6389040072013
 30
0.0
 11
734.5004729647294
 21
427.6389040072013
 31
0.0
  0
LINE
  5
34BB
330
A
100
AcDbEntity
  8
MODEL
100
AcDbLine
 10
733.7004729647301
 20
436.5927300427011
 30
0.0
 11
733.7004729647301
 21
435.638986985201
 31
0.0
  0
LINE
  5
34BC
330
A
100
AcDbEntity
  8
MODEL
100
AcDbLine
 10
733.7004729647301
 20
427.6390028852011
 30
0.0
 11
733.7004729647301
 21
426.6850673202011
 31
0.0
  0
LINE
  5
34BD
330
A
100
AcDbEntity
  8
MODEL
100
AcDbLine
 10
723.0936997162294
 20
426.1073081182012
 30
0.0
 11
733.2043190047293
 21
426.1850821127009
 31
0.0
  0
LINE
  5
34BE
330
A
100
AcDbEntity
  8
MODEL
100
AcDbLine
 10
733.2043190047293
 20
437.0927152507011
 30
0.0
 11
723.0936997322292
 21
437.1704892447015
 31
0.0
  0
ARC
  5
34BF
330
A
100
AcDbEntity
  8
MODEL
100
AcDbCircle
 10
733.2004729647292
 20
436.5927300427011
 30
0.0
 40
0.5000000000000006
100
AcDbArc
 50
0.0
 51
89.55927192708256
  0
ARC
  5
34C0
330
A
100
AcDbEntity
  8
MODEL
100
AcDbCircle
 10
733.2004729647292
 20
426.6850673202011
 30
0.0
 40
0.5000000000000006
100
AcDbArc
 50
270.4407280729175
 51
0.0
  0
LINE
  5
34C1
330
A
100
AcDbEntity
  8
MODEL
100
AcDbLine
 10
714.0504729647296
 20
468.638898681701
 30
0.0
 11
714.0504729647296
 21
468.7388986817014
 31
0.0
  0
LINE
  5
34C2
330
A
100
AcDbEntity
  8
MODEL
100
AcDbLine
 10
687.5504729647296
 20
468.7388986817014
 30
0.0
 11
687.5504729647296
 21
468.638898681701
 31
0.0
  0
LINE
  5
34C3
330
A
100
AcDbEntity
  8
MODEL
100
AcDbLine
 10
715.3004729647296
 20
468.8388986817008
 30
0.0
 11
705.80045796273
 21
468.8388986817008
 31
0.0
  0
LINE
  5
34C4
330
A
100
AcDbEntity
  8
MODEL
100
AcDbLine
 10
715.2004729647292
 20
468.7388986817014
 30
0.0
 11
705.80045796273
 21
468.7388986817014
 31
0.0
  0
LINE
  5
34C5
330
A
100
AcDbEntity
  8
MODEL
100
AcDbLine
 10
697.8004782597295
 20
468.7388986817014
 30
0.0
 11
686.4004729647299
 21
468.7388986817014
 31
0.0
  0
LINE
  5
34C6
330
A
100
AcDbEntity
  8
MODEL
100
AcDbLine
 10
880.1149332967293
 20
573.6003566327013
 30
0.0
 11
851.1690216922293
 21
571.8297938917012
 31
0.0
  0
LINE
  5
34C7
330
A
100
AcDbEntity
  8
MODEL
100
AcDbLine
 10
715.3004729647296
 20
468.8388986817008
 30
0.0
 11
715.3004729647296
 21
567.598732812201
 31
0.0
  0
LINE
  5
34C8
330
A
100
AcDbEntity
  8
MODEL
100
AcDbLine
 10
686.3004729647296
 20
567.598732812201
 30
0.0
 11
686.3004729647296
 21
468.8388986817008
 31
0.0
  0
ARC
  5
34C9
330
A
100
AcDbEntity
  8
MODEL
100
AcDbCircle
 10
783.3006218817295
 20
567.598732812201
 30
0.0
 40
68.0001540965108
100
AcDbArc
 50
90.0
 51
180.0
  0
ARC
  5
34CA
330
A
100
AcDbEntity
  8
MODEL
100
AcDbCircle
 10
783.3006218817295
 20
567.598732812201
 30
0.0
 40
68.0001586082514
100
AcDbArc
 50
3.567893548500042
 51
90.0
  0
ARC
  5
34CB
330
A
100
AcDbEntity
  8
MODEL
100
AcDbCircle
 10
783.3006218817295
 20
567.598732812201
 30
0.0
 40
97.0001572724436
100
AcDbArc
 50
3.546909140100352
 51
180.0
  0
ARC
  5
34CC
330
A
100
AcDbEntity
  8
MODEL
100
AcDbCircle
 10
686.4004729647299
 20
468.8388986817008
 30
0.0
 40
0.0999999999999995
100
AcDbArc
 50
180.0
 51
270.0
  0
ARC
  5
34CD
330
A
100
AcDbEntity
  8
MODEL
100
AcDbCircle
 10
715.2004729647292
 20
468.8388986817008
 30
0.0
 40
0.100000000000003
100
AcDbArc
 50
270.0
 51
0.0
  0
LINE
  5
34CE
330
A
100
AcDbEntity
  8
MODEL
100
AcDbLine
 10
879.9859169992292
 20
568.5029067272012
 30
0.0
 11
851.9183658277293
 21
566.7862322547012
 31
0.0
  0
LINE
  5
34CF
330
A
100
AcDbEntity
  8
MODEL
100
AcDbLine
 10
880.3982351267291
 20
568.9689472422015
 30
0.0
 11
880.1149716302293
 21
573.6002927977011
 31
0.0
  0
LINE
  5
34D0
330
A
100
AcDbEntity
  8
MODEL
100
AcDbLine
 10
851.1692203007292
 20
571.8273047197017
 30
0.0
 11
851.4523253127304
 21
567.1985503827009
 31
0.0
  0
ARC
  5
34D1
330
A
100
AcDbEntity
  8
MODEL
100
AcDbCircle
 10
879.95905580523
 20
568.9420860487012
 30
0.0
 40
0.43999999999999
100
AcDbArc
 50
273.4999786485192
 51
3.499978648653083
  0
ARC
  5
34D2
330
A
100
AcDbEntity
  8
MODEL
100
AcDbCircle
 10
851.8915046342295
 20
567.2254115762012
 30
0.0
 40
0.43999999999999
100
AcDbArc
 50
183.4999786486383
 51
273.4999786485192
  0
LINE
  5
34D3
330
A
100
AcDbEntity
  8
MODEL
100
AcDbLine
 10
617.8004729647296
 20
460.1388987117011
 30
0.0
 11
617.8004729647296
 21
403.1388987117011
 31
0.0
  0
LINE
  5
34D4
330
A
100
AcDbEntity
  8
MODEL
100
AcDbLine
 10
633.3004729647296
 20
459.8388987117014
 30
0.0
 11
633.3004729647296
 21
403.4388987117009
 31
0.0
  0
LINE
  5
34D5
330
A
100
AcDbEntity
  8
MODEL
100
AcDbLine
 10
617.8004729647296
 20
403.1388987117011
 30
0.0
 11
633.0004729647294
 21
403.1388987117011
 31
0.0
  0
LINE
  5
34D6
330
A
100
AcDbEntity
  8
MODEL
100
AcDbLine
 10
633.0004729647294
 20
460.1388987117011
 30
0.0
 11
617.8004729647296
 21
460.1388987117011
 31
0.0
  0
ARC
  5
34D7
330
A
100
AcDbEntity
  8
MODEL
100
AcDbCircle
 10
633.0004729647294
 20
459.8388987117014
 30
0.0
 40
0.3000000000000085
100
AcDbArc
 50
0.0
 51
90.0
  0
ARC
  5
34D8
330
A
100
AcDbEntity
  8
MODEL
100
AcDbCircle
 10
633.0004729647294
 20
403.4388987117009
 30
0.0
 40
0.3000000000000015
100
AcDbArc
 50
270.0
 51
0.0
  0
LINE
  5
34D9
330
A
100
AcDbEntity
  8
MODEL
100
AcDbLine
 10
371.9819639958409
 20
1196.428402952941
 30
0.0
 11
371.9819639958405
 21
1177.657802952941
 31
0.0
  0
LINE
  5
34DA
330
A
100
AcDbEntity
  8
MODEL
100
AcDbLine
 10
370.7437639958403
 20
1197.650602952941
 30
0.0
 11
371.9659639958409
 21
1196.428402952941
 31
0.0
  0
LINE
  5
34DB
330
A
100
AcDbEntity
  8
MODEL
100
AcDbLine
 10
351.0819639958404
 20
1196.428402952941
 30
0.0
 11
351.0819639958399
 21
1177.657802952941
 31
0.0
  0
LINE
  5
34DC
330
A
100
AcDbEntity
  8
MODEL
100
AcDbLine
 10
352.3041639958406
 20
1197.650602952941
 30
0.0
 11
351.0819639958404
 21
1196.428402952941
 31
0.0
  0
LINE
  5
34DD
330
A
100
AcDbEntity
  8
MODEL
100
AcDbLine
 10
356.0274639958398
 20
1177.657802952941
 30
0.0
 11
356.0274639958398
 21
1177.657802952941
 31
0.0
  0
LINE
  5
34DE
330
A
100
AcDbEntity
  8
MODEL
100
AcDbLine
 10
356.0274639958398
 20
1177.657802952941
 30
0.0
 11
356.0274639958398
 21
1177.657802952941
 31
0.0
  0
LINE
  5
34DF
330
A
100
AcDbEntity
  8
MODEL
100
AcDbLine
 10
356.0274639958398
 20
1177.657802952941
 30
0.0
 11
356.0274639958398
 21
1177.657802952941
 31
0.0
  0
LINE
  5
34E0
330
A
100
AcDbEntity
  8
MODEL
100
AcDbLine
 10
356.0274639958398
 20
1177.657802952941
 30
0.0
 11
356.0274639958398
 21
1177.657802952941
 31
0.0
  0
LINE
  5
34E2
330
A
100
AcDbEntity
  8
MODEL
100
AcDbLine
 10
352.3041639958406
 20
1197.650602952941
 30
0.0
 11
370.7437639958403
 21
1197.650602952941
 31
0.0
  0
LINE
  5
34E3
330
A
100
AcDbEntity
  8
MODEL
100
AcDbLine
 10
351.0819639958404
 20
1196.428402952941
 30
0.0
 11
371.9819639958409
 21
1196.428402952941
 31
0.0
  0
LINE
  5
34E4
330
A
100
AcDbEntity
  8
MODEL
100
AcDbLine
 10
352.3041639958406
 20
1197.650602952941
 30
0.0
 11
352.3041639958401
 21
1177.657802952941
 31
0.0
  0
LINE
  5
34E5
330
A
100
AcDbEntity
  8
MODEL
100
AcDbLine
 10
370.7437639958403
 20
1197.650602952941
 30
0.0
 11
370.7437639958398
 21
1177.657802952941
 31
0.0
  0
LINE
  5
34E6
330
A
100
AcDbEntity
  8
MODEL
100
AcDbLine
 10
190.0729639958408
 20
1196.428402952944
 30
0.0
 11
190.0729639958404
 21
1177.657802952944
 31
0.0
  0
LINE
  5
34E7
330
A
100
AcDbEntity
  8
MODEL
100
AcDbLine
 10
191.3111639958402
 20
1197.650602952944
 30
0.0
 11
190.0889639958409
 21
1196.428402952944
 31
0.0
  0
LINE
  5
34E8
330
A
100
AcDbEntity
  8
MODEL
100
AcDbLine
 10
210.9729639958405
 20
1196.428402952944
 30
0.0
 11
210.97296399584
 21
1177.657802952944
 31
0.0
  0
LINE
  5
34E9
330
A
100
AcDbEntity
  8
MODEL
100
AcDbLine
 10
209.7507639958408
 20
1197.650602952944
 30
0.0
 11
210.9729639958405
 21
1196.428402952944
 31
0.0
  0
LINE
  5
34EA
330
A
100
AcDbEntity
  8
MODEL
100
AcDbLine
 10
206.0274639958398
 20
1177.657802952944
 30
0.0
 11
206.0274639958398
 21
1177.657802952944
 31
0.0
  0
LINE
  5
34EB
330
A
100
AcDbEntity
  8
MODEL
100
AcDbLine
 10
206.0274639958398
 20
1177.657802952944
 30
0.0
 11
206.0274639958398
 21
1177.657802952944
 31
0.0
  0
LINE
  5
34EC
330
A
100
AcDbEntity
  8
MODEL
100
AcDbLine
 10
206.0274639958398
 20
1177.657802952944
 30
0.0
 11
206.0274639958398
 21
1177.657802952944
 31
0.0
  0
LINE
  5
34ED
330
A
100
AcDbEntity
  8
MODEL
100
AcDbLine
 10
206.0274639958398
 20
1177.657802952944
 30
0.0
 11
206.0274639958398
 21
1177.657802952944
 31
0.0
  0
LINE
  5
34EF
330
A
100
AcDbEntity
  8
MODEL
100
AcDbLine
 10
209.7507639958408
 20
1197.650602952944
 30
0.0
 11
191.3111639958402
 21
1197.650602952944
 31
0.0
  0
LINE
  5
34F0
330
A
100
AcDbEntity
  8
MODEL
100
AcDbLine
 10
210.9729639958405
 20
1196.428402952944
 30
0.0
 11
190.0729639958408
 21
1196.428402952944
 31
0.0
  0
LINE
  5
34F1
330
A
100
AcDbEntity
  8
MODEL
100
AcDbLine
 10
209.7507639958408
 20
1197.650602952944
 30
0.0
 11
209.7507639958403
 21
1177.657802952944
 31
0.0
  0
LINE
  5
34F2
330
A
100
AcDbEntity
  8
MODEL
100
AcDbLine
 10
191.3111639958402
 20
1197.650602952944
 30
0.0
 11
191.3111639958397
 21
1177.657802952944
 31
0.0
  0
LINE
  5
34F3
330
A
100
AcDbEntity
  8
MODEL
100
AcDbLine
 10
599.0298729647297
 20
442.0968987117012
 30
0.0
 11
617.8004729647296
 21
442.0968987117012
 31
0.0
  0
LINE
  5
34F4
330
A
100
AcDbEntity
  8
MODEL
100
AcDbLine
 10
597.8076729647296
 20
440.8586987117014
 30
0.0
 11
599.0298729647297
 21
442.0808987117011
 31
0.0
  0
LINE
  5
34F5
330
A
100
AcDbEntity
  8
MODEL
100
AcDbLine
 10
599.0298729647297
 20
421.1968987117011
 30
0.0
 11
617.8004729647296
 21
421.1968987117011
 31
0.0
  0
LINE
  5
34F6
330
A
100
AcDbEntity
  8
MODEL
100
AcDbLine
 10
597.8076729647296
 20
422.4190987117013
 30
0.0
 11
599.0298729647297
 21
421.1968987117011
 31
0.0
  0
LINE
  5
34F7
330
A
100
AcDbEntity
  8
MODEL
100
AcDbLine
 10
617.8004729647296
 20
419.1423987117014
 30
0.0
 11
617.8004729647296
 21
419.1423987117014
 31
0.0
  0
LINE
  5
34F8
330
A
100
AcDbEntity
  8
MODEL
100
AcDbLine
 10
617.8004729647296
 20
419.1423987117014
 30
0.0
 11
617.8004729647296
 21
419.1423987117014
 31
0.0
  0
LINE
  5
34F9
330
A
100
AcDbEntity
  8
MODEL
100
AcDbLine
 10
617.8004729647296
 20
419.1423987117014
 30
0.0
 11
617.8004729647296
 21
419.1423987117014
 31
0.0
  0
LINE
  5
34FA
330
A
100
AcDbEntity
  8
MODEL
100
AcDbLine
 10
617.8004729647296
 20
419.1423987117014
 30
0.0
 11
617.8004729647296
 21
419.1423987117014
 31
0.0
  0
LINE
  5
34FC
330
A
100
AcDbEntity
  8
MODEL
100
AcDbLine
 10
597.8076729647296
 20
422.4190987117013
 30
0.0
 11
597.8076729647296
 21
440.8586987117014
 31
0.0
  0
LINE
  5
34FD
330
A
100
AcDbEntity
  8
MODEL
100
AcDbLine
 10
617.8004729647296
 20
397.1388987117011
 30
0.0
 11
617.8004729647296
 21
466.1388987117011
 31
0.0
  0
LINE
  5
34FE
330
A
100
AcDbEntity
  8
MODEL
100
AcDbLine
 10
599.0298729647297
 20
421.1968987117011
 30
0.0
 11
599.0298729647297
 21
442.0968987117012
 31
0.0
  0
LINE
  5
34FF
330
A
100
AcDbEntity
  8
MODEL
100
AcDbLine
 10
597.8076729647296
 20
422.4190987117013
 30
0.0
 11
617.8004729647296
 21
422.4190987117013
 31
0.0
  0
LINE
  5
3500
330
A
100
AcDbEntity
  8
MODEL
100
AcDbLine
 10
597.8076729647296
 20
440.8586987117014
 30
0.0
 11
617.8004729647296
 21
440.8586987117014
 31
0.0
  0
HATCH
  5
3501
330
A
100
AcDbEntity
  8
MODEL
100
AcDbHatch
 10
0.0
 20
0.0
 30
0.0
210
0.0
220
0.0
230
1.0
  2
LINE
 70
     0
 71
     0
 91
        1
 92
        1
 93
        4
 72
     1
 10
603.8076729646277
 20
443.6388987119317
 11
617.8004729646279
 21
443.6388987119317
 72
     1
 10
617.8004729646286
 20
443.6388987119317
 11
617.8004729646286
 21
483.0112765864061
 72
     1
 10
617.8004729646286
 20
483.011276586406
 11
603.8076729646283
 21
483.011276586406
 72
     1
 10
603.8076729646277
 20
483.011276586406
 11
603.8076729646278
 21
443.6388987119316
 97
        0
 75
     0
 76
     1
 52
45.0
 41
4.724409449000009
 77
     0
 78
     1
 53
45.0
 43
368.8966339822296
 44
-177.9837239697986
 45
-10.60660171779821
 46
10.60660171779821
 79
     0
 98
        0
  0
LINE
  5
3502
330
A
100
AcDbEntity
  8
MODEL
100
AcDbLine
 10
603.8076729647296
 20
443.6388987117011
 30
0.0
 11
617.8004729647296
 21
443.6388987117011
 31
0.0
  0
LINE
  5
3503
330
A
100
AcDbEntity
  8
MODEL
100
AcDbLine
 10
617.8004729647296
 20
443.6388987117011
 30
0.0
 11
617.8004729647296
 21
483.0112765862013
 31
0.0
  0
HATCH
  5
3504
330
A
100
AcDbEntity
  8
MODEL
100
AcDbHatch
 10
0.0
 20
0.0
 30
0.0
210
0.0
220
0.0
230
1.0
  2
LINE
 70
     0
 71
     0
 91
        1
 92
        1
 93
        4
 72
     1
 10
617.8004729646286
 20
419.6388987119317
 11
603.8076729646284
 21
419.6388987119317
 72
     1
 10
603.8076729646277
 20
419.6388987119317
 11
603.8076729646277
 21
380.2665208374572
 72
     1
 10
603.8076729646277
 20
380.2665208374569
 11
617.8004729646279
 21
380.2665208374569
 72
     1
 10
617.8004729646286
 20
380.2665208374569
 11
617.8004729646286
 21
419.6388987119315
 97
        0
 75
     0
 76
     1
 52
45.0
 41
4.724409449000009
 77
     0
 78
     1
 53
45.0
 43
368.8966339822296
 44
-177.9837239697986
 45
-10.60660171779821
 46
10.60660171779821
 79
     0
 98
        0
  0
LINE
  5
3505
330
A
100
AcDbEntity
  8
MODEL
100
AcDbLine
 10
617.8004729647296
 20
419.6388987117011
 30
0.0
 11
617.8004729647296
 21
380.2665208377011
 31
0.0
  0
LINE
  5
3506
330
A
100
AcDbEntity
  8
MODEL
100
AcDbLine
 10
603.8076729647296
 20
419.6388987117011
 30
0.0
 11
617.8004729647296
 21
419.6388987117011
 31
0.0
  0
HATCH
  5
3507
330
A
100
AcDbEntity
  8
MODEL
100
AcDbHatch
 10
0.0
 20
0.0
 30
0.0
210
0.0
220
0.0
230
1.0
  2
LINE
 70
     0
 71
     0
 91
        1
 92
        1
 93
        4
 72
     1
 10
373.5239639956089
 20
1191.650602953043
 11
373.5239639956087
 21
1177.657802953042
 72
     1
 10
373.5239639956089
 20
1177.657802953042
 11
412.8963418700835
 21
1177.657802953041
 72
     1
 10
412.8963418700832
 20
1177.657802953041
 11
412.8963418700835
 21
1191.650602953041
 72
     1
 10
412.8963418700832
 20
1191.650602953042
 11
373.5239639956087
 21
1191.650602953043
 97
        0
 75
     0
 76
     1
 52
314.9999999999989
 41
4.724409449000004
 77
     0
 78
     1
 53
314.9999999999989
 43
-858.2314587796548
 44
1426.561641935464
 45
10.60660171779841
 46
10.60660171779801
 79
     0
 98
        0
  0
LINE
  5
3508
330
A
100
AcDbEntity
  8
MODEL
100
AcDbLine
 10
373.5239639958409
 20
1191.650602952941
 30
0.0
 11
373.5239639958404
 21
1177.657802952941
 31
0.0
  0
LINE
  5
3509
330
A
100
AcDbEntity
  8
MODEL
100
AcDbLine
 10
373.5239639958404
 20
1177.657802952941
 30
0.0
 11
412.8963418698399
 21
1177.65780295294
 31
0.0
  0
HATCH
  5
350A
330
A
100
AcDbEntity
  8
MODEL
100
AcDbHatch
 10
0.0
 20
0.0
 30
0.0
210
0.0
220
0.0
230
1.0
  2
LINE
 70
     0
 71
     0
 91
        1
 92
        1
 93
        4
 72
     1
 10
212.5309639956085
 20
1177.657802953045
 11
349.5239639956091
 21
1177.657802953042
 72
     1
 10
349.5239639956089
 20
1177.657802953042
 11
349.5239639956092
 21
1191.650602953042
 72
     1
 10
349.5239639956089
 20
1191.650602953043
 11
212.5309639956084
 21
1191.650602953046
 72
     1
 10
212.5309639956085
 20
1191.650602953046
 11
212.5309639956083
 21
1177.657802953046
 97
        0
 75
     0
 76
     1
 52
314.9999999999989
 41
4.724409449000004
 77
     0
 78
     1
 53
314.9999999999989
 43
-858.2314587796548
 44
1426.561641935464
 45
10.60660171779841
 46
10.60660171779801
 79
     0
 98
        0
  0
HATCH
  5
350B
330
A
100
AcDbEntity
  8
MODEL
100
AcDbHatch
 10
0.0
 20
0.0
 30
0.0
210
0.0
220
0.0
230
1.0
  2
LINE
 70
     0
 71
     0
 91
        1
 92
        1
 93
        4
 72
     1
 10
188.5309639956095
 20
1191.650602953046
 11
149.1585861211349
 21
1191.650602953047
 72
     1
 10
149.1585861211342
 20
1191.650602953047
 11
149.158586121134
 21
1177.657802953047
 72
     1
 10
149.1585861211342
 20
1177.657802953046
 11
188.5309639956093
 21
1177.657802953046
 72
     1
 10
188.5309639956095
 20
1177.657802953045
 11
188.5309639956097
 21
1191.650602953046
 97
        0
 75
     0
 76
     1
 52
314.9999999999989
 41
4.724409449000004
 77
     0
 78
     1
 53
314.9999999999989
 43
-858.2314587796548
 44
1426.561641935464
 45
10.60660171779841
 46
10.60660171779801
 79
     0
 98
        0
  0
LINE
  5
350C
330
A
100
AcDbEntity
  8
MODEL
100
AcDbLine
 10
188.5309639958405
 20
1191.650602952944
 30
0.0
 11
188.5309639958405
 21
1177.657802952944
 31
0.0
  0
LINE
  5
350D
330
A
100
AcDbEntity
  8
MODEL
100
AcDbLine
 10
188.5309639958405
 20
1177.657802952944
 30
0.0
 11
149.1585861213402
 21
1177.657802952945
 31
0.0
  0
ARC
  5
350E
330
A
100
AcDbEntity
  8
MODEL
100
AcDbCircle
 10
137.9038139813388
 20
1103.117802954945
 30
0.0
 40
0.4600000017328925
100
AcDbArc
 50
270.0000008152982
 51
0.0
  0
ARC
  5
350F
330
A
100
AcDbEntity
  8
MODEL
100
AcDbCircle
 10
146.8237980823387
 20
1103.117802952446
 30
0.0
 40
0.459999999323494
100
AcDbArc
 50
179.9999999742847
 51
270.0
  0
LINE
  5
3510
330
A
100
AcDbEntity
  8
MODEL
100
AcDbLine
 10
865.9521414132291
 20
567.6445694912013
 30
0.0
 11
865.9521414132291
 21
566.1324142862013
 31
0.0
  0
LINE
  5
3511
330
A
100
AcDbEntity
  8
MODEL
100
AcDbLine
 10
865.9521414132291
 20
567.6445694912013
 30
0.0
 11
866.0409657372297
 21
566.1922957567012
 31
0.0
  0
LINE
  5
3512
330
A
100
AcDbEntity
  8
MODEL
100
AcDbLine
 10
164.5986401438386
 20
1090.657802952945
 30
0.0
 11
164.598640143839
 21
1096.657802952945
 31
0.0
  0
LINE
  5
3513
330
A
100
AcDbEntity
  8
MODEL
100
AcDbLine
 10
164.598640143839
 20
1096.657802952945
 30
0.0
 11
163.5986401438386
 21
1096.657802952945
 31
0.0
  0
LINE
  5
3514
330
A
100
AcDbEntity
  8
MODEL
100
AcDbLine
 10
163.5986401438386
 20
1096.657802952945
 30
0.0
 11
163.5986401438386
 21
1090.657802952945
 31
0.0
  0
LINE
  5
3515
330
A
100
AcDbEntity
  8
MODEL
100
AcDbLine
 10
163.5986401438386
 20
1090.657802952945
 30
0.0
 11
164.5986401438386
 21
1090.657802952945
 31
0.0
  0
LINE
  5
3516
330
A
100
AcDbEntity
  8
MODEL
100
AcDbLine
 10
397.4486401438389
 20
1090.65780295294
 30
0.0
 11
397.4486401438389
 21
1096.65780295294
 31
0.0
  0
LINE
  5
3517
330
A
100
AcDbEntity
  8
MODEL
100
AcDbLine
 10
397.4486401438389
 20
1096.65780295294
 30
0.0
 11
398.4486401438385
 21
1096.65780295294
 31
0.0
  0
LINE
  5
3518
330
A
100
AcDbEntity
  8
MODEL
100
AcDbLine
 10
398.4486401438385
 20
1096.65780295294
 30
0.0
 11
398.448640143838
 21
1090.65780295294
 31
0.0
  0
LINE
  5
3519
330
A
100
AcDbEntity
  8
MODEL
100
AcDbLine
 10
398.448640143838
 20
1090.65780295294
 30
0.0
 11
397.4486401438389
 21
1090.65780295294
 31
0.0
  0
LINE
  5
351A
330
A
100
AcDbEntity
  8
MODEL
100
AcDbLine
 10
349.5239639958399
 20
1177.657802952941
 30
0.0
 11
212.53096399584
 21
1177.657802952944
 31
0.0
  0
LINE
  5
351B
330
A
100
AcDbEntity
  8
MODEL
100
AcDbLine
 10
349.5239639958399
 20
1191.650602952941
 30
0.0
 11
349.5239639958399
 21
1177.657802952941
 31
0.0
  0
LINE
  5
351C
330
A
100
AcDbEntity
  8
MODEL
100
AcDbLine
 10
212.5309639958405
 20
1191.650602952944
 30
0.0
 11
212.53096399584
 21
1177.657802952944
 31
0.0
  0
LINE
  5
351D
330
A
100
AcDbEntity
  8
MODEL
100
AcDbLine
 10
395.5062877851146
 20
453.638898711701
 30
0.0
 11
395.5062877851146
 21
409.638898711701
 31
0.0
  0
LINE
  5
351E
330
A
100
AcDbEntity
  8
MODEL
100
AcDbLine
 10
166.5486400801151
 20
409.638898711701
 30
0.0
 11
166.5486400801151
 21
453.638898711701
 31
0.0
  0
LINE
  5
351F
330
A
100
AcDbEntity
  8
MODEL
100
AcDbLine
 10
266.5274639326149
 20
468.6388986817009
 30
0.0
 11
295.5274639326149
 21
468.6388986817009
 31
0.0
  0
SPLINE
  5
3520
330
A
100
AcDbEntity
  8
MODEL
100
AcDbSpline
210
0.0
220
0.0
230
1.0
 70
     8
 71
     3
 72
    21
 73
    17
 74
     0
 42
0.000000001
 43
0.0000000001
 40
0.0
 40
0.0
 40
0.0
 40
0.0
 40
0.0224660942763884
 40
0.101386438483554
 40
0.1796563679113332
 40
0.2577560480457585
 40
0.3366424022590654
 40
0.4173355578401736
 40
0.4999101710954411
 40
0.5824848940395051
 40
0.6631813133646198
 40
0.742066245120529
 40
0.8201630487637066
 40
0.8984350760663252
 40
0.9773501606309172
 40
1.0
 40
1.0
 40
1.0
 40
1.0
 10
298.3260595920297
 20
453.6385038726147
 30
0.0
 10
298.3018957221871
 20
453.6385143304991
 30
0.0
 10
298.1254080226504
 20
453.591675717982
 30
0.0
 10
297.2710757942209
 20
453.132207262768
 30
0.0
 10
295.2428628508337
 20
451.974596101882
 30
0.0
 10
292.5209264051359
 20
450.5424560277746
 30
0.0
 10
289.2017327626659
 20
449.0988216083159
 30
0.0
 10
285.3210439568306
 20
447.9536983124943
 30
0.0
 10
281.0273449949223
 20
447.4995757016458
 30
0.0
 10
276.733585414459
 20
447.9537272583942
 30
0.0
 10
272.852931041904
 20
449.0989810602481
 30
0.0
 10
269.5338560854711
 20
450.5425845676695
 30
0.0
 10
266.8116063158982
 20
451.9746524020728
 30
0.0
 10
264.7841625841088
 20
453.1321458703077
 30
0.0
 10
263.9281753235941
 20
453.5924767284122
 30
0.0
 10
263.7525321079215
 20
453.6384874190488
 30
0.0
 10
263.7285560687765
 20
453.6381845138702
 30
0.0
  0
LINE
  5
3521
330
A
100
AcDbEntity
  8
MODEL
100
AcDbLine
 10
206.0274639326149
 20
409.6141428772011
 30
0.0
 11
356.0274639326149
 21
409.6141428772011
 31
0.0
  0
LINE
  5
3522
330
A
100
AcDbEntity
  8
MODEL
100
AcDbLine
 10
263.7620582081149
 20
453.638898711701
 30
0.0
 11
205.9769639326155
 21
453.638898711701
 31
0.0
  0
LINE
  5
3523
330
A
100
AcDbEntity
  8
MODEL
100
AcDbLine
 10
356.0779639326142
 20
453.638898711701
 30
0.0
 11
298.2927266911142
 21
453.638898711701
 31
0.0
  0
ARC
  5
3524
330
A
100
AcDbEntity
  8
MODEL
100
AcDbCircle
 10
371.4684710521146
 20
-3870.462359310299
 30
0.0
 40
4280.104223154339
100
AcDbArc
 50
89.93256105729998
 51
90.2083587279
  0
SPLINE
  5
3525
330
A
100
AcDbEntity
  8
MODEL
100
AcDbSpline
210
0.0
220
0.0
230
1.0
 70
     8
 71
     3
 72
     8
 73
     4
 74
     0
 42
0.000000001
 43
0.0000000001
 40
0.0
 40
0.0
 40
0.0
 40
0.0
 40
1.0
 40
1.0
 40
1.0
 40
1.0
 10
376.5062877849546
 20
453.6388984080921
 30
0.0
 10
369.2683959451465
 20
453.6373830430633
 30
0.0
 10
362.4008657739855
 20
453.6367200055082
 30
0.0
 10
355.9036972714716
 20
453.6369092954254
 30
0.0
  0
LINE
  5
3526
330
A
100
AcDbEntity
  8
MODEL
100
AcDbLine
 10
395.5062877851146
 20
453.638898711701
 30
0.0
 11
376.5062877851146
 21
453.638898711701
 31
0.0
  0
LINE
  5
3527
330
A
100
AcDbEntity
  8
MODEL
100
AcDbLine
 10
376.5062877851146
 20
409.638898711701
 30
0.0
 11
395.5062877851146
 21
409.638898711701
 31
0.0
  0
LINE
  5
3528
330
A
100
AcDbEntity
  8
MODEL
100
AcDbLine
 10
185.5486400801151
 20
453.638898711701
 30
0.0
 11
166.5486400801151
 21
453.638898711701
 31
0.0
  0
LINE
  5
3529
330
A
100
AcDbEntity
  8
MODEL
100
AcDbLine
 10
166.5486400801151
 20
409.638898711701
 30
0.0
 11
185.5486400801151
 21
409.638898711701
 31
0.0
  0
ARC
  5
352A
330
A
100
AcDbEntity
  8
MODEL
100
AcDbCircle
 10
193.5537024231148
 20
-1488.160844882799
 30
0.0
 40
1897.816627039601
100
AcDbArc
 50
89.62340985689997
 51
90.24167648260001
  0
SPLINE
  5
352B
330
A
100
AcDbEntity
  8
MODEL
100
AcDbSpline
210
0.0
220
0.0
230
1.0
 70
     8
 71
     3
 72
     8
 73
     4
 74
     0
 42
0.000000001
 43
0.0000000001
 40
0.0
 40
0.0
 40
0.0
 40
0.0
 40
1.0
 40
1.0
 40
1.0
 40
1.0
 10
206.0274639326567
 20
453.6368829012889
 30
0.0
 10
198.3479769115661
 20
453.6369905743903
 30
0.0
 10
191.5217022941347
 20
453.6376623282307
 30
0.0
 10
185.5486400803588
 20
453.6388981628091
 30
0.0
  0
LINE
  5
352C
330
A
100
AcDbEntity
  8
MODEL
100
AcDbLine
 10
266.5274639326149
 20
468.6388986817009
 30
0.0
 11
266.5274639326149
 21
456.4467474647007
 31
0.0
  0
LINE
  5
352D
330
A
100
AcDbEntity
  8
MODEL
100
AcDbLine
 10
295.5274639326149
 20
456.4468738882009
 30
0.0
 11
295.5274639326149
 21
468.6388986817009
 31
0.0
  0
ARC
  5
352E
330
A
100
AcDbEntity
  8
MODEL
100
AcDbCircle
 10
298.0965017931144
 20
456.2112322462011
 30
0.0
 40
2.579800373818654
100
AcDbArc
 50
174.7632309487074
 51
274.3623886708893
  0
ARC
  5
352F
330
A
100
AcDbEntity
  8
MODEL
100
AcDbCircle
 10
263.9605103096151
 20
456.2091790472012
 30
0.0
 40
2.577945346117414
100
AcDbArc
 50
265.5848867592925
 51
5.291961779596689
  0
LINE
  5
3530
330
A
100
AcDbEntity
  8
MODEL
100
AcDbLine
 10
132.5686400801155
 20
422.9388987117012
 30
0.0
 11
132.5686400801155
 21
440.3388987117008
 31
0.0
  0
LINE
  5
3531
330
A
100
AcDbEntity
  8
MODEL
100
AcDbLine
 10
134.7686400801144
 20
440.638898711701
 30
0.0
 11
132.8686400801148
 21
440.638898711701
 31
0.0
  0
LINE
  5
3532
330
A
100
AcDbEntity
  8
MODEL
100
AcDbLine
 10
132.8686400801148
 20
422.638898711701
 30
0.0
 11
134.7686400801144
 21
422.638898711701
 31
0.0
  0
ARC
  5
3533
330
A
100
AcDbEntity
  8
MODEL
100
AcDbCircle
 10
132.8686400801148
 20
440.3388987117008
 30
0.0
 40
0.3000000000000015
100
AcDbArc
 50
90.0
 51
180.0
  0
ARC
  5
3534
330
A
100
AcDbEntity
  8
MODEL
100
AcDbCircle
 10
132.8686400801148
 20
422.9388987117012
 30
0.0
 40
0.2999999999999945
100
AcDbArc
 50
180.0
 51
270.0
  0
ARC
  5
3535
330
A
100
AcDbEntity
  8
MODEL
100
AcDbCircle
 10
134.7686400801144
 20
440.3388987117008
 30
0.0
 40
0.2999999999999945
100
AcDbArc
 50
0.0
 51
90.0
  0
ARC
  5
3536
330
A
100
AcDbEntity
  8
MODEL
100
AcDbCircle
 10
134.7686400801144
 20
422.9388987117012
 30
0.0
 40
0.3000000000000015
100
AcDbArc
 50
270.0
 51
0.0
  0
CIRCLE
  5
3537
330
A
100
AcDbEntity
  8
MODEL
100
AcDbCircle
 10
281.0274639326149
 20
431.6388986817013
 30
0.0
 40
7.49999950192708
  0
LINE
  5
3538
330
A
100
AcDbEntity
  8
MODEL
100
AcDbLine
 10
290.5074639326144
 20
402.2638986817013
 30
0.0
 11
271.5474639326135
 21
402.2638986817013
 31
0.0
  0
LINE
  5
3539
330
A
100
AcDbEntity
  8
MODEL
100
AcDbLine
 10
291.5074639326144
 20
403.2638986817009
 30
0.0
 11
270.5474639326153
 21
403.2638986817009
 31
0.0
  0
LINE
  5
353A
330
A
100
AcDbEntity
  8
MODEL
100
AcDbLine
 10
270.5474639326153
 20
409.1638986817014
 30
0.0
 11
291.5074639326144
 21
409.1638986817014
 31
0.0
  0
LINE
  5
353B
330
A
100
AcDbEntity
  8
MODEL
100
AcDbLine
 10
270.5474639326153
 20
403.2638986817009
 30
0.0
 11
271.5474639326135
 21
402.2638986817013
 31
0.0
  0
LINE
  5
353C
330
A
100
AcDbEntity
  8
MODEL
100
AcDbLine
 10
290.5074639326144
 20
402.2638986817013
 30
0.0
 11
291.5074639326144
 21
403.2638986817009
 31
0.0
  0
LINE
  5
353D
330
A
100
AcDbEntity
  8
MODEL
100
AcDbLine
 10
270.5474639326153
 20
409.1638986817014
 30
0.0
 11
270.5474639326153
 21
403.2638986817009
 31
0.0
  0
LINE
  5
353E
330
A
100
AcDbEntity
  8
MODEL
100
AcDbLine
 10
291.5074639326144
 20
403.2638986817009
 30
0.0
 11
291.5074639326144
 21
409.1638986817014
 31
0.0
  0
LINE
  5
353F
330
A
100
AcDbEntity
  8
MODEL
100
AcDbLine
 10
291.5074639326144
 20
409.1638986817014
 30
0.0
 11
290.7276181096154
 21
409.6141428772011
 31
0.0
  0
LINE
  5
3540
330
A
100
AcDbEntity
  8
MODEL
100
AcDbLine
 10
271.3273097556144
 20
409.6141428772011
 30
0.0
 11
270.5474639326153
 21
409.1638986817014
 31
0.0
  0
LINE
  5
3541
330
A
100
AcDbEntity
  8
MODEL
100
AcDbLine
 10
290.3424639326136
 20
409.8365117452012
 30
0.0
 11
290.3424639326136
 21
402.2638986817013
 31
0.0
  0
LINE
  5
3542
330
A
100
AcDbEntity
  8
MODEL
100
AcDbLine
 10
271.7124639326144
 20
409.8365117452012
 30
0.0
 11
271.7124639326144
 21
402.2638986817013
 31
0.0
  0
LINE
  5
3543
330
A
100
AcDbEntity
  8
MODEL
100
AcDbLine
 10
400.4062877851143
 20
453.138898711701
 30
0.0
 11
400.4062877851143
 21
410.138898711701
 31
0.0
  0
LINE
  5
3544
330
A
100
AcDbEntity
  8
MODEL
100
AcDbLine
 10
399.9062877851143
 20
453.638898711701
 30
0.0
 11
395.606287785115
 21
453.638898711701
 31
0.0
  0
LINE
  5
3545
330
A
100
AcDbEntity
  8
MODEL
100
AcDbLine
 10
395.606287785115
 20
409.638898711701
 30
0.0
 11
399.9062877851143
 21
409.638898711701
 31
0.0
  0
ARC
  5
3546
330
A
100
AcDbEntity
  8
MODEL
100
AcDbCircle
 10
395.606287785115
 20
409.7388987117009
 30
0.0
 40
0.100000000000003
100
AcDbArc
 50
180.0
 51
270.0
  0
ARC
  5
3547
330
A
100
AcDbEntity
  8
MODEL
100
AcDbCircle
 10
395.606287785115
 20
453.5388987117011
 30
0.0
 40
0.0999999999999995
100
AcDbArc
 50
90.0
 51
180.0
  0
ARC
  5
3548
330
A
100
AcDbEntity
  8
MODEL
100
AcDbCircle
 10
399.9062877851143
 20
410.138898711701
 30
0.0
 40
0.5000000000000006
100
AcDbArc
 50
270.0
 51
0.0
  0
ARC
  5
3549
330
A
100
AcDbEntity
  8
MODEL
100
AcDbCircle
 10
399.9062877851143
 20
453.138898711701
 30
0.0
 40
0.5000000000000006
100
AcDbArc
 50
0.0
 51
90.0
  0
LINE
  5
354A
330
A
100
AcDbEntity
  8
MODEL
100
AcDbLine
 10
289.1773443986153
 20
568.2069728772011
 30
0.0
 11
289.1773443986153
 21
567.5102779832013
 31
0.0
  0
LINE
  5
354B
330
A
100
AcDbEntity
  8
MODEL
100
AcDbLine
 10
272.8775835931142
 20
568.2069728772011
 30
0.0
 11
272.8775835931142
 21
567.5102779832013
 31
0.0
  0
ELLIPSE
  5
354C
330
A
100
AcDbEntity
  8
MODEL
100
AcDbEllipse
 10
284.031583262115
 20
567.4439578217006
 30
0.0
 11
0.00373222092878026
 21
-0.1999651732851049
 31
0.0
210
0.0
220
0.0
230
1.0
 40
0.2918263758999999
 41
4.648518920386913
 42
6.219315247167092
  0
LINE
  5
354D
330
A
100
AcDbEntity
  8
MODEL
100
AcDbLine
 10
283.973108921115
 20
568.3252397887012
 30
0.0
 11
283.973108921115
 21
567.4556339877007
 31
0.0
  0
LINE
  5
354E
330
A
100
AcDbEntity
  8
MODEL
100
AcDbLine
 10
284.462831526615
 20
567.1582191342012
 30
0.0
 11
284.031583262115
 21
567.2443308597011
 31
0.0
  0
ELLIPSE
  5
354F
330
A
100
AcDbEntity
  8
MODEL
100
AcDbEllipse
 10
291.039116411614
 20
567.9027153987016
 30
0.0
 11
0.05112856462214005
 21
-0.1933542600505156
 31
0.0
210
0.0
220
0.0
230
1.0
 40
0.9725526793000002
 41
4.446914372145081
 42
6.017710698944027
  0
LINE
  5
3550
330
A
100
AcDbEntity
  8
MODEL
100
AcDbLine
 10
290.8442423986148
 20
568.0969881287009
 30
0.0
 11
290.8442423986148
 21
567.9054619767011
 31
0.0
  0
LINE
  5
3551
330
A
100
AcDbEntity
  8
MODEL
100
AcDbLine
 10
292.4763122571153
 20
567.6828324217012
 30
0.0
 11
291.039116411614
 21
567.7030884367013
 31
0.0
  0
ELLIPSE
  5
3552
330
A
100
AcDbEntity
  8
MODEL
100
AcDbEllipse
 10
289.0409447266143
 20
567.519207571201
 30
0.0
 11
-0.01136729715221427
 21
0.1996767000815303
 31
0.0
210
0.0
220
0.0
230
1.0
 40
0.6807263034000001
 41
3.058157727435056
 42
4.6289540542166
  0
ELLIPSE
  5
3553
330
A
100
AcDbEntity
  8
MODEL
100
AcDbEllipse
 10
281.027463996114
 20
567.8441938967011
 30
0.0
 11
11.7500000000012
 21
0.0
 31
0.0
210
0.0
220
0.0
230
1.0
 40
0.0610483536
 41
-1.274090353955849
 42
-0.8203047484373904
  0
ELLIPSE
  5
3554
330
A
100
AcDbEntity
  8
MODEL
100
AcDbEllipse
 10
291.039116411614
 20
568.1849263187013
 30
0.0
 11
0.05112856462248516
 21
0.1933542600504323
 31
0.0
210
0.0
220
0.0
230
1.0
 40
0.9725526792999999
 41
2.287479130031072
 42
3.407067261818912
  0
LINE
  5
3555
330
A
100
AcDbEntity
  8
MODEL
100
AcDbLine
 10
291.039116411614
 20
567.9852993567014
 30
0.0
 11
291.8864105666148
 21
567.997241224701
 31
0.0
  0
ELLIPSE
  5
3556
330
A
100
AcDbEntity
  8
MODEL
100
AcDbEllipse
 10
288.0349971456149
 20
567.5850632817013
 30
0.0
 11
-0.01136729715218305
 21
0.1996767000815583
 31
0.0
210
0.0
220
0.0
230
1.0
 40
0.6807263034
 41
1.487361400629066
 42
3.058157727432651
  0
LINE
  5
3557
330
A
100
AcDbEntity
  8
MODEL
100
AcDbLine
 10
288.0349971456149
 20
567.385436319701
 30
0.0
 11
289.0409447266143
 21
567.3195806092011
 31
0.0
  0
LINE
  5
3558
330
A
100
AcDbEntity
  8
MODEL
100
AcDbLine
 10
287.8985974736156
 20
568.2673727532009
 30
0.0
 11
287.8985974736156
 21
567.5939928697006
 31
0.0
  0
ELLIPSE
  5
3559
330
A
100
AcDbEntity
  8
MODEL
100
AcDbEllipse
 10
271.0158115806139
 20
568.1849263187013
 30
0.0
 11
-0.05112856462256326
 21
0.1933542600504046
 31
0.0
210
0.0
220
0.0
230
1.0
 40
0.9725526793
 41
2.876118045359014
 42
3.995706177139696
  0
LINE
  5
355A
330
A
100
AcDbEntity
  8
MODEL
100
AcDbLine
 10
270.1685174256149
 20
567.997241224701
 30
0.0
 11
271.0158115806139
 21
567.9852993567014
 31
0.0
  0
ELLIPSE
  5
355B
330
A
100
AcDbEntity
  8
MODEL
100
AcDbEllipse
 10
273.0139832651134
 20
567.519207571201
 30
0.0
 11
0.011367297152216
 21
0.199676700081558
 31
0.0
210
0.0
220
0.0
230
1.0
 40
0.6807263034000001
 41
1.654231252963015
 42
3.225027579755881
  0
ELLIPSE
  5
355C
330
A
100
AcDbEntity
  8
MODEL
100
AcDbEllipse
 10
281.027463996114
 20
567.8441938967011
 30
0.0
 11
-11.75000000000088
 21
-3.330669073875470E-13
 31
0.0
210
0.0
220
0.0
230
1.0
 40
0.0610483536
 41
0.82030474843733
 42
1.2740903539558
  0
ELLIPSE
  5
355D
330
A
100
AcDbEntity
  8
MODEL
100
AcDbEllipse
 10
274.0199308466149
 20
567.5850632817013
 30
0.0
 11
-0.01136729715222034
 21
-0.1996767000815303
 31
0.0
210
0.0
220
0.0
230
1.0
 40
0.6807263034
 41
0.0834349261557481
 42
1.654231252960911
  0
LINE
  5
355E
330
A
100
AcDbEntity
  8
MODEL
100
AcDbLine
 10
274.1563305186141
 20
568.2673727532009
 30
0.0
 11
274.1563305186141
 21
567.5939928697006
 31
0.0
  0
LINE
  5
355F
330
A
100
AcDbEntity
  8
MODEL
100
AcDbLine
 10
273.0139832651134
 20
567.3195806092011
 30
0.0
 11
274.0199308466149
 21
567.385436319701
 31
0.0
  0
ELLIPSE
  5
3560
330
A
100
AcDbEntity
  8
MODEL
100
AcDbEllipse
 10
278.0233447301148
 20
567.4439578217006
 30
0.0
 11
0.003732220928790667
 21
0.1999651732850771
 31
0.0
210
0.0
220
0.0
230
1.0
 40
0.2918263759
 41
3.205462713599728
 42
4.776259040382492
  0
LINE
  5
3561
330
A
100
AcDbEntity
  8
MODEL
100
AcDbLine
 10
278.0233447301148
 20
567.2443308597011
 30
0.0
 11
277.5920964656148
 21
567.1582191342012
 31
0.0
  0
LINE
  5
3562
330
A
100
AcDbEntity
  8
MODEL
100
AcDbLine
 10
278.0818190711148
 20
568.3252397887012
 30
0.0
 11
278.0818190711148
 21
567.4556339877007
 31
0.0
  0
ELLIPSE
  5
3563
330
A
100
AcDbEntity
  8
MODEL
100
AcDbEllipse
 10
271.0158115806139
 20
567.9027153987016
 30
0.0
 11
0.05112856462248171
 21
0.1933542600504046
 31
0.0
210
0.0
220
0.0
230
1.0
 40
0.9725526793
 41
3.407067261832118
 42
4.977863588624648
  0
LINE
  5
3564
330
A
100
AcDbEntity
  8
MODEL
100
AcDbLine
 10
271.0158115806139
 20
567.7030884367013
 30
0.0
 11
269.691662046615
 21
567.684425710201
 31
0.0
  0
LINE
  5
3565
330
A
100
AcDbEntity
  8
MODEL
100
AcDbLine
 10
271.2106855931147
 20
568.0969881287009
 30
0.0
 11
271.2106855931147
 21
567.9054619767011
 31
0.0
  0
ELLIPSE
  5
3566
330
A
100
AcDbEntity
  8
MODEL
100
AcDbEllipse
 10
281.027463996114
 20
567.8441938967011
 30
0.0
 11
10.27499999999942
 21
-2.775557561562892E-14
 31
0.0
210
0.0
220
0.0
230
1.0
 40
0.0610483536
 41
-1.274090353955892
 42
-0.8203047484372821
  0
ELLIPSE
  5
3567
330
A
100
AcDbEntity
  8
MODEL
100
AcDbEllipse
 10
281.027463996114
 20
567.8441938967011
 30
0.0
 11
-10.27500000000062
 21
-8.326672684688677E-14
 31
0.0
210
0.0
220
0.0
230
1.0
 40
0.0610483536
 41
0.8203047484372021
 42
1.274090353955797
  0
ELLIPSE
  5
3568
330
A
100
AcDbEntity
  8
MODEL
100
AcDbEllipse
 10
281.027463996114
 20
568.7924219662008
 30
0.0
 11
-8.199999999999999
 21
0.0
 31
0.0
210
0.0
220
0.0
230
1.0
 40
0.0610483536
 41
1.063199490781287
 42
2.078393162808446
  0
LINE
  5
3569
330
A
100
AcDbEntity
  8
MODEL
100
AcDbLine
 10
161.6486400801136
 20
410.138898711701
 30
0.0
 11
161.6486400801136
 21
453.138898711701
 31
0.0
  0
LINE
  5
356A
330
A
100
AcDbEntity
  8
MODEL
100
AcDbLine
 10
162.1486400801155
 20
409.638898711701
 30
0.0
 11
166.4486400801147
 21
409.638898711701
 31
0.0
  0
LINE
  5
356B
330
A
100
AcDbEntity
  8
MODEL
100
AcDbLine
 10
166.4486400801147
 20
453.638898711701
 30
0.0
 11
162.1486400801155
 21
453.638898711701
 31
0.0
  0
ARC
  5
356C
330
A
100
AcDbEntity
  8
MODEL
100
AcDbCircle
 10
166.4486400801147
 20
453.5388987117011
 30
0.0
 40
0.100000000000003
100
AcDbArc
 50
0.0
 51
90.0
  0
ARC
  5
356D
330
A
100
AcDbEntity
  8
MODEL
100
AcDbCircle
 10
166.4486400801147
 20
409.7388987117009
 30
0.0
 40
0.0999999999999995
100
AcDbArc
 50
270.0
 51
0.0
  0
ARC
  5
356E
330
A
100
AcDbEntity
  8
MODEL
100
AcDbCircle
 10
162.1486400801155
 20
453.138898711701
 30
0.0
 40
0.5000000000000006
100
AcDbArc
 50
90.0
 51
180.0
  0
ARC
  5
356F
330
A
100
AcDbEntity
  8
MODEL
100
AcDbCircle
 10
162.1486400801155
 20
410.138898711701
 30
0.0
 40
0.5000000000000006
100
AcDbArc
 50
180.0
 51
270.0
  0
CIRCLE
  5
3570
330
A
100
AcDbEntity
  8
MODEL
100
AcDbCircle
 10
142.3638059696154
 20
431.6389949352009
 30
0.0
 40
3.999992050047467
  0
ARC
  5
3571
330
A
100
AcDbEntity
  8
MODEL
100
AcDbCircle
 10
142.3638084776144
 20
449.489783443701
 30
0.0
 40
9.91108830200478
100
AcDbArc
 50
243.2563185463034
 51
296.7436847959991
  0
ARC
  5
3572
330
A
100
AcDbEntity
  8
MODEL
100
AcDbCircle
 10
142.3638084771142
 20
413.7880139987009
 30
0.0
 40
9.911088284812115
100
AcDbArc
 50
63.256315110903
 51
116.7436815091017
  0
LINE
  5
3573
330
A
100
AcDbEntity
  8
MODEL
100
AcDbLine
 10
135.0686400801155
 20
422.7188987117009
 30
0.0
 11
135.0686400801155
 21
440.5588987117011
 31
0.0
  0
LINE
  5
3574
330
A
100
AcDbEntity
  8
MODEL
100
AcDbLine
 10
146.8238584526139
 20
422.638898711701
 30
0.0
 11
161.6486400801136
 21
422.638898711701
 31
0.0
  0
LINE
  5
3575
330
A
100
AcDbEntity
  8
MODEL
100
AcDbLine
 10
135.1486400801136
 20
422.638898711701
 30
0.0
 11
137.9038184786154
 21
422.638898711701
 31
0.0
  0
LINE
  5
3576
330
A
100
AcDbEntity
  8
MODEL
100
AcDbLine
 10
137.9038184781152
 20
440.638898711701
 30
0.0
 11
135.1486400801136
 21
440.638898711701
 31
0.0
  0
LINE
  5
3577
330
A
100
AcDbEntity
  8
MODEL
100
AcDbLine
 10
161.6486400801136
 20
440.638898711701
 30
0.0
 11
146.8236151901151
 21
440.638898711701
 31
0.0
  0
ARC
  5
3578
330
A
100
AcDbEntity
  8
MODEL
100
AcDbCircle
 10
138.6638199056147
 20
392.451580801201
 30
0.0
 40
0.299999995139075
100
AcDbArc
 50
181.5515208259094
 51
270.0004889129167
  0
ARC
  5
3579
330
A
100
AcDbEntity
  8
MODEL
100
AcDbCircle
 10
146.0637984921145
 20
392.4515888727009
 30
0.0
 40
0.2999999999999925
100
AcDbArc
 50
270.0000624638114
 51
0.0174036571156425
  0
LINE
  5
357A
330
A
100
AcDbEntity
  8
MODEL
100
AcDbLine
 10
138.3638187891142
 20
422.204376843701
 30
0.0
 11
138.3638187891142
 21
392.4515808552013
 31
0.0
  0
LINE
  5
357B
330
A
100
AcDbEntity
  8
MODEL
100
AcDbLine
 10
146.3637984921138
 20
392.4515888727009
 30
0.0
 11
146.3637984921138
 21
422.1789797102009
 31
0.0
  0
ARC
  5
357C
330
A
100
AcDbEntity
  8
MODEL
100
AcDbCircle
 10
142.3637967946147
 20
403.3174799767011
 30
0.0
 40
11.77857142857069
100
AcDbArc
 50
251.4119134101002
 51
288.8070114044991
  0
ARC
  5
357D
330
A
100
AcDbEntity
  8
MODEL
100
AcDbCircle
 10
146.063797639114
 20
470.8262282267013
 30
0.0
 40
0.2999999960995565
100
AcDbArc
 50
1.636036801392417
 51
90.00026334970852
  0
ARC
  5
357E
330
A
100
AcDbEntity
  8
MODEL
100
AcDbCircle
 10
138.6638189246137
 20
470.8262362912009
 30
0.0
 40
0.2999999999027505
100
AcDbArc
 50
89.99889911974746
 51
179.7998034867768
  0
LINE
  5
357F
330
A
100
AcDbEntity
  8
MODEL
100
AcDbLine
 10
138.3638187891142
 20
470.8262362842009
 30
0.0
 11
138.3638187891142
 21
441.073421147701
 31
0.0
  0
LINE
  5
3580
330
A
100
AcDbEntity
  8
MODEL
100
AcDbLine
 10
146.3637984921138
 20
441.0989275592009
 30
0.0
 11
146.3637984921138
 21
470.8262282742011
 31
0.0
  0
ARC
  5
3581
330
A
100
AcDbEntity
  8
MODEL
100
AcDbCircle
 10
142.3637967946147
 20
459.9603371197012
 30
0.0
 40
11.7785714285709
100
AcDbArc
 50
71.42152760289947
 51
108.7688546563033
  0
ARC
  5
3582
330
A
100
AcDbEntity
  8
MODEL
100
AcDbCircle
 10
137.9038187901156
 20
422.1788987112012
 30
0.0
 40
0.4600000008006805
100
AcDbArc
 50
0.0000001869736913
 51
90.00000004757888
  0
ARC
  5
3583
330
A
100
AcDbEntity
  8
MODEL
100
AcDbCircle
 10
146.8237984921147
 20
422.1788987117014
 30
0.0
 40
0.459999999999347
100
AcDbArc
 50
89.99999999977344
 51
179.9999999998301
  0
ARC
  5
3584
330
A
100
AcDbEntity
  8
MODEL
100
AcDbCircle
 10
146.8237984921147
 20
441.0988987117011
 30
0.0
 40
0.4599999999970334
100
AcDbArc
 50
179.9999999996035
 51
269.9999999995469
  0
ARC
  5
3585
330
A
100
AcDbEntity
  8
MODEL
100
AcDbCircle
 10
137.9038187901156
 20
441.0988987122013
 30
0.0
 40
0.460000000709893
100
AcDbArc
 50
269.9999999621635
 51
359.9999998412904
  0
ARC
  5
3586
330
A
100
AcDbEntity
  8
MODEL
100
AcDbCircle
 10
135.1486400801136
 20
422.7188987117009
 30
0.0
 40
0.0799999999999965
100
AcDbArc
 50
180.0
 51
270.0
  0
ARC
  5
3587
330
A
100
AcDbEntity
  8
MODEL
100
AcDbCircle
 10
135.1486400801136
 20
440.5588987117011
 30
0.0
 40
0.08
100
AcDbArc
 50
90.0
 51
180.0
  0
CIRCLE
  5
3588
330
A
100
AcDbEntity
  8
MODEL
100
AcDbCircle
 10
419.6911192246139
 20
431.638893858701
 30
0.0
 40
3.999989851475959
  0
ARC
  5
3589
330
A
100
AcDbEntity
  8
MODEL
100
AcDbCircle
 10
419.6911220381139
 20
449.4897819897013
 30
0.0
 40
9.911087994169385
100
AcDbArc
 50
243.2562999189074
 51
296.7436967926014
  0
ARC
  5
358A
330
A
100
AcDbEntity
  8
MODEL
100
AcDbCircle
 10
419.6900043901155
 20
413.7736205612008
 30
0.0
 40
9.924680553356776
100
AcDbArc
 50
63.2920110387062
 51
116.6816770279046
  0
LINE
  5
358B
330
A
100
AcDbEntity
  8
MODEL
100
AcDbLine
 10
426.9862877851142
 20
440.5588987117011
 30
0.0
 11
426.9862877851142
 21
422.7188987117009
 31
0.0
  0
LINE
  5
358C
330
A
100
AcDbEntity
  8
MODEL
100
AcDbLine
 10
415.231073303114
 20
440.638898711701
 30
0.0
 11
400.4062877851143
 21
440.638898711701
 31
0.0
  0
LINE
  5
358D
330
A
100
AcDbEntity
  8
MODEL
100
AcDbLine
 10
426.9062877851143
 20
440.638898711701
 30
0.0
 11
424.0965882391142
 21
440.638898711701
 31
0.0
  0
LINE
  5
358E
330
A
100
AcDbEntity
  8
MODEL
100
AcDbLine
 10
424.1006493291138
 20
422.638898711701
 30
0.0
 11
426.9062877851143
 21
422.638898711701
 31
0.0
  0
LINE
  5
358F
330
A
100
AcDbEntity
  8
MODEL
100
AcDbLine
 10
400.4062877851143
 20
422.638898711701
 30
0.0
 11
415.2632316436143
 21
422.638898711701
 31
0.0
  0
ARC
  5
3590
330
A
100
AcDbEntity
  8
MODEL
100
AcDbCircle
 10
423.3911139456145
 20
470.826262956701
 30
0.0
 40
0.299999999988951
100
AcDbArc
 50
359.9821557813659
 51
90.00004838571765
  0
ARC
  5
3591
330
A
100
AcDbEntity
  8
MODEL
100
AcDbCircle
 10
415.9911309631138
 20
470.8262566882012
 30
0.0
 40
0.299999996987152
100
AcDbArc
 50
89.99962248863727
 51
178.4482728183461
  0
LINE
  5
3592
330
A
100
AcDbEntity
  8
MODEL
100
AcDbLine
 10
415.6911298456148
 20
470.826256723701
 30
0.0
 11
415.6911298456148
 21
441.0988303462008
 31
0.0
  0
LINE
  5
3593
330
A
100
AcDbEntity
  8
MODEL
100
AcDbLine
 10
423.6911139456138
 20
441.0988987107011
 30
0.0
 11
423.6911139456138
 21
470.826262956701
 31
0.0
  0
ARC
  5
3594
330
A
100
AcDbEntity
  8
MODEL
100
AcDbCircle
 10
419.691131070615
 20
459.9603654437009
 30
0.0
 40
11.77857142857137
100
AcDbArc
 50
71.19039411340057
 51
108.8036552256071
  0
ARC
  5
3595
330
A
100
AcDbEntity
  8
MODEL
100
AcDbCircle
 10
423.3911128291152
 20
392.4516107942012
 30
0.0
 40
0.2999999093327765
100
AcDbArc
 50
269.9995251650415
 51
1.551535907702822
  0
ARC
  5
3596
330
A
100
AcDbEntity
  8
MODEL
100
AcDbCircle
 10
415.9911298456141
 20
392.4516170362011
 30
0.0
 40
0.300000000000004
100
AcDbArc
 50
180.0173742822427
 51
269.9999516208829
  0
LINE
  5
3597
330
A
100
AcDbEntity
  8
MODEL
100
AcDbLine
 10
415.6911298456148
 20
422.2006769197013
 30
0.0
 11
415.6911298456148
 21
392.4516170362011
 31
0.0
  0
LINE
  5
3598
330
A
100
AcDbEntity
  8
MODEL
100
AcDbLine
 10
423.6911139456138
 20
392.4516108272009
 30
0.0
 11
423.6911139456138
 21
422.2053856212009
 31
0.0
  0
ARC
  5
3599
330
A
100
AcDbEntity
  8
MODEL
100
AcDbCircle
 10
419.691131070615
 20
403.317508301201
 30
0.0
 40
11.77857142857033
100
AcDbArc
 50
251.2031394227985
 51
288.5856626658988
  0
ARC
  5
359A
330
A
100
AcDbEntity
  8
MODEL
100
AcDbCircle
 10
424.1409738471143
 20
422.1905791142011
 30
0.0
 40
0.450081613179396
100
AcDbArc
 50
95.14596264186157
 51
178.1214460711815
  0
ARC
  5
359B
330
A
100
AcDbEntity
  8
MODEL
100
AcDbCircle
 10
415.2813442241154
 20
422.2288112092009
 30
0.0
 40
0.4107437753447575
100
AcDbArc
 50
356.0751217396079
 51
92.4592817251439
  0
ARC
  5
359C
330
A
100
AcDbEntity
  8
MODEL
100
AcDbCircle
 10
424.1511139431154
 20
441.0988987107011
 30
0.0
 40
0.4599999992008505
100
AcDbArc
 50
179.9999998714804
 51
269.9999998984984
  0
ARC
  5
359D
330
A
100
AcDbEntity
  8
MODEL
100
AcDbCircle
 10
415.2311298461141
 20
441.0988987112008
 30
0.0
 40
0.459999999323791
100
AcDbArc
 50
270.0000000525633
 51
0.0
  0
ARC
  5
359E
330
A
100
AcDbEntity
  8
MODEL
100
AcDbCircle
 10
426.9062877851143
 20
440.5588987117011
 30
0.0
 40
0.0799999999999965
100
AcDbArc
 50
0.0
 51
90.0
  0
ARC
  5
359F
330
A
100
AcDbEntity
  8
MODEL
100
AcDbCircle
 10
426.9062877851143
 20
422.7188987117009
 30
0.0
 40
0.08
100
AcDbArc
 50
270.0
 51
0.0
  0
LINE
  5
35A0
330
A
100
AcDbEntity
  8
MODEL
100
AcDbLine
 10
429.4862877851142
 20
440.3388987117008
 30
0.0
 11
429.4862877851142
 21
422.9388987117012
 31
0.0
  0
LINE
  5
35A1
330
A
100
AcDbEntity
  8
MODEL
100
AcDbLine
 10
427.2862877851135
 20
422.638898711701
 30
0.0
 11
429.1862877851149
 21
422.638898711701
 31
0.0
  0
LINE
  5
35A2
330
A
100
AcDbEntity
  8
MODEL
100
AcDbLine
 10
429.1862877851149
 20
440.638898711701
 30
0.0
 11
427.2862877851135
 21
440.638898711701
 31
0.0
  0
ARC
  5
35A3
330
A
100
AcDbEntity
  8
MODEL
100
AcDbCircle
 10
429.1862877851149
 20
422.9388987117012
 30
0.0
 40
0.3000000000000015
100
AcDbArc
 50
270.0
 51
0.0
  0
ARC
  5
35A4
330
A
100
AcDbEntity
  8
MODEL
100
AcDbCircle
 10
429.1862877851149
 20
440.3388987117008
 30
0.0
 40
0.2999999999999945
100
AcDbArc
 50
0.0
 51
90.0
  0
ARC
  5
35A5
330
A
100
AcDbEntity
  8
MODEL
100
AcDbCircle
 10
427.2862877851135
 20
422.9388987117012
 30
0.0
 40
0.2999999999999945
100
AcDbArc
 50
180.0
 51
270.0
  0
ARC
  5
35A6
330
A
100
AcDbEntity
  8
MODEL
100
AcDbCircle
 10
427.2862877851135
 20
440.3388987117008
 30
0.0
 40
0.3
100
AcDbArc
 50
90.0
 51
180.0
  0
LINE
  5
35A7
330
A
100
AcDbEntity
  8
MODEL
100
AcDbLine
 10
294.2774639326149
 20
468.6388986817009
 30
0.0
 11
294.2774639326149
 21
468.7388986817012
 31
0.0
  0
LINE
  5
35A8
330
A
100
AcDbEntity
  8
MODEL
100
AcDbLine
 10
267.7774639326149
 20
468.7388986817012
 30
0.0
 11
267.7774639326149
 21
468.6388986817009
 31
0.0
  0
LINE
  5
35A9
330
A
100
AcDbEntity
  8
MODEL
100
AcDbLine
 10
295.4274639326145
 20
468.7388986817012
 30
0.0
 11
266.6274639326134
 21
468.7388986817012
 31
0.0
  0
SPLINE
  5
35AA
330
A
100
AcDbEntity
  8
MODEL
100
AcDbSpline
210
0.0
220
0.0
230
1.0
 70
     8
 71
     3
 72
     8
 73
     4
 74
     0
 42
0.000000001
 43
0.0000000001
 40
0.0
 40
0.0
 40
0.0
 40
0.0
 40
1.0
 40
1.0
 40
1.0
 40
1.0
 10
266.5872275290044
 20
572.6350570570734
 30
0.0
 10
266.5475024415014
 20
572.6617525294286
 30
0.0
 10
266.5274611283407
 20
572.6885288412558
 30
0.0
 10
266.527464813988
 20
572.7151153261765
 30
0.0
  0
SPLINE
  5
35AB
330
A
100
AcDbEntity
  8
MODEL
100
AcDbSpline
210
0.0
220
0.0
230
1.0
 70
     8
 71
     3
 72
     8
 73
     4
 74
     0
 42
0.000000001
 43
0.0000000001
 40
0.0
 40
0.0
 40
0.0
 40
0.0
 40
1.0
 40
1.0
 40
1.0
 40
1.0
 10
295.5274633229005
 20
572.7151132493876
 30
0.0
 10
295.5274751962866
 20
572.688296735478
 30
0.0
 10
295.507723977646
 20
572.6616723164283
 30
0.0
 10
295.4685255983591
 20
572.6352369206342
 30
0.0
  0
LINE
  5
35AC
330
A
100
AcDbEntity
  8
MODEL
100
AcDbLine
 10
295.5274639326149
 20
468.8388986817007
 30
0.0
 11
295.5274639326149
 21
567.5987328122009
 31
0.0
  0
LINE
  5
35AD
330
A
100
AcDbEntity
  8
MODEL
100
AcDbLine
 10
266.5274639326149
 20
567.5987328122009
 30
0.0
 11
266.5274639326149
 21
468.8388986817007
 31
0.0
  0
ARC
  5
35AE
330
A
100
AcDbEntity
  8
MODEL
100
AcDbCircle
 10
281.027463996114
 20
650.0988907527006
 30
0.0
 40
14.4999993320961
100
AcDbArc
 50
0.0000000001024235
 51
180.000000000097
  0
LINE
  5
35AF
330
A
100
AcDbEntity
  8
MODEL
100
AcDbLine
 10
266.5274646641142
 20
572.7162250027008
 30
0.0
 11
266.5274646641142
 21
572.5558601252013
 31
0.0
  0
LINE
  5
35B0
330
A
100
AcDbEntity
  8
MODEL
100
AcDbLine
 10
266.5274646641142
 20
568.083748812201
 30
0.0
 11
266.5274646641142
 21
567.5987328122009
 31
0.0
  0
LINE
  5
35B1
330
A
100
AcDbEntity
  8
MODEL
100
AcDbLine
 10
266.5274646641142
 20
650.0988907527006
 30
0.0
 11
266.5274646641142
 21
572.7162250027008
 31
0.0
  0
LINE
  5
35B2
330
A
100
AcDbEntity
  8
MODEL
100
AcDbLine
 10
295.5274633281156
 20
572.7139031357009
 30
0.0
 11
295.5274633281156
 21
650.0988907527006
 31
0.0
  0
LINE
  5
35B3
330
A
100
AcDbEntity
  8
MODEL
100
AcDbLine
 10
295.5274632966143
 20
567.5987328122009
 30
0.0
 11
295.5274632966143
 21
568.083748785701
 31
0.0
  0
ARC
  5
35B4
330
A
100
AcDbEntity
  8
MODEL
100
AcDbCircle
 10
266.6274639326134
 20
468.8388986817007
 30
0.0
 40
0.0999999999999995
100
AcDbArc
 50
180.0
 51
270.0
  0
ARC
  5
35B5
330
A
100
AcDbEntity
  8
MODEL
100
AcDbCircle
 10
295.4274639326145
 20
468.8388986817007
 30
0.0
 40
0.100000000000003
100
AcDbArc
 50
270.0
 51
0.0
  0
ELLIPSE
  5
35B6
330
A
100
AcDbEntity
  8
MODEL
100
AcDbEllipse
 10
281.027463996114
 20
567.9471124407008
 30
0.0
 11
-12.12499912484766
 21
0.0
 31
0.0
210
0.0
220
0.0
230
1.0
 40
0.0610483536
 41
-3.333996565248649
 42
-3.311201802305222
  0
ELLIPSE
  5
35B7
330
A
100
AcDbEntity
  8
MODEL
100
AcDbEllipse
 10
281.027463996114
 20
567.9471124407008
 30
0.0
 11
-12.12499912484766
 21
0.0
 31
0.0
210
0.0
220
0.0
230
1.0
 40
0.0610483536
 41
-3.978000855439086
 42
-3.504379184283032
  0
ELLIPSE
  5
35B8
330
A
100
AcDbEntity
  8
MODEL
100
AcDbEllipse
 10
281.027463996114
 20
567.9471124407008
 30
0.0
 11
-12.12499912484766
 21
0.0
 31
0.0
210
0.0
220
0.0
230
1.0
 40
0.0610483536
 41
1.314752752087087
 42
1.826839901502681
  0
ELLIPSE
  5
35B9
330
A
100
AcDbEntity
  8
MODEL
100
AcDbEllipse
 10
281.027463996114
 20
567.9471124407008
 30
0.0
 11
-12.12499912484766
 21
0.0
 31
0.0
210
0.0
220
0.0
230
1.0
 40
0.0610483536
 41
0.1696091487152902
 42
0.8364082016276901
  0
ELLIPSE
  5
35BA
330
A
100
AcDbEntity
  8
MODEL
100
AcDbEllipse
 10
281.027463996114
 20
567.6445672622011
 30
0.0
 11
12.3
 21
0.0
 31
0.0
210
0.0
220
0.0
230
1.0
 40
0.0610483536
 41
0.0
 42
6.283185307179586
  0
ELLIPSE
  5
35BB
330
A
100
AcDbEntity
  8
MODEL
100
AcDbEllipse
 10
281.027463996114
 20
572.635240899201
 30
0.0
 11
-14.42
 21
0.0
 31
0.0
210
0.0
220
0.0
230
1.0
 40
0.0610483536
 41
3.927078263638458
 42
3.927193967274189
  0
SPLINE
  5
35BC
330
A
100
AcDbEntity
  8
MODEL
100
AcDbSpline
210
0.0
220
0.0
230
1.0
 70
     8
 71
     3
 72
    20
 73
    16
 74
     0
 42
0.000000001
 43
0.0000000001
 40
0.0
 40
0.0
 40
0.0
 40
0.0
 40
0.124965401214984
 40
0.124965401214984
 40
0.2499308024299681
 40
0.2499308024299681
 40
0.3748962036449522
 40
0.3748962036449522
 40
0.4998616048599361
 40
0.4998616048599361
 40
0.7497924072899038
 40
0.7497924072899038
 40
0.9997232097198715
 40
0.9997232097198715
 40
1.0
 40
1.0
 40
1.0
 40
1.0
 10
281.0274639961031
 20
573.4405912262017
 30
0.0
 10
280.0695233597203
 20
573.4405912262017
 30
0.0
 10
279.1275905713815
 20
573.4348529043499
 30
0.0
 10
277.2744313513417
 20
573.4123689749157
 30
0.0
 10
276.3536105148055
 20
573.3953506490888
 30
0.0
 10
274.59762276431
 20
573.350919344225
 30
0.0
 10
273.7647800128329
 20
573.3237299331785
 30
0.0
 10
272.1885877431455
 20
573.2594927132685
 30
0.0
 10
271.4423099196888
 20
573.2221029867686
 30
0.0
 10
269.4358670891584
 20
573.099590969964
 30
0.0
 10
268.355560812241
 20
573.0008341411534
 30
0.0
 10
266.9092608434717
 20
572.7878032976108
 30
0.0
 10
266.5284702618396
 20
572.6713181039744
 30
0.0
 10
266.5274649279295
 20
572.5557322592771
 30
0.0
 10
266.5274642798145
 20
572.555604388854
 30
0.0
 10
266.5274640956818
 20
572.5554765140145
 30
0.0
  0
SPLINE
  5
35BD
330
A
100
AcDbEntity
  8
MODEL
100
AcDbSpline
210
0.0
220
0.0
230
1.0
 70
     8
 71
     3
 72
    16
 73
    12
 74
     0
 42
0.000000001
 43
0.0000000001
 40
0.0
 40
0.0
 40
0.0
 40
0.0
 40
0.2494852135699472
 40
0.2494852135699472
 40
0.3745710113082891
 40
0.3745710113082891
 40
0.4996568090466315
 40
0.4996568090466315
 40
0.7498284045233158
 40
0.7498284045233158
 40
1.0
 40
1.0
 40
1.0
 40
1.0
 10
295.5274640069842
 20
572.5554472142088
 30
0.0
 10
295.5273509265976
 20
572.6718519360674
 30
0.0
 10
295.1529202739607
 20
572.7864479833796
 30
0.0
 10
294.0641765965324
 20
572.947242353065
 30
0.0
 10
293.6192769221475
 20
572.9981170842078
 30
0.0
 10
292.5694027649702
 20
573.0943123430983
 30
0.0
 10
291.9575377324149
 20
573.139924842529
 30
0.0
 10
289.9510243166446
 20
573.2626150541458
 30
0.0
 10
288.3351815890042
 20
573.3285986769414
 30
0.0
 10
284.8465369480077
 20
573.4170862160653
 30
0.0
 10
282.9433452688704
 20
573.4405912262013
 30
0.0
 10
281.0274639961031
 20
573.4405912262017
 30
0.0
  0
ELLIPSE
  5
35BE
330
A
100
AcDbEntity
  8
MODEL
100
AcDbEllipse
 10
281.027463996114
 20
568.083748812201
 30
0.0
 11
14.50000000000001
 21
0.0
 31
0.0
210
0.0
220
0.0
230
1.0
 40
0.0610481676
 41
0.0
 42
3.141592653589793
  0
ELLIPSE
  5
35BF
330
A
100
AcDbEntity
  8
MODEL
100
AcDbEllipse
 10
281.027463996114
 20
567.6445694912012
 30
0.0
 11
-14.06
 21
0.0
 31
0.0
210
0.0
220
0.0
230
1.0
 40
0.0610481676
 41
0.0
 42
6.283185307179586
  0
LINE
  5
35C0
330
A
100
AcDbEntity
  8
MODEL
100
AcDbLine
 10
295.527463996114
 20
568.083748812201
 30
0.0
 11
295.527463996114
 21
572.555390099701
 31
0.0
  0
LINE
  5
35C1
330
A
100
AcDbEntity
  8
MODEL
100
AcDbLine
 10
266.527463996114
 20
572.555390099701
 30
0.0
 11
266.527463996114
 21
568.083748812201
 31
0.0
  0
SPLINE
  5
35C2
330
A
100
AcDbEntity
  8
MODEL
100
AcDbSpline
210
0.0
220
0.0
230
1.0
 70
     8
 71
     3
 72
    12
 73
     8
 74
     0
 42
0.000000001
 43
0.0000000001
 40
0.0
 40
0.0
 40
0.0
 40
0.0
 40
0.0187976090857603
 40
0.236285469172568
 40
0.4404835176376535
 40
0.6951770556316154
 40
1.0
 40
1.0
 40
1.0
 40
1.0
 10
266.5353486355966
 20
568.1177468552941
 30
0.0
 10
266.5322766141421
 20
568.1088311284356
 30
0.0
 10
266.4988953853886
 20
568.0129735991935
 30
0.0
 10
266.6112966508194
 20
567.7759232401366
 30
0.0
 10
266.7633225975737
 20
567.6446444341044
 30
0.0
 10
266.9230715197486
 20
567.5561708461317
 30
0.0
 10
267.0448181034067
 20
567.5182473693056
 30
0.0
 10
267.12302913963
 20
567.4962144445047
 30
0.0
  0
SPLINE
  5
35C3
330
A
100
AcDbEntity
  8
MODEL
100
AcDbSpline
210
0.0
220
0.0
230
1.0
 70
     8
 71
     3
 72
    12
 73
     8
 74
     0
 42
0.000000001
 43
0.0000000001
 40
0.0
 40
0.0
 40
0.0
 40
0.0
 40
0.0753757140462245
 40
0.4928529350642963
 40
0.7338503177111725
 40
0.9310969012015543
 40
1.0
 40
1.0
 40
1.0
 40
1.0
 10
294.8675880394262
 20
567.4767319996803
 30
0.0
 10
294.8931570189948
 20
567.4823620146552
 30
0.0
 10
295.036942914709
 20
567.5146431556649
 30
0.0
 10
295.1876976000553
 20
567.5818321772011
 30
0.0
 10
295.3812901255701
 20
567.7067904353393
 30
0.0
 10
295.5380256323665
 20
567.9307703522217
 30
0.0
 10
295.5136452824941
 20
568.0592398204334
 30
0.0
 10
295.5064727932427
 20
568.0986012969096
 30
0.0
  0
ARC
  5
35C4
330
A
100
AcDbEntity
  8
MODEL
100
AcDbCircle
 10
356.0274639331151
 20
431.638898711701
 30
0.0
 40
28.5
100
AcDbArc
 50
230.6058566594992
 51
309.4308427297988
  0
ARC
  5
35C5
330
A
100
AcDbEntity
  8
MODEL
100
AcDbCircle
 10
356.0274639331151
 20
431.638898711701
 30
0.0
 40
28.5
100
AcDbArc
 50
50.68803657530046
 51
129.4724968964
  0
ARC
  5
35C6
330
A
100
AcDbEntity
  8
MODEL
100
AcDbCircle
 10
206.0274639321146
 20
431.638898711701
 30
0.0
 40
28.50000000000001
100
AcDbArc
 50
230.6227106029993
 51
309.3941433405
  0
ARC
  5
35C7
330
A
100
AcDbEntity
  8
MODEL
100
AcDbCircle
 10
206.0274639321146
 20
431.638898711701
 30
0.0
 40
28.5
100
AcDbArc
 50
50.52750310360002
 51
129.447403574501
  0
DIMENSION
  5
35CB
330
A
100
AcDbEntity
  8
DIM
100
AcDbDimension
  2
*D7
 10
657.9504729647293
 20
301.6860198135664
 30
0.0
 11
637.6255220862236
 21
301.6860198135664
 31
0.0
 70
   160
  1
\A1;<>
 71
     5
 42
40.14999999999975
 73
     0
 74
     0
 75
     0
  3
tfrom線あり
100
AcDbAlignedDimension
 13
617.8004729647296
 23
380.2665208377011
 33
0.0
 14
657.9504729647293
 24
355.3381482953133
 34
0.0
100
AcDbRotatedDimension
  0
DIMENSION
  5
35CC
330
A
100
AcDbEntity
  8
DIM
100
AcDbDimension
  2
*D8
 10
865.9521414132291
 20
718.025246598332
 30
0.0
 11
741.1263071889792
 21
718.025246598332
 31
0.0
 70
   160
  1
\A1;<>
 71
     5
 42
248.1516684485
 73
     0
 74
     0
 75
     0
  3
tfrom線あり
100
AcDbAlignedDimension
 13
617.8004729647291
 23
492.9684707839205
 33
0.0
 14
865.9521414132291
 24
567.6445694912013
 34
0.0
100
AcDbRotatedDimension
  0
DIMENSION
  5
35CD
330
A
100
AcDbEntity
  8
DIM
100
AcDbDimension
  2
*D9
 10
931.3165766052846
 20
567.6445694912013
 30
0.0
 11
931.3165766052846
 21
499.6417354907016
 31
0.0
 70
   160
  1
\A1;<>
 71
     5
 42
136.0056707795002
 73
     0
 74
     0
 75
     0
  3
tfrom線あり
100
AcDbAlignedDimension
 13
745.4252701931773
 23
431.6388987117011
 33
0.0
 14
865.9521414132291
 24
567.6445694912013
 34
0.0
 50
90.0
100
AcDbRotatedDimension
  0
DIMENSION
  5
35D0
330
A
100
AcDbEntity
  8
DIM
100
AcDbDimension
  2
*D12
 10
429.4862878483391
 20
855.2066055059538
 30
0.0
 11
281.027465567834
 21
855.2066055059538
 31
0.0
 70
   160
  1
\A1;<>
 71
     5
 42
296.9176477044998
 73
     0
 74
     0
 75
     0
  3
tfrom線あり
100
AcDbAlignedDimension
 13
132.5686401438393
 23
1083.27188624702
 33
0.0
 14
429.4862878483391
 24
1082.481177468619
 34
0.0
 50
-0.0000000000010827
100
AcDbRotatedDimension
  0
DIMENSION
  5
35D1
330
A
100
AcDbEntity
  8
DIM
100
AcDbDimension
  2
*D13
 10
865.9521414132291
 20
566.1324142862013
 30
0.0
 11
867.469493729418
 21
521.3905665988623
 31
0.0
 70
   162
  1
\A1;<>
 71
     5
 42
0.061086151469696
 73
     0
 74
     1
 75
     1
  3
tfrom線あり
100
AcDb2LineAngularDimension
 13
865.9521414132291
 23
567.6445694912013
 33
0.0
 14
866.0409657372297
 24
566.1922957567012
 34
0.0
 15
865.9521414132291
 25
567.6445694912013
 35
0.0
 16
866.8944092781492
 26
521.3752786722716
 36
0.0
1001
ACAD
1000
DSTYLE
1002
{
1070
    77
1070
     2
1070
   179
1070
     0
1002
}
  0
LINE
  5
3665
330
A
100
AcDbEntity
  8
DIM
100
AcDbLine
 10
625.4004729647295
 20
460.1388987117011
 30
0.0
 11
633.0653613872682
 21
475.9469526779873
 31
0.0
  0
LINE
  5
3666
330
A
100
AcDbEntity
  8
DIM
100
AcDbLine
 10
633.0653613872682
 20
475.9469526779873
 30
0.0
 11
670.2423472087971
 21
475.9469526779872
 31
0.0
  0
MTEXT
  5
369A
330
A
100
AcDbEntity
  8
DIM
390
1D
100
AcDbMText
 10
640.0473794475397
 20
495.6773637675669
 30
0.0
 40
12.0
 41
949.7161250932046
 46
12.0
 71
     1
 72
     1
  1
{Ø57}
  7
ＭＳ ゴシック
 73
     1
 44
0.9822934569727008
1001
ACAD
1000
ACAD_MTEXT_DEFINED_HEIGHT_BEGIN
1070
    46
1040
12.0
1000
ACAD_MTEXT_DEFINED_HEIGHT_END
  0
MTEXT
  5
36D0
330
A
100
AcDbEntity
  8
DIM
390
1D
100
AcDbMText
 10
590.2461481410022
 20
437.9475872915031
 30
0.0
 40
12.0
 41
949.7161250932046
 46
12.0
 71
     1
 72
     1
  1
{▲}
  7
ＭＳ ゴシック
 11
1.202875625100462E-14
 21
-1.0
 31
0.0
 73
     1
 44
0.9822934569727008
1001
ACAD
1000
ACAD_MTEXT_DEFINED_HEIGHT_BEGIN
1070
    46
1040
12.0
1000
ACAD_MTEXT_DEFINED_HEIGHT_END
  0
MTEXT
  5
36D1
330
A
100
AcDbEntity
  8
DIM
390
1D
100
AcDbMText
 10
558.4634487196676
 20
414.7623247920718
 30
0.0
 40
12.0
 41
949.7161250932044
 46
13.704
 71
     1
 72
     1
  1
{G1/2"}
  7
ＭＳ ゴシック
 11
-1.190629157108988E-14
 21
1.0
 31
0.0
 73
     1
 44
0.9822934569727008
1001
ACAD
1000
ACAD_MTEXT_DEFINED_HEIGHT_BEGIN
1070
    46
1040
13.704
1000
ACAD_MTEXT_DEFINED_HEIGHT_END
  0
MTEXT
  5
36DD
330
A
100
AcDbEntity
  8
DIM
390
1D
100
AcDbMText
 10
643.0498916473854
 20
373.7178266092031
 30
0.0
 40
12.0
 41
949.7161250932044
 46
13.704
 71
     1
 72
     1
  1
{G1/2"}
  7
ＭＳ ゴシック
 73
     1
 44
0.9822934569727008
1001
ACAD
1000
ACAD_MTEXT_DEFINED_HEIGHT_BEGIN
1070
    46
1040
13.704
1000
ACAD_MTEXT_DEFINED_HEIGHT_END
  0
MTEXT
  5
36DE
330
A
100
AcDbEntity
  8
DIM
390
1D
100
AcDbMText
 10
665.0304315682969
 20
378.6791658327422
 30
0.0
 40
12.0
 41
949.7161250932046
 46
12.0
 71
     1
 72
     1
  1
{▲}
  7
ＭＳ ゴシック
 11
-1.0
 21
-3.025187668500568E-14
 31
0.0
 73
     1
 44
0.9822934569727008
1001
ACAD
1000
ACAD_MTEXT_DEFINED_HEIGHT_BEGIN
1070
    46
1040
12.0
1000
ACAD_MTEXT_DEFINED_HEIGHT_END
  0
DIMENSION
  5
36DF
330
A
100
AcDbEntity
  8
DIM
100
AcDbDimension
  2
*D14
 10
361.5239639958404
 20
1257.217976953947
 30
0.0
 11
281.0106213186761
 21
1257.217976953947
 31
0.0
 70
   160
  1
150±11
 71
     5
 42
160.9929999999999
 73
     0
 74
     0
 75
     0
  3
tfrom線あり
100
AcDbAlignedDimension
 13
200.5309639958405
 23
1197.650602952944
 33
0.0
 14
361.5239639958404
 24
1197.650602952941
 34
0.0
100
AcDbRotatedDimension
1001
ACAD
1000
DSTYLE
1002
{
1070
     3
1000
<>
1070
   277
1070
     2
1070
    45
1040
0.0
1070
   144
1040
1.0
1002
}
  0
DIMENSION
  5
3702
330
A
100
AcDbEntity
  8
DIM
100
AcDbDimension
  2
*D16
 10
524.7769813715369
 20
664.5988900847013
 30
0.0
 11
524.7769813715369
 21
548.1188915782013
 31
0.0
 70
   160
  1
\A1;<>
 71
     5
 42
232.9599913730002
 73
     0
 74
     0
 75
     0
 52
-90.0
  3
tfrom線あり
100
AcDbAlignedDimension
 13
556.1461396439594
 23
431.6388987117011
 33
0.0
 14
763.9079425299313
 24
664.5988900847013
 34
0.0
 50
90.00000000000001
100
AcDbRotatedDimension
  0
MTEXT
  5
37D1
330
A
100
AcDbEntity
  8
TEMPLATE
390
1D
100
AcDbMText
 10
159.8819667916645
 20
271.9785567223067
 30
0.0
 40
12.21630859375
 41
0.0
 46
30.73295533268044
 71
     1
 72
     1
  1
{※ハンドシャワー・シャワーホース・シャワーフック(スライドシャワーバー)などが別途必要です。\P\pxsm1.5;※ハンドシャワーヘッドFHT73-3323は切替の作動不良が起こる可場合があるため、使用出来ません。}
  7
ＭＳ ゴシック
 73
     1
 44
0.7828267384257843
1001
ACAD
1000
ACAD_MTEXT_DEFINED_HEIGHT_BEGIN
1070
    46
1040
30.73295533268044
1000
ACAD_MTEXT_DEFINED_HEIGHT_END
  0
MTEXT
  5
37D9
330
A
100
AcDbEntity
  8
TEMPLATE
390
1D
100
AcDbMText
 10
64.79466311943395
 20
94.95912278086327
 30
0.0
 40
12.21630859375
 41
0.0
 46
12.39955322265625
 71
     1
 72
     1
  1
{クローム}
  7
ＭＳ ゴシック
 73
     1
 44
0.7828267384257843
1001
ACAD
1000
ACAD_MTEXT_DEFINED_HEIGHT_BEGIN
1070
    46
1040
12.39955322265625
1000
ACAD_MTEXT_DEFINED_HEIGHT_END
  0
MTEXT
  5
37FA
330
A
100
AcDbEntity
  8
TEMPLATE
390
1D
100
AcDbMText
 10
64.79466311943395
 20
114.2401918819254
 30
0.0
 40
12.21630859375
 41
0.0
 46
13.1450963422807
 71
     1
 72
     1
  1
{ディバーター(切り替え)付き}
  7
ＭＳ ゴシック
 73
     1
 44
0.7828267384257843
1001
ACAD
1000
ACAD_MTEXT_DEFINED_HEIGHT_BEGIN
1070
    46
1040
13.1450963422807
1000
ACAD_MTEXT_DEFINED_HEIGHT_END
  0
MTEXT
  5
3820
330
A
100
AcDbEntity
  8
MODEL
100
AcDbMText
 10
64.92878143483384
 20
199.9185736241336
 30
0.0
 40
12.0
 41
216.5354440060697
 46
87.44243077490933
 71
     1
 72
     1
  1
■流量 0.3Mpa時 22.2L/min
  7
ＭＳ ゴシック
 73
     1
 44
1.0
1001
ACAD
1000
ACAD_MTEXT_DEFINED_HEIGHT_BEGIN
1070
    46
1040
87.44243077490933
1000
ACAD_MTEXT_DEFINED_HEIGHT_END
  0
VIEWPORT
  5
349
330
B
100
AcDbEntity
 67
     1
  8
0
100
AcDbViewport
 10
202.5
 20
128.5
 30
0.0
 40
486.0
 41
308.4
 68
     1
 69
     1
 12
202.5
 22
128.5
 13
0.0
 23
0.0
 14
0.5
 24
0.5
 15
0.0
 25
0.0
 16
0.0
 26
0.0
 36
1.0
 17
0.0
 27
0.0
 37
0.0
 42
50.0
 43
0.0
 44
0.0
 45
308.4
 50
0.0
 51
0.0
 72
   100
 90
   557152
  1

281
     0
 71
     1
 74
     0
110
0.0
120
0.0
130
0.0
111
1.0
121
0.0
131
0.0
112
0.0
122
1.0
132
0.0
 79
     0
146
0.0
170
     0
 61
     5
348
26C
292
     1
282
     1
141
0.0
142
0.0
 63
   256
  0
VIEWPORT
  5
34A
330
B
100
AcDbEntity
 67
     1
  8
0
100
AcDbViewport
 10
202.5
 20
128.5
 30
0.0
 40
324.0
 41
205.6
 68
     2
 69
     2
 12
986.6781359294573
 22
1427.077061889956
 13
0.0
 23
0.0
 14
0.5
 24
0.5
 15
0.0
 25
0.0
 16
0.0
 26
0.0
 36
1.0
 17
0.0
 27
0.0
 37
0.0
 42
50.0
 43
0.0
 44
0.0
 45
2890.021615685494
 50
0.0
 51
0.0
 72
   100
 90
   557152
  1

281
     0
 71
     1
 74
     0
110
0.0
120
0.0
130
0.0
111
1.0
121
0.0
131
0.0
112
0.0
122
1.0
132
0.0
 79
     0
146
0.0
170
     0
 61
     5
348
26C
292
     1
282
     1
141
0.0
142
0.0
 63
   256
  0
ENDSEC
  0
SECTION
  2
OBJECTS
  0
DICTIONARY
  5
19
330
0
100
AcDbDictionary
281
     1
  3
ACAD_COLOR
350
674
  3
ACAD_DETAILVIEWSTYLE
350
BBF
  3
ACAD_FIELDLIST
350
16CE
  3
ACAD_GROUP
350
1A
  3
ACAD_IMAGE_VARS
350
27B
  3
ACAD_LAYOUT
350
1E
  3
ACAD_MATERIAL
350
263
  3
ACAD_MLEADERSTYLE
350
336
  3
ACAD_MLINESTYLE
350
1B
  3
ACAD_PLOTSETTINGS
350
22
  3
ACAD_PLOTSTYLENAME
350
1F
  3
ACAD_SCALELIST
350
241
  3
ACAD_SECTIONVIEWSTYLE
350
BC0
  3
ACAD_TABLESTYLE
350
278
  3
ACAD_VISUALSTYLE
350
267
  3
ACDB_RECOMPOSE_DATA
350
3828
  3
AcDbVariableDictionary
350
330
  3
APPDATA
350
27A
  3
DimOffsetDictionary
350
E38
  0
SUN
  5
904
330
15
100
AcDbSun
 90
        1
290
     0
 63
     7
421
 16777215
 40
1.0
291
     1
 91
  2455826
 92
 54000000
292
     0
 70
     2
 71
   256
280
     1
  0
DICTIONARY
  5
2E1
330
2
100
AcDbDictionary
280
     1
281
     1
  3
ACAD_LAYERSTATES
360
2E2
  3
ACLYDICTIONARY
360
DDE
  0
DICTIONARY
  5
24B4
330
A
100
AcDbDictionary
280
     1
281
     1
  3
ACAD_SORTENTS
360
24B5
  3
DIM_BOUNDING_BOXES_V1
360
37DB
  0
DICTIONARY
  5
16F1
330
16F0
100
AcDbDictionary
280
     1
281
     1
  3
ACAD_FIELD
360
3822
  0
DICTIONARY
  5
674
102
{ACAD_REACTORS
330
19
102
}
330
19
100
AcDbDictionary
281
     1
  0
DICTIONARY
  5
BBF
102
{ACAD_REACTORS
330
19
102
}
330
19
100
AcDbDictionary
281
     1
  0
FIELDLIST
  5
16CE
102
{ACAD_REACTORS
330
19
102
}
330
19
100
AcDbIdSet
 90
        2
330
16F4
330
16F3
100
AcDbFieldList
  0
DICTIONARY
  5
1A
102
{ACAD_REACTORS
330
19
102
}
330
19
100
AcDbDictionary
281
     1
  3
*A1
350
24A3
  0
RASTERVARIABLES
  5
27B
102
{ACAD_REACTORS
330
19
102
}
330
19
100
AcDbRasterVariables
 90
        0
 70
     1
 71
     1
 72
     1
  0
DICTIONARY
  5
1E
102
{ACAD_REACTORS
330
19
102
}
330
19
100
AcDbDictionary
281
     1
  3
Layout1
350
21
  3
Model
350
20
  0
DICTIONARY
  5
263
102
{ACAD_REACTORS
330
19
102
}
330
19
100
AcDbDictionary
281
     1
  3
ByBlock
350
265
  3
ByLayer
350
264
  3
Global
350
266
  0
DICTIONARY
  5
336
102
{ACAD_REACTORS
330
19
102
}
330
19
100
AcDbDictionary
281
     1
  3
Standard
350
D59
  0
DICTIONARY
  5
1B
102
{ACAD_REACTORS
330
19
102
}
330
19
100
AcDbDictionary
281
     1
  3
Standard
350
1C
  0
DICTIONARY
  5
22
102
{ACAD_REACTORS
330
19
102
}
330
19
100
AcDbDictionary
281
     1
  0
ACDBDICTIONARYWDFLT
  5
1F
102
{ACAD_REACTORS
330
19
102
}
330
19
100
AcDbDictionary
281
     1
  3
Normal
350
1D
100
AcDbDictionaryWithDefault
340
1D
  0
DICTIONARY
  5
241
102
{ACAD_REACTORS
330
19
102
}
330
19
100
AcDbDictionary
281
     1
  3
A0
350
242
  3
A1
350
243
  3
A2
350
244
  3
A3
350
245
  3
A4
350
246
  3
A5
350
247
  3
A6
350
248
  3
A7
350
249
  3
A8
350
24A
  3
A9
350
24B
  3
B0
350
24C
  3
B1
350
24D
  3
B2
350
24E
  3
B3
350
24F
  3
B4
350
250
  3
B5
350
251
  3
B6
350
252
  3
B7
350
253
  3
B8
350
254
  3
B9
350
255
  3
C0
350
256
  3
C1
350
257
  3
C2
350
258
  3
C3
350
259
  3
C4
350
25A
  3
C5
350
25B
  3
C6
350
25C
  3
C7
350
25D
  3
C8
350
25E
  3
C9
350
25F
  3
D0
350
260
  3
D1
350
261
  3
D2
350
262
  0
DICTIONARY
  5
BC0
102
{ACAD_REACTORS
330
19
102
}
330
19
100
AcDbDictionary
281
     1
  0
DICTIONARY
  5
278
102
{ACAD_REACTORS
330
19
102
}
330
19
100
AcDbDictionary
281
     1
  3
Standard
350
279
  0
DICTIONARY
  5
267
102
{ACAD_REACTORS
330
19
102
}
330
19
100
AcDbDictionary
281
     1
  3
2dWireframe
350
26C
  3
3D Hidden
350
26E
  3
3dWireframe
350
26D
  3
Basic
350
26F
  3
Brighten
350
273
  3
ColorChange
350
277
  3
Conceptual
350
271
  3
Dim
350
272
  3
EdgeColorOff
350
8FE
  3
Facepattern
350
276
  3
Flat
350
268
  3
FlatWithEdges
350
269
  3
Gouraud
350
26A
  3
GouraudWithEdges
350
26B
  3
Hidden
350
8FB
  3
JitterOff
350
8FC
  3
Linepattern
350
275
  3
OverhangOff
350
8FD
  3
Realistic
350
270
  3
Shaded
350
903
  3
Shaded with edges
350
902
  3
Shades of Gray
350
8FF
  3
Sketchy
350
900
  3
Thicken
350
274
  3
Wireframe
350
8FA
  3
X-Ray
350
901
  0
XRECORD
  5
3828
102
{ACAD_REACTORS
330
19
102
}
330
19
100
AcDbXrecord
280
     1
 90
        1
330
279
  0
DICTIONARY
  5
330
102
{ACAD_REACTORS
330
19
102
}
330
19
100
AcDbDictionary
281
     1
  3
CANNOSCALE
350
331
  3
CMLEADERSTYLE
350
D5E
  3
CTABLESTYLE
350
335
  3
HPTRANSPARENCY
350
D52
  3
XCLIPFRAME
350
896
  0
DICTIONARY
  5
27A
102
{ACAD_REACTORS
330
19
102
}
330
19
100
AcDbDictionary
281
     1
  0
DICTIONARY
  5
E38
102
{ACAD_REACTORS
330
19
102
}
330
19
100
AcDbDictionary
281
     1
  3
DIMRAILANGLE
350
1614
  3
DIMRAILFIRSTOFFSET
350
1612
  3
DIMRAILOFFSET
350
1613
  3
DIMRAILSENABLED
350
1615
  0
DICTIONARY
  5
2E2
102
{ACAD_REACTORS
330
2E1
102
}
330
2E1
100
AcDbDictionary
281
     1
  0
DICTIONARY
  5
DDE
102
{ACAD_REACTORS
330
2E1
102
}
330
2E1
100
AcDbDictionary
281
     1
1001
ACAD
1000
<All
  0
SORTENTSTABLE
  5
24B5
102
{ACAD_REACTORS
330
24B4
102
}
330
24B4
100
AcDbSortentsTable
330
A
331
2492
  5
244D
331
2493
  5
2491
331
249E
  5
2492
331
249F
  5
2493
331
24A0
  5
249E
331
24A1
  5
249F
331
24A2
  5
24A0
  0
DICTIONARY
  5
37DB
102
{ACAD_REACTORS
330
24B4
102
}
330
24B4
100
AcDbDictionary
281
     1
  0
DICTIONARY
  5
3822
102
{ACAD_REACTORS
330
16F1
102
}
330
16F1
100
AcDbDictionary
280
     1
281
     1
  3
TEXT
360
16F3
  0
GROUP
  5
24A3
102
{ACAD_REACTORS
330
1A
102
}
330
1A
100
AcDbGroup
300

 70
     1
 71
     1
340
2492
340
2493
340
249E
340
249F
340
24A0
340
24A1
340
24A2
  0
LAYOUT
  5
21
102
{ACAD_REACTORS
330
1E
102
}
330
1E
100
AcDbPlotSettings
  1

  2
none_device
  4
ISO_A3_(420.00_x_297.00_MM)
  6

 40
7.5
 41
20.0
 42
7.5
 43
20.0
 44
420.0
 45
297.0
 46
0.0
 47
0.0
 48
0.0
 49
0.0
140
0.0
141
0.0
142
1.0
143
1.0
 70
     0
 72
     1
 73
     0
 74
     0
  7

 75
     0
 76
     0
 77
     2
 78
   300
147
1.0
148
0.0
149
0.0
100
AcDbLayout
  1
Layout1
 70
     0
 71
     0
 10
-7.5
 20
-20.0
 11
412.5
 21
277.0
 12
0.0
 22
0.0
 32
0.0
 14
0.0
 24
0.0
 34
0.0
 15
0.0
 25
0.0
 35
0.0
146
0.0
 13
0.0
 23
0.0
 33
0.0
 16
0.0
 26
0.0
 36
0.0
 17
0.0
 27
0.0
 37
0.0
 76
     0
330
B
331
349
  0
LAYOUT
  5
20
102
{ACAD_REACTORS
330
1E
102
}
330
1E
100
AcDbPlotSettings
  1

  2
Adobe PDF
  4
A4
  6

 40
0.0600000000000023
 41
0.0000000000000205
 42
0.0
 43
0.04
 44
210.0
 45
297.0
 46
0.0
 47
0.0
 48
0.0
 49
0.0
140
0.0
141
0.0
142
1.0
143
5.001428979708488
 70
  1584
 72
     1
 73
     0
 74
     2
  7
monochrome.ctb
 75
     0
 76
 25973
 77
     2
 78
   300
147
0.1999428571428571
148
-616.0201356709006
149
-668.901285469834
100
AcDbLayout
  1
Model
 70
     0
 71
     1
 10
0.0
 20
0.0
 11
1050.0
 21
1485.0
 12
0.0
 22
0.0
 32
0.0
 14
0.0
 24
0.0
 34
-0.0000000000000142
 15
1050.0
 25
1485.0
 35
0.0000000000000071
146
0.0
 13
0.0
 23
0.0
 33
0.0
 16
0.0
 26
0.0
 36
0.0
 17
0.0
 27
0.0
 37
0.0
 76
     0
330
A
331
15
1001
PLOTTRANSPARENCY
1071
        0
  0
MATERIAL
  5
265
102
{ACAD_REACTORS
330
263
102
}
330
263
100
AcDbMaterial
  1
ByBlock
 72
     1
 94
      127
  0
MATERIAL
  5
264
102
{ACAD_REACTORS
330
263
102
}
330
263
100
AcDbMaterial
  1
ByLayer
 72
     1
 94
      127
  0
MATERIAL
  5
266
102
{ACAD_REACTORS
330
263
102
}
330
263
100
AcDbMaterial
  1
Global
 72
     1
 94
      127
  0
MLEADERSTYLE
  5
D59
102
{ACAD_REACTORS
330
336
102
}
330
336
100
AcDbMLeaderStyle
170
     2
171
     1
172
     0
 90
        2
 40
0.0
 41
0.0
173
     1
 91
-1056964608
340
11
 92
       -2
290
     1
 42
2.0
291
     1
 43
8.0
  3
Standard
341
0
 44
4.0
300

342
17
174
     1
178
     6
175
     1
176
     0
 93
-1056964608
 45
4.0
292
     0
297
     0
 46
4.0
343
0
 94
-1056964608
 47
1.0
 49
1.0
140
1.0
293
     1
141
0.0
294
     1
177
     0
142
1.0
295
     0
296
     0
143
3.75
1001
ACAD_MLEADERVER
1070
     2
  0
MLINESTYLE
  5
1C
102
{ACAD_REACTORS
330
1B
102
}
330
1B
100
AcDbMlineStyle
  2
Standard
 70
     0
  3

 62
     0
 51
90.0
 52
90.0
 71
     2
 49
0.5
 62
   256
  6
BYLAYER
 49
-0.5
 62
   256
  6
BYLAYER
  0
ACDBPLACEHOLDER
  5
1D
102
{ACAD_REACTORS
330
1F
102
}
330
1F
  0
SCALE
  5
242
102
{ACAD_REACTORS
330
241
102
}
330
241
100
AcDbScale
 70
     0
300
1:1
140
1.0
141
1.0
290
     1
  0
SCALE
  5
243
102
{ACAD_REACTORS
330
241
102
}
330
241
100
AcDbScale
 70
     0
300
1:2
140
1.0
141
2.0
290
     0
  0
SCALE
  5
244
102
{ACAD_REACTORS
330
241
102
}
330
241
100
AcDbScale
 70
     0
300
1:4
140
1.0
141
4.0
290
     0
  0
SCALE
  5
245
102
{ACAD_REACTORS
330
241
102
}
330
241
100
AcDbScale
 70
     0
300
1:5
140
1.0
141
5.0
290
     0
  0
SCALE
  5
246
102
{ACAD_REACTORS
330
241
102
}
330
241
100
AcDbScale
 70
     0
300
1:8
140
1.0
141
8.0
290
     0
  0
SCALE
  5
247
102
{ACAD_REACTORS
330
241
102
}
330
241
100
AcDbScale
 70
     0
300
1:10
140
1.0
141
10.0
290
     0
  0
SCALE
  5
248
102
{ACAD_REACTORS
330
241
102
}
330
241
100
AcDbScale
 70
     0
300
1:16
140
1.0
141
16.0
290
     0
  0
SCALE
  5
249
102
{ACAD_REACTORS
330
241
102
}
330
241
100
AcDbScale
 70
     0
300
1:20
140
1.0
141
20.0
290
     0
  0
SCALE
  5
24A
102
{ACAD_REACTORS
330
241
102
}
330
241
100
AcDbScale
 70
     0
300
1:30
140
1.0
141
30.0
290
     0
  0
SCALE
  5
24B
102
{ACAD_REACTORS
330
241
102
}
330
241
100
AcDbScale
 70
     0
300
1:40
140
1.0
141
40.0
290
     0
  0
SCALE
  5
24C
102
{ACAD_REACTORS
330
241
102
}
330
241
100
AcDbScale
 70
     0
300
1:50
140
1.0
141
50.0
290
     0
  0
SCALE
  5
24D
102
{ACAD_REACTORS
330
241
102
}
330
241
100
AcDbScale
 70
     0
300
1:100
140
1.0
141
100.0
290
     0
  0
SCALE
  5
24E
102
{ACAD_REACTORS
330
241
102
}
330
241
100
AcDbScale
 70
     0
300
2:1
140
2.0
141
1.0
290
     0
  0
SCALE
  5
24F
102
{ACAD_REACTORS
330
241
102
}
330
241
100
AcDbScale
 70
     0
300
4:1
140
4.0
141
1.0
290
     0
  0
SCALE
  5
250
102
{ACAD_REACTORS
330
241
102
}
330
241
100
AcDbScale
 70
     0
300
8:1
140
8.0
141
1.0
290
     0
  0
SCALE
  5
251
102
{ACAD_REACTORS
330
241
102
}
330
241
100
AcDbScale
 70
     0
300
10:1
140
10.0
141
1.0
290
     0
  0
SCALE
  5
252
102
{ACAD_REACTORS
330
241
102
}
330
241
100
AcDbScale
 70
     0
300
100:1
140
100.0
141
1.0
290
     0
  0
SCALE
  5
253
102
{ACAD_REACTORS
330
241
102
}
330
241
100
AcDbScale
 70
     0
300
1/128" = 1'-0"
140
0.0078125
141
12.0
290
     0
  0
SCALE
  5
254
102
{ACAD_REACTORS
330
241
102
}
330
241
100
AcDbScale
 70
     0
300
1/64" = 1'-0"
140
0.015625
141
12.0
290
     0
  0
SCALE
  5
255
102
{ACAD_REACTORS
330
241
102
}
330
241
100
AcDbScale
 70
     0
300
1/32" = 1'-0"
140
0.03125
141
12.0
290
     0
  0
SCALE
  5
256
102
{ACAD_REACTORS
330
241
102
}
330
241
100
AcDbScale
 70
     0
300
1/16" = 1'-0"
140
0.0625
141
12.0
290
     0
  0
SCALE
  5
257
102
{ACAD_REACTORS
330
241
102
}
330
241
100
AcDbScale
 70
     0
300
3/32" = 1'-0"
140
0.09375
141
12.0
290
     0
  0
SCALE
  5
258
102
{ACAD_REACTORS
330
241
102
}
330
241
100
AcDbScale
 70
     0
300
1/8" = 1'-0"
140
0.125
141
12.0
290
     0
  0
SCALE
  5
259
102
{ACAD_REACTORS
330
241
102
}
330
241
100
AcDbScale
 70
     0
300
3/16" = 1'-0"
140
0.1875
141
12.0
290
     0
  0
SCALE
  5
25A
102
{ACAD_REACTORS
330
241
102
}
330
241
100
AcDbScale
 70
     0
300
1/4" = 1'-0"
140
0.25
141
12.0
290
     0
  0
SCALE
  5
25B
102
{ACAD_REACTORS
330
241
102
}
330
241
100
AcDbScale
 70
     0
300
3/8" = 1'-0"
140
0.375
141
12.0
290
     0
  0
SCALE
  5
25C
102
{ACAD_REACTORS
330
241
102
}
330
241
100
AcDbScale
 70
     0
300
1/2" = 1'-0"
140
0.5
141
12.0
290
     0
  0
SCALE
  5
25D
102
{ACAD_REACTORS
330
241
102
}
330
241
100
AcDbScale
 70
     0
300
3/4" = 1'-0"
140
0.75
141
12.0
290
     0
  0
SCALE
  5
25E
102
{ACAD_REACTORS
330
241
102
}
330
241
100
AcDbScale
 70
     0
300
1" = 1'-0"
140
1.0
141
12.0
290
     0
  0
SCALE
  5
25F
102
{ACAD_REACTORS
330
241
102
}
330
241
100
AcDbScale
 70
     0
300
1-1/2" = 1'-0"
140
1.5
141
12.0
290
     0
  0
SCALE
  5
260
102
{ACAD_REACTORS
330
241
102
}
330
241
100
AcDbScale
 70
     0
300
3" = 1'-0"
140
3.0
141
12.0
290
     0
  0
SCALE
  5
261
102
{ACAD_REACTORS
330
241
102
}
330
241
100
AcDbScale
 70
     0
300
6" = 1'-0"
140
6.0
141
12.0
290
     0
  0
SCALE
  5
262
102
{ACAD_REACTORS
330
241
102
}
330
241
100
AcDbScale
 70
     0
300
1'-0" = 1'-0"
140
12.0
141
12.0
290
     0
  0
TABLESTYLE
  5
279
102
{ACAD_REACTORS
330
278
102
}
102
{ACAD_XDICTIONARY
360
3826
102
}
330
278
100
AcDbTableStyle
  3
Standard
 70
     0
 71
     0
 40
0.06
 41
0.06
280
     0
281
     0
  7
Standard
140
4.5
170
     2
 62
     0
 63
   257
283
     0
 90
        4
 91
        0
  1

274
    -2
284
     1
 64
     0
275
    -2
285
     1
 65
     0
276
    -2
286
     1
 66
     0
277
    -2
287
     1
 67
     0
278
    -2
288
     1
 68
     0
279
    -2
289
     1
 69
     0
  7
Standard
140
6.0
170
     5
 62
     0
 63
   257
283
     0
 90
        4
 91
        0
  1

274
    -2
284
     1
 64
     0
275
    -2
285
     1
 65
     0
276
    -2
286
     1
 66
     0
277
    -2
287
     1
 67
     0
278
    -2
288
     1
 68
     0
279
    -2
289
     1
 69
     0
  7
Standard
140
4.5
170
     5
 62
     0
 63
   257
283
     0
 90
        4
 91
        0
  1

274
    -2
284
     1
 64
     0
275
    -2
285
     1
 65
     0
276
    -2
286
     1
 66
     0
277
    -2
287
     1
 67
     0
278
    -2
288
     1
 68
     0
279
    -2
289
     1
 69
     0
  0
VISUALSTYLE
  5
26C
102
{ACAD_REACTORS
330
267
102
}
330
267
100
AcDbVisualStyle
  2
2dWireframe
 70
     4
 71
     0
 72
     2
 73
     0
 90
        0
 40
-0.6
 41
-30.0
 62
     5
 63
     7
421
 16777215
 74
     1
 91
        4
 64
     7
 65
   257
 75
     1
175
     1
 42
1.0
 92
        0
 66
   257
 43
1.0
 76
     1
 77
     6
 78
     2
 67
     7
 79
     5
170
     0
171
     0
290
     0
174
     0
 93
        1
 44
0.0
173
     0
291
     0
 45
0.0
  0
VISUALSTYLE
  5
26E
102
{ACAD_REACTORS
330
267
102
}
330
267
100
AcDbVisualStyle
  2
3D Hidden
 70
     6
 71
     1
 72
     2
 73
     2
 90
        0
 40
-0.6
 41
-30.0
 62
     5
 63
     7
421
 16777215
 74
     2
 91
        2
 64
     7
 65
   257
 75
     2
175
     1
 42
40.0
 92
        0
 66
   257
 43
1.0
 76
     1
 77
     6
 78
     2
 67
     7
 79
     3
170
     0
171
     0
290
     0
174
     0
 93
        1
 44
0.0
173
     0
291
     0
 45
0.0
  0
VISUALSTYLE
  5
26D
102
{ACAD_REACTORS
330
267
102
}
330
267
100
AcDbVisualStyle
  2
3dWireframe
 70
     5
 71
     0
 72
     2
 73
     0
 90
        0
 40
-0.6
 41
-30.0
 62
     5
 63
     7
421
 16777215
 74
     1
 91
        4
 64
     7
 65
   257
 75
     1
175
     1
 42
1.0
 92
        0
 66
   257
 43
1.0
 76
     1
 77
     6
 78
     2
 67
     7
 79
     5
170
     0
171
     0
290
     0
174
     0
 93
        1
 44
0.0
173
     0
291
     0
 45
0.0
  0
VISUALSTYLE
  5
26F
102
{ACAD_REACTORS
330
267
102
}
330
267
100
AcDbVisualStyle
  2
Basic
 70
     7
 71
     1
 72
     0
 73
     1
 90
        0
 40
-0.6
 41
-30.0
 62
     5
 63
     7
421
 16777215
 74
     0
 91
        4
 64
     7
 65
   257
 75
     1
175
     1
 42
1.0
 92
        8
 66
     7
 43
1.0
 76
     1
 77
     6
 78
     2
 67
     7
 79
     5
170
     0
171
     0
290
     0
174
     0
 93
        1
 44
0.0
173
     0
291
     1
 45
0.0
  0
VISUALSTYLE
  5
273
102
{ACAD_REACTORS
330
267
102
}
330
267
100
AcDbVisualStyle
  2
Brighten
 70
    12
 71
     2
 72
     2
 73
     0
 90
        0
 40
-0.6
 41
-30.0
 62
     5
 63
     7
421
 16777215
 74
     1
 91
        4
 64
     7
 65
   257
 75
     1
175
     1
 42
1.0
 92
        8
 66
     7
 43
1.0
 76
     1
 77
     6
 78
     2
 67
     7
 79
     5
170
     0
171
     0
290
     0
174
     0
 93
        1
 44
50.0
173
     0
291
     1
 45
0.0
  0
VISUALSTYLE
  5
277
102
{ACAD_REACTORS
330
267
102
}
330
267
100
AcDbVisualStyle
  2
ColorChange
 70
    16
 71
     2
 72
     2
 73
     3
 90
        0
 40
-0.6
 41
-30.0
 62
     5
 63
     8
421
  8421504
 74
     1
 91
        4
 64
     7
 65
   257
 75
     1
175
     1
 42
1.0
 92
        8
 66
     8
424
  8421504
 43
1.0
 76
     1
 77
     6
 78
     2
 67
     7
 79
     5
170
     0
171
     0
290
     0
174
     0
 93
        1
 44
0.0
173
     0
291
     1
 45
0.0
  0
VISUALSTYLE
  5
271
102
{ACAD_REACTORS
330
267
102
}
330
267
100
AcDbVisualStyle
  2
Conceptual
 70
     9
 71
     3
 72
     2
 73
     0
 90
        0
 40
-0.6
 41
-30.0
 62
     5
 63
     7
421
 16777215
 74
     2
 91
        2
 64
     7
 65
   257
 75
     1
175
     1
 42
40.0
 92
        8
 66
     7
 43
1.0
 76
     1
 77
     6
 78
     2
 67
     7
 79
     3
170
     0
171
     0
290
     0
174
     0
 93
        1
 44
0.0
173
     0
291
     0
 45
0.0
  0
VISUALSTYLE
  5
272
102
{ACAD_REACTORS
330
267
102
}
330
267
100
AcDbVisualStyle
  2
Dim
 70
    11
 71
     2
 72
     2
 73
     0
 90
        0
 40
-0.6
 41
-30.0
 62
     5
 63
     7
421
 16777215
 74
     1
 91
        4
 64
     7
 65
   257
 75
     1
175
     1
 42
1.0
 92
        8
 66
     7
 43
1.0
 76
     1
 77
     6
 78
     2
 67
     7
 79
     5
170
     0
171
     0
290
     0
174
     0
 93
        1
 44
-50.0
173
     0
291
     1
 45
0.0
  0
VISUALSTYLE
  5
8FE
102
{ACAD_REACTORS
330
267
102
}
330
267
100
AcDbVisualStyle
  2
EdgeColorOff
 70
    22
 71
     2
 72
     2
 73
     0
 90
        0
 40
0.6
 41
30.0
 62
     5
 63
     7
421
 16777215
 74
     1
 91
        4
 64
     7
 65
   257
 75
     1
175
     1
 42
1.0
 92
        8
 66
     7
 43
1.0
 76
     1
 77
     6
 78
     2
 67
     7
 79
     5
170
     0
171
     0
290
     0
174
     0
 93
        1
 44
0.0
173
     0
291
     1
 45
0.0
  0
VISUALSTYLE
  5
276
102
{ACAD_REACTORS
330
267
102
}
330
267
100
AcDbVisualStyle
  2
Facepattern
 70
    15
 71
     2
 72
     2
 73
     0
 90
        0
 40
-0.6
 41
-30.0
 62
     5
 63
     7
421
 16777215
 74
     1
 91
        4
 64
     7
 65
   257
 75
     1
175
     1
 42
1.0
 92
        8
 66
     7
 43
1.0
 76
     1
 77
     6
 78
     2
 67
     7
 79
     5
170
     0
171
     0
290
     0
174
     0
 93
        1
 44
0.0
173
     0
291
     1
 45
0.0
  0
VISUALSTYLE
  5
268
102
{ACAD_REACTORS
330
267
102
}
330
267
100
AcDbVisualStyle
  2
Flat
 70
     0
 71
     2
 72
     1
 73
     1
 90
        2
 40
-0.6
 41
30.0
 62
     5
 63
     7
421
 16777215
 74
     0
 91
        4
 64
     7
 65
   257
 75
     1
175
     1
 42
1.0
 92
        8
 66
     7
 43
1.0
 76
     1
 77
     6
 78
     2
 67
     7
 79
     5
170
     0
171
     0
290
     0
174
     0
 93
       13
 44
0.0
173
     0
291
     1
 45
0.0
  0
VISUALSTYLE
  5
269
102
{ACAD_REACTORS
330
267
102
}
330
267
100
AcDbVisualStyle
  2
FlatWithEdges
 70
     1
 71
     2
 72
     1
 73
     1
 90
        2
 40
-0.6
 41
30.0
 62
     5
 63
     7
421
 16777215
 74
     1
 91
        4
 64
     7
 65
   257
 75
     1
175
     1
 42
1.0
 92
        0
 66
   257
 43
1.0
 76
     1
 77
     6
 78
     2
 67
     7
 79
     5
170
     0
171
     0
290
     0
174
     0
 93
       13
 44
0.0
173
     0
291
     1
 45
0.0
  0
VISUALSTYLE
  5
26A
102
{ACAD_REACTORS
330
267
102
}
330
267
100
AcDbVisualStyle
  2
Gouraud
 70
     2
 71
     2
 72
     2
 73
     1
 90
        2
 40
-0.6
 41
30.0
 62
     5
 63
     7
421
 16777215
 74
     0
 91
        4
 64
     7
 65
   257
 75
     1
175
     1
 42
1.0
 92
        0
 66
     7
 43
1.0
 76
     1
 77
     6
 78
     2
 67
     7
 79
     5
170
     0
171
     0
290
     0
174
     0
 93
       13
 44
0.0
173
     0
291
     1
 45
0.0
  0
VISUALSTYLE
  5
26B
102
{ACAD_REACTORS
330
267
102
}
330
267
100
AcDbVisualStyle
  2
GouraudWithEdges
 70
     3
 71
     2
 72
     2
 73
     1
 90
        2
 40
-0.6
 41
30.0
 62
     5
 63
     7
421
 16777215
 74
     1
 91
        4
 64
     7
 65
   257
 75
     1
175
     1
 42
1.0
 92
        0
 66
   257
 43
1.0
 76
     1
 77
     6
 78
     2
 67
     7
 79
     5
170
     0
171
     0
290
     0
174
     0
 93
       13
 44
0.0
173
     0
291
     1
 45
0.0
  0
VISUALSTYLE
  5
8FB
102
{ACAD_REACTORS
330
267
102
}
330
267
100
AcDbVisualStyle
  2
Hidden
 70
     6
 71
     1
 72
     2
 73
     2
 90
        0
 40
0.6
 41
30.0
 62
     5
 63
     7
421
 16777215
 74
     2
 91
        2
 64
     7
 65
   257
 75
     2
175
     1
 42
40.0
 92
        0
 66
   257
 43
1.0
 76
     1
 77
     6
 78
     2
 67
     7
 79
     3
170
     0
171
     0
290
     0
174
     0
 93
        1
 44
0.0
173
     0
291
     0
 45
0.0
  0
VISUALSTYLE
  5
8FC
102
{ACAD_REACTORS
330
267
102
}
330
267
100
AcDbVisualStyle
  2
JitterOff
 70
    20
 71
     2
 72
     2
 73
     0
 90
        0
 40
0.6
 41
30.0
 62
     5
 63
     7
421
 16777215
 74
     1
 91
        4
 64
     7
 65
   257
 75
     1
175
     1
 42
1.0
 92
       10
 66
     7
 43
1.0
 76
     1
 77
     6
 78
     2
 67
     7
 79
     5
170
     0
171
     0
290
     0
174
     0
 93
        1
 44
0.0
173
     0
291
     1
 45
0.0
  0
VISUALSTYLE
  5
275
102
{ACAD_REACTORS
330
267
102
}
330
267
100
AcDbVisualStyle
  2
Linepattern
 70
    14
 71
     2
 72
     2
 73
     0
 90
        0
 40
-0.6
 41
-30.0
 62
     5
 63
     7
421
 16777215
 74
     1
 91
        4
 64
     7
 65
   257
 75
     7
175
     7
 42
1.0
 92
        8
 66
     7
 43
1.0
 76
     1
 77
     6
 78
     2
 67
     7
 79
     5
170
     0
171
     0
290
     0
174
     0
 93
        1
 44
0.0
173
     0
291
     1
 45
0.0
  0
VISUALSTYLE
  5
8FD
102
{ACAD_REACTORS
330
267
102
}
330
267
100
AcDbVisualStyle
  2
OverhangOff
 70
    21
 71
     2
 72
     2
 73
     0
 90
        0
 40
0.6
 41
30.0
 62
     5
 63
     7
421
 16777215
 74
     1
 91
        4
 64
     7
 65
   257
 75
     1
175
     1
 42
1.0
 92
        9
 66
     7
 43
1.0
 76
     1
 77
     6
 78
     2
 67
     7
 79
     5
170
     0
171
     0
290
     0
174
     0
 93
        1
 44
0.0
173
     0
291
     1
 45
0.0
  0
VISUALSTYLE
  5
270
102
{ACAD_REACTORS
330
267
102
}
330
267
100
AcDbVisualStyle
  2
Realistic
 70
     8
 71
     2
 72
     2
 73
     0
 90
        0
 40
-0.6
 41
-30.0
 62
     5
 63
     7
421
 16777215
 74
     1
 91
        0
 64
     7
 65
   257
 75
     1
175
     1
 42
1.0
 92
        8
 66
     8
424
  7895160
 43
1.0
 76
     1
 77
     6
 78
     2
 67
     7
 79
     5
170
     0
171
     0
290
     0
174
     0
 93
       13
 44
0.0
173
     0
291
     0
 45
0.0
  0
VISUALSTYLE
  5
903
102
{ACAD_REACTORS
330
267
102
}
330
267
100
AcDbVisualStyle
  2
Shaded
 70
    27
 71
     2
 72
     2
 73
     1
 90
        2
 40
0.6
 41
30.0
 62
     5
 63
     7
421
 16777215
 74
     0
 91
        4
 64
     7
 65
   257
 75
     1
175
     1
 42
1.0
 92
        8
 66
   257
 43
1.0
 76
     1
 77
     6
 78
     2
 67
     8
425
  7895160
 79
     3
170
     0
171
     0
290
     0
174
     0
 93
        5
 44
0.0
173
     0
291
     0
 45
0.0
  0
VISUALSTYLE
  5
902
102
{ACAD_REACTORS
330
267
102
}
330
267
100
AcDbVisualStyle
  2
Shaded with edges
 70
    26
 71
     2
 72
     2
 73
     1
 90
        2
 40
0.6
 41
30.0
 62
     5
 63
     7
421
 16777215
 74
     1
 91
       10
 64
     7
 65
   257
 75
     2
175
     1
 42
1.0
 92
        8
 66
   257
 43
1.0
 76
     1
 77
     6
 78
     2
 67
     7
 79
     3
170
     0
171
     0
290
     0
174
     0
 93
        5
 44
0.0
173
     0
291
     0
 45
0.0
  0
VISUALSTYLE
  5
8FF
102
{ACAD_REACTORS
330
267
102
}
330
267
100
AcDbVisualStyle
  2
Shades of Gray
 70
    23
 71
     2
 72
     2
 73
     3
 90
        0
 40
0.6
 41
30.0
 62
     5
 63
     7
421
 16777215
 74
     2
 91
        2
 64
     7
 65
     7
 75
     1
175
     1
 42
40.0
 92
        8
 66
     7
 43
1.0
 76
     1
 77
     6
 78
     2
 67
     7
 79
     3
170
     0
171
     0
290
     0
174
     0
 93
        1
 44
0.0
173
     0
291
     0
 45
0.0
  0
VISUALSTYLE
  5
900
102
{ACAD_REACTORS
330
267
102
}
330
267
100
AcDbVisualStyle
  2
Sketchy
 70
    24
 71
     1
 72
     2
 73
     2
 90
        0
 40
0.6
 41
30.0
 62
     5
 63
     7
421
 16777215
 74
     2
 91
        2
 64
     7
 65
     7
 75
     1
175
     1
 42
40.0
 92
       11
 66
     7
 43
1.0
 76
     1
 77
     6
 78
     2
 67
     7
 79
     6
170
     0
171
     0
290
     0
174
     0
 93
        1
 44
0.0
173
     0
291
     0
 45
0.0
  0
VISUALSTYLE
  5
274
102
{ACAD_REACTORS
330
267
102
}
330
267
100
AcDbVisualStyle
  2
Thicken
 70
    13
 71
     2
 72
     2
 73
     0
 90
        0
 40
-0.6
 41
-30.0
 62
     5
 63
     7
421
 16777215
 74
     1
 91
        4
 64
     7
 65
   257
 75
     1
175
     1
 42
1.0
 92
       12
 66
     7
 43
1.0
 76
     1
 77
     6
 78
     2
 67
     7
 79
     5
170
     0
171
     0
290
     0
174
     0
 93
        1
 44
0.0
173
     0
291
     1
 45
0.0
  0
VISUALSTYLE
  5
8FA
102
{ACAD_REACTORS
330
267
102
}
330
267
100
AcDbVisualStyle
  2
Wireframe
 70
     5
 71
     0
 72
     2
 73
     0
 90
        0
 40
0.6
 41
30.0
 62
     5
 63
     7
421
 16777215
 74
     1
 91
        4
 64
     7
 65
   257
 75
     1
175
     1
 42
1.0
 92
        0
 66
   257
 43
1.0
 76
     1
 77
     6
 78
     2
 67
     7
 79
     3
170
     0
171
     0
290
     0
174
     0
 93
        1
 44
0.0
173
     0
291
     0
 45
0.0
  0
VISUALSTYLE
  5
901
102
{ACAD_REACTORS
330
267
102
}
330
267
100
AcDbVisualStyle
  2
X-Ray
 70
    25
 71
     2
 72
     2
 73
     1
 90
        1
 40
0.5
 41
30.0
 62
     5
 63
     7
421
 16777215
 74
     1
 91
        0
 64
     7
 65
   257
 75
     1
175
     1
 42
1.0
 92
        8
 66
     7
 43
1.0
 76
     1
 77
     6
 78
     2
 67
     7
 79
     3
170
     0
171
     0
290
     0
174
     0
 93
       13
 44
0.0
173
     0
291
     0
 45
0.0
  0
DICTIONARYVAR
  5
331
102
{ACAD_REACTORS
330
330
102
}
330
330
100
DictionaryVariables
280
     0
  1
1:1
  0
DICTIONARYVAR
  5
D5E
102
{ACAD_REACTORS
330
330
102
}
330
330
100
DictionaryVariables
280
     0
  1
Standard
  0
DICTIONARYVAR
  5
335
102
{ACAD_REACTORS
330
330
102
}
330
330
100
DictionaryVariables
280
     0
  1
Standard
  0
DICTIONARYVAR
  5
D52
102
{ACAD_REACTORS
330
330
102
}
330
330
100
DictionaryVariables
280
     0
  1
ByLayer
  0
DICTIONARYVAR
  5
896
102
{ACAD_REACTORS
330
330
102
}
330
330
100
DictionaryVariables
280
     0
  1
0
  0
DICTIONARYVAR
  5
1614
102
{ACAD_REACTORS
330
E38
102
}
330
E38
100
DictionaryVariables
280
     0
  1
0.261799
  0
DICTIONARYVAR
  5
1612
102
{ACAD_REACTORS
330
E38
102
}
330
E38
100
DictionaryVariables
280
     0
  1
0.400000
  0
DICTIONARYVAR
  5
1613
102
{ACAD_REACTORS
330
E38
102
}
330
E38
100
DictionaryVariables
280
     0
  1
0.250000
  0
DICTIONARYVAR
  5
1615
102
{ACAD_REACTORS
330
E38
102
}
330
E38
100
DictionaryVariables
280
     0
  1
1
  0
FIELD
  5
16F3
102
{ACAD_REACTORS
330
380A
330
3821
330
3822
102
}
330
3822
100
AcDbField
  1
_text
  2
{%<\_FldIdx 0>%M}
 90
        1
360
16F4
 97
        0
 91
       63
 92
        0
 94
       11
 95
        2
 96
        0
300

 93
        1
  6
ACFD_FIELDTEXT_CHECKSUM
 93
        2
 90
        2
140
4488.0
 94
        0
300

302

304
ACVALUE_END
  7
ACFD_FIELD_VALUE
 93
        6
 90
        4
  1
{20230821M}
 94
        0
300

302

304
ACVALUE_END
301
{20230821M}
 98
       11
  0
DICTIONARY
  5
3826
330
279
100
AcDbDictionary
280
     1
281
     1
  3
ACAD_ROUNDTRIP_2008_TABLESTYLE_CELLSTYLEMAP
360
3827
  0
FIELD
  5
16F4
330
16F3
100
AcDbField
  1
AcVar
  2
\AcVar Date \f "yyyyMMdd"
 90
        0
 97
        0
 91
       63
 92
        0
 94
        8
 95
       64
 96
        0
300
Variable not supported
 93
        1
  6
Variable
 93
        2
 90
        4
  1
Date
 94
        0
300

302

304
ACVALUE_END
  7
ACFD_FIELD_VALUE
 93
        6
 90
        8
 92
       16
310
E70708000000150002002D001D000000
 94
        0
300
yyyyMMdd
302

304
ACVALUE_END
301
20230821
 98
        8
  0
CELLSTYLEMAP
  5
3827
102
{ACAD_REACTORS
330
3826
102
}
330
3826
100
AcDbCellStyleMap
 90
        3
300
CELLSTYLE
  1
TABLEFORMAT_BEGIN
 90
        5
170
     1
 91
        0
 92
    32768
 62
   257
 93
        1
300
CONTENTFORMAT
  1
CONTENTFORMAT_BEGIN
 90
        0
 91
        0
 92
        4
 93
        0
300

 40
0.0
140
1.0
 94
        5
 62
     0
340
17
144
6.0
309
CONTENTFORMAT_END
171
     1
301
MARGIN
  1
CELLMARGIN_BEGIN
 40
0.06
 40
0.06
 40
0.06
 40
0.06
 40
0.18
 40
0.18
309
CELLMARGIN_END
 94
        6
 95
        1
302
GRIDFORMAT
  1
GRIDFORMAT_BEGIN
 90
        0
 91
        1
 62
     0
 92
       -2
340
0
 93
        0
 40
0.045
309
GRIDFORMAT_END
 95
        2
302
GRIDFORMAT
  1
GRIDFORMAT_BEGIN
 90
        0
 91
        1
 62
     0
 92
       -2
340
0
 93
        0
 40
0.045
309
GRIDFORMAT_END
 95
        4
302
GRIDFORMAT
  1
GRIDFORMAT_BEGIN
 90
        0
 91
        1
 62
     0
 92
       -2
340
0
 93
        0
 40
0.045
309
GRIDFORMAT_END
 95
        8
302
GRIDFORMAT
  1
GRIDFORMAT_BEGIN
 90
        0
 91
        1
 62
     0
 92
       -2
340
0
 93
        0
 40
0.045
309
GRIDFORMAT_END
 95
       16
302
GRIDFORMAT
  1
GRIDFORMAT_BEGIN
 90
        0
 91
        1
 62
     0
 92
       -2
340
0
 93
        0
 40
0.045
309
GRIDFORMAT_END
 95
       32
302
GRIDFORMAT
  1
GRIDFORMAT_BEGIN
 90
        0
 91
        1
 62
     0
 92
       -2
340
0
 93
        0
 40
0.045
309
GRIDFORMAT_END
309
TABLEFORMAT_END
  1
CELLSTYLE_BEGIN
 90
        1
 91
        1
300
_TITLE
309
CELLSTYLE_END
300
CELLSTYLE
  1
TABLEFORMAT_BEGIN
 90
        5
170
     1
 91
        0
 92
        0
 62
   257
 93
        1
300
CONTENTFORMAT
  1
CONTENTFORMAT_BEGIN
 90
        0
 91
        0
 92
        4
 93
        0
300

 40
0.0
140
1.0
 94
        5
 62
     0
340
17
144
4.5
309
CONTENTFORMAT_END
171
     1
301
MARGIN
  1
CELLMARGIN_BEGIN
 40
0.06
 40
0.06
 40
0.06
 40
0.06
 40
0.18
 40
0.18
309
CELLMARGIN_END
 94
        6
 95
        1
302
GRIDFORMAT
  1
GRIDFORMAT_BEGIN
 90
        0
 91
        1
 62
     0
 92
       -2
340
0
 93
        0
 40
0.045
309
GRIDFORMAT_END
 95
        2
302
GRIDFORMAT
  1
GRIDFORMAT_BEGIN
 90
        0
 91
        1
 62
     0
 92
       -2
340
0
 93
        0
 40
0.045
309
GRIDFORMAT_END
 95
        4
302
GRIDFORMAT
  1
GRIDFORMAT_BEGIN
 90
        0
 91
        1
 62
     0
 92
       -2
340
0
 93
        0
 40
0.045
309
GRIDFORMAT_END
 95
        8
302
GRIDFORMAT
  1
GRIDFORMAT_BEGIN
 90
        0
 91
        1
 62
     0
 92
       -2
340
0
 93
        0
 40
0.045
309
GRIDFORMAT_END
 95
       16
302
GRIDFORMAT
  1
GRIDFORMAT_BEGIN
 90
        0
 91
        1
 62
     0
 92
       -2
340
0
 93
        0
 40
0.045
309
GRIDFORMAT_END
 95
       32
302
GRIDFORMAT
  1
GRIDFORMAT_BEGIN
 90
        0
 91
        1
 62
     0
 92
       -2
340
0
 93
        0
 40
0.045
309
GRIDFORMAT_END
309
TABLEFORMAT_END
  1
CELLSTYLE_BEGIN
 90
        2
 91
        1
300
_HEADER
309
CELLSTYLE_END
300
CELLSTYLE
  1
TABLEFORMAT_BEGIN
 90
        5
170
     1
 91
        0
 92
        0
 62
   257
 93
        1
300
CONTENTFORMAT
  1
CONTENTFORMAT_BEGIN
 90
        0
 91
        0
 92
        4
 93
        0
300

 40
0.0
140
1.0
 94
        2
 62
     0
340
17
144
4.5
309
CONTENTFORMAT_END
171
     1
301
MARGIN
  1
CELLMARGIN_BEGIN
 40
0.06
 40
0.06
 40
0.06
 40
0.06
 40
0.18
 40
0.18
309
CELLMARGIN_END
 94
        6
 95
        1
302
GRIDFORMAT
  1
GRIDFORMAT_BEGIN
 90
        0
 91
        1
 62
     0
 92
       -2
340
0
 93
        0
 40
0.045
309
GRIDFORMAT_END
 95
        2
302
GRIDFORMAT
  1
GRIDFORMAT_BEGIN
 90
        0
 91
        1
 62
     0
 92
       -2
340
0
 93
        0
 40
0.045
309
GRIDFORMAT_END
 95
        4
302
GRIDFORMAT
  1
GRIDFORMAT_BEGIN
 90
        0
 91
        1
 62
     0
 92
       -2
340
0
 93
        0
 40
0.045
309
GRIDFORMAT_END
 95
        8
302
GRIDFORMAT
  1
GRIDFORMAT_BEGIN
 90
        0
 91
        1
 62
     0
 92
       -2
340
0
 93
        0
 40
0.045
309
GRIDFORMAT_END
 95
       16
302
GRIDFORMAT
  1
GRIDFORMAT_BEGIN
 90
        0
 91
        1
 62
     0
 92
       -2
340
0
 93
        0
 40
0.045
309
GRIDFORMAT_END
 95
       32
302
GRIDFORMAT
  1
GRIDFORMAT_BEGIN
 90
        0
 91
        1
 62
     0
 92
       -2
340
0
 93
        0
 40
0.045
309
GRIDFORMAT_END
309
TABLEFORMAT_END
  1
CELLSTYLE_BEGIN
 90
        3
 91
        2
300
_DATA
309
CELLSTYLE_END
  0
ENDSEC
  0
EOF
