  0
SECTION
  2
HEADER
  9
$ACADVER
  1
AC1021
  9
$ACADMAINTVER
 70
    25
  9
$DWGCODEPAGE
  3
ANSI_932
  9
$LASTSAVEDBY
  1
tform
  9
$INSBASE
 10
0.0
 20
0.0
 30
0.0
  9
$EXTMIN
 10
0.0
 20
0.0
 30
-0.0000000000000071
  9
$EXTMAX
 10
630.0
 20
891.0
 30
0.0000000000000142
  9
$LIMMIN
 10
0.0
 20
0.0
  9
$LIMMAX
 10
630.0
 20
891.0
  9
$ORTHOMODE
 70
     0
  9
$REGENMODE
 70
     1
  9
$FILLMODE
 70
     1
  9
$QTEXTMODE
 70
     0
  9
$MIRRTEXT
 70
     1
  9
$LTSCALE
 40
1.5
  9
$ATTMODE
 70
     1
  9
$TEXTSIZE
 40
2.5
  9
$TRACEWID
 40
1.0
  9
$TEXTSTYLE
  7
ＭＳ ゴシック
  9
$CLAYER
  8
DIM
  9
$CELTYPE
  6
ByLayer
  9
$CECOLOR
 62
   256
  9
$CELTSCALE
 40
1.0
  9
$DISPSILH
 70
     0
  9
$DIMSCALE
 40
1.0
  9
$DIMASZ
 40
3.0
  9
$DIMEXO
 40
10.0
  9
$DIMDLI
 40
0.9999999999999999
  9
$DIMRND
 40
0.0
  9
$DIMDLE
 40
0.0
  9
$DIMEXE
 40
0.0
  9
$DIMTP
 40
0.0
  9
$DIMTM
 40
0.0
  9
$DIMTXT
 40
8.0
  9
$DIMCEN
 40
0.0
  9
$DIMTSZ
 40
0.0
  9
$DIMTOL
 70
     0
  9
$DIMLIM
 70
     0
  9
$DIMTIH
 70
     0
  9
$DIMTOH
 70
     0
  9
$DIMSE1
 70
     0
  9
$DIMSE2
 70
     0
  9
$DIMTAD
 70
     1
  9
$DIMZIN
 70
    11
  9
$DIMBLK
  1
DOT
  9
$DIMASO
 70
     1
  9
$DIMSHO
 70
     1
  9
$DIMPOST
  1
<>
  9
$DIMAPOST
  1
[]
  9
$DIMALT
 70
     0
  9
$DIMALTD
 70
     1
  9
$DIMALTF
 40
1.0
  9
$DIMLFAC
 40
1.0
  9
$DIMTOFL
 70
     0
  9
$DIMTVP
 40
0.0
  9
$DIMTIX
 70
     1
  9
$DIMSOXD
 70
     0
  9
$DIMSAH
 70
     0
  9
$DIMBLK1
  1

  9
$DIMBLK2
  1

  9
$DIMSTYLE
  2
tfrom線あり
  9
$DIMCLRD
 70
     0
  9
$DIMCLRE
 70
     0
  9
$DIMCLRT
 70
     0
  9
$DIMTFAC
 40
1.0
  9
$DIMGAP
 40
6.0
  9
$DIMJUST
 70
     0
  9
$DIMSD1
 70
     0
  9
$DIMSD2
 70
     0
  9
$DIMTOLJ
 70
     1
  9
$DIMTZIN
 70
    11
  9
$DIMALTZ
 70
    11
  9
$DIMALTTZ
 70
    11
  9
$DIMUPT
 70
     0
  9
$DIMDEC
 70
     0
  9
$DIMTDEC
 70
     1
  9
$DIMALTU
 70
     2
  9
$DIMALTTD
 70
     2
  9
$DIMTXSTY
  7
ＭＳ ゴシック
  9
$DIMAUNIT
 70
     0
  9
$DIMADEC
 70
     2
  9
$DIMALTRND
 40
0.0
  9
$DIMAZIN
 70
     0
  9
$DIMDSEP
 70
    46
  9
$DIMATFIT
 70
     0
  9
$DIMFRAC
 70
     2
  9
$DIMLDRBLK
  1
DOT
  9
$DIMLUNIT
 70
     2
  9
$DIMLWD
 70
    -2
  9
$DIMLWE
 70
    -2
  9
$DIMTMOVE
 70
     0
  9
$DIMFXL
 40
1.0
  9
$DIMFXLON
 70
     0
  9
$DIMJOGANG
 40
0.7853981633974483
  9
$DIMTFILL
 70
     0
  9
$DIMTFILLCLR
 70
     0
  9
$DIMARCSYM
 70
     0
  9
$DIMLTYPE
  6

  9
$DIMLTEX1
  6

  9
$DIMLTEX2
  6

  9
$LUNITS
 70
     2
  9
$LUPREC
 70
     0
  9
$SKETCHINC
 40
0.1
  9
$FILLETRAD
 40
0.0
  9
$AUNITS
 70
     0
  9
$AUPREC
 70
     0
  9
$MENU
  1
acad
  9
$ELEVATION
 40
0.0
  9
$PELEVATION
 40
0.0
  9
$THICKNESS
 40
0.0
  9
$LIMCHECK
 70
     0
  9
$CHAMFERA
 40
0.0
  9
$CHAMFERB
 40
0.0
  9
$CHAMFERC
 40
0.0
  9
$CHAMFERD
 40
0.0
  9
$SKPOLY
 70
     0
  9
$TDCREATE
 40
2447893.375
  9
$TDUCREATE
 40
0.0
  9
$TDUPDATE
 40
2460178.495417118
  9
$TDUUPDATE
 40
2460178.120417118
  9
$TDINDWG
 40
0.0046773264
  9
$TDUSRTIMER
 40
0.0000563889
  9
$USRTIMER
 70
     1
  9
$ANGBASE
 50
0.0
  9
$ANGDIR
 70
     0
  9
$PDMODE
 70
     1
  9
$PDSIZE
 40
-2.0
  9
$PLINEWID
 40
0.0
  9
$SPLFRAME
 70
     0
  9
$SPLINETYPE
 70
     6
  9
$SPLINESEGS
 70
     8
  9
$HANDSEED
  5
17820
  9
$SURFTAB1
 70
     6
  9
$SURFTAB2
 70
     6
  9
$SURFTYPE
 70
     6
  9
$SURFU
 70
     6
  9
$SURFV
 70
     6
  9
$UCSBASE
  2

  9
$UCSNAME
  2

  9
$UCSORG
 10
0.0
 20
0.0
 30
0.0
  9
$UCSXDIR
 10
1.0
 20
0.0
 30
0.0
  9
$UCSYDIR
 10
0.0
 20
1.0
 30
0.0
  9
$UCSORTHOREF
  2

  9
$UCSORTHOVIEW
 70
     0
  9
$UCSORGTOP
 10
0.0
 20
0.0
 30
0.0
  9
$UCSORGBOTTOM
 10
0.0
 20
0.0
 30
0.0
  9
$UCSORGLEFT
 10
0.0
 20
0.0
 30
0.0
  9
$UCSORGRIGHT
 10
0.0
 20
0.0
 30
0.0
  9
$UCSORGFRONT
 10
0.0
 20
0.0
 30
0.0
  9
$UCSORGBACK
 10
0.0
 20
0.0
 30
0.0
  9
$PUCSBASE
  2

  9
$PUCSNAME
  2

  9
$PUCSORG
 10
0.0
 20
0.0
 30
0.0
  9
$PUCSXDIR
 10
1.0
 20
0.0
 30
0.0
  9
$PUCSYDIR
 10
0.0
 20
1.0
 30
0.0
  9
$PUCSORTHOREF
  2

  9
$PUCSORTHOVIEW
 70
     0
  9
$PUCSORGTOP
 10
0.0
 20
0.0
 30
0.0
  9
$PUCSORGBOTTOM
 10
0.0
 20
0.0
 30
0.0
  9
$PUCSORGLEFT
 10
0.0
 20
0.0
 30
0.0
  9
$PUCSORGRIGHT
 10
0.0
 20
0.0
 30
0.0
  9
$PUCSORGFRONT
 10
0.0
 20
0.0
 30
0.0
  9
$PUCSORGBACK
 10
0.0
 20
0.0
 30
0.0
  9
$USERI1
 70
     0
  9
$USERI2
 70
     0
  9
$USERI3
 70
     0
  9
$USERI4
 70
     0
  9
$USERI5
 70
     0
  9
$USERR1
 40
0.0
  9
$USERR2
 40
0.0
  9
$USERR3
 40
0.0
  9
$USERR4
 40
0.0
  9
$USERR5
 40
0.0
  9
$WORLDVIEW
 70
     1
  9
$SHADEDGE
 70
     3
  9
$SHADEDIF
 70
    70
  9
$TILEMODE
 70
     1
  9
$MAXACTVP
 70
    64
  9
$PINSBASE
 10
0.0
 20
0.0
 30
0.0
  9
$PLIMCHECK
 70
     0
  9
$PEXTMIN
 10
0.0
 20
0.0
 30
0.0
  9
$PEXTMAX
 10
0.0
 20
0.0
 30
0.0
  9
$PLIMMIN
 10
-7.5
 20
-20.0
  9
$PLIMMAX
 10
412.5
 20
277.0
  9
$UNITMODE
 70
     0
  9
$VISRETAIN
 70
     0
  9
$PLINEGEN
 70
     1
  9
$PSLTSCALE
 70
     0
  9
$TREEDEPTH
 70
  3020
  9
$CMLSTYLE
  2
Standard
  9
$CMLJUST
 70
     0
  9
$CMLSCALE
 40
1.0
  9
$PROXYGRAPHICS
 70
     0
  9
$MEASUREMENT
 70
     1
  9
$CELWEIGHT
370
    -1
  9
$ENDCAPS
280
     0
  9
$JOINSTYLE
280
     0
  9
$LWDISPLAY
290
     1
  9
$INSUNITS
 70
     4
  9
$HYPERLINKBASE
  1

  9
$STYLESHEET
  1

  9
$XEDIT
290
     1
  9
$CEPSNTYPE
380
     0
  9
$PSTYLEMODE
290
     1
  9
$FINGERPRINTGUID
  2

  9
$VERSIONGUID
  2

  9
$EXTNAMES
290
     1
  9
$PSVPSCALE
 40
0.0
  9
$OLESTARTUP
290
     0
  9
$SORTENTS
280
   127
  9
$INDEXCTL
280
     0
  9
$HIDETEXT
280
     1
  9
$XCLIPFRAME
290
     0
  9
$HALOGAP
280
     0
  9
$OBSCOLOR
 70
   257
  9
$OBSLTYPE
280
     0
  9
$INTERSECTIONDISPLAY
280
     0
  9
$INTERSECTIONCOLOR
 70
   257
  9
$DIMASSOC
280
     2
  9
$PROJECTNAME
  1

  9
$CAMERADISPLAY
290
     0
  9
$LENSLENGTH
 40
50.0
  9
$CAMERAHEIGHT
 40
0.0
  9
$STEPSPERSEC
 40
2.0
  9
$STEPSIZE
 40
6.0
  9
$3DDWFPREC
 40
2.0
  9
$PSOLWIDTH
 40
0.25
  9
$PSOLHEIGHT
 40
4.0
  9
$LOFTANG1
 40
1.570796326794897
  9
$LOFTANG2
 40
1.570796326794897
  9
$LOFTMAG1
 40
0.0
  9
$LOFTMAG2
 40
0.0
  9
$LOFTPARAM
 70
     7
  9
$LOFTNORMALS
280
     1
  9
$LATITUDE
 40
37.795
  9
$LONGITUDE
 40
-122.394
  9
$NORTHDIRECTION
 40
0.0
  9
$TIMEZONE
 70
 -8000
  9
$LIGHTGLYPHDISPLAY
280
     1
  9
$TILEMODELIGHTSYNCH
280
     1
  9
$SOLIDHIST
280
     1
  9
$SHOWHIST
280
     1
  9
$DWFFRAME
280
     2
  9
$DGNFRAME
280
     2
  9
$REALWORLDSCALE
290
     1
  9
$INTERFERECOLOR
 62
   256
  9
$CSHADOW
280
     0
  9
$SHADOWPLANELOCATION
 40
0.0
  0
ENDSEC
  0
SECTION
  2
CLASSES
  0
CLASS
  1
LWPOLYLINE
  2
AcDbPolyline
  3
ObjectDBX Classes
 90
        0
 91
        1
280
     0
281
     1
  0
CLASS
  1
IMAGE
  2
AcDbRasterImage
  3
ISM
 90
      127
 91
        4
280
     0
281
     1
  0
CLASS
  1
OLE2FRAME
  2
AcDbOle2Frame
  3
ObjectDBX Classes
 90
        0
 91
        1
280
     0
281
     1
  0
CLASS
  1
HATCH
  2
AcDbHatch
  3
ObjectDBX Classes
 90
        0
 91
        1
280
     0
281
     1
  0
CLASS
  1
DICTIONARYVAR
  2
AcDbDictionaryVar
  3
ObjectDBX Classes
 90
        0
 91
        3
280
     0
281
     0
  0
CLASS
  1
RASTERVARIABLES
  2
AcDbRasterVariables
  3
ISM
 90
        0
 91
        3
280
     0
281
     0
  0
CLASS
  1
IMAGEDEF
  2
AcDbRasterImageDef
  3
ISM
 90
        0
 91
        3
280
     0
281
     0
  0
CLASS
  1
IMAGEDEF_REACTOR
  2
AcDbRasterImageDefReactor
  3
ISM
 90
        1
 91
        3
280
     0
281
     0
  0
CLASS
  1
IDBUFFER
  2
AcDbIdBuffer
  3
ObjectDBX Classes
 90
        0
 91
        3
280
     0
281
     0
  0
CLASS
  1
SPATIAL_FILTER
  2
AcDbSpatialFilter
  3
ObjectDBX Classes
 90
        0
 91
        3
280
     0
281
     0
  0
CLASS
  1
XRECORD
  2
AcDbXrecord
  3
ObjectDBX Classes
 90
        0
 91
        1
280
     0
281
     0
  0
CLASS
  1
SORTENTSTABLE
  2
AcDbSortentsTable
  3
ObjectDBX Classes
 90
        0
 91
        3
280
     0
281
     0
  0
CLASS
  1
LAYER_INDEX
  2
AcDbLayerIndex
  3
ObjectDBX Classes
 90
        0
 91
        3
280
     0
281
     0
  0
CLASS
  1
SPATIAL_INDEX
  2
AcDbSpatialIndex
  3
AutoCAD 2000
 90
        0
 91
        3
280
     0
281
     0
  0
CLASS
  1
OBJECT_PTR
  2
CAseDLPNTableRecord
  3
ASE-LPNTableRecord
 90
        1
 91
        3
280
     0
281
     0
  0
CLASS
  1
LAYOUT
  2
AcDbLayout
  3
ObjectDBX Classes
 90
        0
 91
        1
280
     0
281
     0
  0
CLASS
  1
PLOTSETTINGS
  2
AcDbPlotSettings
  3
ObjectDBX Classes
 90
        0
 91
        3
280
     0
281
     0
  0
CLASS
  1
ACDBDICTIONARYWDFLT
  2
AcDbDictionaryWithDefault
  3
ObjectDBX Classes
 90
        0
 91
        3
280
     0
281
     0
  0
CLASS
  1
ACDBPLACEHOLDER
  2
AcDbPlaceHolder
  3
ObjectDBX Classes
 90
        0
 91
        1
280
     0
281
     0
  0
CLASS
  1
SCALE
  2
AcDbScale
  3
ObjectDBX Classes
 90
     1153
 91
        3
280
     0
281
     0
  0
CLASS
  1
MATERIAL
  2
AcDbMaterial
  3
ObjectDBX Classes
 90
     1153
 91
        3
280
     0
281
     0
  0
CLASS
  1
VISUALSTYLE
  2
AcDbVisualStyle
  3
ObjectDBX Classes
 90
     4095
 91
        3
280
     0
281
     0
  0
CLASS
  1
TABLESTYLE
  2
AcDbTableStyle
  3
ObjectDBX Classes
 90
     4095
 91
        3
280
     0
281
     0
  0
CLASS
  1
DIMASSOC
  2
AcDbDimAssoc
  3
"AcDbDimAssoc|Product Desc:     AcDim ARX App For Dimension|Company:          Autodesk, Inc.|WEB Address:      www.autodesk.com"
 90
        0
 91
        3
280
     0
281
     0
  0
CLASS
  1
CELLSTYLEMAP
  2
AcDbCellStyleMap
  3
ObjectDBX Classes
 90
     1152
 91
        3
280
     0
281
     0
  0
CLASS
  1
SUN
  2
AcDbSun
  3
SCENEOE
 90
     1153
 91
        3
280
     0
281
     0
  0
CLASS
  1
MLEADERSTYLE
  2
AcDbMLeaderStyle
  3
ACDB_MLEADERSTYLE_CLASS
 90
     4095
 91
        3
280
     0
281
     0
  0
CLASS
  1
FIELD
  2
AcDbField
  3
ObjectDBX Classes
 90
     1152
 91
        3
280
     0
281
     0
  0
CLASS
  1
FIELDLIST
  2
AcDbFieldList
  3
ObjectDBX Classes
 90
     1152
 91
        3
280
     0
281
     0
  0
ENDSEC
  0
SECTION
  2
TABLES
  0
TABLE
  2
VPORT
  5
7
330
0
100
AcDbSymbolTable
 70
     1
  0
VPORT
  5
15
330
7
100
AcDbSymbolTableRecord
100
AcDbViewportTableRecord
  2
*ACTIVE
 70
     0
 10
0.0
 20
0.0
 11
1.0
 21
1.0
 12
406.0201356708997
 22
371.9012854698341
 13
0.0
 23
0.0
 14
1.0
 24
1.0
 15
0.0
 25
0.0
 16
0.0
 26
0.0
 36
1.0
 17
-91.02013567089966
 27
73.59871453016592
 37
-46.86809886248109
 40
908.82
 41
2.189300411522634
 42
50.0
 43
0.0
 44
0.0
 50
0.0
 51
0.0
 71
    16
 72
  2000
 73
     1
 74
     1
 75
     0
 76
     0
 77
     0
 78
     0
281
     0
 65
     1
110
0.0
120
0.0
130
0.0
111
1.0
121
0.0
131
0.0
112
0.0
122
1.0
132
0.0
 79
     0
146
0.0
348
3666
 60
     3
 61
     5
292
     1
282
     1
141
0.0
142
0.0
 63
   256
361
904
  0
ENDTAB
  0
TABLE
  2
LTYPE
  5
4
330
0
100
AcDbSymbolTable
 70
     3
  0
LTYPE
  5
11
330
4
100
AcDbSymbolTableRecord
100
AcDbLinetypeTableRecord
  2
ByBlock
 70
     0
  3

 72
    65
 73
     0
 40
0.0
  0
LTYPE
  5
12
330
4
100
AcDbSymbolTableRecord
100
AcDbLinetypeTableRecord
  2
ByLayer
 70
     0
  3

 72
    65
 73
     0
 40
0.0
  0
LTYPE
  5
13
330
4
100
AcDbSymbolTableRecord
100
AcDbLinetypeTableRecord
  2
Continuous
 70
     0
  3
Solid line
 72
    65
 73
     0
 40
0.0
  0
LTYPE
  5
D6C
330
4
100
AcDbSymbolTableRecord
100
AcDbLinetypeTableRecord
  2
BORDER
 70
     0
  3
Border __  __  . __  __  . __  __  . __  __  . 
 72
    65
 73
     6
 40
44.45
 49
12.7
 74
     0
 49
-6.35
 74
     0
 49
12.7
 74
     0
 49
-6.35
 74
     0
 49
0.0
 74
     0
 49
-6.35
 74
     0
  0
LTYPE
  5
D6D
330
4
100
AcDbSymbolTableRecord
100
AcDbLinetypeTableRecord
  2
HIDDEN
 70
     0
  3
Hidden _ _ _ _ _ _ _ _ _ _ _ _ _ _ _ _ _ _ _ _ 
 72
    65
 73
     2
 40
9.524999999999999
 49
6.35
 74
     0
 49
-3.175
 74
     0
  0
ENDTAB
  0
TABLE
  2
LAYER
  5
2
102
{ACAD_XDICTIONARY
360
2E1
102
}
330
0
100
AcDbSymbolTable
 70
    13
  0
LAYER
  5
14
330
2
100
AcDbSymbolTableRecord
100
AcDbLayerTableRecord
  2
0
 70
     0
 62
     7
  6
Continuous
370
    -3
390
1D
347
266
  0
LAYER
  5
4B
330
2
100
AcDbSymbolTableRecord
100
AcDbLayerTableRecord
  2
TEMPLATE
 70
     0
 62
     7
  6
Continuous
370
    20
390
1D
347
266
  0
LAYER
  5
4C
330
2
100
AcDbSymbolTableRecord
100
AcDbLayerTableRecord
  2
DIM
 70
     0
 62
     3
  6
Continuous
370
    13
390
1D
347
266
  0
LAYER
  5
4D
330
2
100
AcDbSymbolTableRecord
100
AcDbLayerTableRecord
  2
MODEL
 70
     0
 62
     7
  6
Continuous
370
    20
390
1D
347
266
  0
LAYER
  5
88C
330
2
100
AcDbSymbolTableRecord
100
AcDbLayerTableRecord
  2
HIDDEN
 70
     0
 62
     8
  6
HIDDEN
370
    20
390
1D
347
266
1001
AcAecLayerStandard
1000

1000

  0
LAYER
  5
D6B
330
2
100
AcDbSymbolTableRecord
100
AcDbLayerTableRecord
  2
BORDER
 70
     0
 62
     4
  6
BORDER
290
     0
370
    20
390
1D
347
266
1001
AcAecLayerStandard
1000

1000

  0
LAYER
  5
A5DF
330
2
100
AcDbSymbolTableRecord
100
AcDbLayerTableRecord
  2
Defpoints
 70
     0
 62
     7
  6
Continuous
290
     0
370
    -3
390
1D
347
266
  0
LAYER
  5
173FC
330
2
100
AcDbSymbolTableRecord
100
AcDbLayerTableRecord
  2
Default
 70
     0
 62
     7
  6
Continuous
370
    -3
390
1D
347
266
  0
LAYER
  5
173FD
330
2
100
AcDbSymbolTableRecord
100
AcDbLayerTableRecord
  2
Anschlußnippel
 70
     0
 62
     7
  6
Continuous
370
    -3
390
1D
347
266
  0
LAYER
  5
173FE
330
2
100
AcDbSymbolTableRecord
100
AcDbLayerTableRecord
  2
Wand
 70
     0
 62
     7
  6
Continuous
370
    -3
390
1D
347
266
  0
LAYER
  5
173FF
330
2
100
AcDbSymbolTableRecord
100
AcDbLayerTableRecord
  2
DV1_Default
 70
     0
 62
     7
  6
Continuous
370
    -3
390
1D
347
266
  0
LAYER
  5
17400
330
2
100
AcDbSymbolTableRecord
100
AcDbLayerTableRecord
  2
DV3_Default
 70
     0
 62
     7
  6
Continuous
370
    -3
390
1D
347
266
  0
LAYER
  5
17401
330
2
100
AcDbSymbolTableRecord
100
AcDbLayerTableRecord
  2
Layer3
 70
     0
 62
     7
  6
Continuous
370
    -3
390
1D
347
266
  0
ENDTAB
  0
TABLE
  2
STYLE
  5
3
330
0
100
AcDbSymbolTable
 70
     2
  0
STYLE
  5
17
330
3
100
AcDbSymbolTableRecord
100
AcDbTextStyleTableRecord
  2
Standard
 70
     0
 40
0.0
 41
1.0
 50
0.0
 71
     0
 42
2.5
  3
txt
  4
BIGFONT.SHX
  0
STYLE
  5
39
330
3
100
AcDbSymbolTableRecord
100
AcDbTextStyleTableRecord
  2
ＭＳ ゴシック
 70
     0
 40
0.0
 41
1.0
 50
0.0
 71
     0
 42
2.5
  3
msgothic.ttc
  4
ＭＳ ゴシック
1001
ACAD
1000
ＭＳ ゴシック
1071
        0
  0
ENDTAB
  0
TABLE
  2
VIEW
  5
5
330
0
100
AcDbSymbolTable
 70
     0
  0
ENDTAB
  0
TABLE
  2
UCS
  5
6
330
0
100
AcDbSymbolTable
 70
     0
  0
ENDTAB
  0
TABLE
  2
APPID
  5
8
330
0
100
AcDbSymbolTable
 70
     4
  0
APPID
  5
16
330
8
100
AcDbSymbolTableRecord
100
AcDbRegAppTableRecord
  2
ACAD
 70
     0
  0
APPID
  5
7AC
330
8
100
AcDbSymbolTableRecord
100
AcDbRegAppTableRecord
  2
AcAecLayerStandard
 70
     0
  0
APPID
  5
E29
330
8
100
AcDbSymbolTableRecord
100
AcDbRegAppTableRecord
  2
ACAD_MLEADERVER
 70
     0
  0
APPID
  5
17813
330
8
100
AcDbSymbolTableRecord
100
AcDbRegAppTableRecord
  2
PLOTTRANSPARENCY
 70
     0
  0
ENDTAB
  0
TABLE
  2
DIMSTYLE
  5
9
330
0
100
AcDbSymbolTable
 70
     2
100
AcDbDimStyleTable
  0
DIMSTYLE
105
18
330
9
100
AcDbSymbolTableRecord
100
AcDbDimStyleTableRecord
  2
Standard
 70
     0
178
     0
340
17
  0
DIMSTYLE
105
57
102
{ACAD_REACTORS
330
176D1
330
176D2
330
176D3
330
176D4
102
}
330
9
100
AcDbSymbolTableRecord
100
AcDbDimStyleTableRecord
  2
tfrom線あり
 70
     0
  3
<>
  4
[]
 41
3.0
 42
10.0
 43
0.9999999999999999
 44
0.0
 73
     0
 74
     0
 77
     1
 78
    11
140
8.0
141
0.0
143
1.0
147
6.0
171
     1
174
     1
178
     0
179
     2
271
     0
272
     1
276
     2
284
    11
285
    11
286
    11
289
     0
340
39
341
4E
342
4E
  0
ENDTAB
  0
TABLE
  2
BLOCK_RECORD
  5
1
330
0
100
AcDbSymbolTable
 70
    20
  0
BLOCK_RECORD
  5
A
102
{ACAD_XDICTIONARY
360
1733E
102
}
330
1
100
AcDbSymbolTableRecord
100
AcDbBlockTableRecord
  2
*MODEL_SPACE
340
20
 70
     0
280
     1
281
     0
  0
BLOCK_RECORD
  5
B
330
1
100
AcDbSymbolTableRecord
100
AcDbBlockTableRecord
  2
*PAPER_SPACE
340
21
 70
     0
280
     1
281
     0
  0
BLOCK_RECORD
  5
4E
330
1
100
AcDbSymbolTableRecord
100
AcDbBlockTableRecord
  2
_DOT
340
0
102
{BLKREFS
331
17326
331
17327
331
17335
331
17336
331
173AB
331
173AC
331
173BA
331
173BB
331
173D8
331
173D9
331
173E4
331
173E5
331
17558
331
17559
331
17567
331
17568
331
17574
331
17575
331
17583
331
17584
331
17590
331
17591
331
1759D
331
1759E
331
176DE
331
176DF
331
176EC
331
176ED
331
176F8
331
176F9
331
17706
331
17707
331
17712
331
17713
331
1771E
331
1771F
102
}
 70
     0
280
     1
281
     0
  0
BLOCK_RECORD
  5
68D
330
1
100
AcDbSymbolTableRecord
100
AcDbBlockTableRecord
  2
block 2
340
0
102
{BLKREFS
331
68C
331
1343
102
}
 70
     0
280
     1
281
     0
  0
BLOCK_RECORD
  5
17320
330
1
100
AcDbSymbolTableRecord
100
AcDbBlockTableRecord
  2
*D2
340
0
 70
     0
280
     1
281
     0
  0
BLOCK_RECORD
  5
1732F
330
1
100
AcDbSymbolTableRecord
100
AcDbBlockTableRecord
  2
*D3
340
0
 70
     0
280
     1
281
     0
  0
BLOCK_RECORD
  5
173A6
330
1
100
AcDbSymbolTableRecord
100
AcDbBlockTableRecord
  2
*D4
340
0
 70
     0
280
     1
281
     0
  0
BLOCK_RECORD
  5
173B5
330
1
100
AcDbSymbolTableRecord
100
AcDbBlockTableRecord
  2
*D5
340
0
 70
     0
280
     1
281
     0
  0
BLOCK_RECORD
  5
173D2
330
1
100
AcDbSymbolTableRecord
100
AcDbBlockTableRecord
  2
*D6
340
0
 70
     0
280
     1
281
     0
  0
BLOCK_RECORD
  5
173DE
330
1
100
AcDbSymbolTableRecord
100
AcDbBlockTableRecord
  2
*D7
340
0
 70
     0
280
     1
281
     0
  0
BLOCK_RECORD
  5
17553
330
1
100
AcDbSymbolTableRecord
100
AcDbBlockTableRecord
  2
*D8
340
0
 70
     0
280
     1
281
     0
  0
BLOCK_RECORD
  5
17560
330
1
100
AcDbSymbolTableRecord
100
AcDbBlockTableRecord
  2
*D9
340
0
 70
     0
280
     1
281
     0
  0
BLOCK_RECORD
  5
1756F
330
1
100
AcDbSymbolTableRecord
100
AcDbBlockTableRecord
  2
*D10
340
0
 70
     0
280
     1
281
     0
  0
BLOCK_RECORD
  5
1757E
330
1
100
AcDbSymbolTableRecord
100
AcDbBlockTableRecord
  2
*D11
340
0
 70
     0
280
     1
281
     0
  0
BLOCK_RECORD
  5
1758B
330
1
100
AcDbSymbolTableRecord
100
AcDbBlockTableRecord
  2
*D12
340
0
 70
     0
280
     1
281
     0
  0
BLOCK_RECORD
  5
17598
330
1
100
AcDbSymbolTableRecord
100
AcDbBlockTableRecord
  2
*D13
340
0
 70
     0
280
     1
281
     0
  0
BLOCK_RECORD
  5
176D8
330
1
100
AcDbSymbolTableRecord
100
AcDbBlockTableRecord
  2
*D14
340
0
 70
     0
280
     1
281
     0
  0
BLOCK_RECORD
  5
176E4
330
1
100
AcDbSymbolTableRecord
100
AcDbBlockTableRecord
  2
*D15
340
0
 70
     0
280
     1
281
     0
  0
BLOCK_RECORD
  5
176F2
330
1
100
AcDbSymbolTableRecord
100
AcDbBlockTableRecord
  2
*D16
340
0
 70
     0
280
     1
281
     0
  0
BLOCK_RECORD
  5
17700
330
1
100
AcDbSymbolTableRecord
100
AcDbBlockTableRecord
  2
*D17
340
0
 70
     0
280
     1
281
     0
  0
BLOCK_RECORD
  5
1770C
330
1
100
AcDbSymbolTableRecord
100
AcDbBlockTableRecord
  2
*D18
340
0
 70
     0
280
     1
281
     0
  0
BLOCK_RECORD
  5
17718
330
1
100
AcDbSymbolTableRecord
100
AcDbBlockTableRecord
  2
*D19
340
0
 70
     0
280
     1
281
     0
  0
ENDTAB
  0
ENDSEC
  0
SECTION
  2
BLOCKS
  0
BLOCK
  5
D
330
A
100
AcDbEntity
  8
0
390
1D
100
AcDbBlockBegin
  2
*MODEL_SPACE
 70
     0
 10
0.0
 20
0.0
 30
0.0
  3
*MODEL_SPACE
  1
*MODEL_SPACE
  0
ENDBLK
  5
E
330
A
100
AcDbEntity
  8
0
390
1D
100
AcDbBlockEnd
  0
BLOCK
  5
F
330
B
100
AcDbEntity
 67
     1
  8
0
390
1D
100
AcDbBlockBegin
  2
*PAPER_SPACE
 70
     0
 10
0.0
 20
0.0
 30
0.0
  3
*PAPER_SPACE
  1
*PAPER_SPACE
  0
ENDBLK
  5
10
330
B
100
AcDbEntity
 67
     1
  8
0
390
1D
100
AcDbBlockEnd
  0
BLOCK
  5
369F
330
4E
100
AcDbEntity
  8
0
390
1D
100
AcDbBlockBegin
  2
_DOT
 70
     0
 10
0.0
 20
0.0
 30
0.0
  3
_DOT
  1
_DOT
  0
POLYLINE
  5
36A1
330
4E
100
AcDbEntity
  8
0
  6
ByBlock
 62
     0
370
    -2
390
1D
100
AcDb2dPolyline
 66
     1
 10
0.0
 20
0.0
 30
0.0
 70
     1
 40
0.5
 41
0.5
  0
VERTEX
  5
36A2
330
36A1
100
AcDbEntity
  8
0
  6
ByBlock
 62
     0
370
    -2
390
1D
100
AcDbVertex
100
AcDb2dVertex
 10
-0.25
 20
0.0
 30
0.0
 42
1.0
  0
VERTEX
  5
36A3
330
36A1
100
AcDbEntity
  8
0
  6
ByBlock
 62
     0
370
    -2
390
1D
100
AcDbVertex
100
AcDb2dVertex
 10
0.25
 20
0.0
 30
0.0
 42
1.0
  0
SEQEND
  5
36A4
330
36A1
100
AcDbEntity
  8
0
390
1D
  0
LINE
  5
36A5
330
4E
100
AcDbEntity
  8
0
  6
ByBlock
 62
     0
370
    -2
390
1D
100
AcDbLine
 10
-0.5
 20
0.0
 30
0.0
 11
-1.0
 21
0.0
 31
0.0
  0
ENDBLK
  5
36A6
330
4E
100
AcDbEntity
  8
0
390
1D
100
AcDbBlockEnd
  0
BLOCK
  5
68E
330
68D
100
AcDbEntity
  8
0
100
AcDbBlockBegin
  2
block 2
 70
     0
 10
0.0
 20
0.0
 30
0.0
  3
block 2
  1
block 2
  0
ENDBLK
  5
6B0
330
68D
100
AcDbEntity
  8
0
100
AcDbBlockEnd
  0
BLOCK
  5
17321
330
17320
100
AcDbEntity
  8
0
100
AcDbBlockBegin
  2
*D2
 70
     1
 10
0.0
 20
0.0
 30
0.0
  3
*D2
  1

  0
LINE
  5
17323
330
17320
100
AcDbEntity
  8
DIM
 62
     0
370
    -2
100
AcDbLine
 10
405.9245501690548
 20
309.7529598971253
 30
0.0
 11
405.9245501690548
 21
297.8784471131835
 31
0.0
  0
LINE
  5
17324
330
17320
100
AcDbEntity
  8
DIM
 62
     0
370
    -2
100
AcDbLine
 10
370.465565794055
 20
307.7217551386165
 30
0.0
 11
370.465565794055
 21
297.8784471131835
 31
0.0
  0
LINE
  5
17325
330
17320
100
AcDbEntity
  8
DIM
 62
     0
370
    -2
100
AcDbLine
 10
402.9245501690548
 20
297.8784471131835
 30
0.0
 11
373.465565794055
 21
297.8784471131835
 31
0.0
  0
INSERT
  5
17326
330
17320
100
AcDbEntity
  8
DIM
 62
     0
370
    -2
100
AcDbBlockReference
  2
_DOT
 10
405.9245501690548
 20
297.8784471131835
 30
0.0
 41
3.0
 42
3.0
 43
3.0
  0
INSERT
  5
17327
330
17320
100
AcDbEntity
  8
DIM
 62
     0
370
    -2
100
AcDbBlockReference
  2
_DOT
 10
370.465565794055
 20
297.8784471131835
 30
0.0
 41
3.0
 42
3.0
 43
3.0
 50
180.0
  0
MTEXT
  5
17328
330
17320
100
AcDbEntity
  8
DIM
 62
     0
100
AcDbMText
 10
388.1950579815549
 20
307.8784471131835
 30
0.0
 40
8.0
 41
0.0
 46
0.0
 71
     5
 72
     1
  1
\A1;35
  7
ＭＳ ゴシック
 73
     1
 44
1.0
  0
POINT
  5
17329
330
17320
100
AcDbEntity
  8
Defpoints
 62
     0
100
AcDbPoint
 10
405.9245501690548
 20
319.7529598971253
 30
0.0
  0
POINT
  5
1732A
330
17320
100
AcDbEntity
  8
Defpoints
 62
     0
100
AcDbPoint
 10
370.465565794055
 20
317.7217551386165
 30
0.0
  0
POINT
  5
1732B
330
17320
100
AcDbEntity
  8
Defpoints
 62
     0
100
AcDbPoint
 10
370.465565794055
 20
297.8784471131835
 30
0.0
  0
ENDBLK
  5
17322
330
17320
100
AcDbEntity
  8
0
100
AcDbBlockEnd
  0
BLOCK
  5
17330
330
1732F
100
AcDbEntity
  8
0
100
AcDbBlockBegin
  2
*D3
 70
     1
 10
0.0
 20
0.0
 30
0.0
  3
*D3
  1

  0
LINE
  5
17332
330
1732F
100
AcDbEntity
  8
DIM
 62
     0
370
    -2
100
AcDbLine
 10
336.4182475173941
 20
457.0429158371509
 30
0.0
 11
315.1384266419193
 21
457.0429158371509
 31
0.0
  0
LINE
  5
17333
330
1732F
100
AcDbEntity
  8
DIM
 62
     0
370
    -2
100
AcDbLine
 10
331.4592515249408
 20
386.1825642746509
 30
0.0
 11
315.1384266419193
 21
386.1825642746509
 31
0.0
  0
LINE
  5
17334
330
1732F
100
AcDbEntity
  8
DIM
 62
     0
370
    -2
100
AcDbLine
 10
315.1384266419193
 20
454.0429158371509
 30
0.0
 11
315.1384266419193
 21
389.1825642746509
 31
0.0
  0
INSERT
  5
17335
330
1732F
100
AcDbEntity
  8
DIM
 62
     0
370
    -2
100
AcDbBlockReference
  2
_DOT
 10
315.1384266419193
 20
457.0429158371509
 30
0.0
 41
3.0
 42
3.0
 43
3.0
 50
90.0
  0
INSERT
  5
17336
330
1732F
100
AcDbEntity
  8
DIM
 62
     0
370
    -2
100
AcDbBlockReference
  2
_DOT
 10
315.1384266419193
 20
386.1825642746509
 30
0.0
 41
3.0
 42
3.0
 43
3.0
 50
270.0
  0
MTEXT
  5
17337
330
1732F
100
AcDbEntity
  8
DIM
 62
     0
100
AcDbMText
 10
305.1384266419193
 20
421.6127400559009
 30
0.0
 40
8.0
 41
0.0
 46
0.0
 71
     5
 72
     1
  1
\A1;71
  7
ＭＳ ゴシック
 11
0.0
 21
1.0
 31
0.0
 73
     1
 44
1.0
  0
POINT
  5
17338
330
1732F
100
AcDbEntity
  8
Defpoints
 62
     0
100
AcDbPoint
 10
346.4182475173941
 20
457.0429158371509
 30
0.0
  0
POINT
  5
17339
330
1732F
100
AcDbEntity
  8
Defpoints
 62
     0
100
AcDbPoint
 10
341.4592515249408
 20
386.1825642746509
 30
0.0
  0
POINT
  5
1733A
330
1732F
100
AcDbEntity
  8
Defpoints
 62
     0
100
AcDbPoint
 10
315.1384266419193
 20
386.1825642746509
 30
0.0
  0
ENDBLK
  5
17331
330
1732F
100
AcDbEntity
  8
0
100
AcDbBlockEnd
  0
BLOCK
  5
173A7
330
173A6
100
AcDbEntity
  8
0
100
AcDbBlockBegin
  2
*D4
 70
     1
 10
0.0
 20
0.0
 30
0.0
  3
*D4
  1

  0
LINE
  5
173A8
330
173A6
100
AcDbEntity
  8
DIM
 62
     0
370
    -2
100
AcDbLine
 10
1.0
 20
135.0035410091185
 30
0.0
 11
1.0
 21
195.1497860279634
 31
0.0
  0
LINE
  5
173A9
330
173A6
100
AcDbEntity
  8
DIM
 62
     0
370
    -2
100
AcDbLine
 10
115.1779939209723
 20
135.0035410091185
 30
0.0
 11
115.1779939209723
 21
195.1497860279634
 31
0.0
  0
LINE
  5
173AA
330
173A6
100
AcDbEntity
  8
DIM
 62
     0
370
    -2
100
AcDbLine
 10
4.0
 20
195.1497860279634
 30
0.0
 11
112.1779939209723
 21
195.1497860279634
 31
0.0
  0
INSERT
  5
173AB
330
173A6
100
AcDbEntity
  8
DIM
 62
     0
370
    -2
100
AcDbBlockReference
  2
_DOT
 10
1.0
 20
195.1497860279634
 30
0.0
 41
3.0
 42
3.0
 43
3.0
 50
180.0
  0
INSERT
  5
173AC
330
173A6
100
AcDbEntity
  8
DIM
 62
     0
370
    -2
100
AcDbBlockReference
  2
_DOT
 10
115.1779939209723
 20
195.1497860279634
 30
0.0
 41
3.0
 42
3.0
 43
3.0
  0
MTEXT
  5
173AD
330
173A6
100
AcDbEntity
  8
DIM
 62
     0
100
AcDbMText
 10
58.08899696048616
 20
205.1497860279634
 30
0.0
 40
8.0
 41
0.0
 46
0.0
 71
     5
 72
     1
  1
\A1;114
  7
ＭＳ ゴシック
 73
     1
 44
1.0
  0
POINT
  5
173AE
330
173A6
100
AcDbEntity
  8
Defpoints
 62
     0
100
AcDbPoint
 10
1.0
 20
125.0035410091185
 30
0.0
  0
POINT
  5
173AF
330
173A6
100
AcDbEntity
  8
Defpoints
 62
     0
100
AcDbPoint
 10
115.1779939209723
 20
125.0035410091185
 30
0.0
  0
POINT
  5
173B0
330
173A6
100
AcDbEntity
  8
Defpoints
 62
     0
100
AcDbPoint
 10
115.1779939209723
 20
195.1497860279634
 30
0.0
  0
ENDBLK
  5
173B1
330
173A6
100
AcDbEntity
  8
0
100
AcDbBlockEnd
  0
BLOCK
  5
173B6
330
173B5
100
AcDbEntity
  8
0
100
AcDbBlockBegin
  2
*D5
 70
     1
 10
0.0
 20
0.0
 30
0.0
  3
*D5
  1

  0
LINE
  5
173B7
330
173B5
100
AcDbEntity
  8
DIM
 62
     0
370
    -2
100
AcDbLine
 10
20.20208557550177
 20
115.0035410091185
 30
0.0
 11
20.20208557550177
 21
38.30487537993926
 31
0.0
  0
LINE
  5
173B8
330
173B5
100
AcDbEntity
  8
DIM
 62
     0
370
    -2
100
AcDbLine
 10
95.97590834547054
 20
115.0035410091185
 30
0.0
 11
95.97590834547054
 21
38.30487537993926
 31
0.0
  0
LINE
  5
173B9
330
173B5
100
AcDbEntity
  8
DIM
 62
     0
370
    -2
100
AcDbLine
 10
23.20208557550177
 20
38.30487537993926
 30
0.0
 11
92.97590834547054
 21
38.30487537993926
 31
0.0
  0
INSERT
  5
173BA
330
173B5
100
AcDbEntity
  8
DIM
 62
     0
370
    -2
100
AcDbBlockReference
  2
_DOT
 10
20.20208557550177
 20
38.30487537993926
 30
0.0
 41
3.0
 42
3.0
 43
3.0
 50
180.0
  0
INSERT
  5
173BB
330
173B5
100
AcDbEntity
  8
DIM
 62
     0
370
    -2
100
AcDbBlockReference
  2
_DOT
 10
95.97590834547054
 20
38.30487537993926
 30
0.0
 41
3.0
 42
3.0
 43
3.0
  0
MTEXT
  5
173BC
330
173B5
100
AcDbEntity
  8
DIM
 62
     0
100
AcDbMText
 10
58.08899696048616
 20
48.30487537993926
 30
0.0
 40
8.0
 41
0.0
 46
0.0
 71
     5
 72
     1
  1
\A1;76
  7
ＭＳ ゴシック
 73
     1
 44
1.0
  0
POINT
  5
173BD
330
173B5
100
AcDbEntity
  8
Defpoints
 62
     0
100
AcDbPoint
 10
20.20208557550177
 20
125.0035410091185
 30
0.0
  0
POINT
  5
173BE
330
173B5
100
AcDbEntity
  8
Defpoints
 62
     0
100
AcDbPoint
 10
95.97590834547054
 20
125.0035410091185
 30
0.0
  0
POINT
  5
173BF
330
173B5
100
AcDbEntity
  8
Defpoints
 62
     0
100
AcDbPoint
 10
95.97590834547054
 20
38.30487537993926
 30
0.0
  0
ENDBLK
  5
173C0
330
173B5
100
AcDbEntity
  8
0
100
AcDbBlockEnd
  0
BLOCK
  5
173D3
330
173D2
100
AcDbEntity
  8
0
100
AcDbBlockBegin
  2
*D6
 70
     1
 10
0.0
 20
0.0
 30
0.0
  3
*D6
  1

  0
LINE
  5
173D5
330
173D2
100
AcDbEntity
  8
DIM
 62
     0
370
    -2
100
AcDbLine
 10
228.7947264437692
 20
485.5501747355622
 30
0.0
 11
228.7947264437692
 21
580.7695422638294
 31
0.0
  0
LINE
  5
173D6
330
173D2
100
AcDbEntity
  8
DIM
 62
     0
370
    -2
100
AcDbLine
 10
400.0617173252274
 20
485.5501747355622
 30
0.0
 11
400.0617173252274
 21
580.7695422638294
 31
0.0
  0
LINE
  5
173D7
330
173D2
100
AcDbEntity
  8
DIM
 62
     0
370
    -2
100
AcDbLine
 10
231.7947264437692
 20
580.7695422638294
 30
0.0
 11
397.0617173252274
 21
580.7695422638294
 31
0.0
  0
INSERT
  5
173D8
330
173D2
100
AcDbEntity
  8
DIM
 62
     0
370
    -2
100
AcDbBlockReference
  2
_DOT
 10
228.7947264437692
 20
580.7695422638294
 30
0.0
 41
3.0
 42
3.0
 43
3.0
 50
180.0
  0
INSERT
  5
173D9
330
173D2
100
AcDbEntity
  8
DIM
 62
     0
370
    -2
100
AcDbBlockReference
  2
_DOT
 10
400.0617173252274
 20
580.7695422638294
 30
0.0
 41
3.0
 42
3.0
 43
3.0
  0
MTEXT
  5
173DA
330
173D2
100
AcDbEntity
  8
DIM
 62
     0
100
AcDbMText
 10
314.4282218844983
 20
590.7695422638294
 30
0.0
 40
8.0
 41
0.0
 46
0.0
 71
     5
 72
     1
  1
\A1;171
  7
ＭＳ ゴシック
 73
     1
 44
1.0
  0
POINT
  5
173DB
330
173D2
100
AcDbEntity
  8
Defpoints
 62
     0
100
AcDbPoint
 10
228.7947264437692
 20
475.5501747355622
 30
0.0
  0
POINT
  5
173DC
330
173D2
100
AcDbEntity
  8
Defpoints
 62
     0
100
AcDbPoint
 10
400.0617173252274
 20
475.5501747355622
 30
0.0
  0
POINT
  5
173DD
330
173D2
100
AcDbEntity
  8
Defpoints
 62
     0
100
AcDbPoint
 10
400.0617173252274
 20
580.7695422638294
 30
0.0
  0
ENDBLK
  5
173D4
330
173D2
100
AcDbEntity
  8
0
100
AcDbBlockEnd
  0
BLOCK
  5
173DF
330
173DE
100
AcDbEntity
  8
0
100
AcDbBlockBegin
  2
*D7
 70
     1
 10
0.0
 20
0.0
 30
0.0
  3
*D7
  1

  0
LINE
  5
173E1
330
173DE
100
AcDbEntity
  8
DIM
 62
     0
370
    -2
100
AcDbLine
 10
257.5978548070218
 20
465.5501747355622
 30
0.0
 11
257.5978548070218
 21
345.5021762917933
 31
0.0
  0
LINE
  5
173E2
330
173DE
100
AcDbEntity
  8
DIM
 62
     0
370
    -2
100
AcDbLine
 10
371.2585889619747
 20
465.5501747355622
 30
0.0
 11
371.2585889619747
 21
345.5021762917933
 31
0.0
  0
LINE
  5
173E3
330
173DE
100
AcDbEntity
  8
DIM
 62
     0
370
    -2
100
AcDbLine
 10
260.5978548070218
 20
345.5021762917933
 30
0.0
 11
368.2585889619747
 21
345.5021762917933
 31
0.0
  0
INSERT
  5
173E4
330
173DE
100
AcDbEntity
  8
DIM
 62
     0
370
    -2
100
AcDbBlockReference
  2
_DOT
 10
257.5978548070218
 20
345.5021762917933
 30
0.0
 41
3.0
 42
3.0
 43
3.0
 50
180.0
  0
INSERT
  5
173E5
330
173DE
100
AcDbEntity
  8
DIM
 62
     0
370
    -2
100
AcDbBlockReference
  2
_DOT
 10
371.2585889619747
 20
345.5021762917933
 30
0.0
 41
3.0
 42
3.0
 43
3.0
  0
MTEXT
  5
173E6
330
173DE
100
AcDbEntity
  8
DIM
 62
     0
100
AcDbMText
 10
314.4282218844983
 20
355.5021762917933
 30
0.0
 40
8.0
 41
0.0
 46
0.0
 71
     5
 72
     1
  1
\A1;114
  7
ＭＳ ゴシック
 73
     1
 44
1.0
  0
POINT
  5
173E7
330
173DE
100
AcDbEntity
  8
Defpoints
 62
     0
100
AcDbPoint
 10
257.5978548070218
 20
475.5501747355622
 30
0.0
  0
POINT
  5
173E8
330
173DE
100
AcDbEntity
  8
Defpoints
 62
     0
100
AcDbPoint
 10
371.2585889619747
 20
475.5501747355622
 30
0.0
  0
POINT
  5
173E9
330
173DE
100
AcDbEntity
  8
Defpoints
 62
     0
100
AcDbPoint
 10
371.2585889619747
 20
345.5021762917933
 30
0.0
  0
ENDBLK
  5
173E0
330
173DE
100
AcDbEntity
  8
0
100
AcDbBlockEnd
  0
BLOCK
  5
17554
330
17553
100
AcDbEntity
  8
0
100
AcDbBlockBegin
  2
*D8
 70
     1
 10
0.0
 20
0.0
 30
0.0
  3
*D8
  1

  0
LINE
  5
17555
330
17553
100
AcDbEntity
  8
DIM
 62
     0
370
    -2
100
AcDbLine
 10
266.4291509086001
 20
161.8930819533999
 30
0.0
 11
143.3041325801005
 21
161.8930819533999
 31
0.0
  0
LINE
  5
17556
330
17553
100
AcDbEntity
  8
DIM
 62
     0
370
    -2
100
AcDbLine
 10
266.4291509086001
 20
96.89308195329994
 30
0.0
 11
143.3041325801005
 21
96.89308195329994
 31
0.0
  0
LINE
  5
17557
330
17553
100
AcDbEntity
  8
DIM
 62
     0
370
    -2
100
AcDbLine
 10
143.3041325801005
 20
158.8930819533999
 30
0.0
 11
143.3041325801005
 21
99.89308195329994
 31
0.0
  0
INSERT
  5
17558
330
17553
100
AcDbEntity
  8
DIM
 62
     0
370
    -2
100
AcDbBlockReference
  2
_DOT
 10
143.3041325801005
 20
161.8930819533999
 30
0.0
 41
3.0
 42
3.0
 43
3.0
 50
90.0
  0
INSERT
  5
17559
330
17553
100
AcDbEntity
  8
DIM
 62
     0
370
    -2
100
AcDbBlockReference
  2
_DOT
 10
143.3041325801005
 20
96.89308195329994
 30
0.0
 41
3.0
 42
3.0
 43
3.0
 50
270.0
  0
MTEXT
  5
1755A
330
17553
100
AcDbEntity
  8
DIM
 62
     0
100
AcDbMText
 10
133.3041325801005
 20
129.3930822141999
 30
0.0
 40
8.0
 41
0.0
 46
0.0
 71
     5
 72
     1
  1
\A1;\A1;Ø 65
  7
ＭＳ ゴシック
 11
0.0
 21
1.0
 31
0.0
 73
     1
 44
1.0
  0
POINT
  5
1755B
330
17553
100
AcDbEntity
  8
Defpoints
 62
     0
100
AcDbPoint
 10
276.4291509086001
 20
161.8930819533999
 30
0.0
  0
POINT
  5
1755C
330
17553
100
AcDbEntity
  8
Defpoints
 62
     0
100
AcDbPoint
 10
276.4291509086001
 20
96.89308195329994
 30
0.0
  0
POINT
  5
1755D
330
17553
100
AcDbEntity
  8
Defpoints
 62
     0
100
AcDbPoint
 10
143.3041325801005
 20
96.89308195329994
 30
0.0
  0
ENDBLK
  5
1755E
330
17553
100
AcDbEntity
  8
0
100
AcDbBlockEnd
  0
BLOCK
  5
17561
330
17560
100
AcDbEntity
  8
0
100
AcDbBlockBegin
  2
*D9
 70
     1
 10
0.0
 20
0.0
 30
0.0
  3
*D9
  1

  0
LINE
  5
17562
330
17560
100
AcDbEntity
  8
DIM
 62
     0
370
    -2
100
AcDbLine
 10
177.4291509085006
 20
139.8730819534
 30
0.0
 11
157.2132449291003
 21
139.8730819534
 31
0.0
  0
LINE
  5
17563
330
17560
100
AcDbEntity
  8
DIM
 62
     0
370
    -2
100
AcDbLine
 10
177.4291509085006
 20
118.9130819533
 30
0.0
 11
157.2132449291003
 21
118.9130819533
 31
0.0
  0
LINE
  5
17564
330
17560
100
AcDbEntity
  8
DIM
 62
     0
370
    -2
100
AcDbLine
 10
157.2132449291003
 20
139.8730819534
 30
0.0
 11
157.2132449291003
 21
205.3995794442
 31
0.0
  0
LINE
  5
17565
330
17560
100
AcDbEntity
  8
DIM
 62
     0
370
    -2
100
AcDbLine
 10
157.2132449291003
 20
142.8730819534
 30
0.0
 11
157.2132449291003
 21
145.8730819534
 31
0.0
  0
LINE
  5
17566
330
17560
100
AcDbEntity
  8
DIM
 62
     0
370
    -2
100
AcDbLine
 10
157.2132449291003
 20
115.9130819533
 30
0.0
 11
157.2132449291003
 21
112.9130819533
 31
0.0
  0
INSERT
  5
17567
330
17560
100
AcDbEntity
  8
DIM
 62
     0
370
    -2
100
AcDbBlockReference
  2
_DOT
 10
157.2132449291003
 20
139.8730819534
 30
0.0
 41
3.0
 42
3.0
 43
3.0
 50
270.0
  0
INSERT
  5
17568
330
17560
100
AcDbEntity
  8
DIM
 62
     0
370
    -2
100
AcDbBlockReference
  2
_DOT
 10
157.2132449291003
 20
118.9130819533
 30
0.0
 41
3.0
 42
3.0
 43
3.0
 50
90.0
  0
MTEXT
  5
17569
330
17560
100
AcDbEntity
  8
DIM
 62
     0
100
AcDbMText
 10
146.3612449291003
 20
189.4915794442
 30
0.0
 40
8.0
 41
0.0
 46
0.0
 71
     5
 72
     1
  1
\A1;\A1;G1/2 {}
  7
ＭＳ ゴシック
 11
0.0
 21
1.0
 31
0.0
 73
     1
 44
1.0
  0
POINT
  5
1756A
330
17560
100
AcDbEntity
  8
Defpoints
 62
     0
100
AcDbPoint
 10
187.4291509085006
 20
139.8730819534
 30
0.0
  0
POINT
  5
1756B
330
17560
100
AcDbEntity
  8
Defpoints
 62
     0
100
AcDbPoint
 10
187.4291509085006
 20
118.9130819533
 30
0.0
  0
POINT
  5
1756C
330
17560
100
AcDbEntity
  8
Defpoints
 62
     0
100
AcDbPoint
 10
157.2132449291003
 20
118.9130819533
 30
0.0
  0
ENDBLK
  5
1756D
330
17560
100
AcDbEntity
  8
0
100
AcDbBlockEnd
  0
BLOCK
  5
17570
330
1756F
100
AcDbEntity
  8
0
100
AcDbBlockBegin
  2
*D10
 70
     1
 10
0.0
 20
0.0
 30
0.0
  3
*D10
  1

  0
LINE
  5
17571
330
1756F
100
AcDbEntity
  8
DIM
 62
     0
370
    -2
100
AcDbLine
 10
447.2593977242004
 20
59.72369156819997
 30
0.0
 11
447.2593977242004
 21
24.64843344853201
 31
0.0
  0
LINE
  5
17572
330
1756F
100
AcDbEntity
  8
DIM
 62
     0
370
    -2
100
AcDbLine
 10
449.5138182320329
 20
59.90229471518162
 30
0.0
 11
456.1066814954079
 21
25.488255709612
 31
0.0
  0
ARC
  5
17573
330
1756F
100
AcDbEntity
  8
DIM
 62
     0
370
    -2
100
AcDbCircle
 10
447.2593977242004
 20
71.67012792999992
 30
0.0
 40
47.02169448146791
100
AcDbArc
 50
273.6561103652471
 51
277.188918119146
  0
INSERT
  5
17574
330
1756F
100
AcDbEntity
  8
DIM
 62
     0
370
    -2
100
AcDbBlockReference
  2
_DOT
 10
447.2593977242004
 20
24.64843344853201
 30
0.0
 41
3.0
 42
3.0
 43
3.0
 50
181.8280551826234
  0
INSERT
  5
17575
330
1756F
100
AcDbEntity
  8
DIM
 62
     0
370
    -2
100
AcDbBlockReference
  2
_DOT
 10
456.1066814954079
 20
25.488255709612
 30
0.0
 41
3.0
 42
3.0
 43
3.0
 50
9.01697330176952
  0
MTEXT
  5
17576
330
1756F
100
AcDbEntity
  8
DIM
 62
     0
100
AcDbMText
 10
420.8025916037074
 20
45.97388700400099
 30
0.0
 40
8.0
 41
0.0
 46
0.0
 71
     5
 72
     1
  1
\A1;\A1;11%%d
  7
ＭＳ ゴシック
 11
0.6967207252072058
 21
-0.71734247822553
 31
0.0
 73
     1
 44
1.0
  0
POINT
  5
17577
330
1756F
100
AcDbEntity
  8
Defpoints
 62
     0
100
AcDbPoint
 10
453.1772197544476
 20
25.02230767731468
 30
0.0
  0
POINT
  5
17578
330
1756F
100
AcDbEntity
  8
Defpoints
 62
     0
100
AcDbPoint
 10
447.2593977242004
 20
71.67012792999992
 30
0.0
  0
POINT
  5
17579
330
1756F
100
AcDbEntity
  8
Defpoints
 62
     0
100
AcDbPoint
 10
447.2593977242004
 20
71.67012792999992
 30
0.0
  0
POINT
  5
1757A
330
1756F
100
AcDbEntity
  8
Defpoints
 62
     0
100
AcDbPoint
 10
447.2593977242004
 20
69.72369156819997
 30
0.0
  0
POINT
  5
1757B
330
1756F
100
AcDbEntity
  8
Defpoints
 62
     0
100
AcDbPoint
 10
447.6322859162005
 20
69.72369156819997
 30
0.0
  0
ENDBLK
  5
1757C
330
1756F
100
AcDbEntity
  8
0
100
AcDbBlockEnd
  0
BLOCK
  5
1757F
330
1757E
100
AcDbEntity
  8
0
100
AcDbBlockBegin
  2
*D11
 70
     1
 10
0.0
 20
0.0
 30
0.0
  3
*D11
  1

  0
LINE
  5
17580
330
1757E
100
AcDbEntity
  8
DIM
 62
     0
370
    -2
100
AcDbLine
 10
447.2593977242004
 20
61.67012792999992
 30
0.0
 11
447.2593977242004
 21
1.000000061200012
 31
0.0
  0
LINE
  5
17581
330
1757E
100
AcDbEntity
  8
DIM
 62
     0
370
    -2
100
AcDbLine
 10
276.4291509086001
 20
39.75486530369994
 30
0.0
 11
276.4291509086001
 21
1.000000061200012
 31
0.0
  0
LINE
  5
17582
330
1757E
100
AcDbEntity
  8
DIM
 62
     0
370
    -2
100
AcDbLine
 10
444.2593977242004
 20
1.000000061200012
 30
0.0
 11
279.4291509086001
 21
1.000000061200012
 31
0.0
  0
INSERT
  5
17583
330
1757E
100
AcDbEntity
  8
DIM
 62
     0
370
    -2
100
AcDbBlockReference
  2
_DOT
 10
447.2593977242004
 20
1.000000061200012
 30
0.0
 41
3.0
 42
3.0
 43
3.0
  0
INSERT
  5
17584
330
1757E
100
AcDbEntity
  8
DIM
 62
     0
370
    -2
100
AcDbBlockReference
  2
_DOT
 10
276.4291509086001
 20
1.000000061200012
 30
0.0
 41
3.0
 42
3.0
 43
3.0
 50
180.0
  0
MTEXT
  5
17585
330
1757E
100
AcDbEntity
  8
DIM
 62
     0
100
AcDbMText
 10
361.8442728308005
 20
11.00000006120001
 30
0.0
 40
8.0
 41
0.0
 46
0.0
 71
     5
 72
     1
  1
\A1;\A1;171
  7
ＭＳ ゴシック
 73
     1
 44
1.0
  0
POINT
  5
17586
330
1757E
100
AcDbEntity
  8
Defpoints
 62
     0
100
AcDbPoint
 10
447.2593977242004
 20
71.67012792999992
 30
0.0
  0
POINT
  5
17587
330
1757E
100
AcDbEntity
  8
Defpoints
 62
     0
100
AcDbPoint
 10
276.4291509086001
 20
49.75486530369994
 30
0.0
  0
POINT
  5
17588
330
1757E
100
AcDbEntity
  8
Defpoints
 62
     0
100
AcDbPoint
 10
276.4291509086001
 20
1.000000061200012
 30
0.0
  0
ENDBLK
  5
17589
330
1757E
100
AcDbEntity
  8
0
100
AcDbBlockEnd
  0
BLOCK
  5
1758C
330
1758B
100
AcDbEntity
  8
0
100
AcDbBlockBegin
  2
*D12
 70
     1
 10
0.0
 20
0.0
 30
0.0
  3
*D12
  1

  0
LINE
  5
1758D
330
1758B
100
AcDbEntity
  8
DIM
 62
     0
370
    -2
100
AcDbLine
 10
276.4291509086001
 20
39.75486530369994
 30
0.0
 11
276.4291509086001
 21
1.0
 31
0.0
  0
LINE
  5
1758E
330
1758B
100
AcDbEntity
  8
DIM
 62
     0
370
    -2
100
AcDbLine
 10
186.4291509086001
 20
109.9130819535
 30
0.0
 11
186.4291509086001
 21
1.0
 31
0.0
  0
LINE
  5
1758F
330
1758B
100
AcDbEntity
  8
DIM
 62
     0
370
    -2
100
AcDbLine
 10
273.4291509086001
 20
1.0
 30
0.0
 11
189.4291509086001
 21
1.0
 31
0.0
  0
INSERT
  5
17590
330
1758B
100
AcDbEntity
  8
DIM
 62
     0
370
    -2
100
AcDbBlockReference
  2
_DOT
 10
276.4291509086001
 20
1.0
 30
0.0
 41
3.0
 42
3.0
 43
3.0
  0
INSERT
  5
17591
330
1758B
100
AcDbEntity
  8
DIM
 62
     0
370
    -2
100
AcDbBlockReference
  2
_DOT
 10
186.4291509086001
 20
1.0
 30
0.0
 41
3.0
 42
3.0
 43
3.0
 50
180.0
  0
MTEXT
  5
17592
330
1758B
100
AcDbEntity
  8
DIM
 62
     0
100
AcDbMText
 10
231.4291519142005
 20
11.0
 30
0.0
 40
8.0
 41
0.0
 46
0.0
 71
     5
 72
     1
  1
\A1;\A1;90
  7
ＭＳ ゴシック
 73
     1
 44
1.0
  0
POINT
  5
17593
330
1758B
100
AcDbEntity
  8
Defpoints
 62
     0
100
AcDbPoint
 10
276.4291509086001
 20
49.75486530369994
 30
0.0
  0
POINT
  5
17594
330
1758B
100
AcDbEntity
  8
Defpoints
 62
     0
100
AcDbPoint
 10
186.4291509086001
 20
119.9130819535
 30
0.0
  0
POINT
  5
17595
330
1758B
100
AcDbEntity
  8
Defpoints
 62
     0
100
AcDbPoint
 10
186.4291509086001
 20
1.0
 30
0.0
  0
ENDBLK
  5
17596
330
1758B
100
AcDbEntity
  8
0
100
AcDbBlockEnd
  0
BLOCK
  5
17599
330
17598
100
AcDbEntity
  8
0
100
AcDbBlockBegin
  2
*D13
 70
     1
 10
0.0
 20
0.0
 30
0.0
  3
*D13
  1

  0
LINE
  5
1759A
330
17598
100
AcDbEntity
  8
DIM
 62
     0
370
    -2
100
AcDbLine
 10
292.9291509084003
 20
129.3930819535
 30
0.0
 11
508.5873515897001
 21
129.3930819535
 31
0.0
  0
LINE
  5
1759B
330
17598
100
AcDbEntity
  8
DIM
 62
     0
370
    -2
100
AcDbLine
 10
457.2593977242004
 20
71.67012792999992
 30
0.0
 11
508.5873515897001
 21
71.67012792999992
 31
0.0
  0
LINE
  5
1759C
330
17598
100
AcDbEntity
  8
DIM
 62
     0
370
    -2
100
AcDbLine
 10
508.5873515897001
 20
126.3930819535
 30
0.0
 11
508.5873515897001
 21
74.67012792999992
 31
0.0
  0
INSERT
  5
1759D
330
17598
100
AcDbEntity
  8
DIM
 62
     0
370
    -2
100
AcDbBlockReference
  2
_DOT
 10
508.5873515897001
 20
129.3930819535
 30
0.0
 41
3.0
 42
3.0
 43
3.0
 50
90.0
  0
INSERT
  5
1759E
330
17598
100
AcDbEntity
  8
DIM
 62
     0
370
    -2
100
AcDbBlockReference
  2
_DOT
 10
508.5873515897001
 20
71.67012792999992
 30
0.0
 41
3.0
 42
3.0
 43
3.0
 50
270.0
  0
MTEXT
  5
1759F
330
17598
100
AcDbEntity
  8
DIM
 62
     0
100
AcDbMText
 10
498.5873515897001
 20
100.5316049137
 30
0.0
 40
8.0
 41
0.0
 46
0.0
 71
     5
 72
     1
  1
\A1;\A1;58
  7
ＭＳ ゴシック
 11
0.0
 21
1.0
 31
0.0
 73
     1
 44
1.0
  0
POINT
  5
175A0
330
17598
100
AcDbEntity
  8
Defpoints
 62
     0
100
AcDbPoint
 10
282.9291509084003
 20
129.3930819535
 30
0.0
  0
POINT
  5
175A1
330
17598
100
AcDbEntity
  8
Defpoints
 62
     0
100
AcDbPoint
 10
447.2593977242004
 20
71.67012792999992
 30
0.0
  0
POINT
  5
175A2
330
17598
100
AcDbEntity
  8
Defpoints
 62
     0
100
AcDbPoint
 10
508.5873515897001
 20
71.67012792999992
 30
0.0
  0
ENDBLK
  5
175A3
330
17598
100
AcDbEntity
  8
0
100
AcDbBlockEnd
  0
BLOCK
  5
176D9
330
176D8
100
AcDbEntity
  8
0
100
AcDbBlockBegin
  2
*D14
 70
     1
 10
0.0
 20
0.0
 30
0.0
  3
*D14
  1

  0
LINE
  5
176DB
330
176D8
100
AcDbEntity
  8
DIM
 62
     0
370
    -2
100
AcDbLine
 10
327.2910354070805
 20
332.5371852968651
 30
0.0
 11
204.1660170785808
 21
332.5371852968651
 31
0.0
  0
LINE
  5
176DC
330
176D8
100
AcDbEntity
  8
DIM
 62
     0
370
    -2
100
AcDbLine
 10
327.2910354070805
 20
267.5371852967651
 30
0.0
 11
204.1660170785808
 21
267.5371852967651
 31
0.0
  0
LINE
  5
176DD
330
176D8
100
AcDbEntity
  8
DIM
 62
     0
370
    -2
100
AcDbLine
 10
204.1660170785808
 20
329.5371852968651
 30
0.0
 11
204.1660170785808
 21
270.5371852967651
 31
0.0
  0
INSERT
  5
176DE
330
176D8
100
AcDbEntity
  8
DIM
 62
     0
370
    -2
100
AcDbBlockReference
  2
_DOT
 10
204.1660170785808
 20
332.5371852968651
 30
0.0
 41
3.0
 42
3.0
 43
3.0
 50
90.0
  0
INSERT
  5
176DF
330
176D8
100
AcDbEntity
  8
DIM
 62
     0
370
    -2
100
AcDbBlockReference
  2
_DOT
 10
204.1660170785808
 20
267.5371852967651
 30
0.0
 41
3.0
 42
3.0
 43
3.0
 50
270.0
  0
MTEXT
  5
176E0
330
176D8
100
AcDbEntity
  8
DIM
 62
     0
100
AcDbMText
 10
194.1660170785808
 20
300.0371855576651
 30
0.0
 40
8.0
 41
0.0
 46
0.0
 71
     5
 72
     1
  1
\A1;\A1;Ø 65
  7
ＭＳ ゴシック
 11
0.0
 21
1.0
 31
0.0
 73
     1
 44
1.0
  0
POINT
  5
176E1
330
176D8
100
AcDbEntity
  8
Defpoints
 62
     0
100
AcDbPoint
 10
337.2910354070805
 20
332.5371852968651
 30
0.0
  0
POINT
  5
176E2
330
176D8
100
AcDbEntity
  8
Defpoints
 62
     0
100
AcDbPoint
 10
337.2910354070805
 20
267.5371852967651
 30
0.0
  0
POINT
  5
176E3
330
176D8
100
AcDbEntity
  8
Defpoints
 62
     0
100
AcDbPoint
 10
204.1660170785808
 20
267.5371852967651
 30
0.0
  0
ENDBLK
  5
176DA
330
176D8
100
AcDbEntity
  8
0
100
AcDbBlockEnd
  0
BLOCK
  5
176E5
330
176E4
100
AcDbEntity
  8
0
100
AcDbBlockBegin
  2
*D15
 70
     1
 10
0.0
 20
0.0
 30
0.0
  3
*D15
  1

  0
LINE
  5
176E7
330
176E4
100
AcDbEntity
  8
DIM
 62
     0
370
    -2
100
AcDbLine
 10
238.2910354069809
 20
310.5171852968651
 30
0.0
 11
218.0751294275806
 21
310.5171852968651
 31
0.0
  0
LINE
  5
176E8
330
176E4
100
AcDbEntity
  8
DIM
 62
     0
370
    -2
100
AcDbLine
 10
238.2910354069809
 20
289.5571852967651
 30
0.0
 11
218.0751294275806
 21
289.5571852967651
 31
0.0
  0
LINE
  5
176E9
330
176E4
100
AcDbEntity
  8
DIM
 62
     0
370
    -2
100
AcDbLine
 10
218.0751294275806
 20
310.5171852968651
 30
0.0
 11
218.0751294275806
 21
376.0436827876651
 31
0.0
  0
LINE
  5
176EA
330
176E4
100
AcDbEntity
  8
DIM
 62
     0
370
    -2
100
AcDbLine
 10
218.0751294275806
 20
313.5171852968651
 30
0.0
 11
218.0751294275806
 21
316.5171852968651
 31
0.0
  0
LINE
  5
176EB
330
176E4
100
AcDbEntity
  8
DIM
 62
     0
370
    -2
100
AcDbLine
 10
218.0751294275806
 20
286.5571852967651
 30
0.0
 11
218.0751294275806
 21
283.5571852967651
 31
0.0
  0
INSERT
  5
176EC
330
176E4
100
AcDbEntity
  8
DIM
 62
     0
370
    -2
100
AcDbBlockReference
  2
_DOT
 10
218.0751294275806
 20
310.5171852968651
 30
0.0
 41
3.0
 42
3.0
 43
3.0
 50
270.0
  0
INSERT
  5
176ED
330
176E4
100
AcDbEntity
  8
DIM
 62
     0
370
    -2
100
AcDbBlockReference
  2
_DOT
 10
218.0751294275806
 20
289.5571852967651
 30
0.0
 41
3.0
 42
3.0
 43
3.0
 50
90.0
  0
MTEXT
  5
176EE
330
176E4
100
AcDbEntity
  8
DIM
 62
     0
100
AcDbMText
 10
207.2231294275806
 20
360.1356827876651
 30
0.0
 40
8.0
 41
0.0
 46
0.0
 71
     5
 72
     1
  1
\A1;\A1;G1/2 {}
  7
ＭＳ ゴシック
 11
0.0
 21
1.0
 31
0.0
 73
     1
 44
1.0
  0
POINT
  5
176EF
330
176E4
100
AcDbEntity
  8
Defpoints
 62
     0
100
AcDbPoint
 10
248.2910354069809
 20
310.5171852968651
 30
0.0
  0
POINT
  5
176F0
330
176E4
100
AcDbEntity
  8
Defpoints
 62
     0
100
AcDbPoint
 10
248.2910354069809
 20
289.5571852967651
 30
0.0
  0
POINT
  5
176F1
330
176E4
100
AcDbEntity
  8
Defpoints
 62
     0
100
AcDbPoint
 10
218.0751294275806
 20
289.5571852967651
 30
0.0
  0
ENDBLK
  5
176E6
330
176E4
100
AcDbEntity
  8
0
100
AcDbBlockEnd
  0
BLOCK
  5
176F3
330
176F2
100
AcDbEntity
  8
0
100
AcDbBlockBegin
  2
*D16
 70
     1
 10
0.0
 20
0.0
 30
0.0
  3
*D16
  1

  0
LINE
  5
176F5
330
176F2
100
AcDbEntity
  8
DIM
 62
     0
370
    -2
100
AcDbLine
 10
508.1212822226807
 20
230.3677949116651
 30
0.0
 11
508.1212822226807
 21
189.4021128856018
 31
0.0
  0
LINE
  5
176F6
330
176F2
100
AcDbEntity
  8
DIM
 62
     0
370
    -2
100
AcDbLine
 10
510.3757027305137
 20
230.5463980586468
 30
0.0
 11
518.0768682872742
 21
190.3471399713561
 31
0.0
  0
ARC
  5
176F7
330
176F2
100
AcDbEntity
  8
DIM
 62
     0
370
    -2
100
AcDbCircle
 10
508.1212822226807
 20
242.3142312734651
 30
0.0
 40
52.91211838786332
100
AcDbArc
 50
273.2489791613582
 51
277.5960493230377
  0
INSERT
  5
176F8
330
176F2
100
AcDbEntity
  8
DIM
 62
     0
370
    -2
100
AcDbBlockReference
  2
_DOT
 10
508.1212822226807
 20
189.4021128856018
 30
0.0
 41
3.0
 42
3.0
 43
3.0
 50
181.6244895806791
  0
INSERT
  5
176F9
330
176F2
100
AcDbEntity
  8
DIM
 62
     0
370
    -2
100
AcDbBlockReference
  2
_DOT
 10
518.0768682872742
 20
190.3471399713561
 30
0.0
 41
3.0
 42
3.0
 43
3.0
 50
9.220538903716777
  0
MTEXT
  5
176FA
330
176F2
100
AcDbEntity
  8
DIM
 62
     0
100
AcDbMText
 10
516.3757431031271
 20
179.8047639203488
 30
0.0
 40
8.0
 41
0.0
 46
0.0
 71
     5
 72
     1
  1
\A1;\A1;11%%d
  7
ＭＳ ゴシック
 11
0.991393611370693
 21
0.1309148858357043
 31
0.0
 73
     1
 44
1.0
  0
POINT
  5
176FB
330
176F2
100
AcDbEntity
  8
Defpoints
 62
     0
100
AcDbPoint
 10
511.4574952882808
 20
189.5073950240534
 30
0.0
  0
POINT
  5
176FC
330
176F2
100
AcDbEntity
  8
Defpoints
 62
     0
100
AcDbPoint
 10
508.1212822226807
 20
242.3142312734651
 30
0.0
  0
POINT
  5
176FD
330
176F2
100
AcDbEntity
  8
Defpoints
 62
     0
100
AcDbPoint
 10
508.1212822226807
 20
242.3142312734651
 30
0.0
  0
POINT
  5
176FE
330
176F2
100
AcDbEntity
  8
Defpoints
 62
     0
100
AcDbPoint
 10
508.1212822226807
 20
240.3677949116651
 30
0.0
  0
POINT
  5
176FF
330
176F2
100
AcDbEntity
  8
Defpoints
 62
     0
100
AcDbPoint
 10
508.4941704146809
 20
240.3677949116651
 30
0.0
  0
ENDBLK
  5
176F4
330
176F2
100
AcDbEntity
  8
0
100
AcDbBlockEnd
  0
BLOCK
  5
17701
330
17700
100
AcDbEntity
  8
0
100
AcDbBlockBegin
  2
*D17
 70
     1
 10
0.0
 20
0.0
 30
0.0
  3
*D17
  1

  0
LINE
  5
17703
330
17700
100
AcDbEntity
  8
DIM
 62
     0
370
    -2
100
AcDbLine
 10
508.1212822226807
 20
263.6948682528391
 30
0.0
 11
508.1212822226807
 21
401.0571418129607
 31
0.0
  0
LINE
  5
17704
330
17700
100
AcDbEntity
  8
DIM
 62
     0
370
    -2
100
AcDbLine
 10
337.2910354070805
 20
389.6754019464651
 30
0.0
 11
337.2910354070805
 21
401.0571418129607
 31
0.0
  0
LINE
  5
17705
330
17700
100
AcDbEntity
  8
DIM
 62
     0
370
    -2
100
AcDbLine
 10
505.1212822226807
 20
401.0571418129607
 30
0.0
 11
340.2910354070805
 21
401.0571418129607
 31
0.0
  0
INSERT
  5
17706
330
17700
100
AcDbEntity
  8
DIM
 62
     0
370
    -2
100
AcDbBlockReference
  2
_DOT
 10
508.1212822226807
 20
401.0571418129607
 30
0.0
 41
3.0
 42
3.0
 43
3.0
  0
INSERT
  5
17707
330
17700
100
AcDbEntity
  8
DIM
 62
     0
370
    -2
100
AcDbBlockReference
  2
_DOT
 10
337.2910354070805
 20
401.0571418129607
 30
0.0
 41
3.0
 42
3.0
 43
3.0
 50
180.0
  0
MTEXT
  5
17708
330
17700
100
AcDbEntity
  8
DIM
 62
     0
100
AcDbMText
 10
413.0804521770449
 20
411.0571418129607
 30
0.0
 40
8.0
 41
0.0
 46
0.0
 71
     5
 72
     1
  1
\A1;\A1;171
  7
ＭＳ ゴシック
 73
     1
 44
1.0
  0
POINT
  5
17709
330
17700
100
AcDbEntity
  8
Defpoints
 62
     0
100
AcDbPoint
 10
508.1212822226807
 20
253.6948682528391
 30
0.0
  0
POINT
  5
1770A
330
17700
100
AcDbEntity
  8
Defpoints
 62
     0
100
AcDbPoint
 10
337.2910354070805
 20
379.6754019464651
 30
0.0
  0
POINT
  5
1770B
330
17700
100
AcDbEntity
  8
Defpoints
 62
     0
100
AcDbPoint
 10
337.2910354070805
 20
401.0571418129607
 30
0.0
  0
ENDBLK
  5
17702
330
17700
100
AcDbEntity
  8
0
100
AcDbBlockEnd
  0
BLOCK
  5
1770D
330
1770C
100
AcDbEntity
  8
0
100
AcDbBlockBegin
  2
*D18
 70
     1
 10
0.0
 20
0.0
 30
0.0
  3
*D18
  1

  0
LINE
  5
1770F
330
1770C
100
AcDbEntity
  8
DIM
 62
     0
370
    -2
100
AcDbLine
 10
337.2910354070805
 20
210.3989686471651
 30
0.0
 11
337.2910354070805
 21
171.6441033434651
 31
0.0
  0
LINE
  5
17710
330
1770C
100
AcDbEntity
  8
DIM
 62
     0
370
    -2
100
AcDbLine
 10
247.2910354070805
 20
280.5571852969651
 30
0.0
 11
247.2910354070805
 21
171.6441033434651
 31
0.0
  0
LINE
  5
17711
330
1770C
100
AcDbEntity
  8
DIM
 62
     0
370
    -2
100
AcDbLine
 10
334.2910354070805
 20
171.6441033434651
 30
0.0
 11
250.2910354070805
 21
171.6441033434651
 31
0.0
  0
INSERT
  5
17712
330
1770C
100
AcDbEntity
  8
DIM
 62
     0
370
    -2
100
AcDbBlockReference
  2
_DOT
 10
337.2910354070805
 20
171.6441033434651
 30
0.0
 41
3.0
 42
3.0
 43
3.0
  0
INSERT
  5
17713
330
1770C
100
AcDbEntity
  8
DIM
 62
     0
370
    -2
100
AcDbBlockReference
  2
_DOT
 10
247.2910354070805
 20
171.6441033434651
 30
0.0
 41
3.0
 42
3.0
 43
3.0
 50
180.0
  0
MTEXT
  5
17714
330
1770C
100
AcDbEntity
  8
DIM
 62
     0
100
AcDbMText
 10
292.2910364126808
 20
181.6441033434651
 30
0.0
 40
8.0
 41
0.0
 46
0.0
 71
     5
 72
     1
  1
\A1;\A1;90
  7
ＭＳ ゴシック
 73
     1
 44
1.0
  0
POINT
  5
17715
330
1770C
100
AcDbEntity
  8
Defpoints
 62
     0
100
AcDbPoint
 10
337.2910354070805
 20
220.3989686471651
 30
0.0
  0
POINT
  5
17716
330
1770C
100
AcDbEntity
  8
Defpoints
 62
     0
100
AcDbPoint
 10
247.2910354070805
 20
290.5571852969651
 30
0.0
  0
POINT
  5
17717
330
1770C
100
AcDbEntity
  8
Defpoints
 62
     0
100
AcDbPoint
 10
247.2910354070805
 20
171.6441033434651
 30
0.0
  0
ENDBLK
  5
1770E
330
1770C
100
AcDbEntity
  8
0
100
AcDbBlockEnd
  0
BLOCK
  5
17719
330
17718
100
AcDbEntity
  8
0
100
AcDbBlockBegin
  2
*D19
 70
     1
 10
0.0
 20
0.0
 30
0.0
  3
*D19
  1

  0
LINE
  5
1771B
330
17718
100
AcDbEntity
  8
DIM
 62
     0
370
    -2
100
AcDbLine
 10
360.4492086154888
 20
300.037185296965
 30
0.0
 11
569.4492360881804
 21
300.037185296965
 31
0.0
  0
LINE
  5
1771C
330
17718
100
AcDbEntity
  8
DIM
 62
     0
370
    -2
100
AcDbLine
 10
518.1212822226807
 20
242.3142312734651
 30
0.0
 11
569.4492360881804
 21
242.3142312734651
 31
0.0
  0
LINE
  5
1771D
330
17718
100
AcDbEntity
  8
DIM
 62
     0
370
    -2
100
AcDbLine
 10
569.4492360881804
 20
297.037185296965
 30
0.0
 11
569.4492360881804
 21
245.3142312734651
 31
0.0
  0
INSERT
  5
1771E
330
17718
100
AcDbEntity
  8
DIM
 62
     0
370
    -2
100
AcDbBlockReference
  2
_DOT
 10
569.4492360881804
 20
300.037185296965
 30
0.0
 41
3.0
 42
3.0
 43
3.0
 50
90.0
  0
INSERT
  5
1771F
330
17718
100
AcDbEntity
  8
DIM
 62
     0
370
    -2
100
AcDbBlockReference
  2
_DOT
 10
569.4492360881804
 20
242.3142312734651
 30
0.0
 41
3.0
 42
3.0
 43
3.0
 50
270.0
  0
MTEXT
  5
17720
330
17718
100
AcDbEntity
  8
DIM
 62
     0
100
AcDbMText
 10
559.4492360881804
 20
271.1757082571651
 30
0.0
 40
8.0
 41
0.0
 46
0.0
 71
     5
 72
     1
  1
\A1;\A1;58
  7
ＭＳ ゴシック
 11
0.0
 21
1.0
 31
0.0
 73
     1
 44
1.0
  0
POINT
  5
17721
330
17718
100
AcDbEntity
  8
Defpoints
 62
     0
100
AcDbPoint
 10
350.4492086154888
 20
300.037185296965
 30
0.0
  0
POINT
  5
17722
330
17718
100
AcDbEntity
  8
Defpoints
 62
     0
100
AcDbPoint
 10
508.1212822226807
 20
242.3142312734651
 30
0.0
  0
POINT
  5
17723
330
17718
100
AcDbEntity
  8
Defpoints
 62
     0
100
AcDbPoint
 10
569.4492360881804
 20
242.3142312734651
 30
0.0
  0
ENDBLK
  5
1771A
330
17718
100
AcDbEntity
  8
0
100
AcDbBlockEnd
  0
ENDSEC
  0
SECTION
  2
ENTITIES
  0
MTEXT
  5
177
330
A
100
AcDbEntity
  8
TEMPLATE
390
1D
100
AcDbMText
 10
23.76064336431923
 20
103.1195254894285
 30
0.0
 40
4.886523437499998
 41
0.0
 46
0.0
 71
     1
 72
     1
  1
品名
  7
ＭＳ ゴシック
 73
     1
 44
0.7828267384257843
  0
MTEXT
  5
178
330
A
100
AcDbEntity
  8
TEMPLATE
390
1D
100
AcDbMText
 10
23.76064336431923
 20
77.6195254894284
 30
0.0
 40
4.886523437499998
 41
0.0
 46
0.0
 71
     1
 72
     1
  1
仕様
  7
ＭＳ ゴシック
 73
     1
 44
0.7828267384257843
  0
LINE
  5
179
330
A
100
AcDbEntity
  8
TEMPLATE
390
1D
100
AcDbLine
 10
606.6606433641745
 20
80.14400205192852
 30
0.0
 11
21.66064336417462
 21
80.14400205192852
 31
0.0
  0
LWPOLYLINE
  5
17A
330
A
100
AcDbEntity
  8
TEMPLATE
390
1D
100
AcDbPolyline
 90
        5
 70
   128
 43
0.0
 10
606.6606433641745
 20
869.1440020519278
 10
21.66064336417462
 20
869.1440020519278
 10
21.66064336417462
 20
29.14400205192847
 10
606.6606433641745
 20
29.14400205192847
 10
606.6606433641745
 20
869.1440020519278
  0
LINE
  5
17B
330
A
100
AcDbEntity
  8
TEMPLATE
390
1D
100
AcDbLine
 10
606.6606433641745
 20
105.6440020519285
 30
0.0
 11
21.66064336417462
 21
105.6440020519285
 31
0.0
  0
LINE
  5
17C
330
A
100
AcDbEntity
  8
TEMPLATE
390
1D
100
AcDbLine
 10
606.6606433643196
 20
54.64400205192847
 30
0.0
 11
380.760643364319
 21
54.64400205192847
 31
0.0
  0
MTEXT
  5
17E
330
A
100
AcDbEntity
  8
TEMPLATE
390
1D
100
AcDbMText
 10
389.7220652399973
 20
45.67088370993605
 30
0.0
 40
7.329785156250001
 41
0.0
 46
0.0
 71
     1
 72
     1
  1
大洋金物株式会社 ティーフォルム事業部
  7
ＭＳ ゴシック
 73
     1
 44
0.7828267384257843
  0
MTEXT
  5
180
330
A
100
AcDbEntity
  8
TEMPLATE
390
1D
100
AcDbMText
 10
549.360643364397
 20
69.04478720817846
 30
0.0
 40
7.329785156250001
 41
0.0
 46
7.329785156250001
 71
     1
 72
     1
  1
{1:3}
  7
ＭＳ ゴシック
 73
     1
 44
0.7828267384257843
1001
ACAD
1000
ACAD_MTEXT_DEFINED_HEIGHT_BEGIN
1070
    46
1040
7.329785156250001
1000
ACAD_MTEXT_DEFINED_HEIGHT_END
  0
MTEXT
  5
181
330
A
100
AcDbEntity
  8
TEMPLATE
390
1D
100
AcDbMText
 10
533.4606433643969
 20
77.6195254894284
 30
0.0
 40
4.886523437499998
 41
0.0
 46
0.0
 71
     1
 72
     1
  1
縮尺
  7
ＭＳ ゴシック
 73
     1
 44
0.7828267384257843
  0
LINE
  5
182
330
A
100
AcDbEntity
  8
TEMPLATE
390
1D
100
AcDbLine
 10
531.360643364397
 20
54.64400205192847
 30
0.0
 11
531.360643364397
 21
80.14400205192852
 31
0.0
  0
MTEXT
  5
183
330
A
100
AcDbEntity
  8
TEMPLATE
390
1D
100
AcDbMText
 10
458.1606433643969
 20
77.6195254894284
 30
0.0
 40
4.886523437499998
 41
0.0
 46
0.0
 71
     1
 72
     1
  1
容量
  7
ＭＳ ゴシック
 73
     1
 44
0.7828267384257843
  0
LINE
  5
184
330
A
100
AcDbEntity
  8
TEMPLATE
390
1D
100
AcDbLine
 10
456.060643364397
 20
54.64400205192847
 30
0.0
 11
456.060643364397
 21
80.14400205192852
 31
0.0
  0
MTEXT
  5
185
330
A
100
AcDbEntity
  8
TEMPLATE
390
1D
100
AcDbMText
 10
382.860643364397
 20
103.1195254894285
 30
0.0
 40
4.886523437499998
 41
0.0
 46
0.0
 71
     1
 72
     1
  1
品番
  7
ＭＳ ゴシック
 73
     1
 44
0.7828267384257843
  0
MTEXT
  5
186
330
A
100
AcDbEntity
  8
TEMPLATE
390
1D
100
AcDbMText
 10
382.860643364397
 20
77.6195254894284
 30
0.0
 40
4.886523437499998
 41
0.0
 46
0.0
 71
     1
 72
     1
  1
重量
  7
ＭＳ ゴシック
 73
     1
 44
0.7828267384257843
  0
MTEXT
  5
187
330
A
100
AcDbEntity
  8
TEMPLATE
390
1D
100
AcDbMText
 10
398.760643364397
 20
94.54478720817846
 30
0.0
 40
7.329785156250001
 41
0.0
 46
7.329785156250001
 71
     1
 72
     1
  1
{FHT73-5107}
  7
ＭＳ ゴシック
 73
     1
 44
0.7828267384257843
1001
ACAD
1000
ACAD_MTEXT_DEFINED_HEIGHT_BEGIN
1070
    46
1040
7.329785156250001
1000
ACAD_MTEXT_DEFINED_HEIGHT_END
  0
LINE
  5
188
330
A
100
AcDbEntity
  8
TEMPLATE
390
1D
100
AcDbLine
 10
380.760643364397
 20
29.14400205192847
 30
0.0
 11
380.760643364397
 21
105.6440020519285
 31
0.0
  0
MTEXT
  5
189
330
A
100
AcDbEntity
  8
TEMPLATE
390
1D
100
AcDbMText
 10
39.66064336431923
 20
94.54478720817846
 30
0.0
 40
7.329785156250001
 41
0.0
 46
8.260667871093752
 71
     1
 72
     1
  1
{吐水口　-GROHE, New Atrio-}
  7
ＭＳ ゴシック
 73
     1
 44
0.7828267384257843
1001
ACAD
1000
ACAD_MTEXT_DEFINED_HEIGHT_BEGIN
1070
    46
1040
8.260667871093752
1000
ACAD_MTEXT_DEFINED_HEIGHT_END
  0
INSERT
  5
68C
330
A
100
AcDbEntity
  8
TEMPLATE
100
AcDbBlockReference
  2
block 2
 10
367.7097207081031
 20
3.349230605734547
 30
0.0
 41
0.1524
 42
0.1524
 43
0.1524
  0
LWPOLYLINE
  5
D69
330
A
100
AcDbEntity
  8
BORDER
100
AcDbPolyline
 90
        4
 70
     1
 43
0.0
 10
0.0
 20
0.0
 10
0.0
 20
891.0
 10
630.0
 20
891.0
 10
630.0
 20
0.0
  0
INSERT
  5
1343
330
A
100
AcDbEntity
  8
TEMPLATE
100
AcDbBlockReference
  2
block 2
 10
838.6973883465873
 20
9.774128564918277
 30
0.0
 41
0.1524
 42
0.1524
 43
0.1524
  0
MTEXT
  5
36AC
102
{ACAD_XDICTIONARY
360
36AE
102
}
330
A
100
AcDbEntity
  8
TEMPLATE
 48
0.05
100
AcDbMText
 10
22.06848147481188
 20
25.15049698669364
 30
0.0
 40
7.0
 41
0.0
 46
7.0
 71
     1
 72
     1
  1
{20230821M}
  7
ＭＳ ゴシック
 73
     1
 44
1.0
1001
ACAD
1000
ACAD_MTEXT_DEFINED_HEIGHT_BEGIN
1070
    46
1040
7.0
1000
ACAD_MTEXT_DEFINED_HEIGHT_END
  0
HATCH
  5
172F9
102
{ACAD_REACTORS
330
1730A
102
}
330
A
100
AcDbEntity
  8
TEMPLATE
100
AcDbHatch
 10
0.0
 20
0.0
 30
0.0
210
0.0
220
0.0
230
1.0
  2
SOLID
 70
     1
 71
     1
 91
        6
 92
        1
 93
        8
 72
     1
 10
580.3195574690816
 20
45.81237511424545
 11
580.3195574690816
 21
44.03955282504737
 72
     1
 10
580.3195574690816
 20
44.03955282504737
 11
577.5113800039879
 21
44.03955282504737
 72
     1
 10
577.5113800039879
 20
44.03955282504737
 11
577.5113800039879
 21
36.81237511467916
 72
     1
 10
577.5113800039879
 20
36.81237511467916
 11
575.0415960580052
 21
36.81237511467916
 72
     1
 10
575.0415960580052
 20
36.81237511467916
 11
575.0415960580052
 21
44.03955282504737
 72
     1
 10
575.0415960580052
 20
44.03955282504737
 11
572.2831856276422
 21
44.03955282504737
 72
     1
 10
572.2831856276422
 20
44.03955282504737
 11
572.2831856276422
 21
45.81237511424545
 72
     1
 10
572.2831856276422
 20
45.81237511424545
 11
580.3195574690816
 21
45.81237511424545
 97
        1
330
172FA
 92
        1
 93
        1
 72
     4
 94
        3
 73
     0
 74
     1
 95
       56
 96
       52
 40
0.0
 40
0.0
 40
0.0
 40
0.0
 40
1.0
 40
1.0
 40
1.0
 40
2.0
 40
2.0
 40
2.0
 40
3.0
 40
3.0
 40
3.0
 40
4.0
 40
4.0
 40
4.0
 40
5.0
 40
5.0
 40
5.0
 40
6.0
 40
6.0
 40
6.0
 40
7.0
 40
7.0
 40
7.0
 40
8.0
 40
8.0
 40
8.0
 40
9.0
 40
9.0
 40
9.0
 40
10.0
 40
10.0
 40
10.0
 40
11.0
 40
11.0
 40
11.0
 40
12.0
 40
12.0
 40
12.0
 40
13.0
 40
13.0
 40
13.0
 40
14.0
 40
14.0
 40
14.0
 40
15.0
 40
15.0
 40
15.0
 40
16.0
 40
16.0
 40
16.0
 40
17.0
 40
17.0
 40
17.0
 40
17.0
 10
584.0822130993691
 20
45.59806442612169
 10
584.4283729539446
 20
45.69550069232489
 10
584.8752496819451
 20
45.61399880405779
 10
584.8752496819451
 20
45.61399880405779
 10
584.8752496819451
 20
45.61399880405779
 10
584.6605596038704
 20
44.96972771633077
 10
584.6605596038704
 20
44.96972771633077
 10
584.6605596038704
 20
44.96972771633077
 10
584.2218509183414
 20
45.07124800376958
 10
583.8834797162866
 20
44.80442528303579
 10
583.6205401632852
 20
44.59576081006296
 10
583.4501940753495
 20
44.04131587246591
 10
583.3848497355779
 20
43.83050896212374
 10
583.3848497355779
 20
43.83050896212374
 10
583.0935228874299
 20
42.93630916500408
 10
583.0935228874299
 20
42.93630916500408
 10
583.0935228874299
 20
42.93630916500408
 10
584.0487598325259
 20
42.93630916500408
 10
584.0487598325259
 20
42.93630916500408
 10
584.0487598325259
 20
42.93630916500408
 10
583.9001951911804
 20
42.37351764848811
 10
583.9001951911804
 20
42.37351764848811
 10
583.9001951911804
 20
42.37351764848811
 10
582.9371695935639
 20
42.37351764848811
 10
582.9371695935639
 20
42.37351764848811
 10
582.9371695935639
 20
42.37351764848811
 10
581.2141366561519
 20
36.81237511467916
 10
581.2141366561519
 20
36.81237511467916
 10
581.2141366561519
 20
36.81237511467916
 10
580.6746664630858
 20
36.81237511467916
 10
580.6746664630858
 20
36.81237511467916
 10
580.6746664630858
 20
36.81237511467916
 10
582.3992615944129
 20
42.37351764848811
 10
582.3992615944129
 20
42.37351764848811
 10
582.3992615944129
 20
42.37351764848811
 10
581.6886418993973
 20
42.37351764848811
 10
581.6886418993973
 20
42.37351764848811
 10
581.6886418993973
 20
42.37351764848811
 10
581.8376082477495
 20
42.93630916500408
 10
581.8376082477495
 20
42.93630916500408
 10
581.8376082477495
 20
42.93630916500408
 10
582.5556148882789
 20
42.93630916500408
 10
582.5556148882789
 20
42.93630916500408
 10
582.5556148882789
 20
42.93630916500408
 10
582.8095829847954
 20
43.71615636752356
 10
582.8095829847954
 20
43.71615636752356
 10
583.0149445334899
 20
44.36997915518985
 10
583.1891961062141
 20
44.72100412795849
 10
583.3385641615731
 20
44.98566209426688
 10
583.4863477059606
 20
45.25054323113452
 10
583.7788350410173
 20
45.51073778625616
 10
584.0822130993691
 20
45.59806442612169
 97
        1
330
17305
 92
        1
 93
        1
 72
     4
 94
        3
 73
     0
 74
     1
 95
       32
 96
       28
 40
0.0
 40
0.0
 40
0.0
 40
0.0
 40
1.0
 40
1.0
 40
1.0
 40
2.0
 40
2.0
 40
2.0
 40
3.0
 40
3.0
 40
3.0
 40
4.0
 40
4.0
 40
4.0
 40
5.0
 40
5.0
 40
5.0
 40
6.0
 40
6.0
 40
6.0
 40
7.0
 40
7.0
 40
7.0
 40
8.0
 40
8.0
 40
8.0
 40
9.0
 40
9.0
 40
9.0
 40
9.0
 10
585.394880012287
 20
42.5961972325865
 10
585.0701222143513
 20
42.17612328876155
 10
584.8200372855671
 20
41.79807236125814
 10
584.4151612568324
 20
40.60984535222244
 10
584.0429350809274
 20
39.52296009417805
 10
583.8060618492556
 20
38.73222216836346
 10
583.7702876085951
 20
37.76919657074652
 10
583.7430608003568
 20
37.0525512706291
 10
584.1794485120689
 20
36.81237511467916
 10
584.8192785056652
 20
36.81237511467916
 10
585.0950280487724
 20
36.81237511467916
 10
585.7908738527602
 20
36.82991632064248
 10
586.2864017626947
 20
37.44247487188884
 10
586.6332980801157
 20
37.87283697849896
 10
586.9530122234106
 20
38.3189549265978
 10
587.3816335996579
 20
39.78237355234214
 10
587.7383047875777
 20
41.00579455858404
 10
587.985265328531
 20
41.79651016734281
 10
587.9670099767781
 20
42.24671213667737
 10
587.9670099767781
 20
42.24671213667737
 10
587.9670099767781
 20
42.24671213667737
 10
587.9670099767781
 20
42.24671213667737
 10
587.8506934812557
 20
42.9977703370432
 10
587.305398536591
 20
43.1564669217822
 10
586.9938524357677
 20
43.1564669217822
 10
586.6869929166902
 20
43.1564669217822
 10
585.8647433078983
 20
43.20955919784658
 10
585.394880012287
 20
42.5961972325865
 97
        1
330
17308
 92
        1
 93
        1
 72
     4
 94
        3
 73
     0
 74
     1
 95
       38
 96
       34
 40
0.0
 40
0.0
 40
0.0
 40
0.0
 40
1.0
 40
1.0
 40
1.0
 40
2.0
 40
2.0
 40
2.0
 40
3.0
 40
3.0
 40
3.0
 40
4.0
 40
4.0
 40
4.0
 40
5.0
 40
5.0
 40
5.0
 40
6.0
 40
6.0
 40
6.0
 40
7.0
 40
7.0
 40
7.0
 40
8.0
 40
8.0
 40
8.0
 40
9.0
 40
9.0
 40
9.0
 40
10.0
 40
10.0
 40
10.0
 40
11.0
 40
11.0
 40
11.0
 40
11.0
 10
589.9393467460162
 20
42.91472857191693
 10
589.9393467460162
 20
42.91472857191693
 10
590.4939702200608
 20
42.91472857191693
 10
590.4939702200608
 20
42.91472857191693
 10
590.4939702200608
 20
42.91472857191693
 10
590.2462062650937
 20
42.12146881878184
 10
590.2462062650937
 20
42.12146881878184
 10
590.4344729489438
 20
42.34414840288034
 10
590.7316022316344
 20
42.6407197591727
 10
590.9867754491712
 20
42.79026635097919
 10
591.3679507645053
 20
43.01294593507769
 10
591.5857652304104
 20
43.04231518068534
 10
591.8253165087943
 20
43.03646811203098
 10
591.8253165087943
 20
43.03646811203098
 10
591.591210592058
 20
42.28639186212602
 10
591.591210592058
 20
42.28639186212602
 10
591.4387404659245
 20
42.35095510493986
 10
590.968877170313
 20
42.22805507791734
 10
590.6993317687555
 20
42.03416449597226
 10
590.4562543955343
 20
41.85933267979383
 10
590.2882069643596
 20
41.71056718494513
 10
590.0890941913261
 20
41.33657796162161
 10
589.8914989780961
 20
40.96203081189956
 10
589.735547391237
 20
40.36480407807901
 10
589.4671624765878
 20
39.49841133265191
 10
589.4671624765878
 20
39.49841133265191
 10
588.6289784898598
 20
36.81237511467916
 10
588.6289784898598
 20
36.81237511467916
 10
588.6289784898598
 20
36.81237511467916
 10
588.0906911007581
 20
36.81237511467916
 10
588.0906911007581
 20
36.81237511467916
 10
588.0906911007581
 20
36.81237511467916
 10
589.9393467460162
 20
42.91472857191693
 10
589.9393467460162
 20
42.91472857191693
 97
        1
330
17306
 92
        1
 93
        1
 72
     4
 94
        3
 73
     0
 74
     1
 95
      104
 96
      100
 40
0.0
 40
0.0
 40
0.0
 40
0.0
 40
1.0
 40
1.0
 40
1.0
 40
2.0
 40
2.0
 40
2.0
 40
3.0
 40
3.0
 40
3.0
 40
4.0
 40
4.0
 40
4.0
 40
5.0
 40
5.0
 40
5.0
 40
6.0
 40
6.0
 40
6.0
 40
7.0
 40
7.0
 40
7.0
 40
8.0
 40
8.0
 40
8.0
 40
9.0
 40
9.0
 40
9.0
 40
10.0
 40
10.0
 40
10.0
 40
11.0
 40
11.0
 40
11.0
 40
12.0
 40
12.0
 40
12.0
 40
13.0
 40
13.0
 40
13.0
 40
14.0
 40
14.0
 40
14.0
 40
15.0
 40
15.0
 40
15.0
 40
16.0
 40
16.0
 40
16.0
 40
17.0
 40
17.0
 40
17.0
 40
18.0
 40
18.0
 40
18.0
 40
19.0
 40
19.0
 40
19.0
 40
20.0
 40
20.0
 40
20.0
 40
21.0
 40
21.0
 40
21.0
 40
22.0
 40
22.0
 40
22.0
 40
23.0
 40
23.0
 40
23.0
 40
24.0
 40
24.0
 40
24.0
 40
25.0
 40
25.0
 40
25.0
 40
26.0
 40
26.0
 40
26.0
 40
27.0
 40
27.0
 40
27.0
 40
28.0
 40
28.0
 40
28.0
 40
29.0
 40
29.0
 40
29.0
 40
30.0
 40
30.0
 40
30.0
 40
31.0
 40
31.0
 40
31.0
 40
32.0
 40
32.0
 40
32.0
 40
33.0
 40
33.0
 40
33.0
 40
33.0
 10
592.9921860953021
 20
42.91803149619498
 10
592.9921860953021
 20
42.91803149619498
 10
593.4764215749343
 20
42.91803149619498
 10
593.4764215749343
 20
42.91803149619498
 10
593.4764215749343
 20
42.91803149619498
 10
593.2317820077977
 20
42.12401296315816
 10
593.2317820077977
 20
42.12401296315816
 10
593.4441064779436
 20
42.4569388035653
 10
593.6346941356106
 20
42.6053249084632
 10
593.8879034522253
 20
42.79707305303871
 10
594.1418715487417
 20
42.98609851679041
 10
594.4433303402833
 20
43.02461775533059
 10
594.6525750567104
 20
43.02461775533059
 10
594.9116314419795
 20
43.02461775533059
 10
595.1617163707637
 20
42.97346706313235
 10
595.2931638302083
 20
42.68952716049805
 10
595.3939030206897
 20
42.46686989345537
 10
595.3985896024354
 20
42.44060271862234
 10
595.369800600282
 20
42.0010906190797
 10
595.6330972261784
 20
42.451694295421
 10
595.8275680515779
 20
42.64578573086951
 10
596.1581729181679
 20
42.83226705024479
 10
596.5051138697007
 20
43.02461775533059
 10
596.7073510305648
 20
43.0390122564073
 10
596.9423049954265
 20
43.00437618559952
 10
597.2884425329456
 20
42.95324781045711
 10
597.5093813866816
 20
42.82974522292441
 10
597.6248944681903
 20
42.45441697624481
 10
597.7408092567058
 20
42.0802492164738
 10
597.678187597758
 20
41.87955193246919
 10
597.5350460010044
 20
41.28388739256386
 10
597.4697016612328
 20
41.01260126064356
 10
597.3751666123011
 20
40.68411651436711
 10
597.251485488321
 20
40.29325559675826
 10
597.251485488321
 20
40.29325559675826
 10
596.1581729181679
 20
36.81237511467916
 10
596.1581729181679
 20
36.81237511467916
 10
596.1581729181679
 20
36.81237511467916
 10
595.5895343329975
 20
36.81237511467916
 10
595.5895343329975
 20
36.81237511467916
 10
595.5895343329975
 20
36.81237511467916
 10
596.5467574960716
 20
39.85548422757834
 10
596.5467574960716
 20
39.85548422757834
 10
596.7466736831187
 20
40.49218983334411
 10
596.8820043102957
 20
40.95716569370618
 10
596.952035231813
 20
41.24869339535778
 10
597.0399197980768
 20
41.61234982178448
 10
597.0749129417799
 20
41.73234863153571
 10
597.0333139495209
 20
41.99702891489992
 10
596.9951964179876
 20
42.24340921239921
 10
596.8707118799938
 20
42.40384652750092
 10
596.6575839958344
 20
42.40384652750092
 10
596.4304410005492
 20
42.40384652750092
 10
596.2464591914385
 20
42.37856130312887
 10
595.9890096341963
 20
42.11992894192245
 10
595.7315154428426
 20
41.85933267979383
 10
595.5187446315782
 20
41.55343279412157
 10
595.3519023214238
 20
41.20162672439526
 10
595.1854170841642
 20
40.8476782172995
 10
595.0166108730879
 20
40.39903844188016
 10
594.8454836881943
 20
39.85548422757834
 10
594.8454836881943
 20
39.85548422757834
 10
593.8879034522253
 20
36.81237511467916
 10
593.8879034522253
 20
36.81237511467916
 10
593.8879034522253
 20
36.81237511467916
 10
593.3530975238492
 20
36.81237511467916
 10
593.3530975238492
 20
36.81237511467916
 10
593.3530975238492
 20
36.81237511467916
 10
594.4479722879174
 20
40.29169340284293
 10
594.4479722879174
 20
40.29169340284293
 10
594.5634853694261
 20
40.66197799488166
 10
594.6502540828932
 20
40.96379385931832
 10
594.7074303801934
 20
41.19968514052912
 10
594.804643475837
 20
41.60574397322828
 10
594.8318702840753
 20
41.88033302942674
 10
594.7583579018323
 20
42.12401296315816
 10
594.6860060064979
 20
42.36691179993202
 10
594.5588434217922
 20
42.42895321542549
 10
594.3464743175347
 20
42.42895321542549
 10
594.1683395770782
 20
42.42895321542549
 10
593.9944897113609
 20
42.3525172988552
 10
593.7961357182293
 20
42.20042656267251
 10
593.5464078623398
 20
42.00908012510374
 10
593.4464720858722
 20
41.85194573428019
 10
593.3239514488008
 20
41.66524124434543
 10
593.1586266984499
 20
41.41825838633597
 10
593.0812311484743
 20
41.25199631963583
 10
592.941615646558
 20
40.88715708924472
 10
592.8019555105301
 20
40.52017542148403
 10
592.6697492711836
 20
40.09311623915196
 10
592.5775351960687
 20
39.7977276868239
 10
592.5775351960687
 20
39.7977276868239
 10
591.6382549459648
 20
36.81237511467916
 10
591.6382549459648
 20
36.81237511467916
 10
591.6382549459648
 20
36.81237511467916
 10
591.0781861102724
 20
36.81237511467916
 10
591.0781861102724
 20
36.81237511467916
 10
591.0781861102724
 20
36.81237511467916
 10
592.9921860953021
 20
42.91803149619498
 10
592.9921860953021
 20
42.91803149619498
 97
        1
330
17307
 92
       16
 93
        1
 72
     4
 94
        3
 73
     0
 74
     1
 95
       29
 96
       25
 40
0.0
 40
0.0
 40
0.0
 40
0.0
 40
1.0
 40
1.0
 40
1.0
 40
2.0
 40
2.0
 40
2.0
 40
3.0
 40
3.0
 40
3.0
 40
4.0
 40
4.0
 40
4.0
 40
5.0
 40
5.0
 40
5.0
 40
6.0
 40
6.0
 40
6.0
 40
7.0
 40
7.0
 40
7.0
 40
8.0
 40
8.0
 40
8.0
 40
8.0
 10
584.3513791109762
 20
37.94925057801331
 10
584.3490135030473
 20
38.37439049353518
 10
584.4832282774277
 20
39.12973356864027
 10
584.82704484113
 20
40.1403837636178
 10
585.2953459428262
 20
41.50888795047954
 10
585.5761837746858
 20
42.00908012510374
 10
585.821939194619
 20
42.25255920533161
 10
586.1809759904676
 20
42.60708795588196
 10
586.6636492761844
 20
42.62476306418078
 10
586.8060320930364
 20
42.60708795588196
 10
587.0086709609071
 20
42.58276236491495
 10
587.2949095203024
 20
42.45013210150578
 10
587.3120043851471
 20
42.00363476345613
 10
587.325662423378
 20
41.621499814717
 10
587.2155500694051
 20
40.90583646506057
 10
586.8301345134438
 20
39.78237355234214
 10
586.3859358321553
 20
38.47687041437903
 10
586.1191131114214
 20
37.96366739614584
 10
585.9052264473606
 20
37.74000586158636
 10
585.5022696854361
 20
37.32071301471897
 10
585.0701222143513
 20
37.36097298362186
 10
585.006340068495
 20
37.36097298362186
 10
584.923499156872
 20
37.36097298362186
 10
584.3525395978846
 20
37.45086608491963
 10
584.3513791109762
 20
37.94925057801331
 97
        1
330
17309
 75
     0
 76
     1
 98
        1
 10
557.776987685974
 20
21.56103299246715
1001
ACAD
1010
0.0
1020
0.0
1030
0.0
  0
POLYLINE
  5
172FA
102
{ACAD_REACTORS
330
172F9
330
1730A
102
}
330
A
100
AcDbEntity
  8
TEMPLATE
100
AcDb2dPolyline
 66
     1
 10
0.0
 20
0.0
 30
0.0
  0
VERTEX
  5
172FB
330
172FA
100
AcDbEntity
  8
TEMPLATE
100
AcDbVertex
100
AcDb2dVertex
 10
580.3195574690816
 20
45.81237511424545
 30
0.0
  0
VERTEX
  5
172FC
330
172FA
100
AcDbEntity
  8
TEMPLATE
100
AcDbVertex
100
AcDb2dVertex
 10
580.3195574690816
 20
44.03955282504737
 30
0.0
  0
VERTEX
  5
172FD
330
172FA
100
AcDbEntity
  8
TEMPLATE
100
AcDbVertex
100
AcDb2dVertex
 10
577.5113800039879
 20
44.03955282504737
 30
0.0
  0
VERTEX
  5
172FE
330
172FA
100
AcDbEntity
  8
TEMPLATE
100
AcDbVertex
100
AcDb2dVertex
 10
577.5113800039879
 20
36.81237511467916
 30
0.0
  0
VERTEX
  5
172FF
330
172FA
100
AcDbEntity
  8
TEMPLATE
100
AcDbVertex
100
AcDb2dVertex
 10
575.0415960580052
 20
36.81237511467916
 30
0.0
  0
VERTEX
  5
17300
330
172FA
100
AcDbEntity
  8
TEMPLATE
100
AcDbVertex
100
AcDb2dVertex
 10
575.0415960580052
 20
44.03955282504737
 30
0.0
  0
VERTEX
  5
17301
330
172FA
100
AcDbEntity
  8
TEMPLATE
100
AcDbVertex
100
AcDb2dVertex
 10
572.2831856276422
 20
44.03955282504737
 30
0.0
  0
VERTEX
  5
17302
330
172FA
100
AcDbEntity
  8
TEMPLATE
100
AcDbVertex
100
AcDb2dVertex
 10
572.2831856276422
 20
45.81237511424545
 30
0.0
  0
VERTEX
  5
17303
330
172FA
100
AcDbEntity
  8
TEMPLATE
100
AcDbVertex
100
AcDb2dVertex
 10
580.3195574690816
 20
45.81237511424545
 30
0.0
  0
SEQEND
  5
17304
330
172FA
100
AcDbEntity
  8
TEMPLATE
  0
SPLINE
  5
17305
102
{ACAD_REACTORS
330
172F9
330
1730A
102
}
330
A
100
AcDbEntity
  8
TEMPLATE
100
AcDbSpline
210
0.0
220
0.0
230
1.0
 70
    11
 71
     3
 72
    56
 73
    52
 74
     0
 42
0.000000001
 43
0.0000000001
 40
0.0
 40
0.0
 40
0.0
 40
0.0
 40
1.0
 40
1.0
 40
1.0
 40
2.0
 40
2.0
 40
2.0
 40
3.0
 40
3.0
 40
3.0
 40
4.0
 40
4.0
 40
4.0
 40
5.0
 40
5.0
 40
5.0
 40
6.0
 40
6.0
 40
6.0
 40
7.0
 40
7.0
 40
7.0
 40
8.0
 40
8.0
 40
8.0
 40
9.0
 40
9.0
 40
9.0
 40
10.0
 40
10.0
 40
10.0
 40
11.0
 40
11.0
 40
11.0
 40
12.0
 40
12.0
 40
12.0
 40
13.0
 40
13.0
 40
13.0
 40
14.0
 40
14.0
 40
14.0
 40
15.0
 40
15.0
 40
15.0
 40
16.0
 40
16.0
 40
16.0
 40
17.0
 40
17.0
 40
17.0
 40
17.0
 10
584.0822130993691
 20
45.59806442612169
 30
0.0
 10
584.4283729539446
 20
45.69550069232489
 30
0.0
 10
584.8752496819451
 20
45.61399880405779
 30
0.0
 10
584.8752496819451
 20
45.61399880405779
 30
0.0
 10
584.8752496819451
 20
45.61399880405779
 30
0.0
 10
584.6605596038704
 20
44.96972771633077
 30
0.0
 10
584.6605596038704
 20
44.96972771633077
 30
0.0
 10
584.6605596038704
 20
44.96972771633077
 30
0.0
 10
584.2218509183414
 20
45.07124800376958
 30
0.0
 10
583.8834797162866
 20
44.80442528303579
 30
0.0
 10
583.6205401632852
 20
44.59576081006296
 30
0.0
 10
583.4501940753495
 20
44.04131587246591
 30
0.0
 10
583.3848497355779
 20
43.83050896212374
 30
0.0
 10
583.3848497355779
 20
43.83050896212374
 30
0.0
 10
583.0935228874299
 20
42.93630916500408
 30
0.0
 10
583.0935228874299
 20
42.93630916500408
 30
0.0
 10
583.0935228874299
 20
42.93630916500408
 30
0.0
 10
584.0487598325259
 20
42.93630916500408
 30
0.0
 10
584.0487598325259
 20
42.93630916500408
 30
0.0
 10
584.0487598325259
 20
42.93630916500408
 30
0.0
 10
583.9001951911804
 20
42.37351764848811
 30
0.0
 10
583.9001951911804
 20
42.37351764848811
 30
0.0
 10
583.9001951911804
 20
42.37351764848811
 30
0.0
 10
582.9371695935639
 20
42.37351764848811
 30
0.0
 10
582.9371695935639
 20
42.37351764848811
 30
0.0
 10
582.9371695935639
 20
42.37351764848811
 30
0.0
 10
581.2141366561519
 20
36.81237511467916
 30
0.0
 10
581.2141366561519
 20
36.81237511467916
 30
0.0
 10
581.2141366561519
 20
36.81237511467916
 30
0.0
 10
580.6746664630858
 20
36.81237511467916
 30
0.0
 10
580.6746664630858
 20
36.81237511467916
 30
0.0
 10
580.6746664630858
 20
36.81237511467916
 30
0.0
 10
582.3992615944129
 20
42.37351764848811
 30
0.0
 10
582.3992615944129
 20
42.37351764848811
 30
0.0
 10
582.3992615944129
 20
42.37351764848811
 30
0.0
 10
581.6886418993973
 20
42.37351764848811
 30
0.0
 10
581.6886418993973
 20
42.37351764848811
 30
0.0
 10
581.6886418993973
 20
42.37351764848811
 30
0.0
 10
581.8376082477495
 20
42.93630916500408
 30
0.0
 10
581.8376082477495
 20
42.93630916500408
 30
0.0
 10
581.8376082477495
 20
42.93630916500408
 30
0.0
 10
582.5556148882789
 20
42.93630916500408
 30
0.0
 10
582.5556148882789
 20
42.93630916500408
 30
0.0
 10
582.5556148882789
 20
42.93630916500408
 30
0.0
 10
582.8095829847954
 20
43.71615636752356
 30
0.0
 10
582.8095829847954
 20
43.71615636752356
 30
0.0
 10
583.0149445334899
 20
44.36997915518985
 30
0.0
 10
583.1891961062141
 20
44.72100412795849
 30
0.0
 10
583.3385641615731
 20
44.98566209426688
 30
0.0
 10
583.4863477059606
 20
45.25054323113452
 30
0.0
 10
583.7788350410173
 20
45.51073778625616
 30
0.0
 10
584.0822130993691
 20
45.59806442612169
 30
0.0
  0
SPLINE
  5
17306
102
{ACAD_REACTORS
330
172F9
330
1730A
102
}
330
A
100
AcDbEntity
  8
TEMPLATE
100
AcDbSpline
210
0.0
220
0.0
230
1.0
 70
    11
 71
     3
 72
    38
 73
    34
 74
     0
 42
0.000000001
 43
0.0000000001
 40
0.0
 40
0.0
 40
0.0
 40
0.0
 40
1.0
 40
1.0
 40
1.0
 40
2.0
 40
2.0
 40
2.0
 40
3.0
 40
3.0
 40
3.0
 40
4.0
 40
4.0
 40
4.0
 40
5.0
 40
5.0
 40
5.0
 40
6.0
 40
6.0
 40
6.0
 40
7.0
 40
7.0
 40
7.0
 40
8.0
 40
8.0
 40
8.0
 40
9.0
 40
9.0
 40
9.0
 40
10.0
 40
10.0
 40
10.0
 40
11.0
 40
11.0
 40
11.0
 40
11.0
 10
589.9393467460162
 20
42.91472857191693
 30
0.0
 10
589.9393467460162
 20
42.91472857191693
 30
0.0
 10
590.4939702200608
 20
42.91472857191693
 30
0.0
 10
590.4939702200608
 20
42.91472857191693
 30
0.0
 10
590.4939702200608
 20
42.91472857191693
 30
0.0
 10
590.2462062650937
 20
42.12146881878184
 30
0.0
 10
590.2462062650937
 20
42.12146881878184
 30
0.0
 10
590.4344729489438
 20
42.34414840288034
 30
0.0
 10
590.7316022316344
 20
42.6407197591727
 30
0.0
 10
590.9867754491712
 20
42.79026635097919
 30
0.0
 10
591.3679507645053
 20
43.01294593507769
 30
0.0
 10
591.5857652304104
 20
43.04231518068534
 30
0.0
 10
591.8253165087943
 20
43.03646811203098
 30
0.0
 10
591.8253165087943
 20
43.03646811203098
 30
0.0
 10
591.591210592058
 20
42.28639186212602
 30
0.0
 10
591.591210592058
 20
42.28639186212602
 30
0.0
 10
591.4387404659245
 20
42.35095510493986
 30
0.0
 10
590.968877170313
 20
42.22805507791734
 30
0.0
 10
590.6993317687555
 20
42.03416449597226
 30
0.0
 10
590.4562543955343
 20
41.85933267979383
 30
0.0
 10
590.2882069643596
 20
41.71056718494513
 30
0.0
 10
590.0890941913261
 20
41.33657796162161
 30
0.0
 10
589.8914989780961
 20
40.96203081189956
 30
0.0
 10
589.735547391237
 20
40.36480407807901
 30
0.0
 10
589.4671624765878
 20
39.49841133265191
 30
0.0
 10
589.4671624765878
 20
39.49841133265191
 30
0.0
 10
588.6289784898598
 20
36.81237511467916
 30
0.0
 10
588.6289784898598
 20
36.81237511467916
 30
0.0
 10
588.6289784898598
 20
36.81237511467916
 30
0.0
 10
588.0906911007581
 20
36.81237511467916
 30
0.0
 10
588.0906911007581
 20
36.81237511467916
 30
0.0
 10
588.0906911007581
 20
36.81237511467916
 30
0.0
 10
589.9393467460162
 20
42.91472857191693
 30
0.0
 10
589.9393467460162
 20
42.91472857191693
 30
0.0
  0
SPLINE
  5
17307
102
{ACAD_REACTORS
330
172F9
330
1730A
102
}
330
A
100
AcDbEntity
  8
TEMPLATE
100
AcDbSpline
210
0.0
220
0.0
230
1.0
 70
    11
 71
     3
 72
   104
 73
   100
 74
     0
 42
0.000000001
 43
0.0000000001
 40
0.0
 40
0.0
 40
0.0
 40
0.0
 40
1.0
 40
1.0
 40
1.0
 40
2.0
 40
2.0
 40
2.0
 40
3.0
 40
3.0
 40
3.0
 40
4.0
 40
4.0
 40
4.0
 40
5.0
 40
5.0
 40
5.0
 40
6.0
 40
6.0
 40
6.0
 40
7.0
 40
7.0
 40
7.0
 40
8.0
 40
8.0
 40
8.0
 40
9.0
 40
9.0
 40
9.0
 40
10.0
 40
10.0
 40
10.0
 40
11.0
 40
11.0
 40
11.0
 40
12.0
 40
12.0
 40
12.0
 40
13.0
 40
13.0
 40
13.0
 40
14.0
 40
14.0
 40
14.0
 40
15.0
 40
15.0
 40
15.0
 40
16.0
 40
16.0
 40
16.0
 40
17.0
 40
17.0
 40
17.0
 40
18.0
 40
18.0
 40
18.0
 40
19.0
 40
19.0
 40
19.0
 40
20.0
 40
20.0
 40
20.0
 40
21.0
 40
21.0
 40
21.0
 40
22.0
 40
22.0
 40
22.0
 40
23.0
 40
23.0
 40
23.0
 40
24.0
 40
24.0
 40
24.0
 40
25.0
 40
25.0
 40
25.0
 40
26.0
 40
26.0
 40
26.0
 40
27.0
 40
27.0
 40
27.0
 40
28.0
 40
28.0
 40
28.0
 40
29.0
 40
29.0
 40
29.0
 40
30.0
 40
30.0
 40
30.0
 40
31.0
 40
31.0
 40
31.0
 40
32.0
 40
32.0
 40
32.0
 40
33.0
 40
33.0
 40
33.0
 40
33.0
 10
592.9921860953021
 20
42.91803149619498
 30
0.0
 10
592.9921860953021
 20
42.91803149619498
 30
0.0
 10
593.4764215749343
 20
42.91803149619498
 30
0.0
 10
593.4764215749343
 20
42.91803149619498
 30
0.0
 10
593.4764215749343
 20
42.91803149619498
 30
0.0
 10
593.2317820077977
 20
42.12401296315816
 30
0.0
 10
593.2317820077977
 20
42.12401296315816
 30
0.0
 10
593.4441064779436
 20
42.4569388035653
 30
0.0
 10
593.6346941356106
 20
42.6053249084632
 30
0.0
 10
593.8879034522253
 20
42.79707305303871
 30
0.0
 10
594.1418715487417
 20
42.98609851679041
 30
0.0
 10
594.4433303402833
 20
43.02461775533059
 30
0.0
 10
594.6525750567104
 20
43.02461775533059
 30
0.0
 10
594.9116314419795
 20
43.02461775533059
 30
0.0
 10
595.1617163707637
 20
42.97346706313235
 30
0.0
 10
595.2931638302083
 20
42.68952716049805
 30
0.0
 10
595.3939030206897
 20
42.46686989345537
 30
0.0
 10
595.3985896024354
 20
42.44060271862234
 30
0.0
 10
595.369800600282
 20
42.0010906190797
 30
0.0
 10
595.6330972261784
 20
42.451694295421
 30
0.0
 10
595.8275680515779
 20
42.64578573086951
 30
0.0
 10
596.1581729181679
 20
42.83226705024479
 30
0.0
 10
596.5051138697007
 20
43.02461775533059
 30
0.0
 10
596.7073510305648
 20
43.0390122564073
 30
0.0
 10
596.9423049954265
 20
43.00437618559952
 30
0.0
 10
597.2884425329456
 20
42.95324781045711
 30
0.0
 10
597.5093813866816
 20
42.82974522292441
 30
0.0
 10
597.6248944681903
 20
42.45441697624481
 30
0.0
 10
597.7408092567058
 20
42.0802492164738
 30
0.0
 10
597.678187597758
 20
41.87955193246919
 30
0.0
 10
597.5350460010044
 20
41.28388739256386
 30
0.0
 10
597.4697016612328
 20
41.01260126064356
 30
0.0
 10
597.3751666123011
 20
40.68411651436711
 30
0.0
 10
597.251485488321
 20
40.29325559675826
 30
0.0
 10
597.251485488321
 20
40.29325559675826
 30
0.0
 10
596.1581729181679
 20
36.81237511467916
 30
0.0
 10
596.1581729181679
 20
36.81237511467916
 30
0.0
 10
596.1581729181679
 20
36.81237511467916
 30
0.0
 10
595.5895343329975
 20
36.81237511467916
 30
0.0
 10
595.5895343329975
 20
36.81237511467916
 30
0.0
 10
595.5895343329975
 20
36.81237511467916
 30
0.0
 10
596.5467574960716
 20
39.85548422757834
 30
0.0
 10
596.5467574960716
 20
39.85548422757834
 30
0.0
 10
596.7466736831187
 20
40.49218983334411
 30
0.0
 10
596.8820043102957
 20
40.95716569370618
 30
0.0
 10
596.952035231813
 20
41.24869339535778
 30
0.0
 10
597.0399197980768
 20
41.61234982178448
 30
0.0
 10
597.0749129417799
 20
41.73234863153571
 30
0.0
 10
597.0333139495209
 20
41.99702891489992
 30
0.0
 10
596.9951964179876
 20
42.24340921239921
 30
0.0
 10
596.8707118799938
 20
42.40384652750092
 30
0.0
 10
596.6575839958344
 20
42.40384652750092
 30
0.0
 10
596.4304410005492
 20
42.40384652750092
 30
0.0
 10
596.2464591914385
 20
42.37856130312887
 30
0.0
 10
595.9890096341963
 20
42.11992894192245
 30
0.0
 10
595.7315154428426
 20
41.85933267979383
 30
0.0
 10
595.5187446315782
 20
41.55343279412157
 30
0.0
 10
595.3519023214238
 20
41.20162672439526
 30
0.0
 10
595.1854170841642
 20
40.8476782172995
 30
0.0
 10
595.0166108730879
 20
40.39903844188016
 30
0.0
 10
594.8454836881943
 20
39.85548422757834
 30
0.0
 10
594.8454836881943
 20
39.85548422757834
 30
0.0
 10
593.8879034522253
 20
36.81237511467916
 30
0.0
 10
593.8879034522253
 20
36.81237511467916
 30
0.0
 10
593.8879034522253
 20
36.81237511467916
 30
0.0
 10
593.3530975238492
 20
36.81237511467916
 30
0.0
 10
593.3530975238492
 20
36.81237511467916
 30
0.0
 10
593.3530975238492
 20
36.81237511467916
 30
0.0
 10
594.4479722879174
 20
40.29169340284293
 30
0.0
 10
594.4479722879174
 20
40.29169340284293
 30
0.0
 10
594.5634853694261
 20
40.66197799488166
 30
0.0
 10
594.6502540828932
 20
40.96379385931832
 30
0.0
 10
594.7074303801934
 20
41.19968514052912
 30
0.0
 10
594.804643475837
 20
41.60574397322828
 30
0.0
 10
594.8318702840753
 20
41.88033302942674
 30
0.0
 10
594.7583579018323
 20
42.12401296315816
 30
0.0
 10
594.6860060064979
 20
42.36691179993202
 30
0.0
 10
594.5588434217922
 20
42.42895321542549
 30
0.0
 10
594.3464743175347
 20
42.42895321542549
 30
0.0
 10
594.1683395770782
 20
42.42895321542549
 30
0.0
 10
593.9944897113609
 20
42.3525172988552
 30
0.0
 10
593.7961357182293
 20
42.20042656267251
 30
0.0
 10
593.5464078623398
 20
42.00908012510374
 30
0.0
 10
593.4464720858722
 20
41.85194573428019
 30
0.0
 10
593.3239514488008
 20
41.66524124434543
 30
0.0
 10
593.1586266984499
 20
41.41825838633597
 30
0.0
 10
593.0812311484743
 20
41.25199631963583
 30
0.0
 10
592.941615646558
 20
40.88715708924472
 30
0.0
 10
592.8019555105301
 20
40.52017542148403
 30
0.0
 10
592.6697492711836
 20
40.09311623915196
 30
0.0
 10
592.5775351960687
 20
39.7977276868239
 30
0.0
 10
592.5775351960687
 20
39.7977276868239
 30
0.0
 10
591.6382549459648
 20
36.81237511467916
 30
0.0
 10
591.6382549459648
 20
36.81237511467916
 30
0.0
 10
591.6382549459648
 20
36.81237511467916
 30
0.0
 10
591.0781861102724
 20
36.81237511467916
 30
0.0
 10
591.0781861102724
 20
36.81237511467916
 30
0.0
 10
591.0781861102724
 20
36.81237511467916
 30
0.0
 10
592.9921860953021
 20
42.91803149619498
 30
0.0
 10
592.9921860953021
 20
42.91803149619498
 30
0.0
  0
SPLINE
  5
17308
102
{ACAD_REACTORS
330
172F9
330
1730A
102
}
330
A
100
AcDbEntity
  8
TEMPLATE
100
AcDbSpline
210
0.0
220
0.0
230
1.0
 70
    11
 71
     3
 72
    32
 73
    28
 74
     0
 42
0.000000001
 43
0.0000000001
 40
0.0
 40
0.0
 40
0.0
 40
0.0
 40
1.0
 40
1.0
 40
1.0
 40
2.0
 40
2.0
 40
2.0
 40
3.0
 40
3.0
 40
3.0
 40
4.0
 40
4.0
 40
4.0
 40
5.0
 40
5.0
 40
5.0
 40
6.0
 40
6.0
 40
6.0
 40
7.0
 40
7.0
 40
7.0
 40
8.0
 40
8.0
 40
8.0
 40
9.0
 40
9.0
 40
9.0
 40
9.0
 10
585.394880012287
 20
42.5961972325865
 30
0.0
 10
585.0701222143513
 20
42.17612328876155
 30
0.0
 10
584.8200372855671
 20
41.79807236125814
 30
0.0
 10
584.4151612568324
 20
40.60984535222244
 30
0.0
 10
584.0429350809274
 20
39.52296009417805
 30
0.0
 10
583.8060618492556
 20
38.73222216836346
 30
0.0
 10
583.7702876085951
 20
37.76919657074652
 30
0.0
 10
583.7430608003568
 20
37.0525512706291
 30
0.0
 10
584.1794485120689
 20
36.81237511467916
 30
0.0
 10
584.8192785056652
 20
36.81237511467916
 30
0.0
 10
585.0950280487724
 20
36.81237511467916
 30
0.0
 10
585.7908738527602
 20
36.82991632064248
 30
0.0
 10
586.2864017626947
 20
37.44247487188884
 30
0.0
 10
586.6332980801157
 20
37.87283697849896
 30
0.0
 10
586.9530122234106
 20
38.3189549265978
 30
0.0
 10
587.3816335996579
 20
39.78237355234214
 30
0.0
 10
587.7383047875777
 20
41.00579455858404
 30
0.0
 10
587.985265328531
 20
41.79651016734281
 30
0.0
 10
587.9670099767781
 20
42.24671213667737
 30
0.0
 10
587.9670099767781
 20
42.24671213667737
 30
0.0
 10
587.9670099767781
 20
42.24671213667737
 30
0.0
 10
587.9670099767781
 20
42.24671213667737
 30
0.0
 10
587.8506934812557
 20
42.9977703370432
 30
0.0
 10
587.305398536591
 20
43.1564669217822
 30
0.0
 10
586.9938524357677
 20
43.1564669217822
 30
0.0
 10
586.6869929166902
 20
43.1564669217822
 30
0.0
 10
585.8647433078983
 20
43.20955919784658
 30
0.0
 10
585.394880012287
 20
42.5961972325865
 30
0.0
  0
SPLINE
  5
17309
102
{ACAD_REACTORS
330
172F9
330
1730A
102
}
330
A
100
AcDbEntity
  8
TEMPLATE
100
AcDbSpline
210
0.0
220
0.0
230
1.0
 70
    11
 71
     3
 72
    29
 73
    25
 74
     0
 42
0.000000001
 43
0.0000000001
 40
0.0
 40
0.0
 40
0.0
 40
0.0
 40
1.0
 40
1.0
 40
1.0
 40
2.0
 40
2.0
 40
2.0
 40
3.0
 40
3.0
 40
3.0
 40
4.0
 40
4.0
 40
4.0
 40
5.0
 40
5.0
 40
5.0
 40
6.0
 40
6.0
 40
6.0
 40
7.0
 40
7.0
 40
7.0
 40
8.0
 40
8.0
 40
8.0
 40
8.0
 10
584.3513791109762
 20
37.94925057801331
 30
0.0
 10
584.3490135030473
 20
38.37439049353518
 30
0.0
 10
584.4832282774277
 20
39.12973356864027
 30
0.0
 10
584.82704484113
 20
40.1403837636178
 30
0.0
 10
585.2953459428262
 20
41.50888795047954
 30
0.0
 10
585.5761837746858
 20
42.00908012510374
 30
0.0
 10
585.821939194619
 20
42.25255920533161
 30
0.0
 10
586.1809759904676
 20
42.60708795588196
 30
0.0
 10
586.6636492761844
 20
42.62476306418078
 30
0.0
 10
586.8060320930364
 20
42.60708795588196
 30
0.0
 10
587.0086709609071
 20
42.58276236491495
 30
0.0
 10
587.2949095203024
 20
42.45013210150578
 30
0.0
 10
587.3120043851471
 20
42.00363476345613
 30
0.0
 10
587.325662423378
 20
41.621499814717
 30
0.0
 10
587.2155500694051
 20
40.90583646506057
 30
0.0
 10
586.8301345134438
 20
39.78237355234214
 30
0.0
 10
586.3859358321553
 20
38.47687041437903
 30
0.0
 10
586.1191131114214
 20
37.96366739614584
 30
0.0
 10
585.9052264473606
 20
37.74000586158636
 30
0.0
 10
585.5022696854361
 20
37.32071301471897
 30
0.0
 10
585.0701222143513
 20
37.36097298362186
 30
0.0
 10
585.006340068495
 20
37.36097298362186
 30
0.0
 10
584.923499156872
 20
37.36097298362186
 30
0.0
 10
584.3525395978846
 20
37.45086608491963
 30
0.0
 10
584.3513791109762
 20
37.94925057801331
 30
0.0
  0
LINE
  5
175AA
330
A
100
AcDbEntity
  8
MODEL
100
AcDbLine
 10
337.2910354070805
 20
267.5371852967651
 30
0.0
 11
337.2910354070805
 21
332.5371852968651
 31
0.0
  0
LINE
  5
175AB
330
A
100
AcDbEntity
  8
MODEL
100
AcDbLine
 10
343.7910354068806
 20
332.0371852967651
 30
0.0
 11
343.7910354068806
 21
268.0371852968651
 31
0.0
  0
LINE
  5
175AC
330
A
100
AcDbEntity
  8
MODEL
100
AcDbLine
 10
337.2910354070805
 20
267.5371852967651
 30
0.0
 11
343.2910354070805
 21
267.5371852967651
 31
0.0
  0
LINE
  5
175AD
330
A
100
AcDbEntity
  8
MODEL
100
AcDbLine
 10
343.2910354070805
 20
332.5371852968651
 30
0.0
 11
337.2910354070805
 21
332.5371852968651
 31
0.0
  0
ARC
  5
175AE
330
A
100
AcDbEntity
  8
MODEL
100
AcDbCircle
 10
343.2910354070805
 20
268.0371852968651
 30
0.0
 40
0.5000000000000004
100
AcDbArc
 50
270.0
 51
0.0
  0
ARC
  5
175AF
330
A
100
AcDbEntity
  8
MODEL
100
AcDbCircle
 10
343.2910354070805
 20
332.0371852967651
 30
0.0
 40
0.5000000000000004
100
AcDbArc
 50
0.0
 51
90.0
  0
LINE
  5
175B0
330
A
100
AcDbEntity
  8
MODEL
100
AcDbLine
 10
247.2910354070805
 20
290.5571852969651
 30
0.0
 11
247.2910354070805
 21
309.5171852969651
 31
0.0
  0
LINE
  5
175B1
330
A
100
AcDbEntity
  8
MODEL
100
AcDbLine
 10
248.2910354069809
 20
310.5171852968651
 30
0.0
 11
248.2910354069809
 21
289.5571852967651
 31
0.0
  0
LINE
  5
175B2
330
A
100
AcDbEntity
  8
MODEL
100
AcDbLine
 10
248.2910354069809
 20
289.5571852967651
 30
0.0
 11
337.2910354070805
 21
289.5571852967651
 31
0.0
  0
LINE
  5
175B3
330
A
100
AcDbEntity
  8
MODEL
100
AcDbLine
 10
337.2910354070805
 20
310.5171852968651
 30
0.0
 11
248.2910354069809
 21
310.5171852968651
 31
0.0
  0
LINE
  5
175B4
330
A
100
AcDbEntity
  8
MODEL
100
AcDbLine
 10
248.2910354069809
 20
310.5171852968651
 30
0.0
 11
247.2910354070805
 21
309.5171852969651
 31
0.0
  0
LINE
  5
175B5
330
A
100
AcDbEntity
  8
MODEL
100
AcDbLine
 10
247.2910354070805
 20
290.5571852969651
 30
0.0
 11
248.2910354069809
 21
289.5571852967651
 31
0.0
  0
LINE
  5
175B6
330
A
100
AcDbEntity
  8
MODEL
100
AcDbLine
 10
247.2910354070805
 20
309.3521852969651
 30
0.0
 11
331.2910354070805
 21
309.3521852969651
 31
0.0
  0
LINE
  5
175B7
330
A
100
AcDbEntity
  8
MODEL
100
AcDbLine
 10
247.2910354070805
 20
290.7221852969651
 30
0.0
 11
331.2910354070805
 21
290.7221852969651
 31
0.0
  0
LINE
  5
175B8
330
A
100
AcDbEntity
  8
MODEL
100
AcDbLine
 10
331.2910354070805
 20
289.5571852967651
 30
0.0
 11
331.2910354070805
 21
310.5171852968651
 31
0.0
  0
LINE
  5
175B9
330
A
100
AcDbEntity
  8
MODEL
100
AcDbLine
 10
493.1156494979809
 20
244.530449977465
 30
0.0
 11
521.3221051310807
 21
249.934102034365
 31
0.0
  0
SPLINE
  5
175BA
330
A
100
AcDbEntity
  8
MODEL
100
AcDbSpline
210
0.0
220
0.0
230
1.0
 70
     8
 71
     3
 72
     8
 73
     4
 74
     0
 42
0.000000001
 43
0.0000000001
 40
0.0
 40
0.0
 40
0.0
 40
0.0
 40
1.0
 40
1.0
 40
1.0
 40
1.0
 10
492.9210152005037
 20
244.5944323581791
 30
0.0
 10
492.9217555887831
 20
244.5945742353617
 30
0.0
 10
492.9477150804155
 20
244.5995480932868
 30
0.0
 10
492.9992627169067
 20
244.6094246204393
 30
0.0
  0
ARC
  5
175BB
330
A
100
AcDbEntity
  8
MODEL
100
AcDbCircle
 10
349.7908946858806
 20
272.2419223430651
 30
0.0
 40
13.54090743789446
100
AcDbArc
 50
79.07180916169929
 51
100.9276166092997
  0
LINE
  5
175BC
330
A
100
AcDbEntity
  8
MODEL
100
AcDbLine
 10
521.4085585175808
 20
250.021440655465
 30
0.0
 11
520.4713259342807
 21
254.915800901965
 31
0.0
  0
LINE
  5
175BD
330
A
100
AcDbEntity
  8
MODEL
100
AcDbLine
 10
492.0090175463806
 20
249.3556060757651
 30
0.0
 11
492.9282439649808
 21
244.5575032733651
 31
0.0
  0
ARC
  5
175BE
330
A
100
AcDbEntity
  8
MODEL
100
AcDbCircle
 10
448.2930149294807
 20
241.0346261990651
 30
0.0
 40
44.5004108069394
100
AcDbArc
 50
10.77686517659997
 51
89.54355688769982
  0
ARC
  5
175BF
330
A
100
AcDbEntity
  8
MODEL
100
AcDbCircle
 10
448.2924262043807
 20
241.0359281408651
 30
0.0
 40
73.49899604998174
100
AcDbArc
 50
10.88500549870004
 51
89.6234727689
  0
LINE
  5
175C0
330
A
100
AcDbEntity
  8
MODEL
100
AcDbLine
 10
448.7873900357808
 20
314.5366998404651
 30
0.0
 11
343.7910354068806
 21
314.5372307450651
 31
0.0
  0
LINE
  5
175C1
330
A
100
AcDbEntity
  8
MODEL
100
AcDbLine
 10
352.357396124381
 20
285.5372727038651
 30
0.0
 11
448.6475433644807
 21
285.536785821265
 31
0.0
  0
LINE
  5
175C2
330
A
100
AcDbEntity
  8
MODEL
100
AcDbLine
 10
343.7910354068806
 20
285.5373160187651
 30
0.0
 11
347.2239621161807
 21
285.5372986604651
 31
0.0
  0
ARC
  5
175C3
330
A
100
AcDbEntity
  8
MODEL
100
AcDbCircle
 10
521.3043247016808
 20
250.0325142611651
 30
0.0
 40
0.0999999255584286
100
AcDbArc
 50
280.8343543843416
 51
10.26401761432292
  0
ARC
  5
175C4
330
A
100
AcDbEntity
  8
MODEL
100
AcDbCircle
 10
493.0190881856809
 20
244.6137697493651
 30
0.0
 40
0.0999998478870741
100
AcDbArc
 50
192.4726830283001
 51
280.8661021248797
  0
LINE
  5
175C5
330
A
100
AcDbEntity
  8
MODEL
100
AcDbLine
 10
493.0180628018807
 20
244.5117548051651
 30
0.0
 11
521.3429703146808
 21
249.9380992820651
 31
0.0
  0
LINE
  5
175C6
330
A
100
AcDbEntity
  8
MODEL
100
AcDbLine
 10
521.9301661979807
 20
244.9596657098651
 30
0.0
 11
494.3123982473808
 21
239.6687968370651
 31
0.0
  0
LINE
  5
175C7
330
A
100
AcDbEntity
  8
MODEL
100
AcDbLine
 10
522.2795202374807
 20
245.4745945931651
 30
0.0
 11
521.4365937626808
 21
249.8745803687651
 31
0.0
  0
LINE
  5
175C8
330
A
100
AcDbEntity
  8
MODEL
100
AcDbLine
 10
492.9545439053804
 20
244.4181313472651
 30
0.0
 11
493.7974693637807
 21
240.0181508768651
 31
0.0
  0
ARC
  5
175C9
330
A
100
AcDbEntity
  8
MODEL
100
AcDbCircle
 10
493.0331150750808
 20
244.4331836330651
 30
0.0
 40
0.0800000000000079
100
AcDbArc
 50
100.8450391610528
 51
189.6733568660846
  0
ARC
  5
175CA
330
A
100
AcDbEntity
  8
MODEL
100
AcDbCircle
 10
521.3580225878807
 20
249.8595281102651
 30
0.0
 40
0.0799999999999962
100
AcDbArc
 50
37.38844248138008
 51
100.8450391610528
  0
ARC
  5
175CB
330
A
100
AcDbEntity
  8
MODEL
100
AcDbCircle
 10
521.8473787760809
 20
245.391807171265
 30
0.0
 40
0.440000000000001
100
AcDbArc
 50
280.8450284853662
 51
10.84502848550709
  0
ARC
  5
175CC
330
A
100
AcDbEntity
  8
MODEL
100
AcDbCircle
 10
494.2296108254807
 20
240.1009382987651
 30
0.0
 40
0.4400000000000052
100
AcDbArc
 50
190.8450284855012
 51
280.8450284854867
  0
LINE
  5
175CD
330
A
100
AcDbEntity
  8
MODEL
100
AcDbLine
 10
337.2910354070805
 20
283.4732697500651
 30
0.0
 11
309.4060354070807
 21
283.4732697500651
 31
0.0
  0
HATCH
  5
175CE
330
A
100
AcDbEntity
  8
MODEL
100
AcDbHatch
 10
0.0
 20
0.0
 30
0.0
210
0.0
220
0.0
230
1.0
  2
LINE
 70
     0
 71
     0
 91
        1
 92
        1
 93
        4
 72
     1
 10
337.291035406934
 20
283.4732697500459
 11
298.8239560918501
 21
283.4732697500459
 72
     1
 10
298.8239560918501
 20
283.4732697500459
 11
298.8239560918501
 21
220.3989686472383
 72
     1
 10
298.8239560918501
 20
220.3989686472383
 11
337.291035406934
 21
220.3989686472383
 72
     1
 10
337.291035406934
 20
220.3989686472383
 11
337.291035406934
 21
283.4732697500456
 97
        0
 75
     0
 76
     1
 52
45.0
 41
3.999999999900006
 77
     0
 78
     1
 53
45.0
 43
132.6147140735807
 44
-193.0062361155349
 45
-8.98025612106915
 46
8.98025612106915
 79
     0
 98
        0
  0
LINE
  5
175CF
330
A
100
AcDbEntity
  8
MODEL
100
AcDbLine
 10
337.2910354070805
 20
283.4732697500651
 30
0.0
 11
337.2910354070805
 21
220.3989686471651
 31
0.0
  0
LINE
  5
175D0
330
A
100
AcDbEntity
  8
MODEL
100
AcDbLine
 10
298.823956091981
 20
283.4732697500651
 30
0.0
 11
337.2910354070805
 21
283.4732697500651
 31
0.0
  0
LINE
  5
175D1
330
A
100
AcDbEntity
  8
MODEL
100
AcDbLine
 10
337.2910354070805
 20
316.6011008438651
 30
0.0
 11
309.4060354070807
 21
316.6011008438651
 31
0.0
  0
HATCH
  5
175D2
330
A
100
AcDbEntity
  8
MODEL
100
AcDbHatch
 10
0.0
 20
0.0
 30
0.0
210
0.0
220
0.0
230
1.0
  2
LINE
 70
     0
 71
     0
 91
        1
 92
        1
 93
        4
 72
     1
 10
337.291035406934
 20
316.6011008437316
 11
337.291035406934
 21
379.6754019465392
 72
     1
 10
337.291035406934
 20
379.6754019465391
 11
298.8239560918501
 21
379.6754019465391
 72
     1
 10
298.8239560918501
 20
379.6754019465391
 11
298.8239560918501
 21
316.6011008437315
 72
     1
 10
298.8239560918501
 20
316.6011008437316
 11
337.291035406934
 21
316.6011008437316
 97
        0
 75
     0
 76
     1
 52
45.0
 41
3.999999999900006
 77
     0
 78
     1
 53
45.0
 43
132.6147140735807
 44
-193.0062361155349
 45
-8.98025612106915
 46
8.98025612106915
 79
     0
 98
        0
  0
LINE
  5
175D3
330
A
100
AcDbEntity
  8
MODEL
100
AcDbLine
 10
337.2910354070805
 20
316.6011008438651
 30
0.0
 11
337.2910354070805
 21
379.6754019464651
 31
0.0
  0
LINE
  5
175D4
330
A
100
AcDbEntity
  8
MODEL
100
AcDbLine
 10
298.823956091981
 20
316.6011008438651
 30
0.0
 11
337.2910354070805
 21
316.6011008438651
 31
0.0
  0
ARC
  5
175D7
330
A
100
AcDbEntity
  8
MODEL
100
AcDbCircle
 10
109.3934372931674
 20
300.0370972118652
 30
0.0
 40
32.49999999999999
100
AcDbArc
 50
0.0
 51
243.4877605600001
  0
ARC
  5
175D8
330
A
100
AcDbEntity
  8
MODEL
100
AcDbCircle
 10
109.3934372931674
 20
300.0370972118652
 30
0.0
 40
32.49999999999999
100
AcDbArc
 50
296.5145840286
 51
0.0
  0
ELLIPSE
  5
175D9
330
A
100
AcDbEntity
  8
MODEL
100
AcDbEllipse
 10
109.3934394867676
 20
243.7873527164651
 30
0.0
 11
-11.95000000000042
 21
5.273559366969492E-13
 31
0.0
210
0.0
220
0.0
230
1.0
 40
0.1881532316
 41
-3.4382986264288
 42
-3.427734696867932
  0
ELLIPSE
  5
175DA
330
A
100
AcDbEntity
  8
MODEL
100
AcDbEllipse
 10
109.3934394867676
 20
243.7873527164651
 30
0.0
 11
11.94999999999953
 21
-4.649058915617844E-13
 31
0.0
210
0.0
220
0.0
230
1.0
 40
0.1881532316
 41
3.427734696895097
 42
3.438298626428816
  0
LINE
  5
175DB
330
A
100
AcDbEntity
  8
MODEL
100
AcDbLine
 10
97.9655976528677
 20
243.1700723024651
 30
0.0
 11
97.9655976528677
 21
243.1679487641651
 31
0.0
  0
LINE
  5
175DC
330
A
100
AcDbEntity
  8
MODEL
100
AcDbLine
 10
120.8212813203675
 20
243.1700723024651
 30
0.0
 11
120.8212813203675
 21
243.1679487641651
 31
0.0
  0
LINE
  5
175DD
330
A
100
AcDbEntity
  8
MODEL
100
AcDbLine
 10
120.8212813203675
 20
243.1299750776652
 30
0.0
 11
120.8212813203675
 21
241.8531934865651
 31
0.0
  0
ELLIPSE
  5
175DE
330
A
100
AcDbEntity
  8
MODEL
100
AcDbEllipse
 10
109.3934394867676
 20
243.7873527164651
 30
0.0
 11
11.94999999999981
 21
-4.649058915617844E-13
 31
0.0
210
0.0
220
0.0
230
1.0
 40
0.1881532316
 41
-1.343903524035635
 42
-0.9063776801282195
  0
LINE
  5
175DF
330
A
100
AcDbEntity
  8
MODEL
100
AcDbLine
 10
112.0816045860674
 20
241.5965487425651
 30
0.0
 11
112.0816045860674
 21
240.3197671517651
 31
0.0
  0
LINE
  5
175E0
330
A
100
AcDbEntity
  8
MODEL
100
AcDbLine
 10
106.7052743871677
 20
241.5965487425651
 30
0.0
 11
106.7052743871677
 21
240.3197671517651
 31
0.0
  0
ELLIPSE
  5
175E1
330
A
100
AcDbEntity
  8
MODEL
100
AcDbEllipse
 10
109.3934394867676
 20
243.7873527164651
 30
0.0
 11
-11.95000000000024
 21
4.579669976578770E-13
 31
0.0
210
0.0
220
0.0
230
1.0
 40
0.1881532316
 41
0.9063776801282266
 42
1.343903524035621
  0
LINE
  5
175E2
330
A
100
AcDbEntity
  8
MODEL
100
AcDbLine
 10
97.9655976528677
 20
243.1299750776652
 30
0.0
 11
97.9655976528677
 21
241.8531934865651
 31
0.0
  0
ELLIPSE
  5
175E3
330
A
100
AcDbEntity
  8
MODEL
100
AcDbEllipse
 10
119.2194708540674
 20
243.0758058734651
 30
0.0
 11
0.1048240407372815
 21
0.1703288598080555
 31
0.0
210
0.0
220
0.0
230
1.0
 40
0.9392248520999994
 41
3.143283700087602
 42
3.721645543432896
  0
ELLIPSE
  5
175E4
330
A
100
AcDbEntity
  8
MODEL
100
AcDbEllipse
 10
120.6300203691674
 20
243.1569466280651
 30
0.0
 11
0.1048240407372347
 21
0.1703288598080694
 31
0.0
210
0.0
220
0.0
230
1.0
 40
0.9392248520999998
 41
3.721645543432832
 42
5.292441870227042
  0
LINE
  5
175E5
330
A
100
AcDbEntity
  8
MODEL
100
AcDbLine
 10
120.6300203691674
 20
242.9605186910651
 30
0.0
 11
119.2194708540674
 21
242.8793779364651
 31
0.0
  0
ELLIPSE
  5
175E6
330
A
100
AcDbEntity
  8
MODEL
100
AcDbEllipse
 10
112.0366143750678
 20
244.6647089240651
 30
0.0
 11
0.008679534348875629
 21
0.1998115754491755
 31
0.0
210
0.0
220
0.0
230
1.0
 40
0.2209333577
 41
3.335730356307058
 42
4.244499749219988
  0
LINE
  5
175E7
330
A
100
AcDbEntity
  8
MODEL
100
AcDbLine
 10
112.0366143750678
 20
244.4682809867651
 30
0.0
 11
111.7048115700675
 21
244.1978679440651
 31
0.0
  0
ELLIPSE
  5
175E8
330
A
100
AcDbEntity
  8
MODEL
100
AcDbEllipse
 10
100.8000334926678
 20
244.0183334213651
 30
0.0
 11
-0.03955676263601651
 21
0.1960491329482394
 31
0.0
210
0.0
220
0.0
230
1.0
 40
0.7182914944000003
 41
1.800437266148775
 42
2.867747566183034
  0
ELLIPSE
  5
175E9
330
A
100
AcDbEntity
  8
MODEL
100
AcDbEllipse
 10
98.15685860406757
 20
243.1569466280651
 30
0.0
 11
0.1048240407372485
 21
-0.1703288598080555
 31
0.0
210
0.0
220
0.0
230
1.0
 40
0.9392248521
 41
4.132336090542232
 42
5.703132417334863
  0
ELLIPSE
  5
175EA
330
A
100
AcDbEntity
  8
MODEL
100
AcDbEllipse
 10
109.3934394867676
 20
242.3141431883651
 30
0.0
 11
-11.74999999999917
 21
4.302114220422484E-13
 31
0.0
210
0.0
220
0.0
230
1.0
 40
0.1881532316
 41
-0.7443970290277395
 42
-0.5385581423806309
  0
ELLIPSE
  5
175EB
330
A
100
AcDbEntity
  8
MODEL
100
AcDbEllipse
 10
101.8787802024676
 20
243.8290611332652
 30
0.0
 11
-0.03955676263603902
 21
0.1960491329482394
 31
0.0
210
0.0
220
0.0
230
1.0
 40
0.7182914944000005
 41
2.867747566186292
 42
4.438543892980409
  0
LINE
  5
175EC
330
A
100
AcDbEntity
  8
MODEL
100
AcDbLine
 10
102.0250509429677
 20
244.1672072567652
 30
0.0
 11
102.0250509429677
 21
243.8033970941651
 31
0.0
  0
LINE
  5
175ED
330
A
100
AcDbEntity
  8
MODEL
100
AcDbLine
 10
100.8000334926678
 20
243.8219054843651
 30
0.0
 11
101.8787802024676
 21
243.6326331959651
 31
0.0
  0
LINE
  5
175EE
330
A
100
AcDbEntity
  8
MODEL
100
AcDbLine
 10
97.9655976528677
 20
243.1299750776652
 30
0.0
 11
97.96912819566751
 21
243.1301781692651
 31
0.0
  0
ELLIPSE
  5
175EF
330
A
100
AcDbEntity
  8
MODEL
100
AcDbEllipse
 10
117.9868454805674
 20
244.0183334213651
 30
0.0
 11
-0.03955676263604251
 21
-0.1960491329482394
 31
0.0
210
0.0
220
0.0
230
1.0
 40
0.7182914944000003
 41
0.273845087403215
 42
1.341155387644156
  0
LINE
  5
175F0
330
A
100
AcDbEntity
  8
MODEL
100
AcDbLine
 10
107.0820674031677
 20
244.1978679440651
 30
0.0
 11
106.7502645981674
 21
244.4682809867651
 31
0.0
  0
ELLIPSE
  5
175F1
330
A
100
AcDbEntity
  8
MODEL
100
AcDbEllipse
 10
106.7502645981674
 20
244.6647089240651
 30
0.0
 11
0.00867953434885004
 21
-0.1998115754491825
 31
0.0
210
0.0
220
0.0
230
1.0
 40
0.2209333576999999
 41
5.180278211564302
 42
6.089047604462293
  0
LINE
  5
175F2
330
A
100
AcDbEntity
  8
MODEL
100
AcDbLine
 10
120.8177507775677
 20
243.1301781692651
 30
0.0
 11
120.8212813203675
 21
243.1299750776652
 31
0.0
  0
ELLIPSE
  5
175F3
330
A
100
AcDbEntity
  8
MODEL
100
AcDbEllipse
 10
99.56740811916734
 20
243.0758058734651
 30
0.0
 11
-0.1048240407372572
 21
0.1703288598080692
 31
0.0
210
0.0
220
0.0
230
1.0
 40
0.9392248521000002
 41
2.56153976374683
 42
3.140759911148888
  0
LINE
  5
175F4
330
A
100
AcDbEntity
  8
MODEL
100
AcDbLine
 10
99.56740811916734
 20
242.8793779364651
 30
0.0
 11
98.15685860406757
 21
242.9605186910651
 31
0.0
  0
ELLIPSE
  5
175F5
330
A
100
AcDbEntity
  8
MODEL
100
AcDbEllipse
 10
116.9080987707675
 20
243.8290611332652
 30
0.0
 11
0.03955676263602426
 21
0.1960491329482394
 31
0.0
210
0.0
220
0.0
230
1.0
 40
0.7182914944
 41
1.844641414198783
 42
3.415437740993191
  0
LINE
  5
175F6
330
A
100
AcDbEntity
  8
MODEL
100
AcDbLine
 10
116.9080987707675
 20
243.6326331959651
 30
0.0
 11
117.9868454805674
 21
243.8219054843651
 31
0.0
  0
LINE
  5
175F7
330
A
100
AcDbEntity
  8
MODEL
100
AcDbLine
 10
116.7618280305676
 20
244.1672072567652
 30
0.0
 11
116.7618280305676
 21
243.8033970941651
 31
0.0
  0
ELLIPSE
  5
175F8
330
A
100
AcDbEntity
  8
MODEL
100
AcDbEllipse
 10
109.3934394867676
 20
242.3141431883651
 30
0.0
 11
11.74999999999982
 21
-4.649058915617844E-13
 31
0.0
210
0.0
220
0.0
230
1.0
 40
0.1881532316
 41
1.343903524035625
 42
1.797689129554168
  0
ELLIPSE
  5
175F9
330
A
100
AcDbEntity
  8
MODEL
100
AcDbEllipse
 10
107.0820674031677
 20
240.6268463696651
 30
0.0
 11
-0.008679534348874326
 21
-0.1998115754491964
 31
0.0
210
0.0
220
0.0
230
1.0
 40
0.2209333577
 41
0.1941377027200986
 42
1.764934029512569
  0
LINE
  5
175FA
330
A
100
AcDbEntity
  8
MODEL
100
AcDbLine
 10
107.1270576141674
 20
241.7575689071651
 30
0.0
 11
107.1270576141674
 21
240.6635125451651
 31
0.0
  0
LINE
  5
175FB
330
A
100
AcDbEntity
  8
MODEL
100
AcDbLine
 10
106.7052743871677
 20
241.5965487425651
 30
0.0
 11
106.9168037961674
 21
241.7689412306651
 31
0.0
  0
ELLIPSE
  5
175FC
330
A
100
AcDbEntity
  8
MODEL
100
AcDbEllipse
 10
106.7502645981674
 20
240.356433326965
 30
0.0
 11
0.008679534348873894
 21
0.1998115754492102
 31
0.0
210
0.0
220
0.0
230
1.0
 40
0.2209333576999999
 41
1.764934029512554
 42
3.335730356305536
  0
LINE
  5
175FD
330
A
100
AcDbEntity
  8
MODEL
100
AcDbLine
 10
106.7502645981674
 20
240.1600053899651
 30
0.0
 11
107.0820674031677
 21
240.4304184326651
 31
0.0
  0
ELLIPSE
  5
175FE
330
A
100
AcDbEntity
  8
MODEL
100
AcDbEllipse
 10
117.9868454805674
 20
241.0028088296651
 30
0.0
 11
-0.03955676263600953
 21
0.1960491329482394
 31
0.0
210
0.0
220
0.0
230
1.0
 40
0.7182914944000002
 41
2.867747566186499
 42
3.141981134442815
  0
ELLIPSE
  5
175FF
330
A
100
AcDbEntity
  8
MODEL
100
AcDbEllipse
 10
120.6300203691674
 20
241.8641956229651
 30
0.0
 11
-0.1048240407373023
 21
0.1703288598080347
 31
0.0
210
0.0
220
0.0
230
1.0
 40
0.9392248520999997
 41
2.561539763746761
 42
4.132336090541834
  0
ELLIPSE
  5
17600
330
A
100
AcDbEntity
  8
MODEL
100
AcDbEllipse
 10
98.15685860406757
 20
241.8641956229651
 30
0.0
 11
0.1048240407373214
 21
0.1703288598080069
 31
0.0
210
0.0
220
0.0
230
1.0
 40
0.9392248520999998
 41
2.150849216638209
 42
3.721645543433681
  0
ELLIPSE
  5
17601
330
A
100
AcDbEntity
  8
MODEL
100
AcDbEllipse
 10
100.8000334926678
 20
241.0028088296651
 30
0.0
 11
0.03955676263604247
 21
0.1960491329482464
 31
0.0
210
0.0
220
0.0
230
1.0
 40
0.7182914944
 41
3.141166050183138
 42
3.415437740989397
  0
ELLIPSE
  5
17602
330
A
100
AcDbEntity
  8
MODEL
100
AcDbEllipse
 10
109.3934394867676
 20
243.7873527164651
 30
0.0
 11
10.07499999999934
 21
-2.983724378680108E-13
 31
0.0
210
0.0
220
0.0
230
1.0
 40
0.1881532316
 41
-0.7899831777158814
 42
-0.7504915783575585
  0
LINE
  5
17603
330
A
100
AcDbEntity
  8
MODEL
100
AcDbLine
 10
111.8702152530677
 20
241.7688270713651
 30
0.0
 11
112.0816045860674
 21
241.5965487425651
 31
0.0
  0
ELLIPSE
  5
17604
330
A
100
AcDbEntity
  8
MODEL
100
AcDbEllipse
 10
116.9080987707675
 20
241.1920811177651
 30
0.0
 11
0.03955676263601559
 21
-0.1960491329482464
 31
0.0
210
0.0
220
0.0
230
1.0
 40
0.7182914944000001
 41
4.438543892980412
 42
6.009340219775821
  0
LINE
  5
17605
330
A
100
AcDbEntity
  8
MODEL
100
AcDbLine
 10
116.7618280305676
 20
242.4945267476651
 30
0.0
 11
116.7618280305676
 21
241.2177451568651
 31
0.0
  0
LINE
  5
17606
330
A
100
AcDbEntity
  8
MODEL
100
AcDbLine
 10
117.9868454805674
 20
240.8063808926651
 30
0.0
 11
116.9080987707675
 21
240.995653180765
 31
0.0
  0
ELLIPSE
  5
17607
330
A
100
AcDbEntity
  8
MODEL
100
AcDbEllipse
 10
119.2194708540674
 20
241.9453363775651
 30
0.0
 11
-0.1048240407372867
 21
0.1703288598080416
 31
0.0
210
0.0
220
0.0
230
1.0
 40
0.9392248520999998
 41
0.9907434369538493
 42
2.561539763747673
  0
LINE
  5
17608
330
A
100
AcDbEntity
  8
MODEL
100
AcDbLine
 10
119.2194708540674
 20
241.7489084402651
 30
0.0
 11
120.6300203691674
 21
241.6677676859651
 31
0.0
  0
LINE
  5
17609
330
A
100
AcDbEntity
  8
MODEL
100
AcDbLine
 10
119.0282099028677
 20
242.9542801931651
 30
0.0
 11
119.0282099028677
 21
241.9563385136651
 31
0.0
  0
ELLIPSE
  5
1760A
330
A
100
AcDbEntity
  8
MODEL
100
AcDbEllipse
 10
109.3934394867676
 20
243.7873527164651
 30
0.0
 11
-10.07499999999983
 21
4.302114220422484E-13
 31
0.0
210
0.0
220
0.0
230
1.0
 40
0.1881532316
 41
0.7504915783575745
 42
0.7929851262852236
  0
ELLIPSE
  5
1760B
330
A
100
AcDbEntity
  8
MODEL
100
AcDbEllipse
 10
99.56740811916734
 20
241.9453363775651
 30
0.0
 11
-0.1048240407373249
 21
-0.1703288598080207
 31
0.0
210
0.0
220
0.0
230
1.0
 40
0.9392248521000001
 41
0.5800528898412711
 42
2.150849216637977
  0
LINE
  5
1760C
330
A
100
AcDbEntity
  8
MODEL
100
AcDbLine
 10
99.75866907036743
 20
242.9554656227651
 30
0.0
 11
99.75866907036743
 21
241.9563385136651
 31
0.0
  0
LINE
  5
1760D
330
A
100
AcDbEntity
  8
MODEL
100
AcDbLine
 10
98.15685860406757
 20
241.6677676859651
 30
0.0
 11
99.56740811916734
 21
241.7489084402651
 31
0.0
  0
ELLIPSE
  5
1760E
330
A
100
AcDbEntity
  8
MODEL
100
AcDbEllipse
 10
111.7048115700675
 20
240.6268463696651
 30
0.0
 11
-0.008679534348856981
 21
0.1998115754491755
 31
0.0
210
0.0
220
0.0
230
1.0
 40
0.2209333577
 41
1.376658624077221
 42
2.947454950872568
  0
LINE
  5
1760F
330
A
100
AcDbEntity
  8
MODEL
100
AcDbLine
 10
111.7048115700675
 20
240.4304184326651
 30
0.0
 11
112.0366143750678
 21
240.1600053899651
 31
0.0
  0
ELLIPSE
  5
17610
330
A
100
AcDbEntity
  8
MODEL
100
AcDbEllipse
 10
112.0366143750678
 20
240.356433326965
 30
0.0
 11
-0.00867953434885221
 21
0.1998115754491894
 31
0.0
210
0.0
220
0.0
230
1.0
 40
0.2209333576999999
 41
2.947454950874624
 42
4.518251277667034
  0
LINE
  5
17611
330
A
100
AcDbEntity
  8
MODEL
100
AcDbLine
 10
111.6598213590678
 20
241.7578232252651
 30
0.0
 11
111.6598213590678
 21
240.6635125451651
 31
0.0
  0
ELLIPSE
  5
17612
330
A
100
AcDbEntity
  8
MODEL
100
AcDbEllipse
 10
109.3934394867676
 20
242.3141431883651
 30
0.0
 11
-11.74999999999973
 21
4.649058915617844E-13
 31
0.0
210
0.0
220
0.0
230
1.0
 40
0.1881532316
 41
1.343903524035638
 42
1.797689129554155
  0
ELLIPSE
  5
17613
330
A
100
AcDbEntity
  8
MODEL
100
AcDbEllipse
 10
101.8787802024676
 20
241.1920811177651
 30
0.0
 11
0.03955676263603989
 21
0.1960491329482464
 31
0.0
210
0.0
220
0.0
230
1.0
 40
0.7182914944000002
 41
3.415437740996834
 42
4.986234067790348
  0
LINE
  5
17614
330
A
100
AcDbEntity
  8
MODEL
100
AcDbLine
 10
101.8787802024676
 20
240.995653180765
 30
0.0
 11
100.8000334926678
 21
240.8063808926651
 31
0.0
  0
LINE
  5
17615
330
A
100
AcDbEntity
  8
MODEL
100
AcDbLine
 10
102.0250509429677
 20
242.4945267476651
 30
0.0
 11
102.0250509429677
 21
241.2177451568651
 31
0.0
  0
ELLIPSE
  5
17616
330
A
100
AcDbEntity
  8
MODEL
100
AcDbEllipse
 10
109.3934394867676
 20
242.3141431883651
 30
0.0
 11
10.27500000000184
 21
-2.498001805406602E-13
 31
0.0
210
0.0
220
0.0
230
1.0
 40
0.1881532316
 41
0.5127775004989399
 42
0.7450331771142055
  0
ELLIPSE
  5
17617
330
A
100
AcDbEntity
  8
MODEL
100
AcDbEllipse
 10
109.3934394867676
 20
242.3141431883651
 30
0.0
 11
-10.27499999999906
 21
4.440892098500625E-13
 31
0.0
210
0.0
220
0.0
230
1.0
 40
0.1881532316
 41
4.485496177625397
 42
4.939281783143983
  0
ELLIPSE
  5
17618
330
A
100
AcDbEntity
  8
MODEL
100
AcDbEllipse
 10
109.3934394867676
 20
242.3141431883651
 30
0.0
 11
10.27500000000094
 21
-4.093947403305264E-13
 31
0.0
210
0.0
220
0.0
230
1.0
 40
0.1881532316
 41
4.485496177625455
 42
4.939281783143922
  0
ELLIPSE
  5
17619
330
A
100
AcDbEntity
  8
MODEL
100
AcDbEllipse
 10
109.3934394867676
 20
243.2471758895651
 30
0.0
 11
8.024999999999997
 21
-3.261280134836397E-13
 31
0.0
210
0.0
220
0.0
230
1.0
 40
0.1881532316
 41
2.935979550140354
 42
6.283185307179576
  0
ELLIPSE
  5
1761A
330
A
100
AcDbEntity
  8
MODEL
100
AcDbEllipse
 10
109.3934394867676
 20
243.2471758895651
 30
0.0
 11
8.024999999999997
 21
-3.261280134836397E-13
 31
0.0
210
0.0
220
0.0
230
1.0
 40
0.1881532316
 41
-4.040652680860321
 42
-3.548929170194487
  0
ELLIPSE
  5
1761B
330
A
100
AcDbEntity
  8
MODEL
100
AcDbEllipse
 10
109.3934394867676
 20
243.2471758895651
 30
0.0
 11
8.024999999999997
 21
-3.261280134836397E-13
 31
0.0
210
0.0
220
0.0
230
1.0
 40
0.1881532316
 41
0.4073365166047092
 42
0.8990600273133831
  0
ELLIPSE
  5
1761C
330
A
100
AcDbEntity
  8
MODEL
100
AcDbEllipse
 10
109.3934394867676
 20
243.2471758895651
 30
0.0
 11
8.024999999999997
 21
-3.261280134836397E-13
 31
0.0
210
0.0
220
0.0
230
1.0
 40
0.1881532316
 41
0.0
 42
0.2099093138618404
  0
ELLIPSE
  5
1761D
330
A
100
AcDbEntity
  8
MODEL
100
AcDbEllipse
 10
109.3934394867676
 20
243.5812923254651
 30
0.0
 11
8.024999999999997
 21
-3.261280134836397E-13
 31
0.0
210
0.0
220
0.0
230
1.0
 40
0.1881532316
 41
5.165232651670108
 42
6.172352765249753
  0
ELLIPSE
  5
1761E
330
A
100
AcDbEntity
  8
MODEL
100
AcDbEllipse
 10
109.3934394867676
 20
243.5812923254651
 30
0.0
 11
8.024999999999997
 21
-3.261280134836397E-13
 31
0.0
210
0.0
220
0.0
230
1.0
 40
0.1881532316
 41
3.252425195519738
 42
4.259545309099251
  0
SPLINE
  5
1761F
330
A
100
AcDbEntity
  8
MODEL
100
AcDbSpline
210
0.0
220
0.0
230
1.0
 70
     8
 71
     3
 72
    17
 73
    13
 74
     0
 42
0.000000001
 43
0.0000000001
 40
0.0
 40
0.0
 40
0.0
 40
0.0
 40
0.137620902128828
 40
0.137620902128828
 40
0.137620902128828
 40
0.4591435805268771
 40
0.4591435805268771
 40
0.4591435805268771
 40
0.7839300280642443
 40
0.7839300280642443
 40
0.7839300280642443
 40
1.0
 40
1.0
 40
1.0
 40
1.0
 10
117.3304580791873
 20
243.5337753782771
 30
0.0
 10
117.3290236267101
 20
243.5281330376723
 30
0.0
 10
117.32745123171
 20
243.5226436995968
 30
0.0
 10
117.3257797629858
 20
243.5173920583625
 30
0.0
 10
117.3218758839778
 20
243.5051263356068
 30
0.0
 10
117.3173344102843
 20
243.4938174457391
 30
0.0
 10
117.3127794247303
 20
243.4843520947007
 30
0.0
 10
117.308181679771
 20
243.4747978887635
 30
0.0
 10
117.303451608105
 20
243.4668555476786
 30
0.0
 10
117.2992064703603
 20
243.461222262682
 30
0.0
 10
117.2963590698691
 20
243.45744377081
 30
0.0
 10
117.2936798518747
 20
243.4546283548844
 30
0.0
 10
117.2913009955371
 20
243.4528943046551
 30
0.0
  0
SPLINE
  5
17620
330
A
100
AcDbEntity
  8
MODEL
100
AcDbSpline
210
0.0
220
0.0
230
1.0
 70
    12
 71
     2
 72
     6
 73
     3
 74
     0
 42
0.000000001
 43
0.0000000001
 40
0.0
 40
0.0
 40
0.0
 40
1.0
 40
1.0
 40
1.0
 10
117.2524781387717
 20
243.4256329947999
 30
0.0
 41
1.0
 10
117.2725557129565
 20
243.4392300656495
 30
0.0
 41
1.0
 10
117.2913009955371
 20
243.4528943046551
 30
0.0
 41
1.0
  0
LINE
  5
17621
330
A
100
AcDbEntity
  8
MODEL
100
AcDbLine
 10
116.5710083496674
 20
243.2229776942651
 30
0.0
 11
116.5710781287676
 21
243.2317844210651
 31
0.0
  0
SPLINE
  5
17622
330
A
100
AcDbEntity
  8
MODEL
100
AcDbSpline
210
0.0
220
0.0
230
1.0
 70
     8
 71
     3
 72
    20
 73
    16
 74
     0
 42
0.000000001
 43
0.0000000001
 40
0.0
 40
0.0
 40
0.0
 40
0.0
 40
0.211690999740161
 40
0.211690999740161
 40
0.211690999740161
 40
0.4231387791299948
 40
0.4231387791299948
 40
0.4231387791299948
 40
0.6382112052309014
 40
0.6382112052309014
 40
0.6382112052309014
 40
0.8554668264661254
 40
0.8554668264661254
 40
0.8554668264661254
 40
1.0
 40
1.0
 40
1.0
 40
1.0
 10
116.5710083498111
 20
243.2229776942615
 30
0.0
 10
116.5707932293649
 20
243.2094154441043
 30
0.0
 10
116.5689198660052
 20
243.1953431436677
 30
0.0
 10
116.565628394613
 20
243.1819289328287
 30
0.0
 10
116.5623391011309
 20
243.1685235979427
 30
0.0
 10
116.5575547263243
 20
243.1554076224326
 30
0.0
 10
116.5518457486853
 20
243.1435815470801
 30
0.0
 10
116.5460406336356
 20
243.1315563242903
 30
0.0
 10
116.5391290324469
 20
243.1205311367411
 30
0.0
 10
116.5318932064863
 20
243.111357854042
 30
0.0
 10
116.5245894550383
 20
243.102098458202
 30
0.0
 10
116.5167568009215
 20
243.0944673064235
 30
0.0
 10
116.5092519969389
 20
243.0891250773878
 30
0.0
 10
116.5042181950157
 20
243.0855418095419
 30
0.0
 10
116.49924770396
 20
243.082915883357
 30
0.0
 10
116.4945645875353
 20
243.0813567641453
 30
0.0
  0
SPLINE
  5
17623
330
A
100
AcDbEntity
  8
MODEL
100
AcDbSpline
210
0.0
220
0.0
230
1.0
 70
    12
 71
     2
 72
     6
 73
     3
 74
     0
 42
0.000000001
 43
0.0000000001
 40
0.0
 40
0.0
 40
0.0
 40
1.0
 40
1.0
 40
1.0
 10
116.4195645875357
 20
243.0569149423898
 30
0.0
 41
1.0
 10
116.4576618375224
 20
243.0690709738112
 30
0.0
 41
1.0
 10
116.4945645875353
 20
243.0813567641453
 30
0.0
 41
1.0
  0
SPLINE
  5
17624
330
A
100
AcDbEntity
  8
MODEL
100
AcDbSpline
210
0.0
220
0.0
230
1.0
 70
    12
 71
     2
 72
     6
 73
     3
 74
     0
 42
0.000000001
 43
0.0000000001
 40
0.0
 40
0.0
 40
0.0
 40
1.0
 40
1.0
 40
1.0
 10
102.2923143858554
 20
243.0813567641459
 30
0.0
 41
1.0
 10
102.3292171358685
 20
243.0690709738118
 30
0.0
 41
1.0
 10
102.3673143858557
 20
243.0569149423904
 30
0.0
 41
1.0
  0
SPLINE
  5
17625
330
A
100
AcDbEntity
  8
MODEL
100
AcDbSpline
210
0.0
220
0.0
230
1.0
 70
     8
 71
     3
 72
    20
 73
    16
 74
     0
 42
0.000000001
 43
0.0000000001
 40
0.0
 40
0.0
 40
0.0
 40
0.0
 40
0.2098122845909539
 40
0.2098122845909539
 40
0.2098122845909539
 40
0.4193516318465694
 40
0.4193516318465694
 40
0.4193516318465694
 40
0.6330014409271217
 40
0.6330014409271217
 40
0.6330014409271217
 40
0.8504108339596562
 40
0.8504108339596562
 40
0.8504108339596562
 40
1.0
 40
1.0
 40
1.0
 40
1.0
 10
102.2923143858554
 20
243.0813567641462
 30
0.0
 10
102.285567814984
 20
243.0836028557021
 30
0.0
 10
102.2781838039389
 20
243.0881046164813
 30
0.0
 10
102.2708629770875
 20
243.0944779774769
 30
0.0
 10
102.2635475369711
 20
243.1008466488926
 30
0.0
 10
102.2561049336744
 20
243.1092499544542
 30
0.0
 10
102.2493076277706
 20
243.1190300346435
 30
0.0
 10
102.2423785522676
 20
243.1289997071894
 30
0.0
 10
102.2359400585763
 20
243.1406721507367
 30
0.0
 10
102.2307249268968
 20
243.1531636765439
 30
0.0
 10
102.2254223220768
 20
243.1658647220834
 30
0.0
 10
102.2212481615393
 20
243.1797757771466
 30
0.0
 10
102.2187404940632
 20
243.1937523650428
 30
0.0
 10
102.2170019189564
 20
243.2034423849605
 30
0.0
 10
102.216023723789
 20
243.2133255045341
 30
0.0
 10
102.2158706235791
 20
243.2229776942618
 30
0.0
  0
LINE
  5
17626
330
A
100
AcDbEntity
  8
MODEL
100
AcDbLine
 10
102.2158008444674
 20
243.2317844210651
 30
0.0
 11
102.2158706235678
 21
243.2229776942651
 31
0.0
  0
SPLINE
  5
17627
330
A
100
AcDbEntity
  8
MODEL
100
AcDbSpline
210
0.0
220
0.0
230
1.0
 70
    12
 71
     2
 72
     6
 73
     3
 74
     0
 42
0.000000001
 43
0.0000000001
 40
0.0
 40
0.0
 40
0.0
 40
1.0
 40
1.0
 40
1.0
 10
101.4955779778538
 20
243.4528943046557
 30
0.0
 41
1.0
 10
101.5143232604346
 20
243.4392300656498
 30
0.0
 41
1.0
 10
101.5344008346196
 20
243.4256329948001
 30
0.0
 41
1.0
  0
SPLINE
  5
17628
330
A
100
AcDbEntity
  8
MODEL
100
AcDbSpline
210
0.0
220
0.0
230
1.0
 70
     8
 71
     3
 72
    11
 73
     7
 74
     0
 42
0.000000001
 43
0.0000000001
 40
0.0
 40
0.0
 40
0.0
 40
0.0
 40
0.5337554166172354
 40
0.5337554166172354
 40
0.5337554166172354
 40
1.0
 40
1.0
 40
1.0
 40
1.0
 10
101.4955779778538
 20
243.4528943046557
 30
0.0
 10
101.4921509601547
 20
243.4553924045759
 30
0.0
 10
101.4880710017105
 20
243.4601781375416
 30
0.0
 10
101.4837719943121
 20
243.4668393316259
 30
0.0
 10
101.4800146123425
 20
243.4726612919588
 30
0.0
 10
101.476008500571
 20
243.4800483622466
 30
0.0
 10
101.4721408765165
 20
243.4885379537888
 30
0.0
  0
ARC
  5
17629
330
A
100
AcDbEntity
  8
MODEL
100
AcDbCircle
 10
115.7593776084677
 20
243.8364597005651
 30
0.0
 40
0.2340615040117401
100
AcDbArc
 50
0.0
 51
3.456440112609387
  0
LINE
  5
1762A
330
A
100
AcDbEntity
  8
MODEL
100
AcDbLine
 10
115.9904084877676
 20
243.9968578076651
 30
0.0
 11
115.9904084877676
 21
244.1069481494652
 31
0.0
  0
SPLINE
  5
1762B
330
A
100
AcDbEntity
  8
MODEL
100
AcDbSpline
210
0.0
220
0.0
230
1.0
 70
    12
 71
     2
 72
     6
 73
     3
 74
     0
 42
0.000000001
 43
0.0000000001
 40
0.0
 40
0.0
 40
0.0
 40
1.0
 40
1.0
 40
1.0
 10
115.7875497391778
 20
244.1442127154855
 30
0.0
 41
1.0
 10
115.7689615961915
 20
244.1578848767633
 30
0.0
 41
1.0
 10
115.7487268824125
 20
244.1714740253411
 30
0.0
 41
1.0
  0
LINE
  5
1762C
330
A
100
AcDbEntity
  8
MODEL
100
AcDbLine
 10
102.7964704857677
 20
243.9968578076651
 30
0.0
 11
102.7964704857677
 21
244.1069481494652
 31
0.0
  0
SPLINE
  5
1762D
330
A
100
AcDbEntity
  8
MODEL
100
AcDbSpline
210
0.0
220
0.0
230
1.0
 70
    12
 71
     2
 72
     6
 73
     3
 74
     0
 42
0.000000001
 43
0.0000000001
 40
0.0
 40
0.0
 40
0.0
 40
1.0
 40
1.0
 40
1.0
 10
102.9993292342133
 20
244.1442127154862
 30
0.0
 41
1.0
 10
103.0179173771994
 20
244.1578848767638
 30
0.0
 41
1.0
 10
103.0381520909787
 20
244.1714740253418
 30
0.0
 41
1.0
  0
ARC
  5
1762E
330
A
100
AcDbEntity
  8
MODEL
100
AcDbCircle
 10
103.0275013647674
 20
243.8364597005651
 30
0.0
 40
0.2340615040117326
100
AcDbArc
 50
176.543559887488
 51
180.0
  0
ARC
  5
1762F
330
A
100
AcDbEntity
  8
MODEL
100
AcDbCircle
 10
98.92863650826757
 20
243.9925637963651
 30
0.0
 40
3.867836361049857
100
AcDbArc
 50
357.8961350394
 51
0.0636088899993536
  0
ARC
  5
17630
330
A
100
AcDbEntity
  8
MODEL
100
AcDbCircle
 10
119.8051825932675
 20
243.9916189868651
 30
0.0
 40
3.81477770275735
100
AcDbArc
 50
179.9213158857009
 51
182.1189401848013
  0
LINE
  5
17631
330
A
100
AcDbEntity
  8
MODEL
100
AcDbLine
 10
102.2158008444674
 20
243.4575948251651
 30
0.0
 11
102.2158008444674
 21
243.2317844210651
 31
0.0
  0
LINE
  5
17632
330
A
100
AcDbEntity
  8
MODEL
100
AcDbLine
 10
116.5710781287676
 20
243.2317844210651
 30
0.0
 11
116.5710781287676
 21
243.4575948251651
 31
0.0
  0
ELLIPSE
  5
17633
330
A
100
AcDbEntity
  8
MODEL
100
AcDbEllipse
 10
109.3934394867676
 20
243.3699433502651
 30
0.0
 11
6.600000000000003
 21
-2.636779683484746E-13
 31
0.0
210
0.0
220
0.0
230
1.0
 40
0.1881532316
 41
0.0000000000000063
 42
0.0068394569764274
  0
ELLIPSE
  5
17634
330
A
100
AcDbEntity
  8
MODEL
100
AcDbEllipse
 10
109.3934394867676
 20
243.2471758895651
 30
0.0
 11
-6.475000000000005
 21
2.636779683484747E-13
 31
0.0
210
0.0
220
0.0
230
1.0
 40
0.1881532316
 41
0.5209597688764047
 42
2.698495020521887
  0
ELLIPSE
  5
17635
330
A
100
AcDbEntity
  8
MODEL
100
AcDbEllipse
 10
109.3934394867676
 20
243.2471758895651
 30
0.0
 11
-6.475000000000005
 21
2.636779683484747E-13
 31
0.0
210
0.0
220
0.0
230
1.0
 40
0.1881532316
 41
3.455249031096779
 42
4.312352938399327
  0
ELLIPSE
  5
17636
330
A
100
AcDbEntity
  8
MODEL
100
AcDbEllipse
 10
109.3934394867676
 20
243.2471758895651
 30
0.0
 11
-6.475000000000005
 21
2.636779683484747E-13
 31
0.0
210
0.0
220
0.0
230
1.0
 40
0.1881532316
 41
5.112425022370039
 42
6.005331350690764
  0
LINE
  5
17637
330
A
100
AcDbEntity
  8
MODEL
100
AcDbLine
 10
114.2518246350676
 20
243.9968578076651
 30
0.0
 11
114.2518246350676
 21
244.0091783297651
 31
0.0
  0
LINE
  5
17638
330
A
100
AcDbEntity
  8
MODEL
100
AcDbLine
 10
114.8600026326676
 20
243.4088447909651
 30
0.0
 11
114.8600026326676
 21
243.5438595629651
 31
0.0
  0
LINE
  5
17639
330
A
100
AcDbEntity
  8
MODEL
100
AcDbLine
 10
110.2802720661678
 20
243.4818892646651
 30
0.0
 11
110.2802720661678
 21
243.7208603363651
 31
0.0
  0
LINE
  5
1763A
330
A
100
AcDbEntity
  8
MODEL
100
AcDbLine
 10
113.3541945537677
 20
243.5724212027651
 30
0.0
 11
113.3541945537677
 21
243.6826835852651
 31
0.0
  0
SPLINE
  5
1763B
330
A
100
AcDbEntity
  8
MODEL
100
AcDbSpline
210
0.0
220
0.0
230
1.0
 70
     8
 71
     3
 72
    20
 73
    16
 74
     0
 42
0.000000001
 43
0.0000000001
 40
0.0
 40
0.0
 40
0.0
 40
0.0
 40
0.2147590410985669
 40
0.2147590410985669
 40
0.2147590410985669
 40
0.4295098517251615
 40
0.4295098517251615
 40
0.4295098517251615
 40
0.6443872284074558
 40
0.6443872284074558
 40
0.6443872284074558
 40
0.8594193774154871
 40
0.8594193774154871
 40
0.8594193774154871
 40
1.0
 40
1.0
 40
1.0
 40
1.0
 10
113.3541945537131
 20
243.5724212028185
 30
0.0
 10
113.3541945537131
 20
243.5586892008554
 30
0.0
 10
113.3530835122394
 20
243.544364383733
 30
0.0
 10
113.350944546635
 20
243.5306343974951
 30
0.0
 10
113.348805627259
 20
243.5169047079944
 30
0.0
 10
113.3455791502963
 20
243.5033914104491
 30
0.0
 10
113.3415087504704
 20
243.4912138427267
 30
0.0
 10
113.3374359654786
 20
243.4790291392139
 30
0.0
 10
113.3324047503406
 20
243.467845934132
 30
0.0
 10
113.3268033124773
 20
243.4585911121919
 30
0.0
 10
113.3211979658063
 20
243.4493298320324
 30
0.0
 10
113.3148657132431
 20
243.4417443721229
 30
0.0
 10
113.3083109730615
 20
243.4364654790526
 30
0.0
 10
113.3039907103002
 20
243.4329861336443
 30
0.0
 10
113.2995105753737
 20
243.430440893828
 30
0.0
 10
113.2950319982049
 20
243.4289230097003
 30
0.0
  0
ELLIPSE
  5
1763C
330
A
100
AcDbEntity
  8
MODEL
100
AcDbEllipse
 10
109.3934395023678
 20
243.8364596990651
 30
0.0
 11
4.462499984220258
 21
1.533106974704879E-9
 31
0.0
210
0.0
220
0.0
230
1.0
 40
0.1881532318
 41
-0.5404062905833289
 42
-0.5067912624938167
  0
LINE
  5
1763D
330
A
100
AcDbEntity
  8
MODEL
100
AcDbLine
 10
107.8802105022673
 20
243.693233763565
 30
0.0
 11
107.8802105022673
 21
243.5413408124651
 31
0.0
  0
ARC
  5
1763E
330
A
100
AcDbEntity
  8
MODEL
100
AcDbCircle
 10
104.7036379170677
 20
243.8364597005651
 30
0.0
 40
0.1726974959088831
100
AcDbArc
 50
175.3130101416116
 51
180.0
  0
ARC
  5
1763F
330
A
100
AcDbEntity
  8
MODEL
100
AcDbCircle
 10
114.0832410564676
 20
243.8364597005651
 30
0.0
 40
0.1726974959086911
100
AcDbArc
 50
0.0
 51
4.686989858384396
  0
ELLIPSE
  5
17640
330
A
100
AcDbEntity
  8
MODEL
100
AcDbEllipse
 10
109.3934394867676
 20
243.3699433502651
 30
0.0
 11
-6.199999999999998
 21
2.498001805406602E-13
 31
0.0
210
0.0
220
0.0
230
1.0
 40
0.1881532316
 41
3.134564073325224
 42
3.141592653589793
  0
LINE
  5
17641
330
A
100
AcDbEntity
  8
MODEL
100
AcDbLine
 10
103.9268763405676
 20
243.5438595629651
 30
0.0
 11
103.9268763405676
 21
243.4088447909651
 31
0.0
  0
ARC
  5
17642
330
A
100
AcDbEntity
  8
MODEL
100
AcDbCircle
 10
117.0635236509675
 20
243.9916432739651
 30
0.0
 40
2.811703851182969
100
AcDbArc
 50
179.8937402550996
 51
182.8759180715006
  0
LINE
  5
17643
330
A
100
AcDbEntity
  8
MODEL
100
AcDbLine
 10
104.5350543381676
 20
244.0091783297651
 30
0.0
 11
104.5350543381676
 21
243.9968578076651
 31
0.0
  0
ARC
  5
17644
330
A
100
AcDbEntity
  8
MODEL
100
AcDbCircle
 10
101.6842917126673
 20
243.9925876187651
 30
0.0
 40
2.850765823764905
100
AcDbArc
 50
357.1445177557009
 51
0.085823917700665
  0
SPLINE
  5
17645
330
A
100
AcDbEntity
  8
MODEL
100
AcDbSpline
210
0.0
220
0.0
230
1.0
 70
     8
 71
     3
 72
    14
 73
    10
 74
     0
 42
0.000000001
 43
0.0000000001
 40
0.0
 40
0.0
 40
0.0
 40
0.0
 40
0.0507015867285805
 40
0.0507015867285805
 40
0.0507015867285805
 40
0.6249442395519779
 40
0.6249442395519779
 40
0.6249442395519779
 40
1.0
 40
1.0
 40
1.0
 40
1.0
 10
115.4179310310838
 20
243.5815297198616
 30
0.0
 10
115.4176877944249
 20
243.5806655503088
 30
0.0
 10
115.4174421020757
 20
243.579815617844
 30
0.0
 10
115.4171940817823
 20
243.5789805707942
 30
0.0
 10
115.4143850538153
 20
243.5695229958431
 30
0.0
 10
115.4111989460571
 20
243.5617140507883
 30
0.0
 10
115.4078837525744
 20
243.556201423492
 30
0.0
 10
115.4057007850436
 20
243.5525715037118
 30
0.0
 10
115.4034301166844
 20
243.5498672113547
 30
0.0
 10
115.4011528500419
 20
243.5481870806963
 30
0.0
  0
ELLIPSE
  5
17646
330
A
100
AcDbEntity
  8
MODEL
100
AcDbEllipse
 10
109.3934394822677
 20
243.8364597008651
 30
0.0
 11
6.200000004278682
 21
-1.793495907342901E-10
 31
0.0
210
0.0
220
0.0
230
1.0
 40
0.1881532315
 41
-0.2738964569367024
 42
-0.2497023184711802
  0
SPLINE
  5
17647
330
A
100
AcDbEntity
  8
MODEL
100
AcDbSpline
210
0.0
220
0.0
230
1.0
 70
     8
 71
     3
 72
    20
 73
    16
 74
     0
 42
0.000000001
 43
0.0000000001
 40
0.0
 40
0.0
 40
0.0
 40
0.0
 40
0.2148465279305046
 40
0.2148465279305046
 40
0.2148465279305046
 40
0.4296887908516291
 40
0.4296887908516291
 40
0.4296887908516291
 40
0.6445966468009131
 40
0.6445966468009131
 40
0.6445966468009131
 40
0.859584643736163
 40
0.859584643736163
 40
0.859584643736163
 40
1.0
 40
1.0
 40
1.0
 40
1.0
 10
114.8600026326951
 20
243.4088447909754
 30
0.0
 10
114.8600026326951
 20
243.3951086447644
 30
0.0
 10
114.858864207285
 20
243.3807822864488
 30
0.0
 10
114.8566751666858
 20
243.3670530158492
 30
0.0
 10
114.8544861505916
 20
243.3533238989399
 30
0.0
 10
114.8511856459322
 20
243.3398133478638
 30
0.0
 10
114.8470299925382
 20
243.3276408485735
 30
0.0
 10
114.8428730776975
 20
243.3154646543238
 30
0.0
 10
114.8377449644827
 20
243.3042916592524
 30
0.0
 10
114.8320499873073
 20
243.2950481260964
 30
0.0
 10
114.8263529526812
 20
243.2858012534849
 30
0.0
 10
114.8199306038023
 20
243.2782303180005
 30
0.0
 10
114.813300485228
 20
243.2729640444659
 30
0.0
 10
114.808934726894
 20
243.2694963421451
 30
0.0
 10
114.8044149393752
 20
243.2669602551035
 30
0.0
 10
114.7999041215207
 20
243.2654482710197
 30
0.0
  0
ELLIPSE
  5
17648
330
A
100
AcDbEntity
  8
MODEL
100
AcDbEllipse
 10
109.3934394834675
 20
243.8364597008651
 30
0.0
 11
6.200000003103141
 21
-2.700895063156850E-10
 31
0.0
210
0.0
220
0.0
230
1.0
 40
0.1881532316
 41
-0.535695844697047
 42
-0.5115017062297742
  0
ELLIPSE
  5
17649
330
A
100
AcDbEntity
  8
MODEL
100
AcDbEllipse
 10
109.3934395437677
 20
243.8364597068651
 30
0.0
 11
-6.200000057769888
 21
-5.546979542359052E-9
 31
0.0
210
0.0
220
0.0
230
1.0
 40
0.1881532311
 41
0.5115017039501693
 42
0.5356958422953496
  0
SPLINE
  5
1764A
330
A
100
AcDbEntity
  8
MODEL
100
AcDbSpline
210
0.0
220
0.0
230
1.0
 70
     8
 71
     3
 72
    20
 73
    16
 74
     0
 42
0.000000001
 43
0.0000000001
 40
0.0
 40
0.0
 40
0.0
 40
0.0
 40
0.2149525561875709
 40
0.2149525561875709
 40
0.2149525561875709
 40
0.429902163651306
 40
0.429902163651306
 40
0.429902163651306
 40
0.6448919663985848
 40
0.6448919663985848
 40
0.6448919663985848
 40
0.8598657489484439
 40
0.8598657489484439
 40
0.8598657489484439
 40
1.0
 40
1.0
 40
1.0
 40
1.0
 10
103.9869748518706
 20
243.2654482710203
 30
0.0
 10
103.9801255346265
 20
243.2677440982949
 30
0.0
 10
103.973225355224
 20
243.2724489655772
 30
0.0
 10
103.9668390554561
 20
243.2791719771353
 30
0.0
 10
103.9604528089797
 20
243.2858949325922
 30
0.0
 10
103.9544036693658
 20
243.2948212747262
 30
0.0
 10
103.9491751548221
 20
243.3052102953743
 30
0.0
 10
103.9439456991695
 20
243.3156011859998
 30
0.0
 10
103.9393919611223
 20
243.3277418831099
 30
0.0
 10
103.9358711642174
 20
243.340625246354
 30
0.0
 10
103.9323506520407
 20
243.3535075677158
 30
0.0
 10
103.9297649410244
 20
243.3674879141768
 30
0.0
 10
103.9283144460196
 20
243.3814063556753
 30
0.0
 10
103.9273611534541
 20
243.3905538168986
 30
0.0
 10
103.9268763406956
 20
243.3998118640289
 30
0.0
 10
103.9268763406958
 20
243.4088447909759
 30
0.0
  0
ELLIPSE
  5
1764B
330
A
100
AcDbEntity
  8
MODEL
100
AcDbEllipse
 10
109.3934395869674
 20
243.8364597056651
 30
0.0
 11
-6.200000100470541
 21
-5.056552399018698E-9
 31
0.0
210
0.0
220
0.0
230
1.0
 40
0.1881532302
 41
0.2497023164144032
 42
0.27389645468577
  0
SPLINE
  5
1764C
330
A
100
AcDbEntity
  8
MODEL
100
AcDbSpline
210
0.0
220
0.0
230
1.0
 70
     8
 71
     3
 72
    11
 73
     7
 74
     0
 42
0.000000001
 43
0.0000000001
 40
0.0
 40
0.0
 40
0.0
 40
0.0
 40
0.5702902569781839
 40
0.5702902569781839
 40
0.5702902569781839
 40
1.0
 40
1.0
 40
1.0
 40
1.0
 10
103.3857261233493
 20
243.5481870806969
 30
0.0
 10
103.3822682755297
 20
243.5507382251378
 30
0.0
 10
103.3788111745343
 20
243.5556996509854
 30
0.0
 10
103.3756336798099
 20
243.5626595657945
 30
0.0
 10
103.3732394467652
 20
243.5679038413853
 30
0.0
 10
103.3709538159865
 20
243.5743916967206
 30
0.0
 10
103.3688743724715
 20
243.5817987047566
 30
0.0
  0
ARC
  5
1764D
330
A
100
AcDbEntity
  8
MODEL
100
AcDbCircle
 10
110.1505433196676
 20
243.4811636846651
 30
0.0
 40
0.1297307755421814
100
AcDbArc
 50
274.7070598873834
 51
0.3204550689843486
  0
ELLIPSE
  5
1764E
330
A
100
AcDbEntity
  8
MODEL
100
AcDbEllipse
 10
109.3934394870678
 20
243.8364597002651
 30
0.0
 11
2.687499998987687
 21
9.177381077307698E-11
 31
0.0
210
0.0
220
0.0
230
1.0
 40
0.1881532315
 41
-1.336907539437991
 42
-1.281086338744706
  0
ARC
  5
1764F
330
A
100
AcDbEntity
  8
MODEL
100
AcDbCircle
 10
110.0108171964678
 20
243.4613573693651
 30
0.0
 40
0.1169202010853562
100
AcDbArc
 50
234.9147732500102
 51
272.6879470236923
  0
SPLINE
  5
17650
330
A
100
AcDbEntity
  8
MODEL
100
AcDbSpline
210
0.0
220
0.0
230
1.0
 70
     8
 71
     3
 72
    11
 73
     7
 74
     0
 42
0.000000001
 43
0.0000000001
 40
0.0
 40
0.0
 40
0.0
 40
0.0
 40
0.3919272386510161
 40
0.3919272386510161
 40
0.3919272386510161
 40
1.0
 40
1.0
 40
1.0
 40
1.0
 10
108.1546679084549
 20
243.3958419800898
 30
0.0
 10
108.1497219802886
 20
243.3942300506819
 30
0.0
 10
108.1446550298531
 20
243.3930215393147
 30
0.0
 10
108.1395424873676
 20
243.3922436369996
 30
0.0
 10
108.1315459887669
 20
243.3910269244163
 30
0.0
 10
108.1233187339267
 20
243.390828971799
 30
0.0
 10
108.1151647497109
 20
243.3916585389059
 30
0.0
  0
ELLIPSE
  5
17651
330
A
100
AcDbEntity
  8
MODEL
100
AcDbEllipse
 10
109.3934394864675
 20
243.8364597005651
 30
0.0
 11
-2.687499999807473
 21
2.459837888935112E-11
 31
0.0
210
0.0
220
0.0
230
1.0
 40
0.1881532316
 41
1.019286950883669
 42
1.075108151560619
  0
SPLINE
  5
17652
330
A
100
AcDbEntity
  8
MODEL
100
AcDbSpline
210
0.0
220
0.0
230
1.0
 70
     8
 71
     3
 72
    20
 73
    16
 74
     0
 42
0.000000001
 43
0.0000000001
 40
0.0
 40
0.0
 40
0.0
 40
0.0
 40
0.2150040242553531
 40
0.2150040242553531
 40
0.2150040242553531
 40
0.4299923366255106
 40
0.4299923366255106
 40
0.4299923366255106
 40
0.6451952876823203
 40
0.6451952876823203
 40
0.6451952876823203
 40
0.8603135317234621
 40
0.8603135317234621
 40
0.8603135317234621
 40
1.0
 40
1.0
 40
1.0
 40
1.0
 10
107.9852609391432
 20
243.4057700312759
 30
0.0
 10
107.9733340518239
 20
243.4071505546019
 30
0.0
 10
107.9613033273213
 20
243.4109433121365
 30
0.0
 10
107.9501560265812
 20
243.4168283311565
 30
0.0
 10
107.9390092213628
 20
243.4227130885751
 30
0.0
 10
107.9284373306041
 20
243.4308514962884
 30
0.0
 10
107.9192895751557
 20
243.4405637349089
 30
0.0
 10
107.9101330280214
 20
243.4502853077265
 30
0.0
 10
107.9021493102093
 20
243.4618520305124
 30
0.0
 10
107.8959737415857
 20
243.4742995908305
 30
0.0
 10
107.8898008143576
 20
243.4867418271149
 30
0.0
 10
107.8852630386218
 20
243.500408348876
 30
0.0
 10
107.8827213306217
 20
243.5141579332926
 30
0.0
 10
107.8810572052621
 20
243.5231601601835
 30
0.0
 10
107.8802105022332
 20
243.5323319792087
 30
0.0
 10
107.8802105022341
 20
243.541340812448
 30
0.0
  0
ELLIPSE
  5
17653
330
A
100
AcDbEntity
  8
MODEL
100
AcDbEllipse
 10
109.3934394867676
 20
243.2471758895651
 30
0.0
 11
6.324999999999999
 21
-2.567390744445674E-13
 31
0.0
210
0.0
220
0.0
230
1.0
 40
0.1881532316
 41
3.609132893551006
 42
5.810720248393429
  0
ELLIPSE
  5
17654
330
A
100
AcDbEntity
  8
MODEL
100
AcDbEllipse
 10
109.3934394867676
 20
243.2471758895651
 30
0.0
 11
6.324999999999999
 21
-2.567390744445674E-13
 31
0.0
210
0.0
220
0.0
230
1.0
 40
0.1881532316
 41
1.974981580348877
 42
2.861977524897282
  0
ELLIPSE
  5
17655
330
A
100
AcDbEntity
  8
MODEL
100
AcDbEllipse
 10
109.3934394867676
 20
243.2471758895651
 30
0.0
 11
6.324999999999999
 21
-2.567390744445674E-13
 31
0.0
210
0.0
220
0.0
230
1.0
 40
0.1881532316
 41
0.2930618207313653
 42
1.166611073240888
  0
ELLIPSE
  5
17656
330
A
100
AcDbEntity
  8
MODEL
100
AcDbEllipse
 10
109.3934394867676
 20
243.2471758895651
 30
0.0
 11
4.587499999999998
 21
-1.873501354054952E-13
 31
0.0
210
0.0
220
0.0
230
1.0
 40
0.1881532316
 41
3.656278393751133
 42
5.814550983703251
  0
ELLIPSE
  5
17657
330
A
100
AcDbEntity
  8
MODEL
100
AcDbEllipse
 10
109.3934394867676
 20
243.2471758895651
 30
0.0
 11
4.587499999999998
 21
-1.873501354054952E-13
 31
0.0
210
0.0
220
0.0
230
1.0
 40
0.1881532316
 41
0.2987690306462101
 42
2.842208281050704
  0
SPLINE
  5
17658
330
A
100
AcDbEntity
  8
MODEL
100
AcDbSpline
210
0.0
220
0.0
230
1.0
 70
     8
 71
     3
 72
     8
 73
     4
 74
     0
 42
0.000000001
 43
0.0000000001
 40
0.0
 40
0.0
 40
0.0
 40
0.0
 40
1.0
 40
1.0
 40
1.0
 40
1.0
 10
109.4094774799933
 20
243.7706752434353
 30
0.0
 10
109.398735149073
 20
243.7639942091423
 30
0.0
 10
109.3875865840919
 20
243.7618832970089
 30
0.0
 10
109.377951495647
 20
243.7647142771833
 30
0.0
  0
ELLIPSE
  5
17659
330
A
100
AcDbEntity
  8
MODEL
100
AcDbEllipse
 10
109.3934394867676
 20
243.2471758895651
 30
0.0
 11
-2.962500000000001
 21
1.179611963664229E-13
 31
0.0
210
0.0
220
0.0
230
1.0
 40
0.1881532316
 41
0.7123510155389647
 42
2.659710247370036
  0
ELLIPSE
  5
1765A
330
A
100
AcDbEntity
  8
MODEL
100
AcDbEllipse
 10
109.3934394867676
 20
243.2471758895651
 30
0.0
 11
-2.962500000000001
 21
1.179611963664229E-13
 31
0.0
210
0.0
220
0.0
230
1.0
 40
0.1881532316
 41
3.498242822945342
 42
6.001388554613283
  0
ELLIPSE
  5
1765B
330
A
100
AcDbEntity
  8
MODEL
100
AcDbEllipse
 10
109.3934394867676
 20
243.2471758895651
 30
0.0
 11
-4.737500000000001
 21
1.873501354054951E-13
 31
0.0
210
0.0
220
0.0
230
1.0
 40
0.1881532316
 41
0.4192624237042128
 42
2.725205754077499
  0
ELLIPSE
  5
1765C
330
A
100
AcDbEntity
  8
MODEL
100
AcDbEllipse
 10
109.3934394867676
 20
243.2471758895651
 30
0.0
 11
-4.737500000000001
 21
1.873501354054951E-13
 31
0.0
210
0.0
220
0.0
230
1.0
 40
0.1881532316
 41
3.445734600223462
 42
5.987065669093905
  0
ELLIPSE
  5
1765D
330
A
100
AcDbEntity
  8
MODEL
100
AcDbEllipse
 10
109.3934394867676
 20
243.2471758895651
 30
0.0
 11
2.812499999999999
 21
-1.110223024625157E-13
 31
0.0
210
0.0
220
0.0
230
1.0
 40
0.1881532316
 41
3.680002554827034
 42
5.886728033065293
  0
ELLIPSE
  5
1765E
330
A
100
AcDbEntity
  8
MODEL
100
AcDbEllipse
 10
109.3934394867676
 20
243.2471758895651
 30
0.0
 11
2.812499999999999
 21
-1.110223024625157E-13
 31
0.0
210
0.0
220
0.0
230
1.0
 40
0.1881532316
 41
0.2928476140928664
 42
2.803604155209605
  0
ARC
  5
1765F
330
A
100
AcDbEntity
  8
MODEL
100
AcDbCircle
 10
116.6461150650678
 20
249.5990884355651
 30
0.0
 40
8.900013334066887
100
AcDbArc
 50
278.9219124469992
 51
297.3488555764991
  0
ARC
  5
17660
330
A
100
AcDbEntity
  8
MODEL
100
AcDbCircle
 10
102.1445924583675
 20
249.6107774489651
 30
0.0
 40
8.912154898371888
100
AcDbArc
 50
242.6638055857997
 51
261.0654263906999
  0
ARC
  5
17661
330
A
100
AcDbEntity
  8
MODEL
100
AcDbCircle
 10
117.0382677720675
 20
239.2923910406651
 30
0.0
 40
4.167222116904747
100
AcDbArc
 50
60.11475036319705
 51
72.60663329260137
  0
LINE
  5
17662
330
A
100
AcDbEntity
  8
MODEL
100
AcDbLine
 10
116.8685420082677
 20
243.6330120002651
 30
0.0
 11
116.9032775760675
 21
243.6257488481651
 31
0.0
  0
ARC
  5
17663
330
A
100
AcDbEntity
  8
MODEL
100
AcDbCircle
 10
104.3683197270677
 20
231.1529537540651
 30
0.0
 40
12.71826518681982
100
AcDbArc
 50
101.1065987219009
 51
105.1852197148007
  0
ARC
  5
17664
330
A
100
AcDbEntity
  8
MODEL
100
AcDbCircle
 10
102.2485719318677
 20
238.2117037139652
 30
0.0
 40
5.354347243936923
100
AcDbArc
 50
103.0792107931989
 51
118.761704198799
  0
SPLINE
  5
17665
330
A
100
AcDbEntity
  8
MODEL
100
AcDbSpline
210
0.0
220
0.0
230
1.0
 70
     8
 71
     3
 72
    49
 73
    45
 74
     0
 42
0.000000001
 43
0.0000000001
 40
0.0
 40
0.0
 40
0.0
 40
0.0
 40
0.0045987835781631
 40
0.0225896952976539
 40
0.0424943562162403
 40
0.0654914903816587
 40
0.0917691143475788
 40
0.1193884999846957
 40
0.1464087599136996
 40
0.172812950063834
 40
0.1987936376896418
 40
0.2244949063612897
 40
0.2500082791932294
 40
0.2753917644438282
 40
0.3006831473718781
 40
0.3259078541523152
 40
0.3510835589082864
 40
0.3762229437737354
 40
0.4013354035690074
 40
0.426428133769802
 40
0.4515068495774903
 40
0.4765762803416648
 40
0.501640526470521
 40
0.5267033340475065
 40
0.5517676240832351
 40
0.5768365659863887
 40
0.6019140641966348
 40
0.6270045016330351
 40
0.6521130387056182
 40
0.6772460100783109
 40
0.7024114807725012
 40
0.7276200596056397
 40
0.7528861318294439
 40
0.7782297868203417
 40
0.8036799219688338
 40
0.8292793693735834
 40
0.8550934886011762
 40
0.8812242612764226
 40
0.9078297124535869
 40
0.9351225063391158
 40
0.9595585970268473
 40
0.9802768029016599
 40
0.9984717235183318
 40
1.0
 40
1.0
 40
1.0
 40
1.0
 10
100.846060233584
 20
243.3732905357285
 30
0.0
 10
100.8519022018691
 20
243.3589305601001
 30
0.0
 10
100.8825868152785
 20
243.2895138221459
 30
0.0
 10
100.9548719701766
 20
243.1738226374571
 30
0.0
 10
101.0852980639875
 20
243.0324549955802
 30
0.0
 10
101.2595380094219
 20
242.8954020438104
 30
0.0
 10
101.4864158873511
 20
242.7606916757123
 30
0.0
 10
101.7656283669023
 20
242.6315462260607
 30
0.0
 10
102.0881097865454
 20
242.5113130554914
 30
0.0
 10
102.4454026722187
 20
242.4009380183783
 30
0.0
 10
102.8359436960645
 20
242.2991884806716
 30
0.0
 10
103.2589075465964
 20
242.2052748146291
 30
0.0
 10
103.7130507328438
 20
242.1188847835295
 30
0.0
 10
104.1966480538131
 20
242.039988677138
 30
0.0
 10
104.7075816326251
 20
241.9687044811463
 30
0.0
 10
105.2434222898669
 20
241.9052210725052
 30
0.0
 10
105.8014913643137
 20
241.8497538726194
 30
0.0
 10
106.3789081492978
 20
241.802518407544
 30
0.0
 10
106.9726281963653
 20
241.7637138844853
 30
0.0
 10
107.5794759525745
 20
241.7335126536296
 30
0.0
 10
108.1961738960604
 20
241.71205329551
 30
0.0
 10
108.8193695028194
 20
241.6994360751004
 30
0.0
 10
109.4456608738083
 20
241.6957200451541
 30
0.0
 10
110.0716157294171
 20
241.700921343947
 30
0.0
 10
110.6937972799008
 20
241.7150121412433
 30
0.0
 10
111.3087926359153
 20
241.7379207398069
 30
0.0
 10
111.913242582405
 20
241.7695331829371
 30
0.0
 10
112.5038640186101
 20
241.8096957932669
 30
0.0
 10
113.0774709316183
 20
241.8582186346158
 30
0.0
 10
113.6310006007827
 20
241.9148808603101
 30
0.0
 10
114.1615416742211
 20
241.9794386732846
 30
0.0
 10
114.6663653424216
 20
242.0516373414904
 30
0.0
 10
115.1429615566797
 20
242.1312298510961
 30
0.0
 10
115.5890835818254
 20
242.218007050511
 30
0.0
 10
116.002805752081
 20
242.3118484576652
 30
0.0
 10
116.3826036602363
 20
242.4128129951051
 30
0.0
 10
116.7274624707575
 20
242.521307045789
 30
0.0
 10
117.0370300825289
 20
242.6384205170807
 30
0.0
 10
117.3116536203099
 20
242.7665628674795
 30
0.0
 10
117.5413820775648
 20
242.904299567672
 30
0.0
 10
117.7209844052072
 20
243.0496127074658
 30
0.0
 10
117.8529627932576
 20
243.2008032569132
 30
0.0
 10
117.916673158808
 20
243.3148608643175
 30
0.0
 10
117.9421195718173
 20
243.376445000237
 30
0.0
 10
117.9440520514145
 20
243.3812483981204
 30
0.0
  0
LINE
  5
17666
330
A
100
AcDbEntity
  8
MODEL
100
AcDbLine
 10
115.7935283001677
 20
244.1421228314651
 30
0.0
 11
115.8464556597678
 21
244.1447911910651
 31
0.0
  0
LINE
  5
17667
330
A
100
AcDbEntity
  8
MODEL
100
AcDbLine
 10
102.9404233134674
 20
244.1447911910651
 30
0.0
 11
102.9933718179677
 21
244.1421217652651
 31
0.0
  0
LINE
  5
17668
330
A
100
AcDbEntity
  8
MODEL
100
AcDbLine
 10
115.9934394867678
 20
243.8201156690652
 30
0.0
 11
116.7618280305676
 21
243.8201156690652
 31
0.0
  0
LINE
  5
17669
330
A
100
AcDbEntity
  8
MODEL
100
AcDbLine
 10
101.5402113720675
 20
243.4235346398651
 30
0.0
 11
102.7934394867675
 21
243.486716769865
 31
0.0
  0
LINE
  5
1766A
330
A
100
AcDbEntity
  8
MODEL
100
AcDbLine
 10
102.0250509429677
 20
243.8201156690652
 30
0.0
 11
102.7934394867675
 21
243.8201156690652
 31
0.0
  0
LINE
  5
1766B
330
A
100
AcDbEntity
  8
MODEL
100
AcDbLine
 10
102.3803319630674
 20
243.0553611356651
 30
0.0
 11
102.8976377343674
 21
243.1115562263651
 31
0.0
  0
LINE
  5
1766C
330
A
100
AcDbEntity
  8
MODEL
100
AcDbLine
 10
115.9934394867678
 20
243.486716769865
 30
0.0
 11
117.2469608718675
 21
243.4235198543651
 31
0.0
  0
LINE
  5
1766D
330
A
100
AcDbEntity
  8
MODEL
100
AcDbLine
 10
115.8908513301676
 20
243.1113813218651
 30
0.0
 11
116.4068397345677
 21
243.0553293368651
 31
0.0
  0
LINE
  5
1766E
330
A
100
AcDbEntity
  8
MODEL
100
AcDbLine
 10
102.7934394867675
 20
243.8364597005651
 30
0.0
 11
102.7934394867675
 21
243.3699433502651
 31
0.0
  0
LINE
  5
1766F
330
A
100
AcDbEntity
  8
MODEL
100
AcDbLine
 10
115.9934394867678
 20
243.3699433502651
 30
0.0
 11
115.9934394867678
 21
243.8364597005651
 31
0.0
  0
SPLINE
  5
17670
330
A
100
AcDbEntity
  8
MODEL
100
AcDbSpline
210
0.0
220
0.0
230
1.0
 70
     8
 71
     3
 72
    14
 73
    10
 74
     0
 42
0.000000001
 43
0.0000000001
 40
0.0
 40
0.0
 40
0.0
 40
0.0
 40
0.1186042219175832
 40
0.3110831075827852
 40
0.5060656477967646
 40
0.6824121218765608
 40
0.839371437329624
 40
0.9863764752520942
 40
1.0
 40
1.0
 40
1.0
 40
1.0
 10
115.2859879663711
 20
242.7327278696765
 30
0.0
 10
115.3432018942224
 20
242.7550758059459
 30
0.0
 10
115.4695467784779
 20
242.8050267745202
 30
0.0
 10
115.648445686832
 20
242.9005455541262
 30
0.0
 10
115.8041979996194
 20
243.0105153269894
 30
0.0
 10
115.9145126060789
 20
243.1262532268673
 30
0.0
 10
115.9758805949646
 20
243.2442369557984
 30
0.0
 10
116.0004727741969
 20
243.3370283335562
 30
0.0
 10
115.9921784663582
 20
243.3785310972407
 30
0.0
 10
115.9913530048989
 20
243.3826271733881
 30
0.0
  0
SPLINE
  5
17671
330
A
100
AcDbEntity
  8
MODEL
100
AcDbSpline
210
0.0
220
0.0
230
1.0
 70
     8
 71
     3
 72
    14
 73
    10
 74
     0
 42
0.000000001
 43
0.0000000001
 40
0.0
 40
0.0
 40
0.0
 40
0.0
 40
0.0868780201573488
 40
0.2201970031281542
 40
0.3605254649315292
 40
0.5174257337631202
 40
0.6856551966824661
 40
0.8543536785810791
 40
1.0
 40
1.0
 40
1.0
 40
1.0
 10
102.7934394866957
 20
243.3699433501445
 30
0.0
 10
102.7954178192358
 20
243.3389573592416
 30
0.0
 10
102.8005949483863
 20
243.2727836279807
 30
0.0
 10
102.8492566498157
 20
243.1616882782709
 30
0.0
 10
102.9405930679604
 20
243.0497488906907
 30
0.0
 10
103.0763450018253
 20
242.9398901655422
 30
0.0
 10
103.2600799136878
 20
242.8332263878423
 30
0.0
 10
103.4851791328065
 20
242.7321775688366
 30
0.0
 10
103.6486111894769
 20
242.6761989871652
 30
0.0
 10
103.7390571589265
 20
242.6456640881489
 30
0.0
  0
LINE
  5
17672
330
A
100
AcDbEntity
  8
MODEL
100
AcDbLine
 10
106.3059394866677
 20
243.8855812184651
 30
0.0
 11
106.3059394866677
 21
243.3699433502651
 31
0.0
  0
LINE
  5
17673
330
A
100
AcDbEntity
  8
MODEL
100
AcDbLine
 10
112.4809394865674
 20
243.3699433502651
 30
0.0
 11
112.4809394865674
 21
243.8855812184651
 31
0.0
  0
LINE
  5
17674
330
A
100
AcDbEntity
  8
MODEL
100
AcDbLine
 10
104.5309394865676
 20
243.8364597005651
 30
0.0
 11
104.5309394865676
 21
243.3699433502651
 31
0.0
  0
LINE
  5
17675
330
A
100
AcDbEntity
  8
MODEL
100
AcDbLine
 10
114.2559394866676
 20
243.3699433502651
 30
0.0
 11
114.2559394866676
 21
243.8364597005651
 31
0.0
  0
LINE
  5
17676
330
A
100
AcDbEntity
  8
MODEL
100
AcDbLine
 10
105.2297958900676
 20
243.6095469119651
 30
0.0
 11
106.3059394866677
 21
243.6638012363651
 31
0.0
  0
LINE
  5
17677
330
A
100
AcDbEntity
  8
MODEL
100
AcDbLine
 10
112.4809394865674
 20
243.4818011327651
 30
0.0
 11
113.2060361958675
 21
243.4030336460651
 31
0.0
  0
SPLINE
  5
17678
330
A
100
AcDbEntity
  8
MODEL
100
AcDbSpline
210
0.0
220
0.0
230
1.0
 70
     8
 71
     3
 72
    11
 73
     7
 74
     0
 42
0.000000001
 43
0.0000000001
 40
0.0
 40
0.0
 40
0.0
 40
0.0
 40
0.2739212419087163
 40
0.5870694903037242
 40
0.8980672740198253
 40
1.0
 40
1.0
 40
1.0
 40
1.0
 10
113.7090893508007
 20
243.5180254659575
 30
0.0
 10
113.7428319315723
 20
243.4962076262411
 30
0.0
 10
113.802703251446
 20
243.4577408987642
 30
0.0
 10
113.8474421524538
 20
243.4026553729826
 30
0.0
 10
113.856643282109
 20
243.3804488519172
 30
0.0
 10
113.8550725615628
 20
243.3715288373426
 30
0.0
 10
113.8544737062189
 20
243.3690733840068
 30
0.0
  0
SPLINE
  5
17679
330
A
100
AcDbEntity
  8
MODEL
100
AcDbSpline
210
0.0
220
0.0
230
1.0
 70
     8
 71
     3
 72
    11
 73
     7
 74
     0
 42
0.000000001
 43
0.0000000001
 40
0.0
 40
0.0
 40
0.0
 40
0.0
 40
0.1777555879879862
 40
0.4800615103251759
 40
0.7755888299968681
 40
1.0
 40
1.0
 40
1.0
 40
1.0
 10
104.9309394866955
 20
243.3699433501442
 30
0.0
 10
104.9309231992811
 20
243.3736712695922
 30
0.0
 10
104.931906688709
 20
243.3828362014286
 30
0.0
 10
104.9458798360504
 20
243.4133368299734
 30
0.0
 10
104.9945233906328
 20
243.4656917942411
 30
0.0
 10
105.0501323810167
 20
243.5001473341625
 30
0.0
 10
105.0790514211776
 20
243.5180420002235
 30
0.0
  0
LINE
  5
1767A
330
A
100
AcDbEntity
  8
MODEL
100
AcDbLine
 10
114.2440591344675
 20
243.2902728830651
 30
0.0
 11
114.7110474840676
 21
243.2395437896651
 31
0.0
  0
LINE
  5
1767B
330
A
100
AcDbEntity
  8
MODEL
100
AcDbLine
 10
103.4311786668677
 20
243.5188687136651
 30
0.0
 11
104.5309394865676
 21
243.5743137122651
 31
0.0
  0
LINE
  5
1767C
330
A
100
AcDbEntity
  8
MODEL
100
AcDbLine
 10
114.2559394866676
 20
243.8201156690652
 30
0.0
 11
114.9371903013675
 21
243.8201156690652
 31
0.0
  0
LINE
  5
1767D
330
A
100
AcDbEntity
  8
MODEL
100
AcDbLine
 10
108.1547265465674
 20
243.3958484855651
 30
0.0
 11
109.2906470904677
 21
243.7660347185651
 31
0.0
  0
LINE
  5
1767E
330
A
100
AcDbEntity
  8
MODEL
100
AcDbLine
 10
109.2526984935676
 20
243.7693526591651
 30
0.0
 11
109.3730935539677
 21
243.7662517748651
 31
0.0
  0
SPLINE
  5
1767F
330
A
100
AcDbEntity
  8
MODEL
100
AcDbSpline
210
0.0
220
0.0
230
1.0
 70
     8
 71
     3
 72
    12
 73
     8
 74
     0
 42
0.000000001
 43
0.0000000001
 40
0.0
 40
0.0
 40
0.0
 40
0.0
 40
0.2581176197275786
 40
0.5325147874114959
 40
0.7432117538863263
 40
0.9237378733665312
 40
1.0
 40
1.0
 40
1.0
 40
1.0
 10
112.0709268620144
 20
242.997974476547
 30
0.0
 10
112.134088489538
 20
243.0226012802684
 30
0.0
 10
112.24250320481
 20
243.0665802128672
 30
0.0
 10
112.3643248800149
 20
243.1445214007553
 30
0.0
 10
112.4411935802332
 20
243.2286723281705
 30
0.0
 10
112.4821523758037
 20
243.3119461499285
 30
0.0
 10
112.4767033335629
 20
243.3568743361436
 30
0.0
 10
112.4747120128761
 20
243.3726322035151
 30
0.0
  0
ARC
  5
17680
330
A
100
AcDbEntity
  8
MODEL
100
AcDbCircle
 10
107.5639502565675
 20
245.1880907630651
 30
0.0
 40
2.344430512141062
100
AcDbArc
 50
251.7783356742987
 51
259.2823817929072
  0
SPLINE
  5
17681
330
A
100
AcDbEntity
  8
MODEL
100
AcDbSpline
210
0.0
220
0.0
230
1.0
 70
     8
 71
     3
 72
    13
 73
     9
 74
     0
 42
0.000000001
 43
0.0000000001
 40
0.0
 40
0.0
 40
0.0
 40
0.0
 40
0.1243069944601634
 40
0.284825713537205
 40
0.4632420553609944
 40
0.6847224569943794
 40
0.92827223052544
 40
1.0
 40
1.0
 40
1.0
 40
1.0
 10
106.3059394866955
 20
243.3699433501442
 30
0.0
 10
106.3089398232955
 20
243.3403263988823
 30
0.0
 10
106.3154177920183
 20
243.2834000771471
 30
0.0
 10
106.367783686668
 20
243.1994005986554
 30
0.0
 10
106.4514271985151
 20
243.1239132689549
 30
0.0
 10
106.5781976926844
 20
243.0514347101366
 30
0.0
 10
106.7119443737924
 20
242.9949812378144
 30
0.0
 10
106.8057989254353
 20
242.9682913429331
 30
0.0
 10
106.8308606824148
 20
242.9612243320559
 30
0.0
  0
LINE
  5
17682
330
A
100
AcDbEntity
  8
MODEL
100
AcDbLine
 10
114.2559394866676
 20
243.5743137122651
 30
0.0
 11
115.3556778030677
 21
243.5188698482651
 31
0.0
  0
LINE
  5
17683
330
A
100
AcDbEntity
  8
MODEL
100
AcDbLine
 10
103.8496886718676
 20
243.8201156690652
 30
0.0
 11
104.5309394865676
 21
243.8201156690652
 31
0.0
  0
SPLINE
  5
17684
330
A
100
AcDbEntity
  8
MODEL
100
AcDbSpline
210
0.0
220
0.0
230
1.0
 70
     8
 71
     3
 72
    12
 73
     8
 74
     0
 42
0.000000001
 43
0.0000000001
 40
0.0
 40
0.0
 40
0.0
 40
0.0
 40
0.1957295521542468
 40
0.4457939534618295
 40
0.6652818721678517
 40
0.8532059061253899
 40
1.0
 40
1.0
 40
1.0
 40
1.0
 10
113.7914193691336
 20
242.903459757863
 30
0.0
 10
113.8496418849159
 20
242.92934188874
 30
0.0
 10
113.9604969152219
 20
242.9797721492318
 30
0.0
 10
114.0957285679337
 20
243.0713934294824
 30
0.0
 10
114.1923601810138
 20
243.1710062237514
 30
0.0
 10
114.2493289590166
 20
243.2767532303645
 30
0.0
 10
114.2519401525265
 20
243.3422671681736
 30
0.0
 10
114.2528388175911
 20
243.3764836763377
 30
0.0
  0
SPLINE
  5
17685
330
A
100
AcDbEntity
  8
MODEL
100
AcDbSpline
210
0.0
220
0.0
230
1.0
 70
     8
 71
     3
 72
    12
 73
     8
 74
     0
 42
0.000000001
 43
0.0000000001
 40
0.0
 40
0.0
 40
0.0
 40
0.0
 40
0.1293607487310785
 40
0.3163845720279521
 40
0.5171364608984957
 40
0.7501216758550708
 40
1.0
 40
1.0
 40
1.0
 40
1.0
 10
104.5309394866952
 20
243.3699433501442
 30
0.0
 10
104.5332335856119
 20
243.3400177427066
 30
0.0
 10
104.5388095954061
 20
243.2784897458664
 30
0.0
 10
104.5890151527635
 20
243.1790903211317
 30
0.0
 10
104.6775702866412
 20
243.0836118294152
 30
0.0
 10
104.8108915098762
 20
242.9885241589811
 30
0.0
 10
104.9263164090576
 20
242.9336273289578
 30
0.0
 10
104.9982240664754
 20
242.9003756128307
 30
0.0
  0
LINE
  5
17686
330
A
100
AcDbEntity
  8
MODEL
100
AcDbLine
 10
104.0758088349676
 20
243.2395413287651
 30
0.0
 11
104.5419471342675
 21
243.2901780809651
 31
0.0
  0
LINE
  5
17687
330
A
100
AcDbEntity
  8
MODEL
100
AcDbLine
 10
109.8278584872678
 20
243.7700061677651
 30
0.0
 11
111.5826957114677
 21
243.5793776405652
 31
0.0
  0
SPLINE
  5
17688
330
A
100
AcDbEntity
  8
MODEL
100
AcDbSpline
210
0.0
220
0.0
230
1.0
 70
     8
 71
     3
 72
    11
 73
     7
 74
     0
 42
0.000000001
 43
0.0000000001
 40
0.0
 40
0.0
 40
0.0
 40
0.0
 40
0.2745503999722926
 40
0.5467319413047117
 40
0.8187106638700415
 40
1.0
 40
1.0
 40
1.0
 40
1.0
 10
115.3830570641994
 20
243.6073061027739
 30
0.0
 10
115.428682816887
 20
243.5762781146747
 30
0.0
 10
115.5036246579371
 20
243.5249464567832
 30
0.0
 10
115.5695732262241
 20
243.4488076640126
 30
0.0
 10
115.5928312805568
 20
243.3987951641384
 30
0.0
 10
115.5917908578376
 20
243.3764762618093
 30
0.0
 10
115.590723909479
 20
243.3662489781629
 30
0.0
  0
SPLINE
  5
17689
330
A
100
AcDbEntity
  8
MODEL
100
AcDbSpline
210
0.0
220
0.0
230
1.0
 70
     8
 71
     3
 72
    11
 73
     7
 74
     0
 42
0.000000001
 43
0.0000000001
 40
0.0
 40
0.0
 40
0.0
 40
0.0
 40
0.1617888915579543
 40
0.4504717915051307
 40
0.7269366712225996
 40
1.0
 40
1.0
 40
1.0
 40
1.0
 10
103.1934394866955
 20
243.3699433501445
 30
0.0
 10
103.1937858347694
 20
243.3785463629047
 30
0.0
 10
103.195625926629
 20
243.3994147431029
 30
0.0
 10
103.2153822486061
 20
243.4457822553671
 30
0.0
 10
103.2757643884918
 20
243.5175003390323
 30
0.0
 10
103.3433765143541
 20
243.5654232100382
 30
0.0
 10
103.3840995035944
 20
243.5940543768572
 30
0.0
  0
SPLINE
  5
1768A
330
A
100
AcDbEntity
  8
MODEL
100
AcDbSpline
210
0.0
220
0.0
230
1.0
 70
     8
 71
     3
 72
    10
 73
     6
 74
     0
 42
0.000000001
 43
0.0000000001
 40
0.0
 40
0.0
 40
0.0
 40
0.0
 40
0.3586638835153437
 40
0.8862224020575701
 40
1.0
 40
1.0
 40
1.0
 40
1.0
 10
112.0160767091961
 20
243.4175684077007
 30
0.0
 10
112.034034501537
 20
243.405910126583
 30
0.0
 10
112.0713035772164
 20
243.3827160926729
 30
0.0
 10
112.0804389237774
 20
243.3645037616075
 30
0.0
 10
112.0823410515598
 20
243.3632875903214
 30
0.0
 10
112.0825623596643
 20
243.3633408947135
 30
0.0
  0
SPLINE
  5
1768B
330
A
100
AcDbEntity
  8
MODEL
100
AcDbSpline
210
0.0
220
0.0
230
1.0
 70
     8
 71
     3
 72
    10
 73
     6
 74
     0
 42
0.000000001
 43
0.0000000001
 40
0.0
 40
0.0
 40
0.0
 40
0.0
 40
0.3730151795851305
 40
0.8069173457117356
 40
1.0
 40
1.0
 40
1.0
 40
1.0
 10
106.7051203217866
 20
243.3633098430445
 30
0.0
 10
106.7057143142683
 20
243.3636055595252
 30
0.0
 10
106.7101686813808
 20
243.3736419241454
 30
0.0
 10
106.7445877113371
 20
243.405857092346
 30
0.0
 10
106.7870307527619
 20
243.4271603463815
 30
0.0
 10
106.8026197299619
 20
243.4350361501034
 30
0.0
  0
LINE
  5
1768C
330
A
100
AcDbEntity
  8
MODEL
100
AcDbLine
 10
109.3690707102674
 20
243.7690766051651
 30
0.0
 11
109.9436609886675
 21
243.3656007944651
 31
0.0
  0
LINE
  5
1768D
330
A
100
AcDbEntity
  8
MODEL
100
AcDbLine
 10
123.8933669334674
 20
300.033592586365
 30
0.0
 11
123.8933672568676
 21
300.0366547931651
 31
0.0
  0
ARC
  5
1768E
330
A
100
AcDbEntity
  8
MODEL
100
AcDbCircle
 10
109.3934100597676
 20
300.036558749365
 30
0.0
 40
14.4999571975606
100
AcDbArc
 50
0.0003795114000611
 51
180.0003795112997
  0
SPLINE
  5
1768F
330
A
100
AcDbEntity
  8
MODEL
100
AcDbSpline
210
0.0
220
0.0
230
1.0
 70
     8
 71
     3
 72
    10
 73
     6
 74
     0
 42
0.000000001
 43
0.0000000001
 40
0.0
 40
0.0
 40
0.0
 40
0.0
 40
0.9129472677049032
 40
0.9129472677049032
 40
1.0
 40
1.0
 40
1.0
 40
1.0
 10
94.900431908663
 20
247.2366291655355
 30
0.0
 10
94.87953939735439
 20
247.3612224615869
 30
0.0
 10
94.90404404983201
 20
247.486355750033
 30
0.0
 10
94.98125402797405
 20
247.6231733103653
 30
0.0
 10
94.98838101241927
 20
247.6350631247084
 30
0.0
 10
94.99591271669897
 20
247.646932457666
 30
0.0
  0
SPLINE
  5
17690
330
A
100
AcDbEntity
  8
MODEL
100
AcDbSpline
210
0.0
220
0.0
230
1.0
 70
     8
 71
     3
 72
     8
 73
     4
 74
     0
 42
0.000000001
 43
0.0000000001
 40
0.0
 40
0.0
 40
0.0
 40
0.0
 40
1.0
 40
1.0
 40
1.0
 40
1.0
 10
123.7974983940601
 20
247.6337842079096
 30
0.0
 10
123.8601244390838
 20
247.5307179215519
 30
0.0
 10
123.8919200219614
 20
247.4269211138293
 30
0.0
 10
123.8924214933224
 20
247.3232022844499
 30
0.0
  0
ARC
  5
17691
330
A
100
AcDbEntity
  8
MODEL
100
AcDbCircle
 10
109.3934660004675
 20
300.0371852969651
 30
0.0
 40
14.49995736314729
100
AcDbArc
 50
359.9232035149003
 51
173.9826335919003
  0
LINE
  5
17692
330
A
100
AcDbEntity
  8
MODEL
100
AcDbLine
 10
123.8934372930676
 20
247.2893838794651
 30
0.0
 11
123.8934372930676
 21
252.1356154037651
 31
0.0
  0
LINE
  5
17693
330
A
100
AcDbEntity
  8
MODEL
100
AcDbLine
 10
94.89343729326765
 20
252.1356154037651
 30
0.0
 11
94.89343729326765
 21
247.2893838794651
 31
0.0
  0
LINE
  5
17694
330
A
100
AcDbEntity
  8
MODEL
100
AcDbLine
 10
94.89345276906738
 20
300.0360094931651
 30
0.0
 11
94.8934219488674
 21
252.1351080758651
 31
0.0
  0
LINE
  5
17695
330
A
100
AcDbEntity
  8
MODEL
100
AcDbLine
 10
123.8933366739675
 20
252.1354495781652
 30
0.0
 11
123.8933673723677
 21
300.0335874701651
 31
0.0
  0
LINE
  5
17696
330
A
100
AcDbEntity
  8
MODEL
100
AcDbLine
 10
94.9734009810677
 20
301.5572143634651
 30
0.0
 11
94.97334505506751
 21
301.5566838086651
 31
0.0
  0
ELLIPSE
  5
17697
330
A
100
AcDbEntity
  8
MODEL
100
AcDbEllipse
 10
109.3934394867676
 20
242.6118379952651
 30
0.0
 11
12.12499912484766
 21
-4.857225732735060E-13
 31
0.0
210
0.0
220
0.0
230
1.0
 40
0.1881534146
 41
5.942421070937595
 42
6.283185307179586
  0
ELLIPSE
  5
17698
330
A
100
AcDbEntity
  8
MODEL
100
AcDbEllipse
 10
109.3934394867676
 20
242.6118379952651
 30
0.0
 11
12.12499912484766
 21
-4.857225732735060E-13
 31
0.0
210
0.0
220
0.0
230
1.0
 40
0.1881534146
 41
-1.347234351330949
 42
-0.846070988684068
  0
ELLIPSE
  5
17699
330
A
100
AcDbEntity
  8
MODEL
100
AcDbEllipse
 10
109.3934394867676
 20
242.6118379952651
 30
0.0
 11
12.12499912484766
 21
-4.857225732735060E-13
 31
0.0
210
0.0
220
0.0
230
1.0
 40
0.1881534146
 41
3.987663642261825
 42
4.488827004902757
  0
ELLIPSE
  5
1769A
330
A
100
AcDbEntity
  8
MODEL
100
AcDbEllipse
 10
109.3934394867676
 20
242.6118379952651
 30
0.0
 11
12.12499912484766
 21
-4.857225732735060E-13
 31
0.0
210
0.0
220
0.0
230
1.0
 40
0.1881534146
 41
3.095417704574362
 42
3.482356889777428
  0
ELLIPSE
  5
1769B
330
A
100
AcDbEntity
  8
MODEL
100
AcDbEllipse
 10
109.3934394867676
 20
242.6118379952651
 30
0.0
 11
12.12499912484766
 21
-4.857225732735060E-13
 31
0.0
210
0.0
220
0.0
230
1.0
 40
0.1881534146
 41
0.0
 42
0.0461749490154509
  0
ELLIPSE
  5
1769C
330
A
100
AcDbEntity
  8
MODEL
100
AcDbEllipse
 10
109.3934394867676
 20
242.314141118065
 30
0.0
 11
12.3
 21
-4.926614671774131E-13
 31
0.0
210
0.0
220
0.0
230
1.0
 40
0.1881534146
 41
0.0
 42
6.283185307179586
  0
ELLIPSE
  5
1769D
330
A
100
AcDbEntity
  8
MODEL
100
AcDbEllipse
 10
109.3934394867676
 20
247.2248389586651
 30
0.0
 11
14.42
 21
-5.759281940242998E-13
 31
0.0
210
0.0
220
0.0
230
1.0
 40
0.1881534146
 41
0.2438585907405049
 42
2.929072330102422
  0
SPLINE
  5
1769E
330
A
100
AcDbEntity
  8
MODEL
100
AcDbSpline
210
0.0
220
0.0
230
1.0
 70
     8
 71
     3
 72
    10
 73
     6
 74
     0
 42
0.000000001
 43
0.0000000001
 40
0.0
 40
0.0
 40
0.0
 40
0.0
 40
0.9965834108765389
 40
0.9965834108765389
 40
1.0
 40
1.0
 40
1.0
 40
1.0
 10
95.07768912445454
 20
247.5777750152448
 30
0.0
 10
94.95608209820284
 20
247.4353909954868
 30
0.0
 10
94.89384672217398
 20
247.2912959927942
 30
0.0
 10
94.89344014165385
 20
247.1472241751594
 30
0.0
 10
94.89343947647012
 20
247.1467319195753
 30
0.0
 10
94.89343953514208
 20
247.1462396427938
 30
0.0
  0
SPLINE
  5
1769F
330
A
100
AcDbEntity
  8
MODEL
100
AcDbSpline
210
0.0
220
0.0
230
1.0
 70
     8
 71
     3
 72
     8
 73
     4
 74
     0
 42
0.000000001
 43
0.0000000001
 40
0.0
 40
0.0
 40
0.0
 40
0.0
 40
1.0
 40
1.0
 40
1.0
 40
1.0
 10
123.8934395228393
 20
247.1463031009259
 30
0.0
 10
123.8934333799718
 20
247.2911661451304
 30
0.0
 10
123.8323979934894
 20
247.4351207118964
 30
0.0
 10
123.7118859689199
 20
247.5770124406427
 30
0.0
  0
LINE
  5
176A0
330
A
100
AcDbEntity
  8
MODEL
100
AcDbLine
 10
123.8934394866674
 20
242.7462846500651
 30
0.0
 11
123.8934394866674
 21
247.1462677718651
 31
0.0
  0
LINE
  5
176A1
330
A
100
AcDbEntity
  8
MODEL
100
AcDbLine
 10
94.89343948656779
 20
247.1462677718651
 30
0.0
 11
94.89343948656779
 21
242.7462846500651
 31
0.0
  0
ARC
  5
176A2
330
A
100
AcDbEntity
  8
MODEL
100
AcDbCircle
 10
122.7074789163676
 20
246.8084219204652
 30
0.0
 40
1.279470328767935
100
AcDbArc
 50
39.73072102820569
 51
55.60138471920499
  0
ARC
  5
176A3
330
A
100
AcDbEntity
  8
MODEL
100
AcDbCircle
 10
95.7340153500677
 20
247.1320150457651
 30
0.0
 40
0.8064190526889368
100
AcDbArc
 50
127.8428247448926
 51
142.1518875037207
  0
SPLINE
  5
176A4
330
A
100
AcDbEntity
  8
MODEL
100
AcDbSpline
210
0.0
220
0.0
230
1.0
 70
     8
 71
     3
 72
    36
 73
    32
 74
     0
 42
0.000000001
 43
0.0000000001
 40
0.0
 40
0.0
 40
0.0
 40
0.0
 40
0.0003795011300532
 40
0.0281676857310697
 40
0.0558678493413662
 40
0.0846932922976081
 40
0.1159497516149484
 40
0.1505204769434149
 40
0.1881489854088647
 40
0.2272587743732265
 40
0.2662251026272816
 40
0.3046616184772141
 40
0.3426293328697249
 40
0.3802411840713193
 40
0.4175914800331141
 40
0.4547492671877673
 40
0.4917637047085254
 40
0.5286698664598972
 40
0.5654930877598293
 40
0.6022519627198443
 40
0.6389603715843825
 40
0.6756288551427703
 40
0.7122655566372337
 40
0.7488768766556869
 40
0.7854679358739073
 40
0.8220429077174994
 40
0.8586052619924058
 40
0.8951579470322055
 40
0.9317035291843769
 40
0.9682443027818248
 40
1.0
 40
1.0
 40
1.0
 40
1.0
 10
94.89376949760185
 20
242.7452083596013
 30
0.0
 10
94.89364989703859
 20
242.7441635309942
 30
0.0
 10
94.8860000307809
 20
242.6772362347652
 30
0.0
 10
94.91387459322232
 20
242.5298121651281
 30
0.0
 10
94.97869733115249
 20
242.3326158553805
 30
0.0
 10
95.08882275182987
 20
242.1443989110098
 30
0.0
 10
95.23844314238431
 20
241.9642112762393
 30
0.0
 10
95.4356307669209
 20
241.7867799551864
 30
0.0
 10
95.68479012755279
 20
241.6119687682985
 30
0.0
 10
95.98534900532513
 20
241.4422542579809
 30
0.0
 10
96.3313979645136
 20
241.2804323150156
 30
0.0
 10
96.71708359205923
 20
241.127524641491
 30
0.0
 10
97.14008328158275
 20
240.9828886491845
 30
0.0
 10
97.59947150637026
 20
240.845767238594
 30
0.0
 10
98.09443456129702
 20
240.7157094098462
 30
0.0
 10
98.62397890112106
 20
240.592524063035
 30
0.0
 10
99.18688073653357
 20
240.4761942545464
 30
0.0
 10
99.78169941297347
 20
240.3668111245226
 30
0.0
 10
100.4068026696593
 20
240.2645297800145
 30
0.0
 10
101.0603912867473
 20
240.1695404788238
 30
0.0
 10
101.7405200712963
 20
240.0820496649761
 30
0.0
 10
102.4451172428473
 20
240.0022671876038
 30
0.0
 10
103.1719958297228
 20
239.9303976436727
 30
0.0
 10
103.9188840558531
 20
239.8666337745598
 30
0.0
 10
104.6833770975163
 20
239.8111536083121
 30
0.0
 10
105.4631765054357
 20
239.7641112864281
 30
0.0
 10
106.255252904125
 20
239.7256567252412
 30
0.0
 10
107.0590222961816
 20
239.6958514813747
 30
0.0
 10
107.8645475737169
 20
239.6749746040484
 30
0.0
 10
108.6603102323591
 20
239.6629252202072
 30
0.0
 10
109.1330962694456
 20
239.6614651501874
 30
0.0
 10
109.3934394866953
 20
239.6608502136641
 30
0.0
  0
SPLINE
  5
176A5
330
A
100
AcDbEntity
  8
MODEL
100
AcDbSpline
210
0.0
220
0.0
230
1.0
 70
     8
 71
     3
 72
    36
 73
    32
 74
     0
 42
0.000000001
 43
0.0000000001
 40
0.0
 40
0.0
 40
0.0
 40
0.0
 40
0.0191999304663426
 40
0.0556909963385351
 40
0.0921871275456343
 40
0.1286866732512597
 40
0.1651917443241796
 40
0.2017046320045958
 40
0.2382278944273786
 40
0.2747644627056671
 40
0.3113177744141857
 40
0.3478919465386756
 40
0.3844920049868923
 40
0.421124195427272
 40
0.4577964119767279
 40
0.4945187983708839
 40
0.5313046042072495
 40
0.5681714216541855
 40
0.6051429914638852
 40
0.6422518523756015
 40
0.6795431870630612
 40
0.7170801343007245
 40
0.7549499109653999
 40
0.7932655300921659
 40
0.8321386557128393
 40
0.871527801408446
 40
0.9050347335389526
 40
0.9351952221043733
 40
0.962920467883177
 40
0.9893709461167195
 40
1.0
 40
1.0
 40
1.0
 40
1.0
 10
109.3934394866953
 20
239.6608502136641
 30
0.0
 10
109.5510394503906
 20
239.6610755279903
 30
0.0
 10
109.9393637888306
 20
239.6618346552842
 30
0.0
 10
110.6438003649214
 20
239.6697793349522
 30
0.0
 10
111.4502366248757
 20
239.6876568840161
 30
0.0
 10
112.2569769638933
 20
239.7144421076072
 30
0.0
 10
113.052523289751
 20
239.7499135212899
 30
0.0
 10
113.8366772696261
 20
239.794001139296
 30
0.0
 10
114.6062738934779
 20
239.8465630468682
 30
0.0
 10
115.3590107772748
 20
239.9074467028373
 30
0.0
 10
116.0924350711794
 20
239.9764746296867
 30
0.0
 10
116.804228658988
 20
240.0534510674633
 30
0.0
 10
117.4921458718215
 20
240.13816394741
 30
0.0
 10
118.1540451720093
 20
240.2303894332654
 30
0.0
 10
118.7878968378679
 20
240.329897670674
 30
0.0
 10
119.3917988374342
 20
240.4364610386111
 30
0.0
 10
119.9639930396174
 20
240.5498660638166
 30
0.0
 10
120.5028849561318
 20
240.6699311977637
 30
0.0
 10
121.0070675151001
 20
240.7965341077067
 30
0.0
 10
121.4753503465258
 20
240.929654952578
 30
0.0
 10
121.9067942303941
 20
241.0694466753617
 30
0.0
 10
122.3007480724555
 20
241.2163529899124
 30
0.0
 10
122.6568588354116
 20
241.3713024748949
 30
0.0
 10
122.97499686114
 20
241.5360283070759
 30
0.0
 10
123.2547156358833
 20
241.7134135095185
 30
0.0
 10
123.4824301328358
 20
241.8981612023582
 30
0.0
 10
123.6565518199575
 20
242.0876183306432
 30
0.0
 10
123.7804682658991
 20
242.2771890643901
 30
0.0
 10
123.858295675288
 20
242.4702924679949
 30
0.0
 10
123.8950598832848
 20
242.6366241012947
 30
0.0
 10
123.8897106066115
 20
242.7243732397373
 30
0.0
 10
123.8877460804256
 20
242.753965721753
 30
0.0
  0
LINE
  5
176A6
330
A
100
AcDbEntity
  8
MODEL
100
AcDbLine
 10
141.8934372932169
 20
601.1139745657644
 30
0.0
 11
76.89343729311713
 21
601.1139745657644
 31
0.0
  0
LINE
  5
176A7
330
A
100
AcDbEntity
  8
MODEL
100
AcDbLine
 10
77.39343729321695
 20
594.6139745656641
 30
0.0
 11
141.3934372931171
 21
594.6139745656641
 31
0.0
  0
LINE
  5
176A8
330
A
100
AcDbEntity
  8
MODEL
100
AcDbLine
 10
76.89343729311713
 20
601.1139745657644
 30
0.0
 11
76.89343729311713
 21
595.1139745657644
 31
0.0
  0
LINE
  5
176A9
330
A
100
AcDbEntity
  8
MODEL
100
AcDbLine
 10
141.8934372932169
 20
595.1139745657644
 30
0.0
 11
141.8934372932169
 21
601.1139745657644
 31
0.0
  0
ARC
  5
176AA
330
A
100
AcDbEntity
  8
MODEL
100
AcDbCircle
 10
77.39343729321695
 20
595.1139745657644
 30
0.0
 40
0.5000000000000004
100
AcDbArc
 50
180.0
 51
270.0
  0
ARC
  5
176AB
330
A
100
AcDbEntity
  8
MODEL
100
AcDbCircle
 10
141.3934372931171
 20
595.1139745657644
 30
0.0
 40
0.5000000000000004
100
AcDbArc
 50
270.0
 51
0.0
  0
SPLINE
  5
176AC
330
A
100
AcDbEntity
  8
MODEL
100
AcDbSpline
210
0.0
220
0.0
230
1.0
 70
     8
 71
     3
 72
    30
 73
    26
 74
     0
 42
0.000000001
 43
0.0000000001
 40
0.0
 40
0.0
 40
0.0
 40
0.0
 40
0.0335490314986398
 40
0.0335490314986398
 40
0.0960357026440724
 40
0.0960357026440724
 40
0.1585223737895051
 40
0.1585223737895051
 40
0.2210090449349379
 40
0.2210090449349379
 40
0.2834957160803706
 40
0.2834957160803706
 40
0.4084690583712359
 40
0.4084690583712359
 40
0.5334424006621014
 40
0.5334424006621014
 40
0.6584157429529667
 40
0.6584157429529667
 40
0.7209024140983994
 40
0.7209024140983994
 40
0.783389085243832
 40
0.783389085243832
 40
0.9083624275346974
 40
0.9083624275346974
 40
1.0
 40
1.0
 40
1.0
 40
1.0
 10
94.89322802564129
 20
431.242902791855
 30
0.0
 10
94.89332958062596
 20
430.7422121921811
 30
0.0
 10
94.92034225656835
 20
430.2404058232245
 30
0.0
 10
95.07546495214956
 20
428.805967066897
 30
0.0
 10
95.267870518991
 20
427.896802207631
 30
0.0
 10
95.82936328955975
 20
426.1251536387891
 30
0.0
 10
96.20422599254653
 20
425.253612651969
 30
0.0
 10
97.11144653602378
 20
423.6166894787424
 30
0.0
 10
97.64157411585961
 20
422.8496592123282
 30
0.0
 10
98.85451266405403
 20
421.4182250197001
 30
0.0
 10
99.54129064235917
 20
420.7535886632843
 30
0.0
 10
101.7456007144083
 20
419.0029674855684
 30
0.0
 10
103.4676047802284
 20
418.1145634878104
 30
0.0
 10
107.0880858921023
 20
417.0620408034525
 30
0.0
 10
109.0236954006755
 20
416.8865624501939
 30
0.0
 10
112.7862161010792
 20
417.2738727255723
 30
0.0
 10
114.6633513589227
 20
417.8464671028814
 30
0.0
 10
117.1605139147327
 20
419.1820292594001
 30
0.0
 10
117.941526740688
 20
419.7026747925598
 30
0.0
 10
119.4003733264549
 20
420.8955134663636
 30
0.0
 10
120.0760018691499
 20
421.5693461267522
 30
0.0
 10
121.8573547875847
 20
423.73354113802
 30
0.0
 10
122.7620789204259
 20
425.4251813095415
 30
0.0
 10
123.6905038071243
 20
428.5073134268874
 30
0.0
 10
123.8912217047134
 20
429.8765497841189
 30
0.0
 10
123.8924221034981
 20
431.2432057835474
 30
0.0
  0
ELLIPSE
  5
176AD
330
A
100
AcDbEntity
  8
MODEL
100
AcDbEllipse
 10
109.3934372933174
 20
601.1139745657644
 30
0.0
 11
11.0
 21
-5.862997059072768E-6
 31
0.0
210
0.0
220
0.0
230
1.0
 40
0.0000050564
 41
0.1050188276744199
 42
3.141592653850936
  0
LINE
  5
176AE
330
A
100
AcDbEntity
  8
MODEL
100
AcDbLine
 10
108.1602099170173
 20
601.1139752200644
 30
0.0
 11
97.62980996751708
 21
601.113980807264
 31
0.0
  0
LINE
  5
176AF
330
A
100
AcDbEntity
  8
MODEL
100
AcDbLine
 10
123.8934372932169
 20
431.2366087312641
 30
0.0
 11
123.8934372932169
 21
432.164838232364
 31
0.0
  0
LINE
  5
176B0
330
A
100
AcDbEntity
  8
MODEL
100
AcDbLine
 10
94.89343729311713
 20
432.164838232364
 30
0.0
 11
94.89343729311713
 21
431.2366087312641
 31
0.0
  0
LINE
  5
176B1
330
A
100
AcDbEntity
  8
MODEL
100
AcDbLine
 10
94.89345271521734
 20
489.6935252248643
 30
0.0
 11
94.89342194721735
 21
432.1642382443641
 31
0.0
  0
LINE
  5
176B2
330
A
100
AcDbEntity
  8
MODEL
100
AcDbLine
 10
123.8933366732169
 20
432.1642291705641
 30
0.0
 11
123.8933674409175
 21
489.6936067717641
 31
0.0
  0
LINE
  5
176B3
330
A
100
AcDbEntity
  8
MODEL
100
AcDbLine
 10
123.8933674409175
 20
489.6935126779642
 30
0.0
 11
123.8934233636173
 21
594.6139745656641
 31
0.0
  0
LINE
  5
176B4
330
A
100
AcDbEntity
  8
MODEL
100
AcDbLine
 10
94.89350863761706
 20
594.6139745656641
 30
0.0
 11
94.89345271521734
 21
489.6935126779642
 31
0.0
  0
SPLINE
  5
176B5
330
A
100
AcDbEntity
  8
MODEL
100
AcDbSpline
210
0.0
220
0.0
230
1.0
 70
     8
 71
     3
 72
    20
 73
    16
 74
     0
 42
0.000000001
 43
0.0000000001
 40
0.0
 40
0.0
 40
0.0
 40
0.0
 40
0.1249567874842513
 40
0.1249567874842513
 40
0.2499135749685025
 40
0.2499135749685025
 40
0.3748703624527538
 40
0.3748703624527538
 40
0.4998271499370049
 40
0.4998271499370049
 40
0.749740724905507
 40
0.749740724905507
 40
0.9996542998740092
 40
0.9996542998740092
 40
1.0
 40
1.0
 40
1.0
 40
1.0
 10
109.393439486814
 20
416.9684162099053
 30
0.0
 10
108.435498850431
 20
416.9684162098981
 30
0.0
 10
107.4935660620911
 20
417.0607337432753
 30
0.0
 10
105.6404068420522
 20
417.4224528938199
 30
0.0
 10
104.7195860055156
 20
417.696241974143
 30
0.0
 10
102.9635982550194
 20
418.4110482494316
 30
0.0
 10
102.1307555035442
 20
418.8484687055193
 30
0.0
 10
100.554563233856
 20
419.8819105105666
 30
0.0
 10
99.80828541039864
 20
420.4834325953914
 30
0.0
 10
97.80184257986889
 20
422.454393355605
 30
0.0
 10
96.72153630295202
 20
424.0431830879432
 30
0.0
 10
95.27523633418309
 20
427.4704014481167
 30
0.0
 10
94.89444575255038
 20
429.3444032953595
 30
0.0
 10
94.89344014166545
 20
431.2044488215533
 30
0.0
 10
94.89343947648149
 20
431.2070183403068
 30
0.0
 10
94.89343953515345
 20
431.2095879697098
 30
0.0
  0
SPLINE
  5
176B6
330
A
100
AcDbEntity
  8
MODEL
100
AcDbSpline
210
0.0
220
0.0
230
1.0
 70
     8
 71
     3
 72
    16
 73
    12
 74
     0
 42
0.000000001
 43
0.0000000001
 40
0.0
 40
0.0
 40
0.0
 40
0.0
 40
0.2495096903596065
 40
0.2495096903596065
 40
0.3745914086330052
 40
0.3745914086330052
 40
0.4996731269064044
 40
0.4996731269064044
 40
0.7498365634532022
 40
0.7498365634532022
 40
1.0
 40
1.0
 40
1.0
 40
1.0
 10
123.8934395228509
 20
431.2092567253885
 30
0.0
 10
123.8934243075385
 20
429.3362970797193
 30
0.0
 10
123.5189905630371
 20
427.492430844357
 30
0.0
 10
122.430152087242
 20
424.9053622777597
 30
0.0
 10
121.9852524128571
 20
424.0868948213933
 30
0.0
 10
120.9353782556793
 20
422.5393153631845
 30
0.0
 10
120.3235132231246
 20
421.8055061508471
 30
0.0
 10
118.3169998073556
 20
419.8316786107872
 30
0.0
 10
116.7011570797151
 20
418.7701408552506
 30
0.0
 10
113.2125124387182
 20
417.3465624020624
 30
0.0
 10
111.30932075958
 20
416.9684162099189
 30
0.0
 10
109.393439486814
 20
416.9684162099053
 30
0.0
  0
ELLIPSE
  5
176B7
330
A
100
AcDbEntity
  8
MODEL
100
AcDbEllipse
 10
109.3934394866169
 20
430.3665151720643
 30
0.0
 11
-14.49999999999998
 21
3.861576486289946E-12
 31
0.0
210
0.0
220
0.0
230
1.0
 40
0.9821396853
 41
0.0
 42
0.6203654112580194
  0
ELLIPSE
  5
176B8
330
A
100
AcDbEntity
  8
MODEL
100
AcDbEllipse
 10
109.3934394866169
 20
430.3665151720643
 30
0.0
 11
-14.49999999999998
 21
3.861576486289946E-12
 31
0.0
210
0.0
220
0.0
230
1.0
 40
0.9821396853
 41
2.479210994073873
 42
3.141592653589794
  0
LINE
  5
176B9
330
A
100
AcDbEntity
  8
MODEL
100
AcDbLine
 10
123.8934394868172
 20
430.3665151717641
 30
0.0
 11
123.8934394868172
 21
431.2094411383642
 31
0.0
  0
LINE
  5
176BA
330
A
100
AcDbEntity
  8
MODEL
100
AcDbLine
 10
94.8934394867174
 20
431.2094411383642
 30
0.0
 11
94.8934394867174
 21
430.3665151720643
 31
0.0
  0
ARC
  5
176BB
330
A
100
AcDbEntity
  8
MODEL
100
AcDbCircle
 10
109.3924957859169
 20
430.7735427295643
 30
0.0
 40
14.65203533989805
100
AcDbArc
 50
216.3921912127004
 51
321.2569155059015
  0
LINE
  5
176BC
330
A
100
AcDbEntity
  8
MODEL
100
AcDbLine
 10
76.89343729311713
 20
601.1139745657644
 30
0.0
 11
141.8934372932169
 21
601.1139745657644
 31
0.0
  0
LINE
  5
176BD
330
A
100
AcDbEntity
  8
MODEL
100
AcDbLine
 10
99.9134372933172
 20
691.1139745657644
 30
0.0
 11
118.873437293317
 21
691.1139745657644
 31
0.0
  0
LINE
  5
176BE
330
A
100
AcDbEntity
  8
MODEL
100
AcDbLine
 10
119.8734372932172
 20
690.1139745658642
 30
0.0
 11
98.91343729311689
 21
690.1139745658642
 31
0.0
  0
LINE
  5
176BF
330
A
100
AcDbEntity
  8
MODEL
100
AcDbLine
 10
98.91343729311689
 20
690.1139745658642
 30
0.0
 11
98.91343729311689
 21
601.1139745657644
 31
0.0
  0
LINE
  5
176C0
330
A
100
AcDbEntity
  8
MODEL
100
AcDbLine
 10
119.8734372932172
 20
601.1139745657644
 30
0.0
 11
119.8734372932172
 21
690.1139745658642
 31
0.0
  0
LINE
  5
176C1
330
A
100
AcDbEntity
  8
MODEL
100
AcDbLine
 10
119.8734372932172
 20
690.1139745658642
 30
0.0
 11
118.873437293317
 21
691.1139745657644
 31
0.0
  0
LINE
  5
176C2
330
A
100
AcDbEntity
  8
MODEL
100
AcDbLine
 10
99.9134372933172
 20
691.1139745657644
 30
0.0
 11
98.91343729311689
 21
690.1139745658642
 31
0.0
  0
LINE
  5
176C3
330
A
100
AcDbEntity
  8
MODEL
100
AcDbLine
 10
118.7084372933175
 20
691.1139745657644
 30
0.0
 11
118.7084372933175
 21
607.1139745657644
 31
0.0
  0
LINE
  5
176C4
330
A
100
AcDbEntity
  8
MODEL
100
AcDbLine
 10
100.0784372933174
 20
691.1139745657644
 30
0.0
 11
100.0784372933174
 21
607.1139745657644
 31
0.0
  0
LINE
  5
176C5
330
A
100
AcDbEntity
  8
MODEL
100
AcDbLine
 10
98.91343729311689
 20
607.1139745657644
 30
0.0
 11
119.8734372932172
 21
607.1139745657644
 31
0.0
  0
LINE
  5
176C6
330
A
100
AcDbEntity
  8
MODEL
100
AcDbLine
 10
92.82952174641741
 20
601.1139745657644
 30
0.0
 11
92.82952174641741
 21
628.9989745657643
 31
0.0
  0
LINE
  5
176C7
330
A
100
AcDbEntity
  8
MODEL
100
AcDbLine
 10
125.9573528399173
 20
601.1139745657644
 30
0.0
 11
125.9573528399173
 21
628.9989745657643
 31
0.0
  0
HATCH
  5
176C8
330
A
100
AcDbEntity
  8
MODEL
100
AcDbHatch
 10
0.0
 20
0.0
 30
0.0
210
0.0
220
0.0
230
1.0
  2
LINE
 70
     0
 71
     0
 91
        1
 92
        1
 93
        4
 72
     1
 10
125.957352840051
 20
639.581053880995
 11
125.957352840051
 21
601.113974565911
 72
     1
 10
125.957352840051
 20
601.113974565911
 11
157.9249900879353
 21
601.113974565911
 72
     1
 10
157.9249900879349
 20
601.113974565911
 11
157.9249900879349
 21
639.581053880995
 72
     1
 10
157.9249900879349
 20
639.581053880995
 11
125.9573528400507
 21
639.581053880995
 97
        0
 75
     0
 76
     1
 52
315.0
 41
2.834645669400002
 77
     0
 78
     1
 53
315.0
 43
-599.1550579329828
 44
805.7902958992644
 45
6.363961030678929
 46
6.363961030678928
 79
     0
 98
        0
  0
LINE
  5
176C9
330
A
100
AcDbEntity
  8
MODEL
100
AcDbLine
 10
125.9573528399173
 20
639.581053880864
 30
0.0
 11
125.9573528399173
 21
601.1139745657644
 31
0.0
  0
LINE
  5
176CA
330
A
100
AcDbEntity
  8
MODEL
100
AcDbLine
 10
125.9573528399173
 20
601.1139745657644
 30
0.0
 11
157.9249900880172
 21
601.1139745657644
 31
0.0
  0
HATCH
  5
176CB
330
A
100
AcDbEntity
  8
MODEL
100
AcDbHatch
 10
0.0
 20
0.0
 30
0.0
210
0.0
220
0.0
230
1.0
  2
LINE
 70
     0
 71
     0
 91
        1
 92
        1
 93
        4
 72
     1
 10
92.82952174636489
 20
601.113974565911
 11
92.82952174636489
 21
639.581053880995
 72
     1
 10
92.82952174636489
 20
639.581053880995
 11
60.86188449848055
 21
639.581053880995
 72
     1
 10
60.86188449848032
 20
639.581053880995
 11
60.86188449848032
 21
601.113974565911
 72
     1
 10
60.86188449848032
 20
601.113974565911
 11
92.82952174636455
 21
601.113974565911
 97
        0
 75
     0
 76
     1
 52
315.0
 41
2.834645669400002
 77
     0
 78
     1
 53
315.0
 43
-599.1550579329828
 44
805.7902958992644
 45
6.363961030678929
 46
6.363961030678928
 79
     0
 98
        0
  0
LINE
  5
176CC
330
A
100
AcDbEntity
  8
MODEL
100
AcDbLine
 10
92.82952174641741
 20
639.581053880864
 30
0.0
 11
92.82952174641741
 21
601.1139745657644
 31
0.0
  0
LINE
  5
176CD
330
A
100
AcDbEntity
  8
MODEL
100
AcDbLine
 10
60.86188449861743
 20
601.1139745657644
 30
0.0
 11
92.82952174641741
 21
601.1139745657644
 31
0.0
  0
CIRCLE
  5
176CE
330
A
100
AcDbEntity
  8
MODEL
100
AcDbCircle
 10
109.3934372933172
 20
783.8374940037681
 30
0.0
 40
16.0
  0
DIMENSION
  5
176D1
330
A
100
AcDbEntity
  8
DIM
100
AcDbDimension
  2
*D16
 10
508.4941704146809
 20
240.3677949116651
 30
0.0
 11
515.0482661607531
 21
189.8574951396477
 31
0.0
 70
   162
  1
\A1;<>
 71
     5
 42
0.1892814545252792
 73
     0
 74
     0
 75
     0
  3
tfrom線あり
100
AcDb2LineAngularDimension
 13
508.1212822226807
 23
242.3142312734651
 33
0.0
 14
508.1212822226807
 24
240.3677949116651
 34
0.0
 15
508.1212822226807
 25
242.3142312734651
 35
0.0
 16
511.4574952882808
 26
189.5073950240534
 36
0.0
1001
ACAD
1000
DSTYLE
1002
{
1070
    77
1070
     2
1070
   179
1070
     0
1002
}
  0
DIMENSION
  5
176D2
330
A
100
AcDbEntity
  8
DIM
100
AcDbDimension
  2
*D17
 10
337.2910354070805
 20
401.0571418129607
 30
0.0
 11
413.0804521770449
 21
401.0571418129607
 31
0.0
 70
   160
  1
\A1;<>
 71
     5
 42
170.8302468156002
 73
     0
 74
     0
 75
     0
  3
tfrom線あり
100
AcDbAlignedDimension
 13
508.1212822226807
 23
253.6948682528391
 33
0.0
 14
337.2910354070805
 24
379.6754019464651
 34
0.0
100
AcDbRotatedDimension
  0
DIMENSION
  5
176D3
330
A
100
AcDbEntity
  8
DIM
100
AcDbDimension
  2
*D18
 10
247.2910354070805
 20
171.6441033434651
 30
0.0
 11
292.2910364126808
 21
171.6441033434651
 31
0.0
 70
   160
  1
\A1;<>
 71
     5
 42
90.0
 73
     0
 74
     0
 75
     0
  3
tfrom線あり
100
AcDbAlignedDimension
 13
337.2910354070805
 23
220.3989686471651
 33
0.0
 14
247.2910354070805
 24
290.5571852969651
 34
0.0
100
AcDbRotatedDimension
  0
DIMENSION
  5
176D4
330
A
100
AcDbEntity
  8
DIM
100
AcDbDimension
  2
*D19
 10
569.4492360881804
 20
242.3142312734651
 30
0.0
 11
569.4492360881804
 21
271.1757082571651
 31
0.0
 70
   160
  1
\A1;<>
 71
     5
 42
57.72295402349993
 73
     0
 74
     0
 75
     0
  3
tfrom線あり
100
AcDbAlignedDimension
 13
350.4492086154888
 23
300.037185296965
 33
0.0
 14
508.1212822226807
 24
242.3142312734651
 34
0.0
 50
90.0
100
AcDbRotatedDimension
  0
LINE
  5
176D5
330
A
100
AcDbEntity
  8
DIM
100
AcDbLine
 10
120.9688502243482
 20
772.791688669791
 30
0.0
 11
142.6234099633559
 21
750.0501012713441
 31
0.0
  0
LINE
  5
176D6
330
A
100
AcDbEntity
  8
DIM
100
AcDbLine
 10
142.6234099633559
 20
750.0501012713441
 30
0.0
 11
205.045023932425
 21
750.0501012713441
 31
0.0
  0
MTEXT
  5
176D7
330
A
100
AcDbEntity
  8
DIM
390
1D
100
AcDbMText
 10
147.1387636156528
 20
763.6341680732198
 30
0.0
 40
7.329785156250001
 41
0.0
 46
5.4582466796875
 71
     1
 72
     1
  1
{Ø32(Ø22-Ø40)}
  7
ＭＳ ゴシック
 73
     1
 44
0.7828267384257843
1001
ACAD
1000
ACAD_MTEXT_DEFINED_HEIGHT_BEGIN
1070
    46
1040
5.4582466796875
1000
ACAD_MTEXT_DEFINED_HEIGHT_END
  0
LINE
  5
17728
330
A
100
AcDbEntity
  8
DIM
100
AcDbLine
 10
340.2910354070805
 20
332.5371852968651
 30
0.0
 11
357.6838235414219
 21
347.4708605183711
 31
0.0
  0
LINE
  5
17729
330
A
100
AcDbEntity
  8
DIM
100
AcDbLine
 10
357.6838235414219
 20
347.4708605183711
 30
0.0
 11
382.6183739197127
 21
347.470860518371
 31
0.0
  0
MTEXT
  5
1775D
330
A
100
AcDbEntity
  8
DIM
390
1D
100
AcDbMText
 10
363.065717462881
 20
360.1925848899397
 30
0.0
 40
7.329785156250001
 41
0.0
 46
7.329785156250001
 71
     1
 72
     1
  1
{Ø65}
  7
ＭＳ ゴシック
 73
     1
 44
0.7828267384257843
1001
ACAD
1000
ACAD_MTEXT_DEFINED_HEIGHT_BEGIN
1070
    46
1040
7.329785156250001
1000
ACAD_MTEXT_DEFINED_HEIGHT_END
  0
MTEXT
  5
17794
330
A
100
AcDbEntity
  8
DIM
390
1D
100
AcDbMText
 10
240.858100832447
 20
304.5059171457733
 30
0.0
 40
8.0
 41
949.7161250932046
 46
12.0
 71
     1
 72
     1
  1
{▲}
  7
ＭＳ ゴシック
 11
1.202875625100462E-14
 21
-1.0
 31
0.0
 73
     1
 44
0.9822934569727008
1001
ACAD
1000
ACAD_MTEXT_DEFINED_HEIGHT_BEGIN
1070
    46
1040
12.0
1000
ACAD_MTEXT_DEFINED_HEIGHT_END
  0
MTEXT
  5
17795
330
A
100
AcDbEntity
  8
DIM
390
1D
100
AcDbMText
 10
217.2219644457628
 20
289.9198045162507
 30
0.0
 40
8.0
 41
949.7161250932044
 46
13.704
 71
     1
 72
     1
  1
{G1/2"}
  7
ＭＳ ゴシック
 11
-1.190629157108988E-14
 21
1.0
 31
0.0
 73
     1
 44
0.9822934569727008
1001
ACAD
1000
ACAD_MTEXT_DEFINED_HEIGHT_BEGIN
1070
    46
1040
13.704
1000
ACAD_MTEXT_DEFINED_HEIGHT_END
  0
MTEXT
  5
177D8
330
A
100
AcDbEntity
  8
TEMPLATE
390
1D
100
AcDbMText
 10
370.2758096112115
 20
117.5751590520723
 30
0.0
 40
7.200000000000001
 41
0.0
 46
8.0424
 71
     1
 72
     1
  1
{FHT73-5107-AL1 (ブラッシュドハードグラファイト)}
  7
ＭＳ ゴシック
 73
     1
 44
0.782827
1001
ACAD
1000
ACAD_MTEXT_DEFINED_HEIGHT_BEGIN
1070
    46
1040
8.0424
1000
ACAD_MTEXT_DEFINED_HEIGHT_END
  0
MTEXT
  5
177D9
330
A
100
AcDbEntity
  8
TEMPLATE
390
1D
100
AcDbMText
 10
370.2758096112119
 20
128.4069554831661
 30
0.0
 40
7.200000000000001
 41
0.0
 46
8.0424
 71
     1
 72
     1
  1
{FHT73-5107-DC1 (スーパースチール)}
  7
ＭＳ ゴシック
 73
     1
 44
0.782827
1001
ACAD
1000
ACAD_MTEXT_DEFINED_HEIGHT_BEGIN
1070
    46
1040
8.0424
1000
ACAD_MTEXT_DEFINED_HEIGHT_END
  0
MTEXT
  5
177DA
330
A
100
AcDbEntity
  8
TEMPLATE
390
1D
100
AcDbMText
 10
370.2758096112119
 20
139.5196311192722
 30
0.0
 40
7.200000000000001
 41
0.0
 46
8.0424
 71
     1
 72
     1
  1
{FHT73-5107-001 (クローム)}
  7
ＭＳ ゴシック
 73
     1
 44
0.782827
1001
ACAD
1000
ACAD_MTEXT_DEFINED_HEIGHT_BEGIN
1070
    46
1040
8.0424
1000
ACAD_MTEXT_DEFINED_HEIGHT_END
  0
LINE
  5
177F3
330
A
100
AcDbEntity
  8
DIM
100
AcDbLine
 10
408.8230963731716
 20
314.5369019163126
 30
0.0
 11
432.6426882964804
 21
337.8791862403525
 31
0.0
  0
LINE
  5
177F4
330
A
100
AcDbEntity
  8
DIM
100
AcDbLine
 10
432.6426882964804
 20
337.8791862403525
 30
0.0
 11
458.7041237054801
 21
337.8791862403525
 31
0.0
  0
MTEXT
  5
1780F
330
A
100
AcDbEntity
  8
DIM
390
1D
100
AcDbMText
 10
442.0953236288956
 20
350.4802088826268
 30
0.0
 40
7.329785156250001
 41
0.0
 46
7.553083756811637
 71
     1
 72
     1
  1
{Ø29}
  7
ＭＳ ゴシック
 73
     1
 44
0.7828267384257843
1001
ACAD
1000
ACAD_MTEXT_DEFINED_HEIGHT_BEGIN
1070
    46
1040
7.553083756811637
1000
ACAD_MTEXT_DEFINED_HEIGHT_END
  0
MTEXT
  5
17817
330
A
100
AcDbEntity
  8
MODEL
100
AcDbMText
 10
39.52781935274668
 20
120.2556293546668
 30
0.0
 40
7.0
 41
135.3181866666667
 46
36.62314369155098
 71
     1
 72
     1
  1
■流量 0.3Mpa時 27.6L/min
  7
ＭＳ ゴシック
 73
     1
 44
1.0
1001
ACAD
1000
ACAD_MTEXT_DEFINED_HEIGHT_BEGIN
1070
    46
1040
36.62314369155098
1000
ACAD_MTEXT_DEFINED_HEIGHT_END
  0
VIEWPORT
  5
349
330
B
100
AcDbEntity
 67
     1
  8
0
100
AcDbViewport
 10
202.5
 20
128.5
 30
0.0
 40
486.0
 41
308.4
 68
     1
 69
     1
 12
202.5
 22
128.5
 13
0.0
 23
0.0
 14
0.5
 24
0.5
 15
0.0
 25
0.0
 16
0.0
 26
0.0
 36
1.0
 17
0.0
 27
0.0
 37
0.0
 42
50.0
 43
0.0
 44
0.0
 45
308.4
 50
0.0
 51
0.0
 72
   100
 90
   557152
  1

281
     0
 71
     1
 74
     0
110
0.0
120
0.0
130
0.0
111
1.0
121
0.0
131
0.0
112
0.0
122
1.0
132
0.0
 79
     0
146
0.0
170
     0
 61
     5
348
26C
292
     1
282
     1
141
0.0
142
0.0
 63
   256
  0
VIEWPORT
  5
34A
330
B
100
AcDbEntity
 67
     1
  8
0
100
AcDbViewport
 10
202.5
 20
128.5
 30
0.0
 40
324.0
 41
205.6
 68
     2
 69
     2
 12
986.6781359294573
 22
1427.077061889956
 13
0.0
 23
0.0
 14
0.5
 24
0.5
 15
0.0
 25
0.0
 16
0.0
 26
0.0
 36
1.0
 17
0.0
 27
0.0
 37
0.0
 42
50.0
 43
0.0
 44
0.0
 45
2890.021615685494
 50
0.0
 51
0.0
 72
   100
 90
   557152
  1

281
     0
 71
     1
 74
     0
110
0.0
120
0.0
130
0.0
111
1.0
121
0.0
131
0.0
112
0.0
122
1.0
132
0.0
 79
     0
146
0.0
170
     0
 61
     5
348
26C
292
     1
282
     1
141
0.0
142
0.0
 63
   256
  0
ENDSEC
  0
SECTION
  2
OBJECTS
  0
DICTIONARY
  5
19
330
0
100
AcDbDictionary
281
     1
  3
ACAD_COLOR
350
674
  3
ACAD_DETAILVIEWSTYLE
350
BBF
  3
ACAD_FIELDLIST
350
36B0
  3
ACAD_GROUP
350
1A
  3
ACAD_IMAGE_VARS
350
27B
  3
ACAD_LAYOUT
350
1E
  3
ACAD_MATERIAL
350
263
  3
ACAD_MLEADERSTYLE
350
336
  3
ACAD_MLINESTYLE
350
1B
  3
ACAD_PLOTSETTINGS
350
22
  3
ACAD_PLOTSTYLENAME
350
1F
  3
ACAD_SCALELIST
350
241
  3
ACAD_SECTIONVIEWSTYLE
350
BC0
  3
ACAD_TABLESTYLE
350
278
  3
ACAD_VISUALSTYLE
350
267
  3
ACDB_RECOMPOSE_DATA
350
1781F
  3
AcDbVariableDictionary
350
330
  3
APPDATA
350
27A
  3
CENTERLINE
350
366B
  3
DimOffsetDictionary
350
E38
  0
SUN
  5
904
330
15
100
AcDbSun
 90
        1
290
     0
 63
     7
421
 16777215
 40
1.0
291
     1
 91
  2455826
 92
 54000000
292
     0
 70
     2
 71
   256
280
     1
  0
DICTIONARY
  5
2E1
330
2
100
AcDbDictionary
280
     1
281
     1
  3
ACAD_LAYERSTATES
360
2E2
  3
ACLYDICTIONARY
360
DDE
  0
DICTIONARY
  5
1733E
330
A
100
AcDbDictionary
280
     1
281
     1
  3
ACAD_SORTENTS
360
1733F
  0
DICTIONARY
  5
36AE
330
36AC
100
AcDbDictionary
280
     1
281
     1
  3
ACAD_FIELD
360
17819
  0
DICTIONARY
  5
674
102
{ACAD_REACTORS
330
19
102
}
330
19
100
AcDbDictionary
281
     1
  0
DICTIONARY
  5
BBF
102
{ACAD_REACTORS
330
19
102
}
330
19
100
AcDbDictionary
281
     1
  0
FIELDLIST
  5
36B0
102
{ACAD_REACTORS
330
19
102
}
330
19
100
AcDbIdSet
 90
        2
330
36B1
330
36AD
100
AcDbFieldList
  0
DICTIONARY
  5
1A
102
{ACAD_REACTORS
330
19
102
}
330
19
100
AcDbDictionary
281
     1
  3
*A1
350
1730A
  0
RASTERVARIABLES
  5
27B
102
{ACAD_REACTORS
330
19
102
}
330
19
100
AcDbRasterVariables
 90
        0
 70
     1
 71
     1
 72
     1
  0
DICTIONARY
  5
1E
102
{ACAD_REACTORS
330
19
102
}
330
19
100
AcDbDictionary
281
     1
  3
Layout1
350
21
  3
Model
350
20
  0
DICTIONARY
  5
263
102
{ACAD_REACTORS
330
19
102
}
330
19
100
AcDbDictionary
281
     1
  3
ByBlock
350
265
  3
ByLayer
350
264
  3
Global
350
266
  0
DICTIONARY
  5
336
102
{ACAD_REACTORS
330
19
102
}
330
19
100
AcDbDictionary
281
     1
  3
Standard
350
D59
  0
DICTIONARY
  5
1B
102
{ACAD_REACTORS
330
19
102
}
330
19
100
AcDbDictionary
281
     1
  3
Standard
350
1C
  0
DICTIONARY
  5
22
102
{ACAD_REACTORS
330
19
102
}
330
19
100
AcDbDictionary
281
     1
  0
ACDBDICTIONARYWDFLT
  5
1F
102
{ACAD_REACTORS
330
19
102
}
330
19
100
AcDbDictionary
281
     1
  3
Normal
350
1D
100
AcDbDictionaryWithDefault
340
1D
  0
DICTIONARY
  5
241
102
{ACAD_REACTORS
330
19
102
}
330
19
100
AcDbDictionary
281
     1
  3
A0
350
242
  3
A1
350
243
  3
A2
350
244
  3
A3
350
245
  3
A4
350
246
  3
A5
350
247
  3
A6
350
248
  3
A7
350
249
  3
A8
350
24A
  3
A9
350
24B
  3
B0
350
24C
  3
B1
350
24D
  3
B2
350
24E
  3
B3
350
24F
  3
B4
350
250
  3
B5
350
251
  3
B6
350
252
  3
B7
350
253
  3
B8
350
254
  3
B9
350
255
  3
C0
350
256
  3
C1
350
257
  3
C2
350
258
  3
C3
350
259
  3
C4
350
25A
  3
C5
350
25B
  3
C6
350
25C
  3
C7
350
25D
  3
C8
350
25E
  3
C9
350
25F
  3
D0
350
260
  3
D1
350
261
  3
D2
350
262
  0
DICTIONARY
  5
BC0
102
{ACAD_REACTORS
330
19
102
}
330
19
100
AcDbDictionary
281
     1
  0
DICTIONARY
  5
278
102
{ACAD_REACTORS
330
19
102
}
330
19
100
AcDbDictionary
281
     1
  3
Standard
350
279
  0
DICTIONARY
  5
267
102
{ACAD_REACTORS
330
19
102
}
330
19
100
AcDbDictionary
281
     1
  3
*A1
350
3666
  3
2dWireframe
350
26C
  3
3D Hidden
350
26E
  3
3dWireframe
350
26D
  3
Basic
350
26F
  3
Brighten
350
273
  3
ColorChange
350
277
  3
Conceptual
350
271
  3
Dim
350
272
  3
EdgeColorOff
350
8FE
  3
Facepattern
350
276
  3
Flat
350
268
  3
FlatWithEdges
350
269
  3
Gouraud
350
26A
  3
GouraudWithEdges
350
26B
  3
Hidden
350
8FB
  3
JitterOff
350
8FC
  3
Linepattern
350
275
  3
OverhangOff
350
8FD
  3
Realistic
350
270
  3
Shaded
350
903
  3
Shaded with edges
350
902
  3
Shades of Gray
350
8FF
  3
Sketchy
350
900
  3
Thicken
350
274
  3
Wireframe
350
8FA
  3
X-Ray
350
901
  0
XRECORD
  5
1781F
102
{ACAD_REACTORS
330
19
102
}
330
19
100
AcDbXrecord
280
     1
 90
        1
330
279
  0
DICTIONARY
  5
330
102
{ACAD_REACTORS
330
19
102
}
330
19
100
AcDbDictionary
281
     1
  3
CANNOSCALE
350
331
  3
CMLEADERSTYLE
350
D5E
  3
CTABLESTYLE
350
335
  3
HPTRANSPARENCY
350
D52
  3
XCLIPFRAME
350
896
  0
DICTIONARY
  5
27A
102
{ACAD_REACTORS
330
19
102
}
330
19
100
AcDbDictionary
281
     1
  0
DICTIONARY
  5
366B
102
{ACAD_REACTORS
330
19
102
}
330
19
100
AcDbDictionary
281
     1
  3
CLEXTENSION
350
36AB
  0
DICTIONARY
  5
E38
102
{ACAD_REACTORS
330
19
102
}
330
19
100
AcDbDictionary
281
     1
  3
DIMRAILANGLE
350
36A9
  3
DIMRAILFIRSTOFFSET
350
36A7
  3
DIMRAILOFFSET
350
36A8
  3
DIMRAILSENABLED
350
36AA
  0
DICTIONARY
  5
2E2
102
{ACAD_REACTORS
330
2E1
102
}
330
2E1
100
AcDbDictionary
281
     1
  0
DICTIONARY
  5
DDE
102
{ACAD_REACTORS
330
2E1
102
}
330
2E1
100
AcDbDictionary
281
     1
1001
ACAD
1000
<All
  0
SORTENTSTABLE
  5
1733F
102
{ACAD_REACTORS
330
1733E
102
}
330
1733E
100
AcDbSortentsTable
330
A
331
172F9
  5
172B7
331
172FA
  5
172F8
331
17305
  5
172F9
331
17306
  5
172FA
331
17307
  5
17305
331
17308
  5
17306
331
17309
  5
17307
  0
DICTIONARY
  5
17819
102
{ACAD_REACTORS
330
36AE
102
}
330
36AE
100
AcDbDictionary
280
     1
281
     1
  3
TEXT
360
36AD
  0
GROUP
  5
1730A
102
{ACAD_REACTORS
330
1A
102
}
330
1A
100
AcDbGroup
300

 70
     1
 71
     1
340
172F9
340
172FA
340
17305
340
17306
340
17307
340
17308
340
17309
  0
LAYOUT
  5
21
102
{ACAD_REACTORS
330
1E
102
}
330
1E
100
AcDbPlotSettings
  1

  2
none_device
  4
ISO_A3_(420.00_x_297.00_MM)
  6

 40
7.5
 41
20.0
 42
7.5
 43
20.0
 44
420.0
 45
297.0
 46
0.0
 47
0.0
 48
0.0
 49
0.0
140
0.0
141
0.0
142
1.0
143
1.0
 70
     0
 72
     1
 73
     0
 74
     0
  7

 75
     0
 76
     0
 77
     2
 78
   300
147
1.0
148
0.0
149
0.0
100
AcDbLayout
  1
Layout1
 70
     0
 71
     0
 10
-7.5
 20
-20.0
 11
412.5
 21
277.0
 12
0.0
 22
0.0
 32
0.0
 14
0.0
 24
0.0
 34
0.0
 15
0.0
 25
0.0
 35
0.0
146
0.0
 13
0.0
 23
0.0
 33
0.0
 16
0.0
 26
0.0
 36
0.0
 17
0.0
 27
0.0
 37
0.0
 76
     0
330
B
331
349
  0
LAYOUT
  5
20
102
{ACAD_REACTORS
330
1E
102
}
330
1E
100
AcDbPlotSettings
  1

  2
Adobe PDF
  4
A4
  6

 40
0.0600000000000023
 41
0.0000000000000205
 42
0.0
 43
0.04
 44
210.0
 45
297.0
 46
0.0
 47
0.0
 48
0.0
 49
0.0
140
0.0
141
0.0
142
1.0
143
3.000857387825093
 70
  1584
 72
     1
 73
     0
 74
     2
  7
monochrome.ctb
 75
     0
 76
 25973
 77
     2
 78
   300
147
0.3332380952380952
148
-406.0201356708997
149
-371.9012854698341
100
AcDbLayout
  1
Model
 70
     0
 71
     1
 10
0.0
 20
0.0
 11
630.0
 21
891.0
 12
0.0
 22
0.0
 32
0.0
 14
0.0
 24
0.0
 34
-0.0000000000000071
 15
630.0
 25
891.0
 35
0.0000000000000142
146
0.0
 13
0.0
 23
0.0
 33
0.0
 16
0.0
 26
0.0
 36
0.0
 17
0.0
 27
0.0
 37
0.0
 76
     0
330
A
331
15
1001
PLOTTRANSPARENCY
1071
        0
  0
MATERIAL
  5
265
102
{ACAD_REACTORS
330
263
102
}
330
263
100
AcDbMaterial
  1
ByBlock
 72
     1
 94
      127
  0
MATERIAL
  5
264
102
{ACAD_REACTORS
330
263
102
}
330
263
100
AcDbMaterial
  1
ByLayer
 72
     1
 94
      127
  0
MATERIAL
  5
266
102
{ACAD_REACTORS
330
263
102
}
330
263
100
AcDbMaterial
  1
Global
 72
     1
 94
      127
  0
MLEADERSTYLE
  5
D59
102
{ACAD_REACTORS
330
336
102
}
330
336
100
AcDbMLeaderStyle
170
     2
171
     1
172
     0
 90
        2
 40
0.0
 41
0.0
173
     1
 91
-1056964608
340
11
 92
       -2
290
     1
 42
2.0
291
     1
 43
8.0
  3
Standard
341
0
 44
4.0
300

342
17
174
     1
178
     6
175
     1
176
     0
 93
-1056964608
 45
4.0
292
     0
297
     0
 46
4.0
343
0
 94
-1056964608
 47
1.0
 49
1.0
140
1.0
293
     1
141
0.0
294
     1
177
     0
142
1.0
295
     0
296
     0
143
3.75
1001
ACAD_MLEADERVER
1070
     2
  0
MLINESTYLE
  5
1C
102
{ACAD_REACTORS
330
1B
102
}
330
1B
100
AcDbMlineStyle
  2
Standard
 70
     0
  3

 62
     0
 51
90.0
 52
90.0
 71
     2
 49
0.5
 62
   256
  6
BYLAYER
 49
-0.5
 62
   256
  6
BYLAYER
  0
ACDBPLACEHOLDER
  5
1D
102
{ACAD_REACTORS
330
1F
102
}
330
1F
  0
SCALE
  5
242
102
{ACAD_REACTORS
330
241
102
}
330
241
100
AcDbScale
 70
     0
300
1:1
140
1.0
141
1.0
290
     1
  0
SCALE
  5
243
102
{ACAD_REACTORS
330
241
102
}
330
241
100
AcDbScale
 70
     0
300
1:2
140
1.0
141
2.0
290
     0
  0
SCALE
  5
244
102
{ACAD_REACTORS
330
241
102
}
330
241
100
AcDbScale
 70
     0
300
1:4
140
1.0
141
4.0
290
     0
  0
SCALE
  5
245
102
{ACAD_REACTORS
330
241
102
}
330
241
100
AcDbScale
 70
     0
300
1:5
140
1.0
141
5.0
290
     0
  0
SCALE
  5
246
102
{ACAD_REACTORS
330
241
102
}
330
241
100
AcDbScale
 70
     0
300
1:8
140
1.0
141
8.0
290
     0
  0
SCALE
  5
247
102
{ACAD_REACTORS
330
241
102
}
330
241
100
AcDbScale
 70
     0
300
1:10
140
1.0
141
10.0
290
     0
  0
SCALE
  5
248
102
{ACAD_REACTORS
330
241
102
}
330
241
100
AcDbScale
 70
     0
300
1:16
140
1.0
141
16.0
290
     0
  0
SCALE
  5
249
102
{ACAD_REACTORS
330
241
102
}
330
241
100
AcDbScale
 70
     0
300
1:20
140
1.0
141
20.0
290
     0
  0
SCALE
  5
24A
102
{ACAD_REACTORS
330
241
102
}
330
241
100
AcDbScale
 70
     0
300
1:30
140
1.0
141
30.0
290
     0
  0
SCALE
  5
24B
102
{ACAD_REACTORS
330
241
102
}
330
241
100
AcDbScale
 70
     0
300
1:40
140
1.0
141
40.0
290
     0
  0
SCALE
  5
24C
102
{ACAD_REACTORS
330
241
102
}
330
241
100
AcDbScale
 70
     0
300
1:50
140
1.0
141
50.0
290
     0
  0
SCALE
  5
24D
102
{ACAD_REACTORS
330
241
102
}
330
241
100
AcDbScale
 70
     0
300
1:100
140
1.0
141
100.0
290
     0
  0
SCALE
  5
24E
102
{ACAD_REACTORS
330
241
102
}
330
241
100
AcDbScale
 70
     0
300
2:1
140
2.0
141
1.0
290
     0
  0
SCALE
  5
24F
102
{ACAD_REACTORS
330
241
102
}
330
241
100
AcDbScale
 70
     0
300
4:1
140
4.0
141
1.0
290
     0
  0
SCALE
  5
250
102
{ACAD_REACTORS
330
241
102
}
330
241
100
AcDbScale
 70
     0
300
8:1
140
8.0
141
1.0
290
     0
  0
SCALE
  5
251
102
{ACAD_REACTORS
330
241
102
}
330
241
100
AcDbScale
 70
     0
300
10:1
140
10.0
141
1.0
290
     0
  0
SCALE
  5
252
102
{ACAD_REACTORS
330
241
102
}
330
241
100
AcDbScale
 70
     0
300
100:1
140
100.0
141
1.0
290
     0
  0
SCALE
  5
253
102
{ACAD_REACTORS
330
241
102
}
330
241
100
AcDbScale
 70
     0
300
1/128" = 1'-0"
140
0.0078125
141
12.0
290
     0
  0
SCALE
  5
254
102
{ACAD_REACTORS
330
241
102
}
330
241
100
AcDbScale
 70
     0
300
1/64" = 1'-0"
140
0.015625
141
12.0
290
     0
  0
SCALE
  5
255
102
{ACAD_REACTORS
330
241
102
}
330
241
100
AcDbScale
 70
     0
300
1/32" = 1'-0"
140
0.03125
141
12.0
290
     0
  0
SCALE
  5
256
102
{ACAD_REACTORS
330
241
102
}
330
241
100
AcDbScale
 70
     0
300
1/16" = 1'-0"
140
0.0625
141
12.0
290
     0
  0
SCALE
  5
257
102
{ACAD_REACTORS
330
241
102
}
330
241
100
AcDbScale
 70
     0
300
3/32" = 1'-0"
140
0.09375
141
12.0
290
     0
  0
SCALE
  5
258
102
{ACAD_REACTORS
330
241
102
}
330
241
100
AcDbScale
 70
     0
300
1/8" = 1'-0"
140
0.125
141
12.0
290
     0
  0
SCALE
  5
259
102
{ACAD_REACTORS
330
241
102
}
330
241
100
AcDbScale
 70
     0
300
3/16" = 1'-0"
140
0.1875
141
12.0
290
     0
  0
SCALE
  5
25A
102
{ACAD_REACTORS
330
241
102
}
330
241
100
AcDbScale
 70
     0
300
1/4" = 1'-0"
140
0.25
141
12.0
290
     0
  0
SCALE
  5
25B
102
{ACAD_REACTORS
330
241
102
}
330
241
100
AcDbScale
 70
     0
300
3/8" = 1'-0"
140
0.375
141
12.0
290
     0
  0
SCALE
  5
25C
102
{ACAD_REACTORS
330
241
102
}
330
241
100
AcDbScale
 70
     0
300
1/2" = 1'-0"
140
0.5
141
12.0
290
     0
  0
SCALE
  5
25D
102
{ACAD_REACTORS
330
241
102
}
330
241
100
AcDbScale
 70
     0
300
3/4" = 1'-0"
140
0.75
141
12.0
290
     0
  0
SCALE
  5
25E
102
{ACAD_REACTORS
330
241
102
}
330
241
100
AcDbScale
 70
     0
300
1" = 1'-0"
140
1.0
141
12.0
290
     0
  0
SCALE
  5
25F
102
{ACAD_REACTORS
330
241
102
}
330
241
100
AcDbScale
 70
     0
300
1-1/2" = 1'-0"
140
1.5
141
12.0
290
     0
  0
SCALE
  5
260
102
{ACAD_REACTORS
330
241
102
}
330
241
100
AcDbScale
 70
     0
300
3" = 1'-0"
140
3.0
141
12.0
290
     0
  0
SCALE
  5
261
102
{ACAD_REACTORS
330
241
102
}
330
241
100
AcDbScale
 70
     0
300
6" = 1'-0"
140
6.0
141
12.0
290
     0
  0
SCALE
  5
262
102
{ACAD_REACTORS
330
241
102
}
330
241
100
AcDbScale
 70
     0
300
1'-0" = 1'-0"
140
12.0
141
12.0
290
     0
  0
TABLESTYLE
  5
279
102
{ACAD_REACTORS
330
278
102
}
102
{ACAD_XDICTIONARY
360
1781D
102
}
330
278
100
AcDbTableStyle
  3
Standard
 70
     0
 71
     0
 40
0.06
 41
0.06
280
     0
281
     0
  7
Standard
140
4.5
170
     2
 62
     0
 63
   257
283
     0
 90
        4
 91
        0
  1

274
    -2
284
     1
 64
     0
275
    -2
285
     1
 65
     0
276
    -2
286
     1
 66
     0
277
    -2
287
     1
 67
     0
278
    -2
288
     1
 68
     0
279
    -2
289
     1
 69
     0
  7
Standard
140
6.0
170
     5
 62
     0
 63
   257
283
     0
 90
        4
 91
        0
  1

274
    -2
284
     1
 64
     0
275
    -2
285
     1
 65
     0
276
    -2
286
     1
 66
     0
277
    -2
287
     1
 67
     0
278
    -2
288
     1
 68
     0
279
    -2
289
     1
 69
     0
  7
Standard
140
4.5
170
     5
 62
     0
 63
   257
283
     0
 90
        4
 91
        0
  1

274
    -2
284
     1
 64
     0
275
    -2
285
     1
 65
     0
276
    -2
286
     1
 66
     0
277
    -2
287
     1
 67
     0
278
    -2
288
     1
 68
     0
279
    -2
289
     1
 69
     0
  0
VISUALSTYLE
  5
3666
102
{ACAD_REACTORS
330
267
102
}
330
267
100
AcDbVisualStyle
  2
*
 70
    10
 71
     0
 72
     2
 73
     0
 90
        0
 40
-0.6
 41
-30.0
 62
     5
 63
     7
421
 16777215
 74
     1
 91
        4
 64
     7
 65
   257
 75
     1
175
     1
 42
1.0
 92
        8
 66
     7
 43
1.0
 76
     1
 77
     6
 78
     2
 67
     7
 79
     5
170
     0
171
     0
290
     0
174
     0
 93
        1
 44
0.0
173
     0
291
     0
 45
0.0
  0
VISUALSTYLE
  5
26C
102
{ACAD_REACTORS
330
267
102
}
330
267
100
AcDbVisualStyle
  2
2dWireframe
 70
     4
 71
     0
 72
     2
 73
     0
 90
        0
 40
-0.6
 41
-30.0
 62
     5
 63
     7
421
 16777215
 74
     1
 91
        4
 64
     7
 65
   257
 75
     1
175
     1
 42
1.0
 92
        0
 66
   257
 43
1.0
 76
     1
 77
     6
 78
     2
 67
     7
 79
     5
170
     0
171
     0
290
     0
174
     0
 93
        1
 44
0.0
173
     0
291
     0
 45
0.0
  0
VISUALSTYLE
  5
26E
102
{ACAD_REACTORS
330
267
102
}
330
267
100
AcDbVisualStyle
  2
3D Hidden
 70
     6
 71
     1
 72
     2
 73
     2
 90
        0
 40
-0.6
 41
-30.0
 62
     5
 63
     7
421
 16777215
 74
     2
 91
        2
 64
     7
 65
   257
 75
     2
175
     1
 42
40.0
 92
        0
 66
   257
 43
1.0
 76
     1
 77
     6
 78
     2
 67
     7
 79
     3
170
     0
171
     0
290
     0
174
     0
 93
        1
 44
0.0
173
     0
291
     0
 45
0.0
  0
VISUALSTYLE
  5
26D
102
{ACAD_REACTORS
330
267
102
}
330
267
100
AcDbVisualStyle
  2
3dWireframe
 70
     5
 71
     0
 72
     2
 73
     0
 90
        0
 40
-0.6
 41
-30.0
 62
     5
 63
     7
421
 16777215
 74
     1
 91
        4
 64
     7
 65
   257
 75
     1
175
     1
 42
1.0
 92
        0
 66
   257
 43
1.0
 76
     1
 77
     6
 78
     2
 67
     7
 79
     5
170
     0
171
     0
290
     0
174
     0
 93
        1
 44
0.0
173
     0
291
     0
 45
0.0
  0
VISUALSTYLE
  5
26F
102
{ACAD_REACTORS
330
267
102
}
330
267
100
AcDbVisualStyle
  2
Basic
 70
     7
 71
     1
 72
     0
 73
     1
 90
        0
 40
-0.6
 41
-30.0
 62
     5
 63
     7
421
 16777215
 74
     0
 91
        4
 64
     7
 65
   257
 75
     1
175
     1
 42
1.0
 92
        8
 66
     7
 43
1.0
 76
     1
 77
     6
 78
     2
 67
     7
 79
     5
170
     0
171
     0
290
     0
174
     0
 93
        1
 44
0.0
173
     0
291
     1
 45
0.0
  0
VISUALSTYLE
  5
273
102
{ACAD_REACTORS
330
267
102
}
330
267
100
AcDbVisualStyle
  2
Brighten
 70
    12
 71
     2
 72
     2
 73
     0
 90
        0
 40
-0.6
 41
-30.0
 62
     5
 63
     7
421
 16777215
 74
     1
 91
        4
 64
     7
 65
   257
 75
     1
175
     1
 42
1.0
 92
        8
 66
     7
 43
1.0
 76
     1
 77
     6
 78
     2
 67
     7
 79
     5
170
     0
171
     0
290
     0
174
     0
 93
        1
 44
50.0
173
     0
291
     1
 45
0.0
  0
VISUALSTYLE
  5
277
102
{ACAD_REACTORS
330
267
102
}
330
267
100
AcDbVisualStyle
  2
ColorChange
 70
    16
 71
     2
 72
     2
 73
     3
 90
        0
 40
-0.6
 41
-30.0
 62
     5
 63
     8
421
  8421504
 74
     1
 91
        4
 64
     7
 65
   257
 75
     1
175
     1
 42
1.0
 92
        8
 66
     8
424
  8421504
 43
1.0
 76
     1
 77
     6
 78
     2
 67
     7
 79
     5
170
     0
171
     0
290
     0
174
     0
 93
        1
 44
0.0
173
     0
291
     1
 45
0.0
  0
VISUALSTYLE
  5
271
102
{ACAD_REACTORS
330
267
102
}
330
267
100
AcDbVisualStyle
  2
Conceptual
 70
     9
 71
     3
 72
     2
 73
     0
 90
        0
 40
-0.6
 41
-30.0
 62
     5
 63
     7
421
 16777215
 74
     2
 91
        2
 64
     7
 65
   257
 75
     1
175
     1
 42
40.0
 92
        8
 66
     7
 43
1.0
 76
     1
 77
     6
 78
     2
 67
     7
 79
     3
170
     0
171
     0
290
     0
174
     0
 93
        1
 44
0.0
173
     0
291
     0
 45
0.0
  0
VISUALSTYLE
  5
272
102
{ACAD_REACTORS
330
267
102
}
330
267
100
AcDbVisualStyle
  2
Dim
 70
    11
 71
     2
 72
     2
 73
     0
 90
        0
 40
-0.6
 41
-30.0
 62
     5
 63
     7
421
 16777215
 74
     1
 91
        4
 64
     7
 65
   257
 75
     1
175
     1
 42
1.0
 92
        8
 66
     7
 43
1.0
 76
     1
 77
     6
 78
     2
 67
     7
 79
     5
170
     0
171
     0
290
     0
174
     0
 93
        1
 44
-50.0
173
     0
291
     1
 45
0.0
  0
VISUALSTYLE
  5
8FE
102
{ACAD_REACTORS
330
267
102
}
330
267
100
AcDbVisualStyle
  2
EdgeColorOff
 70
    22
 71
     2
 72
     2
 73
     0
 90
        0
 40
0.6
 41
30.0
 62
     5
 63
     7
421
 16777215
 74
     1
 91
        4
 64
     7
 65
   257
 75
     1
175
     1
 42
1.0
 92
        8
 66
     7
 43
1.0
 76
     1
 77
     6
 78
     2
 67
     7
 79
     5
170
     0
171
     0
290
     0
174
     0
 93
        1
 44
0.0
173
     0
291
     1
 45
0.0
  0
VISUALSTYLE
  5
276
102
{ACAD_REACTORS
330
267
102
}
330
267
100
AcDbVisualStyle
  2
Facepattern
 70
    15
 71
     2
 72
     2
 73
     0
 90
        0
 40
-0.6
 41
-30.0
 62
     5
 63
     7
421
 16777215
 74
     1
 91
        4
 64
     7
 65
   257
 75
     1
175
     1
 42
1.0
 92
        8
 66
     7
 43
1.0
 76
     1
 77
     6
 78
     2
 67
     7
 79
     5
170
     0
171
     0
290
     0
174
     0
 93
        1
 44
0.0
173
     0
291
     1
 45
0.0
  0
VISUALSTYLE
  5
268
102
{ACAD_REACTORS
330
267
102
}
330
267
100
AcDbVisualStyle
  2
Flat
 70
     0
 71
     2
 72
     1
 73
     1
 90
        2
 40
-0.6
 41
30.0
 62
     5
 63
     7
421
 16777215
 74
     0
 91
        4
 64
     7
 65
   257
 75
     1
175
     1
 42
1.0
 92
        8
 66
     7
 43
1.0
 76
     1
 77
     6
 78
     2
 67
     7
 79
     5
170
     0
171
     0
290
     0
174
     0
 93
       13
 44
0.0
173
     0
291
     1
 45
0.0
  0
VISUALSTYLE
  5
269
102
{ACAD_REACTORS
330
267
102
}
330
267
100
AcDbVisualStyle
  2
FlatWithEdges
 70
     1
 71
     2
 72
     1
 73
     1
 90
        2
 40
-0.6
 41
30.0
 62
     5
 63
     7
421
 16777215
 74
     1
 91
        4
 64
     7
 65
   257
 75
     1
175
     1
 42
1.0
 92
        0
 66
   257
 43
1.0
 76
     1
 77
     6
 78
     2
 67
     7
 79
     5
170
     0
171
     0
290
     0
174
     0
 93
       13
 44
0.0
173
     0
291
     1
 45
0.0
  0
VISUALSTYLE
  5
26A
102
{ACAD_REACTORS
330
267
102
}
330
267
100
AcDbVisualStyle
  2
Gouraud
 70
     2
 71
     2
 72
     2
 73
     1
 90
        2
 40
-0.6
 41
30.0
 62
     5
 63
     7
421
 16777215
 74
     0
 91
        4
 64
     7
 65
   257
 75
     1
175
     1
 42
1.0
 92
        0
 66
     7
 43
1.0
 76
     1
 77
     6
 78
     2
 67
     7
 79
     5
170
     0
171
     0
290
     0
174
     0
 93
       13
 44
0.0
173
     0
291
     1
 45
0.0
  0
VISUALSTYLE
  5
26B
102
{ACAD_REACTORS
330
267
102
}
330
267
100
AcDbVisualStyle
  2
GouraudWithEdges
 70
     3
 71
     2
 72
     2
 73
     1
 90
        2
 40
-0.6
 41
30.0
 62
     5
 63
     7
421
 16777215
 74
     1
 91
        4
 64
     7
 65
   257
 75
     1
175
     1
 42
1.0
 92
        0
 66
   257
 43
1.0
 76
     1
 77
     6
 78
     2
 67
     7
 79
     5
170
     0
171
     0
290
     0
174
     0
 93
       13
 44
0.0
173
     0
291
     1
 45
0.0
  0
VISUALSTYLE
  5
8FB
102
{ACAD_REACTORS
330
267
102
}
330
267
100
AcDbVisualStyle
  2
Hidden
 70
     6
 71
     1
 72
     2
 73
     2
 90
        0
 40
0.6
 41
30.0
 62
     5
 63
     7
421
 16777215
 74
     2
 91
        2
 64
     7
 65
   257
 75
     2
175
     1
 42
40.0
 92
        0
 66
   257
 43
1.0
 76
     1
 77
     6
 78
     2
 67
     7
 79
     3
170
     0
171
     0
290
     0
174
     0
 93
        1
 44
0.0
173
     0
291
     0
 45
0.0
  0
VISUALSTYLE
  5
8FC
102
{ACAD_REACTORS
330
267
102
}
330
267
100
AcDbVisualStyle
  2
JitterOff
 70
    20
 71
     2
 72
     2
 73
     0
 90
        0
 40
0.6
 41
30.0
 62
     5
 63
     7
421
 16777215
 74
     1
 91
        4
 64
     7
 65
   257
 75
     1
175
     1
 42
1.0
 92
       10
 66
     7
 43
1.0
 76
     1
 77
     6
 78
     2
 67
     7
 79
     5
170
     0
171
     0
290
     0
174
     0
 93
        1
 44
0.0
173
     0
291
     1
 45
0.0
  0
VISUALSTYLE
  5
275
102
{ACAD_REACTORS
330
267
102
}
330
267
100
AcDbVisualStyle
  2
Linepattern
 70
    14
 71
     2
 72
     2
 73
     0
 90
        0
 40
-0.6
 41
-30.0
 62
     5
 63
     7
421
 16777215
 74
     1
 91
        4
 64
     7
 65
   257
 75
     7
175
     7
 42
1.0
 92
        8
 66
     7
 43
1.0
 76
     1
 77
     6
 78
     2
 67
     7
 79
     5
170
     0
171
     0
290
     0
174
     0
 93
        1
 44
0.0
173
     0
291
     1
 45
0.0
  0
VISUALSTYLE
  5
8FD
102
{ACAD_REACTORS
330
267
102
}
330
267
100
AcDbVisualStyle
  2
OverhangOff
 70
    21
 71
     2
 72
     2
 73
     0
 90
        0
 40
0.6
 41
30.0
 62
     5
 63
     7
421
 16777215
 74
     1
 91
        4
 64
     7
 65
   257
 75
     1
175
     1
 42
1.0
 92
        9
 66
     7
 43
1.0
 76
     1
 77
     6
 78
     2
 67
     7
 79
     5
170
     0
171
     0
290
     0
174
     0
 93
        1
 44
0.0
173
     0
291
     1
 45
0.0
  0
VISUALSTYLE
  5
270
102
{ACAD_REACTORS
330
267
102
}
330
267
100
AcDbVisualStyle
  2
Realistic
 70
     8
 71
     2
 72
     2
 73
     0
 90
        0
 40
-0.6
 41
-30.0
 62
     5
 63
     7
421
 16777215
 74
     1
 91
        0
 64
     7
 65
   257
 75
     1
175
     1
 42
1.0
 92
        8
 66
     8
424
  7895160
 43
1.0
 76
     1
 77
     6
 78
     2
 67
     7
 79
     5
170
     0
171
     0
290
     0
174
     0
 93
       13
 44
0.0
173
     0
291
     0
 45
0.0
  0
VISUALSTYLE
  5
903
102
{ACAD_REACTORS
330
267
102
}
330
267
100
AcDbVisualStyle
  2
Shaded
 70
    27
 71
     2
 72
     2
 73
     1
 90
        2
 40
0.6
 41
30.0
 62
     5
 63
     7
421
 16777215
 74
     0
 91
        4
 64
     7
 65
   257
 75
     1
175
     1
 42
1.0
 92
        8
 66
   257
 43
1.0
 76
     1
 77
     6
 78
     2
 67
     8
425
  7895160
 79
     3
170
     0
171
     0
290
     0
174
     0
 93
        5
 44
0.0
173
     0
291
     0
 45
0.0
  0
VISUALSTYLE
  5
902
102
{ACAD_REACTORS
330
267
102
}
330
267
100
AcDbVisualStyle
  2
Shaded with edges
 70
    26
 71
     2
 72
     2
 73
     1
 90
        2
 40
0.6
 41
30.0
 62
     5
 63
     7
421
 16777215
 74
     1
 91
       10
 64
     7
 65
   257
 75
     2
175
     1
 42
1.0
 92
        8
 66
   257
 43
1.0
 76
     1
 77
     6
 78
     2
 67
     7
 79
     3
170
     0
171
     0
290
     0
174
     0
 93
        5
 44
0.0
173
     0
291
     0
 45
0.0
  0
VISUALSTYLE
  5
8FF
102
{ACAD_REACTORS
330
267
102
}
330
267
100
AcDbVisualStyle
  2
Shades of Gray
 70
    23
 71
     2
 72
     2
 73
     3
 90
        0
 40
0.6
 41
30.0
 62
     5
 63
     7
421
 16777215
 74
     2
 91
        2
 64
     7
 65
     7
 75
     1
175
     1
 42
40.0
 92
        8
 66
     7
 43
1.0
 76
     1
 77
     6
 78
     2
 67
     7
 79
     3
170
     0
171
     0
290
     0
174
     0
 93
        1
 44
0.0
173
     0
291
     0
 45
0.0
  0
VISUALSTYLE
  5
900
102
{ACAD_REACTORS
330
267
102
}
330
267
100
AcDbVisualStyle
  2
Sketchy
 70
    24
 71
     1
 72
     2
 73
     2
 90
        0
 40
0.6
 41
30.0
 62
     5
 63
     7
421
 16777215
 74
     2
 91
        2
 64
     7
 65
     7
 75
     1
175
     1
 42
40.0
 92
       11
 66
     7
 43
1.0
 76
     1
 77
     6
 78
     2
 67
     7
 79
     6
170
     0
171
     0
290
     0
174
     0
 93
        1
 44
0.0
173
     0
291
     0
 45
0.0
  0
VISUALSTYLE
  5
274
102
{ACAD_REACTORS
330
267
102
}
330
267
100
AcDbVisualStyle
  2
Thicken
 70
    13
 71
     2
 72
     2
 73
     0
 90
        0
 40
-0.6
 41
-30.0
 62
     5
 63
     7
421
 16777215
 74
     1
 91
        4
 64
     7
 65
   257
 75
     1
175
     1
 42
1.0
 92
       12
 66
     7
 43
1.0
 76
     1
 77
     6
 78
     2
 67
     7
 79
     5
170
     0
171
     0
290
     0
174
     0
 93
        1
 44
0.0
173
     0
291
     1
 45
0.0
  0
VISUALSTYLE
  5
8FA
102
{ACAD_REACTORS
330
267
102
}
330
267
100
AcDbVisualStyle
  2
Wireframe
 70
     5
 71
     0
 72
     2
 73
     0
 90
        0
 40
0.6
 41
30.0
 62
     5
 63
     7
421
 16777215
 74
     1
 91
        4
 64
     7
 65
   257
 75
     1
175
     1
 42
1.0
 92
        0
 66
   257
 43
1.0
 76
     1
 77
     6
 78
     2
 67
     7
 79
     3
170
     0
171
     0
290
     0
174
     0
 93
        1
 44
0.0
173
     0
291
     0
 45
0.0
  0
VISUALSTYLE
  5
901
102
{ACAD_REACTORS
330
267
102
}
330
267
100
AcDbVisualStyle
  2
X-Ray
 70
    25
 71
     2
 72
     2
 73
     1
 90
        1
 40
0.5
 41
30.0
 62
     5
 63
     7
421
 16777215
 74
     1
 91
        0
 64
     7
 65
   257
 75
     1
175
     1
 42
1.0
 92
        8
 66
     7
 43
1.0
 76
     1
 77
     6
 78
     2
 67
     7
 79
     3
170
     0
171
     0
290
     0
174
     0
 93
       13
 44
0.0
173
     0
291
     0
 45
0.0
  0
DICTIONARYVAR
  5
331
102
{ACAD_REACTORS
330
330
102
}
330
330
100
DictionaryVariables
280
     0
  1
1:1
  0
DICTIONARYVAR
  5
D5E
102
{ACAD_REACTORS
330
330
102
}
330
330
100
DictionaryVariables
280
     0
  1
Standard
  0
DICTIONARYVAR
  5
335
102
{ACAD_REACTORS
330
330
102
}
330
330
100
DictionaryVariables
280
     0
  1
Standard
  0
DICTIONARYVAR
  5
D52
102
{ACAD_REACTORS
330
330
102
}
330
330
100
DictionaryVariables
280
     0
  1
ByLayer
  0
DICTIONARYVAR
  5
896
102
{ACAD_REACTORS
330
330
102
}
330
330
100
DictionaryVariables
280
     0
  1
0
  0
DICTIONARYVAR
  5
36AB
102
{ACAD_REACTORS
330
366B
102
}
330
366B
100
DictionaryVariables
280
     0
  1
0.250000
  0
DICTIONARYVAR
  5
36A9
102
{ACAD_REACTORS
330
E38
102
}
330
E38
100
DictionaryVariables
280
     0
  1
0.261799
  0
DICTIONARYVAR
  5
36A7
102
{ACAD_REACTORS
330
E38
102
}
330
E38
100
DictionaryVariables
280
     0
  1
0.400000
  0
DICTIONARYVAR
  5
36A8
102
{ACAD_REACTORS
330
E38
102
}
330
E38
100
DictionaryVariables
280
     0
  1
0.250000
  0
DICTIONARYVAR
  5
36AA
102
{ACAD_REACTORS
330
E38
102
}
330
E38
100
DictionaryVariables
280
     0
  1
1
  0
FIELD
  5
36AD
102
{ACAD_REACTORS
330
177DC
330
17818
330
17819
102
}
330
17819
100
AcDbField
  1
_text
  2
{%<\_FldIdx 0>%M}
 90
        1
360
36B1
 97
        0
 91
       63
 92
        0
 94
       11
 95
        2
 96
        0
300

 93
        1
  6
ACFD_FIELDTEXT_CHECKSUM
 93
        2
 90
        2
140
4488.0
 94
        0
300

302

304
ACVALUE_END
  7
ACFD_FIELD_VALUE
 93
        6
 90
        4
  1
{20230821M}
 94
        0
300

302

304
ACVALUE_END
301
{20230821M}
 98
       11
  0
DICTIONARY
  5
1781D
330
279
100
AcDbDictionary
280
     1
281
     1
  3
ACAD_ROUNDTRIP_2008_TABLESTYLE_CELLSTYLEMAP
360
1781E
  0
FIELD
  5
36B1
330
36AD
100
AcDbField
  1
AcVar
  2
\AcVar Date \f "yyyyMMdd"
 90
        0
 97
        0
 91
       63
 92
        0
 94
        8
 95
       64
 96
        0
300
Variable not supported
 93
        1
  6
Variable
 93
        2
 90
        4
  1
Date
 94
        0
300

302

304
ACVALUE_END
  7
ACFD_FIELD_VALUE
 93
        6
 90
        8
 92
       16
310
E707080000001500020031000D000000
 94
        0
300
yyyyMMdd
302

304
ACVALUE_END
301
20230821
 98
        8
  0
CELLSTYLEMAP
  5
1781E
102
{ACAD_REACTORS
330
1781D
102
}
330
1781D
100
AcDbCellStyleMap
 90
        3
300
CELLSTYLE
  1
TABLEFORMAT_BEGIN
 90
        5
170
     1
 91
        0
 92
    32768
 62
   257
 93
        1
300
CONTENTFORMAT
  1
CONTENTFORMAT_BEGIN
 90
        0
 91
        0
 92
        4
 93
        0
300

 40
0.0
140
1.0
 94
        5
 62
     0
340
17
144
6.0
309
CONTENTFORMAT_END
171
     1
301
MARGIN
  1
CELLMARGIN_BEGIN
 40
0.06
 40
0.06
 40
0.06
 40
0.06
 40
0.18
 40
0.18
309
CELLMARGIN_END
 94
        6
 95
        1
302
GRIDFORMAT
  1
GRIDFORMAT_BEGIN
 90
        0
 91
        1
 62
     0
 92
       -2
340
0
 93
        0
 40
0.045
309
GRIDFORMAT_END
 95
        2
302
GRIDFORMAT
  1
GRIDFORMAT_BEGIN
 90
        0
 91
        1
 62
     0
 92
       -2
340
0
 93
        0
 40
0.045
309
GRIDFORMAT_END
 95
        4
302
GRIDFORMAT
  1
GRIDFORMAT_BEGIN
 90
        0
 91
        1
 62
     0
 92
       -2
340
0
 93
        0
 40
0.045
309
GRIDFORMAT_END
 95
        8
302
GRIDFORMAT
  1
GRIDFORMAT_BEGIN
 90
        0
 91
        1
 62
     0
 92
       -2
340
0
 93
        0
 40
0.045
309
GRIDFORMAT_END
 95
       16
302
GRIDFORMAT
  1
GRIDFORMAT_BEGIN
 90
        0
 91
        1
 62
     0
 92
       -2
340
0
 93
        0
 40
0.045
309
GRIDFORMAT_END
 95
       32
302
GRIDFORMAT
  1
GRIDFORMAT_BEGIN
 90
        0
 91
        1
 62
     0
 92
       -2
340
0
 93
        0
 40
0.045
309
GRIDFORMAT_END
309
TABLEFORMAT_END
  1
CELLSTYLE_BEGIN
 90
        1
 91
        1
300
_TITLE
309
CELLSTYLE_END
300
CELLSTYLE
  1
TABLEFORMAT_BEGIN
 90
        5
170
     1
 91
        0
 92
        0
 62
   257
 93
        1
300
CONTENTFORMAT
  1
CONTENTFORMAT_BEGIN
 90
        0
 91
        0
 92
        4
 93
        0
300

 40
0.0
140
1.0
 94
        5
 62
     0
340
17
144
4.5
309
CONTENTFORMAT_END
171
     1
301
MARGIN
  1
CELLMARGIN_BEGIN
 40
0.06
 40
0.06
 40
0.06
 40
0.06
 40
0.18
 40
0.18
309
CELLMARGIN_END
 94
        6
 95
        1
302
GRIDFORMAT
  1
GRIDFORMAT_BEGIN
 90
        0
 91
        1
 62
     0
 92
       -2
340
0
 93
        0
 40
0.045
309
GRIDFORMAT_END
 95
        2
302
GRIDFORMAT
  1
GRIDFORMAT_BEGIN
 90
        0
 91
        1
 62
     0
 92
       -2
340
0
 93
        0
 40
0.045
309
GRIDFORMAT_END
 95
        4
302
GRIDFORMAT
  1
GRIDFORMAT_BEGIN
 90
        0
 91
        1
 62
     0
 92
       -2
340
0
 93
        0
 40
0.045
309
GRIDFORMAT_END
 95
        8
302
GRIDFORMAT
  1
GRIDFORMAT_BEGIN
 90
        0
 91
        1
 62
     0
 92
       -2
340
0
 93
        0
 40
0.045
309
GRIDFORMAT_END
 95
       16
302
GRIDFORMAT
  1
GRIDFORMAT_BEGIN
 90
        0
 91
        1
 62
     0
 92
       -2
340
0
 93
        0
 40
0.045
309
GRIDFORMAT_END
 95
       32
302
GRIDFORMAT
  1
GRIDFORMAT_BEGIN
 90
        0
 91
        1
 62
     0
 92
       -2
340
0
 93
        0
 40
0.045
309
GRIDFORMAT_END
309
TABLEFORMAT_END
  1
CELLSTYLE_BEGIN
 90
        2
 91
        1
300
_HEADER
309
CELLSTYLE_END
300
CELLSTYLE
  1
TABLEFORMAT_BEGIN
 90
        5
170
     1
 91
        0
 92
        0
 62
   257
 93
        1
300
CONTENTFORMAT
  1
CONTENTFORMAT_BEGIN
 90
        0
 91
        0
 92
        4
 93
        0
300

 40
0.0
140
1.0
 94
        2
 62
     0
340
17
144
4.5
309
CONTENTFORMAT_END
171
     1
301
MARGIN
  1
CELLMARGIN_BEGIN
 40
0.06
 40
0.06
 40
0.06
 40
0.06
 40
0.18
 40
0.18
309
CELLMARGIN_END
 94
        6
 95
        1
302
GRIDFORMAT
  1
GRIDFORMAT_BEGIN
 90
        0
 91
        1
 62
     0
 92
       -2
340
0
 93
        0
 40
0.045
309
GRIDFORMAT_END
 95
        2
302
GRIDFORMAT
  1
GRIDFORMAT_BEGIN
 90
        0
 91
        1
 62
     0
 92
       -2
340
0
 93
        0
 40
0.045
309
GRIDFORMAT_END
 95
        4
302
GRIDFORMAT
  1
GRIDFORMAT_BEGIN
 90
        0
 91
        1
 62
     0
 92
       -2
340
0
 93
        0
 40
0.045
309
GRIDFORMAT_END
 95
        8
302
GRIDFORMAT
  1
GRIDFORMAT_BEGIN
 90
        0
 91
        1
 62
     0
 92
       -2
340
0
 93
        0
 40
0.045
309
GRIDFORMAT_END
 95
       16
302
GRIDFORMAT
  1
GRIDFORMAT_BEGIN
 90
        0
 91
        1
 62
     0
 92
       -2
340
0
 93
        0
 40
0.045
309
GRIDFORMAT_END
 95
       32
302
GRIDFORMAT
  1
GRIDFORMAT_BEGIN
 90
        0
 91
        1
 62
     0
 92
       -2
340
0
 93
        0
 40
0.045
309
GRIDFORMAT_END
309
TABLEFORMAT_END
  1
CELLSTYLE_BEGIN
 90
        3
 91
        2
300
_DATA
309
CELLSTYLE_END
  0
ENDSEC
  0
EOF
