  0
SECTION
  2
HEADER
  9
$ACADVER
  1
AC1021
  9
$ACADMAINTVER
 70
    25
  9
$DWGCODEPAGE
  3
ANSI_932
  9
$LASTSAVEDBY
  1
T-HOWE-PC
  9
$INSBASE
 10
0.0
 20
0.0
 30
0.0
  9
$EXTMIN
 10
0.0
 20
0.0
 30
-0.0000000000000071
  9
$EXTMAX
 10
420.0
 20
594.0
 30
0.0000000000000071
  9
$LIMMIN
 10
0.0
 20
0.0
  9
$LIMMAX
 10
420.0
 20
594.0
  9
$ORTHOMODE
 70
     0
  9
$REGENMODE
 70
     1
  9
$FILLMODE
 70
     1
  9
$QTEXTMODE
 70
     0
  9
$MIRRTEXT
 70
     1
  9
$LTSCALE
 40
1.0
  9
$ATTMODE
 70
     1
  9
$TEXTSIZE
 40
2.5
  9
$TRACEWID
 40
1.0
  9
$TEXTSTYLE
  7
ＭＳ ゴシック
  9
$CLAYER
  8
DIM
  9
$CELTYPE
  6
ByLayer
  9
$CECOLOR
 62
   256
  9
$CELTSCALE
 40
1.0
  9
$DISPSILH
 70
     0
  9
$DIMSCALE
 40
1.0
  9
$DIMASZ
 40
2.0
  9
$DIMEXO
 40
5.0
  9
$DIMDLI
 40
0.9999999999999999
  9
$DIMRND
 40
0.0
  9
$DIMDLE
 40
0.0
  9
$DIMEXE
 40
0.0
  9
$DIMTP
 40
0.0
  9
$DIMTM
 40
0.0
  9
$DIMTXT
 40
5.0
  9
$DIMCEN
 40
0.0
  9
$DIMTSZ
 40
0.0
  9
$DIMTOL
 70
     0
  9
$DIMLIM
 70
     0
  9
$DIMTIH
 70
     0
  9
$DIMTOH
 70
     0
  9
$DIMSE1
 70
     0
  9
$DIMSE2
 70
     0
  9
$DIMTAD
 70
     1
  9
$DIMZIN
 70
    11
  9
$DIMBLK
  1
DOT
  9
$DIMASO
 70
     1
  9
$DIMSHO
 70
     1
  9
$DIMPOST
  1
<>
  9
$DIMAPOST
  1
[]
  9
$DIMALT
 70
     0
  9
$DIMALTD
 70
     1
  9
$DIMALTF
 40
1.0
  9
$DIMLFAC
 40
1.0
  9
$DIMTOFL
 70
     0
  9
$DIMTVP
 40
0.0
  9
$DIMTIX
 70
     1
  9
$DIMSOXD
 70
     0
  9
$DIMSAH
 70
     0
  9
$DIMBLK1
  1

  9
$DIMBLK2
  1

  9
$DIMSTYLE
  2
tfrom線あり
  9
$DIMCLRD
 70
     0
  9
$DIMCLRE
 70
     0
  9
$DIMCLRT
 70
     0
  9
$DIMTFAC
 40
1.0
  9
$DIMGAP
 40
3.0
  9
$DIMJUST
 70
     0
  9
$DIMSD1
 70
     0
  9
$DIMSD2
 70
     0
  9
$DIMTOLJ
 70
     1
  9
$DIMTZIN
 70
    11
  9
$DIMALTZ
 70
    11
  9
$DIMALTTZ
 70
    11
  9
$DIMUPT
 70
     0
  9
$DIMDEC
 70
     0
  9
$DIMTDEC
 70
     1
  9
$DIMALTU
 70
     2
  9
$DIMALTTD
 70
     2
  9
$DIMTXSTY
  7
ＭＳ ゴシック
  9
$DIMAUNIT
 70
     0
  9
$DIMADEC
 70
     2
  9
$DIMALTRND
 40
0.0
  9
$DIMAZIN
 70
     0
  9
$DIMDSEP
 70
    46
  9
$DIMATFIT
 70
     0
  9
$DIMFRAC
 70
     2
  9
$DIMLDRBLK
  1
DOT
  9
$DIMLUNIT
 70
     2
  9
$DIMLWD
 70
    -2
  9
$DIMLWE
 70
    -2
  9
$DIMTMOVE
 70
     0
  9
$DIMFXL
 40
1.0
  9
$DIMFXLON
 70
     0
  9
$DIMJOGANG
 40
0.7853981633974483
  9
$DIMTFILL
 70
     0
  9
$DIMTFILLCLR
 70
     0
  9
$DIMARCSYM
 70
     0
  9
$DIMLTYPE
  6

  9
$DIMLTEX1
  6

  9
$DIMLTEX2
  6

  9
$LUNITS
 70
     2
  9
$LUPREC
 70
     0
  9
$SKETCHINC
 40
0.1
  9
$FILLETRAD
 40
0.0
  9
$AUNITS
 70
     0
  9
$AUPREC
 70
     0
  9
$MENU
  1
acad
  9
$ELEVATION
 40
0.0
  9
$PELEVATION
 40
0.0
  9
$THICKNESS
 40
0.0
  9
$LIMCHECK
 70
     0
  9
$CHAMFERA
 40
0.0
  9
$CHAMFERB
 40
0.0
  9
$CHAMFERC
 40
0.0
  9
$CHAMFERD
 40
0.0
  9
$SKPOLY
 70
     0
  9
$TDCREATE
 40
2447893.375
  9
$TDUCREATE
 40
0.0
  9
$TDUPDATE
 40
2458961.436003912
  9
$TDUUPDATE
 40
2458961.061003912
  9
$TDINDWG
 40
0.0017274769
  9
$TDUSRTIMER
 40
0.0011297801
  9
$USRTIMER
 70
     1
  9
$ANGBASE
 50
0.0
  9
$ANGDIR
 70
     0
  9
$PDMODE
 70
     1
  9
$PDSIZE
 40
-2.0
  9
$PLINEWID
 40
0.0
  9
$SPLFRAME
 70
     0
  9
$SPLINETYPE
 70
     6
  9
$SPLINESEGS
 70
     8
  9
$HANDSEED
  5
4543
  9
$SURFTAB1
 70
     6
  9
$SURFTAB2
 70
     6
  9
$SURFTYPE
 70
     6
  9
$SURFU
 70
     6
  9
$SURFV
 70
     6
  9
$UCSBASE
  2

  9
$UCSNAME
  2

  9
$UCSORG
 10
0.0
 20
0.0
 30
0.0
  9
$UCSXDIR
 10
1.0
 20
0.0
 30
0.0
  9
$UCSYDIR
 10
0.0
 20
1.0
 30
0.0
  9
$UCSORTHOREF
  2

  9
$UCSORTHOVIEW
 70
     0
  9
$UCSORGTOP
 10
0.0
 20
0.0
 30
0.0
  9
$UCSORGBOTTOM
 10
0.0
 20
0.0
 30
0.0
  9
$UCSORGLEFT
 10
0.0
 20
0.0
 30
0.0
  9
$UCSORGRIGHT
 10
0.0
 20
0.0
 30
0.0
  9
$UCSORGFRONT
 10
0.0
 20
0.0
 30
0.0
  9
$UCSORGBACK
 10
0.0
 20
0.0
 30
0.0
  9
$PUCSBASE
  2

  9
$PUCSNAME
  2

  9
$PUCSORG
 10
0.0
 20
0.0
 30
0.0
  9
$PUCSXDIR
 10
1.0
 20
0.0
 30
0.0
  9
$PUCSYDIR
 10
0.0
 20
1.0
 30
0.0
  9
$PUCSORTHOREF
  2

  9
$PUCSORTHOVIEW
 70
     0
  9
$PUCSORGTOP
 10
0.0
 20
0.0
 30
0.0
  9
$PUCSORGBOTTOM
 10
0.0
 20
0.0
 30
0.0
  9
$PUCSORGLEFT
 10
0.0
 20
0.0
 30
0.0
  9
$PUCSORGRIGHT
 10
0.0
 20
0.0
 30
0.0
  9
$PUCSORGFRONT
 10
0.0
 20
0.0
 30
0.0
  9
$PUCSORGBACK
 10
0.0
 20
0.0
 30
0.0
  9
$USERI1
 70
     0
  9
$USERI2
 70
     0
  9
$USERI3
 70
     0
  9
$USERI4
 70
     0
  9
$USERI5
 70
     0
  9
$USERR1
 40
0.0
  9
$USERR2
 40
0.0
  9
$USERR3
 40
0.0
  9
$USERR4
 40
0.0
  9
$USERR5
 40
0.0
  9
$WORLDVIEW
 70
     1
  9
$SHADEDGE
 70
     3
  9
$SHADEDIF
 70
    70
  9
$TILEMODE
 70
     1
  9
$MAXACTVP
 70
    64
  9
$PINSBASE
 10
0.0
 20
0.0
 30
0.0
  9
$PLIMCHECK
 70
     0
  9
$PEXTMIN
 10
0.0
 20
0.0
 30
0.0
  9
$PEXTMAX
 10
0.0
 20
0.0
 30
0.0
  9
$PLIMMIN
 10
-7.5
 20
-20.0
  9
$PLIMMAX
 10
412.5
 20
277.0
  9
$UNITMODE
 70
     0
  9
$VISRETAIN
 70
     0
  9
$PLINEGEN
 70
     1
  9
$PSLTSCALE
 70
     0
  9
$TREEDEPTH
 70
  3020
  9
$CMLSTYLE
  2
Standard
  9
$CMLJUST
 70
     0
  9
$CMLSCALE
 40
1.0
  9
$PROXYGRAPHICS
 70
     0
  9
$MEASUREMENT
 70
     1
  9
$CELWEIGHT
370
    -1
  9
$ENDCAPS
280
     0
  9
$JOINSTYLE
280
     0
  9
$LWDISPLAY
290
     1
  9
$INSUNITS
 70
     4
  9
$HYPERLINKBASE
  1

  9
$STYLESHEET
  1

  9
$XEDIT
290
     1
  9
$CEPSNTYPE
380
     0
  9
$PSTYLEMODE
290
     1
  9
$FINGERPRINTGUID
  2

  9
$VERSIONGUID
  2

  9
$EXTNAMES
290
     1
  9
$PSVPSCALE
 40
0.0
  9
$OLESTARTUP
290
     0
  9
$SORTENTS
280
   127
  9
$INDEXCTL
280
     0
  9
$HIDETEXT
280
     1
  9
$XCLIPFRAME
290
     0
  9
$HALOGAP
280
     0
  9
$OBSCOLOR
 70
   257
  9
$OBSLTYPE
280
     0
  9
$INTERSECTIONDISPLAY
280
     0
  9
$INTERSECTIONCOLOR
 70
   257
  9
$DIMASSOC
280
     2
  9
$PROJECTNAME
  1

  9
$CAMERADISPLAY
290
     0
  9
$LENSLENGTH
 40
50.0
  9
$CAMERAHEIGHT
 40
0.0
  9
$STEPSPERSEC
 40
2.0
  9
$STEPSIZE
 40
6.0
  9
$3DDWFPREC
 40
2.0
  9
$PSOLWIDTH
 40
0.25
  9
$PSOLHEIGHT
 40
4.0
  9
$LOFTANG1
 40
1.570796326794897
  9
$LOFTANG2
 40
1.570796326794897
  9
$LOFTMAG1
 40
0.0
  9
$LOFTMAG2
 40
0.0
  9
$LOFTPARAM
 70
     7
  9
$LOFTNORMALS
280
     1
  9
$LATITUDE
 40
37.795
  9
$LONGITUDE
 40
-122.394
  9
$NORTHDIRECTION
 40
0.0
  9
$TIMEZONE
 70
 -8000
  9
$LIGHTGLYPHDISPLAY
280
     1
  9
$TILEMODELIGHTSYNCH
280
     1
  9
$SOLIDHIST
280
     1
  9
$SHOWHIST
280
     1
  9
$DWFFRAME
280
     2
  9
$DGNFRAME
280
     2
  9
$REALWORLDSCALE
290
     1
  9
$INTERFERECOLOR
 62
   256
  9
$CSHADOW
280
     0
  9
$SHADOWPLANELOCATION
 40
0.0
  0
ENDSEC
  0
SECTION
  2
CLASSES
  0
CLASS
  1
LWPOLYLINE
  2
AcDbPolyline
  3
ObjectDBX Classes
 90
        0
 91
        1
280
     0
281
     1
  0
CLASS
  1
IMAGE
  2
AcDbRasterImage
  3
ISM
 90
      127
 91
        4
280
     0
281
     1
  0
CLASS
  1
OLE2FRAME
  2
AcDbOle2Frame
  3
ObjectDBX Classes
 90
        0
 91
        1
280
     0
281
     1
  0
CLASS
  1
HATCH
  2
AcDbHatch
  3
ObjectDBX Classes
 90
        0
 91
        1
280
     0
281
     1
  0
CLASS
  1
DICTIONARYVAR
  2
AcDbDictionaryVar
  3
ObjectDBX Classes
 90
        0
 91
        3
280
     0
281
     0
  0
CLASS
  1
RASTERVARIABLES
  2
AcDbRasterVariables
  3
ISM
 90
        0
 91
        3
280
     0
281
     0
  0
CLASS
  1
IMAGEDEF
  2
AcDbRasterImageDef
  3
ISM
 90
        0
 91
        3
280
     0
281
     0
  0
CLASS
  1
IMAGEDEF_REACTOR
  2
AcDbRasterImageDefReactor
  3
ISM
 90
        1
 91
        3
280
     0
281
     0
  0
CLASS
  1
IDBUFFER
  2
AcDbIdBuffer
  3
ObjectDBX Classes
 90
        0
 91
        3
280
     0
281
     0
  0
CLASS
  1
SPATIAL_FILTER
  2
AcDbSpatialFilter
  3
ObjectDBX Classes
 90
        0
 91
        3
280
     0
281
     0
  0
CLASS
  1
XRECORD
  2
AcDbXrecord
  3
ObjectDBX Classes
 90
        0
 91
        1
280
     0
281
     0
  0
CLASS
  1
SORTENTSTABLE
  2
AcDbSortentsTable
  3
ObjectDBX Classes
 90
        0
 91
        3
280
     0
281
     0
  0
CLASS
  1
LAYER_INDEX
  2
AcDbLayerIndex
  3
ObjectDBX Classes
 90
        0
 91
        3
280
     0
281
     0
  0
CLASS
  1
SPATIAL_INDEX
  2
AcDbSpatialIndex
  3
AutoCAD 2000
 90
        0
 91
        3
280
     0
281
     0
  0
CLASS
  1
OBJECT_PTR
  2
CAseDLPNTableRecord
  3
ASE-LPNTableRecord
 90
        1
 91
        3
280
     0
281
     0
  0
CLASS
  1
LAYOUT
  2
AcDbLayout
  3
ObjectDBX Classes
 90
        0
 91
        1
280
     0
281
     0
  0
CLASS
  1
PLOTSETTINGS
  2
AcDbPlotSettings
  3
ObjectDBX Classes
 90
        0
 91
        3
280
     0
281
     0
  0
CLASS
  1
ACDBDICTIONARYWDFLT
  2
AcDbDictionaryWithDefault
  3
ObjectDBX Classes
 90
        0
 91
        3
280
     0
281
     0
  0
CLASS
  1
ACDBPLACEHOLDER
  2
AcDbPlaceHolder
  3
ObjectDBX Classes
 90
        0
 91
        1
280
     0
281
     0
  0
CLASS
  1
SCALE
  2
AcDbScale
  3
ObjectDBX Classes
 90
     1153
 91
        3
280
     0
281
     0
  0
CLASS
  1
MATERIAL
  2
AcDbMaterial
  3
ObjectDBX Classes
 90
     1153
 91
        3
280
     0
281
     0
  0
CLASS
  1
VISUALSTYLE
  2
AcDbVisualStyle
  3
ObjectDBX Classes
 90
     4095
 91
        3
280
     0
281
     0
  0
CLASS
  1
TABLESTYLE
  2
AcDbTableStyle
  3
ObjectDBX Classes
 90
     4095
 91
        3
280
     0
281
     0
  0
CLASS
  1
DIMASSOC
  2
AcDbDimAssoc
  3
"AcDbDimAssoc|Product Desc:     AcDim ARX App For Dimension|Company:          Autodesk, Inc.|WEB Address:      www.autodesk.com"
 90
        0
 91
        3
280
     0
281
     0
  0
CLASS
  1
CELLSTYLEMAP
  2
AcDbCellStyleMap
  3
ObjectDBX Classes
 90
     1152
 91
        3
280
     0
281
     0
  0
CLASS
  1
SUN
  2
AcDbSun
  3
SCENEOE
 90
     1153
 91
        3
280
     0
281
     0
  0
CLASS
  1
MLEADERSTYLE
  2
AcDbMLeaderStyle
  3
ACDB_MLEADERSTYLE_CLASS
 90
     4095
 91
        3
280
     0
281
     0
  0
CLASS
  1
FIELD
  2
AcDbField
  3
ObjectDBX Classes
 90
     1152
 91
        3
280
     0
281
     0
  0
CLASS
  1
FIELDLIST
  2
AcDbFieldList
  3
ObjectDBX Classes
 90
     1152
 91
        3
280
     0
281
     0
  0
ENDSEC
  0
SECTION
  2
TABLES
  0
TABLE
  2
VPORT
  5
7
330
0
100
AcDbSymbolTable
 70
     1
  0
VPORT
  5
15
330
7
100
AcDbSymbolTableRecord
100
AcDbViewportTableRecord
  2
*ACTIVE
 70
     0
 10
0.0
 20
0.0
 11
1.0
 21
1.0
 12
301.0201356709003
 22
223.401285469834
 13
0.0
 23
0.0
 14
1.0
 24
1.0
 15
0.0
 25
0.0
 16
0.0
 26
0.0
 36
1.0
 17
-91.02013567090034
 27
73.59871453016603
 37
-46.86809886248109
 40
605.88
 41
2.165007112375533
 42
50.0
 43
0.0
 44
0.0
 50
0.0
 51
0.0
 71
    16
 72
  2000
 73
     1
 74
     1
 75
     0
 76
     0
 77
     0
 78
     0
281
     0
 65
     1
110
0.0
120
0.0
130
0.0
111
1.0
121
0.0
131
0.0
112
0.0
122
1.0
132
0.0
 79
     0
146
0.0
348
26C
 60
     3
 61
     5
292
     1
282
     1
141
0.0
142
0.0
 63
   256
361
904
  0
ENDTAB
  0
TABLE
  2
LTYPE
  5
4
330
0
100
AcDbSymbolTable
 70
     3
  0
LTYPE
  5
11
330
4
100
AcDbSymbolTableRecord
100
AcDbLinetypeTableRecord
  2
ByBlock
 70
     0
  3

 72
    65
 73
     0
 40
0.0
  0
LTYPE
  5
12
330
4
100
AcDbSymbolTableRecord
100
AcDbLinetypeTableRecord
  2
ByLayer
 70
     0
  3

 72
    65
 73
     0
 40
0.0
  0
LTYPE
  5
13
330
4
100
AcDbSymbolTableRecord
100
AcDbLinetypeTableRecord
  2
Continuous
 70
     0
  3
Solid line
 72
    65
 73
     0
 40
0.0
  0
LTYPE
  5
D6C
330
4
100
AcDbSymbolTableRecord
100
AcDbLinetypeTableRecord
  2
BORDER
 70
     0
  3
Border __  __  . __  __  . __  __  . __  __  . 
 72
    65
 73
     6
 40
44.45
 49
12.7
 74
     0
 49
-6.35
 74
     0
 49
12.7
 74
     0
 49
-6.35
 74
     0
 49
0.0
 74
     0
 49
-6.35
 74
     0
  0
LTYPE
  5
D6D
330
4
100
AcDbSymbolTableRecord
100
AcDbLinetypeTableRecord
  2
HIDDEN
 70
     0
  3
Hidden _ _ _ _ _ _ _ _ _ _ _ _ _ _ _ _ _ _ _ _ 
 72
    65
 73
     2
 40
9.524999999999999
 49
6.35
 74
     0
 49
-3.175
 74
     0
  0
ENDTAB
  0
TABLE
  2
LAYER
  5
2
102
{ACAD_XDICTIONARY
360
2E1
102
}
330
0
100
AcDbSymbolTable
 70
     9
  0
LAYER
  5
14
330
2
100
AcDbSymbolTableRecord
100
AcDbLayerTableRecord
  2
0
 70
     0
 62
     7
  6
Continuous
370
    -3
390
1D
347
266
  0
LAYER
  5
4B
330
2
100
AcDbSymbolTableRecord
100
AcDbLayerTableRecord
  2
TEMPLATE
 70
     0
 62
     7
  6
Continuous
370
    20
390
1D
347
266
  0
LAYER
  5
4C
330
2
100
AcDbSymbolTableRecord
100
AcDbLayerTableRecord
  2
DIM
 70
     0
 62
     3
  6
Continuous
370
    13
390
1D
347
266
  0
LAYER
  5
4D
330
2
100
AcDbSymbolTableRecord
100
AcDbLayerTableRecord
  2
MODEL
 70
     0
 62
     7
  6
Continuous
370
    20
390
1D
347
266
  0
LAYER
  5
88C
330
2
100
AcDbSymbolTableRecord
100
AcDbLayerTableRecord
  2
HIDDEN
 70
     0
 62
     8
  6
HIDDEN
370
    20
390
1D
347
266
1001
AcAecLayerStandard
1000

1000

  0
LAYER
  5
D6B
330
2
100
AcDbSymbolTableRecord
100
AcDbLayerTableRecord
  2
BORDER
 70
     0
 62
     4
  6
BORDER
290
     0
370
    20
390
1D
347
266
1001
AcAecLayerStandard
1000

1000

  0
LAYER
  5
D8C
330
2
100
AcDbSymbolTableRecord
100
AcDbLayerTableRecord
  2
Defpoints
 70
     0
 62
     7
  6
Continuous
290
     0
370
    -3
390
1D
347
266
  0
LAYER
  5
3653
330
2
100
AcDbSymbolTableRecord
100
AcDbLayerTableRecord
  2
Standard
 70
     0
 62
     7
  6
Continuous
370
    -3
390
1D
347
266
  0
LAYER
  5
3D4C
330
2
100
AcDbSymbolTableRecord
100
AcDbLayerTableRecord
  2
Default
 70
     0
 62
     7
  6
Continuous
370
    -3
390
1D
347
266
  0
ENDTAB
  0
TABLE
  2
STYLE
  5
3
330
0
100
AcDbSymbolTable
 70
     2
  0
STYLE
  5
17
330
3
100
AcDbSymbolTableRecord
100
AcDbTextStyleTableRecord
  2
Standard
 70
     0
 40
0.0
 41
1.0
 50
0.0
 71
     0
 42
2.5
  3
txt
  4
BIGFONT.SHX
  0
STYLE
  5
39
330
3
100
AcDbSymbolTableRecord
100
AcDbTextStyleTableRecord
  2
ＭＳ ゴシック
 70
     0
 40
0.0
 41
1.0
 50
0.0
 71
     0
 42
2.5
  3
msgothic.ttc
  4
ＭＳ ゴシック
1001
ACAD
1000
ＭＳ ゴシック
1071
        0
  0
ENDTAB
  0
TABLE
  2
VIEW
  5
5
330
0
100
AcDbSymbolTable
 70
     0
  0
ENDTAB
  0
TABLE
  2
UCS
  5
6
330
0
100
AcDbSymbolTable
 70
     0
  0
ENDTAB
  0
TABLE
  2
APPID
  5
8
330
0
100
AcDbSymbolTable
 70
     4
  0
APPID
  5
16
330
8
100
AcDbSymbolTableRecord
100
AcDbRegAppTableRecord
  2
ACAD
 70
     0
  0
APPID
  5
7AC
330
8
100
AcDbSymbolTableRecord
100
AcDbRegAppTableRecord
  2
AcAecLayerStandard
 70
     0
  0
APPID
  5
E29
330
8
100
AcDbSymbolTableRecord
100
AcDbRegAppTableRecord
  2
ACAD_MLEADERVER
 70
     0
  0
APPID
  5
453F
330
8
100
AcDbSymbolTableRecord
100
AcDbRegAppTableRecord
  2
PLOTTRANSPARENCY
 70
     0
  0
ENDTAB
  0
TABLE
  2
DIMSTYLE
  5
9
330
0
100
AcDbSymbolTable
 70
     2
100
AcDbDimStyleTable
  0
DIMSTYLE
105
18
330
9
100
AcDbSymbolTableRecord
100
AcDbDimStyleTableRecord
  2
Standard
 70
     0
178
     0
340
17
  0
DIMSTYLE
105
57
102
{ACAD_REACTORS
330
41B6
330
41B7
330
4455
330
4457
330
4458
330
445F
102
}
330
9
100
AcDbSymbolTableRecord
100
AcDbDimStyleTableRecord
  2
tfrom線あり
 70
     0
  3
<>
  4
[]
 41
2.0
 42
5.0
 43
0.9999999999999999
 44
0.0
 73
     0
 74
     0
 77
     1
 78
    11
140
5.0
141
0.0
143
1.0
147
3.0
171
     1
174
     1
178
     0
179
     2
271
     0
272
     1
276
     2
284
    11
285
    11
286
    11
289
     0
340
39
341
4E
342
4E
  0
ENDTAB
  0
TABLE
  2
BLOCK_RECORD
  5
1
330
0
100
AcDbSymbolTable
 70
    20
  0
BLOCK_RECORD
  5
A
102
{ACAD_XDICTIONARY
360
3D3D
102
}
330
1
100
AcDbSymbolTableRecord
100
AcDbBlockTableRecord
  2
*MODEL_SPACE
340
20
 70
     0
280
     1
281
     0
  0
BLOCK_RECORD
  5
B
330
1
100
AcDbSymbolTableRecord
100
AcDbBlockTableRecord
  2
*PAPER_SPACE
340
21
 70
     0
280
     1
281
     0
  0
BLOCK_RECORD
  5
4E
330
1
100
AcDbSymbolTableRecord
100
AcDbBlockTableRecord
  2
_DOT
340
0
102
{BLKREFS
331
41FF
331
4200
331
420B
331
420C
331
4218
331
4219
331
4224
331
4230
331
4231
331
42BD
331
42BE
331
43A7
331
43A8
331
43B5
331
43B6
331
43C5
331
43C6
331
43D5
331
43D6
331
4493
331
4494
331
449F
331
44A0
331
44AB
331
44AC
331
44B7
331
44B8
102
}
 70
     0
280
     1
281
     0
  0
BLOCK_RECORD
  5
68D
330
1
100
AcDbSymbolTableRecord
100
AcDbBlockTableRecord
  2
block 2
340
0
102
{BLKREFS
331
68C
331
1343
102
}
 70
     0
280
     1
281
     0
  0
BLOCK_RECORD
  5
3D81
330
1
100
AcDbSymbolTableRecord
100
AcDbBlockTableRecord
  2
SE3
340
0
 70
     0
280
     1
281
     0
  0
BLOCK_RECORD
  5
3DC5
330
1
100
AcDbSymbolTableRecord
100
AcDbBlockTableRecord
  2
SE4
340
0
 70
     0
280
     1
281
     0
  0
BLOCK_RECORD
  5
3EE6
330
1
100
AcDbSymbolTableRecord
100
AcDbBlockTableRecord
  2
SE5
340
0
 70
     0
280
     1
281
     0
  0
BLOCK_RECORD
  5
3F2A
330
1
100
AcDbSymbolTableRecord
100
AcDbBlockTableRecord
  2
SE6
340
0
 70
     0
280
     1
281
     0
  0
BLOCK_RECORD
  5
41F7
330
1
100
AcDbSymbolTableRecord
100
AcDbBlockTableRecord
  2
*D6
340
0
 70
     0
280
     1
281
     0
  0
BLOCK_RECORD
  5
4205
330
1
100
AcDbSymbolTableRecord
100
AcDbBlockTableRecord
  2
*D7
340
0
 70
     0
280
     1
281
     0
  0
BLOCK_RECORD
  5
4212
330
1
100
AcDbSymbolTableRecord
100
AcDbBlockTableRecord
  2
*D8
340
0
 70
     0
280
     1
281
     0
  0
BLOCK_RECORD
  5
421F
330
1
100
AcDbSymbolTableRecord
100
AcDbBlockTableRecord
  2
*D9
340
0
 70
     0
280
     1
281
     0
  0
BLOCK_RECORD
  5
422A
330
1
100
AcDbSymbolTableRecord
100
AcDbBlockTableRecord
  2
*D10
340
0
 70
     0
280
     1
281
     0
  0
BLOCK_RECORD
  5
42B7
330
1
100
AcDbSymbolTableRecord
100
AcDbBlockTableRecord
  2
*D11
340
0
 70
     0
280
     1
281
     0
  0
BLOCK_RECORD
  5
43A2
330
1
100
AcDbSymbolTableRecord
100
AcDbBlockTableRecord
  2
*D12
340
0
 70
     0
280
     1
281
     0
  0
BLOCK_RECORD
  5
43B0
330
1
100
AcDbSymbolTableRecord
100
AcDbBlockTableRecord
  2
*D13
340
0
 70
     0
280
     1
281
     0
  0
BLOCK_RECORD
  5
43C0
330
1
100
AcDbSymbolTableRecord
100
AcDbBlockTableRecord
  2
*D14
340
0
 70
     0
280
     1
281
     0
  0
BLOCK_RECORD
  5
43D0
330
1
100
AcDbSymbolTableRecord
100
AcDbBlockTableRecord
  2
*D15
340
0
 70
     0
280
     1
281
     0
  0
BLOCK_RECORD
  5
448D
330
1
100
AcDbSymbolTableRecord
100
AcDbBlockTableRecord
  2
*D16
340
0
 70
     0
280
     1
281
     0
  0
BLOCK_RECORD
  5
4499
330
1
100
AcDbSymbolTableRecord
100
AcDbBlockTableRecord
  2
*D17
340
0
 70
     0
280
     1
281
     0
  0
BLOCK_RECORD
  5
44A5
330
1
100
AcDbSymbolTableRecord
100
AcDbBlockTableRecord
  2
*D18
340
0
 70
     0
280
     1
281
     0
  0
BLOCK_RECORD
  5
44B1
330
1
100
AcDbSymbolTableRecord
100
AcDbBlockTableRecord
  2
*D19
340
0
 70
     0
280
     1
281
     0
  0
ENDTAB
  0
ENDSEC
  0
SECTION
  2
BLOCKS
  0
BLOCK
  5
D
330
A
100
AcDbEntity
  8
0
390
1D
100
AcDbBlockBegin
  2
*MODEL_SPACE
 70
     0
 10
0.0
 20
0.0
 30
0.0
  3
*MODEL_SPACE
  1
*MODEL_SPACE
  0
ENDBLK
  5
E
330
A
100
AcDbEntity
  8
0
390
1D
100
AcDbBlockEnd
  0
BLOCK
  5
F
330
B
100
AcDbEntity
 67
     1
  8
0
390
1D
100
AcDbBlockBegin
  2
*PAPER_SPACE
 70
     0
 10
0.0
 20
0.0
 30
0.0
  3
*PAPER_SPACE
  1
*PAPER_SPACE
  0
ENDBLK
  5
10
330
B
100
AcDbEntity
 67
     1
  8
0
390
1D
100
AcDbBlockEnd
  0
BLOCK
  5
2462
330
4E
100
AcDbEntity
  8
0
390
1D
100
AcDbBlockBegin
  2
_DOT
 70
     0
 10
0.0
 20
0.0
 30
0.0
  3
_DOT
  1
_DOT
  0
POLYLINE
  5
2464
330
4E
100
AcDbEntity
  8
0
  6
ByBlock
 62
     0
370
    -2
390
1D
100
AcDb2dPolyline
 66
     1
 10
0.0
 20
0.0
 30
0.0
 70
     1
 40
0.5
 41
0.5
  0
VERTEX
  5
2465
330
2464
100
AcDbEntity
  8
0
  6
ByBlock
 62
     0
370
    -2
390
1D
100
AcDbVertex
100
AcDb2dVertex
 10
-0.25
 20
0.0
 30
0.0
 42
1.0
  0
VERTEX
  5
2466
330
2464
100
AcDbEntity
  8
0
  6
ByBlock
 62
     0
370
    -2
390
1D
100
AcDbVertex
100
AcDb2dVertex
 10
0.25
 20
0.0
 30
0.0
 42
1.0
  0
SEQEND
  5
2467
330
2464
100
AcDbEntity
  8
0
390
1D
  0
LINE
  5
2468
330
4E
100
AcDbEntity
  8
0
  6
ByBlock
 62
     0
370
    -2
390
1D
100
AcDbLine
 10
-0.5
 20
0.0
 30
0.0
 11
-1.0
 21
0.0
 31
0.0
  0
ENDBLK
  5
2469
330
4E
100
AcDbEntity
  8
0
390
1D
100
AcDbBlockEnd
  0
BLOCK
  5
68E
330
68D
100
AcDbEntity
  8
0
100
AcDbBlockBegin
  2
block 2
 70
     0
 10
0.0
 20
0.0
 30
0.0
  3
block 2
  1
block 2
  0
ENDBLK
  5
6B0
330
68D
100
AcDbEntity
  8
0
100
AcDbBlockEnd
  0
BLOCK
  5
3D82
330
3D81
100
AcDbEntity
  8
0
100
AcDbBlockBegin
  2
SE3
 70
     0
 10
0.0
 20
0.0
 30
0.0
  3
SE3
  1

  0
LINE
  5
3D83
330
3D81
100
AcDbEntity
  8
Default
  6
Continuous
 62
     7
100
AcDbLine
 10
64.7778035388
 20
146.5929326898
 30
0.0
 11
70.8592133497
 21
146.5929326898
 31
0.0
  0
LINE
  5
3D84
330
3D81
100
AcDbEntity
  8
Default
  6
Continuous
 62
     7
100
AcDbLine
 10
46.3039673855
 20
146.5929326898
 30
0.0
 11
64.7778035388
 21
146.5929326898
 31
0.0
  0
LINE
  5
3D85
330
3D81
100
AcDbEntity
  8
Default
  6
Continuous
 62
     7
100
AcDbLine
 10
70.8592133497
 20
146.5929326898
 30
0.0
 11
73.2039673855
 21
146.5929326898
 31
0.0
  0
ENDBLK
  5
3D86
330
3D81
100
AcDbEntity
  8
0
100
AcDbBlockEnd
  0
BLOCK
  5
3DC6
330
3DC5
100
AcDbEntity
  8
0
100
AcDbBlockBegin
  2
SE4
 70
     0
 10
0.0
 20
0.0
 30
0.0
  3
SE4
  1

  0
LINE
  5
3DC7
330
3DC5
100
AcDbEntity
  8
Default
  6
Continuous
 62
     7
100
AcDbLine
 10
64.7778035388
 20
160.5929326898
 30
0.0
 11
70.8592133497
 21
160.5929326898
 31
0.0
  0
LINE
  5
3DC8
330
3DC5
100
AcDbEntity
  8
Default
  6
Continuous
 62
     7
100
AcDbLine
 10
46.3039673855
 20
160.5929326898
 30
0.0
 11
64.7778035388
 21
160.5929326898
 31
0.0
  0
LINE
  5
3DC9
330
3DC5
100
AcDbEntity
  8
Default
  6
Continuous
 62
     7
100
AcDbLine
 10
70.8592133497
 20
160.5929326898
 30
0.0
 11
73.2039673855
 21
160.5929326898
 31
0.0
  0
ENDBLK
  5
3DCA
330
3DC5
100
AcDbEntity
  8
0
100
AcDbBlockEnd
  0
BLOCK
  5
3EE7
330
3EE6
100
AcDbEntity
  8
0
100
AcDbBlockBegin
  2
SE5
 70
     0
 10
0.0
 20
0.0
 30
0.0
  3
SE5
  1

  0
LINE
  5
3EE8
330
3EE6
100
AcDbEntity
  8
Default
  6
Continuous
 62
     7
100
AcDbLine
 10
64.7778035388
 20
225.011590921
 30
0.0
 11
70.8592133497
 21
225.011590921
 31
0.0
  0
LINE
  5
3EE9
330
3EE6
100
AcDbEntity
  8
Default
  6
Continuous
 62
     7
100
AcDbLine
 10
46.3039673855
 20
225.011590921
 30
0.0
 11
64.7778035388
 21
225.011590921
 31
0.0
  0
LINE
  5
3EEA
330
3EE6
100
AcDbEntity
  8
Default
  6
Continuous
 62
     7
100
AcDbLine
 10
70.8592133497
 20
225.011590921
 30
0.0
 11
73.2039673855
 21
225.011590921
 31
0.0
  0
ENDBLK
  5
3EEB
330
3EE6
100
AcDbEntity
  8
0
100
AcDbBlockEnd
  0
BLOCK
  5
3F2B
330
3F2A
100
AcDbEntity
  8
0
100
AcDbBlockBegin
  2
SE6
 70
     0
 10
0.0
 20
0.0
 30
0.0
  3
SE6
  1

  0
LINE
  5
3F2C
330
3F2A
100
AcDbEntity
  8
Default
  6
Continuous
 62
     7
100
AcDbLine
 10
64.7778035388
 20
239.011590921
 30
0.0
 11
70.8592133497
 21
239.011590921
 31
0.0
  0
LINE
  5
3F2D
330
3F2A
100
AcDbEntity
  8
Default
  6
Continuous
 62
     7
100
AcDbLine
 10
46.3039673855
 20
239.011590921
 30
0.0
 11
64.7778035388
 21
239.011590921
 31
0.0
  0
LINE
  5
3F2E
330
3F2A
100
AcDbEntity
  8
Default
  6
Continuous
 62
     7
100
AcDbLine
 10
70.8592133497
 20
239.011590921
 30
0.0
 11
73.2039673855
 21
239.011590921
 31
0.0
  0
ENDBLK
  5
3F2F
330
3F2A
100
AcDbEntity
  8
0
100
AcDbBlockEnd
  0
BLOCK
  5
41F8
330
41F7
100
AcDbEntity
  8
0
100
AcDbBlockBegin
  2
*D6
 70
     1
 10
0.0
 20
0.0
 30
0.0
  3
*D6
  1

  0
LINE
  5
41FA
330
41F7
100
AcDbEntity
  8
DIM
 62
     0
370
    -2
100
AcDbLine
 10
293.339238722367
 20
136.833686048293
 30
0.0
 11
293.339238722367
 21
125.3760428067842
 31
0.0
  0
LINE
  5
41FB
330
41F7
100
AcDbEntity
  8
DIM
 62
     0
370
    -2
100
AcDbLine
 10
301.0392387223671
 20
151.2736860482929
 30
0.0
 11
301.0392387223671
 21
125.3760428067842
 31
0.0
  0
LINE
  5
41FC
330
41F7
100
AcDbEntity
  8
DIM
 62
     0
370
    -2
100
AcDbLine
 10
301.0392387223671
 20
125.3760428067842
 30
0.0
 11
316.1175192736924
 21
125.3760428067842
 31
0.0
  0
LINE
  5
41FD
330
41F7
100
AcDbEntity
  8
DIM
 62
     0
370
    -2
100
AcDbLine
 10
295.339238722367
 20
125.3760428067842
 30
0.0
 11
299.0392387223671
 21
125.3760428067842
 31
0.0
  0
LINE
  5
41FE
330
41F7
100
AcDbEntity
  8
DIM
 62
     0
370
    -2
100
AcDbLine
 10
299.0392387223671
 20
125.3760428067842
 30
0.0
 11
297.0392387223671
 21
125.3760428067842
 31
0.0
  0
INSERT
  5
41FF
330
41F7
100
AcDbEntity
  8
DIM
 62
     0
370
    -2
100
AcDbBlockReference
  2
_DOT
 10
293.339238722367
 20
125.3760428067842
 30
0.0
 41
2.0
 42
2.0
 43
2.0
 50
180.0
  0
INSERT
  5
4200
330
41F7
100
AcDbEntity
  8
DIM
 62
     0
370
    -2
100
AcDbBlockReference
  2
_DOT
 10
301.0392387223671
 20
125.3760428067842
 30
0.0
 41
2.0
 42
2.0
 43
2.0
  0
MTEXT
  5
4201
330
41F7
100
AcDbEntity
  8
DIM
 62
     0
100
AcDbMText
 10
311.7975192736924
 20
130.8760428067842
 30
0.0
 40
5.0
 41
0.0
 46
0.0
 71
     5
 72
     1
  1
\A1;8
  7
ＭＳ ゴシック
 73
     1
 44
1.0
  0
POINT
  5
4202
330
41F7
100
AcDbEntity
  8
Defpoints
 62
     0
100
AcDbPoint
 10
293.339238722367
 20
141.833686048293
 30
0.0
  0
POINT
  5
4203
330
41F7
100
AcDbEntity
  8
Defpoints
 62
     0
100
AcDbPoint
 10
301.0392387223671
 20
156.2736860482929
 30
0.0
  0
POINT
  5
4204
330
41F7
100
AcDbEntity
  8
Defpoints
 62
     0
100
AcDbPoint
 10
301.0392387223671
 20
125.3760428067842
 30
0.0
  0
ENDBLK
  5
41F9
330
41F7
100
AcDbEntity
  8
0
100
AcDbBlockEnd
  0
BLOCK
  5
4206
330
4205
100
AcDbEntity
  8
0
100
AcDbBlockBegin
  2
*D7
 70
     1
 10
0.0
 20
0.0
 30
0.0
  3
*D7
  1

  0
LINE
  5
4208
330
4205
100
AcDbEntity
  8
DIM
 62
     0
370
    -2
100
AcDbLine
 10
293.339238722367
 20
136.833686048293
 30
0.0
 11
293.339238722367
 21
111.5038353116162
 31
0.0
  0
LINE
  5
4209
330
4205
100
AcDbEntity
  8
DIM
 62
     0
370
    -2
100
AcDbLine
 10
359.9192387223672
 20
178.1336860482929
 30
0.0
 11
359.9192387223672
 21
111.5038353116162
 31
0.0
  0
LINE
  5
420A
330
4205
100
AcDbEntity
  8
DIM
 62
     0
370
    -2
100
AcDbLine
 10
295.339238722367
 20
111.5038353116162
 30
0.0
 11
357.9192387223672
 21
111.5038353116162
 31
0.0
  0
INSERT
  5
420B
330
4205
100
AcDbEntity
  8
DIM
 62
     0
370
    -2
100
AcDbBlockReference
  2
_DOT
 10
293.339238722367
 20
111.5038353116162
 30
0.0
 41
2.0
 42
2.0
 43
2.0
 50
180.0
  0
INSERT
  5
420C
330
4205
100
AcDbEntity
  8
DIM
 62
     0
370
    -2
100
AcDbBlockReference
  2
_DOT
 10
359.9192387223672
 20
111.5038353116162
 30
0.0
 41
2.0
 42
2.0
 43
2.0
  0
MTEXT
  5
420D
330
4205
100
AcDbEntity
  8
DIM
 62
     0
100
AcDbMText
 10
326.6292374921671
 20
117.0038353116162
 30
0.0
 40
5.0
 41
0.0
 46
0.0
 71
     5
 72
     1
  1
\A1;\A1;67
  7
ＭＳ ゴシック
 73
     1
 44
1.0
  0
POINT
  5
420E
330
4205
100
AcDbEntity
  8
Defpoints
 62
     0
100
AcDbPoint
 10
293.339238722367
 20
141.833686048293
 30
0.0
  0
POINT
  5
420F
330
4205
100
AcDbEntity
  8
Defpoints
 62
     0
100
AcDbPoint
 10
359.9192387223672
 20
183.1336860482929
 30
0.0
  0
POINT
  5
4210
330
4205
100
AcDbEntity
  8
Defpoints
 62
     0
100
AcDbPoint
 10
359.9192387223672
 20
111.5038353116162
 30
0.0
  0
ENDBLK
  5
4207
330
4205
100
AcDbEntity
  8
0
100
AcDbBlockEnd
  0
BLOCK
  5
4213
330
4212
100
AcDbEntity
  8
0
100
AcDbBlockBegin
  2
*D8
 70
     1
 10
0.0
 20
0.0
 30
0.0
  3
*D8
  1

  0
LINE
  5
4215
330
4212
100
AcDbEntity
  8
DIM
 62
     0
370
    -2
100
AcDbLine
 10
293.339238722367
 20
136.833686048293
 30
0.0
 11
293.339238722367
 21
111.5038353116162
 31
0.0
  0
LINE
  5
4216
330
4212
100
AcDbEntity
  8
DIM
 62
     0
370
    -2
100
AcDbLine
 10
188.339238722367
 20
134.2058650470402
 30
0.0
 11
188.339238722367
 21
111.5038353116162
 31
0.0
  0
LINE
  5
4217
330
4212
100
AcDbEntity
  8
DIM
 62
     0
370
    -2
100
AcDbLine
 10
291.339238722367
 20
111.5038353116162
 30
0.0
 11
190.339238722367
 21
111.5038353116162
 31
0.0
  0
INSERT
  5
4218
330
4212
100
AcDbEntity
  8
DIM
 62
     0
370
    -2
100
AcDbBlockReference
  2
_DOT
 10
293.339238722367
 20
111.5038353116162
 30
0.0
 41
2.0
 42
2.0
 43
2.0
  0
INSERT
  5
4219
330
4212
100
AcDbEntity
  8
DIM
 62
     0
370
    -2
100
AcDbBlockReference
  2
_DOT
 10
188.339238722367
 20
111.5038353116162
 30
0.0
 41
2.0
 42
2.0
 43
2.0
 50
180.0
  0
MTEXT
  5
421A
330
4212
100
AcDbEntity
  8
DIM
 62
     0
100
AcDbMText
 10
240.839240361567
 20
117.0038353116162
 30
0.0
 40
5.0
 41
0.0
 46
0.0
 71
     5
 72
     1
  1
\A1;\A1;110-65 {}
  7
ＭＳ ゴシック
 73
     1
 44
1.0
  0
POINT
  5
421B
330
4212
100
AcDbEntity
  8
Defpoints
 62
     0
100
AcDbPoint
 10
293.339238722367
 20
141.833686048293
 30
0.0
  0
POINT
  5
421C
330
4212
100
AcDbEntity
  8
Defpoints
 62
     0
100
AcDbPoint
 10
188.339238722367
 20
139.2058650470402
 30
0.0
  0
POINT
  5
421D
330
4212
100
AcDbEntity
  8
Defpoints
 62
     0
100
AcDbPoint
 10
188.339238722367
 20
111.5038353116162
 30
0.0
  0
ENDBLK
  5
4214
330
4212
100
AcDbEntity
  8
0
100
AcDbBlockEnd
  0
BLOCK
  5
4220
330
421F
100
AcDbEntity
  8
0
100
AcDbBlockBegin
  2
*D9
 70
     1
 10
0.0
 20
0.0
 30
0.0
  3
*D9
  1

  0
LINE
  5
4222
330
421F
100
AcDbEntity
  8
DIM
 62
     0
370
    -2
100
AcDbLine
 10
109.5142274827086
 20
540.828468943816
 30
0.0
 11
144.7942409143943
 21
555.7441577125539
 31
0.0
  0
MTEXT
  5
4223
330
421F
100
AcDbEntity
  8
DIM
 62
     0
100
AcDbMText
 10
129.5871847475389
 20
555.2862628140196
 30
0.0
 40
5.0
 41
0.0
 46
0.0
 71
     5
 72
     1
  1
\A1;\A1;%%C35-%%C40 {}
  7
ＭＳ ゴシック
 11
0.9210653170480444
 21
0.3894081171870786
 31
0.0
 73
     1
 44
1.0
  0
INSERT
  5
4224
330
421F
100
AcDbEntity
  8
DIM
 62
     0
370
    -2
100
AcDbBlockReference
  2
_DOT
 10
107.6720968486125
 20
540.0496527094418
 30
0.0
 41
2.0
 42
2.0
 43
2.0
 50
202.9176757399343
  0
POINT
  5
4225
330
421F
100
AcDbEntity
  8
Defpoints
 62
     0
100
AcDbPoint
 10
107.6720968486125
 20
540.0496527094418
 30
0.0
  0
POINT
  5
4226
330
421F
100
AcDbEntity
  8
Defpoints
 62
     0
100
AcDbPoint
 10
75.43481075190476
 20
526.420368607883
 30
0.0
  0
ENDBLK
  5
4221
330
421F
100
AcDbEntity
  8
0
100
AcDbBlockEnd
  0
BLOCK
  5
422B
330
422A
100
AcDbEntity
  8
0
100
AcDbBlockBegin
  2
*D10
 70
     1
 10
0.0
 20
0.0
 30
0.0
  3
*D10
  1

  0
LINE
  5
422D
330
422A
100
AcDbEntity
  8
DIM
 62
     0
370
    -2
100
AcDbLine
 10
200.978738722367
 20
228.333686048293
 30
0.0
 11
200.978738722367
 21
238.0528176998402
 31
0.0
  0
LINE
  5
422E
330
422A
100
AcDbEntity
  8
DIM
 62
     0
370
    -2
100
AcDbLine
 10
175.699738722367
 20
228.333686048293
 30
0.0
 11
175.699738722367
 21
238.0528176998402
 31
0.0
  0
LINE
  5
422F
330
422A
100
AcDbEntity
  8
DIM
 62
     0
370
    -2
100
AcDbLine
 10
198.978738722367
 20
238.0528176998402
 30
0.0
 11
177.699738722367
 21
238.0528176998402
 31
0.0
  0
INSERT
  5
4230
330
422A
100
AcDbEntity
  8
DIM
 62
     0
370
    -2
100
AcDbBlockReference
  2
_DOT
 10
200.978738722367
 20
238.0528176998402
 30
0.0
 41
2.0
 42
2.0
 43
2.0
  0
INSERT
  5
4231
330
422A
100
AcDbEntity
  8
DIM
 62
     0
370
    -2
100
AcDbBlockReference
  2
_DOT
 10
175.699738722367
 20
238.0528176998402
 30
0.0
 41
2.0
 42
2.0
 43
2.0
 50
180.0
  0
MTEXT
  5
4232
330
422A
100
AcDbEntity
  8
DIM
 62
     0
100
AcDbMText
 10
188.3392387223671
 20
244.0853176998402
 30
0.0
 40
5.0
 41
0.0
 46
0.0
 71
     5
 72
     1
  1
\A1;G3/4"
  7
ＭＳ ゴシック
 73
     1
 44
1.0
  0
POINT
  5
4233
330
422A
100
AcDbEntity
  8
Defpoints
 62
     0
100
AcDbPoint
 10
200.978738722367
 20
223.333686048293
 30
0.0
  0
POINT
  5
4234
330
422A
100
AcDbEntity
  8
Defpoints
 62
     0
100
AcDbPoint
 10
175.699738722367
 20
223.333686048293
 30
0.0
  0
POINT
  5
4235
330
422A
100
AcDbEntity
  8
Defpoints
 62
     0
100
AcDbPoint
 10
175.699738722367
 20
238.0528176998402
 30
0.0
  0
ENDBLK
  5
422C
330
422A
100
AcDbEntity
  8
0
100
AcDbBlockEnd
  0
BLOCK
  5
42B8
330
42B7
100
AcDbEntity
  8
0
100
AcDbBlockBegin
  2
*D11
 70
     1
 10
0.0
 20
0.0
 30
0.0
  3
*D11
  1

  0
LINE
  5
42BA
330
42B7
100
AcDbEntity
  8
DIM
 62
     0
370
    -2
100
AcDbLine
 10
200.978738722367
 20
153.3336860480929
 30
0.0
 11
200.978738722367
 21
139.2058650470402
 31
0.0
  0
LINE
  5
42BB
330
42B7
100
AcDbEntity
  8
DIM
 62
     0
370
    -2
100
AcDbLine
 10
175.699738722367
 20
153.333686048093
 30
0.0
 11
175.699738722367
 21
139.2058650470402
 31
0.0
  0
LINE
  5
42BC
330
42B7
100
AcDbEntity
  8
DIM
 62
     0
370
    -2
100
AcDbLine
 10
198.978738722367
 20
139.2058650470402
 30
0.0
 11
177.699738722367
 21
139.2058650470402
 31
0.0
  0
INSERT
  5
42BD
330
42B7
100
AcDbEntity
  8
DIM
 62
     0
370
    -2
100
AcDbBlockReference
  2
_DOT
 10
200.978738722367
 20
139.2058650470402
 30
0.0
 41
2.0
 42
2.0
 43
2.0
  0
INSERT
  5
42BE
330
42B7
100
AcDbEntity
  8
DIM
 62
     0
370
    -2
100
AcDbBlockReference
  2
_DOT
 10
175.699738722367
 20
139.2058650470402
 30
0.0
 41
2.0
 42
2.0
 43
2.0
 50
180.0
  0
MTEXT
  5
42BF
330
42B7
100
AcDbEntity
  8
DIM
 62
     0
100
AcDbMText
 10
188.339238722367
 20
145.2383650470402
 30
0.0
 40
5.0
 41
0.0
 46
0.0
 71
     5
 72
     1
  1
\A1;G3/4"
  7
ＭＳ ゴシック
 73
     1
 44
1.0
  0
POINT
  5
42C0
330
42B7
100
AcDbEntity
  8
Defpoints
 62
     0
100
AcDbPoint
 10
200.978738722367
 20
158.3336860480929
 30
0.0
  0
POINT
  5
42C1
330
42B7
100
AcDbEntity
  8
Defpoints
 62
     0
100
AcDbPoint
 10
175.699738722367
 20
158.333686048093
 30
0.0
  0
POINT
  5
42C2
330
42B7
100
AcDbEntity
  8
Defpoints
 62
     0
100
AcDbPoint
 10
175.699738722367
 20
139.2058650470402
 30
0.0
  0
ENDBLK
  5
42B9
330
42B7
100
AcDbEntity
  8
0
100
AcDbBlockEnd
  0
BLOCK
  5
43A3
330
43A2
100
AcDbEntity
  8
0
100
AcDbBlockBegin
  2
*D12
 70
     1
 10
0.0
 20
0.0
 30
0.0
  3
*D12
  1
*D141
  0
LINE
  5
43A4
330
43A2
100
AcDbEntity
  8
DIM
 62
     0
 48
0.05
370
    -2
100
AcDbLine
 10
91.36048196704013
 20
135.2073979703344
 30
0.0
 11
79.71650651203771
 21
135.2073979703344
 31
0.0
  0
LINE
  5
43A5
330
43A2
100
AcDbEntity
  8
DIM
 62
     0
 48
0.05
370
    -2
100
AcDbLine
 10
91.36048196704013
 20
60.2073979703344
 30
0.0
 11
79.71650651203771
 21
60.2073979703344
 31
0.0
  0
LINE
  5
43A6
330
43A2
100
AcDbEntity
  8
DIM
 62
     0
 48
0.05
370
    -2
100
AcDbLine
 10
79.71650651203771
 20
133.2073979703344
 30
0.0
 11
79.71650651203771
 21
62.2073979703344
 31
0.0
  0
INSERT
  5
43A7
330
43A2
100
AcDbEntity
  8
DIM
 62
     0
370
    -2
100
AcDbBlockReference
  2
_DOT
 10
79.71650651203771
 20
135.2073979703344
 30
0.0
 41
2.0
 42
2.0
 43
2.0
 50
90.0
  0
INSERT
  5
43A8
330
43A2
100
AcDbEntity
  8
DIM
 62
     0
370
    -2
100
AcDbBlockReference
  2
_DOT
 10
79.71650651203771
 20
60.2073979703344
 30
0.0
 41
2.0
 42
2.0
 43
2.0
 50
270.0
  0
MTEXT
  5
43A9
330
43A2
100
AcDbEntity
  8
DIM
 62
     0
100
AcDbMText
 10
74.21650651203771
 20
97.7073979703344
 30
0.0
 40
5.0
 41
0.0
 46
0.0
 71
     5
 72
     1
  1
\A1;75
  7
ＭＳ ゴシック
 11
0.0
 21
1.0
 31
0.0
 73
     1
 44
1.0
  0
POINT
  5
43AA
330
43A2
100
AcDbEntity
  8
Defpoints
 62
     0
100
AcDbPoint
 10
96.36048196704013
 20
135.2073979703344
 30
0.0
  0
POINT
  5
43AB
330
43A2
100
AcDbEntity
  8
Defpoints
 62
     0
100
AcDbPoint
 10
96.36048196704013
 20
60.2073979703344
 30
0.0
  0
POINT
  5
43AC
330
43A2
100
AcDbEntity
  8
Defpoints
 62
     0
100
AcDbPoint
 10
79.71650651203771
 20
60.2073979703344
 30
0.0
  0
ENDBLK
  5
43AD
330
43A2
100
AcDbEntity
  8
0
100
AcDbBlockEnd
  0
BLOCK
  5
43B1
330
43B0
100
AcDbEntity
  8
0
100
AcDbBlockBegin
  2
*D13
 70
     1
 10
0.0
 20
0.0
 30
0.0
  3
*D13
  1
*D14
  0
LINE
  5
43B2
330
43B0
100
AcDbEntity
  8
DIM
 62
     0
 48
0.05
370
    -2
100
AcDbLine
 10
99.16045205582012
 20
55.27417982162231
 30
0.0
 11
99.16045205582012
 21
38.4602969071004
 31
0.0
  0
LINE
  5
43B3
330
43B0
100
AcDbEntity
  8
DIM
 62
     0
 48
0.05
370
    -2
100
AcDbLine
 10
125.56051187826
 20
55.27417982162231
 30
0.0
 11
125.56051187826
 21
38.4602969071004
 31
0.0
  0
LINE
  5
43B4
330
43B0
100
AcDbEntity
  8
DIM
 62
     0
 48
0.05
370
    -2
100
AcDbLine
 10
101.1604520558201
 20
38.4602969071004
 30
0.0
 11
123.56051187826
 21
38.4602969071004
 31
0.0
  0
INSERT
  5
43B5
330
43B0
100
AcDbEntity
  8
DIM
 62
     0
370
    -2
100
AcDbBlockReference
  2
_DOT
 10
99.16045205582012
 20
38.4602969071004
 30
0.0
 41
2.0
 42
2.0
 43
2.0
 50
180.0
  0
INSERT
  5
43B6
330
43B0
100
AcDbEntity
  8
DIM
 62
     0
370
    -2
100
AcDbBlockReference
  2
_DOT
 10
125.56051187826
 20
38.4602969071004
 30
0.0
 41
2.0
 42
2.0
 43
2.0
  0
MTEXT
  5
43B7
330
43B0
100
AcDbEntity
  8
DIM
 62
     0
100
AcDbMText
 10
112.3604016658874
 20
44.4927969071004
 30
0.0
 40
5.0
 41
0.0
 46
0.0
 71
     5
 72
     1
  1
\A1;G3/4"
  7
ＭＳ ゴシック
 73
     1
 44
1.0
  0
POINT
  5
43B8
330
43B0
100
AcDbEntity
  8
Defpoints
 62
     0
100
AcDbPoint
 10
99.16045205582012
 20
60.27417982162231
 30
0.0
  0
POINT
  5
43B9
330
43B0
100
AcDbEntity
  8
Defpoints
 62
     0
100
AcDbPoint
 10
125.56051187826
 20
60.27417982162231
 30
0.0
  0
POINT
  5
43BA
330
43B0
100
AcDbEntity
  8
Defpoints
 62
     0
100
AcDbPoint
 10
125.56051187826
 20
38.4602969071004
 30
0.0
  0
ENDBLK
  5
43BB
330
43B0
100
AcDbEntity
  8
0
100
AcDbBlockEnd
  0
BLOCK
  5
43C1
330
43C0
100
AcDbEntity
  8
0
100
AcDbBlockBegin
  2
*D14
 70
     1
 10
0.0
 20
0.0
 30
0.0
  3
*D14
  1
*D15
  0
LINE
  5
43C2
330
43C0
100
AcDbEntity
  8
DIM
 62
     0
 48
0.05
370
    -2
100
AcDbLine
 10
188.9003467096402
 20
18.7073979703344
 30
0.0
 11
188.9003467096402
 21
0.5
 31
0.0
  0
LINE
  5
43C3
330
43C0
100
AcDbEntity
  8
DIM
 62
     0
 48
0.05
370
    -2
100
AcDbLine
 10
112.3604016658874
 20
33.4602969071004
 30
0.0
 11
112.3604016658874
 21
0.5
 31
0.0
  0
LINE
  5
43C4
330
43C0
100
AcDbEntity
  8
DIM
 62
     0
 48
0.05
370
    -2
100
AcDbLine
 10
186.9003467096402
 20
0.5
 30
0.0
 11
114.3604016658874
 21
0.5
 31
0.0
  0
INSERT
  5
43C5
330
43C0
100
AcDbEntity
  8
DIM
 62
     0
370
    -2
100
AcDbBlockReference
  2
_DOT
 10
188.9003467096402
 20
0.5
 30
0.0
 41
2.0
 42
2.0
 43
2.0
  0
INSERT
  5
43C6
330
43C0
100
AcDbEntity
  8
DIM
 62
     0
370
    -2
100
AcDbBlockReference
  2
_DOT
 10
112.3604016658874
 20
0.5
 30
0.0
 41
2.0
 42
2.0
 43
2.0
 50
180.0
  0
MTEXT
  5
43C7
330
43C0
100
AcDbEntity
  8
DIM
 62
     0
100
AcDbMText
 10
150.6303741877638
 20
6.0
 30
0.0
 40
5.0
 41
0.0
 46
0.0
 71
     5
 72
     1
  1
\A1;67-112
  7
ＭＳ ゴシック
 73
     1
 44
1.0
  0
POINT
  5
43C8
330
43C0
100
AcDbEntity
  8
Defpoints
 62
     0
100
AcDbPoint
 10
188.9003467096402
 20
23.7073979703344
 30
0.0
  0
POINT
  5
43C9
330
43C0
100
AcDbEntity
  8
Defpoints
 62
     0
100
AcDbPoint
 10
112.3604016658874
 20
38.4602969071004
 30
0.0
  0
POINT
  5
43CA
330
43C0
100
AcDbEntity
  8
Defpoints
 62
     0
100
AcDbPoint
 10
112.3604016658874
 20
0.5
 30
0.0
  0
ENDBLK
  5
43CB
330
43C0
100
AcDbEntity
  8
0
100
AcDbBlockEnd
  0
BLOCK
  5
43D1
330
43D0
100
AcDbEntity
  8
0
100
AcDbBlockBegin
  2
*D15
 70
     1
 10
0.0
 20
0.0
 30
0.0
  3
*D15
  1
*D16
  0
LINE
  5
43D2
330
43D0
100
AcDbEntity
  8
DIM
 62
     0
 48
0.05
370
    -2
100
AcDbLine
 10
99.16045205582012
 20
140.1406161190465
 30
0.0
 11
99.16045205582012
 21
149.590860868268
 31
0.0
  0
LINE
  5
43D3
330
43D0
100
AcDbEntity
  8
DIM
 62
     0
 48
0.05
370
    -2
100
AcDbLine
 10
125.56051187826
 20
140.1406161190465
 30
0.0
 11
125.56051187826
 21
149.590860868268
 31
0.0
  0
LINE
  5
43D4
330
43D0
100
AcDbEntity
  8
DIM
 62
     0
 48
0.05
370
    -2
100
AcDbLine
 10
101.1604520558201
 20
149.590860868268
 30
0.0
 11
123.56051187826
 21
149.590860868268
 31
0.0
  0
INSERT
  5
43D5
330
43D0
100
AcDbEntity
  8
DIM
 62
     0
370
    -2
100
AcDbBlockReference
  2
_DOT
 10
99.16045205582012
 20
149.590860868268
 30
0.0
 41
2.0
 42
2.0
 43
2.0
 50
180.0
  0
INSERT
  5
43D6
330
43D0
100
AcDbEntity
  8
DIM
 62
     0
370
    -2
100
AcDbBlockReference
  2
_DOT
 10
125.56051187826
 20
149.590860868268
 30
0.0
 41
2.0
 42
2.0
 43
2.0
  0
MTEXT
  5
43D7
330
43D0
100
AcDbEntity
  8
DIM
 62
     0
100
AcDbMText
 10
112.3604016658874
 20
155.623360868268
 30
0.0
 40
5.0
 41
0.0
 46
0.0
 71
     5
 72
     1
  1
\A1;G3/4"
  7
ＭＳ ゴシック
 73
     1
 44
1.0
  0
POINT
  5
43D8
330
43D0
100
AcDbEntity
  8
Defpoints
 62
     0
100
AcDbPoint
 10
99.16045205582012
 20
135.1406161190465
 30
0.0
  0
POINT
  5
43D9
330
43D0
100
AcDbEntity
  8
Defpoints
 62
     0
100
AcDbPoint
 10
125.56051187826
 20
135.1406161190465
 30
0.0
  0
POINT
  5
43DA
330
43D0
100
AcDbEntity
  8
Defpoints
 62
     0
100
AcDbPoint
 10
125.56051187826
 20
149.590860868268
 30
0.0
  0
ENDBLK
  5
43DB
330
43D0
100
AcDbEntity
  8
0
100
AcDbBlockEnd
  0
BLOCK
  5
448E
330
448D
100
AcDbEntity
  8
0
100
AcDbBlockBegin
  2
*D16
 70
     1
 10
0.0
 20
0.0
 30
0.0
  3
*D16
  1

  0
LINE
  5
4490
330
448D
100
AcDbEntity
  8
DIM
 62
     0
 48
0.05
370
    -2
100
AcDbLine
 10
196.5995832763672
 20
228.3336860481928
 30
0.0
 11
184.9556078213648
 21
228.3336860481928
 31
0.0
  0
LINE
  5
4491
330
448D
100
AcDbEntity
  8
DIM
 62
     0
 48
0.05
370
    -2
100
AcDbLine
 10
196.5995832763672
 20
153.3336860481928
 30
0.0
 11
184.9556078213648
 21
153.3336860481928
 31
0.0
  0
LINE
  5
4492
330
448D
100
AcDbEntity
  8
DIM
 62
     0
 48
0.05
370
    -2
100
AcDbLine
 10
184.9556078213648
 20
226.3336860481928
 30
0.0
 11
184.9556078213648
 21
155.3336860481928
 31
0.0
  0
INSERT
  5
4493
330
448D
100
AcDbEntity
  8
DIM
 62
     0
370
    -2
100
AcDbBlockReference
  2
_DOT
 10
184.9556078213648
 20
228.3336860481928
 30
0.0
 41
2.0
 42
2.0
 43
2.0
 50
90.0
  0
INSERT
  5
4494
330
448D
100
AcDbEntity
  8
DIM
 62
     0
370
    -2
100
AcDbBlockReference
  2
_DOT
 10
184.9556078213648
 20
153.3336860481928
 30
0.0
 41
2.0
 42
2.0
 43
2.0
 50
270.0
  0
MTEXT
  5
4495
330
448D
100
AcDbEntity
  8
DIM
 62
     0
100
AcDbMText
 10
179.4556078213648
 20
190.8336860481928
 30
0.0
 40
5.0
 41
0.0
 46
0.0
 71
     5
 72
     1
  1
\A1;75
  7
ＭＳ ゴシック
 11
0.0
 21
1.0
 31
0.0
 73
     1
 44
1.0
  0
POINT
  5
4496
330
448D
100
AcDbEntity
  8
Defpoints
 62
     0
100
AcDbPoint
 10
201.5995832763672
 20
228.3336860481928
 30
0.0
  0
POINT
  5
4497
330
448D
100
AcDbEntity
  8
Defpoints
 62
     0
100
AcDbPoint
 10
201.5995832763672
 20
153.3336860481928
 30
0.0
  0
POINT
  5
4498
330
448D
100
AcDbEntity
  8
Defpoints
 62
     0
100
AcDbPoint
 10
184.9556078213648
 20
153.3336860481928
 30
0.0
  0
ENDBLK
  5
448F
330
448D
100
AcDbEntity
  8
0
100
AcDbBlockEnd
  0
BLOCK
  5
449A
330
4499
100
AcDbEntity
  8
0
100
AcDbBlockBegin
  2
*D17
 70
     1
 10
0.0
 20
0.0
 30
0.0
  3
*D17
  1

  0
LINE
  5
449C
330
4499
100
AcDbEntity
  8
DIM
 62
     0
 48
0.05
370
    -2
100
AcDbLine
 10
204.3995533651473
 20
148.4004678994807
 30
0.0
 11
204.3995533651473
 21
131.5865849849588
 31
0.0
  0
LINE
  5
449D
330
4499
100
AcDbEntity
  8
DIM
 62
     0
 48
0.05
370
    -2
100
AcDbLine
 10
230.7996131875872
 20
148.4004678994807
 30
0.0
 11
230.7996131875872
 21
131.5865849849588
 31
0.0
  0
LINE
  5
449E
330
4499
100
AcDbEntity
  8
DIM
 62
     0
 48
0.05
370
    -2
100
AcDbLine
 10
206.3995533651473
 20
131.5865849849588
 30
0.0
 11
228.7996131875872
 21
131.5865849849588
 31
0.0
  0
INSERT
  5
449F
330
4499
100
AcDbEntity
  8
DIM
 62
     0
370
    -2
100
AcDbBlockReference
  2
_DOT
 10
204.3995533651473
 20
131.5865849849588
 30
0.0
 41
2.0
 42
2.0
 43
2.0
 50
180.0
  0
INSERT
  5
44A0
330
4499
100
AcDbEntity
  8
DIM
 62
     0
370
    -2
100
AcDbBlockReference
  2
_DOT
 10
230.7996131875872
 20
131.5865849849588
 30
0.0
 41
2.0
 42
2.0
 43
2.0
  0
MTEXT
  5
44A1
330
4499
100
AcDbEntity
  8
DIM
 62
     0
100
AcDbMText
 10
217.5995029752146
 20
137.6190849849588
 30
0.0
 40
5.0
 41
0.0
 46
0.0
 71
     5
 72
     1
  1
\A1;G3/4"
  7
ＭＳ ゴシック
 73
     1
 44
1.0
  0
POINT
  5
44A2
330
4499
100
AcDbEntity
  8
Defpoints
 62
     0
100
AcDbPoint
 10
204.3995533651473
 20
153.4004678994807
 30
0.0
  0
POINT
  5
44A3
330
4499
100
AcDbEntity
  8
Defpoints
 62
     0
100
AcDbPoint
 10
230.7996131875872
 20
153.4004678994807
 30
0.0
  0
POINT
  5
44A4
330
4499
100
AcDbEntity
  8
Defpoints
 62
     0
100
AcDbPoint
 10
230.7996131875872
 20
131.5865849849588
 30
0.0
  0
ENDBLK
  5
449B
330
4499
100
AcDbEntity
  8
0
100
AcDbBlockEnd
  0
BLOCK
  5
44A6
330
44A5
100
AcDbEntity
  8
0
100
AcDbBlockBegin
  2
*D18
 70
     1
 10
0.0
 20
0.0
 30
0.0
  3
*D18
  1

  0
LINE
  5
44A8
330
44A5
100
AcDbEntity
  8
DIM
 62
     0
 48
0.05
370
    -2
100
AcDbLine
 10
293.339238722367
 20
111.8336860481928
 30
0.0
 11
293.339238722367
 21
111.5038353116162
 31
0.0
  0
LINE
  5
44A9
330
44A5
100
AcDbEntity
  8
DIM
 62
     0
 48
0.05
370
    -2
100
AcDbLine
 10
217.5995029752146
 20
126.5865849849588
 30
0.0
 11
217.5995029752146
 21
111.5038353116162
 31
0.0
  0
LINE
  5
44AA
330
44A5
100
AcDbEntity
  8
DIM
 62
     0
 48
0.05
370
    -2
100
AcDbLine
 10
291.339238722367
 20
111.5038353116162
 30
0.0
 11
219.5995029752146
 21
111.5038353116162
 31
0.0
  0
INSERT
  5
44AB
330
44A5
100
AcDbEntity
  8
DIM
 62
     0
370
    -2
100
AcDbBlockReference
  2
_DOT
 10
293.339238722367
 20
111.5038353116162
 30
0.0
 41
2.0
 42
2.0
 43
2.0
  0
INSERT
  5
44AC
330
44A5
100
AcDbEntity
  8
DIM
 62
     0
370
    -2
100
AcDbBlockReference
  2
_DOT
 10
217.5995029752146
 20
111.5038353116162
 30
0.0
 41
2.0
 42
2.0
 43
2.0
 50
180.0
  0
MTEXT
  5
44AD
330
44A5
100
AcDbEntity
  8
DIM
 62
     0
100
AcDbMText
 10
255.4693708487908
 20
117.0038353116162
 30
0.0
 40
5.0
 41
0.0
 46
0.0
 71
     5
 72
     1
  1
\A1;67-112
  7
ＭＳ ゴシック
 73
     1
 44
1.0
  0
POINT
  5
44AE
330
44A5
100
AcDbEntity
  8
Defpoints
 62
     0
100
AcDbPoint
 10
293.339238722367
 20
116.8336860481928
 30
0.0
  0
POINT
  5
44AF
330
44A5
100
AcDbEntity
  8
Defpoints
 62
     0
100
AcDbPoint
 10
217.5995029752146
 20
131.5865849849588
 30
0.0
  0
POINT
  5
44B0
330
44A5
100
AcDbEntity
  8
Defpoints
 62
     0
100
AcDbPoint
 10
217.5995029752146
 20
111.5038353116162
 30
0.0
  0
ENDBLK
  5
44A7
330
44A5
100
AcDbEntity
  8
0
100
AcDbBlockEnd
  0
BLOCK
  5
44B2
330
44B1
100
AcDbEntity
  8
0
100
AcDbBlockBegin
  2
*D19
 70
     1
 10
0.0
 20
0.0
 30
0.0
  3
*D19
  1

  0
LINE
  5
44B4
330
44B1
100
AcDbEntity
  8
DIM
 62
     0
 48
0.05
370
    -2
100
AcDbLine
 10
204.3995533651473
 20
233.2669041969049
 30
0.0
 11
204.3995533651473
 21
242.7171489461264
 31
0.0
  0
LINE
  5
44B5
330
44B1
100
AcDbEntity
  8
DIM
 62
     0
 48
0.05
370
    -2
100
AcDbLine
 10
230.7996131875872
 20
233.2669041969049
 30
0.0
 11
230.7996131875872
 21
242.7171489461264
 31
0.0
  0
LINE
  5
44B6
330
44B1
100
AcDbEntity
  8
DIM
 62
     0
 48
0.05
370
    -2
100
AcDbLine
 10
206.3995533651473
 20
242.7171489461264
 30
0.0
 11
228.7996131875872
 21
242.7171489461264
 31
0.0
  0
INSERT
  5
44B7
330
44B1
100
AcDbEntity
  8
DIM
 62
     0
370
    -2
100
AcDbBlockReference
  2
_DOT
 10
204.3995533651473
 20
242.7171489461264
 30
0.0
 41
2.0
 42
2.0
 43
2.0
 50
180.0
  0
INSERT
  5
44B8
330
44B1
100
AcDbEntity
  8
DIM
 62
     0
370
    -2
100
AcDbBlockReference
  2
_DOT
 10
230.7996131875872
 20
242.7171489461264
 30
0.0
 41
2.0
 42
2.0
 43
2.0
  0
MTEXT
  5
44B9
330
44B1
100
AcDbEntity
  8
DIM
 62
     0
100
AcDbMText
 10
217.5995029752146
 20
248.7496489461264
 30
0.0
 40
5.0
 41
0.0
 46
0.0
 71
     5
 72
     1
  1
\A1;G3/4"
  7
ＭＳ ゴシック
 73
     1
 44
1.0
  0
POINT
  5
44BA
330
44B1
100
AcDbEntity
  8
Defpoints
 62
     0
100
AcDbPoint
 10
204.3995533651473
 20
228.2669041969049
 30
0.0
  0
POINT
  5
44BB
330
44B1
100
AcDbEntity
  8
Defpoints
 62
     0
100
AcDbPoint
 10
230.7996131875872
 20
228.2669041969049
 30
0.0
  0
POINT
  5
44BC
330
44B1
100
AcDbEntity
  8
Defpoints
 62
     0
100
AcDbPoint
 10
230.7996131875872
 20
242.7171489461264
 30
0.0
  0
ENDBLK
  5
44B3
330
44B1
100
AcDbEntity
  8
0
100
AcDbBlockEnd
  0
ENDSEC
  0
SECTION
  2
ENTITIES
  0
MTEXT
  5
177
330
A
100
AcDbEntity
  8
TEMPLATE
390
1D
100
AcDbMText
 10
15.84042890954615
 20
68.74635032628565
 30
0.0
 40
3.257682291666665
 41
0.0
 46
0.0
 71
     1
 72
     1
  1
品名
  7
ＭＳ ゴシック
 73
     1
 44
0.7828267384257843
  0
MTEXT
  5
178
330
A
100
AcDbEntity
  8
TEMPLATE
390
1D
100
AcDbMText
 10
15.84042890954615
 20
51.7463503262856
 30
0.0
 40
3.257682291666665
 41
0.0
 46
0.0
 71
     1
 72
     1
  1
仕様
  7
ＭＳ ゴシック
 73
     1
 44
0.7828267384257843
  0
LINE
  5
179
330
A
100
AcDbEntity
  8
TEMPLATE
390
1D
100
AcDbLine
 10
404.4404289094496
 20
53.42933470128568
 30
0.0
 11
14.44042890944975
 21
53.42933470128568
 31
0.0
  0
LWPOLYLINE
  5
17A
330
A
100
AcDbEntity
  8
TEMPLATE
390
1D
100
AcDbPolyline
 90
        5
 70
   128
 43
0.0
 10
404.4404289094496
 20
579.4293347012853
 10
14.44042890944975
 20
579.4293347012853
 10
14.44042890944975
 20
19.42933470128565
 10
404.4404289094496
 20
19.42933470128565
 10
404.4404289094496
 20
579.4293347012853
  0
LINE
  5
17B
330
A
100
AcDbEntity
  8
TEMPLATE
390
1D
100
AcDbLine
 10
404.4404289094496
 20
70.42933470128564
 30
0.0
 11
14.44042890944975
 21
70.42933470128564
 31
0.0
  0
LINE
  5
17C
330
A
100
AcDbEntity
  8
TEMPLATE
390
1D
100
AcDbLine
 10
404.4404289095464
 20
36.42933470128565
 30
0.0
 11
253.840428909546
 21
36.42933470128565
 31
0.0
  0
MTEXT
  5
17E
330
A
100
AcDbEntity
  8
TEMPLATE
390
1D
100
AcDbMText
 10
259.8147101599982
 20
30.44725580662403
 30
0.0
 40
4.8865234375
 41
0.0
 46
0.0
 71
     1
 72
     1
  1
大洋金物株式会社 ティーフォルム事業部
  7
ＭＳ ゴシック
 73
     1
 44
0.7828267384257843
  0
MTEXT
  5
180
330
A
100
AcDbEntity
  8
TEMPLATE
390
1D
100
AcDbMText
 10
366.240428909598
 20
46.02985813878564
 30
0.0
 40
4.8865234375
 41
0.0
 46
4.8865234375
 71
     1
 72
     1
  1
{1:2}
  7
ＭＳ ゴシック
 73
     1
 44
0.7828267384257843
1001
ACAD
1000
ACAD_MTEXT_DEFINED_HEIGHT_BEGIN
1070
    46
1040
4.8865234375
1000
ACAD_MTEXT_DEFINED_HEIGHT_END
  0
MTEXT
  5
181
330
A
100
AcDbEntity
  8
TEMPLATE
390
1D
100
AcDbMText
 10
355.640428909598
 20
51.7463503262856
 30
0.0
 40
3.257682291666665
 41
0.0
 46
0.0
 71
     1
 72
     1
  1
縮尺
  7
ＭＳ ゴシック
 73
     1
 44
0.7828267384257843
  0
LINE
  5
182
330
A
100
AcDbEntity
  8
TEMPLATE
390
1D
100
AcDbLine
 10
354.240428909598
 20
36.42933470128565
 30
0.0
 11
354.240428909598
 21
53.42933470128568
 31
0.0
  0
MTEXT
  5
183
330
A
100
AcDbEntity
  8
TEMPLATE
390
1D
100
AcDbMText
 10
305.440428909598
 20
51.7463503262856
 30
0.0
 40
3.257682291666665
 41
0.0
 46
0.0
 71
     1
 72
     1
  1
容量
  7
ＭＳ ゴシック
 73
     1
 44
0.7828267384257843
  0
LINE
  5
184
330
A
100
AcDbEntity
  8
TEMPLATE
390
1D
100
AcDbLine
 10
304.040428909598
 20
36.42933470128565
 30
0.0
 11
304.040428909598
 21
53.42933470128568
 31
0.0
  0
MTEXT
  5
185
330
A
100
AcDbEntity
  8
TEMPLATE
390
1D
100
AcDbMText
 10
255.240428909598
 20
68.74635032628565
 30
0.0
 40
3.257682291666665
 41
0.0
 46
0.0
 71
     1
 72
     1
  1
品番
  7
ＭＳ ゴシック
 73
     1
 44
0.7828267384257843
  0
MTEXT
  5
186
330
A
100
AcDbEntity
  8
TEMPLATE
390
1D
100
AcDbMText
 10
255.240428909598
 20
51.7463503262856
 30
0.0
 40
3.257682291666665
 41
0.0
 46
0.0
 71
     1
 72
     1
  1
重量
  7
ＭＳ ゴシック
 73
     1
 44
0.7828267384257843
  0
MTEXT
  5
187
330
A
100
AcDbEntity
  8
TEMPLATE
390
1D
100
AcDbMText
 10
265.840428909598
 20
63.02985813878564
 30
0.0
 40
4.8865234375
 41
0.0
 46
4.8865234375
 71
     1
 72
     1
  1
{FHT73-5108}
  7
ＭＳ ゴシック
 73
     1
 44
0.7828267384257843
1001
ACAD
1000
ACAD_MTEXT_DEFINED_HEIGHT_BEGIN
1070
    46
1040
4.8865234375
1000
ACAD_MTEXT_DEFINED_HEIGHT_END
  0
LINE
  5
188
330
A
100
AcDbEntity
  8
TEMPLATE
390
1D
100
AcDbLine
 10
253.840428909598
 20
19.42933470128565
 30
0.0
 11
253.840428909598
 21
70.42933470128564
 31
0.0
  0
MTEXT
  5
189
330
A
100
AcDbEntity
  8
TEMPLATE
390
1D
100
AcDbMText
 10
26.44042890954615
 20
63.02985813878564
 30
0.0
 40
4.8865234375
 41
0.0
 46
5.5071119140625
 71
     1
 72
     1
  1
{埋込ストップバルブ　-GROHE, New Atrio-}
  7
ＭＳ ゴシック
 73
     1
 44
0.7828267384257843
1001
ACAD
1000
ACAD_MTEXT_DEFINED_HEIGHT_BEGIN
1070
    46
1040
5.5071119140625
1000
ACAD_MTEXT_DEFINED_HEIGHT_END
  0
INSERT
  5
68C
330
A
100
AcDbEntity
  8
TEMPLATE
100
AcDbBlockReference
  2
block 2
 10
367.7097207081031
 20
3.349230605734547
 30
0.0
 41
0.1524
 42
0.1524
 43
0.1524
  0
LWPOLYLINE
  5
D69
330
A
100
AcDbEntity
  8
BORDER
100
AcDbPolyline
 90
        4
 70
     1
 43
0.0
 10
0.0
 20
0.0
 10
0.0
 20
594.0
 10
420.0
 20
594.0
 10
420.0
 20
0.0
  0
INSERT
  5
1343
330
A
100
AcDbEntity
  8
TEMPLATE
100
AcDbBlockReference
  2
block 2
 10
838.6973883465873
 20
9.774128564918277
 30
0.0
 41
0.1524
 42
0.1524
 43
0.1524
  0
HATCH
  5
3C64
102
{ACAD_REACTORS
330
3C75
102
}
330
A
100
AcDbEntity
  8
TEMPLATE
100
AcDbHatch
 10
0.0
 20
0.0
 30
0.0
210
0.0
220
0.0
230
1.0
  2
SOLID
 70
     1
 71
     1
 91
        6
 92
        1
 93
        8
 72
     1
 10
386.9584116981973
 20
30.78695932253559
 11
386.9584116981973
 21
29.60507779640349
 72
     1
 10
386.9584116981973
 20
29.60507779640349
 11
385.086293388135
 21
29.60507779640349
 72
     1
 10
385.086293388135
 20
29.60507779640349
 11
385.086293388135
 21
24.78695932282479
 72
     1
 10
385.086293388135
 20
24.78695932282479
 11
383.4397707574798
 21
24.78695932282479
 72
     1
 10
383.4397707574798
 20
24.78695932282479
 11
383.4397707574798
 21
29.60507779640349
 72
     1
 10
383.4397707574798
 20
29.60507779640349
 11
381.6008304705712
 21
29.60507779640349
 72
     1
 10
381.6008304705712
 20
29.60507779640349
 11
381.6008304705712
 21
30.78695932253559
 72
     1
 10
381.6008304705712
 20
30.78695932253559
 11
386.9584116981973
 21
30.78695932253559
 97
        1
330
3C65
 92
        1
 93
        1
 72
     4
 94
        3
 73
     0
 74
     1
 95
       56
 96
       52
 40
0.0
 40
0.0
 40
0.0
 40
0.0
 40
1.0
 40
1.0
 40
1.0
 40
2.0
 40
2.0
 40
2.0
 40
3.0
 40
3.0
 40
3.0
 40
4.0
 40
4.0
 40
4.0
 40
5.0
 40
5.0
 40
5.0
 40
6.0
 40
6.0
 40
6.0
 40
7.0
 40
7.0
 40
7.0
 40
8.0
 40
8.0
 40
8.0
 40
9.0
 40
9.0
 40
9.0
 40
10.0
 40
10.0
 40
10.0
 40
11.0
 40
11.0
 40
11.0
 40
12.0
 40
12.0
 40
12.0
 40
13.0
 40
13.0
 40
13.0
 40
14.0
 40
14.0
 40
14.0
 40
15.0
 40
15.0
 40
15.0
 40
16.0
 40
16.0
 40
16.0
 40
17.0
 40
17.0
 40
17.0
 40
17.0
 10
389.4668487850558
 20
30.64408553045313
 10
389.6976220214394
 20
30.70904304125516
 10
389.9955398401064
 20
30.65470844907718
 10
389.9955398401064
 20
30.65470844907718
 10
389.9955398401064
 20
30.65470844907718
 10
389.85241312139
 20
30.22519439059248
 10
389.85241312139
 20
30.22519439059248
 10
389.85241312139
 20
30.22519439059248
 10
389.5599406643706
 20
30.29287458221835
 10
389.3343598630008
 20
30.1149927683958
 10
389.1590668276665
 20
29.97588311974736
 10
389.0455027690426
 20
29.60625316134929
 10
389.0019398758616
 20
29.46571522112114
 10
389.0019398758616
 20
29.46571522112114
 10
388.8077219770962
 20
28.86958202304137
 10
388.8077219770962
 20
28.86958202304137
 10
388.8077219770962
 20
28.86958202304137
 10
389.4445466071603
 20
28.86958202304137
 10
389.4445466071603
 20
28.86958202304137
 10
389.4445466071603
 20
28.86958202304137
 10
389.34550351293
 20
28.49438767869736
 10
389.34550351293
 20
28.49438767869736
 10
389.34550351293
 20
28.49438767869736
 10
388.7034864478522
 20
28.49438767869736
 10
388.7034864478522
 20
28.49438767869736
 10
388.7034864478522
 20
28.49438767869736
 10
387.5547978229109
 20
24.78695932282479
 10
387.5547978229109
 20
24.78695932282479
 10
387.5547978229109
 20
24.78695932282479
 10
387.1951510275336
 20
24.78695932282479
 10
387.1951510275336
 20
24.78695932282479
 10
387.1951510275336
 20
24.78695932282479
 10
388.3448811150849
 20
28.49438767869736
 10
388.3448811150849
 20
28.49438767869736
 10
388.3448811150849
 20
28.49438767869736
 10
387.8711346517413
 20
28.49438767869736
 10
387.8711346517413
 20
28.49438767869736
 10
387.8711346517413
 20
28.49438767869736
 10
387.9704455506427
 20
28.86958202304137
 10
387.9704455506427
 20
28.86958202304137
 10
387.9704455506427
 20
28.86958202304137
 10
388.4491166443289
 20
28.86958202304137
 10
388.4491166443289
 20
28.86958202304137
 10
388.4491166443289
 20
28.86958202304137
 10
388.6184287086733
 20
29.38948015805433
 10
388.6184287086733
 20
29.38948015805433
 10
388.7553364078029
 20
29.82536201649855
 10
388.8715041229524
 20
30.059378665011
 10
388.971082826525
 20
30.23581730921654
 10
389.0696051894502
 20
30.41240473379499
 10
389.2645967461546
 20
30.58586777054282
 10
389.4668487850558
 20
30.64408553045313
 97
        1
330
3C70
 92
        1
 93
        1
 72
     4
 94
        3
 73
     0
 74
     1
 95
       32
 96
       28
 40
0.0
 40
0.0
 40
0.0
 40
0.0
 40
1.0
 40
1.0
 40
1.0
 40
2.0
 40
2.0
 40
2.0
 40
3.0
 40
3.0
 40
3.0
 40
4.0
 40
4.0
 40
4.0
 40
5.0
 40
5.0
 40
5.0
 40
6.0
 40
6.0
 40
6.0
 40
7.0
 40
7.0
 40
7.0
 40
8.0
 40
8.0
 40
8.0
 40
9.0
 40
9.0
 40
9.0
 40
9.0
 10
390.3419600603343
 20
28.64284073476305
 10
390.1254548617105
 20
28.36279143887966
 10
389.9587315758544
 20
28.11075748721071
 10
389.6888142233646
 20
27.31860614785359
 10
389.4406634394279
 20
26.59401597582401
 10
389.2827479516467
 20
26.06685735861421
 10
389.2588984578731
 20
25.42484029353638
 10
389.240747252381
 20
24.94707676012474
 10
389.5316723935223
 20
24.78695932282479
 10
389.9582257225866
 20
24.78695932282479
 10
390.1420587513246
 20
24.78695932282479
 10
390.6059559539832
 20
24.79865346013363
 10
390.9363078939394
 20
25.20702582763122
 10
391.1675721055534
 20
25.49393389870466
 10
391.38071486775
 20
25.79134586410385
 10
391.6664624519149
 20
26.76695828126675
 10
391.9042432438614
 20
27.58257228542799
 10
392.068883604497
 20
28.10971602460051
 10
392.056713369995
 20
28.40985067082352
 10
392.056713369995
 20
28.40985067082352
 10
392.056713369995
 20
28.40985067082352
 10
392.056713369995
 20
28.40985067082352
 10
391.9791690396468
 20
28.91055613773418
 10
391.615639076537
 20
29.01635386089345
 10
391.4079416759881
 20
29.01635386089345
 10
391.2033686632698
 20
29.01635386089345
 10
390.6552022574085
 20
29.05174871160303
 10
390.3419600603343
 20
28.64284073476305
 97
        1
330
3C73
 92
        1
 93
        1
 72
     4
 94
        3
 73
     0
 74
     1
 95
       38
 96
       34
 40
0.0
 40
0.0
 40
0.0
 40
0.0
 40
1.0
 40
1.0
 40
1.0
 40
2.0
 40
2.0
 40
2.0
 40
3.0
 40
3.0
 40
3.0
 40
4.0
 40
4.0
 40
4.0
 40
5.0
 40
5.0
 40
5.0
 40
6.0
 40
6.0
 40
6.0
 40
7.0
 40
7.0
 40
7.0
 40
8.0
 40
8.0
 40
8.0
 40
9.0
 40
9.0
 40
9.0
 40
10.0
 40
10.0
 40
10.0
 40
11.0
 40
11.0
 40
11.0
 40
11.0
 10
393.3716045494872
 20
28.85519496098328
 10
393.3716045494872
 20
28.85519496098328
 10
393.7413535321836
 20
28.85519496098328
 10
393.7413535321836
 20
28.85519496098328
 10
393.7413535321836
 20
28.85519496098328
 10
393.5761775622055
 20
28.32635512555987
 10
393.5761775622055
 20
28.32635512555987
 10
393.7016886847722
 20
28.47480818162555
 10
393.8997748732327
 20
28.67252241915381
 10
394.0698903515905
 20
28.77222014702475
 10
394.3240072284799
 20
28.92067320309043
 10
394.4692168724166
 20
28.94025270016223
 10
394.6289177246725
 20
28.93635465439262
 10
394.6289177246725
 20
28.93635465439262
 10
394.4728471135151
 20
28.43630382112264
 10
394.4728471135151
 20
28.43630382112264
 10
394.3712003627593
 20
28.47934598299858
 10
394.057958165685
 20
28.39741263165024
 10
393.8782612313133
 20
28.26815224368685
 10
393.7162096491659
 20
28.15159769956793
 10
393.6041780283826
 20
28.0524207030021
 10
393.4714361796937
 20
27.80309455411968
 10
393.3397060375404
 20
27.55339645430504
 10
393.2357383129677
 20
27.15524529842472
 10
393.0568150365349
 20
26.57765013480655
 10
393.0568150365349
 20
26.57765013480655
 10
392.4980257120495
 20
24.78695932282479
 10
392.4980257120495
 20
24.78695932282479
 10
392.4980257120495
 20
24.78695932282479
 10
392.1391674526484
 20
24.78695932282479
 10
392.1391674526484
 20
24.78695932282479
 10
392.1391674526484
 20
24.78695932282479
 10
393.3716045494872
 20
28.85519496098328
 10
393.3716045494872
 20
28.85519496098328
 97
        1
330
3C71
 92
        1
 93
        1
 72
     4
 94
        3
 73
     0
 74
     1
 95
      104
 96
      100
 40
0.0
 40
0.0
 40
0.0
 40
0.0
 40
1.0
 40
1.0
 40
1.0
 40
2.0
 40
2.0
 40
2.0
 40
3.0
 40
3.0
 40
3.0
 40
4.0
 40
4.0
 40
4.0
 40
5.0
 40
5.0
 40
5.0
 40
6.0
 40
6.0
 40
6.0
 40
7.0
 40
7.0
 40
7.0
 40
8.0
 40
8.0
 40
8.0
 40
9.0
 40
9.0
 40
9.0
 40
10.0
 40
10.0
 40
10.0
 40
11.0
 40
11.0
 40
11.0
 40
12.0
 40
12.0
 40
12.0
 40
13.0
 40
13.0
 40
13.0
 40
14.0
 40
14.0
 40
14.0
 40
15.0
 40
15.0
 40
15.0
 40
16.0
 40
16.0
 40
16.0
 40
17.0
 40
17.0
 40
17.0
 40
18.0
 40
18.0
 40
18.0
 40
19.0
 40
19.0
 40
19.0
 40
20.0
 40
20.0
 40
20.0
 40
21.0
 40
21.0
 40
21.0
 40
22.0
 40
22.0
 40
22.0
 40
23.0
 40
23.0
 40
23.0
 40
24.0
 40
24.0
 40
24.0
 40
25.0
 40
25.0
 40
25.0
 40
26.0
 40
26.0
 40
26.0
 40
27.0
 40
27.0
 40
27.0
 40
28.0
 40
28.0
 40
28.0
 40
29.0
 40
29.0
 40
29.0
 40
30.0
 40
30.0
 40
30.0
 40
31.0
 40
31.0
 40
31.0
 40
32.0
 40
32.0
 40
32.0
 40
33.0
 40
33.0
 40
33.0
 40
33.0
 10
395.4068307823444
 20
28.857396910502
 10
395.4068307823444
 20
28.857396910502
 10
395.7296544354325
 20
28.857396910502
 10
395.7296544354325
 20
28.857396910502
 10
395.7296544354325
 20
28.857396910502
 10
395.5665613906749
 20
28.32805122181077
 10
395.5665613906749
 20
28.32805122181077
 10
395.7081110374387
 20
28.55000178208216
 10
395.8351694758834
 20
28.64892585201409
 10
396.0039756869598
 20
28.77675794839777
 10
396.1732877513042
 20
28.90277492423224
 10
396.3742602789986
 20
28.92845441659237
 10
396.5137567566165
 20
28.92845441659237
 10
396.6864610134627
 20
28.92845441659237
 10
396.8531842993187
 20
28.8943539551269
 10
396.9408159389486
 20
28.70506068670399
 10
397.0079753992694
 20
28.55662250867558
 10
397.0110997871
 20
28.5391110587869
 10
396.9919071189977
 20
28.24610299242514
 10
397.1674382029287
 20
28.54650544331934
 10
397.2970854198616
 20
28.67589973361832
 10
397.5174886642549
 20
28.80022061320189
 10
397.7487826319435
 20
28.92845441659237
 10
397.8836074058529
 20
28.93805075064353
 10
398.0402433824273
 20
28.9149600367716
 10
398.2710017407735
 20
28.88087445334342
 10
398.4182943099307
 20
28.79853939498828
 10
398.4953030309365
 20
28.54832056386854
 10
398.5725795566135
 20
28.29887539068781
 10
398.5308317839817
 20
28.16507720135141
 10
398.4354040528126
 20
27.76796750808128
 10
398.3918411596316
 20
27.58711008680102
 10
398.3288177936771
 20
27.36812025595006
 10
398.2463637110236
 20
27.10754631087745
 10
398.2463637110236
 20
27.10754631087745
 10
397.5174886642549
 20
24.78695932282479
 10
397.5174886642549
 20
24.78695932282479
 10
397.5174886642549
 20
24.78695932282479
 10
397.1383962741413
 20
24.78695932282479
 10
397.1383962741413
 20
24.78695932282479
 10
397.1383962741413
 20
24.78695932282479
 10
397.7765450495241
 20
26.81569873142421
 10
397.7765450495241
 20
26.81569873142421
 10
397.9098225075554
 20
27.24016913526807
 10
398.0000429256735
 20
27.55015304217612
 10
398.0467302066851
 20
27.74450484327716
 10
398.1053199175276
 20
27.98694246089495
 10
398.1286486799962
 20
28.06694166739577
 10
398.1009160184902
 20
28.24339518963862
 10
398.0755043308013
 20
28.4076487213048
 10
397.9925146388055
 20
28.51460693137258
 10
397.8504293826993
 20
28.51460693137258
 10
397.6990007191758
 20
28.51460693137258
 10
397.5763461797686
 20
28.49775011512458
 10
397.4047131416073
 20
28.32532854098695
 10
397.2330503473714
 20
28.15159769956793
 10
397.0912031398618
 20
27.94766444245305
 10
396.9799749330922
 20
27.71312706263549
 10
396.8689847749192
 20
27.47716139123824
 10
396.7564473008682
 20
27.17806820762544
 10
396.6423625109393
 20
26.81569873142421
 10
396.6423625109393
 20
26.81569873142421
 10
396.0039756869598
 20
24.78695932282479
 10
396.0039756869598
 20
24.78695932282479
 10
396.0039756869598
 20
24.78695932282479
 10
395.6474384013758
 20
24.78695932282479
 10
395.6474384013758
 20
24.78695932282479
 10
395.6474384013758
 20
24.78695932282479
 10
396.3773549107547
 20
27.10650484826726
 10
396.3773549107547
 20
27.10650484826726
 10
396.4543636317604
 20
27.35336124295977
 10
396.5122094407385
 20
27.55457181925085
 10
396.5503269722719
 20
27.71183267339138
 10
396.6151357027011
 20
27.98253856185753
 10
396.6332869081932
 20
28.1655979326565
 10
396.5842786533645
 20
28.32805122181077
 10
396.5360440564749
 20
28.48998377965993
 10
396.4512690000045
 20
28.53134472332225
 10
396.3096895971661
 20
28.53134472332225
 10
396.1909331035284
 20
28.53134472332225
 10
396.0750331930502
 20
28.48038744560878
 10
395.9427971976291
 20
28.37899362148695
 10
395.7763119603696
 20
28.25142932977446
 10
395.7096881093912
 20
28.1466730692254
 10
395.6280076846768
 20
28.02220340926895
 10
395.5177911844429
 20
27.85754817059597
 10
395.4661941511259
 20
27.74670679279587
 10
395.3731171498484
 20
27.50348063920177
 10
395.2800103924964
 20
27.25882619402798
 10
395.1918728995987
 20
26.97412007247326
 10
395.1303968495222
 20
26.77719437092129
 10
395.1303968495222
 20
26.77719437092129
 10
394.5042100161195
 20
24.78695932282479
 10
394.5042100161195
 20
24.78695932282479
 10
394.5042100161195
 20
24.78695932282479
 10
394.1308307923247
 20
24.78695932282479
 10
394.1308307923247
 20
24.78695932282479
 10
394.1308307923247
 20
24.78695932282479
 10
395.4068307823444
 20
28.857396910502
 10
395.4068307823444
 20
28.857396910502
 97
        1
330
3C72
 92
       16
 93
        1
 72
     4
 94
        3
 73
     0
 74
     1
 95
       29
 96
       25
 40
0.0
 40
0.0
 40
0.0
 40
0.0
 40
1.0
 40
1.0
 40
1.0
 40
2.0
 40
2.0
 40
2.0
 40
3.0
 40
3.0
 40
3.0
 40
4.0
 40
4.0
 40
4.0
 40
5.0
 40
5.0
 40
5.0
 40
6.0
 40
6.0
 40
6.0
 40
7.0
 40
7.0
 40
7.0
 40
8.0
 40
8.0
 40
8.0
 40
8.0
 10
389.6462927927937
 20
25.54487629838084
 10
389.6447157208412
 20
25.82830290872873
 10
389.7341922370948
 20
26.33186495879882
 10
389.9634032795631
 20
27.00563175545052
 10
390.2756040140271
 20
27.91796788002499
 10
390.4628292352669
 20
28.25142932977446
 10
390.6266661818889
 20
28.41374871659313
 10
390.866024045788
 20
28.65010121695988
 10
391.1878062362659
 20
28.66188462249246
 10
391.2827281141673
 20
28.65010121695988
 10
391.4178206927478
 20
28.6338841563153
 10
391.6086463990114
 20
28.54546398070914
 10
391.6200429755745
 20
28.24779908867604
 10
391.629148334395
 20
27.99304245618328
 10
391.5557400984131
 20
27.51593355641234
 10
391.2987963944389
 20
26.76695828126675
 10
391.0026639402465
 20
25.896622855958
 10
390.824782126424
 20
25.55448751046927
 10
390.6821910170501
 20
25.40537982076289
 10
390.413553175767
 20
25.1258512561846
 10
390.1254548617105
 20
25.15269123545324
 10
390.0829334311396
 20
25.15269123545324
 10
390.0277061567243
 20
25.15269123545324
 10
389.6470664507327
 20
25.21261996965174
 10
389.6462927927937
 20
25.54487629838084
 97
        1
330
3C74
 75
     0
 76
     1
 98
        1
 10
371.9300318427923
 20
14.61939790801677
1001
ACAD
1010
0.0
1020
0.0
1030
0.0
  0
POLYLINE
  5
3C65
102
{ACAD_REACTORS
330
3C64
330
3C75
102
}
330
A
100
AcDbEntity
  8
TEMPLATE
100
AcDb2dPolyline
 66
     1
 10
0.0
 20
0.0
 30
0.0
  0
VERTEX
  5
3C66
330
3C65
100
AcDbEntity
  8
TEMPLATE
100
AcDbVertex
100
AcDb2dVertex
 10
386.9584116981973
 20
30.78695932253559
 30
0.0
  0
VERTEX
  5
3C67
330
3C65
100
AcDbEntity
  8
TEMPLATE
100
AcDbVertex
100
AcDb2dVertex
 10
386.9584116981973
 20
29.60507779640349
 30
0.0
  0
VERTEX
  5
3C68
330
3C65
100
AcDbEntity
  8
TEMPLATE
100
AcDbVertex
100
AcDb2dVertex
 10
385.086293388135
 20
29.60507779640349
 30
0.0
  0
VERTEX
  5
3C69
330
3C65
100
AcDbEntity
  8
TEMPLATE
100
AcDbVertex
100
AcDb2dVertex
 10
385.086293388135
 20
24.78695932282479
 30
0.0
  0
VERTEX
  5
3C6A
330
3C65
100
AcDbEntity
  8
TEMPLATE
100
AcDbVertex
100
AcDb2dVertex
 10
383.4397707574798
 20
24.78695932282479
 30
0.0
  0
VERTEX
  5
3C6B
330
3C65
100
AcDbEntity
  8
TEMPLATE
100
AcDbVertex
100
AcDb2dVertex
 10
383.4397707574798
 20
29.60507779640349
 30
0.0
  0
VERTEX
  5
3C6C
330
3C65
100
AcDbEntity
  8
TEMPLATE
100
AcDbVertex
100
AcDb2dVertex
 10
381.6008304705712
 20
29.60507779640349
 30
0.0
  0
VERTEX
  5
3C6D
330
3C65
100
AcDbEntity
  8
TEMPLATE
100
AcDbVertex
100
AcDb2dVertex
 10
381.6008304705712
 20
30.78695932253559
 30
0.0
  0
VERTEX
  5
3C6E
330
3C65
100
AcDbEntity
  8
TEMPLATE
100
AcDbVertex
100
AcDb2dVertex
 10
386.9584116981973
 20
30.78695932253559
 30
0.0
  0
SEQEND
  5
3C6F
330
3C65
100
AcDbEntity
  8
TEMPLATE
  0
SPLINE
  5
3C70
102
{ACAD_REACTORS
330
3C64
330
3C75
102
}
330
A
100
AcDbEntity
  8
TEMPLATE
100
AcDbSpline
210
0.0
220
0.0
230
1.0
 70
    11
 71
     3
 72
    56
 73
    52
 74
     0
 42
0.000000001
 43
0.0000000001
 40
0.0
 40
0.0
 40
0.0
 40
0.0
 40
1.0
 40
1.0
 40
1.0
 40
2.0
 40
2.0
 40
2.0
 40
3.0
 40
3.0
 40
3.0
 40
4.0
 40
4.0
 40
4.0
 40
5.0
 40
5.0
 40
5.0
 40
6.0
 40
6.0
 40
6.0
 40
7.0
 40
7.0
 40
7.0
 40
8.0
 40
8.0
 40
8.0
 40
9.0
 40
9.0
 40
9.0
 40
10.0
 40
10.0
 40
10.0
 40
11.0
 40
11.0
 40
11.0
 40
12.0
 40
12.0
 40
12.0
 40
13.0
 40
13.0
 40
13.0
 40
14.0
 40
14.0
 40
14.0
 40
15.0
 40
15.0
 40
15.0
 40
16.0
 40
16.0
 40
16.0
 40
17.0
 40
17.0
 40
17.0
 40
17.0
 10
389.4668487850558
 20
30.64408553045313
 30
0.0
 10
389.6976220214394
 20
30.70904304125516
 30
0.0
 10
389.9955398401064
 20
30.65470844907718
 30
0.0
 10
389.9955398401064
 20
30.65470844907718
 30
0.0
 10
389.9955398401064
 20
30.65470844907718
 30
0.0
 10
389.85241312139
 20
30.22519439059248
 30
0.0
 10
389.85241312139
 20
30.22519439059248
 30
0.0
 10
389.85241312139
 20
30.22519439059248
 30
0.0
 10
389.5599406643706
 20
30.29287458221835
 30
0.0
 10
389.3343598630008
 20
30.1149927683958
 30
0.0
 10
389.1590668276665
 20
29.97588311974736
 30
0.0
 10
389.0455027690426
 20
29.60625316134929
 30
0.0
 10
389.0019398758616
 20
29.46571522112114
 30
0.0
 10
389.0019398758616
 20
29.46571522112114
 30
0.0
 10
388.8077219770962
 20
28.86958202304137
 30
0.0
 10
388.8077219770962
 20
28.86958202304137
 30
0.0
 10
388.8077219770962
 20
28.86958202304137
 30
0.0
 10
389.4445466071603
 20
28.86958202304137
 30
0.0
 10
389.4445466071603
 20
28.86958202304137
 30
0.0
 10
389.4445466071603
 20
28.86958202304137
 30
0.0
 10
389.34550351293
 20
28.49438767869736
 30
0.0
 10
389.34550351293
 20
28.49438767869736
 30
0.0
 10
389.34550351293
 20
28.49438767869736
 30
0.0
 10
388.7034864478522
 20
28.49438767869736
 30
0.0
 10
388.7034864478522
 20
28.49438767869736
 30
0.0
 10
388.7034864478522
 20
28.49438767869736
 30
0.0
 10
387.5547978229109
 20
24.78695932282479
 30
0.0
 10
387.5547978229109
 20
24.78695932282479
 30
0.0
 10
387.5547978229109
 20
24.78695932282479
 30
0.0
 10
387.1951510275336
 20
24.78695932282479
 30
0.0
 10
387.1951510275336
 20
24.78695932282479
 30
0.0
 10
387.1951510275336
 20
24.78695932282479
 30
0.0
 10
388.3448811150849
 20
28.49438767869736
 30
0.0
 10
388.3448811150849
 20
28.49438767869736
 30
0.0
 10
388.3448811150849
 20
28.49438767869736
 30
0.0
 10
387.8711346517413
 20
28.49438767869736
 30
0.0
 10
387.8711346517413
 20
28.49438767869736
 30
0.0
 10
387.8711346517413
 20
28.49438767869736
 30
0.0
 10
387.9704455506427
 20
28.86958202304137
 30
0.0
 10
387.9704455506427
 20
28.86958202304137
 30
0.0
 10
387.9704455506427
 20
28.86958202304137
 30
0.0
 10
388.4491166443289
 20
28.86958202304137
 30
0.0
 10
388.4491166443289
 20
28.86958202304137
 30
0.0
 10
388.4491166443289
 20
28.86958202304137
 30
0.0
 10
388.6184287086733
 20
29.38948015805433
 30
0.0
 10
388.6184287086733
 20
29.38948015805433
 30
0.0
 10
388.7553364078029
 20
29.82536201649855
 30
0.0
 10
388.8715041229524
 20
30.059378665011
 30
0.0
 10
388.971082826525
 20
30.23581730921654
 30
0.0
 10
389.0696051894502
 20
30.41240473379499
 30
0.0
 10
389.2645967461546
 20
30.58586777054282
 30
0.0
 10
389.4668487850558
 20
30.64408553045313
 30
0.0
  0
SPLINE
  5
3C71
102
{ACAD_REACTORS
330
3C64
330
3C75
102
}
330
A
100
AcDbEntity
  8
TEMPLATE
100
AcDbSpline
210
0.0
220
0.0
230
1.0
 70
    11
 71
     3
 72
    38
 73
    34
 74
     0
 42
0.000000001
 43
0.0000000001
 40
0.0
 40
0.0
 40
0.0
 40
0.0
 40
1.0
 40
1.0
 40
1.0
 40
2.0
 40
2.0
 40
2.0
 40
3.0
 40
3.0
 40
3.0
 40
4.0
 40
4.0
 40
4.0
 40
5.0
 40
5.0
 40
5.0
 40
6.0
 40
6.0
 40
6.0
 40
7.0
 40
7.0
 40
7.0
 40
8.0
 40
8.0
 40
8.0
 40
9.0
 40
9.0
 40
9.0
 40
10.0
 40
10.0
 40
10.0
 40
11.0
 40
11.0
 40
11.0
 40
11.0
 10
393.3716045494872
 20
28.85519496098328
 30
0.0
 10
393.3716045494872
 20
28.85519496098328
 30
0.0
 10
393.7413535321836
 20
28.85519496098328
 30
0.0
 10
393.7413535321836
 20
28.85519496098328
 30
0.0
 10
393.7413535321836
 20
28.85519496098328
 30
0.0
 10
393.5761775622055
 20
28.32635512555987
 30
0.0
 10
393.5761775622055
 20
28.32635512555987
 30
0.0
 10
393.7016886847722
 20
28.47480818162555
 30
0.0
 10
393.8997748732327
 20
28.67252241915381
 30
0.0
 10
394.0698903515905
 20
28.77222014702475
 30
0.0
 10
394.3240072284799
 20
28.92067320309043
 30
0.0
 10
394.4692168724166
 20
28.94025270016223
 30
0.0
 10
394.6289177246725
 20
28.93635465439262
 30
0.0
 10
394.6289177246725
 20
28.93635465439262
 30
0.0
 10
394.4728471135151
 20
28.43630382112264
 30
0.0
 10
394.4728471135151
 20
28.43630382112264
 30
0.0
 10
394.3712003627593
 20
28.47934598299858
 30
0.0
 10
394.057958165685
 20
28.39741263165024
 30
0.0
 10
393.8782612313133
 20
28.26815224368685
 30
0.0
 10
393.7162096491659
 20
28.15159769956793
 30
0.0
 10
393.6041780283826
 20
28.0524207030021
 30
0.0
 10
393.4714361796937
 20
27.80309455411968
 30
0.0
 10
393.3397060375404
 20
27.55339645430504
 30
0.0
 10
393.2357383129677
 20
27.15524529842472
 30
0.0
 10
393.0568150365349
 20
26.57765013480655
 30
0.0
 10
393.0568150365349
 20
26.57765013480655
 30
0.0
 10
392.4980257120495
 20
24.78695932282479
 30
0.0
 10
392.4980257120495
 20
24.78695932282479
 30
0.0
 10
392.4980257120495
 20
24.78695932282479
 30
0.0
 10
392.1391674526484
 20
24.78695932282479
 30
0.0
 10
392.1391674526484
 20
24.78695932282479
 30
0.0
 10
392.1391674526484
 20
24.78695932282479
 30
0.0
 10
393.3716045494872
 20
28.85519496098328
 30
0.0
 10
393.3716045494872
 20
28.85519496098328
 30
0.0
  0
SPLINE
  5
3C72
102
{ACAD_REACTORS
330
3C64
330
3C75
102
}
330
A
100
AcDbEntity
  8
TEMPLATE
100
AcDbSpline
210
0.0
220
0.0
230
1.0
 70
    11
 71
     3
 72
   104
 73
   100
 74
     0
 42
0.000000001
 43
0.0000000001
 40
0.0
 40
0.0
 40
0.0
 40
0.0
 40
1.0
 40
1.0
 40
1.0
 40
2.0
 40
2.0
 40
2.0
 40
3.0
 40
3.0
 40
3.0
 40
4.0
 40
4.0
 40
4.0
 40
5.0
 40
5.0
 40
5.0
 40
6.0
 40
6.0
 40
6.0
 40
7.0
 40
7.0
 40
7.0
 40
8.0
 40
8.0
 40
8.0
 40
9.0
 40
9.0
 40
9.0
 40
10.0
 40
10.0
 40
10.0
 40
11.0
 40
11.0
 40
11.0
 40
12.0
 40
12.0
 40
12.0
 40
13.0
 40
13.0
 40
13.0
 40
14.0
 40
14.0
 40
14.0
 40
15.0
 40
15.0
 40
15.0
 40
16.0
 40
16.0
 40
16.0
 40
17.0
 40
17.0
 40
17.0
 40
18.0
 40
18.0
 40
18.0
 40
19.0
 40
19.0
 40
19.0
 40
20.0
 40
20.0
 40
20.0
 40
21.0
 40
21.0
 40
21.0
 40
22.0
 40
22.0
 40
22.0
 40
23.0
 40
23.0
 40
23.0
 40
24.0
 40
24.0
 40
24.0
 40
25.0
 40
25.0
 40
25.0
 40
26.0
 40
26.0
 40
26.0
 40
27.0
 40
27.0
 40
27.0
 40
28.0
 40
28.0
 40
28.0
 40
29.0
 40
29.0
 40
29.0
 40
30.0
 40
30.0
 40
30.0
 40
31.0
 40
31.0
 40
31.0
 40
32.0
 40
32.0
 40
32.0
 40
33.0
 40
33.0
 40
33.0
 40
33.0
 10
395.4068307823444
 20
28.857396910502
 30
0.0
 10
395.4068307823444
 20
28.857396910502
 30
0.0
 10
395.7296544354325
 20
28.857396910502
 30
0.0
 10
395.7296544354325
 20
28.857396910502
 30
0.0
 10
395.7296544354325
 20
28.857396910502
 30
0.0
 10
395.5665613906749
 20
28.32805122181077
 30
0.0
 10
395.5665613906749
 20
28.32805122181077
 30
0.0
 10
395.7081110374387
 20
28.55000178208216
 30
0.0
 10
395.8351694758834
 20
28.64892585201409
 30
0.0
 10
396.0039756869598
 20
28.77675794839777
 30
0.0
 10
396.1732877513042
 20
28.90277492423224
 30
0.0
 10
396.3742602789986
 20
28.92845441659237
 30
0.0
 10
396.5137567566165
 20
28.92845441659237
 30
0.0
 10
396.6864610134627
 20
28.92845441659237
 30
0.0
 10
396.8531842993187
 20
28.8943539551269
 30
0.0
 10
396.9408159389486
 20
28.70506068670399
 30
0.0
 10
397.0079753992694
 20
28.55662250867558
 30
0.0
 10
397.0110997871
 20
28.5391110587869
 30
0.0
 10
396.9919071189977
 20
28.24610299242514
 30
0.0
 10
397.1674382029287
 20
28.54650544331934
 30
0.0
 10
397.2970854198616
 20
28.67589973361832
 30
0.0
 10
397.5174886642549
 20
28.80022061320189
 30
0.0
 10
397.7487826319435
 20
28.92845441659237
 30
0.0
 10
397.8836074058529
 20
28.93805075064353
 30
0.0
 10
398.0402433824273
 20
28.9149600367716
 30
0.0
 10
398.2710017407735
 20
28.88087445334342
 30
0.0
 10
398.4182943099307
 20
28.79853939498828
 30
0.0
 10
398.4953030309365
 20
28.54832056386854
 30
0.0
 10
398.5725795566135
 20
28.29887539068781
 30
0.0
 10
398.5308317839817
 20
28.16507720135141
 30
0.0
 10
398.4354040528126
 20
27.76796750808128
 30
0.0
 10
398.3918411596316
 20
27.58711008680102
 30
0.0
 10
398.3288177936771
 20
27.36812025595006
 30
0.0
 10
398.2463637110236
 20
27.10754631087745
 30
0.0
 10
398.2463637110236
 20
27.10754631087745
 30
0.0
 10
397.5174886642549
 20
24.78695932282479
 30
0.0
 10
397.5174886642549
 20
24.78695932282479
 30
0.0
 10
397.5174886642549
 20
24.78695932282479
 30
0.0
 10
397.1383962741413
 20
24.78695932282479
 30
0.0
 10
397.1383962741413
 20
24.78695932282479
 30
0.0
 10
397.1383962741413
 20
24.78695932282479
 30
0.0
 10
397.7765450495241
 20
26.81569873142421
 30
0.0
 10
397.7765450495241
 20
26.81569873142421
 30
0.0
 10
397.9098225075554
 20
27.24016913526807
 30
0.0
 10
398.0000429256735
 20
27.55015304217612
 30
0.0
 10
398.0467302066851
 20
27.74450484327716
 30
0.0
 10
398.1053199175276
 20
27.98694246089495
 30
0.0
 10
398.1286486799962
 20
28.06694166739577
 30
0.0
 10
398.1009160184902
 20
28.24339518963862
 30
0.0
 10
398.0755043308013
 20
28.4076487213048
 30
0.0
 10
397.9925146388055
 20
28.51460693137258
 30
0.0
 10
397.8504293826993
 20
28.51460693137258
 30
0.0
 10
397.6990007191758
 20
28.51460693137258
 30
0.0
 10
397.5763461797686
 20
28.49775011512458
 30
0.0
 10
397.4047131416073
 20
28.32532854098695
 30
0.0
 10
397.2330503473714
 20
28.15159769956793
 30
0.0
 10
397.0912031398618
 20
27.94766444245305
 30
0.0
 10
396.9799749330922
 20
27.71312706263549
 30
0.0
 10
396.8689847749192
 20
27.47716139123824
 30
0.0
 10
396.7564473008682
 20
27.17806820762544
 30
0.0
 10
396.6423625109393
 20
26.81569873142421
 30
0.0
 10
396.6423625109393
 20
26.81569873142421
 30
0.0
 10
396.0039756869598
 20
24.78695932282479
 30
0.0
 10
396.0039756869598
 20
24.78695932282479
 30
0.0
 10
396.0039756869598
 20
24.78695932282479
 30
0.0
 10
395.6474384013758
 20
24.78695932282479
 30
0.0
 10
395.6474384013758
 20
24.78695932282479
 30
0.0
 10
395.6474384013758
 20
24.78695932282479
 30
0.0
 10
396.3773549107547
 20
27.10650484826726
 30
0.0
 10
396.3773549107547
 20
27.10650484826726
 30
0.0
 10
396.4543636317604
 20
27.35336124295977
 30
0.0
 10
396.5122094407385
 20
27.55457181925085
 30
0.0
 10
396.5503269722719
 20
27.71183267339138
 30
0.0
 10
396.6151357027011
 20
27.98253856185753
 30
0.0
 10
396.6332869081932
 20
28.1655979326565
 30
0.0
 10
396.5842786533645
 20
28.32805122181077
 30
0.0
 10
396.5360440564749
 20
28.48998377965993
 30
0.0
 10
396.4512690000045
 20
28.53134472332225
 30
0.0
 10
396.3096895971661
 20
28.53134472332225
 30
0.0
 10
396.1909331035284
 20
28.53134472332225
 30
0.0
 10
396.0750331930502
 20
28.48038744560878
 30
0.0
 10
395.9427971976291
 20
28.37899362148695
 30
0.0
 10
395.7763119603696
 20
28.25142932977446
 30
0.0
 10
395.7096881093912
 20
28.1466730692254
 30
0.0
 10
395.6280076846768
 20
28.02220340926895
 30
0.0
 10
395.5177911844429
 20
27.85754817059597
 30
0.0
 10
395.4661941511259
 20
27.74670679279587
 30
0.0
 10
395.3731171498484
 20
27.50348063920177
 30
0.0
 10
395.2800103924964
 20
27.25882619402798
 30
0.0
 10
395.1918728995987
 20
26.97412007247326
 30
0.0
 10
395.1303968495222
 20
26.77719437092129
 30
0.0
 10
395.1303968495222
 20
26.77719437092129
 30
0.0
 10
394.5042100161195
 20
24.78695932282479
 30
0.0
 10
394.5042100161195
 20
24.78695932282479
 30
0.0
 10
394.5042100161195
 20
24.78695932282479
 30
0.0
 10
394.1308307923247
 20
24.78695932282479
 30
0.0
 10
394.1308307923247
 20
24.78695932282479
 30
0.0
 10
394.1308307923247
 20
24.78695932282479
 30
0.0
 10
395.4068307823444
 20
28.857396910502
 30
0.0
 10
395.4068307823444
 20
28.857396910502
 30
0.0
  0
SPLINE
  5
3C73
102
{ACAD_REACTORS
330
3C64
330
3C75
102
}
330
A
100
AcDbEntity
  8
TEMPLATE
100
AcDbSpline
210
0.0
220
0.0
230
1.0
 70
    11
 71
     3
 72
    32
 73
    28
 74
     0
 42
0.000000001
 43
0.0000000001
 40
0.0
 40
0.0
 40
0.0
 40
0.0
 40
1.0
 40
1.0
 40
1.0
 40
2.0
 40
2.0
 40
2.0
 40
3.0
 40
3.0
 40
3.0
 40
4.0
 40
4.0
 40
4.0
 40
5.0
 40
5.0
 40
5.0
 40
6.0
 40
6.0
 40
6.0
 40
7.0
 40
7.0
 40
7.0
 40
8.0
 40
8.0
 40
8.0
 40
9.0
 40
9.0
 40
9.0
 40
9.0
 10
390.3419600603343
 20
28.64284073476305
 30
0.0
 10
390.1254548617105
 20
28.36279143887966
 30
0.0
 10
389.9587315758544
 20
28.11075748721071
 30
0.0
 10
389.6888142233646
 20
27.31860614785359
 30
0.0
 10
389.4406634394279
 20
26.59401597582401
 30
0.0
 10
389.2827479516467
 20
26.06685735861421
 30
0.0
 10
389.2588984578731
 20
25.42484029353638
 30
0.0
 10
389.240747252381
 20
24.94707676012474
 30
0.0
 10
389.5316723935223
 20
24.78695932282479
 30
0.0
 10
389.9582257225866
 20
24.78695932282479
 30
0.0
 10
390.1420587513246
 20
24.78695932282479
 30
0.0
 10
390.6059559539832
 20
24.79865346013363
 30
0.0
 10
390.9363078939394
 20
25.20702582763122
 30
0.0
 10
391.1675721055534
 20
25.49393389870466
 30
0.0
 10
391.38071486775
 20
25.79134586410385
 30
0.0
 10
391.6664624519149
 20
26.76695828126675
 30
0.0
 10
391.9042432438614
 20
27.58257228542799
 30
0.0
 10
392.068883604497
 20
28.10971602460051
 30
0.0
 10
392.056713369995
 20
28.40985067082352
 30
0.0
 10
392.056713369995
 20
28.40985067082352
 30
0.0
 10
392.056713369995
 20
28.40985067082352
 30
0.0
 10
392.056713369995
 20
28.40985067082352
 30
0.0
 10
391.9791690396468
 20
28.91055613773418
 30
0.0
 10
391.615639076537
 20
29.01635386089345
 30
0.0
 10
391.4079416759881
 20
29.01635386089345
 30
0.0
 10
391.2033686632698
 20
29.01635386089345
 30
0.0
 10
390.6552022574085
 20
29.05174871160303
 30
0.0
 10
390.3419600603343
 20
28.64284073476305
 30
0.0
  0
SPLINE
  5
3C74
102
{ACAD_REACTORS
330
3C64
330
3C75
102
}
330
A
100
AcDbEntity
  8
TEMPLATE
100
AcDbSpline
210
0.0
220
0.0
230
1.0
 70
    11
 71
     3
 72
    29
 73
    25
 74
     0
 42
0.000000001
 43
0.0000000001
 40
0.0
 40
0.0
 40
0.0
 40
0.0
 40
1.0
 40
1.0
 40
1.0
 40
2.0
 40
2.0
 40
2.0
 40
3.0
 40
3.0
 40
3.0
 40
4.0
 40
4.0
 40
4.0
 40
5.0
 40
5.0
 40
5.0
 40
6.0
 40
6.0
 40
6.0
 40
7.0
 40
7.0
 40
7.0
 40
8.0
 40
8.0
 40
8.0
 40
8.0
 10
389.6462927927937
 20
25.54487629838084
 30
0.0
 10
389.6447157208412
 20
25.82830290872873
 30
0.0
 10
389.7341922370948
 20
26.33186495879882
 30
0.0
 10
389.9634032795631
 20
27.00563175545052
 30
0.0
 10
390.2756040140271
 20
27.91796788002499
 30
0.0
 10
390.4628292352669
 20
28.25142932977446
 30
0.0
 10
390.6266661818889
 20
28.41374871659313
 30
0.0
 10
390.866024045788
 20
28.65010121695988
 30
0.0
 10
391.1878062362659
 20
28.66188462249246
 30
0.0
 10
391.2827281141673
 20
28.65010121695988
 30
0.0
 10
391.4178206927478
 20
28.6338841563153
 30
0.0
 10
391.6086463990114
 20
28.54546398070914
 30
0.0
 10
391.6200429755745
 20
28.24779908867604
 30
0.0
 10
391.629148334395
 20
27.99304245618328
 30
0.0
 10
391.5557400984131
 20
27.51593355641234
 30
0.0
 10
391.2987963944389
 20
26.76695828126675
 30
0.0
 10
391.0026639402465
 20
25.896622855958
 30
0.0
 10
390.824782126424
 20
25.55448751046927
 30
0.0
 10
390.6821910170501
 20
25.40537982076289
 30
0.0
 10
390.413553175767
 20
25.1258512561846
 30
0.0
 10
390.1254548617105
 20
25.15269123545324
 30
0.0
 10
390.0829334311396
 20
25.15269123545324
 30
0.0
 10
390.0277061567243
 20
25.15269123545324
 30
0.0
 10
389.6470664507327
 20
25.21261996965174
 30
0.0
 10
389.6462927927937
 20
25.54487629838084
 30
0.0
  0
MTEXT
  5
3CB5
102
{ACAD_XDICTIONARY
360
3CB7
102
}
330
A
100
AcDbEntity
  8
TEMPLATE
100
AcDbMText
 10
15.00779663219942
 20
17.57619761830519
 30
0.0
 40
4.0
 41
0.0
 46
4.0
 71
     1
 72
     1
  1
{20200421N}
  7
ＭＳ ゴシック
 73
     1
 44
1.0
1001
ACAD
1000
ACAD_MTEXT_DEFINED_HEIGHT_BEGIN
1070
    46
1040
4.0
1000
ACAD_MTEXT_DEFINED_HEIGHT_END
  0
LINE
  5
400E
330
A
100
AcDbEntity
  8
MODEL
100
AcDbLine
 10
334.3208461337671
 20
205.6336860482929
 30
0.0
 11
334.3208461337671
 21
176.0336860482929
 31
0.0
  0
LINE
  5
400F
330
A
100
AcDbEntity
  8
MODEL
100
AcDbLine
 10
337.920846133767
 20
205.5336860482929
 30
0.0
 11
337.920846133767
 21
176.1336860482929
 31
0.0
  0
LINE
  5
4010
330
A
100
AcDbEntity
  8
MODEL
100
AcDbLine
 10
334.5208461337672
 20
175.833686048293
 30
0.0
 11
337.6208461337671
 21
175.833686048293
 31
0.0
  0
LINE
  5
4011
330
A
100
AcDbEntity
  8
MODEL
100
AcDbLine
 10
337.6208461337671
 20
205.833686048293
 30
0.0
 11
334.5208461337672
 21
205.833686048293
 31
0.0
  0
ARC
  5
4012
330
A
100
AcDbEntity
  8
MODEL
100
AcDbCircle
 10
334.5208461337672
 20
205.6336860482929
 30
0.0
 40
0.1999999999999988
100
AcDbArc
 50
90.0
 51
180.0
  0
ARC
  5
4013
330
A
100
AcDbEntity
  8
MODEL
100
AcDbCircle
 10
334.5208461337672
 20
176.0336860482929
 30
0.0
 40
0.1999999999999988
100
AcDbArc
 50
180.0
 51
270.0
  0
ARC
  5
4014
330
A
100
AcDbEntity
  8
MODEL
100
AcDbCircle
 10
337.6208461337671
 20
205.5336860482929
 30
0.0
 40
0.3000000000000016
100
AcDbArc
 50
0.0
 51
90.0
  0
ARC
  5
4015
330
A
100
AcDbEntity
  8
MODEL
100
AcDbCircle
 10
337.6208461337671
 20
176.1336860482929
 30
0.0
 40
0.3
100
AcDbArc
 50
270.0
 51
0.0
  0
LINE
  5
4016
330
A
100
AcDbEntity
  8
MODEL
100
AcDbLine
 10
293.339238722367
 20
155.833686048293
 30
0.0
 11
293.339238722367
 21
225.833686048293
 31
0.0
  0
LINE
  5
4017
330
A
100
AcDbEntity
  8
MODEL
100
AcDbLine
 10
301.0392387223671
 20
225.3936860482929
 30
0.0
 11
301.0392387223671
 21
156.2736860482929
 31
0.0
  0
LINE
  5
4018
330
A
100
AcDbEntity
  8
MODEL
100
AcDbLine
 10
284.1392387223672
 20
206.342337416693
 30
0.0
 11
284.1392387223672
 21
175.3250346796929
 31
0.0
  0
LINE
  5
4019
330
A
100
AcDbEntity
  8
MODEL
100
AcDbLine
 10
293.339238722367
 20
155.833686048293
 30
0.0
 11
300.599238722367
 21
155.833686048293
 31
0.0
  0
LINE
  5
401A
330
A
100
AcDbEntity
  8
MODEL
100
AcDbLine
 10
300.599238722367
 20
225.833686048293
 30
0.0
 11
293.339238722367
 21
225.833686048293
 31
0.0
  0
ARC
  5
401B
330
A
100
AcDbEntity
  8
MODEL
100
AcDbCircle
 10
300.599238722367
 20
156.2736860482929
 30
0.0
 40
0.4400000000000028
100
AcDbArc
 50
270.0
 51
0.0
  0
ARC
  5
401C
330
A
100
AcDbEntity
  8
MODEL
100
AcDbCircle
 10
300.599238722367
 20
225.3936860482929
 30
0.0
 40
0.4400000000000002
100
AcDbArc
 50
0.0
 51
90.0
  0
LINE
  5
401D
330
A
100
AcDbEntity
  8
MODEL
100
AcDbLine
 10
293.339238722367
 20
206.9942726454929
 30
0.0
 11
284.6305125191672
 21
206.8422612642929
 31
0.0
  0
LINE
  5
401E
330
A
100
AcDbEntity
  8
MODEL
100
AcDbLine
 10
284.6305125191672
 20
174.8251108322929
 30
0.0
 11
293.339238722367
 21
174.673099450893
 31
0.0
  0
ARC
  5
401F
330
A
100
AcDbEntity
  8
MODEL
100
AcDbCircle
 10
284.6392387223672
 20
175.3250346796929
 30
0.0
 40
0.5000000000000004
100
AcDbArc
 50
180.0
 51
268.9999999999982
  0
ARC
  5
4020
330
A
100
AcDbEntity
  8
MODEL
100
AcDbCircle
 10
284.6392387223672
 20
206.342337416693
 30
0.0
 40
0.5000000000000002
100
AcDbArc
 50
91.00000000000178
 51
180.0
  0
LINE
  5
4021
330
A
100
AcDbEntity
  8
MODEL
100
AcDbLine
 10
357.9192387223672
 20
198.5336860482929
 30
0.0
 11
357.9192387223672
 21
183.1336860482929
 31
0.0
  0
CIRCLE
  5
4022
330
A
100
AcDbEntity
  8
MODEL
100
AcDbCircle
 10
351.6392386529671
 20
190.833686048293
 30
0.0
 40
4.0
  0
ARC
  5
4023
330
A
100
AcDbEntity
  8
MODEL
100
AcDbCircle
 10
351.6392385291671
 20
205.2411020316929
 30
0.0
 40
7.317460327491376
100
AcDbArc
 50
236.8633486776006
 51
303.1366384983998
  0
ARC
  5
4024
330
A
100
AcDbEntity
  8
MODEL
100
AcDbCircle
 10
351.6392385313672
 20
176.426269957693
 30
0.0
 40
7.31746041823414
100
AcDbArc
 50
56.86336173700088
 51
123.1366508775002
  0
ARC
  5
4025
330
A
100
AcDbEntity
  8
MODEL
100
AcDbCircle
 10
357.6192387223672
 20
198.5336860482929
 30
0.0
 40
0.3000000000000086
100
AcDbArc
 50
0.0
 51
90.0
  0
ARC
  5
4026
330
A
100
AcDbEntity
  8
MODEL
100
AcDbCircle
 10
357.6192387223672
 20
183.1336860482929
 30
0.0
 40
0.3
100
AcDbArc
 50
270.0
 51
0.0
  0
ARC
  5
4027
330
A
100
AcDbEntity
  8
MODEL
100
AcDbCircle
 10
351.6392386529671
 20
216.155114619693
 30
0.0
 40
11.77857142856565
100
AcDbArc
 50
71.12416015979932
 51
108.8758398401995
  0
LINE
  5
4028
330
A
100
AcDbEntity
  8
MODEL
100
AcDbLine
 10
347.6392386529671
 20
227.0353142914929
 30
0.0
 11
347.6392386529671
 21
199.1136860482929
 31
0.0
  0
LINE
  5
4029
330
A
100
AcDbEntity
  8
MODEL
100
AcDbLine
 10
355.6392386529671
 20
199.1136860482929
 30
0.0
 11
355.6392386529671
 21
227.0353142914929
 31
0.0
  0
ARC
  5
402A
330
A
100
AcDbEntity
  8
MODEL
100
AcDbCircle
 10
351.6392386529671
 20
165.5122574766929
 30
0.0
 40
11.77857142857582
100
AcDbArc
 50
251.1241601597999
 51
288.8758398402001
  0
LINE
  5
402B
330
A
100
AcDbEntity
  8
MODEL
100
AcDbLine
 10
347.6392386529671
 20
182.553686048293
 30
0.0
 11
347.6392386529671
 21
154.6320578050929
 31
0.0
  0
LINE
  5
402C
330
A
100
AcDbEntity
  8
MODEL
100
AcDbLine
 10
355.6392386529671
 20
154.6320578050929
 30
0.0
 11
355.6392386529671
 21
182.5537465772929
 31
0.0
  0
ARC
  5
402D
330
A
100
AcDbEntity
  8
MODEL
100
AcDbCircle
 10
347.9192386529671
 20
154.6320578050929
 30
0.0
 40
0.2800000000000024
100
AcDbArc
 50
180.0
 51
251.1241601597982
  0
ARC
  5
402E
330
A
100
AcDbEntity
  8
MODEL
100
AcDbCircle
 10
355.3592386529671
 20
154.6320578050929
 30
0.0
 40
0.2800000000000018
100
AcDbArc
 50
288.8758398402019
 51
0.0
  0
ARC
  5
402F
330
A
100
AcDbEntity
  8
MODEL
100
AcDbCircle
 10
355.3592386529671
 20
227.0353142914929
 30
0.0
 40
0.2800000000000024
100
AcDbArc
 50
0.0
 51
71.1241601598957
  0
ARC
  5
4030
330
A
100
AcDbEntity
  8
MODEL
100
AcDbCircle
 10
347.9192386529671
 20
227.0353142914929
 30
0.0
 40
0.2800000000002232
100
AcDbArc
 50
108.8758398400874
 51
180.0
  0
ARC
  5
4031
330
A
100
AcDbEntity
  8
MODEL
100
AcDbCircle
 10
347.3656998641672
 20
199.1019568642929
 30
0.0
 40
0.2671198414200744
100
AcDbArc
 50
268.8075405370955
 51
343.7993729955858
  0
ARC
  5
4032
330
A
100
AcDbEntity
  8
MODEL
100
AcDbCircle
 10
355.9048561845672
 20
199.1034757340929
 30
0.0
 40
0.2630699583766106
100
AcDbArc
 50
177.7919220037951
 51
252.8687696373922
  0
ARC
  5
4033
330
A
100
AcDbEntity
  8
MODEL
100
AcDbCircle
 10
355.916954403367
 20
199.052237901293
 30
0.0
 40
0.2192949425397532
100
AcDbArc
 50
245.8875110560485
 51
283.7071739239371
  0
ARC
  5
4034
330
A
100
AcDbEntity
  8
MODEL
100
AcDbCircle
 10
355.9185412781671
 20
182.608926765093
 30
0.0
 40
0.2253043672253292
100
AcDbArc
 50
77.45275590686855
 51
109.4632258495151
  0
ARC
  5
4035
330
A
100
AcDbEntity
  8
MODEL
100
AcDbCircle
 10
355.9080417837671
 20
182.5642369432929
 30
0.0
 40
0.2651035941823262
100
AcDbArc
 50
104.0975722543172
 51
182.2402636236827
  0
ARC
  5
4036
330
A
100
AcDbEntity
  8
MODEL
100
AcDbCircle
 10
347.3610011047671
 20
182.5564370428929
 30
0.0
 40
0.2771005124403014
100
AcDbArc
 50
356.4734827946157
 51
90.1872654087897
  0
LINE
  5
4037
330
A
100
AcDbEntity
  8
MODEL
100
AcDbLine
 10
355.9192386529671
 20
182.833686048293
 30
0.0
 11
357.6192387223672
 21
182.833686048293
 31
0.0
  0
LINE
  5
4038
330
A
100
AcDbEntity
  8
MODEL
100
AcDbLine
 10
337.920846133767
 20
182.833686048293
 30
0.0
 11
347.3592386529671
 21
182.833686048293
 31
0.0
  0
LINE
  5
4039
330
A
100
AcDbEntity
  8
MODEL
100
AcDbLine
 10
347.3592386529671
 20
198.833686048293
 30
0.0
 11
337.920846133767
 21
198.833686048293
 31
0.0
  0
LINE
  5
403A
330
A
100
AcDbEntity
  8
MODEL
100
AcDbLine
 10
357.6192387223672
 20
198.833686048293
 30
0.0
 11
355.9192386529671
 21
198.833686048293
 31
0.0
  0
LINE
  5
403B
330
A
100
AcDbEntity
  8
MODEL
100
AcDbLine
 10
359.9192387223672
 20
198.5336860482929
 30
0.0
 11
359.9192387223672
 21
183.1336860482929
 31
0.0
  0
LINE
  5
403C
330
A
100
AcDbEntity
  8
MODEL
100
AcDbLine
 10
357.9192387223672
 20
198.5336860482929
 30
0.0
 11
357.9192387223672
 21
183.1336860482929
 31
0.0
  0
LINE
  5
403D
330
A
100
AcDbEntity
  8
MODEL
100
AcDbLine
 10
359.6192387223672
 20
198.833686048293
 30
0.0
 11
358.2192387223672
 21
198.833686048293
 31
0.0
  0
LINE
  5
403E
330
A
100
AcDbEntity
  8
MODEL
100
AcDbLine
 10
358.2192387223672
 20
182.833686048293
 30
0.0
 11
359.6192387223672
 21
182.833686048293
 31
0.0
  0
ARC
  5
403F
330
A
100
AcDbEntity
  8
MODEL
100
AcDbCircle
 10
359.6192387223672
 20
198.5336860482929
 30
0.0
 40
0.2999999999999948
100
AcDbArc
 50
0.0
 51
90.0
  0
ARC
  5
4040
330
A
100
AcDbEntity
  8
MODEL
100
AcDbCircle
 10
359.6192387223672
 20
183.1336860482929
 30
0.0
 40
0.3000000000000008
100
AcDbArc
 50
270.0
 51
0.0
  0
ARC
  5
4041
330
A
100
AcDbEntity
  8
MODEL
100
AcDbCircle
 10
358.2192387223672
 20
183.1336860482929
 30
0.0
 40
0.3000000000000086
100
AcDbArc
 50
180.0
 51
270.0
  0
ARC
  5
4042
330
A
100
AcDbEntity
  8
MODEL
100
AcDbCircle
 10
358.2192387223672
 20
198.5336860482929
 30
0.0
 40
0.3000000000000016
100
AcDbArc
 50
90.0
 51
180.0
  0
LINE
  5
4043
330
A
100
AcDbEntity
  8
MODEL
100
AcDbLine
 10
334.3208461337671
 20
205.6336860482929
 30
0.0
 11
334.3208461337671
 21
176.0336860482929
 31
0.0
  0
LINE
  5
4044
330
A
100
AcDbEntity
  8
MODEL
100
AcDbLine
 10
334.1208461337671
 20
205.833686048293
 30
0.0
 11
301.0392387223671
 21
205.833686048293
 31
0.0
  0
LINE
  5
4045
330
A
100
AcDbEntity
  8
MODEL
100
AcDbLine
 10
301.0392387223671
 20
175.833686048293
 30
0.0
 11
334.1208461337671
 21
175.833686048293
 31
0.0
  0
ARC
  5
4046
330
A
100
AcDbEntity
  8
MODEL
100
AcDbCircle
 10
334.1208461337671
 20
176.0336860482929
 30
0.0
 40
0.2000000000000006
100
AcDbArc
 50
270.0
 51
0.0
  0
ARC
  5
4047
330
A
100
AcDbEntity
  8
MODEL
100
AcDbCircle
 10
334.1208461337671
 20
205.6336860482929
 30
0.0
 40
0.2000000000000058
100
AcDbArc
 50
0.0
 51
90.0
  0
LINE
  5
4048
330
A
100
AcDbEntity
  8
MODEL
100
AcDbLine
 10
293.339238722367
 20
159.406028337693
 30
0.0
 11
293.339238722367
 21
183.6543947714929
 31
0.0
  0
HATCH
  5
404A
330
A
100
AcDbEntity
  8
MODEL
100
AcDbHatch
 10
0.0
 20
0.0
 30
0.0
210
0.0
220
0.0
230
1.0
  2
LINE
 70
     0
 71
     0
 91
        1
 92
        1
 93
        4
 72
     1
 10
287.3392398114406
 20
224.3359860482154
 11
272.7150932785916
 21
224.3359860482154
 72
     1
 10
272.7150932785916
 20
224.3359860482154
 11
272.7150932785916
 21
208.3336860482156
 72
     1
 10
272.7150932785916
 20
208.3336860482156
 11
287.3392398114405
 21
208.3336860482156
 72
     1
 10
287.3392398114406
 20
208.3336860482156
 11
287.3392398114406
 21
224.3359860482154
 97
        0
 75
     0
 76
     1
 52
45.0
 41
1.889763779600006
 77
     0
 78
     1
 53
45.0
 43
137.7313039513671
 44
-131.849879331307
 45
-4.242640687119286
 46
4.242640687119286
 79
     0
 98
        0
  0
HATCH
  5
404B
330
A
100
AcDbEntity
  8
MODEL
100
AcDbHatch
 10
0.0
 20
0.0
 30
0.0
210
0.0
220
0.0
230
1.0
  2
LINE
 70
     0
 71
     0
 91
        1
 92
        1
 93
        5
 72
     1
 10
287.3392398114406
 20
224.3359860482154
 11
287.3392398114406
 21
208.3336860482156
 72
     1
 10
287.3392398114406
 20
208.3336860482156
 11
293.3392387224333
 21
208.3336860482156
 72
     1
 10
293.3392387224334
 20
208.3336860482156
 11
293.3392387224334
 21
210.3359860482154
 72
     1
 10
293.3392387224334
 20
210.3359860482154
 11
293.3392387224334
 21
224.3359860482154
 72
     1
 10
293.3392387224334
 20
224.3359860482154
 11
287.3392398114407
 21
224.3359860482154
 97
        0
 75
     0
 76
     1
 52
315.0
 41
1.8897637796
 77
     0
 78
     1
 53
315.0
 43
137.7313039513671
 44
-131.849879331307
 45
4.242640687119286
 46
4.242640687119286
 79
     0
 98
        0
  0
HATCH
  5
404C
330
A
100
AcDbEntity
  8
MODEL
100
AcDbHatch
 10
0.0
 20
0.0
 30
0.0
210
0.0
220
0.0
230
1.0
  2
LINE
 70
     0
 71
     0
 91
        1
 92
        1
 93
        4
 72
     1
 10
272.7150932785916
 20
157.3313860482154
 11
287.3392398114405
 21
157.3313860482154
 72
     1
 10
287.3392398114406
 20
157.3313860482154
 11
287.3392398114406
 21
173.3336860482156
 72
     1
 10
287.3392398114406
 20
173.3336860482156
 11
272.7150932785917
 21
173.3336860482156
 72
     1
 10
272.7150932785916
 20
173.3336860482156
 11
272.7150932785916
 21
157.3313860482154
 97
        0
 75
     0
 76
     1
 52
45.0
 41
1.889763779600006
 77
     0
 78
     1
 53
45.0
 43
137.7313039513671
 44
-100.854479331307
 45
-4.242640687119286
 46
4.242640687119286
 79
     0
 98
        0
  0
HATCH
  5
404D
330
A
100
AcDbEntity
  8
MODEL
100
AcDbHatch
 10
0.0
 20
0.0
 30
0.0
210
0.0
220
0.0
230
1.0
  2
LINE
 70
     0
 71
     0
 91
        1
 92
        1
 93
        5
 72
     1
 10
287.3392398114406
 20
173.3336860482156
 11
287.3392398114406
 21
157.3313860482154
 72
     1
 10
287.3392398114406
 20
157.3313860482154
 11
293.3392387224333
 21
157.3313860482154
 72
     1
 10
293.3392387224334
 20
157.3313860482154
 11
293.3392387224334
 21
171.3313860482154
 72
     1
 10
293.3392387224334
 20
171.3313860482154
 11
293.3392387224334
 21
173.3336860482156
 72
     1
 10
293.3392387224334
 20
173.3336860482156
 11
287.3392398114407
 21
173.3336860482156
 97
        0
 75
     0
 76
     1
 52
315.0
 41
1.8897637796
 77
     0
 78
     1
 53
315.0
 43
137.7313039513671
 44
-100.854479331307
 45
4.242640687119286
 46
4.242640687119286
 79
     0
 98
        0
  0
LINE
  5
4050
330
A
100
AcDbEntity
  8
MODEL
100
AcDbLine
 10
287.3392398113671
 20
173.3336860482929
 30
0.0
 11
287.3392398113671
 21
157.331386048293
 31
0.0
  0
LINE
  5
4051
330
A
100
AcDbEntity
  8
MODEL
100
AcDbLine
 10
293.339238722367
 20
173.3336860482929
 30
0.0
 11
272.7150932785671
 21
173.3336860482929
 31
0.0
  0
LINE
  5
4052
330
A
100
AcDbEntity
  8
MODEL
100
AcDbLine
 10
287.3392398113671
 20
208.3336860482929
 30
0.0
 11
287.3392398113671
 21
224.335986048293
 31
0.0
  0
LINE
  5
4053
330
A
100
AcDbEntity
  8
MODEL
100
AcDbLine
 10
293.339238722367
 20
208.3336860482929
 30
0.0
 11
272.7150932785671
 21
208.3336860482929
 31
0.0
  0
LINE
  5
4054
330
A
100
AcDbEntity
  8
MODEL
100
AcDbLine
 10
293.339238722367
 20
141.833686048293
 30
0.0
 11
293.339238722367
 21
239.833686048293
 31
0.0
  0
CIRCLE
  5
40EE
330
A
100
AcDbEntity
  8
MODEL
100
AcDbCircle
 10
91.55345380035891
 20
505.33517708825
 30
0.0
 40
17.5
  0
ARC
  5
40EF
330
A
100
AcDbEntity
  8
MODEL
100
AcDbCircle
 10
91.5534538003586
 20
190.833686048293
 30
0.0
 40
35.0
100
AcDbArc
 50
276.5624278685996
 51
353.4375721313998
  0
ARC
  5
40F0
330
A
100
AcDbEntity
  8
MODEL
100
AcDbCircle
 10
91.5534538003586
 20
190.833686048293
 30
0.0
 40
35.0
100
AcDbArc
 50
186.5624278686001
 51
263.4375721314
  0
ARC
  5
40F1
330
A
100
AcDbEntity
  8
MODEL
100
AcDbCircle
 10
91.5534538003586
 20
190.833686048293
 30
0.0
 40
35.0
100
AcDbArc
 50
96.56242786860005
 51
173.4375721313999
  0
ARC
  5
40F2
330
A
100
AcDbEntity
  8
MODEL
100
AcDbCircle
 10
91.5534538003586
 20
190.833686048293
 30
0.0
 40
35.0
100
AcDbArc
 50
6.562427868599872
 51
83.43757213140033
  0
ARC
  5
40F3
330
A
100
AcDbEntity
  8
MODEL
100
AcDbCircle
 10
91.5534538003586
 20
190.833686048293
 30
0.0
 40
15.0
100
AcDbArc
 50
285.4660099533997
 51
344.5339900465995
  0
ARC
  5
40F4
330
A
100
AcDbEntity
  8
MODEL
100
AcDbCircle
 10
91.5534538003586
 20
190.833686048293
 30
0.0
 40
15.0
100
AcDbArc
 50
195.4660099534003
 51
254.5339900465993
  0
ARC
  5
40F5
330
A
100
AcDbEntity
  8
MODEL
100
AcDbCircle
 10
91.5534538003586
 20
190.833686048293
 30
0.0
 40
15.0
100
AcDbArc
 50
105.4660099534007
 51
164.5339900466002
  0
ARC
  5
40F6
330
A
100
AcDbEntity
  8
MODEL
100
AcDbCircle
 10
91.5534538003586
 20
190.833686048293
 30
0.0
 40
15.0
100
AcDbArc
 50
15.46600995339982
 51
74.53399004660014
  0
ARC
  5
40F7
330
A
100
AcDbEntity
  8
MODEL
100
AcDbCircle
 10
91.5534538003586
 20
190.833686048293
 30
0.0
 40
8.200000000000003
100
AcDbArc
 50
29.19640440959938
 51
60.80359559040067
  0
ARC
  5
40F8
330
A
100
AcDbEntity
  8
MODEL
100
AcDbCircle
 10
91.5534538003586
 20
190.833686048293
 30
0.0
 40
8.200000000000005
100
AcDbArc
 50
119.1964044095993
 51
150.8035955904006
  0
ARC
  5
40F9
330
A
100
AcDbEntity
  8
MODEL
100
AcDbCircle
 10
91.5534538003586
 20
190.833686048293
 30
0.0
 40
8.200000000000005
100
AcDbArc
 50
209.1964044096003
 51
240.8035955904007
  0
ARC
  5
40FA
330
A
100
AcDbEntity
  8
MODEL
100
AcDbCircle
 10
91.5534538003586
 20
190.833686048293
 30
0.0
 40
8.200000000000005
100
AcDbArc
 50
299.1964044095992
 51
330.8035955903995
  0
ARC
  5
40FB
330
A
100
AcDbEntity
  8
MODEL
100
AcDbCircle
 10
66.23202522895858
 20
190.833686048293
 30
0.0
 40
11.7785714285714
100
AcDbArc
 50
161.1241601598005
 51
198.8758398402005
  0
LINE
  5
40FC
330
A
100
AcDbEntity
  8
MODEL
100
AcDbLine
 10
55.35182555715855
 20
186.833686048293
 30
0.0
 11
84.46229878755852
 21
186.833686048293
 31
0.0
  0
LINE
  5
40FD
330
A
100
AcDbEntity
  8
MODEL
100
AcDbLine
 10
84.46229878755852
 20
194.833686048293
 30
0.0
 11
55.35182555715855
 21
194.833686048293
 31
0.0
  0
ARC
  5
40FE
330
A
100
AcDbEntity
  8
MODEL
100
AcDbCircle
 10
91.5534538003586
 20
216.1551146196931
 30
0.0
 40
11.77857142856588
100
AcDbArc
 50
71.12416015980091
 51
108.8758398402003
  0
LINE
  5
40FF
330
A
100
AcDbEntity
  8
MODEL
100
AcDbLine
 10
87.5534538003586
 20
227.035314291493
 30
0.0
 11
87.5534538003586
 21
197.924834032493
 31
0.0
  0
LINE
  5
4100
330
A
100
AcDbEntity
  8
MODEL
100
AcDbLine
 10
95.5534538003586
 20
197.924834032493
 30
0.0
 11
95.5534538003586
 21
227.035314291493
 31
0.0
  0
ARC
  5
4101
330
A
100
AcDbEntity
  8
MODEL
100
AcDbCircle
 10
116.8748823717584
 20
190.833686048293
 30
0.0
 40
11.77857142857096
100
AcDbArc
 50
341.1241601597998
 51
0.0
  0
ARC
  5
4102
330
A
100
AcDbEntity
  8
MODEL
100
AcDbCircle
 10
116.8748823717584
 20
190.833686048293
 30
0.0
 40
11.77857142857095
100
AcDbArc
 50
0.0
 51
18.87583984020005
  0
LINE
  5
4103
330
A
100
AcDbEntity
  8
MODEL
100
AcDbLine
 10
98.64460881295858
 20
186.833686048293
 30
0.0
 11
127.7550820435586
 21
186.833686048293
 31
0.0
  0
LINE
  5
4104
330
A
100
AcDbEntity
  8
MODEL
100
AcDbLine
 10
127.7550820435586
 20
194.833686048293
 30
0.0
 11
98.64460881295858
 21
194.833686048293
 31
0.0
  0
ARC
  5
4105
330
A
100
AcDbEntity
  8
MODEL
100
AcDbCircle
 10
91.5534538003586
 20
165.5122574766929
 30
0.0
 40
11.77857142857582
100
AcDbArc
 50
251.1241601597999
 51
288.8758398401989
  0
LINE
  5
4106
330
A
100
AcDbEntity
  8
MODEL
100
AcDbLine
 10
87.5534538003586
 20
183.742642095293
 30
0.0
 11
87.5534538003586
 21
154.632057805093
 31
0.0
  0
LINE
  5
4107
330
A
100
AcDbEntity
  8
MODEL
100
AcDbLine
 10
95.5534538003586
 20
154.632057805093
 30
0.0
 11
95.5534538003586
 21
183.742642095293
 31
0.0
  0
ARC
  5
4108
330
A
100
AcDbEntity
  8
MODEL
100
AcDbCircle
 10
55.35182555715855
 20
194.5536860482931
 30
0.0
 40
0.2799999999999994
100
AcDbArc
 50
90.0
 51
161.1241601597978
  0
ARC
  5
4109
330
A
100
AcDbEntity
  8
MODEL
100
AcDbCircle
 10
55.35182555715855
 20
187.113686048293
 30
0.0
 40
0.28
100
AcDbArc
 50
198.8758398402022
 51
270.0
  0
ARC
  5
410A
330
A
100
AcDbEntity
  8
MODEL
100
AcDbCircle
 10
87.83345380035857
 20
154.632057805093
 30
0.0
 40
0.279999999999999
100
AcDbArc
 50
180.0
 51
251.1241601597982
  0
ARC
  5
410B
330
A
100
AcDbEntity
  8
MODEL
100
AcDbCircle
 10
95.2734538003584
 20
154.632057805093
 30
0.0
 40
0.2799999999999826
100
AcDbArc
 50
288.8758398402036
 51
0.0
  0
ARC
  5
410C
330
A
100
AcDbEntity
  8
MODEL
100
AcDbCircle
 10
127.7550820435586
 20
187.113686048293
 30
0.0
 40
0.2799999999999998
100
AcDbArc
 50
270.0
 51
341.1241601597724
  0
ARC
  5
410D
330
A
100
AcDbEntity
  8
MODEL
100
AcDbCircle
 10
127.7550820435586
 20
194.5536860482931
 30
0.0
 40
0.2800000000000002
100
AcDbArc
 50
18.87583984022566
 51
90.0
  0
ARC
  5
410E
330
A
100
AcDbEntity
  8
MODEL
100
AcDbCircle
 10
95.2734538003584
 20
227.035314291493
 30
0.0
 40
0.2800000000000008
100
AcDbArc
 50
0.0
 51
71.1241601598957
  0
ARC
  5
410F
330
A
100
AcDbEntity
  8
MODEL
100
AcDbCircle
 10
87.83345380035857
 20
227.035314291493
 30
0.0
 40
0.2800000000002224
100
AcDbArc
 50
108.8758398401398
 51
180.0
  0
ARC
  5
4110
330
A
100
AcDbEntity
  8
MODEL
100
AcDbCircle
 10
95.80624353075845
 20
197.907336866893
 30
0.0
 40
0.2498750297830424
100
AcDbArc
 50
176.1406368856036
 51
227.5844735728484
  0
ARC
  5
4111
330
A
100
AcDbEntity
  8
MODEL
100
AcDbCircle
 10
87.28093270835856
 20
197.917689246893
 30
0.0
 40
0.2713836085105254
100
AcDbArc
 50
314.0034707767658
 51
1.319510716308033
  0
ARC
  5
4112
330
A
100
AcDbEntity
  8
MODEL
100
AcDbCircle
 10
98.62681465435853
 20
186.5813563030929
 30
0.0
 40
0.2493645772676858
100
AcDbArc
 50
86.05603852961178
 51
137.6149261593929
  0
ARC
  5
4113
330
A
100
AcDbEntity
  8
MODEL
100
AcDbCircle
 10
98.63934328475861
 20
195.109184927493
 30
0.0
 40
0.2750842540755348
100
AcDbArc
 50
224.1728071223094
 51
271.1978489927134
  0
ARC
  5
4114
330
A
100
AcDbEntity
  8
MODEL
100
AcDbCircle
 10
87.30064049975849
 20
183.760025165693
 30
0.0
 40
0.2498983579638016
100
AcDbArc
 50
356.1642156048025
 51
47.58204028428963
  0
ARC
  5
4115
330
A
100
AcDbEntity
  8
MODEL
100
AcDbCircle
 10
95.82601806935858
 20
183.7496524178931
 30
0.0
 40
0.2714354933777818
100
AcDbArc
 50
134.005563954327
 51
181.2955191450213
  0
ARC
  5
4116
330
A
100
AcDbEntity
  8
MODEL
100
AcDbCircle
 10
84.47685928015844
 20
195.091260098093
 30
0.0
 40
0.2551618460907468
100
AcDbArc
 50
266.9284557702147
 51
317.2320245494563
  0
ARC
  5
4117
330
A
100
AcDbEntity
  8
MODEL
100
AcDbCircle
 10
84.47663468415848
 20
186.5736107778931
 30
0.0
 40
0.2575226293938898
100
AcDbArc
 50
43.12798757688554
 51
93.09857541496841
  0
CIRCLE
  5
4118
330
A
100
AcDbEntity
  8
MODEL
100
AcDbCircle
 10
91.5534538003586
 20
190.833686048293
 30
0.0
 40
8.0
  0
LINE
  5
4167
330
A
100
AcDbEntity
  8
MODEL
100
AcDbLine
 10
106.3534538003586
 20
298.6619626434364
 30
0.0
 11
76.75345380035873
 21
298.6619626434364
 31
0.0
  0
LINE
  5
4168
330
A
100
AcDbEntity
  8
MODEL
100
AcDbLine
 10
106.2534538003587
 20
295.0619626434365
 30
0.0
 11
76.85345380035864
 21
295.0619626434365
 31
0.0
  0
LINE
  5
4169
330
A
100
AcDbEntity
  8
MODEL
100
AcDbLine
 10
76.55345380035868
 20
298.4619626434363
 30
0.0
 11
76.55345380035868
 21
295.3619626434364
 31
0.0
  0
LINE
  5
416A
330
A
100
AcDbEntity
  8
MODEL
100
AcDbLine
 10
106.5534538003587
 20
295.3619626434364
 30
0.0
 11
106.5534538003587
 21
298.4619626434363
 31
0.0
  0
ARC
  5
416B
330
A
100
AcDbEntity
  8
MODEL
100
AcDbCircle
 10
106.3534538003586
 20
298.4619626434363
 30
0.0
 40
0.1999999999999988
100
AcDbArc
 50
0.0
 51
90.0
  0
ARC
  5
416C
330
A
100
AcDbEntity
  8
MODEL
100
AcDbCircle
 10
76.75345380035873
 20
298.4619626434363
 30
0.0
 40
0.1999999999999988
100
AcDbArc
 50
90.0
 51
180.0
  0
ARC
  5
416D
330
A
100
AcDbEntity
  8
MODEL
100
AcDbCircle
 10
106.2534538003587
 20
295.3619626434364
 30
0.0
 40
0.3000000000000016
100
AcDbArc
 50
270.0
 51
0.0
  0
ARC
  5
416E
330
A
100
AcDbEntity
  8
MODEL
100
AcDbCircle
 10
76.85345380035864
 20
295.3619626434364
 30
0.0
 40
0.3
100
AcDbArc
 50
180.0
 51
270.0
  0
LINE
  5
416F
330
A
100
AcDbEntity
  8
MODEL
100
AcDbLine
 10
56.55345380035868
 20
339.6435700548365
 30
0.0
 11
126.5534538003587
 21
339.6435700548365
 31
0.0
  0
LINE
  5
4170
330
A
100
AcDbEntity
  8
MODEL
100
AcDbLine
 10
126.1134538003586
 20
331.9435700548364
 30
0.0
 11
56.99345380035874
 21
331.9435700548365
 31
0.0
  0
LINE
  5
4171
330
A
100
AcDbEntity
  8
MODEL
100
AcDbLine
 10
107.0621051687587
 20
348.8435700548363
 30
0.0
 11
76.04480243195866
 21
348.8435700548363
 31
0.0
  0
LINE
  5
4172
330
A
100
AcDbEntity
  8
MODEL
100
AcDbLine
 10
56.55345380035868
 20
339.6435700548365
 30
0.0
 11
56.55345380035868
 21
332.3835700548365
 31
0.0
  0
LINE
  5
4173
330
A
100
AcDbEntity
  8
MODEL
100
AcDbLine
 10
126.5534538003587
 20
332.3835700548365
 30
0.0
 11
126.5534538003587
 21
339.6435700548365
 31
0.0
  0
ARC
  5
4174
330
A
100
AcDbEntity
  8
MODEL
100
AcDbCircle
 10
56.99345380035874
 20
332.3835700548365
 30
0.0
 40
0.4400000000000028
100
AcDbArc
 50
180.0
 51
270.0
  0
ARC
  5
4175
330
A
100
AcDbEntity
  8
MODEL
100
AcDbCircle
 10
126.1134538003586
 20
332.3835700548365
 30
0.0
 40
0.4400000000000002
100
AcDbArc
 50
270.0
 51
0.0
  0
LINE
  5
4176
330
A
100
AcDbEntity
  8
MODEL
100
AcDbLine
 10
107.7140403977587
 20
339.6435700548365
 30
0.0
 11
107.5620290163587
 21
348.3522962580363
 31
0.0
  0
LINE
  5
4177
330
A
100
AcDbEntity
  8
MODEL
100
AcDbLine
 10
75.54487858435863
 20
348.3522962580363
 30
0.0
 11
75.39286720295871
 21
339.6435700548365
 31
0.0
  0
ARC
  5
4178
330
A
100
AcDbEntity
  8
MODEL
100
AcDbCircle
 10
76.04480243195866
 20
348.3435700548363
 30
0.0
 40
0.5000000000000004
100
AcDbArc
 50
90.0
 51
178.9999999999983
  0
ARC
  5
4179
330
A
100
AcDbEntity
  8
MODEL
100
AcDbCircle
 10
107.0621051687587
 20
348.3435700548363
 30
0.0
 40
0.5000000000000002
100
AcDbArc
 50
1.000000000001762
 51
90.0
  0
LINE
  5
417A
330
A
100
AcDbEntity
  8
MODEL
100
AcDbLine
 10
99.25345380035873
 20
275.0635700548363
 30
0.0
 11
83.85345380035864
 21
275.0635700548363
 31
0.0
  0
CIRCLE
  5
417B
330
A
100
AcDbEntity
  8
MODEL
100
AcDbCircle
 10
91.55345380035868
 20
281.3435701242364
 30
0.0
 40
4.0
  0
ARC
  5
417C
330
A
100
AcDbEntity
  8
MODEL
100
AcDbCircle
 10
105.9608697837587
 20
281.3435702480364
 30
0.0
 40
7.317460327491376
100
AcDbArc
 50
146.8633486776002
 51
213.1366384983998
  0
ARC
  5
417D
330
A
100
AcDbEntity
  8
MODEL
100
AcDbCircle
 10
77.14603770995876
 20
281.3435702458363
 30
0.0
 40
7.31746041823414
100
AcDbArc
 50
326.8633617370011
 51
33.13665087750017
  0
ARC
  5
417E
330
A
100
AcDbEntity
  8
MODEL
100
AcDbCircle
 10
99.25345380035873
 20
275.3635700548363
 30
0.0
 40
0.3000000000000086
100
AcDbArc
 50
270.0
 51
0.0
  0
ARC
  5
417F
330
A
100
AcDbEntity
  8
MODEL
100
AcDbCircle
 10
83.85345380035864
 20
275.3635700548363
 30
0.0
 40
0.3
100
AcDbArc
 50
180.0
 51
270.0
  0
ARC
  5
4180
330
A
100
AcDbEntity
  8
MODEL
100
AcDbCircle
 10
116.8748823717587
 20
281.3435701242364
 30
0.0
 40
11.77857142856565
100
AcDbArc
 50
341.1241601597993
 51
18.8758398401995
  0
LINE
  5
4181
330
A
100
AcDbEntity
  8
MODEL
100
AcDbLine
 10
127.7550820435587
 20
285.3435701242364
 30
0.0
 11
99.83345380035865
 21
285.3435701242364
 31
0.0
  0
LINE
  5
4182
330
A
100
AcDbEntity
  8
MODEL
100
AcDbLine
 10
99.83345380035865
 20
277.3435701242364
 30
0.0
 11
127.7550820435587
 21
277.3435701242364
 31
0.0
  0
ARC
  5
4183
330
A
100
AcDbEntity
  8
MODEL
100
AcDbCircle
 10
66.23202522895866
 20
281.3435701242365
 30
0.0
 40
11.77857142857582
100
AcDbArc
 50
161.1241601597999
 51
198.8758398402001
  0
LINE
  5
4184
330
A
100
AcDbEntity
  8
MODEL
100
AcDbLine
 10
83.27345380035871
 20
285.3435701242364
 30
0.0
 11
55.35182555715863
 21
285.3435701242365
 31
0.0
  0
LINE
  5
4185
330
A
100
AcDbEntity
  8
MODEL
100
AcDbLine
 10
55.35182555715863
 20
277.3435701242365
 30
0.0
 11
83.27351432955874
 21
277.3435701242364
 31
0.0
  0
ARC
  5
4186
330
A
100
AcDbEntity
  8
MODEL
100
AcDbCircle
 10
55.35182555715863
 20
285.0635701242365
 30
0.0
 40
0.2800000000000024
100
AcDbArc
 50
90.0
 51
161.1241601597983
  0
ARC
  5
4187
330
A
100
AcDbEntity
  8
MODEL
100
AcDbCircle
 10
55.35182555715863
 20
277.6235701242364
 30
0.0
 40
0.2800000000000018
100
AcDbArc
 50
198.8758398402017
 51
270.0
  0
ARC
  5
4188
330
A
100
AcDbEntity
  8
MODEL
100
AcDbCircle
 10
127.7550820435587
 20
277.6235701242364
 30
0.0
 40
0.2800000000000024
100
AcDbArc
 50
270.0
 51
341.1241601598957
  0
ARC
  5
4189
330
A
100
AcDbEntity
  8
MODEL
100
AcDbCircle
 10
127.7550820435587
 20
285.0635701242364
 30
0.0
 40
0.2800000000002232
100
AcDbArc
 50
18.87583984008737
 51
90.0
  0
ARC
  5
418A
330
A
100
AcDbEntity
  8
MODEL
100
AcDbCircle
 10
99.8217246165587
 20
285.6171089130363
 30
0.0
 40
0.2671198414200744
100
AcDbArc
 50
178.8075405370956
 51
253.7993729955858
  0
ARC
  5
418B
330
A
100
AcDbEntity
  8
MODEL
100
AcDbCircle
 10
99.82324348635865
 20
277.0779525926363
 30
0.0
 40
0.2630699583766106
100
AcDbArc
 50
87.79192200379507
 51
162.8687696373913
  0
ARC
  5
418C
330
A
100
AcDbEntity
  8
MODEL
100
AcDbCircle
 10
99.77200565355878
 20
277.0658543738365
 30
0.0
 40
0.2192949425397532
100
AcDbArc
 50
155.8875110560485
 51
193.7071739239362
  0
ARC
  5
418D
330
A
100
AcDbEntity
  8
MODEL
100
AcDbCircle
 10
83.32869451715868
 20
277.0642674990364
 30
0.0
 40
0.2253043672253292
100
AcDbArc
 50
347.4527559068692
 51
19.46322584951514
  0
ARC
  5
418E
330
A
100
AcDbEntity
  8
MODEL
100
AcDbCircle
 10
83.28400469555862
 20
277.0747669934364
 30
0.0
 40
0.2651035941823262
100
AcDbArc
 50
14.09757225431648
 51
92.24026362368275
  0
ARC
  5
418F
330
A
100
AcDbEntity
  8
MODEL
100
AcDbCircle
 10
83.27620479495869
 20
285.6218076724364
 30
0.0
 40
0.2771005124403014
100
AcDbArc
 50
266.4734827945923
 51
0.187265408789673
  0
LINE
  5
4190
330
A
100
AcDbEntity
  8
MODEL
100
AcDbLine
 10
83.55345380035868
 20
277.0635701242364
 30
0.0
 11
83.55345380035868
 21
275.3635700548363
 31
0.0
  0
LINE
  5
4191
330
A
100
AcDbEntity
  8
MODEL
100
AcDbLine
 10
83.55345380035868
 20
295.0619626434365
 30
0.0
 11
83.55345380035868
 21
285.6235701242364
 31
0.0
  0
LINE
  5
4192
330
A
100
AcDbEntity
  8
MODEL
100
AcDbLine
 10
99.55345380035868
 20
285.6235701242364
 30
0.0
 11
99.55345380035868
 21
295.0619626434365
 31
0.0
  0
LINE
  5
4193
330
A
100
AcDbEntity
  8
MODEL
100
AcDbLine
 10
99.55345380035868
 20
275.3635700548363
 30
0.0
 11
99.55345380035868
 21
277.0635701242364
 31
0.0
  0
LINE
  5
4194
330
A
100
AcDbEntity
  8
MODEL
100
AcDbLine
 10
99.25345380035873
 20
273.0635700548363
 30
0.0
 11
83.85345380035864
 21
273.0635700548363
 31
0.0
  0
LINE
  5
4195
330
A
100
AcDbEntity
  8
MODEL
100
AcDbLine
 10
99.25345380035873
 20
275.0635700548363
 30
0.0
 11
83.85345380035864
 21
275.0635700548363
 31
0.0
  0
LINE
  5
4196
330
A
100
AcDbEntity
  8
MODEL
100
AcDbLine
 10
99.55345380035868
 20
273.3635700548363
 30
0.0
 11
99.55345380035868
 21
274.7635700548364
 31
0.0
  0
LINE
  5
4197
330
A
100
AcDbEntity
  8
MODEL
100
AcDbLine
 10
83.55345380035868
 20
274.7635700548364
 30
0.0
 11
83.55345380035868
 21
273.3635700548363
 31
0.0
  0
ARC
  5
4198
330
A
100
AcDbEntity
  8
MODEL
100
AcDbCircle
 10
99.25345380035873
 20
273.3635700548363
 30
0.0
 40
0.2999999999999948
100
AcDbArc
 50
270.0
 51
0.0
  0
ARC
  5
4199
330
A
100
AcDbEntity
  8
MODEL
100
AcDbCircle
 10
83.85345380035864
 20
273.3635700548363
 30
0.0
 40
0.3000000000000008
100
AcDbArc
 50
180.0
 51
270.0
  0
ARC
  5
419A
330
A
100
AcDbEntity
  8
MODEL
100
AcDbCircle
 10
83.85345380035864
 20
274.7635700548364
 30
0.0
 40
0.3000000000000086
100
AcDbArc
 50
90.0
 51
180.0
  0
ARC
  5
419B
330
A
100
AcDbEntity
  8
MODEL
100
AcDbCircle
 10
99.25345380035873
 20
274.7635700548364
 30
0.0
 40
0.3000000000000016
100
AcDbArc
 50
0.0
 51
90.0
  0
LINE
  5
419C
330
A
100
AcDbEntity
  8
MODEL
100
AcDbLine
 10
106.3534538003586
 20
298.6619626434364
 30
0.0
 11
76.75345380035873
 21
298.6619626434364
 31
0.0
  0
LINE
  5
419D
330
A
100
AcDbEntity
  8
MODEL
100
AcDbLine
 10
106.5534538003587
 20
298.8619626434364
 30
0.0
 11
106.5534538003587
 21
331.9435700548364
 31
0.0
  0
LINE
  5
419E
330
A
100
AcDbEntity
  8
MODEL
100
AcDbLine
 10
76.55345380035868
 20
331.9435700548364
 30
0.0
 11
76.55345380035868
 21
298.8619626434364
 31
0.0
  0
ARC
  5
419F
330
A
100
AcDbEntity
  8
MODEL
100
AcDbCircle
 10
76.75345380035873
 20
298.8619626434364
 30
0.0
 40
0.2000000000000006
100
AcDbArc
 50
180.0
 51
270.0
  0
ARC
  5
41A0
330
A
100
AcDbEntity
  8
MODEL
100
AcDbCircle
 10
106.3534538003586
 20
298.8619626434364
 30
0.0
 40
0.2000000000000058
100
AcDbArc
 50
270.0
 51
0.0
  0
LINE
  5
41A1
330
A
100
AcDbEntity
  8
MODEL
100
AcDbLine
 10
60.12579608995867
 20
339.6435700548365
 30
0.0
 11
84.37416252355871
 21
339.6435700548365
 31
0.0
  0
HATCH
  5
41A3
330
A
100
AcDbEntity
  8
MODEL
100
AcDbHatch
 10
0.0
 20
0.0
 30
0.0
210
0.0
220
0.0
230
1.0
  2
LINE
 70
     0
 71
     0
 91
        1
 92
        1
 93
        4
 72
     1
 10
125.0557538003874
 20
345.6435689657629
 11
125.0557538003874
 21
360.2677154986119
 72
     1
 10
125.0557538003875
 20
360.2677154986119
 11
109.0534538003877
 21
360.2677154986119
 72
     1
 10
109.0534538003877
 20
360.2677154986119
 11
109.0534538003877
 21
345.6435689657629
 72
     1
 10
109.0534538003876
 20
345.6435689657629
 11
125.0557538003874
 21
345.6435689657629
 97
        0
 75
     0
 76
     1
 52
315.0
 41
1.889763779600003
 77
     0
 78
     1
 53
315.0
 43
-387.9674280416413
 44
495.2515048258366
 45
4.242640687119287
 46
4.242640687119285
 79
     0
 98
        0
  0
HATCH
  5
41A4
330
A
100
AcDbEntity
  8
MODEL
100
AcDbHatch
 10
0.0
 20
0.0
 30
0.0
210
0.0
220
0.0
230
1.0
  2
LINE
 70
     0
 71
     0
 91
        1
 92
        1
 93
        5
 72
     1
 10
125.0557538003874
 20
345.6435689657629
 11
109.0534538003876
 21
345.6435689657629
 72
     1
 10
109.0534538003876
 20
345.6435689657629
 11
109.0534538003876
 21
339.6435700547703
 72
     1
 10
109.0534538003876
 20
339.6435700547701
 11
111.0557538003875
 21
339.6435700547701
 72
     1
 10
111.0557538003873
 20
339.6435700547701
 11
125.0557538003875
 21
339.6435700547701
 72
     1
 10
125.0557538003874
 20
339.6435700547701
 11
125.0557538003874
 21
345.6435689657627
 97
        0
 75
     0
 76
     1
 52
225.0
 41
1.8897637796
 77
     0
 78
     1
 53
225.0
 43
-387.9674280416413
 44
495.2515048258366
 45
4.242640687119285
 46
-4.242640687119287
 79
     0
 98
        0
  0
HATCH
  5
41A5
330
A
100
AcDbEntity
  8
MODEL
100
AcDbHatch
 10
0.0
 20
0.0
 30
0.0
210
0.0
220
0.0
230
1.0
  2
LINE
 70
     0
 71
     0
 91
        1
 92
        1
 93
        4
 72
     1
 10
58.05115380038762
 20
360.267715498612
 11
58.05115380038762
 21
345.6435689657631
 72
     1
 10
58.05115380038757
 20
345.6435689657631
 11
74.05345380038779
 21
345.6435689657631
 72
     1
 10
74.05345380038767
 20
345.6435689657631
 11
74.05345380038767
 21
360.2677154986119
 72
     1
 10
74.05345380038773
 20
360.267715498612
 11
58.05115380038751
 21
360.267715498612
 97
        0
 75
     0
 76
     1
 52
315.0
 41
1.889763779600003
 77
     0
 78
     1
 53
315.0
 43
-356.9720280416412
 44
495.2515048258366
 45
4.242640687119287
 46
4.242640687119285
 79
     0
 98
        0
  0
HATCH
  5
41A6
330
A
100
AcDbEntity
  8
MODEL
100
AcDbHatch
 10
0.0
 20
0.0
 30
0.0
210
0.0
220
0.0
230
1.0
  2
LINE
 70
     0
 71
     0
 91
        1
 92
        1
 93
        5
 72
     1
 10
74.05345380038767
 20
345.6435689657631
 11
58.05115380038745
 21
345.6435689657631
 72
     1
 10
58.05115380038757
 20
345.6435689657631
 11
58.05115380038757
 21
339.6435700547704
 72
     1
 10
58.05115380038757
 20
339.6435700547701
 11
72.05115380038757
 21
339.6435700547701
 72
     1
 10
72.05115380038757
 20
339.6435700547701
 11
74.05345380038779
 21
339.6435700547701
 72
     1
 10
74.05345380038767
 20
339.6435700547701
 11
74.05345380038767
 21
345.6435689657628
 97
        0
 75
     0
 76
     1
 52
225.0
 41
1.8897637796
 77
     0
 78
     1
 53
225.0
 43
-356.9720280416412
 44
495.2515048258366
 45
4.242640687119285
 46
-4.242640687119287
 79
     0
 98
        0
  0
LINE
  5
41A9
330
A
100
AcDbEntity
  8
MODEL
100
AcDbLine
 10
74.05345380035868
 20
345.6435689658365
 30
0.0
 11
58.05115380035869
 21
345.6435689658365
 31
0.0
  0
LINE
  5
41AA
330
A
100
AcDbEntity
  8
MODEL
100
AcDbLine
 10
74.05345380035868
 20
339.6435700548365
 30
0.0
 11
74.05345380035874
 21
360.2677154986366
 31
0.0
  0
LINE
  5
41AB
330
A
100
AcDbEntity
  8
MODEL
100
AcDbLine
 10
109.0534538003587
 20
345.6435689658364
 30
0.0
 11
125.0557538003586
 21
345.6435689658364
 31
0.0
  0
LINE
  5
41AC
330
A
100
AcDbEntity
  8
MODEL
100
AcDbLine
 10
109.0534538003587
 20
339.6435700548365
 30
0.0
 11
109.0534538003587
 21
360.2677154986364
 31
0.0
  0
LINE
  5
41AD
330
A
100
AcDbEntity
  8
MODEL
100
AcDbLine
 10
42.55345380035868
 20
339.6435700548365
 30
0.0
 11
140.5534538003587
 21
339.6435700548365
 31
0.0
  0
DIMENSION
  5
41B6
330
A
100
AcDbEntity
  8
DIM
100
AcDbDimension
  2
*D6
 10
301.0392387223671
 20
125.3760428067842
 30
0.0
 11
311.7975192736924
 21
125.3760428067842
 31
0.0
 70
   160
 71
     5
 42
7.700000000000045
 73
     0
 74
     1
 75
     1
  3
tfrom線あり
100
AcDbAlignedDimension
 13
293.339238722367
 23
141.833686048293
 33
0.0
 14
301.0392387223671
 24
156.2736860482929
 34
0.0
100
AcDbRotatedDimension
1001
ACAD
1000
DSTYLE
1002
{
1070
   172
1070
     1
1002
}
  0
DIMENSION
  5
41B7
330
A
100
AcDbEntity
  8
DIM
100
AcDbDimension
  2
*D7
 10
359.9192387223672
 20
111.5038353116162
 30
0.0
 11
326.6292374921671
 21
111.5038353116162
 31
0.0
 70
   160
  1
\A1;<>
 71
     5
 42
66.58000000000015
 73
     0
 74
     0
 75
     0
  3
tfrom線あり
100
AcDbAlignedDimension
 13
293.339238722367
 23
141.833686048293
 33
0.0
 14
359.9192387223672
 24
183.1336860482929
 34
0.0
100
AcDbRotatedDimension
  0
LINE
  5
4241
330
A
100
AcDbEntity
  8
DIM
100
AcDbLine
 10
296.969238722367
 20
225.833686048293
 30
0.0
 11
308.2220832751515
 21
255.6217787993068
 31
0.0
  0
LINE
  5
4242
330
A
100
AcDbEntity
  8
DIM
100
AcDbLine
 10
308.2220832751515
 20
255.6217787993068
 30
0.0
 11
327.8341794696804
 21
255.6217787993068
 31
0.0
  0
MTEXT
  5
4276
330
A
100
AcDbEntity
  8
DIM
390
1D
100
AcDbMText
 10
312.3649123028281
 20
262.5875264015925
 30
0.0
 40
5.0
 41
379.8864500372819
 46
5.0
 71
     1
 72
     1
  1
{Ø70}
  7
ＭＳ ゴシック
 73
     1
 44
0.9822934569727008
1001
ACAD
1000
ACAD_MTEXT_DEFINED_HEIGHT_BEGIN
1070
    46
1040
5.0
1000
ACAD_MTEXT_DEFINED_HEIGHT_END
  0
LINE
  5
42E6
330
A
100
AcDbEntity
  8
DIM
100
AcDbLine
 10
105.0165411389158
 20
494.1550483182228
 30
0.0
 11
118.3367141760001
 21
472.9342221735876
 31
0.0
  0
LINE
  5
42E7
330
A
100
AcDbEntity
  8
DIM
100
AcDbLine
 10
118.3367141760001
 20
472.9342221735876
 30
0.0
 11
159.3876074880002
 21
472.9342221735876
 31
0.0
  0
MTEXT
  5
431A
330
A
100
AcDbEntity
  8
DIM
390
1D
100
AcDbMText
 10
120.6149370240002
 20
479.4626464935877
 30
0.0
 40
5.0
 41
379.886450037282
 46
5.585
 71
     1
 72
     1
  1
{Ø35(%%c35-%%c40)}
  7
ＭＳ ゴシック
 73
     1
 44
0.9822934569727008
1001
ACAD
1000
ACAD_MTEXT_DEFINED_HEIGHT_BEGIN
1070
    46
1040
5.585
1000
ACAD_MTEXT_DEFINED_HEIGHT_END
  0
LINE
  5
440C
330
A
100
AcDbEntity
  8
MODEL
100
AcDbLine
 10
266.0995832763674
 20
175.3336860481929
 30
0.0
 11
266.0995832763674
 21
206.3336860481929
 31
0.0
  0
LINE
  5
440D
330
A
100
AcDbEntity
  8
MODEL
100
AcDbLine
 10
257.0995832763674
 20
175.3336860481929
 30
0.0
 11
257.0995832763674
 21
206.3336860481929
 31
0.0
  0
LINE
  5
440E
330
A
100
AcDbEntity
  8
MODEL
100
AcDbLine
 10
257.0995832763674
 20
175.3336860481929
 30
0.0
 11
266.0995832763674
 21
175.3336860481929
 31
0.0
  0
LINE
  5
440F
330
A
100
AcDbEntity
  8
MODEL
100
AcDbLine
 10
266.0995832763674
 20
206.3336860481929
 30
0.0
 11
257.0995832763674
 21
206.3336860481929
 31
0.0
  0
LINE
  5
4410
330
A
100
AcDbEntity
  8
MODEL
100
AcDbLine
 10
284.1392387223672
 20
204.8336860481929
 30
0.0
 11
266.0995832763674
 21
204.8336860481929
 31
0.0
  0
LINE
  5
4411
330
A
100
AcDbEntity
  8
MODEL
100
AcDbLine
 10
284.1392387223672
 20
203.9136860481929
 30
0.0
 11
266.0995832763674
 21
203.9136860481929
 31
0.0
  0
LINE
  5
4412
330
A
100
AcDbEntity
  8
MODEL
100
AcDbLine
 10
284.1392387223672
 20
177.7536860481928
 30
0.0
 11
266.0995832763674
 21
177.7536860481928
 31
0.0
  0
LINE
  5
4413
330
A
100
AcDbEntity
  8
MODEL
100
AcDbLine
 10
266.0995832763674
 20
176.8336860481929
 30
0.0
 11
284.1392387223672
 21
176.8336860481929
 31
0.0
  0
LINE
  5
4414
330
A
100
AcDbEntity
  8
MODEL
100
AcDbLine
 10
233.5995832763675
 20
228.3336860481928
 30
0.0
 11
201.5995832763672
 21
228.3336860481928
 31
0.0
  0
LINE
  5
4415
330
A
100
AcDbEntity
  8
MODEL
100
AcDbLine
 10
236.0747832763676
 20
226.903686048193
 30
0.0
 11
236.0747832763676
 21
212.497686048193
 31
0.0
  0
LINE
  5
4416
330
A
100
AcDbEntity
  8
MODEL
100
AcDbLine
 10
233.5995832763675
 20
228.3336860481928
 30
0.0
 11
236.0747832763676
 21
226.903686048193
 31
0.0
  0
LINE
  5
4417
330
A
100
AcDbEntity
  8
MODEL
100
AcDbLine
 10
201.5995832763672
 20
228.3336860481928
 30
0.0
 11
199.1243832763673
 21
226.903686048193
 31
0.0
  0
LINE
  5
4418
330
A
100
AcDbEntity
  8
MODEL
100
AcDbLine
 10
199.1243832763673
 20
226.903686048193
 30
0.0
 11
199.1243832763673
 21
210.0436860481928
 31
0.0
  0
LINE
  5
4419
330
A
100
AcDbEntity
  8
MODEL
100
AcDbLine
 10
236.0747832763676
 20
154.7636860481926
 30
0.0
 11
236.0747832763676
 21
164.3336860481928
 31
0.0
  0
LINE
  5
441A
330
A
100
AcDbEntity
  8
MODEL
100
AcDbLine
 10
233.5995832763675
 20
153.3336860481928
 30
0.0
 11
236.0747832763676
 21
154.7636860481926
 31
0.0
  0
LINE
  5
441B
330
A
100
AcDbEntity
  8
MODEL
100
AcDbLine
 10
233.5995832763675
 20
153.3336860481928
 30
0.0
 11
201.5995832763672
 21
153.3336860481928
 31
0.0
  0
LINE
  5
441C
330
A
100
AcDbEntity
  8
MODEL
100
AcDbLine
 10
201.5995832763672
 20
153.3336860481928
 30
0.0
 11
199.1243832763673
 21
154.7636860481926
 31
0.0
  0
LINE
  5
441D
330
A
100
AcDbEntity
  8
MODEL
100
AcDbLine
 10
199.1243832763673
 20
154.7636860481926
 30
0.0
 11
199.1243832763673
 21
170.3336860481928
 31
0.0
  0
LINE
  5
441E
330
A
100
AcDbEntity
  8
MODEL
100
AcDbLine
 10
236.0747832763676
 20
154.7636860481926
 30
0.0
 11
236.0747832763676
 21
169.169686048193
 31
0.0
  0
LINE
  5
441F
330
A
100
AcDbEntity
  8
MODEL
100
AcDbLine
 10
208.3619832763673
 20
226.903686048193
 30
0.0
 11
208.3619832763673
 21
210.0436860481928
 31
0.0
  0
LINE
  5
4420
330
A
100
AcDbEntity
  8
MODEL
100
AcDbLine
 10
226.8371832763672
 20
226.903686048193
 30
0.0
 11
226.8371832763672
 21
210.0436860481928
 31
0.0
  0
LINE
  5
4421
330
A
100
AcDbEntity
  8
MODEL
100
AcDbLine
 10
226.8371832763672
 20
154.7636860481926
 30
0.0
 11
226.8371832763672
 21
171.6236860481928
 31
0.0
  0
LINE
  5
4422
330
A
100
AcDbEntity
  8
MODEL
100
AcDbLine
 10
208.3619832763673
 20
154.7636860481926
 30
0.0
 11
208.3619832763673
 21
171.6236860481928
 31
0.0
  0
LINE
  5
4423
330
A
100
AcDbEntity
  8
MODEL
100
AcDbLine
 10
219.5995832763672
 20
183.3336860481928
 30
0.0
 11
219.5995832763672
 21
189.5836860481928
 31
0.0
  0
LINE
  5
4424
330
A
100
AcDbEntity
  8
MODEL
100
AcDbLine
 10
215.5995832763672
 20
183.3336860481928
 30
0.0
 11
215.5995832763672
 21
189.5836860481928
 31
0.0
  0
LINE
  5
4425
330
A
100
AcDbEntity
  8
MODEL
100
AcDbLine
 10
217.5995832763672
 20
198.3336860481928
 30
0.0
 11
219.5995832763672
 21
194.8696860481928
 31
0.0
  0
LINE
  5
4426
330
A
100
AcDbEntity
  8
MODEL
100
AcDbLine
 10
217.5995832763672
 20
198.3336860481928
 30
0.0
 11
215.5995832763672
 21
194.8696860481928
 31
0.0
  0
LINE
  5
4427
330
A
100
AcDbEntity
  8
MODEL
100
AcDbLine
 10
218.3495832763672
 20
190.8336860481928
 30
0.0
 11
218.3495832763672
 21
194.8696860481928
 31
0.0
  0
LINE
  5
4428
330
A
100
AcDbEntity
  8
MODEL
100
AcDbLine
 10
216.8495832763672
 20
190.8336860481928
 30
0.0
 11
216.8495832763672
 21
194.8696860481928
 31
0.0
  0
LINE
  5
4429
330
A
100
AcDbEntity
  8
MODEL
100
AcDbLine
 10
218.3495832763672
 20
190.8336860481928
 30
0.0
 11
219.5995832763672
 21
189.5836860481928
 31
0.0
  0
LINE
  5
442A
330
A
100
AcDbEntity
  8
MODEL
100
AcDbLine
 10
216.8495832763672
 20
190.8336860481928
 30
0.0
 11
215.5995832763672
 21
189.5836860481928
 31
0.0
  0
LINE
  5
442B
330
A
100
AcDbEntity
  8
MODEL
100
AcDbLine
 10
217.5995832763672
 20
185.3336860481928
 30
0.0
 11
215.5995832763672
 21
183.3336860481928
 31
0.0
  0
LINE
  5
442C
330
A
100
AcDbEntity
  8
MODEL
100
AcDbLine
 10
217.5995832763672
 20
185.3336860481928
 30
0.0
 11
219.5995832763672
 21
183.3336860481928
 31
0.0
  0
LINE
  5
442D
330
A
100
AcDbEntity
  8
MODEL
100
AcDbLine
 10
219.5995832763672
 20
194.8696860481928
 30
0.0
 11
218.3495832763672
 21
194.8696860481928
 31
0.0
  0
LINE
  5
442E
330
A
100
AcDbEntity
  8
MODEL
100
AcDbLine
 10
216.8495832763672
 20
194.8696860481928
 30
0.0
 11
215.5995832763672
 21
194.8696860481928
 31
0.0
  0
LINE
  5
442F
330
A
100
AcDbEntity
  8
MODEL
100
AcDbLine
 10
198.0995832763672
 20
205.8336860481928
 30
0.0
 11
198.0995832763672
 21
175.8336860481928
 31
0.0
  0
LINE
  5
4430
330
A
100
AcDbEntity
  8
MODEL
100
AcDbLine
 10
198.8245832763673
 20
205.8336860481928
 30
0.0
 11
198.0995832763672
 21
205.8336860481928
 31
0.0
  0
LINE
  5
4431
330
A
100
AcDbEntity
  8
MODEL
100
AcDbLine
 10
198.8245832763673
 20
175.8336860481928
 30
0.0
 11
198.0995832763672
 21
175.8336860481928
 31
0.0
  0
LINE
  5
4432
330
A
100
AcDbEntity
  8
MODEL
100
AcDbLine
 10
231.5477832763675
 20
207.649686048193
 30
0.0
 11
207.2007832763673
 21
207.649686048193
 31
0.0
  0
LINE
  5
4433
330
A
100
AcDbEntity
  8
MODEL
100
AcDbLine
 10
226.8371832763672
 20
210.0436860481928
 30
0.0
 11
198.9687832763672
 21
210.0436860481928
 31
0.0
  0
LINE
  5
4434
330
A
100
AcDbEntity
  8
MODEL
100
AcDbLine
 10
250.5995832763675
 20
207.3336860481928
 30
0.0
 11
250.5995832763675
 21
174.3336860481928
 31
0.0
  0
LINE
  5
4435
330
A
100
AcDbEntity
  8
MODEL
100
AcDbLine
 10
250.5995832763675
 20
174.8336860481928
 30
0.0
 11
250.0995832763675
 21
174.3336860481928
 31
0.0
  0
LINE
  5
4436
330
A
100
AcDbEntity
  8
MODEL
100
AcDbLine
 10
254.0995832763675
 20
207.3336860481928
 30
0.0
 11
250.5995832763675
 21
207.3336860481928
 31
0.0
  0
LINE
  5
4437
330
A
100
AcDbEntity
  8
MODEL
100
AcDbLine
 10
241.5995832763675
 20
208.1836860481929
 30
0.0
 11
241.5995832763675
 21
173.4836860481929
 31
0.0
  0
LINE
  5
4438
330
A
100
AcDbEntity
  8
MODEL
100
AcDbLine
 10
254.0995832763675
 20
174.3336860481928
 30
0.0
 11
250.5995832763675
 21
174.3336860481928
 31
0.0
  0
LINE
  5
4439
330
A
100
AcDbEntity
  8
MODEL
100
AcDbLine
 10
250.5995832763675
 20
206.8336860481928
 30
0.0
 11
250.0995832763675
 21
207.3336860481928
 31
0.0
  0
LINE
  5
443A
330
A
100
AcDbEntity
  8
MODEL
100
AcDbLine
 10
250.0995832763675
 20
207.3336860481928
 30
0.0
 11
250.0995832763675
 21
174.3336860481928
 31
0.0
  0
LINE
  5
443B
330
A
100
AcDbEntity
  8
MODEL
100
AcDbLine
 10
226.8371832763672
 20
171.6236860481928
 30
0.0
 11
198.9687832763672
 21
171.6236860481928
 31
0.0
  0
LINE
  5
443C
330
A
100
AcDbEntity
  8
MODEL
100
AcDbLine
 10
231.5477832763675
 20
174.017686048193
 30
0.0
 11
207.2007832763673
 21
174.017686048193
 31
0.0
  0
LINE
  5
443D
330
A
100
AcDbEntity
  8
MODEL
100
AcDbLine
 10
254.0995832763675
 20
207.3336860481928
 30
0.0
 11
254.0995832763675
 21
174.3336860481928
 31
0.0
  0
LINE
  5
443E
330
A
100
AcDbEntity
  8
MODEL
100
AcDbLine
 10
257.0995832763674
 20
178.4836860481929
 30
0.0
 11
257.0995832763674
 21
203.1836860481929
 31
0.0
  0
LINE
  5
443F
330
A
100
AcDbEntity
  8
MODEL
100
AcDbLine
 10
257.0995832763674
 20
203.1836860481929
 30
0.0
 11
254.0995832763675
 21
203.1836860481929
 31
0.0
  0
LINE
  5
4440
330
A
100
AcDbEntity
  8
MODEL
100
AcDbLine
 10
257.0995832763674
 20
178.4836860481929
 30
0.0
 11
254.0995832763675
 21
178.4836860481929
 31
0.0
  0
LINE
  5
4441
330
A
100
AcDbEntity
  8
MODEL
100
AcDbLine
 10
250.0995832763675
 20
207.3336860481928
 30
0.0
 11
241.5995832763675
 21
207.3336860481928
 31
0.0
  0
LINE
  5
4442
330
A
100
AcDbEntity
  8
MODEL
100
AcDbLine
 10
250.0995832763675
 20
174.3336860481928
 30
0.0
 11
241.5995832763675
 21
174.3336860481928
 31
0.0
  0
ARC
  5
4443
330
A
100
AcDbEntity
  8
MODEL
100
AcDbCircle
 10
203.7431692763673
 20
220.155098048193
 30
0.0
 40
8.178624
100
AcDbArc
 50
55.61582200000041
 51
115.6158739999999
  0
ARC
  5
4444
330
A
100
AcDbEntity
  8
MODEL
100
AcDbCircle
 10
231.4559972763676
 20
220.155098048193
 30
0.0
 40
8.178624
100
AcDbArc
 50
64.38442600000039
 51
124.3844790000009
  0
ARC
  5
4445
330
A
100
AcDbEntity
  8
MODEL
100
AcDbCircle
 10
217.5995832763672
 20
197.7628240481928
 30
0.0
 40
30.570878
100
AcDbArc
 50
72.41214600000013
 51
107.5881549999998
  0
ARC
  5
4446
330
A
100
AcDbEntity
  8
MODEL
100
AcDbCircle
 10
231.4559972763676
 20
161.512274048193
 30
0.0
 40
8.178624
100
AcDbArc
 50
235.6156680000012
 51
295.6157209999989
  0
ARC
  5
4447
330
A
100
AcDbEntity
  8
MODEL
100
AcDbCircle
 10
217.5995832763672
 20
183.9045480481928
 30
0.0
 40
30.570878
100
AcDbArc
 50
252.4119950000001
 51
287.5880049999999
  0
ARC
  5
4448
330
A
100
AcDbEntity
  8
MODEL
100
AcDbCircle
 10
203.7431692763673
 20
161.512274048193
 30
0.0
 40
8.178624
100
AcDbArc
 50
244.3842790000012
 51
304.3843319999979
  0
ARC
  5
4449
330
A
100
AcDbEntity
  8
MODEL
100
AcDbCircle
 10
698.5995832763674
 20
190.8336860481927
 30
0.0
 40
500.0
100
AcDbArc
 50
177.7981469999999
 51
182.3497129999996
  0
ARC
  5
444A
330
A
100
AcDbEntity
  8
MODEL
100
AcDbCircle
 10
223.5995832763672
 20
190.8336860481928
 30
0.0
 40
25.0
100
AcDbArc
 50
299.9344390000003
 51
316.0545189999998
  0
ARC
  5
444B
330
A
100
AcDbEntity
  8
MODEL
100
AcDbCircle
 10
236.0747872763674
 20
193.8952700481928
 30
0.0
 40
18.603326
100
AcDbArc
 50
90.00014300000001
 51
119.772608
  0
ARC
  5
444C
330
A
100
AcDbEntity
  8
MODEL
100
AcDbCircle
 10
223.5995832763672
 20
190.8336860481928
 30
0.0
 40
25.0
100
AcDbArc
 50
43.94562800000041
 51
60.06570800000007
  0
ARC
  5
444D
330
A
100
AcDbEntity
  8
MODEL
100
AcDbCircle
 10
236.0747872763674
 20
187.7721020481927
 30
0.0
 40
18.603326
100
AcDbArc
 50
240.2275349999992
 51
270.0
  0
ARC
  5
444E
330
A
100
AcDbEntity
  8
MODEL
100
AcDbCircle
 10
220.0373892763673
 20
190.8336860481928
 30
0.0
 40
20.377374
100
AcDbArc
 50
289.4931609999993
 51
70.50698600000032
  0
ARC
  5
444F
330
A
100
AcDbEntity
  8
MODEL
100
AcDbCircle
 10
207.2007332763672
 20
222.998054048193
 30
0.0
 40
15.349218
100
AcDbArc
 50
237.5668530000002
 51
270.0
  0
ARC
  5
4450
330
A
100
AcDbEntity
  8
MODEL
100
AcDbCircle
 10
207.2007332763672
 20
158.669318048193
 30
0.0
 40
15.349218
100
AcDbArc
 50
89.99985699999979
 51
122.432996
  0
LINE
  5
4451
330
A
100
AcDbEntity
  8
MODEL
 48
25.4
100
AcDbLine
 10
257.0995832763674
 20
178.483686048193
 30
0.0
 11
257.0995832763674
 21
203.1836860481928
 31
0.0
  0
MTEXT
  5
4452
330
A
100
AcDbEntity
  8
DIM
390
1D
100
AcDbMText
 10
253.1671734022084
 20
239.3269590922014
 30
0.0
 40
4.8865234375
 41
0.0
 46
4.8865234375
 71
     1
 72
     1
  1
{\fＭＳ ゴシック|b0|i0|c1|p0;M24}
  7
ＭＳ ゴシック
 73
     1
 44
0.7828267384257843
1001
ACAD
1000
ACAD_MTEXT_DEFINED_HEIGHT_BEGIN
1070
    46
1040
4.8865234375
1000
ACAD_MTEXT_DEFINED_HEIGHT_END
  0
LINE
  5
4453
330
A
100
AcDbEntity
  8
DIM
 48
0.05
100
AcDbLine
 10
257.1756881800009
 20
196.8466249346674
 30
0.0
 11
249.6939754283868
 21
232.5829986902618
 31
0.0
  0
LINE
  5
4454
330
A
100
AcDbEntity
  8
DIM
 48
0.05
100
AcDbLine
 10
249.6939754283868
 20
232.5829986902618
 30
0.0
 11
266.8529235347201
 21
232.5829986902618
 31
0.0
  0
DIMENSION
  5
4455
330
A
100
AcDbEntity
  8
DIM
 48
0.05
100
AcDbDimension
  2
*D16
 10
184.9556078213648
 20
153.3336860481928
 30
0.0
 11
184.9556078213648
 21
190.8336860481928
 31
0.0
 70
   160
 71
     5
 42
75.0
 73
     0
 74
     0
 75
     0
  3
tfrom線あり
100
AcDbAlignedDimension
 13
201.5995832763672
 23
228.3336860481928
 33
0.0
 14
201.5995832763672
 24
153.3336860481928
 34
0.0
 50
90.0
100
AcDbRotatedDimension
  0
LINE
  5
4456
330
A
100
AcDbEntity
  8
MODEL
  6
HIDDEN
 48
0.009
100
AcDbLine
 10
204.3995533651473
 20
153.4004678994807
 30
0.0
 11
204.3995533651473
 21
164.7628510957791
 31
0.0
  0
DIMENSION
  5
4457
330
A
100
AcDbEntity
  8
DIM
 48
0.05
100
AcDbDimension
  2
*D17
 10
230.7996131875872
 20
131.5865849849588
 30
0.0
 11
217.5995029752146
 21
131.5865849849588
 31
0.0
 70
   160
  1
G3/4"
 71
     5
 42
26.40005982243997
 73
     0
 74
     0
 75
     0
 52
-90.0
  3
tfrom線あり
100
AcDbAlignedDimension
 13
204.3995533651473
 23
153.4004678994807
 33
0.0
 14
230.7996131875872
 24
153.4004678994807
 34
0.0
100
AcDbRotatedDimension
  0
DIMENSION
  5
4458
102
{ACAD_XDICTIONARY
360
4459
102
}
330
A
100
AcDbEntity
  8
DIM
 48
0.05
100
AcDbDimension
  2
*D18
 10
217.5995029752146
 20
111.5038353116162
 30
0.0
 11
255.4693708487908
 21
117.0038353116162
 31
0.0
 70
    32
  1
67-112
 71
     5
 42
75.73973574715234
 73
     0
 74
     0
 75
     0
  3
tfrom線あり
100
AcDbAlignedDimension
 13
293.339238722367
 23
116.8336860481928
 33
0.0
 14
217.5995029752146
 24
131.5865849849588
 34
0.0
100
AcDbRotatedDimension
  0
LINE
  5
445C
330
A
100
AcDbEntity
  8
MODEL
  6
HIDDEN
 48
0.009
100
AcDbLine
 10
230.7996131875872
 20
153.4004678994807
 30
0.0
 11
230.7996131875872
 21
164.7628510957791
 31
0.0
  0
LINE
  5
445D
330
A
100
AcDbEntity
  8
MODEL
  6
HIDDEN
 48
0.009
100
AcDbLine
 10
230.7996131875872
 20
228.2669041969049
 30
0.0
 11
230.7996131875872
 21
216.9045210006065
 31
0.0
  0
LINE
  5
445E
330
A
100
AcDbEntity
  8
MODEL
  6
HIDDEN
 48
0.009
100
AcDbLine
 10
204.3995533651473
 20
228.2669041969049
 30
0.0
 11
204.3995533651473
 21
216.9045210006065
 31
0.0
  0
DIMENSION
  5
445F
330
A
100
AcDbEntity
  8
DIM
 48
0.05
100
AcDbDimension
  2
*D19
 10
230.7996131875872
 20
242.7171489461264
 30
0.0
 11
217.5995029752146
 21
242.7171489461264
 31
0.0
 70
   160
  1
G3/4"
 71
     5
 42
26.40005982243997
 73
     0
 74
     0
 75
     0
  3
tfrom線あり
100
AcDbAlignedDimension
 13
204.3995533651473
 23
228.2669041969049
 33
0.0
 14
230.7996131875872
 24
228.2669041969049
 34
0.0
100
AcDbRotatedDimension
  0
LINE
  5
4460
330
A
100
AcDbEntity
  8
MODEL
100
AcDbLine
 10
76.05345380035857
 20
366.883225500836
 30
0.0
 11
107.0534538003588
 21
366.883225500836
 31
0.0
  0
LINE
  5
4461
330
A
100
AcDbEntity
  8
MODEL
100
AcDbLine
 10
76.05345380035857
 20
375.883225500836
 30
0.0
 11
107.0534538003588
 21
375.883225500836
 31
0.0
  0
LINE
  5
4462
330
A
100
AcDbEntity
  8
MODEL
100
AcDbLine
 10
76.05345380035857
 20
375.883225500836
 30
0.0
 11
76.05345380035857
 21
366.883225500836
 31
0.0
  0
LINE
  5
4463
330
A
100
AcDbEntity
  8
MODEL
100
AcDbLine
 10
107.0534538003588
 20
366.883225500836
 30
0.0
 11
107.0534538003588
 21
375.883225500836
 31
0.0
  0
LINE
  5
4464
330
A
100
AcDbEntity
  8
MODEL
100
AcDbLine
 10
105.5534538003588
 20
348.8435700548363
 30
0.0
 11
105.5534538003588
 21
366.883225500836
 31
0.0
  0
LINE
  5
4465
330
A
100
AcDbEntity
  8
MODEL
100
AcDbLine
 10
104.6334538003587
 20
348.8435700548363
 30
0.0
 11
104.6334538003587
 21
366.883225500836
 31
0.0
  0
LINE
  5
4466
330
A
100
AcDbEntity
  8
MODEL
100
AcDbLine
 10
78.47345380035841
 20
348.8435700548363
 30
0.0
 11
78.47345380035841
 21
366.883225500836
 31
0.0
  0
LINE
  5
4467
330
A
100
AcDbEntity
  8
MODEL
100
AcDbLine
 10
77.55345380035857
 20
366.883225500836
 30
0.0
 11
77.55345380035857
 21
348.8435700548363
 31
0.0
  0
LINE
  5
4468
330
A
100
AcDbEntity
  8
MODEL
100
AcDbLine
 10
91.55345380035857
 20
396.9080255008363
 30
0.0
 11
107.5534538003586
 21
406.1456255008361
 31
0.0
  0
LINE
  5
4469
330
A
100
AcDbEntity
  8
MODEL
100
AcDbLine
 10
107.5534538003586
 20
406.1456255008361
 30
0.0
 11
107.5534538003586
 21
424.6208255008362
 31
0.0
  0
LINE
  5
446A
330
A
100
AcDbEntity
  8
MODEL
100
AcDbLine
 10
107.5534538003586
 20
424.6208255008362
 30
0.0
 11
91.55345380035857
 21
433.8584255008361
 31
0.0
  0
LINE
  5
446B
330
A
100
AcDbEntity
  8
MODEL
100
AcDbLine
 10
91.55345380035857
 20
433.8584255008361
 30
0.0
 11
75.55345380035857
 21
424.6208255008362
 31
0.0
  0
LINE
  5
446C
330
A
100
AcDbEntity
  8
MODEL
100
AcDbLine
 10
75.55345380035857
 20
424.6208255008362
 30
0.0
 11
75.55345380035857
 21
406.1456255008361
 31
0.0
  0
LINE
  5
446D
330
A
100
AcDbEntity
  8
MODEL
100
AcDbLine
 10
75.55345380035857
 20
406.1456255008361
 30
0.0
 11
91.55345380035857
 21
396.9080255008363
 31
0.0
  0
LINE
  5
446E
330
A
100
AcDbEntity
  8
MODEL
100
AcDbLine
 10
94.05345380035857
 20
434.1582255008361
 30
0.0
 11
94.05345380035857
 21
434.883225500836
 31
0.0
  0
LINE
  5
446F
330
A
100
AcDbEntity
  8
MODEL
100
AcDbLine
 10
89.05345380035857
 20
434.1582255008361
 30
0.0
 11
89.05345380035857
 21
434.883225500836
 31
0.0
  0
LINE
  5
4470
330
A
100
AcDbEntity
  8
MODEL
100
AcDbLine
 10
94.05345380035857
 20
434.883225500836
 30
0.0
 11
89.05345380035857
 21
434.883225500836
 31
0.0
  0
LINE
  5
4471
330
A
100
AcDbEntity
  8
MODEL
100
AcDbLine
 10
110.0534538003586
 20
392.568025500836
 30
0.0
 11
110.0534538003586
 21
425.7820255008361
 31
0.0
  0
LINE
  5
4472
330
A
100
AcDbEntity
  8
MODEL
100
AcDbLine
 10
73.05345380035857
 20
392.568025500836
 30
0.0
 11
73.05345380035857
 21
425.7820255008361
 31
0.0
  0
LINE
  5
4473
330
A
100
AcDbEntity
  8
MODEL
100
AcDbLine
 10
94.05345380035857
 20
434.1582255008361
 30
0.0
 11
89.05345380035857
 21
434.1582255008361
 31
0.0
  0
LINE
  5
4474
330
A
100
AcDbEntity
  8
MODEL
100
AcDbLine
 10
108.0534538003586
 20
382.383225500836
 30
0.0
 11
75.05345380035857
 21
382.383225500836
 31
0.0
  0
LINE
  5
4475
330
A
100
AcDbEntity
  8
MODEL
100
AcDbLine
 10
108.0534538003586
 20
378.883225500836
 30
0.0
 11
108.0534538003586
 21
382.383225500836
 31
0.0
  0
LINE
  5
4476
330
A
100
AcDbEntity
  8
MODEL
100
AcDbLine
 10
75.05345380035857
 20
378.883225500836
 30
0.0
 11
75.05345380035857
 21
382.383225500836
 31
0.0
  0
LINE
  5
4477
330
A
100
AcDbEntity
  8
MODEL
100
AcDbLine
 10
108.9034538003587
 20
391.383225500836
 30
0.0
 11
74.20405380035874
 21
391.383225500836
 31
0.0
  0
LINE
  5
4478
330
A
100
AcDbEntity
  8
MODEL
100
AcDbLine
 10
107.5534538003586
 20
382.383225500836
 30
0.0
 11
108.0534538003586
 21
382.883225500836
 31
0.0
  0
LINE
  5
4479
330
A
100
AcDbEntity
  8
MODEL
100
AcDbLine
 10
75.55345380035857
 20
382.383225500836
 30
0.0
 11
75.05345380035857
 21
382.883225500836
 31
0.0
  0
LINE
  5
447A
330
A
100
AcDbEntity
  8
MODEL
100
AcDbLine
 10
108.0534538003586
 20
382.883225500836
 30
0.0
 11
75.05345380035857
 21
382.883225500836
 31
0.0
  0
LINE
  5
447B
330
A
100
AcDbEntity
  8
MODEL
100
AcDbLine
 10
108.0534538003586
 20
378.883225500836
 30
0.0
 11
75.05345380035857
 21
378.883225500836
 31
0.0
  0
LINE
  5
447C
330
A
100
AcDbEntity
  8
MODEL
100
AcDbLine
 10
79.20345380035866
 20
375.883225500836
 30
0.0
 11
103.9034538003587
 21
375.883225500836
 31
0.0
  0
LINE
  5
447D
330
A
100
AcDbEntity
  8
MODEL
100
AcDbLine
 10
103.9034538003587
 20
375.883225500836
 30
0.0
 11
103.9034538003587
 21
378.883225500836
 31
0.0
  0
LINE
  5
447E
330
A
100
AcDbEntity
  8
MODEL
100
AcDbLine
 10
79.20345380035866
 20
375.883225500836
 30
0.0
 11
79.20345380035866
 21
378.883225500836
 31
0.0
  0
LINE
  5
447F
330
A
100
AcDbEntity
  8
MODEL
100
AcDbLine
 10
108.0534538003586
 20
382.883225500836
 30
0.0
 11
108.0534538003586
 21
391.383225500836
 31
0.0
  0
LINE
  5
4480
330
A
100
AcDbEntity
  8
MODEL
100
AcDbLine
 10
75.05345380035857
 20
382.883225500836
 30
0.0
 11
75.05345380035857
 21
391.383225500836
 31
0.0
  0
CIRCLE
  5
4481
330
A
100
AcDbEntity
  8
MODEL
100
AcDbCircle
 10
91.55345380035857
 20
415.383225500836
 30
0.0
 40
16.0
  0
CIRCLE
  5
4482
330
A
100
AcDbEntity
  8
MODEL
100
AcDbCircle
 10
91.55345380035857
 20
415.383225500836
 30
0.0
 40
13.2205
  0
CIRCLE
  5
4483
330
A
100
AcDbEntity
  8
MODEL
100
AcDbCircle
 10
91.55345380035857
 20
415.383225500836
 30
0.0
 40
12.0585
  0
ARC
  5
4484
330
A
100
AcDbEntity
  8
MODEL
100
AcDbCircle
 10
91.55345380035857
 20
334.383225500836
 30
0.0
 40
100.0
100
AcDbArc
 50
83.44644499999998
 51
88.56737699999998
  0
ARC
  5
4485
330
A
100
AcDbEntity
  8
MODEL
100
AcDbCircle
 10
102.0534538003586
 20
425.7820755008362
 30
0.0
 40
8.0
100
AcDbArc
 50
0.0001429999995732
 51
83.4467389999986
  0
ARC
  5
4486
330
A
100
AcDbEntity
  8
MODEL
100
AcDbCircle
 10
81.05345380035857
 20
425.7820755008362
 30
0.0
 40
8.0
100
AcDbArc
 50
96.55340499999757
 51
180.0
  0
ARC
  5
4487
330
A
100
AcDbEntity
  8
MODEL
100
AcDbCircle
 10
91.55345380035857
 20
334.383225500836
 30
0.0
 40
100.0
100
AcDbArc
 50
91.43246599999986
 51
96.55340499999978
  0
ARC
  5
4488
330
A
100
AcDbEntity
  8
MODEL
100
AcDbCircle
 10
91.55345380035857
 20
409.383225500836
 30
0.0
 40
25.0
100
AcDbArc
 50
313.945628000001
 51
317.731537
  0
ARC
  5
4489
330
A
100
AcDbEntity
  8
MODEL
100
AcDbCircle
 10
91.55345380035857
 20
409.383225500836
 30
0.0
 40
25.0
100
AcDbArc
 50
222.2686199999997
 51
226.0545189999999
  0
ARC
  5
448A
330
A
100
AcDbEntity
  8
MODEL
100
AcDbCircle
 10
69.86567980035858
 20
406.1456155008361
 30
0.0
 40
5.687782
100
AcDbArc
 50
304.0878120000023
 51
0.0001570000005354
  0
ARC
  5
448B
330
A
100
AcDbEntity
  8
MODEL
100
AcDbCircle
 10
113.2412278003586
 20
406.1456155008361
 30
0.0
 40
5.687782
100
AcDbArc
 50
180.0
 51
235.9123340000002
  0
LINE
  5
448C
330
A
100
AcDbEntity
  8
MODEL
 48
25.4
100
AcDbLine
 10
79.20345380035877
 20
375.883225500836
 30
0.0
 11
103.9034538003586
 21
375.883225500836
 31
0.0
  0
MTEXT
  5
450D
330
A
100
AcDbEntity
  8
TEMPLATE
390
1D
100
AcDbMText
 10
251.1255851384557
 20
78.90623348646577
 30
0.0
 40
4.800000000000001
 41
0.0
 46
5.361600000000001
 71
     1
 72
     1
  1
{FHT73-5108-AL1 (ブラッシュドハードグラファイト)}
  7
ＭＳ ゴシック
 73
     1
 44
0.782827
1001
ACAD
1000
ACAD_MTEXT_DEFINED_HEIGHT_BEGIN
1070
    46
1040
5.361600000000001
1000
ACAD_MTEXT_DEFINED_HEIGHT_END
  0
MTEXT
  5
450E
330
A
100
AcDbEntity
  8
TEMPLATE
390
1D
100
AcDbMText
 10
251.1255851384559
 20
86.12743110719497
 30
0.0
 40
4.800000000000001
 41
0.0
 46
5.361600000000001
 71
     1
 72
     1
  1
{FHT73-5108-DC1 (スーパースチール)}
  7
ＭＳ ゴシック
 73
     1
 44
0.782827
1001
ACAD
1000
ACAD_MTEXT_DEFINED_HEIGHT_BEGIN
1070
    46
1040
5.361600000000001
1000
ACAD_MTEXT_DEFINED_HEIGHT_END
  0
MTEXT
  5
450F
330
A
100
AcDbEntity
  8
TEMPLATE
390
1D
100
AcDbMText
 10
251.1255851384559
 20
93.53588153126572
 30
0.0
 40
4.800000000000001
 41
0.0
 46
5.361600000000001
 71
     1
 72
     1
  1
{FHT73-5108-001 (クローム)}
  7
ＭＳ ゴシック
 73
     1
 44
0.782827
1001
ACAD
1000
ACAD_MTEXT_DEFINED_HEIGHT_BEGIN
1070
    46
1040
5.361600000000001
1000
ACAD_MTEXT_DEFINED_HEIGHT_END
  0
MTEXT
  5
4538
330
A
100
AcDbEntity
  8
DIM
390
1D
100
AcDbMText
 10
76.51541421337134
 20
545.5569572440054
 30
0.0
 40
5.0
 41
379.886450037282
 46
5.558373452544704
 71
     1
 72
     1
  1
{壁開口寸法}
  7
ＭＳ ゴシック
 73
     1
 44
0.9822934569727008
1001
ACAD
1000
ACAD_MTEXT_DEFINED_HEIGHT_BEGIN
1070
    46
1040
5.558373452544704
1000
ACAD_MTEXT_DEFINED_HEIGHT_END
  0
VIEWPORT
  5
349
330
B
100
AcDbEntity
 67
     1
  8
0
100
AcDbViewport
 10
202.5
 20
128.5
 30
0.0
 40
486.0
 41
308.4
 68
     1
 69
     1
 12
202.5
 22
128.5
 13
0.0
 23
0.0
 14
0.5
 24
0.5
 15
0.0
 25
0.0
 16
0.0
 26
0.0
 36
1.0
 17
0.0
 27
0.0
 37
0.0
 42
50.0
 43
0.0
 44
0.0
 45
308.4
 50
0.0
 51
0.0
 72
   100
 90
   557152
  1

281
     0
 71
     1
 74
     0
110
0.0
120
0.0
130
0.0
111
1.0
121
0.0
131
0.0
112
0.0
122
1.0
132
0.0
 79
     0
146
0.0
170
     0
 61
     5
348
26C
292
     1
282
     1
141
0.0
142
0.0
 63
   256
  0
VIEWPORT
  5
34A
330
B
100
AcDbEntity
 67
     1
  8
0
100
AcDbViewport
 10
202.5
 20
128.5
 30
0.0
 40
324.0
 41
205.6
 68
     2
 69
     2
 12
986.6781359294573
 22
1427.077061889956
 13
0.0
 23
0.0
 14
0.5
 24
0.5
 15
0.0
 25
0.0
 16
0.0
 26
0.0
 36
1.0
 17
0.0
 27
0.0
 37
0.0
 42
50.0
 43
0.0
 44
0.0
 45
2890.021615685494
 50
0.0
 51
0.0
 72
   100
 90
   557152
  1

281
     0
 71
     1
 74
     0
110
0.0
120
0.0
130
0.0
111
1.0
121
0.0
131
0.0
112
0.0
122
1.0
132
0.0
 79
     0
146
0.0
170
     0
 61
     5
348
26C
292
     1
282
     1
141
0.0
142
0.0
 63
   256
  0
ENDSEC
  0
SECTION
  2
OBJECTS
  0
DICTIONARY
  5
19
330
0
100
AcDbDictionary
281
     1
  3
ACAD_COLOR
350
674
  3
ACAD_DETAILVIEWSTYLE
350
BBF
  3
ACAD_FIELDLIST
350
3BE4
  3
ACAD_GROUP
350
1A
  3
ACAD_IMAGE_VARS
350
27B
  3
ACAD_LAYOUT
350
1E
  3
ACAD_MATERIAL
350
263
  3
ACAD_MLEADERSTYLE
350
336
  3
ACAD_MLINESTYLE
350
1B
  3
ACAD_PLOTSETTINGS
350
22
  3
ACAD_PLOTSTYLENAME
350
1F
  3
ACAD_SCALELIST
350
241
  3
ACAD_SECTIONVIEWSTYLE
350
BC0
  3
ACAD_TABLESTYLE
350
278
  3
ACAD_VISUALSTYLE
350
267
  3
ACDB_RECOMPOSE_DATA
350
4542
  3
AcDbVariableDictionary
350
330
  3
APPDATA
350
27A
  3
DimOffsetDictionary
350
E38
  0
SUN
  5
904
330
15
100
AcDbSun
 90
        1
290
     0
 63
     7
421
 16777215
 40
1.0
291
     1
 91
  2455826
 92
 54000000
292
     0
 70
     2
 71
   256
280
     1
  0
DICTIONARY
  5
2E1
330
2
100
AcDbDictionary
280
     1
281
     1
  3
ACAD_LAYERSTATES
360
2E2
  3
ACLYDICTIONARY
360
DDE
  0
DICTIONARY
  5
3D3D
330
A
100
AcDbDictionary
280
     1
281
     1
  3
ACAD_SORTENTS
360
3D3E
  3
DIM_BOUNDING_BOXES_V1
360
4519
  0
DICTIONARY
  5
3CB7
330
3CB5
100
AcDbDictionary
280
     1
281
     1
  3
ACAD_FIELD
360
42E1
  0
DICTIONARY
  5
4459
330
4458
100
AcDbDictionary
280
     1
281
     1
  3
*A1
360
445B
  0
DICTIONARY
  5
674
102
{ACAD_REACTORS
330
19
102
}
330
19
100
AcDbDictionary
281
     1
  0
DICTIONARY
  5
BBF
102
{ACAD_REACTORS
330
19
102
}
330
19
100
AcDbDictionary
281
     1
  0
FIELDLIST
  5
3BE4
102
{ACAD_REACTORS
330
19
102
}
330
19
100
AcDbIdSet
 90
        2
330
3CB9
330
3CB6
100
AcDbFieldList
  0
DICTIONARY
  5
1A
102
{ACAD_REACTORS
330
19
102
}
330
19
100
AcDbDictionary
281
     1
  3
*A1
350
3C75
  0
RASTERVARIABLES
  5
27B
102
{ACAD_REACTORS
330
19
102
}
330
19
100
AcDbRasterVariables
 90
        0
 70
     1
 71
     1
 72
     1
  0
DICTIONARY
  5
1E
102
{ACAD_REACTORS
330
19
102
}
330
19
100
AcDbDictionary
281
     1
  3
Layout1
350
21
  3
Model
350
20
  0
DICTIONARY
  5
263
102
{ACAD_REACTORS
330
19
102
}
330
19
100
AcDbDictionary
281
     1
  3
ByBlock
350
265
  3
ByLayer
350
264
  3
Global
350
266
  0
DICTIONARY
  5
336
102
{ACAD_REACTORS
330
19
102
}
330
19
100
AcDbDictionary
281
     1
  3
Standard
350
D59
  0
DICTIONARY
  5
1B
102
{ACAD_REACTORS
330
19
102
}
330
19
100
AcDbDictionary
281
     1
  3
Standard
350
1C
  0
DICTIONARY
  5
22
102
{ACAD_REACTORS
330
19
102
}
330
19
100
AcDbDictionary
281
     1
  0
ACDBDICTIONARYWDFLT
  5
1F
102
{ACAD_REACTORS
330
19
102
}
330
19
100
AcDbDictionary
281
     1
  3
Normal
350
1D
100
AcDbDictionaryWithDefault
340
1D
  0
DICTIONARY
  5
241
102
{ACAD_REACTORS
330
19
102
}
330
19
100
AcDbDictionary
281
     1
  3
A0
350
242
  3
A1
350
243
  3
A2
350
244
  3
A3
350
245
  3
A4
350
246
  3
A5
350
247
  3
A6
350
248
  3
A7
350
249
  3
A8
350
24A
  3
A9
350
24B
  3
B0
350
24C
  3
B1
350
24D
  3
B2
350
24E
  3
B3
350
24F
  3
B4
350
250
  3
B5
350
251
  3
B6
350
252
  3
B7
350
253
  3
B8
350
254
  3
B9
350
255
  3
C0
350
256
  3
C1
350
257
  3
C2
350
258
  3
C3
350
259
  3
C4
350
25A
  3
C5
350
25B
  3
C6
350
25C
  3
C7
350
25D
  3
C8
350
25E
  3
C9
350
25F
  3
D0
350
260
  3
D1
350
261
  3
D2
350
262
  0
DICTIONARY
  5
BC0
102
{ACAD_REACTORS
330
19
102
}
330
19
100
AcDbDictionary
281
     1
  0
DICTIONARY
  5
278
102
{ACAD_REACTORS
330
19
102
}
330
19
100
AcDbDictionary
281
     1
  3
Standard
350
279
  0
DICTIONARY
  5
267
102
{ACAD_REACTORS
330
19
102
}
330
19
100
AcDbDictionary
281
     1
  3
2dWireframe
350
26C
  3
3D Hidden
350
26E
  3
3dWireframe
350
26D
  3
Basic
350
26F
  3
Brighten
350
273
  3
ColorChange
350
277
  3
Conceptual
350
271
  3
Dim
350
272
  3
EdgeColorOff
350
8FE
  3
Facepattern
350
276
  3
Flat
350
268
  3
FlatWithEdges
350
269
  3
Gouraud
350
26A
  3
GouraudWithEdges
350
26B
  3
Hidden
350
8FB
  3
JitterOff
350
8FC
  3
Linepattern
350
275
  3
OverhangOff
350
8FD
  3
Realistic
350
270
  3
Shaded
350
903
  3
Shaded with edges
350
902
  3
Shades of Gray
350
8FF
  3
Sketchy
350
900
  3
Thicken
350
274
  3
Wireframe
350
8FA
  3
X-Ray
350
901
  0
XRECORD
  5
4542
102
{ACAD_REACTORS
330
19
102
}
330
19
100
AcDbXrecord
280
     1
 90
        1
330
279
  0
DICTIONARY
  5
330
102
{ACAD_REACTORS
330
19
102
}
330
19
100
AcDbDictionary
281
     1
  3
CANNOSCALE
350
331
  3
CMLEADERSTYLE
350
D5E
  3
CTABLESTYLE
350
335
  3
HPTRANSPARENCY
350
D52
  3
XCLIPFRAME
350
896
  0
DICTIONARY
  5
27A
102
{ACAD_REACTORS
330
19
102
}
330
19
100
AcDbDictionary
281
     1
  0
DICTIONARY
  5
E38
102
{ACAD_REACTORS
330
19
102
}
330
19
100
AcDbDictionary
281
     1
  3
DIMRAILANGLE
350
246C
  3
DIMRAILFIRSTOFFSET
350
246A
  3
DIMRAILOFFSET
350
246B
  3
DIMRAILSENABLED
350
246D
  0
DICTIONARY
  5
2E2
102
{ACAD_REACTORS
330
2E1
102
}
330
2E1
100
AcDbDictionary
281
     1
  0
DICTIONARY
  5
DDE
102
{ACAD_REACTORS
330
2E1
102
}
330
2E1
100
AcDbDictionary
281
     1
1001
ACAD
1000
<All
  0
SORTENTSTABLE
  5
3D3E
102
{ACAD_REACTORS
330
3D3D
102
}
330
3D3D
100
AcDbSortentsTable
330
A
331
0
  5
3C1E
331
3C64
  5
3C1F
331
3C65
  5
3C63
331
3C70
  5
3C64
331
3C71
  5
3C65
331
3C72
  5
3C70
331
3C73
  5
3C71
331
3C74
  5
3C72
331
3CB5
  5
3C92
  0
DICTIONARY
  5
4519
102
{ACAD_REACTORS
330
3D3D
102
}
330
3D3D
100
AcDbDictionary
281
     1
  0
DICTIONARY
  5
42E1
102
{ACAD_REACTORS
330
3CB7
102
}
330
3CB7
100
AcDbDictionary
280
     1
281
     1
  3
TEXT
360
3CB6
  0
LINE
  5
445B
102
{ACAD_REACTORS
330
4459
102
}
330
4459
100
AcDbEntity
  8
MODEL
100
AcDbLine
 10
264.3329688988288
 20
136.6444773349123
 30
0.0
 11
264.3329688988288
 21
284.6444773349124
 31
0.0
  0
GROUP
  5
3C75
102
{ACAD_REACTORS
330
1A
102
}
330
1A
100
AcDbGroup
300

 70
     1
 71
     1
340
3C64
340
3C65
340
3C70
340
3C71
340
3C72
340
3C73
340
3C74
  0
LAYOUT
  5
21
102
{ACAD_REACTORS
330
1E
102
}
330
1E
100
AcDbPlotSettings
  1

  2
none_device
  4
ISO_A3_(420.00_x_297.00_MM)
  6

 40
7.5
 41
20.0
 42
7.5
 43
20.0
 44
420.0
 45
297.0
 46
0.0
 47
0.0
 48
0.0
 49
0.0
140
0.0
141
0.0
142
1.0
143
1.0
 70
     0
 72
     1
 73
     0
 74
     0
  7

 75
     0
 76
     0
 77
     2
 78
   300
147
1.0
148
0.0
149
0.0
100
AcDbLayout
  1
Layout1
 70
     0
 71
     0
 10
-7.5
 20
-20.0
 11
412.5
 21
277.0
 12
0.0
 22
0.0
 32
0.0
 14
0.0
 24
0.0
 34
0.0
 15
0.0
 25
0.0
 35
0.0
146
0.0
 13
0.0
 23
0.0
 33
0.0
 16
0.0
 26
0.0
 36
0.0
 17
0.0
 27
0.0
 37
0.0
 76
     0
330
B
331
349
  0
LAYOUT
  5
20
102
{ACAD_REACTORS
330
1E
102
}
330
1E
100
AcDbPlotSettings
  1

  2
none_device
  4
ISO_A3_(420.00_x_297.00_MM)
  6

 40
7.5
 41
20.0
 42
7.5
 43
20.0
 44
420.0
 45
297.0
 46
0.0
 47
0.0
 48
0.0
 49
0.0
140
0.0
141
0.0
142
1.0
143
1.0
 70
  1024
 72
     1
 73
     0
 74
     0
  7

 75
     0
 76
     0
 77
     2
 78
   300
147
1.0
148
0.0
149
0.0
100
AcDbLayout
  1
Model
 70
     0
 71
     1
 10
0.0
 20
0.0
 11
420.0
 21
594.0
 12
0.0
 22
0.0
 32
0.0
 14
0.0
 24
0.0
 34
-0.0000000000000071
 15
420.0
 25
594.0
 35
0.0000000000000071
146
0.0
 13
0.0
 23
0.0
 33
0.0
 16
0.0
 26
0.0
 36
0.0
 17
0.0
 27
0.0
 37
0.0
 76
     0
330
A
331
15
  0
MATERIAL
  5
265
102
{ACAD_REACTORS
330
263
102
}
330
263
100
AcDbMaterial
  1
ByBlock
 72
     1
 94
      127
  0
MATERIAL
  5
264
102
{ACAD_REACTORS
330
263
102
}
330
263
100
AcDbMaterial
  1
ByLayer
 72
     1
 94
      127
  0
MATERIAL
  5
266
102
{ACAD_REACTORS
330
263
102
}
330
263
100
AcDbMaterial
  1
Global
 72
     1
 94
      127
  0
MLEADERSTYLE
  5
D59
102
{ACAD_REACTORS
330
336
102
}
330
336
100
AcDbMLeaderStyle
170
     2
171
     1
172
     0
 90
        2
 40
0.0
 41
0.0
173
     1
 91
-1056964608
340
11
 92
       -2
290
     1
 42
2.0
291
     1
 43
8.0
  3
Standard
341
0
 44
4.0
300

342
17
174
     1
178
     6
175
     1
176
     0
 93
-1056964608
 45
4.0
292
     0
297
     0
 46
4.0
343
0
 94
-1056964608
 47
1.0
 49
1.0
140
1.0
293
     1
141
0.0
294
     1
177
     0
142
1.0
295
     0
296
     0
143
3.75
1001
ACAD_MLEADERVER
1070
     2
  0
MLINESTYLE
  5
1C
102
{ACAD_REACTORS
330
1B
102
}
330
1B
100
AcDbMlineStyle
  2
Standard
 70
     0
  3

 62
     0
 51
90.0
 52
90.0
 71
     2
 49
0.5
 62
   256
  6
BYLAYER
 49
-0.5
 62
   256
  6
BYLAYER
  0
ACDBPLACEHOLDER
  5
1D
102
{ACAD_REACTORS
330
1F
102
}
330
1F
  0
SCALE
  5
242
102
{ACAD_REACTORS
330
241
102
}
330
241
100
AcDbScale
 70
     0
300
1:1
140
1.0
141
1.0
290
     1
  0
SCALE
  5
243
102
{ACAD_REACTORS
330
241
102
}
330
241
100
AcDbScale
 70
     0
300
1:2
140
1.0
141
2.0
290
     0
  0
SCALE
  5
244
102
{ACAD_REACTORS
330
241
102
}
330
241
100
AcDbScale
 70
     0
300
1:4
140
1.0
141
4.0
290
     0
  0
SCALE
  5
245
102
{ACAD_REACTORS
330
241
102
}
330
241
100
AcDbScale
 70
     0
300
1:5
140
1.0
141
5.0
290
     0
  0
SCALE
  5
246
102
{ACAD_REACTORS
330
241
102
}
330
241
100
AcDbScale
 70
     0
300
1:8
140
1.0
141
8.0
290
     0
  0
SCALE
  5
247
102
{ACAD_REACTORS
330
241
102
}
330
241
100
AcDbScale
 70
     0
300
1:10
140
1.0
141
10.0
290
     0
  0
SCALE
  5
248
102
{ACAD_REACTORS
330
241
102
}
330
241
100
AcDbScale
 70
     0
300
1:16
140
1.0
141
16.0
290
     0
  0
SCALE
  5
249
102
{ACAD_REACTORS
330
241
102
}
330
241
100
AcDbScale
 70
     0
300
1:20
140
1.0
141
20.0
290
     0
  0
SCALE
  5
24A
102
{ACAD_REACTORS
330
241
102
}
330
241
100
AcDbScale
 70
     0
300
1:30
140
1.0
141
30.0
290
     0
  0
SCALE
  5
24B
102
{ACAD_REACTORS
330
241
102
}
330
241
100
AcDbScale
 70
     0
300
1:40
140
1.0
141
40.0
290
     0
  0
SCALE
  5
24C
102
{ACAD_REACTORS
330
241
102
}
330
241
100
AcDbScale
 70
     0
300
1:50
140
1.0
141
50.0
290
     0
  0
SCALE
  5
24D
102
{ACAD_REACTORS
330
241
102
}
330
241
100
AcDbScale
 70
     0
300
1:100
140
1.0
141
100.0
290
     0
  0
SCALE
  5
24E
102
{ACAD_REACTORS
330
241
102
}
330
241
100
AcDbScale
 70
     0
300
2:1
140
2.0
141
1.0
290
     0
  0
SCALE
  5
24F
102
{ACAD_REACTORS
330
241
102
}
330
241
100
AcDbScale
 70
     0
300
4:1
140
4.0
141
1.0
290
     0
  0
SCALE
  5
250
102
{ACAD_REACTORS
330
241
102
}
330
241
100
AcDbScale
 70
     0
300
8:1
140
8.0
141
1.0
290
     0
  0
SCALE
  5
251
102
{ACAD_REACTORS
330
241
102
}
330
241
100
AcDbScale
 70
     0
300
10:1
140
10.0
141
1.0
290
     0
  0
SCALE
  5
252
102
{ACAD_REACTORS
330
241
102
}
330
241
100
AcDbScale
 70
     0
300
100:1
140
100.0
141
1.0
290
     0
  0
SCALE
  5
253
102
{ACAD_REACTORS
330
241
102
}
330
241
100
AcDbScale
 70
     0
300
1/128" = 1'-0"
140
0.0078125
141
12.0
290
     0
  0
SCALE
  5
254
102
{ACAD_REACTORS
330
241
102
}
330
241
100
AcDbScale
 70
     0
300
1/64" = 1'-0"
140
0.015625
141
12.0
290
     0
  0
SCALE
  5
255
102
{ACAD_REACTORS
330
241
102
}
330
241
100
AcDbScale
 70
     0
300
1/32" = 1'-0"
140
0.03125
141
12.0
290
     0
  0
SCALE
  5
256
102
{ACAD_REACTORS
330
241
102
}
330
241
100
AcDbScale
 70
     0
300
1/16" = 1'-0"
140
0.0625
141
12.0
290
     0
  0
SCALE
  5
257
102
{ACAD_REACTORS
330
241
102
}
330
241
100
AcDbScale
 70
     0
300
3/32" = 1'-0"
140
0.09375
141
12.0
290
     0
  0
SCALE
  5
258
102
{ACAD_REACTORS
330
241
102
}
330
241
100
AcDbScale
 70
     0
300
1/8" = 1'-0"
140
0.125
141
12.0
290
     0
  0
SCALE
  5
259
102
{ACAD_REACTORS
330
241
102
}
330
241
100
AcDbScale
 70
     0
300
3/16" = 1'-0"
140
0.1875
141
12.0
290
     0
  0
SCALE
  5
25A
102
{ACAD_REACTORS
330
241
102
}
330
241
100
AcDbScale
 70
     0
300
1/4" = 1'-0"
140
0.25
141
12.0
290
     0
  0
SCALE
  5
25B
102
{ACAD_REACTORS
330
241
102
}
330
241
100
AcDbScale
 70
     0
300
3/8" = 1'-0"
140
0.375
141
12.0
290
     0
  0
SCALE
  5
25C
102
{ACAD_REACTORS
330
241
102
}
330
241
100
AcDbScale
 70
     0
300
1/2" = 1'-0"
140
0.5
141
12.0
290
     0
  0
SCALE
  5
25D
102
{ACAD_REACTORS
330
241
102
}
330
241
100
AcDbScale
 70
     0
300
3/4" = 1'-0"
140
0.75
141
12.0
290
     0
  0
SCALE
  5
25E
102
{ACAD_REACTORS
330
241
102
}
330
241
100
AcDbScale
 70
     0
300
1" = 1'-0"
140
1.0
141
12.0
290
     0
  0
SCALE
  5
25F
102
{ACAD_REACTORS
330
241
102
}
330
241
100
AcDbScale
 70
     0
300
1-1/2" = 1'-0"
140
1.5
141
12.0
290
     0
  0
SCALE
  5
260
102
{ACAD_REACTORS
330
241
102
}
330
241
100
AcDbScale
 70
     0
300
3" = 1'-0"
140
3.0
141
12.0
290
     0
  0
SCALE
  5
261
102
{ACAD_REACTORS
330
241
102
}
330
241
100
AcDbScale
 70
     0
300
6" = 1'-0"
140
6.0
141
12.0
290
     0
  0
SCALE
  5
262
102
{ACAD_REACTORS
330
241
102
}
330
241
100
AcDbScale
 70
     0
300
1'-0" = 1'-0"
140
12.0
141
12.0
290
     0
  0
TABLESTYLE
  5
279
102
{ACAD_REACTORS
330
278
102
}
102
{ACAD_XDICTIONARY
360
4540
102
}
330
278
100
AcDbTableStyle
  3
Standard
 70
     0
 71
     0
 40
0.06
 41
0.06
280
     0
281
     0
  7
Standard
140
4.5
170
     2
 62
     0
 63
   257
283
     0
 90
        4
 91
        0
  1

274
    -2
284
     1
 64
     0
275
    -2
285
     1
 65
     0
276
    -2
286
     1
 66
     0
277
    -2
287
     1
 67
     0
278
    -2
288
     1
 68
     0
279
    -2
289
     1
 69
     0
  7
Standard
140
6.0
170
     5
 62
     0
 63
   257
283
     0
 90
        4
 91
        0
  1

274
    -2
284
     1
 64
     0
275
    -2
285
     1
 65
     0
276
    -2
286
     1
 66
     0
277
    -2
287
     1
 67
     0
278
    -2
288
     1
 68
     0
279
    -2
289
     1
 69
     0
  7
Standard
140
4.5
170
     5
 62
     0
 63
   257
283
     0
 90
        4
 91
        0
  1

274
    -2
284
     1
 64
     0
275
    -2
285
     1
 65
     0
276
    -2
286
     1
 66
     0
277
    -2
287
     1
 67
     0
278
    -2
288
     1
 68
     0
279
    -2
289
     1
 69
     0
  0
VISUALSTYLE
  5
26C
102
{ACAD_REACTORS
330
267
102
}
330
267
100
AcDbVisualStyle
  2
2dWireframe
 70
     4
 71
     0
 72
     2
 73
     0
 90
        0
 40
-0.6
 41
-30.0
 62
     5
 63
     7
421
 16777215
 74
     1
 91
        4
 64
     7
 65
   257
 75
     1
175
     1
 42
1.0
 92
        0
 66
   257
 43
1.0
 76
     1
 77
     6
 78
     2
 67
     7
 79
     5
170
     0
171
     0
290
     0
174
     0
 93
        1
 44
0.0
173
     0
291
     0
 45
0.0
  0
VISUALSTYLE
  5
26E
102
{ACAD_REACTORS
330
267
102
}
330
267
100
AcDbVisualStyle
  2
3D Hidden
 70
     6
 71
     1
 72
     2
 73
     2
 90
        0
 40
-0.6
 41
-30.0
 62
     5
 63
     7
421
 16777215
 74
     2
 91
        2
 64
     7
 65
   257
 75
     2
175
     1
 42
40.0
 92
        0
 66
   257
 43
1.0
 76
     1
 77
     6
 78
     2
 67
     7
 79
     3
170
     0
171
     0
290
     0
174
     0
 93
        1
 44
0.0
173
     0
291
     0
 45
0.0
  0
VISUALSTYLE
  5
26D
102
{ACAD_REACTORS
330
267
102
}
330
267
100
AcDbVisualStyle
  2
3dWireframe
 70
     5
 71
     0
 72
     2
 73
     0
 90
        0
 40
-0.6
 41
-30.0
 62
     5
 63
     7
421
 16777215
 74
     1
 91
        4
 64
     7
 65
   257
 75
     1
175
     1
 42
1.0
 92
        0
 66
   257
 43
1.0
 76
     1
 77
     6
 78
     2
 67
     7
 79
     5
170
     0
171
     0
290
     0
174
     0
 93
        1
 44
0.0
173
     0
291
     0
 45
0.0
  0
VISUALSTYLE
  5
26F
102
{ACAD_REACTORS
330
267
102
}
330
267
100
AcDbVisualStyle
  2
Basic
 70
     7
 71
     1
 72
     0
 73
     1
 90
        0
 40
-0.6
 41
-30.0
 62
     5
 63
     7
421
 16777215
 74
     0
 91
        4
 64
     7
 65
   257
 75
     1
175
     1
 42
1.0
 92
        8
 66
     7
 43
1.0
 76
     1
 77
     6
 78
     2
 67
     7
 79
     5
170
     0
171
     0
290
     0
174
     0
 93
        1
 44
0.0
173
     0
291
     1
 45
0.0
  0
VISUALSTYLE
  5
273
102
{ACAD_REACTORS
330
267
102
}
330
267
100
AcDbVisualStyle
  2
Brighten
 70
    12
 71
     2
 72
     2
 73
     0
 90
        0
 40
-0.6
 41
-30.0
 62
     5
 63
     7
421
 16777215
 74
     1
 91
        4
 64
     7
 65
   257
 75
     1
175
     1
 42
1.0
 92
        8
 66
     7
 43
1.0
 76
     1
 77
     6
 78
     2
 67
     7
 79
     5
170
     0
171
     0
290
     0
174
     0
 93
        1
 44
50.0
173
     0
291
     1
 45
0.0
  0
VISUALSTYLE
  5
277
102
{ACAD_REACTORS
330
267
102
}
330
267
100
AcDbVisualStyle
  2
ColorChange
 70
    16
 71
     2
 72
     2
 73
     3
 90
        0
 40
-0.6
 41
-30.0
 62
     5
 63
     8
421
  8421504
 74
     1
 91
        4
 64
     7
 65
   257
 75
     1
175
     1
 42
1.0
 92
        8
 66
     8
424
  8421504
 43
1.0
 76
     1
 77
     6
 78
     2
 67
     7
 79
     5
170
     0
171
     0
290
     0
174
     0
 93
        1
 44
0.0
173
     0
291
     1
 45
0.0
  0
VISUALSTYLE
  5
271
102
{ACAD_REACTORS
330
267
102
}
330
267
100
AcDbVisualStyle
  2
Conceptual
 70
     9
 71
     3
 72
     2
 73
     0
 90
        0
 40
-0.6
 41
-30.0
 62
     5
 63
     7
421
 16777215
 74
     2
 91
        2
 64
     7
 65
   257
 75
     1
175
     1
 42
40.0
 92
        8
 66
     7
 43
1.0
 76
     1
 77
     6
 78
     2
 67
     7
 79
     3
170
     0
171
     0
290
     0
174
     0
 93
        1
 44
0.0
173
     0
291
     0
 45
0.0
  0
VISUALSTYLE
  5
272
102
{ACAD_REACTORS
330
267
102
}
330
267
100
AcDbVisualStyle
  2
Dim
 70
    11
 71
     2
 72
     2
 73
     0
 90
        0
 40
-0.6
 41
-30.0
 62
     5
 63
     7
421
 16777215
 74
     1
 91
        4
 64
     7
 65
   257
 75
     1
175
     1
 42
1.0
 92
        8
 66
     7
 43
1.0
 76
     1
 77
     6
 78
     2
 67
     7
 79
     5
170
     0
171
     0
290
     0
174
     0
 93
        1
 44
-50.0
173
     0
291
     1
 45
0.0
  0
VISUALSTYLE
  5
8FE
102
{ACAD_REACTORS
330
267
102
}
330
267
100
AcDbVisualStyle
  2
EdgeColorOff
 70
    22
 71
     2
 72
     2
 73
     0
 90
        0
 40
0.6
 41
30.0
 62
     5
 63
     7
421
 16777215
 74
     1
 91
        4
 64
     7
 65
   257
 75
     1
175
     1
 42
1.0
 92
        8
 66
     7
 43
1.0
 76
     1
 77
     6
 78
     2
 67
     7
 79
     5
170
     0
171
     0
290
     0
174
     0
 93
        1
 44
0.0
173
     0
291
     1
 45
0.0
  0
VISUALSTYLE
  5
276
102
{ACAD_REACTORS
330
267
102
}
330
267
100
AcDbVisualStyle
  2
Facepattern
 70
    15
 71
     2
 72
     2
 73
     0
 90
        0
 40
-0.6
 41
-30.0
 62
     5
 63
     7
421
 16777215
 74
     1
 91
        4
 64
     7
 65
   257
 75
     1
175
     1
 42
1.0
 92
        8
 66
     7
 43
1.0
 76
     1
 77
     6
 78
     2
 67
     7
 79
     5
170
     0
171
     0
290
     0
174
     0
 93
        1
 44
0.0
173
     0
291
     1
 45
0.0
  0
VISUALSTYLE
  5
268
102
{ACAD_REACTORS
330
267
102
}
330
267
100
AcDbVisualStyle
  2
Flat
 70
     0
 71
     2
 72
     1
 73
     1
 90
        2
 40
-0.6
 41
30.0
 62
     5
 63
     7
421
 16777215
 74
     0
 91
        4
 64
     7
 65
   257
 75
     1
175
     1
 42
1.0
 92
        8
 66
     7
 43
1.0
 76
     1
 77
     6
 78
     2
 67
     7
 79
     5
170
     0
171
     0
290
     0
174
     0
 93
       13
 44
0.0
173
     0
291
     1
 45
0.0
  0
VISUALSTYLE
  5
269
102
{ACAD_REACTORS
330
267
102
}
330
267
100
AcDbVisualStyle
  2
FlatWithEdges
 70
     1
 71
     2
 72
     1
 73
     1
 90
        2
 40
-0.6
 41
30.0
 62
     5
 63
     7
421
 16777215
 74
     1
 91
        4
 64
     7
 65
   257
 75
     1
175
     1
 42
1.0
 92
        0
 66
   257
 43
1.0
 76
     1
 77
     6
 78
     2
 67
     7
 79
     5
170
     0
171
     0
290
     0
174
     0
 93
       13
 44
0.0
173
     0
291
     1
 45
0.0
  0
VISUALSTYLE
  5
26A
102
{ACAD_REACTORS
330
267
102
}
330
267
100
AcDbVisualStyle
  2
Gouraud
 70
     2
 71
     2
 72
     2
 73
     1
 90
        2
 40
-0.6
 41
30.0
 62
     5
 63
     7
421
 16777215
 74
     0
 91
        4
 64
     7
 65
   257
 75
     1
175
     1
 42
1.0
 92
        0
 66
     7
 43
1.0
 76
     1
 77
     6
 78
     2
 67
     7
 79
     5
170
     0
171
     0
290
     0
174
     0
 93
       13
 44
0.0
173
     0
291
     1
 45
0.0
  0
VISUALSTYLE
  5
26B
102
{ACAD_REACTORS
330
267
102
}
330
267
100
AcDbVisualStyle
  2
GouraudWithEdges
 70
     3
 71
     2
 72
     2
 73
     1
 90
        2
 40
-0.6
 41
30.0
 62
     5
 63
     7
421
 16777215
 74
     1
 91
        4
 64
     7
 65
   257
 75
     1
175
     1
 42
1.0
 92
        0
 66
   257
 43
1.0
 76
     1
 77
     6
 78
     2
 67
     7
 79
     5
170
     0
171
     0
290
     0
174
     0
 93
       13
 44
0.0
173
     0
291
     1
 45
0.0
  0
VISUALSTYLE
  5
8FB
102
{ACAD_REACTORS
330
267
102
}
330
267
100
AcDbVisualStyle
  2
Hidden
 70
     6
 71
     1
 72
     2
 73
     2
 90
        0
 40
0.6
 41
30.0
 62
     5
 63
     7
421
 16777215
 74
     2
 91
        2
 64
     7
 65
   257
 75
     2
175
     1
 42
40.0
 92
        0
 66
   257
 43
1.0
 76
     1
 77
     6
 78
     2
 67
     7
 79
     3
170
     0
171
     0
290
     0
174
     0
 93
        1
 44
0.0
173
     0
291
     0
 45
0.0
  0
VISUALSTYLE
  5
8FC
102
{ACAD_REACTORS
330
267
102
}
330
267
100
AcDbVisualStyle
  2
JitterOff
 70
    20
 71
     2
 72
     2
 73
     0
 90
        0
 40
0.6
 41
30.0
 62
     5
 63
     7
421
 16777215
 74
     1
 91
        4
 64
     7
 65
   257
 75
     1
175
     1
 42
1.0
 92
       10
 66
     7
 43
1.0
 76
     1
 77
     6
 78
     2
 67
     7
 79
     5
170
     0
171
     0
290
     0
174
     0
 93
        1
 44
0.0
173
     0
291
     1
 45
0.0
  0
VISUALSTYLE
  5
275
102
{ACAD_REACTORS
330
267
102
}
330
267
100
AcDbVisualStyle
  2
Linepattern
 70
    14
 71
     2
 72
     2
 73
     0
 90
        0
 40
-0.6
 41
-30.0
 62
     5
 63
     7
421
 16777215
 74
     1
 91
        4
 64
     7
 65
   257
 75
     7
175
     7
 42
1.0
 92
        8
 66
     7
 43
1.0
 76
     1
 77
     6
 78
     2
 67
     7
 79
     5
170
     0
171
     0
290
     0
174
     0
 93
        1
 44
0.0
173
     0
291
     1
 45
0.0
  0
VISUALSTYLE
  5
8FD
102
{ACAD_REACTORS
330
267
102
}
330
267
100
AcDbVisualStyle
  2
OverhangOff
 70
    21
 71
     2
 72
     2
 73
     0
 90
        0
 40
0.6
 41
30.0
 62
     5
 63
     7
421
 16777215
 74
     1
 91
        4
 64
     7
 65
   257
 75
     1
175
     1
 42
1.0
 92
        9
 66
     7
 43
1.0
 76
     1
 77
     6
 78
     2
 67
     7
 79
     5
170
     0
171
     0
290
     0
174
     0
 93
        1
 44
0.0
173
     0
291
     1
 45
0.0
  0
VISUALSTYLE
  5
270
102
{ACAD_REACTORS
330
267
102
}
330
267
100
AcDbVisualStyle
  2
Realistic
 70
     8
 71
     2
 72
     2
 73
     0
 90
        0
 40
-0.6
 41
-30.0
 62
     5
 63
     7
421
 16777215
 74
     1
 91
        0
 64
     7
 65
   257
 75
     1
175
     1
 42
1.0
 92
        8
 66
     8
424
  7895160
 43
1.0
 76
     1
 77
     6
 78
     2
 67
     7
 79
     5
170
     0
171
     0
290
     0
174
     0
 93
       13
 44
0.0
173
     0
291
     0
 45
0.0
  0
VISUALSTYLE
  5
903
102
{ACAD_REACTORS
330
267
102
}
330
267
100
AcDbVisualStyle
  2
Shaded
 70
    27
 71
     2
 72
     2
 73
     1
 90
        2
 40
0.6
 41
30.0
 62
     5
 63
     7
421
 16777215
 74
     0
 91
        4
 64
     7
 65
   257
 75
     1
175
     1
 42
1.0
 92
        8
 66
   257
 43
1.0
 76
     1
 77
     6
 78
     2
 67
     8
425
  7895160
 79
     3
170
     0
171
     0
290
     0
174
     0
 93
        5
 44
0.0
173
     0
291
     0
 45
0.0
  0
VISUALSTYLE
  5
902
102
{ACAD_REACTORS
330
267
102
}
330
267
100
AcDbVisualStyle
  2
Shaded with edges
 70
    26
 71
     2
 72
     2
 73
     1
 90
        2
 40
0.6
 41
30.0
 62
     5
 63
     7
421
 16777215
 74
     1
 91
       10
 64
     7
 65
   257
 75
     2
175
     1
 42
1.0
 92
        8
 66
   257
 43
1.0
 76
     1
 77
     6
 78
     2
 67
     7
 79
     3
170
     0
171
     0
290
     0
174
     0
 93
        5
 44
0.0
173
     0
291
     0
 45
0.0
  0
VISUALSTYLE
  5
8FF
102
{ACAD_REACTORS
330
267
102
}
330
267
100
AcDbVisualStyle
  2
Shades of Gray
 70
    23
 71
     2
 72
     2
 73
     3
 90
        0
 40
0.6
 41
30.0
 62
     5
 63
     7
421
 16777215
 74
     2
 91
        2
 64
     7
 65
     7
 75
     1
175
     1
 42
40.0
 92
        8
 66
     7
 43
1.0
 76
     1
 77
     6
 78
     2
 67
     7
 79
     3
170
     0
171
     0
290
     0
174
     0
 93
        1
 44
0.0
173
     0
291
     0
 45
0.0
  0
VISUALSTYLE
  5
900
102
{ACAD_REACTORS
330
267
102
}
330
267
100
AcDbVisualStyle
  2
Sketchy
 70
    24
 71
     1
 72
     2
 73
     2
 90
        0
 40
0.6
 41
30.0
 62
     5
 63
     7
421
 16777215
 74
     2
 91
        2
 64
     7
 65
     7
 75
     1
175
     1
 42
40.0
 92
       11
 66
     7
 43
1.0
 76
     1
 77
     6
 78
     2
 67
     7
 79
     6
170
     0
171
     0
290
     0
174
     0
 93
        1
 44
0.0
173
     0
291
     0
 45
0.0
  0
VISUALSTYLE
  5
274
102
{ACAD_REACTORS
330
267
102
}
330
267
100
AcDbVisualStyle
  2
Thicken
 70
    13
 71
     2
 72
     2
 73
     0
 90
        0
 40
-0.6
 41
-30.0
 62
     5
 63
     7
421
 16777215
 74
     1
 91
        4
 64
     7
 65
   257
 75
     1
175
     1
 42
1.0
 92
       12
 66
     7
 43
1.0
 76
     1
 77
     6
 78
     2
 67
     7
 79
     5
170
     0
171
     0
290
     0
174
     0
 93
        1
 44
0.0
173
     0
291
     1
 45
0.0
  0
VISUALSTYLE
  5
8FA
102
{ACAD_REACTORS
330
267
102
}
330
267
100
AcDbVisualStyle
  2
Wireframe
 70
     5
 71
     0
 72
     2
 73
     0
 90
        0
 40
0.6
 41
30.0
 62
     5
 63
     7
421
 16777215
 74
     1
 91
        4
 64
     7
 65
   257
 75
     1
175
     1
 42
1.0
 92
        0
 66
   257
 43
1.0
 76
     1
 77
     6
 78
     2
 67
     7
 79
     3
170
     0
171
     0
290
     0
174
     0
 93
        1
 44
0.0
173
     0
291
     0
 45
0.0
  0
VISUALSTYLE
  5
901
102
{ACAD_REACTORS
330
267
102
}
330
267
100
AcDbVisualStyle
  2
X-Ray
 70
    25
 71
     2
 72
     2
 73
     1
 90
        1
 40
0.5
 41
30.0
 62
     5
 63
     7
421
 16777215
 74
     1
 91
        0
 64
     7
 65
   257
 75
     1
175
     1
 42
1.0
 92
        8
 66
     7
 43
1.0
 76
     1
 77
     6
 78
     2
 67
     7
 79
     3
170
     0
171
     0
290
     0
174
     0
 93
       13
 44
0.0
173
     0
291
     0
 45
0.0
  0
DICTIONARYVAR
  5
331
102
{ACAD_REACTORS
330
330
102
}
330
330
100
DictionaryVariables
280
     0
  1
1:1
  0
DICTIONARYVAR
  5
D5E
102
{ACAD_REACTORS
330
330
102
}
330
330
100
DictionaryVariables
280
     0
  1
Standard
  0
DICTIONARYVAR
  5
335
102
{ACAD_REACTORS
330
330
102
}
330
330
100
DictionaryVariables
280
     0
  1
Standard
  0
DICTIONARYVAR
  5
D52
102
{ACAD_REACTORS
330
330
102
}
330
330
100
DictionaryVariables
280
     0
  1
ByLayer
  0
DICTIONARYVAR
  5
896
102
{ACAD_REACTORS
330
330
102
}
330
330
100
DictionaryVariables
280
     0
  1
0
  0
DICTIONARYVAR
  5
246C
102
{ACAD_REACTORS
330
E38
102
}
330
E38
100
DictionaryVariables
280
     0
  1
0.261799
  0
DICTIONARYVAR
  5
246A
102
{ACAD_REACTORS
330
E38
102
}
330
E38
100
DictionaryVariables
280
     0
  1
0.400000
  0
DICTIONARYVAR
  5
246B
102
{ACAD_REACTORS
330
E38
102
}
330
E38
100
DictionaryVariables
280
     0
  1
0.250000
  0
DICTIONARYVAR
  5
246D
102
{ACAD_REACTORS
330
E38
102
}
330
E38
100
DictionaryVariables
280
     0
  1
1
  0
FIELD
  5
3CB6
102
{ACAD_REACTORS
330
42E1
102
}
330
42E1
100
AcDbField
  1
_text
  2
{%<\_FldIdx 0>%N}
 90
        1
360
3CB9
 97
        0
 91
       63
 92
        0
 94
       11
 95
        2
 96
        0
300

 93
        1
  6
ACFD_FIELDTEXT_CHECKSUM
 93
        2
 90
        2
140
4455.0
 94
        0
300

302

304
ACVALUE_END
  7
ACFD_FIELD_VALUE
 93
        6
 90
        4
  1
{20200421N}
 94
        0
300

302

304
ACVALUE_END
301
{20200421N}
 98
       11
  0
DICTIONARY
  5
4540
330
279
100
AcDbDictionary
280
     1
281
     1
  3
ACAD_ROUNDTRIP_2008_TABLESTYLE_CELLSTYLEMAP
360
4541
  0
FIELD
  5
3CB9
330
3CB6
100
AcDbField
  1
AcVar
  2
\AcVar CreateDate \f "yyyyMMdd"
 90
        0
 97
        0
 91
       63
 92
        0
 94
       11
 95
        2
 96
        0
300

 93
        1
  6
Variable
 93
        2
 90
        4
  1
CreateDate
 94
        0
300

302

304
ACVALUE_END
  7
ACFD_FIELD_VALUE
 93
        6
 90
        8
 92
       16
310
E40704000000150001001B0005000000
 94
        0
300
yyyyMMdd
302

304
ACVALUE_END
301
20200421
 98
        8
  0
CELLSTYLEMAP
  5
4541
102
{ACAD_REACTORS
330
4540
102
}
330
4540
100
AcDbCellStyleMap
 90
        3
300
CELLSTYLE
  1
TABLEFORMAT_BEGIN
 90
        5
170
     1
 91
        0
 92
    32768
 62
   257
 93
        1
300
CONTENTFORMAT
  1
CONTENTFORMAT_BEGIN
 90
        0
 91
        0
 92
        4
 93
        0
300

 40
0.0
140
1.0
 94
        5
 62
     0
340
17
144
6.0
309
CONTENTFORMAT_END
171
     1
301
MARGIN
  1
CELLMARGIN_BEGIN
 40
0.06
 40
0.06
 40
0.06
 40
0.06
 40
0.18
 40
0.18
309
CELLMARGIN_END
 94
        6
 95
        1
302
GRIDFORMAT
  1
GRIDFORMAT_BEGIN
 90
        0
 91
        1
 62
     0
 92
       -2
340
0
 93
        0
 40
0.045
309
GRIDFORMAT_END
 95
        2
302
GRIDFORMAT
  1
GRIDFORMAT_BEGIN
 90
        0
 91
        1
 62
     0
 92
       -2
340
0
 93
        0
 40
0.045
309
GRIDFORMAT_END
 95
        4
302
GRIDFORMAT
  1
GRIDFORMAT_BEGIN
 90
        0
 91
        1
 62
     0
 92
       -2
340
0
 93
        0
 40
0.045
309
GRIDFORMAT_END
 95
        8
302
GRIDFORMAT
  1
GRIDFORMAT_BEGIN
 90
        0
 91
        1
 62
     0
 92
       -2
340
0
 93
        0
 40
0.045
309
GRIDFORMAT_END
 95
       16
302
GRIDFORMAT
  1
GRIDFORMAT_BEGIN
 90
        0
 91
        1
 62
     0
 92
       -2
340
0
 93
        0
 40
0.045
309
GRIDFORMAT_END
 95
       32
302
GRIDFORMAT
  1
GRIDFORMAT_BEGIN
 90
        0
 91
        1
 62
     0
 92
       -2
340
0
 93
        0
 40
0.045
309
GRIDFORMAT_END
309
TABLEFORMAT_END
  1
CELLSTYLE_BEGIN
 90
        1
 91
        1
300
_TITLE
309
CELLSTYLE_END
300
CELLSTYLE
  1
TABLEFORMAT_BEGIN
 90
        5
170
     1
 91
        0
 92
        0
 62
   257
 93
        1
300
CONTENTFORMAT
  1
CONTENTFORMAT_BEGIN
 90
        0
 91
        0
 92
        4
 93
        0
300

 40
0.0
140
1.0
 94
        5
 62
     0
340
17
144
4.5
309
CONTENTFORMAT_END
171
     1
301
MARGIN
  1
CELLMARGIN_BEGIN
 40
0.06
 40
0.06
 40
0.06
 40
0.06
 40
0.18
 40
0.18
309
CELLMARGIN_END
 94
        6
 95
        1
302
GRIDFORMAT
  1
GRIDFORMAT_BEGIN
 90
        0
 91
        1
 62
     0
 92
       -2
340
0
 93
        0
 40
0.045
309
GRIDFORMAT_END
 95
        2
302
GRIDFORMAT
  1
GRIDFORMAT_BEGIN
 90
        0
 91
        1
 62
     0
 92
       -2
340
0
 93
        0
 40
0.045
309
GRIDFORMAT_END
 95
        4
302
GRIDFORMAT
  1
GRIDFORMAT_BEGIN
 90
        0
 91
        1
 62
     0
 92
       -2
340
0
 93
        0
 40
0.045
309
GRIDFORMAT_END
 95
        8
302
GRIDFORMAT
  1
GRIDFORMAT_BEGIN
 90
        0
 91
        1
 62
     0
 92
       -2
340
0
 93
        0
 40
0.045
309
GRIDFORMAT_END
 95
       16
302
GRIDFORMAT
  1
GRIDFORMAT_BEGIN
 90
        0
 91
        1
 62
     0
 92
       -2
340
0
 93
        0
 40
0.045
309
GRIDFORMAT_END
 95
       32
302
GRIDFORMAT
  1
GRIDFORMAT_BEGIN
 90
        0
 91
        1
 62
     0
 92
       -2
340
0
 93
        0
 40
0.045
309
GRIDFORMAT_END
309
TABLEFORMAT_END
  1
CELLSTYLE_BEGIN
 90
        2
 91
        1
300
_HEADER
309
CELLSTYLE_END
300
CELLSTYLE
  1
TABLEFORMAT_BEGIN
 90
        5
170
     1
 91
        0
 92
        0
 62
   257
 93
        1
300
CONTENTFORMAT
  1
CONTENTFORMAT_BEGIN
 90
        0
 91
        0
 92
        4
 93
        0
300

 40
0.0
140
1.0
 94
        2
 62
     0
340
17
144
4.5
309
CONTENTFORMAT_END
171
     1
301
MARGIN
  1
CELLMARGIN_BEGIN
 40
0.06
 40
0.06
 40
0.06
 40
0.06
 40
0.18
 40
0.18
309
CELLMARGIN_END
 94
        6
 95
        1
302
GRIDFORMAT
  1
GRIDFORMAT_BEGIN
 90
        0
 91
        1
 62
     0
 92
       -2
340
0
 93
        0
 40
0.045
309
GRIDFORMAT_END
 95
        2
302
GRIDFORMAT
  1
GRIDFORMAT_BEGIN
 90
        0
 91
        1
 62
     0
 92
       -2
340
0
 93
        0
 40
0.045
309
GRIDFORMAT_END
 95
        4
302
GRIDFORMAT
  1
GRIDFORMAT_BEGIN
 90
        0
 91
        1
 62
     0
 92
       -2
340
0
 93
        0
 40
0.045
309
GRIDFORMAT_END
 95
        8
302
GRIDFORMAT
  1
GRIDFORMAT_BEGIN
 90
        0
 91
        1
 62
     0
 92
       -2
340
0
 93
        0
 40
0.045
309
GRIDFORMAT_END
 95
       16
302
GRIDFORMAT
  1
GRIDFORMAT_BEGIN
 90
        0
 91
        1
 62
     0
 92
       -2
340
0
 93
        0
 40
0.045
309
GRIDFORMAT_END
 95
       32
302
GRIDFORMAT
  1
GRIDFORMAT_BEGIN
 90
        0
 91
        1
 62
     0
 92
       -2
340
0
 93
        0
 40
0.045
309
GRIDFORMAT_END
309
TABLEFORMAT_END
  1
CELLSTYLE_BEGIN
 90
        3
 91
        2
300
_DATA
309
CELLSTYLE_END
  0
ENDSEC
  0
EOF
