  0
SECTION
  2
HEADER
  9
$ACADVER
  1
AC1021
  9
$ACADMAINTVER
 70
    25
  9
$DWGCODEPAGE
  3
ANSI_932
  9
$LASTSAVEDBY
  1
tform
  9
$INSBASE
 10
0.0
 20
0.0
 30
0.0
  9
$EXTMIN
 10
0.0
 20
0.0
 30
-0.0000000000000071
  9
$EXTMAX
 10
420.0
 20
594.0
 30
0.0000000000000142
  9
$LIMMIN
 10
0.0
 20
0.0
  9
$LIMMAX
 10
420.0
 20
594.0
  9
$ORTHOMODE
 70
     0
  9
$REGENMODE
 70
     1
  9
$FILLMODE
 70
     1
  9
$QTEXTMODE
 70
     0
  9
$MIRRTEXT
 70
     1
  9
$LTSCALE
 40
1.0
  9
$ATTMODE
 70
     1
  9
$TEXTSIZE
 40
2.5
  9
$TRACEWID
 40
1.0
  9
$TEXTSTYLE
  7
ＭＳ ゴシック
  9
$CLAYER
  8
DIM
  9
$CELTYPE
  6
ByLayer
  9
$CECOLOR
 62
   256
  9
$CELTSCALE
 40
1.0
  9
$DISPSILH
 70
     0
  9
$DIMSCALE
 40
1.0
  9
$DIMASZ
 40
2.0
  9
$DIMEXO
 40
5.0
  9
$DIMDLI
 40
0.9999999999999999
  9
$DIMRND
 40
0.0
  9
$DIMDLE
 40
0.0
  9
$DIMEXE
 40
0.0
  9
$DIMTP
 40
0.0
  9
$DIMTM
 40
0.0
  9
$DIMTXT
 40
5.0
  9
$DIMCEN
 40
0.0
  9
$DIMTSZ
 40
0.0
  9
$DIMTOL
 70
     0
  9
$DIMLIM
 70
     0
  9
$DIMTIH
 70
     0
  9
$DIMTOH
 70
     0
  9
$DIMSE1
 70
     0
  9
$DIMSE2
 70
     0
  9
$DIMTAD
 70
     1
  9
$DIMZIN
 70
    11
  9
$DIMBLK
  1
DOT
  9
$DIMASO
 70
     1
  9
$DIMSHO
 70
     1
  9
$DIMPOST
  1
<>
  9
$DIMAPOST
  1
[]
  9
$DIMALT
 70
     0
  9
$DIMALTD
 70
     1
  9
$DIMALTF
 40
1.0
  9
$DIMLFAC
 40
1.0
  9
$DIMTOFL
 70
     0
  9
$DIMTVP
 40
0.0
  9
$DIMTIX
 70
     1
  9
$DIMSOXD
 70
     0
  9
$DIMSAH
 70
     0
  9
$DIMBLK1
  1

  9
$DIMBLK2
  1

  9
$DIMSTYLE
  2
tfrom線あり
  9
$DIMCLRD
 70
     0
  9
$DIMCLRE
 70
     0
  9
$DIMCLRT
 70
     0
  9
$DIMTFAC
 40
1.0
  9
$DIMGAP
 40
3.0
  9
$DIMJUST
 70
     0
  9
$DIMSD1
 70
     0
  9
$DIMSD2
 70
     0
  9
$DIMTOLJ
 70
     1
  9
$DIMTZIN
 70
    11
  9
$DIMALTZ
 70
    11
  9
$DIMALTTZ
 70
    11
  9
$DIMUPT
 70
     0
  9
$DIMDEC
 70
     0
  9
$DIMTDEC
 70
     1
  9
$DIMALTU
 70
     2
  9
$DIMALTTD
 70
     2
  9
$DIMTXSTY
  7
ＭＳ ゴシック
  9
$DIMAUNIT
 70
     0
  9
$DIMADEC
 70
     2
  9
$DIMALTRND
 40
0.0
  9
$DIMAZIN
 70
     0
  9
$DIMDSEP
 70
    46
  9
$DIMATFIT
 70
     0
  9
$DIMFRAC
 70
     2
  9
$DIMLDRBLK
  1
DOT
  9
$DIMLUNIT
 70
     2
  9
$DIMLWD
 70
    -2
  9
$DIMLWE
 70
    -2
  9
$DIMTMOVE
 70
     0
  9
$DIMFXL
 40
1.0
  9
$DIMFXLON
 70
     0
  9
$DIMJOGANG
 40
0.7853981633974483
  9
$DIMTFILL
 70
     0
  9
$DIMTFILLCLR
 70
     0
  9
$DIMARCSYM
 70
     0
  9
$DIMLTYPE
  6

  9
$DIMLTEX1
  6

  9
$DIMLTEX2
  6

  9
$LUNITS
 70
     2
  9
$LUPREC
 70
     0
  9
$SKETCHINC
 40
0.1
  9
$FILLETRAD
 40
0.0
  9
$AUNITS
 70
     0
  9
$AUPREC
 70
     0
  9
$MENU
  1
acad
  9
$ELEVATION
 40
0.0
  9
$PELEVATION
 40
0.0
  9
$THICKNESS
 40
0.0
  9
$LIMCHECK
 70
     0
  9
$CHAMFERA
 40
0.0
  9
$CHAMFERB
 40
0.0
  9
$CHAMFERC
 40
0.0
  9
$CHAMFERD
 40
0.0
  9
$SKPOLY
 70
     0
  9
$TDCREATE
 40
2447893.375
  9
$TDUCREATE
 40
0.0
  9
$TDUPDATE
 40
2460178.576852222
  9
$TDUUPDATE
 40
2460178.201852222
  9
$TDINDWG
 40
0.0060209954
  9
$TDUSRTIMER
 40
0.0000596412
  9
$USRTIMER
 70
     1
  9
$ANGBASE
 50
0.0
  9
$ANGDIR
 70
     0
  9
$PDMODE
 70
     1
  9
$PDSIZE
 40
-2.0
  9
$PLINEWID
 40
0.0
  9
$SPLFRAME
 70
     0
  9
$SPLINETYPE
 70
     6
  9
$SPLINESEGS
 70
     8
  9
$HANDSEED
  5
475B
  9
$SURFTAB1
 70
     6
  9
$SURFTAB2
 70
     6
  9
$SURFTYPE
 70
     6
  9
$SURFU
 70
     6
  9
$SURFV
 70
     6
  9
$UCSBASE
  2

  9
$UCSNAME
  2

  9
$UCSORG
 10
0.0
 20
0.0
 30
0.0
  9
$UCSXDIR
 10
1.0
 20
0.0
 30
0.0
  9
$UCSYDIR
 10
0.0
 20
1.0
 30
0.0
  9
$UCSORTHOREF
  2

  9
$UCSORTHOVIEW
 70
     0
  9
$UCSORGTOP
 10
0.0
 20
0.0
 30
0.0
  9
$UCSORGBOTTOM
 10
0.0
 20
0.0
 30
0.0
  9
$UCSORGLEFT
 10
0.0
 20
0.0
 30
0.0
  9
$UCSORGRIGHT
 10
0.0
 20
0.0
 30
0.0
  9
$UCSORGFRONT
 10
0.0
 20
0.0
 30
0.0
  9
$UCSORGBACK
 10
0.0
 20
0.0
 30
0.0
  9
$PUCSBASE
  2

  9
$PUCSNAME
  2

  9
$PUCSORG
 10
0.0
 20
0.0
 30
0.0
  9
$PUCSXDIR
 10
1.0
 20
0.0
 30
0.0
  9
$PUCSYDIR
 10
0.0
 20
1.0
 30
0.0
  9
$PUCSORTHOREF
  2

  9
$PUCSORTHOVIEW
 70
     0
  9
$PUCSORGTOP
 10
0.0
 20
0.0
 30
0.0
  9
$PUCSORGBOTTOM
 10
0.0
 20
0.0
 30
0.0
  9
$PUCSORGLEFT
 10
0.0
 20
0.0
 30
0.0
  9
$PUCSORGRIGHT
 10
0.0
 20
0.0
 30
0.0
  9
$PUCSORGFRONT
 10
0.0
 20
0.0
 30
0.0
  9
$PUCSORGBACK
 10
0.0
 20
0.0
 30
0.0
  9
$USERI1
 70
     0
  9
$USERI2
 70
     0
  9
$USERI3
 70
     0
  9
$USERI4
 70
     0
  9
$USERI5
 70
     0
  9
$USERR1
 40
0.0
  9
$USERR2
 40
0.0
  9
$USERR3
 40
0.0
  9
$USERR4
 40
0.0
  9
$USERR5
 40
0.0
  9
$WORLDVIEW
 70
     1
  9
$SHADEDGE
 70
     3
  9
$SHADEDIF
 70
    70
  9
$TILEMODE
 70
     1
  9
$MAXACTVP
 70
    64
  9
$PINSBASE
 10
0.0
 20
0.0
 30
0.0
  9
$PLIMCHECK
 70
     0
  9
$PEXTMIN
 10
0.0
 20
0.0
 30
0.0
  9
$PEXTMAX
 10
0.0
 20
0.0
 30
0.0
  9
$PLIMMIN
 10
-7.5
 20
-20.0
  9
$PLIMMAX
 10
412.5
 20
277.0
  9
$UNITMODE
 70
     0
  9
$VISRETAIN
 70
     0
  9
$PLINEGEN
 70
     1
  9
$PSLTSCALE
 70
     0
  9
$TREEDEPTH
 70
  3020
  9
$CMLSTYLE
  2
Standard
  9
$CMLJUST
 70
     0
  9
$CMLSCALE
 40
1.0
  9
$PROXYGRAPHICS
 70
     0
  9
$MEASUREMENT
 70
     1
  9
$CELWEIGHT
370
    -1
  9
$ENDCAPS
280
     0
  9
$JOINSTYLE
280
     0
  9
$LWDISPLAY
290
     1
  9
$INSUNITS
 70
     4
  9
$HYPERLINKBASE
  1

  9
$STYLESHEET
  1

  9
$XEDIT
290
     1
  9
$CEPSNTYPE
380
     0
  9
$PSTYLEMODE
290
     1
  9
$FINGERPRINTGUID
  2

  9
$VERSIONGUID
  2

  9
$EXTNAMES
290
     1
  9
$PSVPSCALE
 40
0.0
  9
$OLESTARTUP
290
     0
  9
$SORTENTS
280
   127
  9
$INDEXCTL
280
     0
  9
$HIDETEXT
280
     1
  9
$XCLIPFRAME
290
     0
  9
$HALOGAP
280
     0
  9
$OBSCOLOR
 70
   257
  9
$OBSLTYPE
280
     0
  9
$INTERSECTIONDISPLAY
280
     0
  9
$INTERSECTIONCOLOR
 70
   257
  9
$DIMASSOC
280
     2
  9
$PROJECTNAME
  1

  9
$CAMERADISPLAY
290
     0
  9
$LENSLENGTH
 40
50.0
  9
$CAMERAHEIGHT
 40
0.0
  9
$STEPSPERSEC
 40
2.0
  9
$STEPSIZE
 40
6.0
  9
$3DDWFPREC
 40
2.0
  9
$PSOLWIDTH
 40
0.25
  9
$PSOLHEIGHT
 40
4.0
  9
$LOFTANG1
 40
1.570796326794897
  9
$LOFTANG2
 40
1.570796326794897
  9
$LOFTMAG1
 40
0.0
  9
$LOFTMAG2
 40
0.0
  9
$LOFTPARAM
 70
     7
  9
$LOFTNORMALS
280
     1
  9
$LATITUDE
 40
37.795
  9
$LONGITUDE
 40
-122.394
  9
$NORTHDIRECTION
 40
0.0
  9
$TIMEZONE
 70
 -8000
  9
$LIGHTGLYPHDISPLAY
280
     1
  9
$TILEMODELIGHTSYNCH
280
     1
  9
$SOLIDHIST
280
     1
  9
$SHOWHIST
280
     1
  9
$DWFFRAME
280
     2
  9
$DGNFRAME
280
     2
  9
$REALWORLDSCALE
290
     1
  9
$INTERFERECOLOR
 62
   256
  9
$CSHADOW
280
     0
  9
$SHADOWPLANELOCATION
 40
0.0
  0
ENDSEC
  0
SECTION
  2
CLASSES
  0
CLASS
  1
LWPOLYLINE
  2
AcDbPolyline
  3
ObjectDBX Classes
 90
        0
 91
        1
280
     0
281
     1
  0
CLASS
  1
IMAGE
  2
AcDbRasterImage
  3
ISM
 90
      127
 91
        4
280
     0
281
     1
  0
CLASS
  1
OLE2FRAME
  2
AcDbOle2Frame
  3
ObjectDBX Classes
 90
        0
 91
        1
280
     0
281
     1
  0
CLASS
  1
HATCH
  2
AcDbHatch
  3
ObjectDBX Classes
 90
        0
 91
        1
280
     0
281
     1
  0
CLASS
  1
DICTIONARYVAR
  2
AcDbDictionaryVar
  3
ObjectDBX Classes
 90
        0
 91
        3
280
     0
281
     0
  0
CLASS
  1
RASTERVARIABLES
  2
AcDbRasterVariables
  3
ISM
 90
        0
 91
        3
280
     0
281
     0
  0
CLASS
  1
IMAGEDEF
  2
AcDbRasterImageDef
  3
ISM
 90
        0
 91
        3
280
     0
281
     0
  0
CLASS
  1
IMAGEDEF_REACTOR
  2
AcDbRasterImageDefReactor
  3
ISM
 90
        1
 91
        3
280
     0
281
     0
  0
CLASS
  1
IDBUFFER
  2
AcDbIdBuffer
  3
ObjectDBX Classes
 90
        0
 91
        3
280
     0
281
     0
  0
CLASS
  1
SPATIAL_FILTER
  2
AcDbSpatialFilter
  3
ObjectDBX Classes
 90
        0
 91
        3
280
     0
281
     0
  0
CLASS
  1
XRECORD
  2
AcDbXrecord
  3
ObjectDBX Classes
 90
        0
 91
        1
280
     0
281
     0
  0
CLASS
  1
SORTENTSTABLE
  2
AcDbSortentsTable
  3
ObjectDBX Classes
 90
        0
 91
        3
280
     0
281
     0
  0
CLASS
  1
LAYER_INDEX
  2
AcDbLayerIndex
  3
ObjectDBX Classes
 90
        0
 91
        3
280
     0
281
     0
  0
CLASS
  1
SPATIAL_INDEX
  2
AcDbSpatialIndex
  3
AutoCAD 2000
 90
        0
 91
        3
280
     0
281
     0
  0
CLASS
  1
OBJECT_PTR
  2
CAseDLPNTableRecord
  3
ASE-LPNTableRecord
 90
        1
 91
        3
280
     0
281
     0
  0
CLASS
  1
LAYOUT
  2
AcDbLayout
  3
ObjectDBX Classes
 90
        0
 91
        1
280
     0
281
     0
  0
CLASS
  1
PLOTSETTINGS
  2
AcDbPlotSettings
  3
ObjectDBX Classes
 90
        0
 91
        3
280
     0
281
     0
  0
CLASS
  1
ACDBDICTIONARYWDFLT
  2
AcDbDictionaryWithDefault
  3
ObjectDBX Classes
 90
        0
 91
        3
280
     0
281
     0
  0
CLASS
  1
ACDBPLACEHOLDER
  2
AcDbPlaceHolder
  3
ObjectDBX Classes
 90
        0
 91
        1
280
     0
281
     0
  0
CLASS
  1
SCALE
  2
AcDbScale
  3
ObjectDBX Classes
 90
     1153
 91
        3
280
     0
281
     0
  0
CLASS
  1
MATERIAL
  2
AcDbMaterial
  3
ObjectDBX Classes
 90
     1153
 91
        3
280
     0
281
     0
  0
CLASS
  1
VISUALSTYLE
  2
AcDbVisualStyle
  3
ObjectDBX Classes
 90
     4095
 91
        3
280
     0
281
     0
  0
CLASS
  1
TABLESTYLE
  2
AcDbTableStyle
  3
ObjectDBX Classes
 90
     4095
 91
        3
280
     0
281
     0
  0
CLASS
  1
DIMASSOC
  2
AcDbDimAssoc
  3
"AcDbDimAssoc|Product Desc:     AcDim ARX App For Dimension|Company:          Autodesk, Inc.|WEB Address:      www.autodesk.com"
 90
        0
 91
        3
280
     0
281
     0
  0
CLASS
  1
CELLSTYLEMAP
  2
AcDbCellStyleMap
  3
ObjectDBX Classes
 90
     1152
 91
        3
280
     0
281
     0
  0
CLASS
  1
SUN
  2
AcDbSun
  3
SCENEOE
 90
     1153
 91
        3
280
     0
281
     0
  0
CLASS
  1
MLEADERSTYLE
  2
AcDbMLeaderStyle
  3
ACDB_MLEADERSTYLE_CLASS
 90
     4095
 91
        3
280
     0
281
     0
  0
CLASS
  1
FIELD
  2
AcDbField
  3
ObjectDBX Classes
 90
     1152
 91
        3
280
     0
281
     0
  0
CLASS
  1
FIELDLIST
  2
AcDbFieldList
  3
ObjectDBX Classes
 90
     1152
 91
        3
280
     0
281
     0
  0
ENDSEC
  0
SECTION
  2
TABLES
  0
TABLE
  2
VPORT
  5
7
330
0
100
AcDbSymbolTable
 70
     1
  0
VPORT
  5
15
330
7
100
AcDbSymbolTableRecord
100
AcDbViewportTableRecord
  2
*ACTIVE
 70
     0
 10
0.0
 20
0.0
 11
1.0
 21
1.0
 12
301.0201356709001
 22
223.401285469834
 13
0.0
 23
0.0
 14
1.0
 24
1.0
 15
0.0
 25
0.0
 16
0.0
 26
0.0
 36
1.0
 17
-91.02013567090012
 27
73.59871453016603
 37
-46.86809886248109
 40
605.88
 41
2.189300411522634
 42
50.0
 43
0.0
 44
0.0
 50
0.0
 51
0.0
 71
    16
 72
  2000
 73
     1
 74
     1
 75
     0
 76
     0
 77
     0
 78
     0
281
     0
 65
     1
110
0.0
120
0.0
130
0.0
111
1.0
121
0.0
131
0.0
112
0.0
122
1.0
132
0.0
 79
     0
146
0.0
348
26C
 60
     3
 61
     5
292
     1
282
     1
141
0.0
142
0.0
 63
   256
361
904
  0
ENDTAB
  0
TABLE
  2
LTYPE
  5
4
330
0
100
AcDbSymbolTable
 70
     3
  0
LTYPE
  5
11
330
4
100
AcDbSymbolTableRecord
100
AcDbLinetypeTableRecord
  2
ByBlock
 70
     0
  3

 72
    65
 73
     0
 40
0.0
  0
LTYPE
  5
12
330
4
100
AcDbSymbolTableRecord
100
AcDbLinetypeTableRecord
  2
ByLayer
 70
     0
  3

 72
    65
 73
     0
 40
0.0
  0
LTYPE
  5
13
330
4
100
AcDbSymbolTableRecord
100
AcDbLinetypeTableRecord
  2
Continuous
 70
     0
  3
Solid line
 72
    65
 73
     0
 40
0.0
  0
LTYPE
  5
D6C
330
4
100
AcDbSymbolTableRecord
100
AcDbLinetypeTableRecord
  2
BORDER
 70
     0
  3
Border __  __  . __  __  . __  __  . __  __  . 
 72
    65
 73
     6
 40
44.45
 49
12.7
 74
     0
 49
-6.35
 74
     0
 49
12.7
 74
     0
 49
-6.35
 74
     0
 49
0.0
 74
     0
 49
-6.35
 74
     0
  0
LTYPE
  5
D6D
330
4
100
AcDbSymbolTableRecord
100
AcDbLinetypeTableRecord
  2
HIDDEN
 70
     0
  3
Hidden _ _ _ _ _ _ _ _ _ _ _ _ _ _ _ _ _ _ _ _ 
 72
    65
 73
     2
 40
9.524999999999999
 49
6.35
 74
     0
 49
-3.175
 74
     0
  0
ENDTAB
  0
TABLE
  2
LAYER
  5
2
102
{ACAD_XDICTIONARY
360
2E1
102
}
330
0
100
AcDbSymbolTable
 70
     9
  0
LAYER
  5
14
330
2
100
AcDbSymbolTableRecord
100
AcDbLayerTableRecord
  2
0
 70
     0
 62
     7
  6
Continuous
370
    -3
390
1D
347
266
  0
LAYER
  5
4B
330
2
100
AcDbSymbolTableRecord
100
AcDbLayerTableRecord
  2
TEMPLATE
 70
     0
 62
     7
  6
Continuous
370
    20
390
1D
347
266
  0
LAYER
  5
4C
330
2
100
AcDbSymbolTableRecord
100
AcDbLayerTableRecord
  2
DIM
 70
     0
 62
     3
  6
Continuous
370
    13
390
1D
347
266
  0
LAYER
  5
4D
330
2
100
AcDbSymbolTableRecord
100
AcDbLayerTableRecord
  2
MODEL
 70
     0
 62
     7
  6
Continuous
370
    20
390
1D
347
266
  0
LAYER
  5
88C
330
2
100
AcDbSymbolTableRecord
100
AcDbLayerTableRecord
  2
HIDDEN
 70
     0
 62
     8
  6
HIDDEN
370
    20
390
1D
347
266
1001
AcAecLayerStandard
1000

1000

  0
LAYER
  5
D6B
330
2
100
AcDbSymbolTableRecord
100
AcDbLayerTableRecord
  2
BORDER
 70
     0
 62
     4
  6
BORDER
290
     0
370
    20
390
1D
347
266
1001
AcAecLayerStandard
1000

1000

  0
LAYER
  5
D8C
330
2
100
AcDbSymbolTableRecord
100
AcDbLayerTableRecord
  2
Defpoints
 70
     0
 62
     7
  6
Continuous
290
     0
370
    -3
390
1D
347
266
  0
LAYER
  5
3653
330
2
100
AcDbSymbolTableRecord
100
AcDbLayerTableRecord
  2
Standard
 70
     0
 62
     7
  6
Continuous
370
    -3
390
1D
347
266
  0
LAYER
  5
3D4C
330
2
100
AcDbSymbolTableRecord
100
AcDbLayerTableRecord
  2
Default
 70
     0
 62
     7
  6
Continuous
370
    -3
390
1D
347
266
  0
ENDTAB
  0
TABLE
  2
STYLE
  5
3
330
0
100
AcDbSymbolTable
 70
     2
  0
STYLE
  5
17
330
3
100
AcDbSymbolTableRecord
100
AcDbTextStyleTableRecord
  2
Standard
 70
     0
 40
0.0
 41
1.0
 50
0.0
 71
     0
 42
2.5
  3
txt
  4
BIGFONT.SHX
  0
STYLE
  5
39
330
3
100
AcDbSymbolTableRecord
100
AcDbTextStyleTableRecord
  2
ＭＳ ゴシック
 70
     0
 40
0.0
 41
1.0
 50
0.0
 71
     0
 42
2.5
  3
msgothic.ttc
  4
ＭＳ ゴシック
1001
ACAD
1000
ＭＳ ゴシック
1071
        0
  0
ENDTAB
  0
TABLE
  2
VIEW
  5
5
330
0
100
AcDbSymbolTable
 70
     0
  0
ENDTAB
  0
TABLE
  2
UCS
  5
6
330
0
100
AcDbSymbolTable
 70
     0
  0
ENDTAB
  0
TABLE
  2
APPID
  5
8
330
0
100
AcDbSymbolTable
 70
     4
  0
APPID
  5
16
330
8
100
AcDbSymbolTableRecord
100
AcDbRegAppTableRecord
  2
ACAD
 70
     0
  0
APPID
  5
7AC
330
8
100
AcDbSymbolTableRecord
100
AcDbRegAppTableRecord
  2
AcAecLayerStandard
 70
     0
  0
APPID
  5
E29
330
8
100
AcDbSymbolTableRecord
100
AcDbRegAppTableRecord
  2
ACAD_MLEADERVER
 70
     0
  0
APPID
  5
474C
330
8
100
AcDbSymbolTableRecord
100
AcDbRegAppTableRecord
  2
PLOTTRANSPARENCY
 70
     0
  0
ENDTAB
  0
TABLE
  2
DIMSTYLE
  5
9
330
0
100
AcDbSymbolTable
 70
     2
100
AcDbDimStyleTable
  0
DIMSTYLE
105
18
330
9
100
AcDbSymbolTableRecord
100
AcDbDimStyleTableRecord
  2
Standard
 70
     0
178
     0
340
17
  0
DIMSTYLE
105
57
102
{ACAD_REACTORS
330
41B6
330
41B7
330
4665
330
4669
330
466E
330
466F
102
}
330
9
100
AcDbSymbolTableRecord
100
AcDbDimStyleTableRecord
  2
tfrom線あり
 70
     0
  3
<>
  4
[]
 41
2.0
 42
5.0
 43
0.9999999999999999
 44
0.0
 73
     0
 74
     0
 77
     1
 78
    11
140
5.0
141
0.0
143
1.0
147
3.0
171
     1
174
     1
178
     0
179
     2
271
     0
272
     1
276
     2
284
    11
285
    11
286
    11
289
     0
340
39
341
4E
342
4E
  0
ENDTAB
  0
TABLE
  2
BLOCK_RECORD
  5
1
330
0
100
AcDbSymbolTable
 70
    21
  0
BLOCK_RECORD
  5
A
102
{ACAD_XDICTIONARY
360
3D3D
102
}
330
1
100
AcDbSymbolTableRecord
100
AcDbBlockTableRecord
  2
*MODEL_SPACE
340
20
 70
     0
280
     1
281
     0
  0
BLOCK_RECORD
  5
B
330
1
100
AcDbSymbolTableRecord
100
AcDbBlockTableRecord
  2
*PAPER_SPACE
340
21
 70
     0
280
     1
281
     0
  0
BLOCK_RECORD
  5
4E
330
1
100
AcDbSymbolTableRecord
100
AcDbBlockTableRecord
  2
_DOT
340
0
102
{BLKREFS
331
41FF
331
4200
331
420B
331
420C
331
4218
331
4219
331
4224
331
4230
331
4231
331
42BD
331
42BE
331
44C4
331
44C5
331
44D4
331
44D5
331
44E5
331
44E6
331
44F5
331
44F6
331
4679
331
467A
331
4685
331
4686
331
4691
331
4692
331
469D
331
469E
331
46AC
331
46AD
102
}
 70
     0
280
     1
281
     0
  0
BLOCK_RECORD
  5
68D
330
1
100
AcDbSymbolTableRecord
100
AcDbBlockTableRecord
  2
block 2
340
0
102
{BLKREFS
331
68C
331
1343
102
}
 70
     0
280
     1
281
     0
  0
BLOCK_RECORD
  5
3D81
330
1
100
AcDbSymbolTableRecord
100
AcDbBlockTableRecord
  2
SE3
340
0
 70
     0
280
     1
281
     0
  0
BLOCK_RECORD
  5
3DC5
330
1
100
AcDbSymbolTableRecord
100
AcDbBlockTableRecord
  2
SE4
340
0
 70
     0
280
     1
281
     0
  0
BLOCK_RECORD
  5
3EE6
330
1
100
AcDbSymbolTableRecord
100
AcDbBlockTableRecord
  2
SE5
340
0
 70
     0
280
     1
281
     0
  0
BLOCK_RECORD
  5
3F2A
330
1
100
AcDbSymbolTableRecord
100
AcDbBlockTableRecord
  2
SE6
340
0
 70
     0
280
     1
281
     0
  0
BLOCK_RECORD
  5
41F7
330
1
100
AcDbSymbolTableRecord
100
AcDbBlockTableRecord
  2
*D6
340
0
 70
     0
280
     1
281
     0
  0
BLOCK_RECORD
  5
4205
330
1
100
AcDbSymbolTableRecord
100
AcDbBlockTableRecord
  2
*D7
340
0
 70
     0
280
     1
281
     0
  0
BLOCK_RECORD
  5
4212
330
1
100
AcDbSymbolTableRecord
100
AcDbBlockTableRecord
  2
*D8
340
0
 70
     0
280
     1
281
     0
  0
BLOCK_RECORD
  5
421F
330
1
100
AcDbSymbolTableRecord
100
AcDbBlockTableRecord
  2
*D9
340
0
 70
     0
280
     1
281
     0
  0
BLOCK_RECORD
  5
422A
330
1
100
AcDbSymbolTableRecord
100
AcDbBlockTableRecord
  2
*D10
340
0
 70
     0
280
     1
281
     0
  0
BLOCK_RECORD
  5
42B7
330
1
100
AcDbSymbolTableRecord
100
AcDbBlockTableRecord
  2
*D11
340
0
 70
     0
280
     1
281
     0
  0
BLOCK_RECORD
  5
44BF
330
1
100
AcDbSymbolTableRecord
100
AcDbBlockTableRecord
  2
*D12
340
0
 70
     0
280
     1
281
     0
  0
BLOCK_RECORD
  5
44CF
330
1
100
AcDbSymbolTableRecord
100
AcDbBlockTableRecord
  2
*D13
340
0
 70
     0
280
     1
281
     0
  0
BLOCK_RECORD
  5
44E0
330
1
100
AcDbSymbolTableRecord
100
AcDbBlockTableRecord
  2
*D14
340
0
 70
     0
280
     1
281
     0
  0
BLOCK_RECORD
  5
44F0
330
1
100
AcDbSymbolTableRecord
100
AcDbBlockTableRecord
  2
*D15
340
0
 70
     0
280
     1
281
     0
  0
BLOCK_RECORD
  5
4673
330
1
100
AcDbSymbolTableRecord
100
AcDbBlockTableRecord
  2
*D16
340
0
 70
     0
280
     1
281
     0
  0
BLOCK_RECORD
  5
467F
330
1
100
AcDbSymbolTableRecord
100
AcDbBlockTableRecord
  2
*D17
340
0
 70
     0
280
     1
281
     0
  0
BLOCK_RECORD
  5
468B
330
1
100
AcDbSymbolTableRecord
100
AcDbBlockTableRecord
  2
*D18
340
0
 70
     0
280
     1
281
     0
  0
BLOCK_RECORD
  5
4697
330
1
100
AcDbSymbolTableRecord
100
AcDbBlockTableRecord
  2
*D19
340
0
 70
     0
280
     1
281
     0
  0
BLOCK_RECORD
  5
46A6
330
1
100
AcDbSymbolTableRecord
100
AcDbBlockTableRecord
  2
*D20
340
0
 70
     0
280
     1
281
     0
  0
ENDTAB
  0
ENDSEC
  0
SECTION
  2
BLOCKS
  0
BLOCK
  5
D
330
A
100
AcDbEntity
  8
0
390
1D
100
AcDbBlockBegin
  2
*MODEL_SPACE
 70
     0
 10
0.0
 20
0.0
 30
0.0
  3
*MODEL_SPACE
  1
*MODEL_SPACE
  0
ENDBLK
  5
E
330
A
100
AcDbEntity
  8
0
390
1D
100
AcDbBlockEnd
  0
BLOCK
  5
F
330
B
100
AcDbEntity
 67
     1
  8
0
390
1D
100
AcDbBlockBegin
  2
*PAPER_SPACE
 70
     0
 10
0.0
 20
0.0
 30
0.0
  3
*PAPER_SPACE
  1
*PAPER_SPACE
  0
ENDBLK
  5
10
330
B
100
AcDbEntity
 67
     1
  8
0
390
1D
100
AcDbBlockEnd
  0
BLOCK
  5
2462
330
4E
100
AcDbEntity
  8
0
390
1D
100
AcDbBlockBegin
  2
_DOT
 70
     0
 10
0.0
 20
0.0
 30
0.0
  3
_DOT
  1
_DOT
  0
POLYLINE
  5
2464
330
4E
100
AcDbEntity
  8
0
  6
ByBlock
 62
     0
370
    -2
390
1D
100
AcDb2dPolyline
 66
     1
 10
0.0
 20
0.0
 30
0.0
 70
     1
 40
0.5
 41
0.5
  0
VERTEX
  5
2465
330
2464
100
AcDbEntity
  8
0
  6
ByBlock
 62
     0
370
    -2
390
1D
100
AcDbVertex
100
AcDb2dVertex
 10
-0.25
 20
0.0
 30
0.0
 42
1.0
  0
VERTEX
  5
2466
330
2464
100
AcDbEntity
  8
0
  6
ByBlock
 62
     0
370
    -2
390
1D
100
AcDbVertex
100
AcDb2dVertex
 10
0.25
 20
0.0
 30
0.0
 42
1.0
  0
SEQEND
  5
2467
330
2464
100
AcDbEntity
  8
0
390
1D
  0
LINE
  5
2468
330
4E
100
AcDbEntity
  8
0
  6
ByBlock
 62
     0
370
    -2
390
1D
100
AcDbLine
 10
-0.5
 20
0.0
 30
0.0
 11
-1.0
 21
0.0
 31
0.0
  0
ENDBLK
  5
2469
330
4E
100
AcDbEntity
  8
0
390
1D
100
AcDbBlockEnd
  0
BLOCK
  5
68E
330
68D
100
AcDbEntity
  8
0
100
AcDbBlockBegin
  2
block 2
 70
     0
 10
0.0
 20
0.0
 30
0.0
  3
block 2
  1
block 2
  0
ENDBLK
  5
6B0
330
68D
100
AcDbEntity
  8
0
100
AcDbBlockEnd
  0
BLOCK
  5
3D82
330
3D81
100
AcDbEntity
  8
0
100
AcDbBlockBegin
  2
SE3
 70
     0
 10
0.0
 20
0.0
 30
0.0
  3
SE3
  1

  0
LINE
  5
3D83
330
3D81
100
AcDbEntity
  8
Default
  6
Continuous
 62
     7
100
AcDbLine
 10
64.7778035388
 20
146.5929326898
 30
0.0
 11
70.8592133497
 21
146.5929326898
 31
0.0
  0
LINE
  5
3D84
330
3D81
100
AcDbEntity
  8
Default
  6
Continuous
 62
     7
100
AcDbLine
 10
46.3039673855
 20
146.5929326898
 30
0.0
 11
64.7778035388
 21
146.5929326898
 31
0.0
  0
LINE
  5
3D85
330
3D81
100
AcDbEntity
  8
Default
  6
Continuous
 62
     7
100
AcDbLine
 10
70.8592133497
 20
146.5929326898
 30
0.0
 11
73.2039673855
 21
146.5929326898
 31
0.0
  0
ENDBLK
  5
3D86
330
3D81
100
AcDbEntity
  8
0
100
AcDbBlockEnd
  0
BLOCK
  5
3DC6
330
3DC5
100
AcDbEntity
  8
0
100
AcDbBlockBegin
  2
SE4
 70
     0
 10
0.0
 20
0.0
 30
0.0
  3
SE4
  1

  0
LINE
  5
3DC7
330
3DC5
100
AcDbEntity
  8
Default
  6
Continuous
 62
     7
100
AcDbLine
 10
64.7778035388
 20
160.5929326898
 30
0.0
 11
70.8592133497
 21
160.5929326898
 31
0.0
  0
LINE
  5
3DC8
330
3DC5
100
AcDbEntity
  8
Default
  6
Continuous
 62
     7
100
AcDbLine
 10
46.3039673855
 20
160.5929326898
 30
0.0
 11
64.7778035388
 21
160.5929326898
 31
0.0
  0
LINE
  5
3DC9
330
3DC5
100
AcDbEntity
  8
Default
  6
Continuous
 62
     7
100
AcDbLine
 10
70.8592133497
 20
160.5929326898
 30
0.0
 11
73.2039673855
 21
160.5929326898
 31
0.0
  0
ENDBLK
  5
3DCA
330
3DC5
100
AcDbEntity
  8
0
100
AcDbBlockEnd
  0
BLOCK
  5
3EE7
330
3EE6
100
AcDbEntity
  8
0
100
AcDbBlockBegin
  2
SE5
 70
     0
 10
0.0
 20
0.0
 30
0.0
  3
SE5
  1

  0
LINE
  5
3EE8
330
3EE6
100
AcDbEntity
  8
Default
  6
Continuous
 62
     7
100
AcDbLine
 10
64.7778035388
 20
225.011590921
 30
0.0
 11
70.8592133497
 21
225.011590921
 31
0.0
  0
LINE
  5
3EE9
330
3EE6
100
AcDbEntity
  8
Default
  6
Continuous
 62
     7
100
AcDbLine
 10
46.3039673855
 20
225.011590921
 30
0.0
 11
64.7778035388
 21
225.011590921
 31
0.0
  0
LINE
  5
3EEA
330
3EE6
100
AcDbEntity
  8
Default
  6
Continuous
 62
     7
100
AcDbLine
 10
70.8592133497
 20
225.011590921
 30
0.0
 11
73.2039673855
 21
225.011590921
 31
0.0
  0
ENDBLK
  5
3EEB
330
3EE6
100
AcDbEntity
  8
0
100
AcDbBlockEnd
  0
BLOCK
  5
3F2B
330
3F2A
100
AcDbEntity
  8
0
100
AcDbBlockBegin
  2
SE6
 70
     0
 10
0.0
 20
0.0
 30
0.0
  3
SE6
  1

  0
LINE
  5
3F2C
330
3F2A
100
AcDbEntity
  8
Default
  6
Continuous
 62
     7
100
AcDbLine
 10
64.7778035388
 20
239.011590921
 30
0.0
 11
70.8592133497
 21
239.011590921
 31
0.0
  0
LINE
  5
3F2D
330
3F2A
100
AcDbEntity
  8
Default
  6
Continuous
 62
     7
100
AcDbLine
 10
46.3039673855
 20
239.011590921
 30
0.0
 11
64.7778035388
 21
239.011590921
 31
0.0
  0
LINE
  5
3F2E
330
3F2A
100
AcDbEntity
  8
Default
  6
Continuous
 62
     7
100
AcDbLine
 10
70.8592133497
 20
239.011590921
 30
0.0
 11
73.2039673855
 21
239.011590921
 31
0.0
  0
ENDBLK
  5
3F2F
330
3F2A
100
AcDbEntity
  8
0
100
AcDbBlockEnd
  0
BLOCK
  5
41F8
330
41F7
100
AcDbEntity
  8
0
100
AcDbBlockBegin
  2
*D6
 70
     1
 10
0.0
 20
0.0
 30
0.0
  3
*D6
  1

  0
LINE
  5
41FA
330
41F7
100
AcDbEntity
  8
DIM
 62
     0
370
    -2
100
AcDbLine
 10
293.339238722367
 20
160.6647599423471
 30
0.0
 11
293.339238722367
 21
149.2071167008383
 31
0.0
  0
LINE
  5
41FB
330
41F7
100
AcDbEntity
  8
DIM
 62
     0
370
    -2
100
AcDbLine
 10
301.0392387223671
 20
175.104759942347
 30
0.0
 11
301.0392387223671
 21
149.2071167008383
 31
0.0
  0
LINE
  5
41FC
330
41F7
100
AcDbEntity
  8
DIM
 62
     0
370
    -2
100
AcDbLine
 10
301.0392387223671
 20
149.2071167008383
 30
0.0
 11
316.1173110706162
 21
149.2071167008383
 31
0.0
  0
LINE
  5
41FD
330
41F7
100
AcDbEntity
  8
DIM
 62
     0
370
    -2
100
AcDbLine
 10
295.339238722367
 20
149.2071167008383
 30
0.0
 11
299.0392387223671
 21
149.2071167008383
 31
0.0
  0
LINE
  5
41FE
330
41F7
100
AcDbEntity
  8
DIM
 62
     0
370
    -2
100
AcDbLine
 10
299.0392387223671
 20
149.2071167008383
 30
0.0
 11
297.0392387223671
 21
149.2071167008383
 31
0.0
  0
INSERT
  5
41FF
330
41F7
100
AcDbEntity
  8
DIM
 62
     0
370
    -2
100
AcDbBlockReference
  2
_DOT
 10
293.339238722367
 20
149.2071167008383
 30
0.0
 41
2.0
 42
2.0
 43
2.0
 50
180.0
  0
INSERT
  5
4200
330
41F7
100
AcDbEntity
  8
DIM
 62
     0
370
    -2
100
AcDbBlockReference
  2
_DOT
 10
301.0392387223671
 20
149.2071167008383
 30
0.0
 41
2.0
 42
2.0
 43
2.0
  0
MTEXT
  5
4201
330
41F7
100
AcDbEntity
  8
DIM
 62
     0
100
AcDbMText
 10
311.7975192736924
 20
154.7071167008383
 30
0.0
 40
5.0
 41
0.0
 46
0.0
 71
     5
 72
     1
  1
\A1;8
  7
ＭＳ ゴシック
 73
     1
 44
1.0
  0
POINT
  5
4202
330
41F7
100
AcDbEntity
  8
Defpoints
 62
     0
100
AcDbPoint
 10
293.339238722367
 20
165.6647599423471
 30
0.0
  0
POINT
  5
4203
330
41F7
100
AcDbEntity
  8
Defpoints
 62
     0
100
AcDbPoint
 10
301.0392387223671
 20
180.104759942347
 30
0.0
  0
POINT
  5
4204
330
41F7
100
AcDbEntity
  8
Defpoints
 62
     0
100
AcDbPoint
 10
301.0392387223671
 20
149.2071167008383
 30
0.0
  0
ENDBLK
  5
41F9
330
41F7
100
AcDbEntity
  8
0
100
AcDbBlockEnd
  0
BLOCK
  5
4206
330
4205
100
AcDbEntity
  8
0
100
AcDbBlockBegin
  2
*D7
 70
     1
 10
0.0
 20
0.0
 30
0.0
  3
*D7
  1

  0
LINE
  5
4208
330
4205
100
AcDbEntity
  8
DIM
 62
     0
370
    -2
100
AcDbLine
 10
293.339238722367
 20
160.6647599423471
 30
0.0
 11
293.339238722367
 21
135.3349092056703
 31
0.0
  0
LINE
  5
4209
330
4205
100
AcDbEntity
  8
DIM
 62
     0
370
    -2
100
AcDbLine
 10
359.9192387223672
 20
201.964759942347
 30
0.0
 11
359.9192387223672
 21
135.3349092056703
 31
0.0
  0
LINE
  5
420A
330
4205
100
AcDbEntity
  8
DIM
 62
     0
370
    -2
100
AcDbLine
 10
295.339238722367
 20
135.3349092056703
 30
0.0
 11
357.9192387223672
 21
135.3349092056703
 31
0.0
  0
INSERT
  5
420B
330
4205
100
AcDbEntity
  8
DIM
 62
     0
370
    -2
100
AcDbBlockReference
  2
_DOT
 10
293.339238722367
 20
135.3349092056703
 30
0.0
 41
2.0
 42
2.0
 43
2.0
 50
180.0
  0
INSERT
  5
420C
330
4205
100
AcDbEntity
  8
DIM
 62
     0
370
    -2
100
AcDbBlockReference
  2
_DOT
 10
359.9192387223672
 20
135.3349092056703
 30
0.0
 41
2.0
 42
2.0
 43
2.0
  0
MTEXT
  5
420D
330
4205
100
AcDbEntity
  8
DIM
 62
     0
100
AcDbMText
 10
326.6292374921671
 20
140.8358470573646
 30
0.0
 40
5.0
 41
0.0
 46
0.0
 71
     5
 72
     1
  1
\A1;\A1;67
  7
ＭＳ ゴシック
 73
     1
 44
1.0
  0
POINT
  5
420E
330
4205
100
AcDbEntity
  8
Defpoints
 62
     0
100
AcDbPoint
 10
293.339238722367
 20
165.6647599423471
 30
0.0
  0
POINT
  5
420F
330
4205
100
AcDbEntity
  8
Defpoints
 62
     0
100
AcDbPoint
 10
359.9192387223672
 20
206.964759942347
 30
0.0
  0
POINT
  5
4210
330
4205
100
AcDbEntity
  8
Defpoints
 62
     0
100
AcDbPoint
 10
359.9192387223672
 20
135.3349092056703
 30
0.0
  0
ENDBLK
  5
4207
330
4205
100
AcDbEntity
  8
0
100
AcDbBlockEnd
  0
BLOCK
  5
4213
330
4212
100
AcDbEntity
  8
0
100
AcDbBlockBegin
  2
*D8
 70
     1
 10
0.0
 20
0.0
 30
0.0
  3
*D8
  1

  0
LINE
  5
4215
330
4212
100
AcDbEntity
  8
DIM
 62
     0
370
    -2
100
AcDbLine
 10
293.339238722367
 20
136.833686048293
 30
0.0
 11
293.339238722367
 21
111.5038353116162
 31
0.0
  0
LINE
  5
4216
330
4212
100
AcDbEntity
  8
DIM
 62
     0
370
    -2
100
AcDbLine
 10
188.339238722367
 20
134.2058650470402
 30
0.0
 11
188.339238722367
 21
111.5038353116162
 31
0.0
  0
LINE
  5
4217
330
4212
100
AcDbEntity
  8
DIM
 62
     0
370
    -2
100
AcDbLine
 10
291.339238722367
 20
111.5038353116162
 30
0.0
 11
190.339238722367
 21
111.5038353116162
 31
0.0
  0
INSERT
  5
4218
330
4212
100
AcDbEntity
  8
DIM
 62
     0
370
    -2
100
AcDbBlockReference
  2
_DOT
 10
293.339238722367
 20
111.5038353116162
 30
0.0
 41
2.0
 42
2.0
 43
2.0
  0
INSERT
  5
4219
330
4212
100
AcDbEntity
  8
DIM
 62
     0
370
    -2
100
AcDbBlockReference
  2
_DOT
 10
188.339238722367
 20
111.5038353116162
 30
0.0
 41
2.0
 42
2.0
 43
2.0
 50
180.0
  0
MTEXT
  5
421A
330
4212
100
AcDbEntity
  8
DIM
 62
     0
100
AcDbMText
 10
240.839240361567
 20
117.0038353116162
 30
0.0
 40
5.0
 41
0.0
 46
0.0
 71
     5
 72
     1
  1
\A1;\A1;110-65 {}
  7
ＭＳ ゴシック
 73
     1
 44
1.0
  0
POINT
  5
421B
330
4212
100
AcDbEntity
  8
Defpoints
 62
     0
100
AcDbPoint
 10
293.339238722367
 20
141.833686048293
 30
0.0
  0
POINT
  5
421C
330
4212
100
AcDbEntity
  8
Defpoints
 62
     0
100
AcDbPoint
 10
188.339238722367
 20
139.2058650470402
 30
0.0
  0
POINT
  5
421D
330
4212
100
AcDbEntity
  8
Defpoints
 62
     0
100
AcDbPoint
 10
188.339238722367
 20
111.5038353116162
 30
0.0
  0
ENDBLK
  5
4214
330
4212
100
AcDbEntity
  8
0
100
AcDbBlockEnd
  0
BLOCK
  5
4220
330
421F
100
AcDbEntity
  8
0
100
AcDbBlockBegin
  2
*D9
 70
     1
 10
0.0
 20
0.0
 30
0.0
  3
*D9
  1

  0
LINE
  5
4222
330
421F
100
AcDbEntity
  8
DIM
 62
     0
370
    -2
100
AcDbLine
 10
109.5142274827086
 20
540.828468943816
 30
0.0
 11
144.7942409143943
 21
555.7441577125539
 31
0.0
  0
MTEXT
  5
4223
330
421F
100
AcDbEntity
  8
DIM
 62
     0
100
AcDbMText
 10
129.5871847475389
 20
555.2862628140196
 30
0.0
 40
5.0
 41
0.0
 46
0.0
 71
     5
 72
     1
  1
\A1;\A1;%%C35-%%C40 {}
  7
ＭＳ ゴシック
 11
0.9210653170480444
 21
0.3894081171870786
 31
0.0
 73
     1
 44
1.0
  0
INSERT
  5
4224
330
421F
100
AcDbEntity
  8
DIM
 62
     0
370
    -2
100
AcDbBlockReference
  2
_DOT
 10
107.6720968486125
 20
540.0496527094418
 30
0.0
 41
2.0
 42
2.0
 43
2.0
 50
202.9176757399343
  0
POINT
  5
4225
330
421F
100
AcDbEntity
  8
Defpoints
 62
     0
100
AcDbPoint
 10
107.6720968486125
 20
540.0496527094418
 30
0.0
  0
POINT
  5
4226
330
421F
100
AcDbEntity
  8
Defpoints
 62
     0
100
AcDbPoint
 10
75.43481075190476
 20
526.420368607883
 30
0.0
  0
ENDBLK
  5
4221
330
421F
100
AcDbEntity
  8
0
100
AcDbBlockEnd
  0
BLOCK
  5
422B
330
422A
100
AcDbEntity
  8
0
100
AcDbBlockBegin
  2
*D10
 70
     1
 10
0.0
 20
0.0
 30
0.0
  3
*D10
  1

  0
LINE
  5
422D
330
422A
100
AcDbEntity
  8
DIM
 62
     0
370
    -2
100
AcDbLine
 10
200.978738722367
 20
228.333686048293
 30
0.0
 11
200.978738722367
 21
238.0528176998402
 31
0.0
  0
LINE
  5
422E
330
422A
100
AcDbEntity
  8
DIM
 62
     0
370
    -2
100
AcDbLine
 10
175.699738722367
 20
228.333686048293
 30
0.0
 11
175.699738722367
 21
238.0528176998402
 31
0.0
  0
LINE
  5
422F
330
422A
100
AcDbEntity
  8
DIM
 62
     0
370
    -2
100
AcDbLine
 10
198.978738722367
 20
238.0528176998402
 30
0.0
 11
177.699738722367
 21
238.0528176998402
 31
0.0
  0
INSERT
  5
4230
330
422A
100
AcDbEntity
  8
DIM
 62
     0
370
    -2
100
AcDbBlockReference
  2
_DOT
 10
200.978738722367
 20
238.0528176998402
 30
0.0
 41
2.0
 42
2.0
 43
2.0
  0
INSERT
  5
4231
330
422A
100
AcDbEntity
  8
DIM
 62
     0
370
    -2
100
AcDbBlockReference
  2
_DOT
 10
175.699738722367
 20
238.0528176998402
 30
0.0
 41
2.0
 42
2.0
 43
2.0
 50
180.0
  0
MTEXT
  5
4232
330
422A
100
AcDbEntity
  8
DIM
 62
     0
100
AcDbMText
 10
188.3392387223671
 20
244.0853176998402
 30
0.0
 40
5.0
 41
0.0
 46
0.0
 71
     5
 72
     1
  1
\A1;G3/4"
  7
ＭＳ ゴシック
 73
     1
 44
1.0
  0
POINT
  5
4233
330
422A
100
AcDbEntity
  8
Defpoints
 62
     0
100
AcDbPoint
 10
200.978738722367
 20
223.333686048293
 30
0.0
  0
POINT
  5
4234
330
422A
100
AcDbEntity
  8
Defpoints
 62
     0
100
AcDbPoint
 10
175.699738722367
 20
223.333686048293
 30
0.0
  0
POINT
  5
4235
330
422A
100
AcDbEntity
  8
Defpoints
 62
     0
100
AcDbPoint
 10
175.699738722367
 20
238.0528176998402
 30
0.0
  0
ENDBLK
  5
422C
330
422A
100
AcDbEntity
  8
0
100
AcDbBlockEnd
  0
BLOCK
  5
42B8
330
42B7
100
AcDbEntity
  8
0
100
AcDbBlockBegin
  2
*D11
 70
     1
 10
0.0
 20
0.0
 30
0.0
  3
*D11
  1

  0
LINE
  5
42BA
330
42B7
100
AcDbEntity
  8
DIM
 62
     0
370
    -2
100
AcDbLine
 10
200.978738722367
 20
153.3336860480929
 30
0.0
 11
200.978738722367
 21
139.2058650470402
 31
0.0
  0
LINE
  5
42BB
330
42B7
100
AcDbEntity
  8
DIM
 62
     0
370
    -2
100
AcDbLine
 10
175.699738722367
 20
153.333686048093
 30
0.0
 11
175.699738722367
 21
139.2058650470402
 31
0.0
  0
LINE
  5
42BC
330
42B7
100
AcDbEntity
  8
DIM
 62
     0
370
    -2
100
AcDbLine
 10
198.978738722367
 20
139.2058650470402
 30
0.0
 11
177.699738722367
 21
139.2058650470402
 31
0.0
  0
INSERT
  5
42BD
330
42B7
100
AcDbEntity
  8
DIM
 62
     0
370
    -2
100
AcDbBlockReference
  2
_DOT
 10
200.978738722367
 20
139.2058650470402
 30
0.0
 41
2.0
 42
2.0
 43
2.0
  0
INSERT
  5
42BE
330
42B7
100
AcDbEntity
  8
DIM
 62
     0
370
    -2
100
AcDbBlockReference
  2
_DOT
 10
175.699738722367
 20
139.2058650470402
 30
0.0
 41
2.0
 42
2.0
 43
2.0
 50
180.0
  0
MTEXT
  5
42BF
330
42B7
100
AcDbEntity
  8
DIM
 62
     0
100
AcDbMText
 10
188.339238722367
 20
145.2383650470402
 30
0.0
 40
5.0
 41
0.0
 46
0.0
 71
     5
 72
     1
  1
\A1;G3/4"
  7
ＭＳ ゴシック
 73
     1
 44
1.0
  0
POINT
  5
42C0
330
42B7
100
AcDbEntity
  8
Defpoints
 62
     0
100
AcDbPoint
 10
200.978738722367
 20
158.3336860480929
 30
0.0
  0
POINT
  5
42C1
330
42B7
100
AcDbEntity
  8
Defpoints
 62
     0
100
AcDbPoint
 10
175.699738722367
 20
158.333686048093
 30
0.0
  0
POINT
  5
42C2
330
42B7
100
AcDbEntity
  8
Defpoints
 62
     0
100
AcDbPoint
 10
175.699738722367
 20
139.2058650470402
 30
0.0
  0
ENDBLK
  5
42B9
330
42B7
100
AcDbEntity
  8
0
100
AcDbBlockEnd
  0
BLOCK
  5
44C0
330
44BF
100
AcDbEntity
  8
0
100
AcDbBlockBegin
  2
*D12
 70
     1
 10
0.0
 20
0.0
 30
0.0
  3
*D12
  1
*D30
  0
LINE
  5
44C1
330
44BF
100
AcDbEntity
  8
DIM
 62
     0
 48
0.05
370
    -2
100
AcDbLine
 10
90.61253218625981
 20
130.4733287390334
 30
0.0
 11
72.27823715063451
 21
130.4733287390334
 31
0.0
  0
LINE
  5
44C2
330
44BF
100
AcDbEntity
  8
DIM
 62
     0
 48
0.05
370
    -2
100
AcDbLine
 10
90.61253218625981
 20
65.4733287390334
 30
0.0
 11
72.27823715063451
 21
65.4733287390334
 31
0.0
  0
LINE
  5
44C3
330
44BF
100
AcDbEntity
  8
DIM
 62
     0
 48
0.05
370
    -2
100
AcDbLine
 10
72.27823715063451
 20
128.4733287390334
 30
0.0
 11
72.27823715063451
 21
67.4733287390334
 31
0.0
  0
INSERT
  5
44C4
330
44BF
100
AcDbEntity
  8
DIM
 62
     0
370
    -2
100
AcDbBlockReference
  2
_DOT
 10
72.27823715063451
 20
130.4733287390334
 30
0.0
 41
2.0
 42
2.0
 43
2.0
 50
90.0
  0
INSERT
  5
44C5
330
44BF
100
AcDbEntity
  8
DIM
 62
     0
370
    -2
100
AcDbBlockReference
  2
_DOT
 10
72.27823715063451
 20
65.4733287390334
 30
0.0
 41
2.0
 42
2.0
 43
2.0
 50
270.0
  0
MTEXT
  5
44C6
330
44BF
100
AcDbEntity
  8
DIM
 62
     0
100
AcDbMText
 10
66.77823715063451
 20
97.9733287390334
 30
0.0
 40
5.0
 41
0.0
 46
0.0
 71
     5
 72
     1
  1
\A1;65
  7
ＭＳ ゴシック
 11
0.0
 21
1.0
 31
0.0
 73
     1
 44
1.0
  0
POINT
  5
44C7
330
44BF
100
AcDbEntity
  8
Defpoints
 62
     0
100
AcDbPoint
 10
95.61253218625981
 20
130.4733287390334
 30
0.0
  0
POINT
  5
44C8
330
44BF
100
AcDbEntity
  8
Defpoints
 62
     0
100
AcDbPoint
 10
95.61253218625981
 20
65.4733287390334
 30
0.0
  0
POINT
  5
44C9
330
44BF
100
AcDbEntity
  8
Defpoints
 62
     0
100
AcDbPoint
 10
72.27823715063451
 20
65.4733287390334
 30
0.0
  0
ENDBLK
  5
44CA
330
44BF
100
AcDbEntity
  8
0
100
AcDbBlockEnd
  0
BLOCK
  5
44D0
330
44CF
100
AcDbEntity
  8
0
100
AcDbBlockBegin
  2
*D13
 70
     1
 10
0.0
 20
0.0
 30
0.0
  3
*D13
  1
*D32
  0
LINE
  5
44D1
330
44CF
100
AcDbEntity
  8
DIM
 62
     0
 48
0.05
370
    -2
100
AcDbLine
 10
98.61253218625981
 20
135.5818638143977
 30
0.0
 11
98.61253218625981
 21
143.7386934016501
 31
0.0
  0
LINE
  5
44D2
330
44CF
100
AcDbEntity
  8
DIM
 62
     0
 48
0.05
370
    -2
100
AcDbLine
 10
119.6125321862598
 20
135.5818638143977
 30
0.0
 11
119.6125321862598
 21
143.7386934016501
 31
0.0
  0
LINE
  5
44D3
330
44CF
100
AcDbEntity
  8
DIM
 62
     0
 48
0.05
370
    -2
100
AcDbLine
 10
100.6125321862598
 20
143.7386934016501
 30
0.0
 11
117.6125321862598
 21
143.7386934016501
 31
0.0
  0
INSERT
  5
44D4
330
44CF
100
AcDbEntity
  8
DIM
 62
     0
370
    -2
100
AcDbBlockReference
  2
_DOT
 10
98.61253218625981
 20
143.7386934016501
 30
0.0
 41
2.0
 42
2.0
 43
2.0
 50
180.0
  0
INSERT
  5
44D5
330
44CF
100
AcDbEntity
  8
DIM
 62
     0
370
    -2
100
AcDbBlockReference
  2
_DOT
 10
119.6125321862598
 20
143.7386934016501
 30
0.0
 41
2.0
 42
2.0
 43
2.0
  0
MTEXT
  5
44D6
330
44CF
100
AcDbEntity
  8
DIM
 62
     0
100
AcDbMText
 10
109.1125321862598
 20
149.7711934016501
 30
0.0
 40
5.0
 41
0.0
 46
0.0
 71
     5
 72
     1
  1
\A1;G1/2"
  7
ＭＳ ゴシック
 73
     1
 44
1.0
  0
POINT
  5
44D7
330
44CF
100
AcDbEntity
  8
Defpoints
 62
     0
100
AcDbPoint
 10
98.61253218625981
 20
130.5818638143977
 30
0.0
  0
POINT
  5
44D8
330
44CF
100
AcDbEntity
  8
Defpoints
 62
     0
100
AcDbPoint
 10
119.6125321862598
 20
130.5818638143977
 30
0.0
  0
POINT
  5
44D9
330
44CF
100
AcDbEntity
  8
Defpoints
 62
     0
100
AcDbPoint
 10
119.6125321862598
 20
143.7386934016501
 30
0.0
  0
ENDBLK
  5
44DA
330
44CF
100
AcDbEntity
  8
0
100
AcDbBlockEnd
  0
BLOCK
  5
44E1
330
44E0
100
AcDbEntity
  8
0
100
AcDbBlockBegin
  2
*D14
 70
     1
 10
0.0
 20
0.0
 30
0.0
  3
*D14
  1
*D33
  0
LINE
  5
44E2
330
44E0
100
AcDbEntity
  8
DIM
 62
     0
 48
0.05
370
    -2
100
AcDbLine
 10
98.61253218625981
 20
60.3647936636691
 30
0.0
 11
98.61253218625981
 21
45.45348364643291
 31
0.0
  0
LINE
  5
44E3
330
44E0
100
AcDbEntity
  8
DIM
 62
     0
 48
0.05
370
    -2
100
AcDbLine
 10
119.6125321862598
 20
60.3647936636691
 30
0.0
 11
119.6125321862598
 21
45.45348364643291
 31
0.0
  0
LINE
  5
44E4
330
44E0
100
AcDbEntity
  8
DIM
 62
     0
 48
0.05
370
    -2
100
AcDbLine
 10
100.6125321862598
 20
45.45348364643291
 30
0.0
 11
117.6125321862598
 21
45.45348364643291
 31
0.0
  0
INSERT
  5
44E5
330
44E0
100
AcDbEntity
  8
DIM
 62
     0
370
    -2
100
AcDbBlockReference
  2
_DOT
 10
98.61253218625981
 20
45.45348364643291
 30
0.0
 41
2.0
 42
2.0
 43
2.0
 50
180.0
  0
INSERT
  5
44E6
330
44E0
100
AcDbEntity
  8
DIM
 62
     0
370
    -2
100
AcDbBlockReference
  2
_DOT
 10
119.6125321862598
 20
45.45348364643291
 30
0.0
 41
2.0
 42
2.0
 43
2.0
  0
MTEXT
  5
44E7
330
44E0
100
AcDbEntity
  8
DIM
 62
     0
100
AcDbMText
 10
109.1125321862598
 20
51.48598364643291
 30
0.0
 40
5.0
 41
0.0
 46
0.0
 71
     5
 72
     1
  1
\A1;G1/2"
  7
ＭＳ ゴシック
 73
     1
 44
1.0
  0
POINT
  5
44E8
330
44E0
100
AcDbEntity
  8
Defpoints
 62
     0
100
AcDbPoint
 10
98.61253218625981
 20
65.3647936636691
 30
0.0
  0
POINT
  5
44E9
330
44E0
100
AcDbEntity
  8
Defpoints
 62
     0
100
AcDbPoint
 10
119.6125321862598
 20
65.3647936636691
 30
0.0
  0
POINT
  5
44EA
330
44E0
100
AcDbEntity
  8
Defpoints
 62
     0
100
AcDbPoint
 10
119.6125321862598
 20
45.45348364643291
 30
0.0
  0
ENDBLK
  5
44EB
330
44E0
100
AcDbEntity
  8
0
100
AcDbBlockEnd
  0
BLOCK
  5
44F1
330
44F0
100
AcDbEntity
  8
0
100
AcDbBlockBegin
  2
*D15
 70
     1
 10
0.0
 20
0.0
 30
0.0
  3
*D15
  1
*D34
  0
LINE
  5
44F2
330
44F0
100
AcDbEntity
  8
DIM
 62
     0
 48
0.05
370
    -2
100
AcDbLine
 10
187.4003467096402
 20
18.7073979703344
 30
0.0
 11
187.4003467096402
 21
0.5
 31
0.0
  0
LINE
  5
44F3
330
44F0
100
AcDbEntity
  8
DIM
 62
     0
 48
0.05
370
    -2
100
AcDbLine
 10
109.1125321862598
 20
40.45348364643291
 30
0.0
 11
109.1125321862598
 21
0.5
 31
0.0
  0
LINE
  5
44F4
330
44F0
100
AcDbEntity
  8
DIM
 62
     0
 48
0.05
370
    -2
100
AcDbLine
 10
185.4003467096402
 20
0.5
 30
0.0
 11
111.1125321862598
 21
0.5
 31
0.0
  0
INSERT
  5
44F5
330
44F0
100
AcDbEntity
  8
DIM
 62
     0
370
    -2
100
AcDbBlockReference
  2
_DOT
 10
187.4003467096402
 20
0.5
 30
0.0
 41
2.0
 42
2.0
 43
2.0
  0
INSERT
  5
44F6
330
44F0
100
AcDbEntity
  8
DIM
 62
     0
370
    -2
100
AcDbBlockReference
  2
_DOT
 10
109.1125321862598
 20
0.5
 30
0.0
 41
2.0
 42
2.0
 43
2.0
 50
180.0
  0
MTEXT
  5
44F7
330
44F0
100
AcDbEntity
  8
DIM
 62
     0
100
AcDbMText
 10
148.25643944795
 20
6.0
 30
0.0
 40
5.0
 41
0.0
 46
0.0
 71
     5
 72
     1
  1
\A1;60-105
  7
ＭＳ ゴシック
 73
     1
 44
1.0
  0
POINT
  5
44F8
330
44F0
100
AcDbEntity
  8
Defpoints
 62
     0
100
AcDbPoint
 10
187.4003467096402
 20
23.7073979703344
 30
0.0
  0
POINT
  5
44F9
330
44F0
100
AcDbEntity
  8
Defpoints
 62
     0
100
AcDbPoint
 10
109.1125321862598
 20
45.45348364643291
 30
0.0
  0
POINT
  5
44FA
330
44F0
100
AcDbEntity
  8
Defpoints
 62
     0
100
AcDbPoint
 10
109.1125321862598
 20
0.5
 30
0.0
  0
ENDBLK
  5
44FB
330
44F0
100
AcDbEntity
  8
0
100
AcDbBlockEnd
  0
BLOCK
  5
4674
330
4673
100
AcDbEntity
  8
0
100
AcDbBlockBegin
  2
*D16
 70
     1
 10
0.0
 20
0.0
 30
0.0
  3
*D16
  1

  0
LINE
  5
4676
330
4673
100
AcDbEntity
  8
DIM
 62
     0
 48
0.05
370
    -2
100
AcDbLine
 10
197.351633495587
 20
247.4306907109458
 30
0.0
 11
179.0173384599616
 21
247.4306907109458
 31
0.0
  0
LINE
  5
4677
330
4673
100
AcDbEntity
  8
DIM
 62
     0
 48
0.05
370
    -2
100
AcDbLine
 10
197.351633495587
 20
182.4306907109459
 30
0.0
 11
179.0173384599616
 21
182.4306907109459
 31
0.0
  0
LINE
  5
4678
330
4673
100
AcDbEntity
  8
DIM
 62
     0
 48
0.05
370
    -2
100
AcDbLine
 10
179.0173384599616
 20
245.4306907109458
 30
0.0
 11
179.0173384599616
 21
184.4306907109459
 31
0.0
  0
INSERT
  5
4679
330
4673
100
AcDbEntity
  8
DIM
 62
     0
370
    -2
100
AcDbBlockReference
  2
_DOT
 10
179.0173384599616
 20
247.4306907109458
 30
0.0
 41
2.0
 42
2.0
 43
2.0
 50
90.0
  0
INSERT
  5
467A
330
4673
100
AcDbEntity
  8
DIM
 62
     0
370
    -2
100
AcDbBlockReference
  2
_DOT
 10
179.0173384599616
 20
182.4306907109459
 30
0.0
 41
2.0
 42
2.0
 43
2.0
 50
270.0
  0
MTEXT
  5
467B
330
4673
100
AcDbEntity
  8
DIM
 62
     0
100
AcDbMText
 10
173.5164006082672
 20
214.9306907109458
 30
0.0
 40
5.0
 41
0.0
 46
0.0
 71
     5
 72
     1
  1
\A1;65
  7
ＭＳ ゴシック
 11
0.0
 21
1.0
 31
0.0
 73
     1
 44
1.0
  0
POINT
  5
467C
330
4673
100
AcDbEntity
  8
Defpoints
 62
     0
100
AcDbPoint
 10
202.351633495587
 20
247.4306907109458
 30
0.0
  0
POINT
  5
467D
330
4673
100
AcDbEntity
  8
Defpoints
 62
     0
100
AcDbPoint
 10
202.351633495587
 20
182.4306907109459
 30
0.0
  0
POINT
  5
467E
330
4673
100
AcDbEntity
  8
Defpoints
 62
     0
100
AcDbPoint
 10
179.0173384599616
 20
182.4306907109459
 30
0.0
  0
ENDBLK
  5
4675
330
4673
100
AcDbEntity
  8
0
100
AcDbBlockEnd
  0
BLOCK
  5
4680
330
467F
100
AcDbEntity
  8
0
100
AcDbBlockBegin
  2
*D17
 70
     1
 10
0.0
 20
0.0
 30
0.0
  3
*D17
  1

  0
LINE
  5
4682
330
467F
100
AcDbEntity
  8
DIM
 62
     0
 48
0.05
370
    -2
100
AcDbLine
 10
205.351633495587
 20
252.5392257863103
 30
0.0
 11
205.351633495587
 21
260.6960553735626
 31
0.0
  0
LINE
  5
4683
330
467F
100
AcDbEntity
  8
DIM
 62
     0
 48
0.05
370
    -2
100
AcDbLine
 10
226.351633495587
 20
252.5392257863103
 30
0.0
 11
226.351633495587
 21
260.6960553735626
 31
0.0
  0
LINE
  5
4684
330
467F
100
AcDbEntity
  8
DIM
 62
     0
 48
0.05
370
    -2
100
AcDbLine
 10
207.351633495587
 20
260.6960553735626
 30
0.0
 11
224.351633495587
 21
260.6960553735626
 31
0.0
  0
INSERT
  5
4685
330
467F
100
AcDbEntity
  8
DIM
 62
     0
370
    -2
100
AcDbBlockReference
  2
_DOT
 10
205.351633495587
 20
260.6960553735626
 30
0.0
 41
2.0
 42
2.0
 43
2.0
 50
180.0
  0
INSERT
  5
4686
330
467F
100
AcDbEntity
  8
DIM
 62
     0
370
    -2
100
AcDbBlockReference
  2
_DOT
 10
226.351633495587
 20
260.6960553735626
 30
0.0
 41
2.0
 42
2.0
 43
2.0
  0
MTEXT
  5
4687
330
467F
100
AcDbEntity
  8
DIM
 62
     0
100
AcDbMText
 10
215.851633495587
 20
266.7296929876679
 30
0.0
 40
5.0
 41
0.0
 46
0.0
 71
     5
 72
     1
  1
\A1;G1/2"
  7
ＭＳ ゴシック
 73
     1
 44
1.0
  0
POINT
  5
4688
330
467F
100
AcDbEntity
  8
Defpoints
 62
     0
100
AcDbPoint
 10
205.351633495587
 20
247.5392257863103
 30
0.0
  0
POINT
  5
4689
330
467F
100
AcDbEntity
  8
Defpoints
 62
     0
100
AcDbPoint
 10
226.351633495587
 20
247.5392257863103
 30
0.0
  0
POINT
  5
468A
330
467F
100
AcDbEntity
  8
Defpoints
 62
     0
100
AcDbPoint
 10
226.351633495587
 20
260.6960553735626
 30
0.0
  0
ENDBLK
  5
4681
330
467F
100
AcDbEntity
  8
0
100
AcDbBlockEnd
  0
BLOCK
  5
468C
330
468B
100
AcDbEntity
  8
0
100
AcDbBlockBegin
  2
*D18
 70
     1
 10
0.0
 20
0.0
 30
0.0
  3
*D18
  1

  0
LINE
  5
468E
330
468B
100
AcDbEntity
  8
DIM
 62
     0
 48
0.05
370
    -2
100
AcDbLine
 10
205.351633495587
 20
177.3221556355816
 30
0.0
 11
205.351633495587
 21
162.4108456183454
 31
0.0
  0
LINE
  5
468F
330
468B
100
AcDbEntity
  8
DIM
 62
     0
 48
0.05
370
    -2
100
AcDbLine
 10
226.351633495587
 20
177.3221556355816
 30
0.0
 11
226.351633495587
 21
162.4108456183454
 31
0.0
  0
LINE
  5
4690
330
468B
100
AcDbEntity
  8
DIM
 62
     0
 48
0.05
370
    -2
100
AcDbLine
 10
207.351633495587
 20
162.4108456183454
 30
0.0
 11
224.351633495587
 21
162.4108456183454
 31
0.0
  0
INSERT
  5
4691
330
468B
100
AcDbEntity
  8
DIM
 62
     0
370
    -2
100
AcDbBlockReference
  2
_DOT
 10
205.351633495587
 20
162.4108456183454
 30
0.0
 41
2.0
 42
2.0
 43
2.0
 50
180.0
  0
INSERT
  5
4692
330
468B
100
AcDbEntity
  8
DIM
 62
     0
370
    -2
100
AcDbBlockReference
  2
_DOT
 10
226.351633495587
 20
162.4108456183454
 30
0.0
 41
2.0
 42
2.0
 43
2.0
  0
MTEXT
  5
4693
330
468B
100
AcDbEntity
  8
DIM
 62
     0
100
AcDbMText
 10
215.851633495587
 20
168.4444832324507
 30
0.0
 40
5.0
 41
0.0
 46
0.0
 71
     5
 72
     1
  1
\A1;G1/2"
  7
ＭＳ ゴシック
 73
     1
 44
1.0
  0
POINT
  5
4694
330
468B
100
AcDbEntity
  8
Defpoints
 62
     0
100
AcDbPoint
 10
205.351633495587
 20
182.3221556355816
 30
0.0
  0
POINT
  5
4695
330
468B
100
AcDbEntity
  8
Defpoints
 62
     0
100
AcDbPoint
 10
226.351633495587
 20
182.3221556355816
 30
0.0
  0
POINT
  5
4696
330
468B
100
AcDbEntity
  8
Defpoints
 62
     0
100
AcDbPoint
 10
226.351633495587
 20
162.4108456183454
 30
0.0
  0
ENDBLK
  5
468D
330
468B
100
AcDbEntity
  8
0
100
AcDbBlockEnd
  0
BLOCK
  5
4698
330
4697
100
AcDbEntity
  8
0
100
AcDbBlockBegin
  2
*D19
 70
     1
 10
0.0
 20
0.0
 30
0.0
  3
*D19
  1

  0
LINE
  5
469A
330
4697
100
AcDbEntity
  8
DIM
 62
     0
 48
0.05
370
    -2
100
AcDbLine
 10
293.339238722367
 20
135.6647599422469
 30
0.0
 11
293.339238722367
 21
135.3349092056703
 31
0.0
  0
LINE
  5
469B
330
4697
100
AcDbEntity
  8
DIM
 62
     0
 48
0.05
370
    -2
100
AcDbLine
 10
215.851633495587
 20
157.4108456183454
 30
0.0
 11
215.851633495587
 21
135.3349092056703
 31
0.0
  0
LINE
  5
469C
330
4697
100
AcDbEntity
  8
DIM
 62
     0
 48
0.05
370
    -2
100
AcDbLine
 10
291.339238722367
 20
135.3349092056703
 30
0.0
 11
217.851633495587
 21
135.3349092056703
 31
0.0
  0
INSERT
  5
469D
330
4697
100
AcDbEntity
  8
DIM
 62
     0
370
    -2
100
AcDbBlockReference
  2
_DOT
 10
293.339238722367
 20
135.3349092056703
 30
0.0
 41
2.0
 42
2.0
 43
2.0
  0
INSERT
  5
469E
330
4697
100
AcDbEntity
  8
DIM
 62
     0
370
    -2
100
AcDbBlockReference
  2
_DOT
 10
215.851633495587
 20
135.3349092056703
 30
0.0
 41
2.0
 42
2.0
 43
2.0
 50
180.0
  0
MTEXT
  5
469F
330
4697
100
AcDbEntity
  8
DIM
 62
     0
100
AcDbMText
 10
254.595436108977
 20
140.8358470573646
 30
0.0
 40
5.0
 41
0.0
 46
0.0
 71
     5
 72
     1
  1
\A1;60-105
  7
ＭＳ ゴシック
 73
     1
 44
1.0
  0
POINT
  5
46A0
330
4697
100
AcDbEntity
  8
Defpoints
 62
     0
100
AcDbPoint
 10
293.339238722367
 20
140.6647599422469
 30
0.0
  0
POINT
  5
46A1
330
4697
100
AcDbEntity
  8
Defpoints
 62
     0
100
AcDbPoint
 10
215.851633495587
 20
162.4108456183454
 30
0.0
  0
POINT
  5
46A2
330
4697
100
AcDbEntity
  8
Defpoints
 62
     0
100
AcDbPoint
 10
215.851633495587
 20
135.3349092056703
 30
0.0
  0
ENDBLK
  5
4699
330
4697
100
AcDbEntity
  8
0
100
AcDbBlockEnd
  0
BLOCK
  5
46A7
330
46A6
100
AcDbEntity
  8
0
100
AcDbBlockBegin
  2
*D20
 70
     1
 10
0.0
 20
0.0
 30
0.0
  3
*D20
  1

  0
LINE
  5
46A9
330
46A6
100
AcDbEntity
  8
DIM
 62
     0
370
    -2
100
AcDbLine
 10
173.0403794365822
 20
223.3336860481639
 30
0.0
 11
157.1792492000281
 21
223.3336860481639
 31
0.0
  0
LINE
  5
46AA
330
46A6
100
AcDbEntity
  8
DIM
 62
     0
370
    -2
100
AcDbLine
 10
171.8356153871671
 20
158.333686048293
 30
0.0
 11
157.1792492000281
 21
158.333686048293
 31
0.0
  0
LINE
  5
46AB
330
46A6
100
AcDbEntity
  8
DIM
 62
     0
370
    -2
100
AcDbLine
 10
157.1792492000281
 20
221.3336860481639
 30
0.0
 11
157.1792492000281
 21
160.333686048293
 31
0.0
  0
INSERT
  5
46AC
330
46A6
100
AcDbEntity
  8
DIM
 62
     0
370
    -2
100
AcDbBlockReference
  2
_DOT
 10
157.1792492000281
 20
223.3336860481639
 30
0.0
 41
2.0
 42
2.0
 43
2.0
 50
90.0
  0
INSERT
  5
46AD
330
46A6
100
AcDbEntity
  8
DIM
 62
     0
370
    -2
100
AcDbBlockReference
  2
_DOT
 10
157.1792492000281
 20
158.333686048293
 30
0.0
 41
2.0
 42
2.0
 43
2.0
 50
270.0
  0
MTEXT
  5
46AE
330
46A6
100
AcDbEntity
  8
DIM
 62
     0
100
AcDbMText
 10
151.6792492000281
 20
190.8336860482285
 30
0.0
 40
5.0
 41
0.0
 46
0.0
 71
     5
 72
     1
  1
\A1;65
  7
ＭＳ ゴシック
 11
0.0
 21
1.0
 31
0.0
 73
     1
 44
1.0
  0
POINT
  5
46AF
330
46A6
100
AcDbEntity
  8
Defpoints
 62
     0
100
AcDbPoint
 10
178.0403794365822
 20
223.3336860481639
 30
0.0
  0
POINT
  5
46B0
330
46A6
100
AcDbEntity
  8
Defpoints
 62
     0
100
AcDbPoint
 10
176.8356153871671
 20
158.333686048293
 30
0.0
  0
POINT
  5
46B1
330
46A6
100
AcDbEntity
  8
Defpoints
 62
     0
100
AcDbPoint
 10
157.1792492000281
 20
158.333686048293
 30
0.0
  0
ENDBLK
  5
46A8
330
46A6
100
AcDbEntity
  8
0
100
AcDbBlockEnd
  0
ENDSEC
  0
SECTION
  2
ENTITIES
  0
MTEXT
  5
177
330
A
100
AcDbEntity
  8
TEMPLATE
390
1D
100
AcDbMText
 10
15.84042890954615
 20
68.74635032628565
 30
0.0
 40
3.257682291666665
 41
0.0
 46
0.0
 71
     1
 72
     1
  1
品名
  7
ＭＳ ゴシック
 73
     1
 44
0.7828267384257843
  0
MTEXT
  5
178
330
A
100
AcDbEntity
  8
TEMPLATE
390
1D
100
AcDbMText
 10
15.84042890954615
 20
51.7463503262856
 30
0.0
 40
3.257682291666665
 41
0.0
 46
0.0
 71
     1
 72
     1
  1
仕様
  7
ＭＳ ゴシック
 73
     1
 44
0.7828267384257843
  0
LINE
  5
179
330
A
100
AcDbEntity
  8
TEMPLATE
390
1D
100
AcDbLine
 10
404.4404289094496
 20
53.42933470128568
 30
0.0
 11
14.44042890944975
 21
53.42933470128568
 31
0.0
  0
LWPOLYLINE
  5
17A
330
A
100
AcDbEntity
  8
TEMPLATE
390
1D
100
AcDbPolyline
 90
        5
 70
   128
 43
0.0
 10
404.4404289094496
 20
579.4293347012853
 10
14.44042890944975
 20
579.4293347012853
 10
14.44042890944975
 20
19.42933470128565
 10
404.4404289094496
 20
19.42933470128565
 10
404.4404289094496
 20
579.4293347012853
  0
LINE
  5
17B
330
A
100
AcDbEntity
  8
TEMPLATE
390
1D
100
AcDbLine
 10
404.4404289094496
 20
70.42933470128564
 30
0.0
 11
14.44042890944975
 21
70.42933470128564
 31
0.0
  0
LINE
  5
17C
330
A
100
AcDbEntity
  8
TEMPLATE
390
1D
100
AcDbLine
 10
404.4404289095464
 20
36.42933470128565
 30
0.0
 11
253.840428909546
 21
36.42933470128565
 31
0.0
  0
MTEXT
  5
17E
330
A
100
AcDbEntity
  8
TEMPLATE
390
1D
100
AcDbMText
 10
259.8147101599982
 20
30.44725580662403
 30
0.0
 40
4.8865234375
 41
0.0
 46
0.0
 71
     1
 72
     1
  1
大洋金物株式会社 ティーフォルム事業部
  7
ＭＳ ゴシック
 73
     1
 44
0.7828267384257843
  0
MTEXT
  5
180
330
A
100
AcDbEntity
  8
TEMPLATE
390
1D
100
AcDbMText
 10
366.240428909598
 20
46.02985813878564
 30
0.0
 40
4.8865234375
 41
0.0
 46
4.8865234375
 71
     1
 72
     1
  1
{1:2}
  7
ＭＳ ゴシック
 73
     1
 44
0.7828267384257843
1001
ACAD
1000
ACAD_MTEXT_DEFINED_HEIGHT_BEGIN
1070
    46
1040
4.8865234375
1000
ACAD_MTEXT_DEFINED_HEIGHT_END
  0
MTEXT
  5
181
330
A
100
AcDbEntity
  8
TEMPLATE
390
1D
100
AcDbMText
 10
355.640428909598
 20
51.7463503262856
 30
0.0
 40
3.257682291666665
 41
0.0
 46
0.0
 71
     1
 72
     1
  1
縮尺
  7
ＭＳ ゴシック
 73
     1
 44
0.7828267384257843
  0
LINE
  5
182
330
A
100
AcDbEntity
  8
TEMPLATE
390
1D
100
AcDbLine
 10
354.240428909598
 20
36.42933470128565
 30
0.0
 11
354.240428909598
 21
53.42933470128568
 31
0.0
  0
MTEXT
  5
183
330
A
100
AcDbEntity
  8
TEMPLATE
390
1D
100
AcDbMText
 10
305.440428909598
 20
51.7463503262856
 30
0.0
 40
3.257682291666665
 41
0.0
 46
0.0
 71
     1
 72
     1
  1
容量
  7
ＭＳ ゴシック
 73
     1
 44
0.7828267384257843
  0
LINE
  5
184
330
A
100
AcDbEntity
  8
TEMPLATE
390
1D
100
AcDbLine
 10
304.040428909598
 20
36.42933470128565
 30
0.0
 11
304.040428909598
 21
53.42933470128568
 31
0.0
  0
MTEXT
  5
185
330
A
100
AcDbEntity
  8
TEMPLATE
390
1D
100
AcDbMText
 10
255.240428909598
 20
68.74635032628565
 30
0.0
 40
3.257682291666665
 41
0.0
 46
0.0
 71
     1
 72
     1
  1
品番
  7
ＭＳ ゴシック
 73
     1
 44
0.7828267384257843
  0
MTEXT
  5
186
330
A
100
AcDbEntity
  8
TEMPLATE
390
1D
100
AcDbMText
 10
255.240428909598
 20
51.7463503262856
 30
0.0
 40
3.257682291666665
 41
0.0
 46
0.0
 71
     1
 72
     1
  1
重量
  7
ＭＳ ゴシック
 73
     1
 44
0.7828267384257843
  0
MTEXT
  5
187
330
A
100
AcDbEntity
  8
TEMPLATE
390
1D
100
AcDbMText
 10
265.840428909598
 20
63.02985813878564
 30
0.0
 40
4.8865234375
 41
0.0
 46
4.8865234375
 71
     1
 72
     1
  1
{FHT73-5118}
  7
ＭＳ ゴシック
 73
     1
 44
0.7828267384257843
1001
ACAD
1000
ACAD_MTEXT_DEFINED_HEIGHT_BEGIN
1070
    46
1040
4.8865234375
1000
ACAD_MTEXT_DEFINED_HEIGHT_END
  0
LINE
  5
188
330
A
100
AcDbEntity
  8
TEMPLATE
390
1D
100
AcDbLine
 10
253.840428909598
 20
19.42933470128565
 30
0.0
 11
253.840428909598
 21
70.42933470128564
 31
0.0
  0
MTEXT
  5
189
330
A
100
AcDbEntity
  8
TEMPLATE
390
1D
100
AcDbMText
 10
26.44042890954615
 20
63.02985813878564
 30
0.0
 40
4.8865234375
 41
0.0
 46
5.5071119140625
 71
     1
 72
     1
  1
{埋込ストップバルブ　-GROHE, New Atrio-}
  7
ＭＳ ゴシック
 73
     1
 44
0.7828267384257843
1001
ACAD
1000
ACAD_MTEXT_DEFINED_HEIGHT_BEGIN
1070
    46
1040
5.5071119140625
1000
ACAD_MTEXT_DEFINED_HEIGHT_END
  0
INSERT
  5
68C
330
A
100
AcDbEntity
  8
TEMPLATE
100
AcDbBlockReference
  2
block 2
 10
367.7097207081031
 20
3.349230605734547
 30
0.0
 41
0.1524
 42
0.1524
 43
0.1524
  0
LWPOLYLINE
  5
D69
330
A
100
AcDbEntity
  8
BORDER
100
AcDbPolyline
 90
        4
 70
     1
 43
0.0
 10
0.0
 20
0.0
 10
0.0
 20
594.0
 10
420.0
 20
594.0
 10
420.0
 20
0.0
  0
INSERT
  5
1343
330
A
100
AcDbEntity
  8
TEMPLATE
100
AcDbBlockReference
  2
block 2
 10
838.6973883465873
 20
9.774128564918277
 30
0.0
 41
0.1524
 42
0.1524
 43
0.1524
  0
HATCH
  5
3C64
102
{ACAD_REACTORS
330
3C75
102
}
330
A
100
AcDbEntity
  8
TEMPLATE
100
AcDbHatch
 10
0.0
 20
0.0
 30
0.0
210
0.0
220
0.0
230
1.0
  2
SOLID
 70
     1
 71
     1
 91
        6
 92
        1
 93
        8
 72
     1
 10
386.9584116981973
 20
30.78695932253559
 11
386.9584116981973
 21
29.60507779640349
 72
     1
 10
386.9584116981973
 20
29.60507779640349
 11
385.086293388135
 21
29.60507779640349
 72
     1
 10
385.086293388135
 20
29.60507779640349
 11
385.086293388135
 21
24.78695932282479
 72
     1
 10
385.086293388135
 20
24.78695932282479
 11
383.4397707574798
 21
24.78695932282479
 72
     1
 10
383.4397707574798
 20
24.78695932282479
 11
383.4397707574798
 21
29.60507779640349
 72
     1
 10
383.4397707574798
 20
29.60507779640349
 11
381.6008304705712
 21
29.60507779640349
 72
     1
 10
381.6008304705712
 20
29.60507779640349
 11
381.6008304705712
 21
30.78695932253559
 72
     1
 10
381.6008304705712
 20
30.78695932253559
 11
386.9584116981973
 21
30.78695932253559
 97
        1
330
3C65
 92
        1
 93
        1
 72
     4
 94
        3
 73
     0
 74
     1
 95
       56
 96
       52
 40
0.0
 40
0.0
 40
0.0
 40
0.0
 40
1.0
 40
1.0
 40
1.0
 40
2.0
 40
2.0
 40
2.0
 40
3.0
 40
3.0
 40
3.0
 40
4.0
 40
4.0
 40
4.0
 40
5.0
 40
5.0
 40
5.0
 40
6.0
 40
6.0
 40
6.0
 40
7.0
 40
7.0
 40
7.0
 40
8.0
 40
8.0
 40
8.0
 40
9.0
 40
9.0
 40
9.0
 40
10.0
 40
10.0
 40
10.0
 40
11.0
 40
11.0
 40
11.0
 40
12.0
 40
12.0
 40
12.0
 40
13.0
 40
13.0
 40
13.0
 40
14.0
 40
14.0
 40
14.0
 40
15.0
 40
15.0
 40
15.0
 40
16.0
 40
16.0
 40
16.0
 40
17.0
 40
17.0
 40
17.0
 40
17.0
 10
389.4668487850558
 20
30.64408553045313
 10
389.6976220214394
 20
30.70904304125516
 10
389.9955398401064
 20
30.65470844907718
 10
389.9955398401064
 20
30.65470844907718
 10
389.9955398401064
 20
30.65470844907718
 10
389.85241312139
 20
30.22519439059248
 10
389.85241312139
 20
30.22519439059248
 10
389.85241312139
 20
30.22519439059248
 10
389.5599406643706
 20
30.29287458221835
 10
389.3343598630008
 20
30.1149927683958
 10
389.1590668276665
 20
29.97588311974736
 10
389.0455027690426
 20
29.60625316134929
 10
389.0019398758616
 20
29.46571522112114
 10
389.0019398758616
 20
29.46571522112114
 10
388.8077219770962
 20
28.86958202304137
 10
388.8077219770962
 20
28.86958202304137
 10
388.8077219770962
 20
28.86958202304137
 10
389.4445466071603
 20
28.86958202304137
 10
389.4445466071603
 20
28.86958202304137
 10
389.4445466071603
 20
28.86958202304137
 10
389.34550351293
 20
28.49438767869736
 10
389.34550351293
 20
28.49438767869736
 10
389.34550351293
 20
28.49438767869736
 10
388.7034864478522
 20
28.49438767869736
 10
388.7034864478522
 20
28.49438767869736
 10
388.7034864478522
 20
28.49438767869736
 10
387.5547978229109
 20
24.78695932282479
 10
387.5547978229109
 20
24.78695932282479
 10
387.5547978229109
 20
24.78695932282479
 10
387.1951510275336
 20
24.78695932282479
 10
387.1951510275336
 20
24.78695932282479
 10
387.1951510275336
 20
24.78695932282479
 10
388.3448811150849
 20
28.49438767869736
 10
388.3448811150849
 20
28.49438767869736
 10
388.3448811150849
 20
28.49438767869736
 10
387.8711346517413
 20
28.49438767869736
 10
387.8711346517413
 20
28.49438767869736
 10
387.8711346517413
 20
28.49438767869736
 10
387.9704455506427
 20
28.86958202304137
 10
387.9704455506427
 20
28.86958202304137
 10
387.9704455506427
 20
28.86958202304137
 10
388.4491166443289
 20
28.86958202304137
 10
388.4491166443289
 20
28.86958202304137
 10
388.4491166443289
 20
28.86958202304137
 10
388.6184287086733
 20
29.38948015805433
 10
388.6184287086733
 20
29.38948015805433
 10
388.7553364078029
 20
29.82536201649855
 10
388.8715041229524
 20
30.059378665011
 10
388.971082826525
 20
30.23581730921654
 10
389.0696051894502
 20
30.41240473379499
 10
389.2645967461546
 20
30.58586777054282
 10
389.4668487850558
 20
30.64408553045313
 97
        1
330
3C70
 92
        1
 93
        1
 72
     4
 94
        3
 73
     0
 74
     1
 95
       32
 96
       28
 40
0.0
 40
0.0
 40
0.0
 40
0.0
 40
1.0
 40
1.0
 40
1.0
 40
2.0
 40
2.0
 40
2.0
 40
3.0
 40
3.0
 40
3.0
 40
4.0
 40
4.0
 40
4.0
 40
5.0
 40
5.0
 40
5.0
 40
6.0
 40
6.0
 40
6.0
 40
7.0
 40
7.0
 40
7.0
 40
8.0
 40
8.0
 40
8.0
 40
9.0
 40
9.0
 40
9.0
 40
9.0
 10
390.3419600603343
 20
28.64284073476305
 10
390.1254548617105
 20
28.36279143887966
 10
389.9587315758544
 20
28.11075748721071
 10
389.6888142233646
 20
27.31860614785359
 10
389.4406634394279
 20
26.59401597582401
 10
389.2827479516467
 20
26.06685735861421
 10
389.2588984578731
 20
25.42484029353638
 10
389.240747252381
 20
24.94707676012474
 10
389.5316723935223
 20
24.78695932282479
 10
389.9582257225866
 20
24.78695932282479
 10
390.1420587513246
 20
24.78695932282479
 10
390.6059559539832
 20
24.79865346013363
 10
390.9363078939394
 20
25.20702582763122
 10
391.1675721055534
 20
25.49393389870466
 10
391.38071486775
 20
25.79134586410385
 10
391.6664624519149
 20
26.76695828126675
 10
391.9042432438614
 20
27.58257228542799
 10
392.068883604497
 20
28.10971602460051
 10
392.056713369995
 20
28.40985067082352
 10
392.056713369995
 20
28.40985067082352
 10
392.056713369995
 20
28.40985067082352
 10
392.056713369995
 20
28.40985067082352
 10
391.9791690396468
 20
28.91055613773418
 10
391.615639076537
 20
29.01635386089345
 10
391.4079416759881
 20
29.01635386089345
 10
391.2033686632698
 20
29.01635386089345
 10
390.6552022574085
 20
29.05174871160303
 10
390.3419600603343
 20
28.64284073476305
 97
        1
330
3C73
 92
        1
 93
        1
 72
     4
 94
        3
 73
     0
 74
     1
 95
       38
 96
       34
 40
0.0
 40
0.0
 40
0.0
 40
0.0
 40
1.0
 40
1.0
 40
1.0
 40
2.0
 40
2.0
 40
2.0
 40
3.0
 40
3.0
 40
3.0
 40
4.0
 40
4.0
 40
4.0
 40
5.0
 40
5.0
 40
5.0
 40
6.0
 40
6.0
 40
6.0
 40
7.0
 40
7.0
 40
7.0
 40
8.0
 40
8.0
 40
8.0
 40
9.0
 40
9.0
 40
9.0
 40
10.0
 40
10.0
 40
10.0
 40
11.0
 40
11.0
 40
11.0
 40
11.0
 10
393.3716045494872
 20
28.85519496098328
 10
393.3716045494872
 20
28.85519496098328
 10
393.7413535321836
 20
28.85519496098328
 10
393.7413535321836
 20
28.85519496098328
 10
393.7413535321836
 20
28.85519496098328
 10
393.5761775622055
 20
28.32635512555987
 10
393.5761775622055
 20
28.32635512555987
 10
393.7016886847722
 20
28.47480818162555
 10
393.8997748732327
 20
28.67252241915381
 10
394.0698903515905
 20
28.77222014702475
 10
394.3240072284799
 20
28.92067320309043
 10
394.4692168724166
 20
28.94025270016223
 10
394.6289177246725
 20
28.93635465439262
 10
394.6289177246725
 20
28.93635465439262
 10
394.4728471135151
 20
28.43630382112264
 10
394.4728471135151
 20
28.43630382112264
 10
394.3712003627593
 20
28.47934598299858
 10
394.057958165685
 20
28.39741263165024
 10
393.8782612313133
 20
28.26815224368685
 10
393.7162096491659
 20
28.15159769956793
 10
393.6041780283826
 20
28.0524207030021
 10
393.4714361796937
 20
27.80309455411968
 10
393.3397060375404
 20
27.55339645430504
 10
393.2357383129677
 20
27.15524529842472
 10
393.0568150365349
 20
26.57765013480655
 10
393.0568150365349
 20
26.57765013480655
 10
392.4980257120495
 20
24.78695932282479
 10
392.4980257120495
 20
24.78695932282479
 10
392.4980257120495
 20
24.78695932282479
 10
392.1391674526484
 20
24.78695932282479
 10
392.1391674526484
 20
24.78695932282479
 10
392.1391674526484
 20
24.78695932282479
 10
393.3716045494872
 20
28.85519496098328
 10
393.3716045494872
 20
28.85519496098328
 97
        1
330
3C71
 92
        1
 93
        1
 72
     4
 94
        3
 73
     0
 74
     1
 95
      104
 96
      100
 40
0.0
 40
0.0
 40
0.0
 40
0.0
 40
1.0
 40
1.0
 40
1.0
 40
2.0
 40
2.0
 40
2.0
 40
3.0
 40
3.0
 40
3.0
 40
4.0
 40
4.0
 40
4.0
 40
5.0
 40
5.0
 40
5.0
 40
6.0
 40
6.0
 40
6.0
 40
7.0
 40
7.0
 40
7.0
 40
8.0
 40
8.0
 40
8.0
 40
9.0
 40
9.0
 40
9.0
 40
10.0
 40
10.0
 40
10.0
 40
11.0
 40
11.0
 40
11.0
 40
12.0
 40
12.0
 40
12.0
 40
13.0
 40
13.0
 40
13.0
 40
14.0
 40
14.0
 40
14.0
 40
15.0
 40
15.0
 40
15.0
 40
16.0
 40
16.0
 40
16.0
 40
17.0
 40
17.0
 40
17.0
 40
18.0
 40
18.0
 40
18.0
 40
19.0
 40
19.0
 40
19.0
 40
20.0
 40
20.0
 40
20.0
 40
21.0
 40
21.0
 40
21.0
 40
22.0
 40
22.0
 40
22.0
 40
23.0
 40
23.0
 40
23.0
 40
24.0
 40
24.0
 40
24.0
 40
25.0
 40
25.0
 40
25.0
 40
26.0
 40
26.0
 40
26.0
 40
27.0
 40
27.0
 40
27.0
 40
28.0
 40
28.0
 40
28.0
 40
29.0
 40
29.0
 40
29.0
 40
30.0
 40
30.0
 40
30.0
 40
31.0
 40
31.0
 40
31.0
 40
32.0
 40
32.0
 40
32.0
 40
33.0
 40
33.0
 40
33.0
 40
33.0
 10
395.4068307823444
 20
28.857396910502
 10
395.4068307823444
 20
28.857396910502
 10
395.7296544354325
 20
28.857396910502
 10
395.7296544354325
 20
28.857396910502
 10
395.7296544354325
 20
28.857396910502
 10
395.5665613906749
 20
28.32805122181077
 10
395.5665613906749
 20
28.32805122181077
 10
395.7081110374387
 20
28.55000178208216
 10
395.8351694758834
 20
28.64892585201409
 10
396.0039756869598
 20
28.77675794839777
 10
396.1732877513042
 20
28.90277492423224
 10
396.3742602789986
 20
28.92845441659237
 10
396.5137567566165
 20
28.92845441659237
 10
396.6864610134627
 20
28.92845441659237
 10
396.8531842993187
 20
28.8943539551269
 10
396.9408159389486
 20
28.70506068670399
 10
397.0079753992694
 20
28.55662250867558
 10
397.0110997871
 20
28.5391110587869
 10
396.9919071189977
 20
28.24610299242514
 10
397.1674382029287
 20
28.54650544331934
 10
397.2970854198616
 20
28.67589973361832
 10
397.5174886642549
 20
28.80022061320189
 10
397.7487826319435
 20
28.92845441659237
 10
397.8836074058529
 20
28.93805075064353
 10
398.0402433824273
 20
28.9149600367716
 10
398.2710017407735
 20
28.88087445334342
 10
398.4182943099307
 20
28.79853939498828
 10
398.4953030309365
 20
28.54832056386854
 10
398.5725795566135
 20
28.29887539068781
 10
398.5308317839817
 20
28.16507720135141
 10
398.4354040528126
 20
27.76796750808128
 10
398.3918411596316
 20
27.58711008680102
 10
398.3288177936771
 20
27.36812025595006
 10
398.2463637110236
 20
27.10754631087745
 10
398.2463637110236
 20
27.10754631087745
 10
397.5174886642549
 20
24.78695932282479
 10
397.5174886642549
 20
24.78695932282479
 10
397.5174886642549
 20
24.78695932282479
 10
397.1383962741413
 20
24.78695932282479
 10
397.1383962741413
 20
24.78695932282479
 10
397.1383962741413
 20
24.78695932282479
 10
397.7765450495241
 20
26.81569873142421
 10
397.7765450495241
 20
26.81569873142421
 10
397.9098225075554
 20
27.24016913526807
 10
398.0000429256735
 20
27.55015304217612
 10
398.0467302066851
 20
27.74450484327716
 10
398.1053199175276
 20
27.98694246089495
 10
398.1286486799962
 20
28.06694166739577
 10
398.1009160184902
 20
28.24339518963862
 10
398.0755043308013
 20
28.4076487213048
 10
397.9925146388055
 20
28.51460693137258
 10
397.8504293826993
 20
28.51460693137258
 10
397.6990007191758
 20
28.51460693137258
 10
397.5763461797686
 20
28.49775011512458
 10
397.4047131416073
 20
28.32532854098695
 10
397.2330503473714
 20
28.15159769956793
 10
397.0912031398618
 20
27.94766444245305
 10
396.9799749330922
 20
27.71312706263549
 10
396.8689847749192
 20
27.47716139123824
 10
396.7564473008682
 20
27.17806820762544
 10
396.6423625109393
 20
26.81569873142421
 10
396.6423625109393
 20
26.81569873142421
 10
396.0039756869598
 20
24.78695932282479
 10
396.0039756869598
 20
24.78695932282479
 10
396.0039756869598
 20
24.78695932282479
 10
395.6474384013758
 20
24.78695932282479
 10
395.6474384013758
 20
24.78695932282479
 10
395.6474384013758
 20
24.78695932282479
 10
396.3773549107547
 20
27.10650484826726
 10
396.3773549107547
 20
27.10650484826726
 10
396.4543636317604
 20
27.35336124295977
 10
396.5122094407385
 20
27.55457181925085
 10
396.5503269722719
 20
27.71183267339138
 10
396.6151357027011
 20
27.98253856185753
 10
396.6332869081932
 20
28.1655979326565
 10
396.5842786533645
 20
28.32805122181077
 10
396.5360440564749
 20
28.48998377965993
 10
396.4512690000045
 20
28.53134472332225
 10
396.3096895971661
 20
28.53134472332225
 10
396.1909331035284
 20
28.53134472332225
 10
396.0750331930502
 20
28.48038744560878
 10
395.9427971976291
 20
28.37899362148695
 10
395.7763119603696
 20
28.25142932977446
 10
395.7096881093912
 20
28.1466730692254
 10
395.6280076846768
 20
28.02220340926895
 10
395.5177911844429
 20
27.85754817059597
 10
395.4661941511259
 20
27.74670679279587
 10
395.3731171498484
 20
27.50348063920177
 10
395.2800103924964
 20
27.25882619402798
 10
395.1918728995987
 20
26.97412007247326
 10
395.1303968495222
 20
26.77719437092129
 10
395.1303968495222
 20
26.77719437092129
 10
394.5042100161195
 20
24.78695932282479
 10
394.5042100161195
 20
24.78695932282479
 10
394.5042100161195
 20
24.78695932282479
 10
394.1308307923247
 20
24.78695932282479
 10
394.1308307923247
 20
24.78695932282479
 10
394.1308307923247
 20
24.78695932282479
 10
395.4068307823444
 20
28.857396910502
 10
395.4068307823444
 20
28.857396910502
 97
        1
330
3C72
 92
       16
 93
        1
 72
     4
 94
        3
 73
     0
 74
     1
 95
       29
 96
       25
 40
0.0
 40
0.0
 40
0.0
 40
0.0
 40
1.0
 40
1.0
 40
1.0
 40
2.0
 40
2.0
 40
2.0
 40
3.0
 40
3.0
 40
3.0
 40
4.0
 40
4.0
 40
4.0
 40
5.0
 40
5.0
 40
5.0
 40
6.0
 40
6.0
 40
6.0
 40
7.0
 40
7.0
 40
7.0
 40
8.0
 40
8.0
 40
8.0
 40
8.0
 10
389.6462927927937
 20
25.54487629838084
 10
389.6447157208412
 20
25.82830290872873
 10
389.7341922370948
 20
26.33186495879882
 10
389.9634032795631
 20
27.00563175545052
 10
390.2756040140271
 20
27.91796788002499
 10
390.4628292352669
 20
28.25142932977446
 10
390.6266661818889
 20
28.41374871659313
 10
390.866024045788
 20
28.65010121695988
 10
391.1878062362659
 20
28.66188462249246
 10
391.2827281141673
 20
28.65010121695988
 10
391.4178206927478
 20
28.6338841563153
 10
391.6086463990114
 20
28.54546398070914
 10
391.6200429755745
 20
28.24779908867604
 10
391.629148334395
 20
27.99304245618328
 10
391.5557400984131
 20
27.51593355641234
 10
391.2987963944389
 20
26.76695828126675
 10
391.0026639402465
 20
25.896622855958
 10
390.824782126424
 20
25.55448751046927
 10
390.6821910170501
 20
25.40537982076289
 10
390.413553175767
 20
25.1258512561846
 10
390.1254548617105
 20
25.15269123545324
 10
390.0829334311396
 20
25.15269123545324
 10
390.0277061567243
 20
25.15269123545324
 10
389.6470664507327
 20
25.21261996965174
 10
389.6462927927937
 20
25.54487629838084
 97
        1
330
3C74
 75
     0
 76
     1
 98
        1
 10
371.9300318427923
 20
14.61939790801677
1001
ACAD
1010
0.0
1020
0.0
1030
0.0
  0
POLYLINE
  5
3C65
102
{ACAD_REACTORS
330
3C64
330
3C75
102
}
330
A
100
AcDbEntity
  8
TEMPLATE
100
AcDb2dPolyline
 66
     1
 10
0.0
 20
0.0
 30
0.0
  0
VERTEX
  5
3C66
330
3C65
100
AcDbEntity
  8
TEMPLATE
100
AcDbVertex
100
AcDb2dVertex
 10
386.9584116981973
 20
30.78695932253559
 30
0.0
  0
VERTEX
  5
3C67
330
3C65
100
AcDbEntity
  8
TEMPLATE
100
AcDbVertex
100
AcDb2dVertex
 10
386.9584116981973
 20
29.60507779640349
 30
0.0
  0
VERTEX
  5
3C68
330
3C65
100
AcDbEntity
  8
TEMPLATE
100
AcDbVertex
100
AcDb2dVertex
 10
385.086293388135
 20
29.60507779640349
 30
0.0
  0
VERTEX
  5
3C69
330
3C65
100
AcDbEntity
  8
TEMPLATE
100
AcDbVertex
100
AcDb2dVertex
 10
385.086293388135
 20
24.78695932282479
 30
0.0
  0
VERTEX
  5
3C6A
330
3C65
100
AcDbEntity
  8
TEMPLATE
100
AcDbVertex
100
AcDb2dVertex
 10
383.4397707574798
 20
24.78695932282479
 30
0.0
  0
VERTEX
  5
3C6B
330
3C65
100
AcDbEntity
  8
TEMPLATE
100
AcDbVertex
100
AcDb2dVertex
 10
383.4397707574798
 20
29.60507779640349
 30
0.0
  0
VERTEX
  5
3C6C
330
3C65
100
AcDbEntity
  8
TEMPLATE
100
AcDbVertex
100
AcDb2dVertex
 10
381.6008304705712
 20
29.60507779640349
 30
0.0
  0
VERTEX
  5
3C6D
330
3C65
100
AcDbEntity
  8
TEMPLATE
100
AcDbVertex
100
AcDb2dVertex
 10
381.6008304705712
 20
30.78695932253559
 30
0.0
  0
VERTEX
  5
3C6E
330
3C65
100
AcDbEntity
  8
TEMPLATE
100
AcDbVertex
100
AcDb2dVertex
 10
386.9584116981973
 20
30.78695932253559
 30
0.0
  0
SEQEND
  5
3C6F
330
3C65
100
AcDbEntity
  8
TEMPLATE
  0
SPLINE
  5
3C70
102
{ACAD_REACTORS
330
3C64
330
3C75
102
}
330
A
100
AcDbEntity
  8
TEMPLATE
100
AcDbSpline
210
0.0
220
0.0
230
1.0
 70
    11
 71
     3
 72
    56
 73
    52
 74
     0
 42
0.000000001
 43
0.0000000001
 40
0.0
 40
0.0
 40
0.0
 40
0.0
 40
1.0
 40
1.0
 40
1.0
 40
2.0
 40
2.0
 40
2.0
 40
3.0
 40
3.0
 40
3.0
 40
4.0
 40
4.0
 40
4.0
 40
5.0
 40
5.0
 40
5.0
 40
6.0
 40
6.0
 40
6.0
 40
7.0
 40
7.0
 40
7.0
 40
8.0
 40
8.0
 40
8.0
 40
9.0
 40
9.0
 40
9.0
 40
10.0
 40
10.0
 40
10.0
 40
11.0
 40
11.0
 40
11.0
 40
12.0
 40
12.0
 40
12.0
 40
13.0
 40
13.0
 40
13.0
 40
14.0
 40
14.0
 40
14.0
 40
15.0
 40
15.0
 40
15.0
 40
16.0
 40
16.0
 40
16.0
 40
17.0
 40
17.0
 40
17.0
 40
17.0
 10
389.4668487850558
 20
30.64408553045313
 30
0.0
 10
389.6976220214394
 20
30.70904304125516
 30
0.0
 10
389.9955398401064
 20
30.65470844907718
 30
0.0
 10
389.9955398401064
 20
30.65470844907718
 30
0.0
 10
389.9955398401064
 20
30.65470844907718
 30
0.0
 10
389.85241312139
 20
30.22519439059248
 30
0.0
 10
389.85241312139
 20
30.22519439059248
 30
0.0
 10
389.85241312139
 20
30.22519439059248
 30
0.0
 10
389.5599406643706
 20
30.29287458221835
 30
0.0
 10
389.3343598630008
 20
30.1149927683958
 30
0.0
 10
389.1590668276665
 20
29.97588311974736
 30
0.0
 10
389.0455027690426
 20
29.60625316134929
 30
0.0
 10
389.0019398758616
 20
29.46571522112114
 30
0.0
 10
389.0019398758616
 20
29.46571522112114
 30
0.0
 10
388.8077219770962
 20
28.86958202304137
 30
0.0
 10
388.8077219770962
 20
28.86958202304137
 30
0.0
 10
388.8077219770962
 20
28.86958202304137
 30
0.0
 10
389.4445466071603
 20
28.86958202304137
 30
0.0
 10
389.4445466071603
 20
28.86958202304137
 30
0.0
 10
389.4445466071603
 20
28.86958202304137
 30
0.0
 10
389.34550351293
 20
28.49438767869736
 30
0.0
 10
389.34550351293
 20
28.49438767869736
 30
0.0
 10
389.34550351293
 20
28.49438767869736
 30
0.0
 10
388.7034864478522
 20
28.49438767869736
 30
0.0
 10
388.7034864478522
 20
28.49438767869736
 30
0.0
 10
388.7034864478522
 20
28.49438767869736
 30
0.0
 10
387.5547978229109
 20
24.78695932282479
 30
0.0
 10
387.5547978229109
 20
24.78695932282479
 30
0.0
 10
387.5547978229109
 20
24.78695932282479
 30
0.0
 10
387.1951510275336
 20
24.78695932282479
 30
0.0
 10
387.1951510275336
 20
24.78695932282479
 30
0.0
 10
387.1951510275336
 20
24.78695932282479
 30
0.0
 10
388.3448811150849
 20
28.49438767869736
 30
0.0
 10
388.3448811150849
 20
28.49438767869736
 30
0.0
 10
388.3448811150849
 20
28.49438767869736
 30
0.0
 10
387.8711346517413
 20
28.49438767869736
 30
0.0
 10
387.8711346517413
 20
28.49438767869736
 30
0.0
 10
387.8711346517413
 20
28.49438767869736
 30
0.0
 10
387.9704455506427
 20
28.86958202304137
 30
0.0
 10
387.9704455506427
 20
28.86958202304137
 30
0.0
 10
387.9704455506427
 20
28.86958202304137
 30
0.0
 10
388.4491166443289
 20
28.86958202304137
 30
0.0
 10
388.4491166443289
 20
28.86958202304137
 30
0.0
 10
388.4491166443289
 20
28.86958202304137
 30
0.0
 10
388.6184287086733
 20
29.38948015805433
 30
0.0
 10
388.6184287086733
 20
29.38948015805433
 30
0.0
 10
388.7553364078029
 20
29.82536201649855
 30
0.0
 10
388.8715041229524
 20
30.059378665011
 30
0.0
 10
388.971082826525
 20
30.23581730921654
 30
0.0
 10
389.0696051894502
 20
30.41240473379499
 30
0.0
 10
389.2645967461546
 20
30.58586777054282
 30
0.0
 10
389.4668487850558
 20
30.64408553045313
 30
0.0
  0
SPLINE
  5
3C71
102
{ACAD_REACTORS
330
3C64
330
3C75
102
}
330
A
100
AcDbEntity
  8
TEMPLATE
100
AcDbSpline
210
0.0
220
0.0
230
1.0
 70
    11
 71
     3
 72
    38
 73
    34
 74
     0
 42
0.000000001
 43
0.0000000001
 40
0.0
 40
0.0
 40
0.0
 40
0.0
 40
1.0
 40
1.0
 40
1.0
 40
2.0
 40
2.0
 40
2.0
 40
3.0
 40
3.0
 40
3.0
 40
4.0
 40
4.0
 40
4.0
 40
5.0
 40
5.0
 40
5.0
 40
6.0
 40
6.0
 40
6.0
 40
7.0
 40
7.0
 40
7.0
 40
8.0
 40
8.0
 40
8.0
 40
9.0
 40
9.0
 40
9.0
 40
10.0
 40
10.0
 40
10.0
 40
11.0
 40
11.0
 40
11.0
 40
11.0
 10
393.3716045494872
 20
28.85519496098328
 30
0.0
 10
393.3716045494872
 20
28.85519496098328
 30
0.0
 10
393.7413535321836
 20
28.85519496098328
 30
0.0
 10
393.7413535321836
 20
28.85519496098328
 30
0.0
 10
393.7413535321836
 20
28.85519496098328
 30
0.0
 10
393.5761775622055
 20
28.32635512555987
 30
0.0
 10
393.5761775622055
 20
28.32635512555987
 30
0.0
 10
393.7016886847722
 20
28.47480818162555
 30
0.0
 10
393.8997748732327
 20
28.67252241915381
 30
0.0
 10
394.0698903515905
 20
28.77222014702475
 30
0.0
 10
394.3240072284799
 20
28.92067320309043
 30
0.0
 10
394.4692168724166
 20
28.94025270016223
 30
0.0
 10
394.6289177246725
 20
28.93635465439262
 30
0.0
 10
394.6289177246725
 20
28.93635465439262
 30
0.0
 10
394.4728471135151
 20
28.43630382112264
 30
0.0
 10
394.4728471135151
 20
28.43630382112264
 30
0.0
 10
394.3712003627593
 20
28.47934598299858
 30
0.0
 10
394.057958165685
 20
28.39741263165024
 30
0.0
 10
393.8782612313133
 20
28.26815224368685
 30
0.0
 10
393.7162096491659
 20
28.15159769956793
 30
0.0
 10
393.6041780283826
 20
28.0524207030021
 30
0.0
 10
393.4714361796937
 20
27.80309455411968
 30
0.0
 10
393.3397060375404
 20
27.55339645430504
 30
0.0
 10
393.2357383129677
 20
27.15524529842472
 30
0.0
 10
393.0568150365349
 20
26.57765013480655
 30
0.0
 10
393.0568150365349
 20
26.57765013480655
 30
0.0
 10
392.4980257120495
 20
24.78695932282479
 30
0.0
 10
392.4980257120495
 20
24.78695932282479
 30
0.0
 10
392.4980257120495
 20
24.78695932282479
 30
0.0
 10
392.1391674526484
 20
24.78695932282479
 30
0.0
 10
392.1391674526484
 20
24.78695932282479
 30
0.0
 10
392.1391674526484
 20
24.78695932282479
 30
0.0
 10
393.3716045494872
 20
28.85519496098328
 30
0.0
 10
393.3716045494872
 20
28.85519496098328
 30
0.0
  0
SPLINE
  5
3C72
102
{ACAD_REACTORS
330
3C64
330
3C75
102
}
330
A
100
AcDbEntity
  8
TEMPLATE
100
AcDbSpline
210
0.0
220
0.0
230
1.0
 70
    11
 71
     3
 72
   104
 73
   100
 74
     0
 42
0.000000001
 43
0.0000000001
 40
0.0
 40
0.0
 40
0.0
 40
0.0
 40
1.0
 40
1.0
 40
1.0
 40
2.0
 40
2.0
 40
2.0
 40
3.0
 40
3.0
 40
3.0
 40
4.0
 40
4.0
 40
4.0
 40
5.0
 40
5.0
 40
5.0
 40
6.0
 40
6.0
 40
6.0
 40
7.0
 40
7.0
 40
7.0
 40
8.0
 40
8.0
 40
8.0
 40
9.0
 40
9.0
 40
9.0
 40
10.0
 40
10.0
 40
10.0
 40
11.0
 40
11.0
 40
11.0
 40
12.0
 40
12.0
 40
12.0
 40
13.0
 40
13.0
 40
13.0
 40
14.0
 40
14.0
 40
14.0
 40
15.0
 40
15.0
 40
15.0
 40
16.0
 40
16.0
 40
16.0
 40
17.0
 40
17.0
 40
17.0
 40
18.0
 40
18.0
 40
18.0
 40
19.0
 40
19.0
 40
19.0
 40
20.0
 40
20.0
 40
20.0
 40
21.0
 40
21.0
 40
21.0
 40
22.0
 40
22.0
 40
22.0
 40
23.0
 40
23.0
 40
23.0
 40
24.0
 40
24.0
 40
24.0
 40
25.0
 40
25.0
 40
25.0
 40
26.0
 40
26.0
 40
26.0
 40
27.0
 40
27.0
 40
27.0
 40
28.0
 40
28.0
 40
28.0
 40
29.0
 40
29.0
 40
29.0
 40
30.0
 40
30.0
 40
30.0
 40
31.0
 40
31.0
 40
31.0
 40
32.0
 40
32.0
 40
32.0
 40
33.0
 40
33.0
 40
33.0
 40
33.0
 10
395.4068307823444
 20
28.857396910502
 30
0.0
 10
395.4068307823444
 20
28.857396910502
 30
0.0
 10
395.7296544354325
 20
28.857396910502
 30
0.0
 10
395.7296544354325
 20
28.857396910502
 30
0.0
 10
395.7296544354325
 20
28.857396910502
 30
0.0
 10
395.5665613906749
 20
28.32805122181077
 30
0.0
 10
395.5665613906749
 20
28.32805122181077
 30
0.0
 10
395.7081110374387
 20
28.55000178208216
 30
0.0
 10
395.8351694758834
 20
28.64892585201409
 30
0.0
 10
396.0039756869598
 20
28.77675794839777
 30
0.0
 10
396.1732877513042
 20
28.90277492423224
 30
0.0
 10
396.3742602789986
 20
28.92845441659237
 30
0.0
 10
396.5137567566165
 20
28.92845441659237
 30
0.0
 10
396.6864610134627
 20
28.92845441659237
 30
0.0
 10
396.8531842993187
 20
28.8943539551269
 30
0.0
 10
396.9408159389486
 20
28.70506068670399
 30
0.0
 10
397.0079753992694
 20
28.55662250867558
 30
0.0
 10
397.0110997871
 20
28.5391110587869
 30
0.0
 10
396.9919071189977
 20
28.24610299242514
 30
0.0
 10
397.1674382029287
 20
28.54650544331934
 30
0.0
 10
397.2970854198616
 20
28.67589973361832
 30
0.0
 10
397.5174886642549
 20
28.80022061320189
 30
0.0
 10
397.7487826319435
 20
28.92845441659237
 30
0.0
 10
397.8836074058529
 20
28.93805075064353
 30
0.0
 10
398.0402433824273
 20
28.9149600367716
 30
0.0
 10
398.2710017407735
 20
28.88087445334342
 30
0.0
 10
398.4182943099307
 20
28.79853939498828
 30
0.0
 10
398.4953030309365
 20
28.54832056386854
 30
0.0
 10
398.5725795566135
 20
28.29887539068781
 30
0.0
 10
398.5308317839817
 20
28.16507720135141
 30
0.0
 10
398.4354040528126
 20
27.76796750808128
 30
0.0
 10
398.3918411596316
 20
27.58711008680102
 30
0.0
 10
398.3288177936771
 20
27.36812025595006
 30
0.0
 10
398.2463637110236
 20
27.10754631087745
 30
0.0
 10
398.2463637110236
 20
27.10754631087745
 30
0.0
 10
397.5174886642549
 20
24.78695932282479
 30
0.0
 10
397.5174886642549
 20
24.78695932282479
 30
0.0
 10
397.5174886642549
 20
24.78695932282479
 30
0.0
 10
397.1383962741413
 20
24.78695932282479
 30
0.0
 10
397.1383962741413
 20
24.78695932282479
 30
0.0
 10
397.1383962741413
 20
24.78695932282479
 30
0.0
 10
397.7765450495241
 20
26.81569873142421
 30
0.0
 10
397.7765450495241
 20
26.81569873142421
 30
0.0
 10
397.9098225075554
 20
27.24016913526807
 30
0.0
 10
398.0000429256735
 20
27.55015304217612
 30
0.0
 10
398.0467302066851
 20
27.74450484327716
 30
0.0
 10
398.1053199175276
 20
27.98694246089495
 30
0.0
 10
398.1286486799962
 20
28.06694166739577
 30
0.0
 10
398.1009160184902
 20
28.24339518963862
 30
0.0
 10
398.0755043308013
 20
28.4076487213048
 30
0.0
 10
397.9925146388055
 20
28.51460693137258
 30
0.0
 10
397.8504293826993
 20
28.51460693137258
 30
0.0
 10
397.6990007191758
 20
28.51460693137258
 30
0.0
 10
397.5763461797686
 20
28.49775011512458
 30
0.0
 10
397.4047131416073
 20
28.32532854098695
 30
0.0
 10
397.2330503473714
 20
28.15159769956793
 30
0.0
 10
397.0912031398618
 20
27.94766444245305
 30
0.0
 10
396.9799749330922
 20
27.71312706263549
 30
0.0
 10
396.8689847749192
 20
27.47716139123824
 30
0.0
 10
396.7564473008682
 20
27.17806820762544
 30
0.0
 10
396.6423625109393
 20
26.81569873142421
 30
0.0
 10
396.6423625109393
 20
26.81569873142421
 30
0.0
 10
396.0039756869598
 20
24.78695932282479
 30
0.0
 10
396.0039756869598
 20
24.78695932282479
 30
0.0
 10
396.0039756869598
 20
24.78695932282479
 30
0.0
 10
395.6474384013758
 20
24.78695932282479
 30
0.0
 10
395.6474384013758
 20
24.78695932282479
 30
0.0
 10
395.6474384013758
 20
24.78695932282479
 30
0.0
 10
396.3773549107547
 20
27.10650484826726
 30
0.0
 10
396.3773549107547
 20
27.10650484826726
 30
0.0
 10
396.4543636317604
 20
27.35336124295977
 30
0.0
 10
396.5122094407385
 20
27.55457181925085
 30
0.0
 10
396.5503269722719
 20
27.71183267339138
 30
0.0
 10
396.6151357027011
 20
27.98253856185753
 30
0.0
 10
396.6332869081932
 20
28.1655979326565
 30
0.0
 10
396.5842786533645
 20
28.32805122181077
 30
0.0
 10
396.5360440564749
 20
28.48998377965993
 30
0.0
 10
396.4512690000045
 20
28.53134472332225
 30
0.0
 10
396.3096895971661
 20
28.53134472332225
 30
0.0
 10
396.1909331035284
 20
28.53134472332225
 30
0.0
 10
396.0750331930502
 20
28.48038744560878
 30
0.0
 10
395.9427971976291
 20
28.37899362148695
 30
0.0
 10
395.7763119603696
 20
28.25142932977446
 30
0.0
 10
395.7096881093912
 20
28.1466730692254
 30
0.0
 10
395.6280076846768
 20
28.02220340926895
 30
0.0
 10
395.5177911844429
 20
27.85754817059597
 30
0.0
 10
395.4661941511259
 20
27.74670679279587
 30
0.0
 10
395.3731171498484
 20
27.50348063920177
 30
0.0
 10
395.2800103924964
 20
27.25882619402798
 30
0.0
 10
395.1918728995987
 20
26.97412007247326
 30
0.0
 10
395.1303968495222
 20
26.77719437092129
 30
0.0
 10
395.1303968495222
 20
26.77719437092129
 30
0.0
 10
394.5042100161195
 20
24.78695932282479
 30
0.0
 10
394.5042100161195
 20
24.78695932282479
 30
0.0
 10
394.5042100161195
 20
24.78695932282479
 30
0.0
 10
394.1308307923247
 20
24.78695932282479
 30
0.0
 10
394.1308307923247
 20
24.78695932282479
 30
0.0
 10
394.1308307923247
 20
24.78695932282479
 30
0.0
 10
395.4068307823444
 20
28.857396910502
 30
0.0
 10
395.4068307823444
 20
28.857396910502
 30
0.0
  0
SPLINE
  5
3C73
102
{ACAD_REACTORS
330
3C64
330
3C75
102
}
330
A
100
AcDbEntity
  8
TEMPLATE
100
AcDbSpline
210
0.0
220
0.0
230
1.0
 70
    11
 71
     3
 72
    32
 73
    28
 74
     0
 42
0.000000001
 43
0.0000000001
 40
0.0
 40
0.0
 40
0.0
 40
0.0
 40
1.0
 40
1.0
 40
1.0
 40
2.0
 40
2.0
 40
2.0
 40
3.0
 40
3.0
 40
3.0
 40
4.0
 40
4.0
 40
4.0
 40
5.0
 40
5.0
 40
5.0
 40
6.0
 40
6.0
 40
6.0
 40
7.0
 40
7.0
 40
7.0
 40
8.0
 40
8.0
 40
8.0
 40
9.0
 40
9.0
 40
9.0
 40
9.0
 10
390.3419600603343
 20
28.64284073476305
 30
0.0
 10
390.1254548617105
 20
28.36279143887966
 30
0.0
 10
389.9587315758544
 20
28.11075748721071
 30
0.0
 10
389.6888142233646
 20
27.31860614785359
 30
0.0
 10
389.4406634394279
 20
26.59401597582401
 30
0.0
 10
389.2827479516467
 20
26.06685735861421
 30
0.0
 10
389.2588984578731
 20
25.42484029353638
 30
0.0
 10
389.240747252381
 20
24.94707676012474
 30
0.0
 10
389.5316723935223
 20
24.78695932282479
 30
0.0
 10
389.9582257225866
 20
24.78695932282479
 30
0.0
 10
390.1420587513246
 20
24.78695932282479
 30
0.0
 10
390.6059559539832
 20
24.79865346013363
 30
0.0
 10
390.9363078939394
 20
25.20702582763122
 30
0.0
 10
391.1675721055534
 20
25.49393389870466
 30
0.0
 10
391.38071486775
 20
25.79134586410385
 30
0.0
 10
391.6664624519149
 20
26.76695828126675
 30
0.0
 10
391.9042432438614
 20
27.58257228542799
 30
0.0
 10
392.068883604497
 20
28.10971602460051
 30
0.0
 10
392.056713369995
 20
28.40985067082352
 30
0.0
 10
392.056713369995
 20
28.40985067082352
 30
0.0
 10
392.056713369995
 20
28.40985067082352
 30
0.0
 10
392.056713369995
 20
28.40985067082352
 30
0.0
 10
391.9791690396468
 20
28.91055613773418
 30
0.0
 10
391.615639076537
 20
29.01635386089345
 30
0.0
 10
391.4079416759881
 20
29.01635386089345
 30
0.0
 10
391.2033686632698
 20
29.01635386089345
 30
0.0
 10
390.6552022574085
 20
29.05174871160303
 30
0.0
 10
390.3419600603343
 20
28.64284073476305
 30
0.0
  0
SPLINE
  5
3C74
102
{ACAD_REACTORS
330
3C64
330
3C75
102
}
330
A
100
AcDbEntity
  8
TEMPLATE
100
AcDbSpline
210
0.0
220
0.0
230
1.0
 70
    11
 71
     3
 72
    29
 73
    25
 74
     0
 42
0.000000001
 43
0.0000000001
 40
0.0
 40
0.0
 40
0.0
 40
0.0
 40
1.0
 40
1.0
 40
1.0
 40
2.0
 40
2.0
 40
2.0
 40
3.0
 40
3.0
 40
3.0
 40
4.0
 40
4.0
 40
4.0
 40
5.0
 40
5.0
 40
5.0
 40
6.0
 40
6.0
 40
6.0
 40
7.0
 40
7.0
 40
7.0
 40
8.0
 40
8.0
 40
8.0
 40
8.0
 10
389.6462927927937
 20
25.54487629838084
 30
0.0
 10
389.6447157208412
 20
25.82830290872873
 30
0.0
 10
389.7341922370948
 20
26.33186495879882
 30
0.0
 10
389.9634032795631
 20
27.00563175545052
 30
0.0
 10
390.2756040140271
 20
27.91796788002499
 30
0.0
 10
390.4628292352669
 20
28.25142932977446
 30
0.0
 10
390.6266661818889
 20
28.41374871659313
 30
0.0
 10
390.866024045788
 20
28.65010121695988
 30
0.0
 10
391.1878062362659
 20
28.66188462249246
 30
0.0
 10
391.2827281141673
 20
28.65010121695988
 30
0.0
 10
391.4178206927478
 20
28.6338841563153
 30
0.0
 10
391.6086463990114
 20
28.54546398070914
 30
0.0
 10
391.6200429755745
 20
28.24779908867604
 30
0.0
 10
391.629148334395
 20
27.99304245618328
 30
0.0
 10
391.5557400984131
 20
27.51593355641234
 30
0.0
 10
391.2987963944389
 20
26.76695828126675
 30
0.0
 10
391.0026639402465
 20
25.896622855958
 30
0.0
 10
390.824782126424
 20
25.55448751046927
 30
0.0
 10
390.6821910170501
 20
25.40537982076289
 30
0.0
 10
390.413553175767
 20
25.1258512561846
 30
0.0
 10
390.1254548617105
 20
25.15269123545324
 30
0.0
 10
390.0829334311396
 20
25.15269123545324
 30
0.0
 10
390.0277061567243
 20
25.15269123545324
 30
0.0
 10
389.6470664507327
 20
25.21261996965174
 30
0.0
 10
389.6462927927937
 20
25.54487629838084
 30
0.0
  0
MTEXT
  5
3CB5
102
{ACAD_XDICTIONARY
360
3CB7
102
}
330
A
100
AcDbEntity
  8
TEMPLATE
100
AcDbMText
 10
15.00779663219942
 20
17.57619761830519
 30
0.0
 40
4.0
 41
0.0
 46
4.0
 71
     1
 72
     1
  1
{20230821M}
  7
ＭＳ ゴシック
 73
     1
 44
1.0
1001
ACAD
1000
ACAD_MTEXT_DEFINED_HEIGHT_BEGIN
1070
    46
1040
4.0
1000
ACAD_MTEXT_DEFINED_HEIGHT_END
  0
LINE
  5
400E
330
A
100
AcDbEntity
  8
MODEL
100
AcDbLine
 10
334.3208461337671
 20
229.464759942347
 30
0.0
 11
334.3208461337671
 21
199.864759942347
 31
0.0
  0
LINE
  5
400F
330
A
100
AcDbEntity
  8
MODEL
100
AcDbLine
 10
337.920846133767
 20
229.364759942347
 30
0.0
 11
337.920846133767
 21
199.964759942347
 31
0.0
  0
LINE
  5
4010
330
A
100
AcDbEntity
  8
MODEL
100
AcDbLine
 10
334.5208461337672
 20
199.6647599423471
 30
0.0
 11
337.6208461337671
 21
199.6647599423471
 31
0.0
  0
LINE
  5
4011
330
A
100
AcDbEntity
  8
MODEL
100
AcDbLine
 10
337.6208461337671
 20
229.6647599423471
 30
0.0
 11
334.5208461337672
 21
229.6647599423471
 31
0.0
  0
ARC
  5
4012
330
A
100
AcDbEntity
  8
MODEL
100
AcDbCircle
 10
334.5208461337672
 20
229.464759942347
 30
0.0
 40
0.1999999999999988
100
AcDbArc
 50
90.0
 51
180.0
  0
ARC
  5
4013
330
A
100
AcDbEntity
  8
MODEL
100
AcDbCircle
 10
334.5208461337672
 20
199.864759942347
 30
0.0
 40
0.1999999999999988
100
AcDbArc
 50
180.0
 51
270.0
  0
ARC
  5
4014
330
A
100
AcDbEntity
  8
MODEL
100
AcDbCircle
 10
337.6208461337671
 20
229.364759942347
 30
0.0
 40
0.3000000000000016
100
AcDbArc
 50
0.0
 51
90.0
  0
ARC
  5
4015
330
A
100
AcDbEntity
  8
MODEL
100
AcDbCircle
 10
337.6208461337671
 20
199.964759942347
 30
0.0
 40
0.3
100
AcDbArc
 50
270.0
 51
0.0
  0
LINE
  5
4016
330
A
100
AcDbEntity
  8
MODEL
100
AcDbLine
 10
293.339238722367
 20
179.6647599423471
 30
0.0
 11
293.339238722367
 21
249.6647599423472
 31
0.0
  0
LINE
  5
4017
330
A
100
AcDbEntity
  8
MODEL
100
AcDbLine
 10
301.0392387223671
 20
249.224759942347
 30
0.0
 11
301.0392387223671
 21
180.104759942347
 31
0.0
  0
LINE
  5
4018
330
A
100
AcDbEntity
  8
MODEL
100
AcDbLine
 10
284.1392387223672
 20
230.1734113107471
 30
0.0
 11
284.1392387223672
 21
199.156108573747
 31
0.0
  0
LINE
  5
4019
330
A
100
AcDbEntity
  8
MODEL
100
AcDbLine
 10
293.339238722367
 20
179.6647599423471
 30
0.0
 11
300.599238722367
 21
179.6647599423471
 31
0.0
  0
LINE
  5
401A
330
A
100
AcDbEntity
  8
MODEL
100
AcDbLine
 10
300.599238722367
 20
249.6647599423472
 30
0.0
 11
293.339238722367
 21
249.6647599423472
 31
0.0
  0
ARC
  5
401B
330
A
100
AcDbEntity
  8
MODEL
100
AcDbCircle
 10
300.599238722367
 20
180.104759942347
 30
0.0
 40
0.4400000000000028
100
AcDbArc
 50
270.0
 51
0.0
  0
ARC
  5
401C
330
A
100
AcDbEntity
  8
MODEL
100
AcDbCircle
 10
300.599238722367
 20
249.224759942347
 30
0.0
 40
0.4400000000000002
100
AcDbArc
 50
0.0
 51
90.0
  0
LINE
  5
401D
330
A
100
AcDbEntity
  8
MODEL
100
AcDbLine
 10
293.339238722367
 20
230.825346539547
 30
0.0
 11
284.6305125191672
 21
230.673335158347
 31
0.0
  0
LINE
  5
401E
330
A
100
AcDbEntity
  8
MODEL
100
AcDbLine
 10
284.6305125191672
 20
198.656184726347
 30
0.0
 11
293.339238722367
 21
198.5041733449471
 31
0.0
  0
ARC
  5
401F
330
A
100
AcDbEntity
  8
MODEL
100
AcDbCircle
 10
284.6392387223672
 20
199.156108573747
 30
0.0
 40
0.5000000000000004
100
AcDbArc
 50
180.0
 51
268.9999999999982
  0
ARC
  5
4020
330
A
100
AcDbEntity
  8
MODEL
100
AcDbCircle
 10
284.6392387223672
 20
230.1734113107471
 30
0.0
 40
0.5000000000000002
100
AcDbArc
 50
91.00000000000178
 51
180.0
  0
LINE
  5
4021
330
A
100
AcDbEntity
  8
MODEL
100
AcDbLine
 10
357.9192387223672
 20
222.364759942347
 30
0.0
 11
357.9192387223672
 21
206.964759942347
 31
0.0
  0
CIRCLE
  5
4022
330
A
100
AcDbEntity
  8
MODEL
100
AcDbCircle
 10
351.6392386529671
 20
214.6647599423471
 30
0.0
 40
4.0
  0
ARC
  5
4023
330
A
100
AcDbEntity
  8
MODEL
100
AcDbCircle
 10
351.6392385291671
 20
229.072175925747
 30
0.0
 40
7.317460327491376
100
AcDbArc
 50
236.8633486776006
 51
303.1366384983997
  0
ARC
  5
4024
330
A
100
AcDbEntity
  8
MODEL
100
AcDbCircle
 10
351.6392385313672
 20
200.2573438517471
 30
0.0
 40
7.31746041823414
100
AcDbArc
 50
56.86336173700088
 51
123.1366508775002
  0
ARC
  5
4025
330
A
100
AcDbEntity
  8
MODEL
100
AcDbCircle
 10
357.6192387223672
 20
222.364759942347
 30
0.0
 40
0.3000000000000086
100
AcDbArc
 50
0.0
 51
90.0
  0
ARC
  5
4026
330
A
100
AcDbEntity
  8
MODEL
100
AcDbCircle
 10
357.6192387223672
 20
206.964759942347
 30
0.0
 40
0.3
100
AcDbArc
 50
270.0
 51
0.0
  0
ARC
  5
4027
330
A
100
AcDbEntity
  8
MODEL
100
AcDbCircle
 10
351.6392386529671
 20
239.9861885137471
 30
0.0
 40
11.77857142856565
100
AcDbArc
 50
71.12416015979932
 51
108.8758398401995
  0
LINE
  5
4028
330
A
100
AcDbEntity
  8
MODEL
100
AcDbLine
 10
347.6392386529671
 20
250.866388185547
 30
0.0
 11
347.6392386529671
 21
222.944759942347
 31
0.0
  0
LINE
  5
4029
330
A
100
AcDbEntity
  8
MODEL
100
AcDbLine
 10
355.6392386529671
 20
222.944759942347
 30
0.0
 11
355.6392386529671
 21
250.866388185547
 31
0.0
  0
ARC
  5
402A
330
A
100
AcDbEntity
  8
MODEL
100
AcDbCircle
 10
351.6392386529671
 20
189.343331370747
 30
0.0
 40
11.77857142857582
100
AcDbArc
 50
251.1241601597999
 51
288.8758398402001
  0
LINE
  5
402B
330
A
100
AcDbEntity
  8
MODEL
100
AcDbLine
 10
347.6392386529671
 20
206.3847599423471
 30
0.0
 11
347.6392386529671
 21
178.463131699147
 31
0.0
  0
LINE
  5
402C
330
A
100
AcDbEntity
  8
MODEL
100
AcDbLine
 10
355.6392386529671
 20
178.463131699147
 30
0.0
 11
355.6392386529671
 21
206.384820471347
 31
0.0
  0
ARC
  5
402D
330
A
100
AcDbEntity
  8
MODEL
100
AcDbCircle
 10
347.9192386529671
 20
178.463131699147
 30
0.0
 40
0.2800000000000024
100
AcDbArc
 50
180.0
 51
251.1241601597982
  0
ARC
  5
402E
330
A
100
AcDbEntity
  8
MODEL
100
AcDbCircle
 10
355.3592386529671
 20
178.463131699147
 30
0.0
 40
0.2800000000000018
100
AcDbArc
 50
288.8758398402019
 51
0.0
  0
ARC
  5
402F
330
A
100
AcDbEntity
  8
MODEL
100
AcDbCircle
 10
355.3592386529671
 20
250.866388185547
 30
0.0
 40
0.2800000000000024
100
AcDbArc
 50
0.0
 51
71.1241601598976
  0
ARC
  5
4030
330
A
100
AcDbEntity
  8
MODEL
100
AcDbCircle
 10
347.9192386529671
 20
250.866388185547
 30
0.0
 40
0.2800000000002232
100
AcDbArc
 50
108.8758398400874
 51
180.0
  0
ARC
  5
4031
330
A
100
AcDbEntity
  8
MODEL
100
AcDbCircle
 10
347.3656998641672
 20
222.933030758347
 30
0.0
 40
0.2671198414200744
100
AcDbArc
 50
268.8075405370955
 51
343.7993729955858
  0
ARC
  5
4032
330
A
100
AcDbEntity
  8
MODEL
100
AcDbCircle
 10
355.9048561845672
 20
222.934549628147
 30
0.0
 40
0.2630699583766106
100
AcDbArc
 50
177.7919220037951
 51
252.8687696373922
  0
ARC
  5
4033
330
A
100
AcDbEntity
  8
MODEL
100
AcDbCircle
 10
355.916954403367
 20
222.8833117953471
 30
0.0
 40
0.2192949425397532
100
AcDbArc
 50
245.8875110560485
 51
283.7071739239371
  0
ARC
  5
4034
330
A
100
AcDbEntity
  8
MODEL
100
AcDbCircle
 10
355.9185412781671
 20
206.4400006591471
 30
0.0
 40
0.2253043672253292
100
AcDbArc
 50
77.45275590686855
 51
109.4632258495151
  0
ARC
  5
4035
330
A
100
AcDbEntity
  8
MODEL
100
AcDbCircle
 10
355.9080417837671
 20
206.395310837347
 30
0.0
 40
0.2651035941823262
100
AcDbArc
 50
104.0975722543172
 51
182.2402636236827
  0
ARC
  5
4036
330
A
100
AcDbEntity
  8
MODEL
100
AcDbCircle
 10
347.3610011047671
 20
206.387510936947
 30
0.0
 40
0.2771005124403014
100
AcDbArc
 50
356.4734827946157
 51
90.1872654087897
  0
LINE
  5
4037
330
A
100
AcDbEntity
  8
MODEL
100
AcDbLine
 10
355.9192386529671
 20
206.6647599423471
 30
0.0
 11
357.6192387223672
 21
206.6647599423471
 31
0.0
  0
LINE
  5
4038
330
A
100
AcDbEntity
  8
MODEL
100
AcDbLine
 10
337.920846133767
 20
206.6647599423471
 30
0.0
 11
347.3592386529671
 21
206.6647599423471
 31
0.0
  0
LINE
  5
4039
330
A
100
AcDbEntity
  8
MODEL
100
AcDbLine
 10
347.3592386529671
 20
222.6647599423471
 30
0.0
 11
337.920846133767
 21
222.6647599423471
 31
0.0
  0
LINE
  5
403A
330
A
100
AcDbEntity
  8
MODEL
100
AcDbLine
 10
357.6192387223672
 20
222.6647599423471
 30
0.0
 11
355.9192386529671
 21
222.6647599423471
 31
0.0
  0
LINE
  5
403B
330
A
100
AcDbEntity
  8
MODEL
100
AcDbLine
 10
359.9192387223672
 20
222.364759942347
 30
0.0
 11
359.9192387223672
 21
206.964759942347
 31
0.0
  0
LINE
  5
403C
330
A
100
AcDbEntity
  8
MODEL
100
AcDbLine
 10
357.9192387223672
 20
222.364759942347
 30
0.0
 11
357.9192387223672
 21
206.964759942347
 31
0.0
  0
LINE
  5
403D
330
A
100
AcDbEntity
  8
MODEL
100
AcDbLine
 10
359.6192387223672
 20
222.6647599423471
 30
0.0
 11
358.2192387223672
 21
222.6647599423471
 31
0.0
  0
LINE
  5
403E
330
A
100
AcDbEntity
  8
MODEL
100
AcDbLine
 10
358.2192387223672
 20
206.6647599423471
 30
0.0
 11
359.6192387223672
 21
206.6647599423471
 31
0.0
  0
ARC
  5
403F
330
A
100
AcDbEntity
  8
MODEL
100
AcDbCircle
 10
359.6192387223672
 20
222.364759942347
 30
0.0
 40
0.2999999999999948
100
AcDbArc
 50
0.0
 51
90.0
  0
ARC
  5
4040
330
A
100
AcDbEntity
  8
MODEL
100
AcDbCircle
 10
359.6192387223672
 20
206.964759942347
 30
0.0
 40
0.3000000000000008
100
AcDbArc
 50
270.0
 51
0.0
  0
ARC
  5
4041
330
A
100
AcDbEntity
  8
MODEL
100
AcDbCircle
 10
358.2192387223672
 20
206.964759942347
 30
0.0
 40
0.3000000000000086
100
AcDbArc
 50
180.0
 51
270.0
  0
ARC
  5
4042
330
A
100
AcDbEntity
  8
MODEL
100
AcDbCircle
 10
358.2192387223672
 20
222.364759942347
 30
0.0
 40
0.3000000000000016
100
AcDbArc
 50
90.0
 51
180.0
  0
LINE
  5
4043
330
A
100
AcDbEntity
  8
MODEL
100
AcDbLine
 10
334.3208461337671
 20
229.464759942347
 30
0.0
 11
334.3208461337671
 21
199.864759942347
 31
0.0
  0
LINE
  5
4044
330
A
100
AcDbEntity
  8
MODEL
100
AcDbLine
 10
334.1208461337671
 20
229.6647599423471
 30
0.0
 11
301.0392387223671
 21
229.6647599423471
 31
0.0
  0
LINE
  5
4045
330
A
100
AcDbEntity
  8
MODEL
100
AcDbLine
 10
301.0392387223671
 20
199.6647599423471
 30
0.0
 11
334.1208461337671
 21
199.6647599423471
 31
0.0
  0
ARC
  5
4046
330
A
100
AcDbEntity
  8
MODEL
100
AcDbCircle
 10
334.1208461337671
 20
199.864759942347
 30
0.0
 40
0.2000000000000006
100
AcDbArc
 50
270.0
 51
0.0
  0
ARC
  5
4047
330
A
100
AcDbEntity
  8
MODEL
100
AcDbCircle
 10
334.1208461337671
 20
229.464759942347
 30
0.0
 40
0.2000000000000058
100
AcDbArc
 50
0.0
 51
90.0
  0
LINE
  5
4048
330
A
100
AcDbEntity
  8
MODEL
100
AcDbLine
 10
293.339238722367
 20
183.2371022317471
 30
0.0
 11
293.339238722367
 21
207.485468665547
 31
0.0
  0
HATCH
  5
404A
330
A
100
AcDbEntity
  8
MODEL
100
AcDbHatch
 10
0.0
 20
0.0
 30
0.0
210
0.0
220
0.0
230
1.0
  2
LINE
 70
     0
 71
     0
 91
        1
 92
        1
 93
        4
 72
     1
 10
287.3392398114406
 20
248.1670599422695
 11
272.7150932785916
 21
248.1670599422695
 72
     1
 10
272.7150932785916
 20
248.1670599422695
 11
272.7150932785916
 21
232.1647599422697
 72
     1
 10
272.7150932785916
 20
232.1647599422697
 11
287.3392398114405
 21
232.1647599422697
 72
     1
 10
287.3392398114406
 20
232.1647599422697
 11
287.3392398114406
 21
248.1670599422695
 97
        0
 75
     0
 76
     1
 52
45.0
 41
1.889763779600006
 77
     0
 78
     1
 53
45.0
 43
137.7313039513671
 44
-108.0188054372529
 45
-4.242640687119286
 46
4.242640687119286
 79
     0
 98
        0
  0
HATCH
  5
404B
330
A
100
AcDbEntity
  8
MODEL
100
AcDbHatch
 10
0.0
 20
0.0
 30
0.0
210
0.0
220
0.0
230
1.0
  2
LINE
 70
     0
 71
     0
 91
        1
 92
        1
 93
        5
 72
     1
 10
287.3392398114406
 20
248.1670599422695
 11
287.3392398114406
 21
232.1647599422697
 72
     1
 10
287.3392398114406
 20
232.1647599422697
 11
293.3392387224333
 21
232.1647599422697
 72
     1
 10
293.3392387224334
 20
232.1647599422697
 11
293.3392387224334
 21
234.1670599422695
 72
     1
 10
293.3392387224334
 20
234.1670599422695
 11
293.3392387224334
 21
248.1670599422695
 72
     1
 10
293.3392387224334
 20
248.1670599422695
 11
287.3392398114407
 21
248.1670599422695
 97
        0
 75
     0
 76
     1
 52
315.0
 41
1.8897637796
 77
     0
 78
     1
 53
315.0
 43
137.7313039513671
 44
-108.0188054372529
 45
4.242640687119286
 46
4.242640687119286
 79
     0
 98
        0
  0
HATCH
  5
404C
330
A
100
AcDbEntity
  8
MODEL
100
AcDbHatch
 10
0.0
 20
0.0
 30
0.0
210
0.0
220
0.0
230
1.0
  2
LINE
 70
     0
 71
     0
 91
        1
 92
        1
 93
        4
 72
     1
 10
272.7150932785916
 20
181.1624599422695
 11
287.3392398114405
 21
181.1624599422695
 72
     1
 10
287.3392398114406
 20
181.1624599422695
 11
287.3392398114406
 21
197.1647599422697
 72
     1
 10
287.3392398114406
 20
197.1647599422697
 11
272.7150932785917
 21
197.1647599422697
 72
     1
 10
272.7150932785916
 20
197.1647599422697
 11
272.7150932785916
 21
181.1624599422695
 97
        0
 75
     0
 76
     1
 52
45.0
 41
1.889763779600006
 77
     0
 78
     1
 53
45.0
 43
137.7313039513671
 44
-77.0234054372529
 45
-4.242640687119286
 46
4.242640687119286
 79
     0
 98
        0
  0
HATCH
  5
404D
330
A
100
AcDbEntity
  8
MODEL
100
AcDbHatch
 10
0.0
 20
0.0
 30
0.0
210
0.0
220
0.0
230
1.0
  2
LINE
 70
     0
 71
     0
 91
        1
 92
        1
 93
        5
 72
     1
 10
287.3392398114406
 20
197.1647599422697
 11
287.3392398114406
 21
181.1624599422695
 72
     1
 10
287.3392398114406
 20
181.1624599422695
 11
293.3392387224333
 21
181.1624599422695
 72
     1
 10
293.3392387224334
 20
181.1624599422695
 11
293.3392387224334
 21
195.1624599422695
 72
     1
 10
293.3392387224334
 20
195.1624599422695
 11
293.3392387224334
 21
197.1647599422697
 72
     1
 10
293.3392387224334
 20
197.1647599422697
 11
287.3392398114407
 21
197.1647599422697
 97
        0
 75
     0
 76
     1
 52
315.0
 41
1.8897637796
 77
     0
 78
     1
 53
315.0
 43
137.7313039513671
 44
-77.0234054372529
 45
4.242640687119286
 46
4.242640687119286
 79
     0
 98
        0
  0
LINE
  5
4050
330
A
100
AcDbEntity
  8
MODEL
100
AcDbLine
 10
287.3392398113671
 20
197.164759942347
 30
0.0
 11
287.3392398113671
 21
181.1624599423471
 31
0.0
  0
LINE
  5
4051
330
A
100
AcDbEntity
  8
MODEL
100
AcDbLine
 10
293.339238722367
 20
197.164759942347
 30
0.0
 11
272.7150932785671
 21
197.164759942347
 31
0.0
  0
LINE
  5
4052
330
A
100
AcDbEntity
  8
MODEL
100
AcDbLine
 10
287.3392398113671
 20
232.164759942347
 30
0.0
 11
287.3392398113671
 21
248.1670599423472
 31
0.0
  0
LINE
  5
4053
330
A
100
AcDbEntity
  8
MODEL
100
AcDbLine
 10
293.339238722367
 20
232.164759942347
 30
0.0
 11
272.7150932785671
 21
232.164759942347
 31
0.0
  0
LINE
  5
4054
330
A
100
AcDbEntity
  8
MODEL
100
AcDbLine
 10
293.339238722367
 20
165.6647599423471
 30
0.0
 11
293.339238722367
 21
263.6647599423472
 31
0.0
  0
CIRCLE
  5
40EE
330
A
100
AcDbEntity
  8
MODEL
100
AcDbCircle
 10
91.5534538003588
 20
507.9207247411661
 30
0.0
 40
17.5
  0
ARC
  5
40EF
330
A
100
AcDbEntity
  8
MODEL
100
AcDbCircle
 10
91.5534538003586
 20
214.6647599423471
 30
0.0
 40
35.0
100
AcDbArc
 50
276.5624278685996
 51
353.4375721313998
  0
ARC
  5
40F0
330
A
100
AcDbEntity
  8
MODEL
100
AcDbCircle
 10
91.5534538003586
 20
214.6647599423471
 30
0.0
 40
35.0
100
AcDbArc
 50
186.5624278686001
 51
263.4375721314
  0
ARC
  5
40F1
330
A
100
AcDbEntity
  8
MODEL
100
AcDbCircle
 10
91.5534538003586
 20
214.6647599423471
 30
0.0
 40
35.0
100
AcDbArc
 50
96.56242786860007
 51
173.4375721313998
  0
ARC
  5
40F2
330
A
100
AcDbEntity
  8
MODEL
100
AcDbCircle
 10
91.5534538003586
 20
214.6647599423471
 30
0.0
 40
35.0
100
AcDbArc
 50
6.562427868599872
 51
83.43757213140034
  0
ARC
  5
40F3
330
A
100
AcDbEntity
  8
MODEL
100
AcDbCircle
 10
91.5534538003586
 20
214.6647599423471
 30
0.0
 40
15.0
100
AcDbArc
 50
285.4660099533997
 51
344.5339900465995
  0
ARC
  5
40F4
330
A
100
AcDbEntity
  8
MODEL
100
AcDbCircle
 10
91.5534538003586
 20
214.6647599423471
 30
0.0
 40
15.0
100
AcDbArc
 50
195.4660099534003
 51
254.5339900465993
  0
ARC
  5
40F5
330
A
100
AcDbEntity
  8
MODEL
100
AcDbCircle
 10
91.5534538003586
 20
214.6647599423471
 30
0.0
 40
15.0
100
AcDbArc
 50
105.4660099534007
 51
164.5339900466002
  0
ARC
  5
40F6
330
A
100
AcDbEntity
  8
MODEL
100
AcDbCircle
 10
91.5534538003586
 20
214.6647599423471
 30
0.0
 40
15.0
100
AcDbArc
 50
15.46600995339982
 51
74.53399004660014
  0
ARC
  5
40F7
330
A
100
AcDbEntity
  8
MODEL
100
AcDbCircle
 10
91.5534538003586
 20
214.6647599423471
 30
0.0
 40
8.200000000000003
100
AcDbArc
 50
29.19640440959938
 51
60.80359559040067
  0
ARC
  5
40F8
330
A
100
AcDbEntity
  8
MODEL
100
AcDbCircle
 10
91.5534538003586
 20
214.6647599423471
 30
0.0
 40
8.200000000000005
100
AcDbArc
 50
119.1964044095993
 51
150.8035955904006
  0
ARC
  5
40F9
330
A
100
AcDbEntity
  8
MODEL
100
AcDbCircle
 10
91.5534538003586
 20
214.6647599423471
 30
0.0
 40
8.200000000000005
100
AcDbArc
 50
209.1964044096002
 51
240.8035955904007
  0
ARC
  5
40FA
330
A
100
AcDbEntity
  8
MODEL
100
AcDbCircle
 10
91.5534538003586
 20
214.6647599423471
 30
0.0
 40
8.200000000000005
100
AcDbArc
 50
299.1964044095992
 51
330.8035955903995
  0
ARC
  5
40FB
330
A
100
AcDbEntity
  8
MODEL
100
AcDbCircle
 10
66.23202522895858
 20
214.6647599423471
 30
0.0
 40
11.7785714285714
100
AcDbArc
 50
161.1241601598006
 51
198.8758398402005
  0
LINE
  5
40FC
330
A
100
AcDbEntity
  8
MODEL
100
AcDbLine
 10
55.35182555715855
 20
210.6647599423471
 30
0.0
 11
84.46229878755852
 21
210.6647599423471
 31
0.0
  0
LINE
  5
40FD
330
A
100
AcDbEntity
  8
MODEL
100
AcDbLine
 10
84.46229878755852
 20
218.6647599423471
 30
0.0
 11
55.35182555715855
 21
218.6647599423471
 31
0.0
  0
ARC
  5
40FE
330
A
100
AcDbEntity
  8
MODEL
100
AcDbCircle
 10
91.5534538003586
 20
239.9861885137472
 30
0.0
 40
11.77857142856588
100
AcDbArc
 50
71.12416015980091
 51
108.8758398402003
  0
LINE
  5
40FF
330
A
100
AcDbEntity
  8
MODEL
100
AcDbLine
 10
87.5534538003586
 20
250.8663881855471
 30
0.0
 11
87.5534538003586
 21
221.7559079265471
 31
0.0
  0
LINE
  5
4100
330
A
100
AcDbEntity
  8
MODEL
100
AcDbLine
 10
95.5534538003586
 20
221.7559079265471
 30
0.0
 11
95.5534538003586
 21
250.8663881855471
 31
0.0
  0
ARC
  5
4101
330
A
100
AcDbEntity
  8
MODEL
100
AcDbCircle
 10
116.8748823717584
 20
214.6647599423471
 30
0.0
 40
11.77857142857096
100
AcDbArc
 50
341.1241601597998
 51
0.0
  0
ARC
  5
4102
330
A
100
AcDbEntity
  8
MODEL
100
AcDbCircle
 10
116.8748823717584
 20
214.6647599423471
 30
0.0
 40
11.77857142857095
100
AcDbArc
 50
0.0
 51
18.87583984020003
  0
LINE
  5
4103
330
A
100
AcDbEntity
  8
MODEL
100
AcDbLine
 10
98.64460881295858
 20
210.6647599423471
 30
0.0
 11
127.7550820435586
 21
210.6647599423471
 31
0.0
  0
LINE
  5
4104
330
A
100
AcDbEntity
  8
MODEL
100
AcDbLine
 10
127.7550820435586
 20
218.6647599423471
 30
0.0
 11
98.64460881295858
 21
218.6647599423471
 31
0.0
  0
ARC
  5
4105
330
A
100
AcDbEntity
  8
MODEL
100
AcDbCircle
 10
91.5534538003586
 20
189.343331370747
 30
0.0
 40
11.77857142857582
100
AcDbArc
 50
251.1241601597999
 51
288.8758398401989
  0
LINE
  5
4106
330
A
100
AcDbEntity
  8
MODEL
100
AcDbLine
 10
87.5534538003586
 20
207.5737159893471
 30
0.0
 11
87.5534538003586
 21
178.4631316991471
 31
0.0
  0
LINE
  5
4107
330
A
100
AcDbEntity
  8
MODEL
100
AcDbLine
 10
95.5534538003586
 20
178.4631316991471
 30
0.0
 11
95.5534538003586
 21
207.5737159893471
 31
0.0
  0
ARC
  5
4108
330
A
100
AcDbEntity
  8
MODEL
100
AcDbCircle
 10
55.35182555715855
 20
218.3847599423472
 30
0.0
 40
0.2799999999999994
100
AcDbArc
 50
90.0
 51
161.1241601597978
  0
ARC
  5
4109
330
A
100
AcDbEntity
  8
MODEL
100
AcDbCircle
 10
55.35182555715855
 20
210.9447599423471
 30
0.0
 40
0.28
100
AcDbArc
 50
198.8758398402022
 51
270.0
  0
ARC
  5
410A
330
A
100
AcDbEntity
  8
MODEL
100
AcDbCircle
 10
87.83345380035857
 20
178.4631316991471
 30
0.0
 40
0.279999999999999
100
AcDbArc
 50
180.0
 51
251.1241601597982
  0
ARC
  5
410B
330
A
100
AcDbEntity
  8
MODEL
100
AcDbCircle
 10
95.2734538003584
 20
178.4631316991471
 30
0.0
 40
0.2799999999999826
100
AcDbArc
 50
288.8758398402036
 51
0.0
  0
ARC
  5
410C
330
A
100
AcDbEntity
  8
MODEL
100
AcDbCircle
 10
127.7550820435586
 20
210.9447599423471
 30
0.0
 40
0.2799999999999998
100
AcDbArc
 50
270.0
 51
341.1241601597735
  0
ARC
  5
410D
330
A
100
AcDbEntity
  8
MODEL
100
AcDbCircle
 10
127.7550820435586
 20
218.3847599423472
 30
0.0
 40
0.2800000000000002
100
AcDbArc
 50
18.8758398402266
 51
90.0
  0
ARC
  5
410E
330
A
100
AcDbEntity
  8
MODEL
100
AcDbCircle
 10
95.2734538003584
 20
250.8663881855471
 30
0.0
 40
0.2800000000000008
100
AcDbArc
 50
0.0
 51
71.1241601598976
  0
ARC
  5
410F
330
A
100
AcDbEntity
  8
MODEL
100
AcDbCircle
 10
87.83345380035857
 20
250.8663881855471
 30
0.0
 40
0.2800000000002224
100
AcDbArc
 50
108.8758398401389
 51
180.0
  0
ARC
  5
4110
330
A
100
AcDbEntity
  8
MODEL
100
AcDbCircle
 10
95.80624353075845
 20
221.7384107609471
 30
0.0
 40
0.2498750297830424
100
AcDbArc
 50
176.1406368856036
 51
227.5844735728484
  0
ARC
  5
4111
330
A
100
AcDbEntity
  8
MODEL
100
AcDbCircle
 10
87.28093270835856
 20
221.7487631409471
 30
0.0
 40
0.2713836085105254
100
AcDbArc
 50
314.0034707767658
 51
1.319510716308033
  0
ARC
  5
4112
330
A
100
AcDbEntity
  8
MODEL
100
AcDbCircle
 10
98.62681465435853
 20
210.412430197147
 30
0.0
 40
0.2493645772676858
100
AcDbArc
 50
86.05603852961178
 51
137.6149261593929
  0
ARC
  5
4113
330
A
100
AcDbEntity
  8
MODEL
100
AcDbCircle
 10
98.63934328475861
 20
218.9402588215471
 30
0.0
 40
0.2750842540755348
100
AcDbArc
 50
224.1728071223094
 51
271.1978489927134
  0
ARC
  5
4114
330
A
100
AcDbEntity
  8
MODEL
100
AcDbCircle
 10
87.30064049975849
 20
207.5910990597471
 30
0.0
 40
0.2498983579638016
100
AcDbArc
 50
356.1642156048025
 51
47.58204028428963
  0
ARC
  5
4115
330
A
100
AcDbEntity
  8
MODEL
100
AcDbCircle
 10
95.82601806935858
 20
207.5807263119472
 30
0.0
 40
0.2714354933777818
100
AcDbArc
 50
134.005563954327
 51
181.2955191450213
  0
ARC
  5
4116
330
A
100
AcDbEntity
  8
MODEL
100
AcDbCircle
 10
84.47685928015844
 20
218.9223339921471
 30
0.0
 40
0.2551618460907468
100
AcDbArc
 50
266.9284557702147
 51
317.2320245494563
  0
ARC
  5
4117
330
A
100
AcDbEntity
  8
MODEL
100
AcDbCircle
 10
84.47663468415848
 20
210.4046846719472
 30
0.0
 40
0.2575226293938898
100
AcDbArc
 50
43.12798757688554
 51
93.09857541496841
  0
CIRCLE
  5
4118
330
A
100
AcDbEntity
  8
MODEL
100
AcDbCircle
 10
91.5534538003586
 20
214.6647599423471
 30
0.0
 40
8.0
  0
LINE
  5
4167
330
A
100
AcDbEntity
  8
MODEL
100
AcDbLine
 10
106.3534538003586
 20
322.4930365374906
 30
0.0
 11
76.75345380035873
 21
322.4930365374906
 31
0.0
  0
LINE
  5
4168
330
A
100
AcDbEntity
  8
MODEL
100
AcDbLine
 10
106.2534538003587
 20
318.8930365374906
 30
0.0
 11
76.85345380035864
 21
318.8930365374906
 31
0.0
  0
LINE
  5
4169
330
A
100
AcDbEntity
  8
MODEL
100
AcDbLine
 10
76.55345380035868
 20
322.2930365374905
 30
0.0
 11
76.55345380035868
 21
319.1930365374905
 31
0.0
  0
LINE
  5
416A
330
A
100
AcDbEntity
  8
MODEL
100
AcDbLine
 10
106.5534538003587
 20
319.1930365374905
 30
0.0
 11
106.5534538003587
 21
322.2930365374905
 31
0.0
  0
ARC
  5
416B
330
A
100
AcDbEntity
  8
MODEL
100
AcDbCircle
 10
106.3534538003586
 20
322.2930365374905
 30
0.0
 40
0.1999999999999988
100
AcDbArc
 50
0.0
 51
90.0
  0
ARC
  5
416C
330
A
100
AcDbEntity
  8
MODEL
100
AcDbCircle
 10
76.75345380035873
 20
322.2930365374905
 30
0.0
 40
0.1999999999999988
100
AcDbArc
 50
90.0
 51
180.0
  0
ARC
  5
416D
330
A
100
AcDbEntity
  8
MODEL
100
AcDbCircle
 10
106.2534538003587
 20
319.1930365374905
 30
0.0
 40
0.3000000000000016
100
AcDbArc
 50
270.0
 51
0.0
  0
ARC
  5
416E
330
A
100
AcDbEntity
  8
MODEL
100
AcDbCircle
 10
76.85345380035864
 20
319.1930365374905
 30
0.0
 40
0.3
100
AcDbArc
 50
180.0
 51
270.0
  0
LINE
  5
416F
330
A
100
AcDbEntity
  8
MODEL
100
AcDbLine
 10
56.55345380035868
 20
363.4746439488906
 30
0.0
 11
126.5534538003587
 21
363.4746439488906
 31
0.0
  0
LINE
  5
4170
330
A
100
AcDbEntity
  8
MODEL
100
AcDbLine
 10
126.1134538003586
 20
355.7746439488905
 30
0.0
 11
56.99345380035874
 21
355.7746439488907
 31
0.0
  0
LINE
  5
4171
330
A
100
AcDbEntity
  8
MODEL
100
AcDbLine
 10
107.0621051687587
 20
372.6746439488904
 30
0.0
 11
76.04480243195866
 21
372.6746439488904
 31
0.0
  0
LINE
  5
4172
330
A
100
AcDbEntity
  8
MODEL
100
AcDbLine
 10
56.55345380035868
 20
363.4746439488906
 30
0.0
 11
56.55345380035868
 21
356.2146439488907
 31
0.0
  0
LINE
  5
4173
330
A
100
AcDbEntity
  8
MODEL
100
AcDbLine
 10
126.5534538003587
 20
356.2146439488907
 30
0.0
 11
126.5534538003587
 21
363.4746439488906
 31
0.0
  0
ARC
  5
4174
330
A
100
AcDbEntity
  8
MODEL
100
AcDbCircle
 10
56.99345380035874
 20
356.2146439488907
 30
0.0
 40
0.4400000000000028
100
AcDbArc
 50
180.0
 51
270.0
  0
ARC
  5
4175
330
A
100
AcDbEntity
  8
MODEL
100
AcDbCircle
 10
126.1134538003586
 20
356.2146439488907
 30
0.0
 40
0.4400000000000002
100
AcDbArc
 50
270.0
 51
0.0
  0
LINE
  5
4176
330
A
100
AcDbEntity
  8
MODEL
100
AcDbLine
 10
107.7140403977587
 20
363.4746439488906
 30
0.0
 11
107.5620290163587
 21
372.1833701520904
 31
0.0
  0
LINE
  5
4177
330
A
100
AcDbEntity
  8
MODEL
100
AcDbLine
 10
75.54487858435863
 20
372.1833701520904
 30
0.0
 11
75.39286720295871
 21
363.4746439488906
 31
0.0
  0
ARC
  5
4178
330
A
100
AcDbEntity
  8
MODEL
100
AcDbCircle
 10
76.04480243195866
 20
372.1746439488904
 30
0.0
 40
0.5000000000000004
100
AcDbArc
 50
90.0
 51
178.9999999999983
  0
ARC
  5
4179
330
A
100
AcDbEntity
  8
MODEL
100
AcDbCircle
 10
107.0621051687587
 20
372.1746439488904
 30
0.0
 40
0.5000000000000002
100
AcDbArc
 50
1.000000000001762
 51
90.0
  0
LINE
  5
417A
330
A
100
AcDbEntity
  8
MODEL
100
AcDbLine
 10
99.25345380035873
 20
298.8946439488903
 30
0.0
 11
83.85345380035864
 21
298.8946439488903
 31
0.0
  0
CIRCLE
  5
417B
330
A
100
AcDbEntity
  8
MODEL
100
AcDbCircle
 10
91.55345380035868
 20
305.1746440182905
 30
0.0
 40
4.0
  0
ARC
  5
417C
330
A
100
AcDbEntity
  8
MODEL
100
AcDbCircle
 10
105.9608697837587
 20
305.1746441420905
 30
0.0
 40
7.317460327491376
100
AcDbArc
 50
146.8633486776002
 51
213.1366384983998
  0
ARC
  5
417D
330
A
100
AcDbEntity
  8
MODEL
100
AcDbCircle
 10
77.14603770995876
 20
305.1746441398903
 30
0.0
 40
7.31746041823414
100
AcDbArc
 50
326.8633617370011
 51
33.13665087750017
  0
ARC
  5
417E
330
A
100
AcDbEntity
  8
MODEL
100
AcDbCircle
 10
99.25345380035873
 20
299.1946439488904
 30
0.0
 40
0.3000000000000086
100
AcDbArc
 50
270.0
 51
0.0
  0
ARC
  5
417F
330
A
100
AcDbEntity
  8
MODEL
100
AcDbCircle
 10
83.85345380035864
 20
299.1946439488904
 30
0.0
 40
0.3
100
AcDbArc
 50
180.0
 51
270.0
  0
ARC
  5
4180
330
A
100
AcDbEntity
  8
MODEL
100
AcDbCircle
 10
116.8748823717587
 20
305.1746440182905
 30
0.0
 40
11.77857142856565
100
AcDbArc
 50
341.1241601597993
 51
18.8758398401995
  0
LINE
  5
4181
330
A
100
AcDbEntity
  8
MODEL
100
AcDbLine
 10
127.7550820435587
 20
309.1746440182905
 30
0.0
 11
99.83345380035865
 21
309.1746440182905
 31
0.0
  0
LINE
  5
4182
330
A
100
AcDbEntity
  8
MODEL
100
AcDbLine
 10
99.83345380035865
 20
301.1746440182905
 30
0.0
 11
127.7550820435587
 21
301.1746440182905
 31
0.0
  0
ARC
  5
4183
330
A
100
AcDbEntity
  8
MODEL
100
AcDbCircle
 10
66.23202522895866
 20
305.1746440182907
 30
0.0
 40
11.77857142857582
100
AcDbArc
 50
161.1241601597999
 51
198.8758398402001
  0
LINE
  5
4184
330
A
100
AcDbEntity
  8
MODEL
100
AcDbLine
 10
83.27345380035871
 20
309.1746440182905
 30
0.0
 11
55.35182555715863
 21
309.1746440182907
 31
0.0
  0
LINE
  5
4185
330
A
100
AcDbEntity
  8
MODEL
100
AcDbLine
 10
55.35182555715863
 20
301.1746440182907
 30
0.0
 11
83.27351432955874
 21
301.1746440182905
 31
0.0
  0
ARC
  5
4186
330
A
100
AcDbEntity
  8
MODEL
100
AcDbCircle
 10
55.35182555715863
 20
308.8946440182906
 30
0.0
 40
0.2800000000000024
100
AcDbArc
 50
90.0
 51
161.1241601597983
  0
ARC
  5
4187
330
A
100
AcDbEntity
  8
MODEL
100
AcDbCircle
 10
55.35182555715863
 20
301.4546440182905
 30
0.0
 40
0.2800000000000018
100
AcDbArc
 50
198.8758398402017
 51
270.0
  0
ARC
  5
4188
330
A
100
AcDbEntity
  8
MODEL
100
AcDbCircle
 10
127.7550820435587
 20
301.4546440182905
 30
0.0
 40
0.2800000000000024
100
AcDbArc
 50
270.0
 51
341.1241601598957
  0
ARC
  5
4189
330
A
100
AcDbEntity
  8
MODEL
100
AcDbCircle
 10
127.7550820435587
 20
308.8946440182905
 30
0.0
 40
0.2800000000002232
100
AcDbArc
 50
18.87583984008737
 51
90.0
  0
ARC
  5
418A
330
A
100
AcDbEntity
  8
MODEL
100
AcDbCircle
 10
99.8217246165587
 20
309.4481828070903
 30
0.0
 40
0.2671198414200744
100
AcDbArc
 50
178.8075405370956
 51
253.7993729955858
  0
ARC
  5
418B
330
A
100
AcDbEntity
  8
MODEL
100
AcDbCircle
 10
99.82324348635865
 20
300.9090264866904
 30
0.0
 40
0.2630699583766106
100
AcDbArc
 50
87.79192200379507
 51
162.8687696373913
  0
ARC
  5
418C
330
A
100
AcDbEntity
  8
MODEL
100
AcDbCircle
 10
99.77200565355878
 20
300.8969282678906
 30
0.0
 40
0.2192949425397532
100
AcDbArc
 50
155.8875110560485
 51
193.7071739239362
  0
ARC
  5
418D
330
A
100
AcDbEntity
  8
MODEL
100
AcDbCircle
 10
83.32869451715868
 20
300.8953413930906
 30
0.0
 40
0.2253043672253292
100
AcDbArc
 50
347.4527559068692
 51
19.46322584951514
  0
ARC
  5
418E
330
A
100
AcDbEntity
  8
MODEL
100
AcDbCircle
 10
83.28400469555862
 20
300.9058408874905
 30
0.0
 40
0.2651035941823262
100
AcDbArc
 50
14.09757225431648
 51
92.24026362368275
  0
ARC
  5
418F
330
A
100
AcDbEntity
  8
MODEL
100
AcDbCircle
 10
83.27620479495869
 20
309.4528815664905
 30
0.0
 40
0.2771005124403014
100
AcDbArc
 50
266.4734827945923
 51
0.187265408789673
  0
LINE
  5
4190
330
A
100
AcDbEntity
  8
MODEL
100
AcDbLine
 10
83.55345380035868
 20
300.8946440182905
 30
0.0
 11
83.55345380035868
 21
299.1946439488904
 31
0.0
  0
LINE
  5
4191
330
A
100
AcDbEntity
  8
MODEL
100
AcDbLine
 10
83.55345380035868
 20
318.8930365374906
 30
0.0
 11
83.55345380035868
 21
309.4546440182905
 31
0.0
  0
LINE
  5
4192
330
A
100
AcDbEntity
  8
MODEL
100
AcDbLine
 10
99.55345380035868
 20
309.4546440182905
 30
0.0
 11
99.55345380035868
 21
318.8930365374906
 31
0.0
  0
LINE
  5
4193
330
A
100
AcDbEntity
  8
MODEL
100
AcDbLine
 10
99.55345380035868
 20
299.1946439488904
 30
0.0
 11
99.55345380035868
 21
300.8946440182905
 31
0.0
  0
LINE
  5
4194
330
A
100
AcDbEntity
  8
MODEL
100
AcDbLine
 10
99.25345380035873
 20
296.8946439488903
 30
0.0
 11
83.85345380035864
 21
296.8946439488903
 31
0.0
  0
LINE
  5
4195
330
A
100
AcDbEntity
  8
MODEL
100
AcDbLine
 10
99.25345380035873
 20
298.8946439488903
 30
0.0
 11
83.85345380035864
 21
298.8946439488903
 31
0.0
  0
LINE
  5
4196
330
A
100
AcDbEntity
  8
MODEL
100
AcDbLine
 10
99.55345380035868
 20
297.1946439488904
 30
0.0
 11
99.55345380035868
 21
298.5946439488905
 31
0.0
  0
LINE
  5
4197
330
A
100
AcDbEntity
  8
MODEL
100
AcDbLine
 10
83.55345380035868
 20
298.5946439488905
 30
0.0
 11
83.55345380035868
 21
297.1946439488904
 31
0.0
  0
ARC
  5
4198
330
A
100
AcDbEntity
  8
MODEL
100
AcDbCircle
 10
99.25345380035873
 20
297.1946439488904
 30
0.0
 40
0.2999999999999948
100
AcDbArc
 50
270.0
 51
0.0
  0
ARC
  5
4199
330
A
100
AcDbEntity
  8
MODEL
100
AcDbCircle
 10
83.85345380035864
 20
297.1946439488904
 30
0.0
 40
0.3000000000000008
100
AcDbArc
 50
180.0
 51
270.0
  0
ARC
  5
419A
330
A
100
AcDbEntity
  8
MODEL
100
AcDbCircle
 10
83.85345380035864
 20
298.5946439488905
 30
0.0
 40
0.3000000000000086
100
AcDbArc
 50
90.0
 51
180.0
  0
ARC
  5
419B
330
A
100
AcDbEntity
  8
MODEL
100
AcDbCircle
 10
99.25345380035873
 20
298.5946439488905
 30
0.0
 40
0.3000000000000016
100
AcDbArc
 50
0.0
 51
90.0
  0
LINE
  5
419C
330
A
100
AcDbEntity
  8
MODEL
100
AcDbLine
 10
106.3534538003586
 20
322.4930365374906
 30
0.0
 11
76.75345380035873
 21
322.4930365374906
 31
0.0
  0
LINE
  5
419D
330
A
100
AcDbEntity
  8
MODEL
100
AcDbLine
 10
106.5534538003587
 20
322.6930365374905
 30
0.0
 11
106.5534538003587
 21
355.7746439488905
 31
0.0
  0
LINE
  5
419E
330
A
100
AcDbEntity
  8
MODEL
100
AcDbLine
 10
76.55345380035868
 20
355.7746439488905
 30
0.0
 11
76.55345380035868
 21
322.6930365374905
 31
0.0
  0
ARC
  5
419F
330
A
100
AcDbEntity
  8
MODEL
100
AcDbCircle
 10
76.75345380035873
 20
322.6930365374905
 30
0.0
 40
0.2000000000000006
100
AcDbArc
 50
180.0
 51
270.0
  0
ARC
  5
41A0
330
A
100
AcDbEntity
  8
MODEL
100
AcDbCircle
 10
106.3534538003586
 20
322.6930365374905
 30
0.0
 40
0.2000000000000058
100
AcDbArc
 50
270.0
 51
0.0
  0
LINE
  5
41A1
330
A
100
AcDbEntity
  8
MODEL
100
AcDbLine
 10
60.12579608995867
 20
363.4746439488906
 30
0.0
 11
84.37416252355871
 21
363.4746439488906
 31
0.0
  0
HATCH
  5
41A3
330
A
100
AcDbEntity
  8
MODEL
100
AcDbHatch
 10
0.0
 20
0.0
 30
0.0
210
0.0
220
0.0
230
1.0
  2
LINE
 70
     0
 71
     0
 91
        1
 92
        1
 93
        4
 72
     1
 10
125.0557538003874
 20
369.474642859817
 11
125.0557538003874
 21
384.098789392666
 72
     1
 10
125.0557538003875
 20
384.098789392666
 11
109.0534538003877
 21
384.098789392666
 72
     1
 10
109.0534538003877
 20
384.098789392666
 11
109.0534538003877
 21
369.474642859817
 72
     1
 10
109.0534538003876
 20
369.474642859817
 11
125.0557538003874
 21
369.474642859817
 97
        0
 75
     0
 76
     1
 52
315.0
 41
1.889763779600003
 77
     0
 78
     1
 53
315.0
 43
-387.9674280416413
 44
519.0825787198908
 45
4.242640687119287
 46
4.242640687119285
 79
     0
 98
        0
  0
HATCH
  5
41A4
330
A
100
AcDbEntity
  8
MODEL
100
AcDbHatch
 10
0.0
 20
0.0
 30
0.0
210
0.0
220
0.0
230
1.0
  2
LINE
 70
     0
 71
     0
 91
        1
 92
        1
 93
        5
 72
     1
 10
125.0557538003874
 20
369.474642859817
 11
109.0534538003876
 21
369.474642859817
 72
     1
 10
109.0534538003876
 20
369.474642859817
 11
109.0534538003876
 21
363.4746439488244
 72
     1
 10
109.0534538003876
 20
363.4746439488243
 11
111.0557538003875
 21
363.4746439488243
 72
     1
 10
111.0557538003873
 20
363.4746439488243
 11
125.0557538003875
 21
363.4746439488243
 72
     1
 10
125.0557538003874
 20
363.4746439488243
 11
125.0557538003874
 21
369.4746428598168
 97
        0
 75
     0
 76
     1
 52
225.0
 41
1.8897637796
 77
     0
 78
     1
 53
225.0
 43
-387.9674280416413
 44
519.0825787198908
 45
4.242640687119285
 46
-4.242640687119287
 79
     0
 98
        0
  0
HATCH
  5
41A5
330
A
100
AcDbEntity
  8
MODEL
100
AcDbHatch
 10
0.0
 20
0.0
 30
0.0
210
0.0
220
0.0
230
1.0
  2
LINE
 70
     0
 71
     0
 91
        1
 92
        1
 93
        4
 72
     1
 10
58.05115380038762
 20
384.098789392666
 11
58.05115380038762
 21
369.4746428598172
 72
     1
 10
58.05115380038757
 20
369.4746428598172
 11
74.05345380038779
 21
369.4746428598172
 72
     1
 10
74.05345380038767
 20
369.4746428598172
 11
74.05345380038767
 21
384.098789392666
 72
     1
 10
74.05345380038773
 20
384.098789392666
 11
58.05115380038751
 21
384.098789392666
 97
        0
 75
     0
 76
     1
 52
315.0
 41
1.889763779600003
 77
     0
 78
     1
 53
315.0
 43
-356.9720280416412
 44
519.0825787198908
 45
4.242640687119287
 46
4.242640687119285
 79
     0
 98
        0
  0
HATCH
  5
41A6
330
A
100
AcDbEntity
  8
MODEL
100
AcDbHatch
 10
0.0
 20
0.0
 30
0.0
210
0.0
220
0.0
230
1.0
  2
LINE
 70
     0
 71
     0
 91
        1
 92
        1
 93
        5
 72
     1
 10
74.05345380038767
 20
369.4746428598172
 11
58.05115380038745
 21
369.4746428598172
 72
     1
 10
58.05115380038757
 20
369.4746428598172
 11
58.05115380038757
 21
363.4746439488245
 72
     1
 10
58.05115380038757
 20
363.4746439488243
 11
72.05115380038757
 21
363.4746439488243
 72
     1
 10
72.05115380038757
 20
363.4746439488243
 11
74.05345380038779
 21
363.4746439488243
 72
     1
 10
74.05345380038767
 20
363.4746439488243
 11
74.05345380038767
 21
369.474642859817
 97
        0
 75
     0
 76
     1
 52
225.0
 41
1.8897637796
 77
     0
 78
     1
 53
225.0
 43
-356.9720280416412
 44
519.0825787198908
 45
4.242640687119285
 46
-4.242640687119287
 79
     0
 98
        0
  0
LINE
  5
41A9
330
A
100
AcDbEntity
  8
MODEL
100
AcDbLine
 10
74.05345380035868
 20
369.4746428598906
 30
0.0
 11
58.05115380035869
 21
369.4746428598906
 31
0.0
  0
LINE
  5
41AA
330
A
100
AcDbEntity
  8
MODEL
100
AcDbLine
 10
74.05345380035868
 20
363.4746439488906
 30
0.0
 11
74.05345380035874
 21
384.0987893926908
 31
0.0
  0
LINE
  5
41AB
330
A
100
AcDbEntity
  8
MODEL
100
AcDbLine
 10
109.0534538003587
 20
369.4746428598905
 30
0.0
 11
125.0557538003586
 21
369.4746428598905
 31
0.0
  0
LINE
  5
41AC
330
A
100
AcDbEntity
  8
MODEL
100
AcDbLine
 10
109.0534538003587
 20
363.4746439488906
 30
0.0
 11
109.0534538003587
 21
384.0987893926905
 31
0.0
  0
LINE
  5
41AD
330
A
100
AcDbEntity
  8
MODEL
100
AcDbLine
 10
42.55345380035868
 20
363.4746439488906
 30
0.0
 11
140.5534538003587
 21
363.4746439488906
 31
0.0
  0
DIMENSION
  5
41B6
330
A
100
AcDbEntity
  8
DIM
100
AcDbDimension
  2
*D6
 10
301.0392387223671
 20
149.2071167008383
 30
0.0
 11
311.7975192736924
 21
149.2071167008383
 31
0.0
 70
   160
 71
     5
 42
7.700000000000102
 73
     0
 74
     1
 75
     1
  3
tfrom線あり
100
AcDbAlignedDimension
 13
293.339238722367
 23
165.6647599423471
 33
0.0
 14
301.0392387223671
 24
180.104759942347
 34
0.0
100
AcDbRotatedDimension
1001
ACAD
1000
DSTYLE
1002
{
1070
   172
1070
     1
1002
}
  0
DIMENSION
  5
41B7
330
A
100
AcDbEntity
  8
DIM
100
AcDbDimension
  2
*D7
 10
359.9192387223672
 20
135.3349092056703
 30
0.0
 11
326.6292374921671
 21
135.3349092056703
 31
0.0
 70
   160
  1
\A1;<>
 71
     5
 42
66.58000000000021
 73
     0
 74
     0
 75
     0
  3
tfrom線あり
100
AcDbAlignedDimension
 13
293.339238722367
 23
165.6647599423471
 33
0.0
 14
359.9192387223672
 24
206.964759942347
 34
0.0
100
AcDbRotatedDimension
  0
LINE
  5
4241
330
A
100
AcDbEntity
  8
DIM
100
AcDbLine
 10
296.969238722367
 20
249.6647599423472
 30
0.0
 11
308.2220832751515
 21
279.4528526933609
 31
0.0
  0
LINE
  5
4242
330
A
100
AcDbEntity
  8
DIM
100
AcDbLine
 10
308.2220832751515
 20
279.4528526933609
 30
0.0
 11
327.8341794696804
 21
279.4528526933609
 31
0.0
  0
MTEXT
  5
4276
330
A
100
AcDbEntity
  8
DIM
390
1D
100
AcDbMText
 10
312.3649123028281
 20
286.4186002956467
 30
0.0
 40
5.0
 41
379.8864500372819
 46
5.0
 71
     1
 72
     1
  1
{Ø70}
  7
ＭＳ ゴシック
 73
     1
 44
0.9822934569727008
1001
ACAD
1000
ACAD_MTEXT_DEFINED_HEIGHT_BEGIN
1070
    46
1040
5.0
1000
ACAD_MTEXT_DEFINED_HEIGHT_END
  0
LINE
  5
42E6
330
A
100
AcDbEntity
  8
DIM
100
AcDbLine
 10
105.0165411389157
 20
496.7405959711389
 30
0.0
 11
118.336714176
 21
475.5197698265036
 31
0.0
  0
LINE
  5
42E7
330
A
100
AcDbEntity
  8
DIM
100
AcDbLine
 10
118.336714176
 20
475.5197698265036
 30
0.0
 11
159.3876074880001
 21
475.5197698265036
 31
0.0
  0
MTEXT
  5
431A
330
A
100
AcDbEntity
  8
DIM
390
1D
100
AcDbMText
 10
120.6149370240001
 20
482.0481941465038
 30
0.0
 40
5.0
 41
379.886450037282
 46
5.585
 71
     1
 72
     1
  1
{Ø35(%%c35-%%c40)}
  7
ＭＳ ゴシック
 73
     1
 44
0.9822934569727008
1001
ACAD
1000
ACAD_MTEXT_DEFINED_HEIGHT_BEGIN
1070
    46
1040
5.585
1000
ACAD_MTEXT_DEFINED_HEIGHT_END
  0
LINE
  5
4505
330
A
100
AcDbEntity
  8
MODEL
100
AcDbLine
 10
76.05345380035857
 20
390.7142993948901
 30
0.0
 11
107.0534538003588
 21
390.7142993948901
 31
0.0
  0
LINE
  5
4506
330
A
100
AcDbEntity
  8
MODEL
100
AcDbLine
 10
76.05345380035857
 20
399.7142993948901
 30
0.0
 11
107.0534538003588
 21
399.7142993948901
 31
0.0
  0
LINE
  5
4507
330
A
100
AcDbEntity
  8
MODEL
100
AcDbLine
 10
76.05345380035857
 20
399.7142993948901
 30
0.0
 11
76.05345380035857
 21
390.7142993948901
 31
0.0
  0
LINE
  5
4508
330
A
100
AcDbEntity
  8
MODEL
100
AcDbLine
 10
107.0534538003588
 20
390.7142993948901
 30
0.0
 11
107.0534538003588
 21
399.7142993948901
 31
0.0
  0
LINE
  5
4509
330
A
100
AcDbEntity
  8
MODEL
100
AcDbLine
 10
105.5534538003588
 20
372.6746439488904
 30
0.0
 11
105.5534538003588
 21
390.7142993948901
 31
0.0
  0
LINE
  5
450A
330
A
100
AcDbEntity
  8
MODEL
100
AcDbLine
 10
104.6334538003587
 20
372.6746439488904
 30
0.0
 11
104.6334538003587
 21
390.7142993948901
 31
0.0
  0
LINE
  5
450B
330
A
100
AcDbEntity
  8
MODEL
100
AcDbLine
 10
78.47345380035841
 20
372.6746439488904
 30
0.0
 11
78.47345380035841
 21
390.7142993948901
 31
0.0
  0
LINE
  5
450C
330
A
100
AcDbEntity
  8
MODEL
100
AcDbLine
 10
77.55345380035857
 20
390.7142993948901
 30
0.0
 11
77.55345380035857
 21
372.6746439488904
 31
0.0
  0
ARC
  5
450D
330
A
100
AcDbEntity
  8
MODEL
100
AcDbCircle
 10
86.25345380035884
 20
443.3502693892771
 30
0.0
 40
8.000000000000002
100
AcDbArc
 50
101.8041911250001
 51
179.9999999996996
  0
ARC
  5
450E
330
A
100
AcDbEntity
  8
MODEL
100
AcDbCircle
 10
86.25345380035884
 20
443.3502693892771
 30
0.0
 40
8.000000000000815
100
AcDbArc
 50
93.00000000000038
 51
101.8041911250006
  0
LINE
  5
450F
330
A
100
AcDbEntity
  8
MODEL
100
AcDbLine
 10
85.83476615045885
 20
451.3393056672772
 30
0.0
 11
91.5534538003588
 21
451.6390093874772
 31
0.0
  0
LINE
  5
4510
330
A
100
AcDbEntity
  8
MODEL
100
AcDbLine
 10
97.27214145035879
 20
451.3393056672772
 30
0.0
 11
91.5534538003588
 21
451.6390093874772
 31
0.0
  0
ARC
  5
4511
330
A
100
AcDbEntity
  8
MODEL
100
AcDbCircle
 10
96.8530278054588
 20
443.3469903486771
 30
0.0
 40
8.003296845704055
100
AcDbArc
 50
78.1976258308006
 51
86.99818304420012
  0
ARC
  5
4512
330
A
100
AcDbEntity
  8
MODEL
100
AcDbCircle
 10
96.85345380035875
 20
443.3502693892771
 30
0.0
 40
8.000000000000009
100
AcDbArc
 50
0.0000000003004479
 51
78.19580887499986
  0
LINE
  5
4513
330
A
100
AcDbEntity
  8
MODEL
100
AcDbLine
 10
104.8534538003588
 20
442.7812300101772
 30
0.0
 11
104.8534538003588
 21
443.3502693892771
 31
0.0
  0
LINE
  5
4514
330
A
100
AcDbEntity
  8
MODEL
100
AcDbLine
 10
104.8534538003588
 20
428.4954652051771
 30
0.0
 11
104.8534538003588
 21
422.1529014266771
 31
0.0
  0
LINE
  5
4515
330
A
100
AcDbEntity
  8
MODEL
100
AcDbLine
 10
104.8534538003588
 20
422.1528767265772
 30
0.0
 11
104.8534538003588
 21
418.6186223204772
 31
0.0
  0
LINE
  5
4516
330
A
100
AcDbEntity
  8
MODEL
100
AcDbLine
 10
78.25345380035884
 20
428.4954793313771
 30
0.0
 11
78.25345380035884
 21
422.1529014407772
 31
0.0
  0
LINE
  5
4517
330
A
100
AcDbEntity
  8
MODEL
100
AcDbLine
 10
78.25345380035884
 20
422.1528769465772
 30
0.0
 11
78.25345380035884
 21
418.6177379545772
 31
0.0
  0
ARC
  5
4518
330
A
100
AcDbEntity
  8
MODEL
100
AcDbCircle
 10
90.39505959355898
 20
1524.490352281678
 30
0.0
 40
1103.607112601119
100
AcDbArc
 50
270.1144937849
 51
270.7035907766
  0
ARC
  5
4519
330
A
100
AcDbEntity
  8
MODEL
100
AcDbCircle
 10
91.9561966813589
 20
1411.127107254279
 30
0.0
 40
990.2433415229849
100
AcDbArc
 50
269.2595829423
 51
269.9162012427001
  0
LINE
  5
451A
330
A
100
AcDbEntity
  8
MODEL
100
AcDbLine
 10
91.5534538003588
 20
440.1532199044771
 30
0.0
 11
83.64848675155878
 21
440.5675016728771
 31
0.0
  0
LINE
  5
451B
330
A
100
AcDbEntity
  8
MODEL
100
AcDbLine
 10
91.5534538003588
 20
438.1115822833771
 30
0.0
 11
91.5534538003588
 21
438.0405770036771
 31
0.0
  0
LINE
  5
451C
330
A
100
AcDbEntity
  8
MODEL
100
AcDbLine
 10
84.09499415465876
 20
439.1798904855772
 30
0.0
 11
83.3487818878587
 21
439.2189978133771
 31
0.0
  0
LINE
  5
451D
330
A
100
AcDbEntity
  8
MODEL
100
AcDbLine
 10
99.01191344615876
 20
439.1798904855772
 30
0.0
 11
99.75812571285877
 21
439.2189978133771
 31
0.0
  0
LINE
  5
451E
330
A
100
AcDbEntity
  8
MODEL
100
AcDbLine
 10
99.45842084915881
 20
440.5675016728771
 30
0.0
 11
91.5534538003588
 21
440.1532199044771
 31
0.0
  0
ARC
  5
451F
330
A
100
AcDbEntity
  8
MODEL
100
AcDbCircle
 10
99.6534538003587
 20
441.2162568828772
 30
0.0
 40
2.0
100
AcDbArc
 50
273.0000000000023
 51
283.6774911304018
  0
ARC
  5
4520
330
A
100
AcDbEntity
  8
MODEL
100
AcDbCircle
 10
83.45345380035877
 20
441.2162568828772
 30
0.0
 40
2.0
100
AcDbArc
 50
256.2789813959992
 51
266.9999999999977
  0
LINE
  5
4521
330
A
100
AcDbEntity
  8
MODEL
100
AcDbLine
 10
104.8534538003588
 20
437.1347117154772
 30
0.0
 11
105.4534538003588
 21
437.1347117154772
 31
0.0
  0
LINE
  5
4522
330
A
100
AcDbEntity
  8
MODEL
100
AcDbLine
 10
104.8534538003588
 20
435.6390093874772
 30
0.0
 11
105.4534538003588
 21
435.6390093874772
 31
0.0
  0
LINE
  5
4523
330
A
100
AcDbEntity
  8
MODEL
100
AcDbLine
 10
104.8534538003588
 20
434.1433070593772
 30
0.0
 11
105.4534538003588
 21
434.1433070593772
 31
0.0
  0
LINE
  5
4524
330
A
100
AcDbEntity
  8
MODEL
100
AcDbLine
 10
104.8534538003588
 20
433.5000088040771
 30
0.0
 11
105.4534538003588
 21
433.5000088040771
 31
0.0
  0
LINE
  5
4525
330
A
100
AcDbEntity
  8
MODEL
100
AcDbLine
 10
104.8534538003588
 20
433.1390093874772
 30
0.0
 11
105.4534538003588
 21
433.1390093874772
 31
0.0
  0
LINE
  5
4526
330
A
100
AcDbEntity
  8
MODEL
100
AcDbLine
 10
104.8534538003588
 20
437.7780446614773
 30
0.0
 11
105.4534538003588
 21
437.7780446614773
 31
0.0
  0
LINE
  5
4527
330
A
100
AcDbEntity
  8
MODEL
100
AcDbLine
 10
104.8534538003588
 20
438.1390093874772
 30
0.0
 11
105.4534538003588
 21
438.1390093874772
 31
0.0
  0
LINE
  5
4528
330
A
100
AcDbEntity
  8
MODEL
100
AcDbLine
 10
105.4534538003588
 20
438.1390273969772
 30
0.0
 11
105.4534538003588
 21
437.7780446614773
 31
0.0
  0
LINE
  5
4529
330
A
100
AcDbEntity
  8
MODEL
100
AcDbLine
 10
105.4534538003588
 20
437.7780446614773
 30
0.0
 11
105.4534538003588
 21
437.1347117154772
 31
0.0
  0
LINE
  5
452A
330
A
100
AcDbEntity
  8
MODEL
100
AcDbLine
 10
105.4534538003588
 20
437.1347117154772
 30
0.0
 11
105.4534538003588
 21
435.6390093874772
 31
0.0
  0
LINE
  5
452B
330
A
100
AcDbEntity
  8
MODEL
100
AcDbLine
 10
105.4534538003588
 20
435.6390093874772
 30
0.0
 11
105.4534538003588
 21
434.1433070593772
 31
0.0
  0
LINE
  5
452C
330
A
100
AcDbEntity
  8
MODEL
100
AcDbLine
 10
105.4534538003588
 20
434.1433070593772
 30
0.0
 11
105.4534538003588
 21
433.5000088040771
 31
0.0
  0
LINE
  5
452D
330
A
100
AcDbEntity
  8
MODEL
100
AcDbLine
 10
105.4534538003588
 20
433.5000088040771
 30
0.0
 11
105.4534538003588
 21
433.1389903675772
 31
0.0
  0
LINE
  5
452E
330
A
100
AcDbEntity
  8
MODEL
100
AcDbLine
 10
104.8534538003588
 20
429.8368714710771
 30
0.0
 11
105.4534538003588
 21
429.8368714710771
 31
0.0
  0
LINE
  5
452F
330
A
100
AcDbEntity
  8
MODEL
100
AcDbLine
 10
104.8534538003588
 20
428.0994335901773
 30
0.0
 11
105.4534538003588
 21
428.0994335901773
 31
0.0
  0
LINE
  5
4530
330
A
100
AcDbEntity
  8
MODEL
100
AcDbLine
 10
104.8534538003588
 20
427.6665636601771
 30
0.0
 11
105.4534538003588
 21
427.6665636601771
 31
0.0
  0
LINE
  5
4531
330
A
100
AcDbEntity
  8
MODEL
100
AcDbLine
 10
104.8534538003588
 20
427.495957697777
 30
0.0
 11
105.4534538003588
 21
427.495957697777
 31
0.0
  0
LINE
  5
4532
330
A
100
AcDbEntity
  8
MODEL
100
AcDbLine
 10
104.8534538003588
 20
429.8371191775771
 30
0.0
 11
105.4534538003588
 21
429.8371191775771
 31
0.0
  0
LINE
  5
4533
330
A
100
AcDbEntity
  8
MODEL
100
AcDbLine
 10
105.4534538003588
 20
429.8371369175771
 30
0.0
 11
105.4534538003588
 21
429.8368714710771
 31
0.0
  0
LINE
  5
4534
330
A
100
AcDbEntity
  8
MODEL
100
AcDbLine
 10
105.4534538003588
 20
429.8368714710771
 30
0.0
 11
105.4534538003588
 21
429.0906443661772
 31
0.0
  0
LINE
  5
4535
330
A
100
AcDbEntity
  8
MODEL
100
AcDbLine
 10
105.4534538003588
 20
429.0906443661772
 30
0.0
 11
105.4534538003588
 21
428.3150123469771
 31
0.0
  0
LINE
  5
4536
330
A
100
AcDbEntity
  8
MODEL
100
AcDbLine
 10
105.4534538003588
 20
428.3150123469771
 30
0.0
 11
105.4534538003588
 21
428.0994335901773
 31
0.0
  0
LINE
  5
4537
330
A
100
AcDbEntity
  8
MODEL
100
AcDbLine
 10
105.4534538003588
 20
428.0994335901773
 30
0.0
 11
105.4534538003588
 21
427.6665636601771
 31
0.0
  0
LINE
  5
4538
330
A
100
AcDbEntity
  8
MODEL
100
AcDbLine
 10
105.4534538003588
 20
427.6665636601771
 30
0.0
 11
105.4534538003588
 21
427.495957697777
 31
0.0
  0
LINE
  5
4539
330
A
100
AcDbEntity
  8
MODEL
100
AcDbLine
 10
105.4534538003588
 20
427.495957697777
 30
0.0
 11
105.4534538003588
 21
424.6802461231771
 31
0.0
  0
LINE
  5
453A
330
A
100
AcDbEntity
  8
MODEL
100
AcDbLine
 10
78.25345380035884
 20
431.5706557324772
 30
0.0
 11
77.6534538003587
 21
431.5706557324772
 31
0.0
  0
LINE
  5
453B
330
A
100
AcDbEntity
  8
MODEL
100
AcDbLine
 10
77.6534538003587
 20
431.5706557324772
 30
0.0
 11
77.6534538003587
 21
432.1612069135771
 31
0.0
  0
LINE
  5
453C
330
A
100
AcDbEntity
  8
MODEL
100
AcDbLine
 10
77.6534538003587
 20
432.1612069135771
 30
0.0
 11
77.6534538003587
 21
436.1363447043771
 31
0.0
  0
LINE
  5
453D
330
A
100
AcDbEntity
  8
MODEL
100
AcDbLine
 10
77.6534538003587
 20
436.7268958854772
 30
0.0
 11
77.6534538003587
 21
436.1363398928772
 31
0.0
  0
LINE
  5
453E
330
A
100
AcDbEntity
  8
MODEL
100
AcDbLine
 10
78.25345380035884
 20
436.7269006973772
 30
0.0
 11
77.6534538003587
 21
436.7269006973772
 31
0.0
  0
LINE
  5
453F
330
A
100
AcDbEntity
  8
MODEL
100
AcDbLine
 10
78.25345380035884
 20
442.9154540180772
 30
0.0
 11
78.25345380035884
 21
443.3502693892771
 31
0.0
  0
LINE
  5
4540
330
A
100
AcDbEntity
  8
MODEL
100
AcDbLine
 10
78.25345380035884
 20
442.9172598101771
 30
0.0
 11
77.6534538003587
 21
442.9172598101771
 31
0.0
  0
LINE
  5
4541
330
A
100
AcDbEntity
  8
MODEL
100
AcDbLine
 10
78.25345380035884
 20
437.7610325720771
 30
0.0
 11
77.6534538003587
 21
437.7610325720771
 31
0.0
  0
LINE
  5
4542
330
A
100
AcDbEntity
  8
MODEL
100
AcDbLine
 10
77.6534538003587
 20
437.7610148455771
 30
0.0
 11
77.6534538003587
 21
438.4007786250772
 31
0.0
  0
LINE
  5
4543
330
A
100
AcDbEntity
  8
MODEL
100
AcDbLine
 10
77.6534538003587
 20
438.4007786250772
 30
0.0
 11
77.6534538003587
 21
442.2774905712772
 31
0.0
  0
LINE
  5
4544
330
A
100
AcDbEntity
  8
MODEL
100
AcDbLine
 10
77.6534538003587
 20
442.2774905712772
 30
0.0
 11
77.6534538003587
 21
442.9172598101771
 31
0.0
  0
ELLIPSE
  5
4545
330
A
100
AcDbEntity
  8
MODEL
100
AcDbEllipse
 10
91.5534538003588
 20
438.7896277379772
 30
0.0
 11
7.45841370995597
 21
0.395752351444616
 31
0.0
210
0.0
220
0.0
230
1.0
 40
0.0906559535
 41
4.70757870417282
 42
6.275085499517152
  0
ELLIPSE
  5
4546
330
A
100
AcDbEntity
  8
MODEL
100
AcDbEllipse
 10
91.5534538003588
 20
438.7896277379772
 30
0.0
 11
7.458413709955973
 21
-0.3957523514446193
 31
0.0
210
0.0
220
0.0
230
1.0
 40
0.0906559535
 41
3.149692461254232
 42
4.717199256596556
  0
LINE
  5
4547
330
A
100
AcDbEntity
  8
MODEL
100
AcDbLine
 10
84.09499415465876
 20
439.1798904855772
 30
0.0
 11
91.5534538003588
 21
438.7890091786772
 31
0.0
  0
LINE
  5
4548
330
A
100
AcDbEntity
  8
MODEL
100
AcDbLine
 10
91.5534538003588
 20
438.7890091786772
 30
0.0
 11
99.01191344615876
 21
439.1798904855772
 31
0.0
  0
LINE
  5
4549
330
A
100
AcDbEntity
  8
MODEL
100
AcDbLine
 10
78.27023820505877
 20
433.2294070452772
 30
0.0
 11
78.27023820505877
 21
438.0486117296771
 31
0.0
  0
LINE
  5
454A
330
A
100
AcDbEntity
  8
MODEL
100
AcDbLine
 10
78.25345380035884
 20
430.7072864829773
 30
0.0
 11
78.25345380035884
 21
440.570732409477
 31
0.0
  0
ARC
  5
454B
330
A
100
AcDbEntity
  8
MODEL
100
AcDbCircle
 10
334.2735273783588
 20
430.2646202564771
 30
0.0
 40
256.0204562691462
100
AcDbArc
 50
179.3364843985
 51
179.9009340132
  0
ARC
  5
454C
330
A
100
AcDbEntity
  8
MODEL
100
AcDbCircle
 10
334.2735295564588
 20
441.0133985123771
 30
0.0
 40
256.0204584469816
100
AcDbArc
 50
180.0990659582997
 51
180.6635155944999
  0
LINE
  5
454D
330
A
100
AcDbEntity
  8
MODEL
100
AcDbLine
 10
82.82513796005884
 20
445.9378686733772
 30
0.0
 11
86.9985783814588
 21
448.3473967720773
 31
0.0
  0
LINE
  5
454E
330
A
100
AcDbEntity
  8
MODEL
100
AcDbLine
 10
80.63249695975884
 20
444.6913323399772
 30
0.0
 11
89.17443527485881
 21
449.6230046077771
 31
0.0
  0
LINE
  5
454F
330
A
100
AcDbEntity
  8
MODEL
100
AcDbLine
 10
86.99875219655877
 20
422.9305597061772
 30
0.0
 11
82.82496433555872
 21
425.3402972512771
 31
0.0
  0
LINE
  5
4550
330
A
100
AcDbEntity
  8
MODEL
100
AcDbLine
 10
89.1745237066587
 20
421.6549963667771
 30
0.0
 11
80.63242001125883
 21
426.586782234777
 31
0.0
  0
LINE
  5
4551
330
A
100
AcDbEntity
  8
MODEL
100
AcDbLine
 10
104.8366693957588
 20
438.0486117296771
 30
0.0
 11
104.8366693957588
 21
433.2294070452772
 31
0.0
  0
LINE
  5
4552
330
A
100
AcDbEntity
  8
MODEL
100
AcDbLine
 10
104.8534538003588
 20
430.7072880229771
 30
0.0
 11
104.8534538003588
 21
440.5707309870772
 31
0.0
  0
LINE
  5
4553
330
A
100
AcDbEntity
  8
MODEL
100
AcDbLine
 10
96.10832921925879
 20
448.3473967720773
 30
0.0
 11
100.2817696407588
 21
445.9378686733772
 31
0.0
  0
LINE
  5
4554
330
A
100
AcDbEntity
  8
MODEL
100
AcDbLine
 10
102.4747357928588
 20
444.6911330318771
 30
0.0
 11
93.93219174755876
 21
449.6231640764773
 31
0.0
  0
LINE
  5
4555
330
A
100
AcDbEntity
  8
MODEL
100
AcDbLine
 10
100.2819432651588
 20
425.3402972512771
 30
0.0
 11
96.10815540415871
 21
422.9305597061772
 31
0.0
  0
LINE
  5
4556
330
A
100
AcDbEntity
  8
MODEL
100
AcDbLine
 10
93.93255529405877
 20
421.6550928015772
 30
0.0
 11
102.4747399890587
 21
426.5869163754772
 31
0.0
  0
LINE
  5
4557
330
A
100
AcDbEntity
  8
MODEL
100
AcDbLine
 10
104.3534524227587
 20
427.6715759377773
 30
0.0
 11
102.4747399890587
 21
426.5869163754772
 31
0.0
  0
LINE
  5
4558
330
A
100
AcDbEntity
  8
MODEL
100
AcDbLine
 10
102.4747357928588
 20
444.6911330318771
 30
0.0
 11
104.3534538003588
 21
443.6064431022772
 31
0.0
  0
LINE
  5
4559
330
A
100
AcDbEntity
  8
MODEL
100
AcDbLine
 10
93.93255529405877
 20
421.6550928015772
 30
0.0
 11
91.5534538003588
 21
420.2815204368771
 31
0.0
  0
LINE
  5
455A
330
A
100
AcDbEntity
  8
MODEL
100
AcDbLine
 10
91.5534538003588
 20
450.9965265478772
 30
0.0
 11
93.93219174755876
 21
449.6231640764773
 31
0.0
  0
LINE
  5
455B
330
A
100
AcDbEntity
  8
MODEL
100
AcDbLine
 10
78.25345380035884
 20
440.570732409477
 30
0.0
 11
78.25345380035884
 21
442.7404448478771
 31
0.0
  0
LINE
  5
455C
330
A
100
AcDbEntity
  8
MODEL
100
AcDbLine
 10
78.25345380035884
 20
428.5376292862772
 30
0.0
 11
78.25345380035884
 21
430.7072864829773
 31
0.0
  0
ARC
  5
455D
330
A
100
AcDbEntity
  8
MODEL
100
AcDbCircle
 10
91.5534538003588
 20
435.6390093874772
 30
0.0
 40
13.49999999999955
100
AcDbArc
 50
310.2823475056998
 51
349.7182356784003
  0
ARC
  5
455E
330
A
100
AcDbEntity
  8
MODEL
100
AcDbCircle
 10
91.5534538003588
 20
435.6390093874772
 30
0.0
 40
13.50000000000039
100
AcDbArc
 50
250.2823475056998
 51
289.7176524943001
  0
ARC
  5
455F
330
A
100
AcDbEntity
  8
MODEL
100
AcDbCircle
 10
91.5534538003588
 20
435.6390093874772
 30
0.0
 40
13.50000000000011
100
AcDbArc
 50
190.2817643215998
 51
229.7176524942997
  0
ARC
  5
4560
330
A
100
AcDbEntity
  8
MODEL
100
AcDbCircle
 10
91.5534538003588
 20
435.6390093874772
 30
0.0
 40
13.50000000000011
100
AcDbArc
 50
130.2813815717001
 51
169.7182356783997
  0
ARC
  5
4561
330
A
100
AcDbEntity
  8
MODEL
100
AcDbCircle
 10
91.5534538003588
 20
435.6390093874772
 30
0.0
 40
13.50000000000039
100
AcDbArc
 50
70.28156386189993
 51
109.7184361381001
  0
ARC
  5
4562
330
A
100
AcDbEntity
  8
MODEL
100
AcDbCircle
 10
91.5534538003588
 20
435.6390093874772
 30
0.0
 40
13.50000000000011
100
AcDbArc
 50
10.28176432160027
 51
49.71861842829988
  0
ARC
  5
4563
330
A
100
AcDbEntity
  8
MODEL
100
AcDbCircle
 10
-25.30355109204123
 20
648.7964143135771
 30
0.0
 40
256.3286028625805
100
AcDbArc
 50
299.336601788
 51
299.9004190516
  0
ARC
  5
4564
330
A
100
AcDbEntity
  8
MODEL
100
AcDbCircle
 10
103.8534538003588
 20
428.5376021369771
 30
0.0
 40
0.9999999999999879
100
AcDbArc
 50
299.9999088549071
 51
0.0
  0
LINE
  5
4565
330
A
100
AcDbEntity
  8
MODEL
100
AcDbLine
 10
104.8534538003588
 20
428.5376021369771
 30
0.0
 11
104.8534538003588
 21
430.7072880229771
 31
0.0
  0
ARC
  5
4566
330
A
100
AcDbEntity
  8
MODEL
100
AcDbCircle
 10
-151.1665912638412
 20
430.2646201758774
 30
0.0
 40
256.0204277582511
100
AcDbArc
 50
0.0990663604999537
 51
0.6635156934999596
  0
ARC
  5
4567
330
A
100
AcDbEntity
  8
MODEL
100
AcDbCircle
 10
-151.1665956128413
 20
441.0133985866773
 30
0.0
 40
256.0204321067579
100
AcDbArc
 50
359.3364843205999
 51
359.9009336964999
  0
LINE
  5
4568
330
A
100
AcDbEntity
  8
MODEL
100
AcDbLine
 10
104.8534538003588
 20
440.5707309870772
 30
0.0
 11
104.8534538003588
 21
442.7404176984772
 31
0.0
  0
ARC
  5
4569
330
A
100
AcDbEntity
  8
MODEL
100
AcDbCircle
 10
103.8534538003588
 20
442.7404176984772
 30
0.0
 40
0.9999999999999877
100
AcDbArc
 50
0.0
 51
59.99999999999946
  0
ARC
  5
456A
330
A
100
AcDbEntity
  8
MODEL
100
AcDbCircle
 10
-25.00223727104134
 20
223.0154603687772
 30
0.0
 40
255.7156282127
100
AcDbArc
 50
60.09848344879995
 51
60.66369815189996
  0
ARC
  5
456B
330
A
100
AcDbEntity
  8
MODEL
100
AcDbCircle
 10
-34.43269689164134
 20
228.1711629887772
 30
0.0
 40
255.9658833147647
100
AcDbArc
 50
59.33657995439993
 51
59.9012290135999
  0
LINE
  5
456C
330
A
100
AcDbEntity
  8
MODEL
100
AcDbLine
 10
91.5534538003588
 20
450.9965265478772
 30
0.0
 11
89.17443527485881
 21
449.6230046077771
 31
0.0
  0
ARC
  5
456D
330
A
100
AcDbEntity
  8
MODEL
100
AcDbCircle
 10
217.5722605711588
 20
228.1160103378772
 30
0.0
 40
256.0299788136598
100
AcDbArc
 50
120.0989761751
 51
120.6634116602
  0
ARC
  5
456E
330
A
100
AcDbEntity
  8
MODEL
100
AcDbCircle
 10
208.2635599264588
 20
222.7416542892772
 30
0.0
 40
256.0299744576896
100
AcDbArc
 50
119.3364060355
 51
119.9008414776
  0
LINE
  5
456F
330
A
100
AcDbEntity
  8
MODEL
100
AcDbLine
 10
80.63249695975884
 20
444.6913323399772
 30
0.0
 11
78.7534551780588
 21
443.606471046977
 31
0.0
  0
ARC
  5
4570
330
A
100
AcDbEntity
  8
MODEL
100
AcDbCircle
 10
79.25345380035884
 20
442.7404448478771
 30
0.0
 40
0.9999999999999809
100
AcDbArc
 50
119.9999088549071
 51
180.0
  0
ARC
  5
4571
330
A
100
AcDbEntity
  8
MODEL
100
AcDbCircle
 10
79.25345380035884
 20
428.5376292862772
 30
0.0
 40
0.9999999999999775
100
AcDbArc
 50
180.0
 51
239.9999999999994
  0
LINE
  5
4572
330
A
100
AcDbEntity
  8
MODEL
100
AcDbLine
 10
78.75345380035884
 20
427.6716038824771
 30
0.0
 11
80.63242001125883
 21
426.586782234777
 31
0.0
  0
ARC
  5
4573
330
A
100
AcDbEntity
  8
MODEL
100
AcDbCircle
 10
208.2517321945588
 20
648.515256743977
 30
0.0
 40
256.0057355609477
100
AcDbArc
 50
240.0990727271
 51
240.6635371213
  0
ARC
  5
4574
330
A
100
AcDbEntity
  8
MODEL
100
AcDbCircle
 10
217.5583258008588
 20
643.137012959377
 30
0.0
 40
256.001336547441
100
AcDbArc
 50
239.3364585589999
 51
239.900935673
  0
LINE
  5
4575
330
A
100
AcDbEntity
  8
MODEL
100
AcDbLine
 10
89.1745237066587
 20
421.6549963667771
 30
0.0
 11
91.5534538003588
 21
420.2815204368771
 31
0.0
  0
ARC
  5
4576
330
A
100
AcDbEntity
  8
MODEL
100
AcDbCircle
 10
-34.48528364784119
 20
643.1942713880771
 30
0.0
 40
256.0678601607302
100
AcDbArc
 50
300.0992390238
 51
300.6635254936
  0
ARC
  5
4577
330
A
100
AcDbEntity
  8
MODEL
100
AcDbCircle
 10
95.36044289835883
 20
398.0973703218772
 30
0.0
 40
30.03217319559116
100
AcDbArc
 50
91.22661609070012
 51
97.28261808830018
  0
SPLINE
  5
4578
330
A
100
AcDbEntity
  8
MODEL
100
AcDbSpline
210
0.0
220
0.0
230
1.0
 70
     8
 71
     3
 72
    14
 73
    10
 74
     0
 42
0.000000001
 43
0.0000000001
 40
0.0
 40
0.0
 40
0.0
 40
0.0
 40
0.2499999999999997
 40
0.2499999999999997
 40
0.4999999999999998
 40
0.4999999999999998
 40
0.7499999999999999
 40
0.7499999999999999
 40
0.9007569234906664
 40
0.9007569234906664
 40
0.9007569234906664
 40
0.9007569234906664
 10
94.7175485471825
 20
428.1226615561201
 30
0.0
 10
94.97782902609043
 20
428.1086137759451
 30
0.0
 10
95.23305007497794
 20
428.0901513374434
 30
0.0
 10
95.72927789090187
 20
428.058184000871
 30
0.0
 10
95.97104584420487
 20
428.044536909262
 30
0.0
 10
96.4343426075755
 20
428.0463851799196
 30
0.0
 10
96.64537911450572
 20
428.0620558445617
 30
0.0
 10
96.95057006340977
 20
428.1317695960927
 30
0.0
 10
97.05507767343335
 20
428.167602999777
 30
0.0
 10
97.14941961542746
 20
428.2151576467568
 30
0.0
  0
SPLINE
  5
4579
330
A
100
AcDbEntity
  8
MODEL
100
AcDbSpline
210
0.0
220
0.0
230
1.0
 70
     8
 71
     3
 72
    14
 73
    10
 74
     0
 42
0.000000001
 43
0.0000000001
 40
0.0997640360942595
 40
0.0997640360942595
 40
0.0997640360942595
 40
0.0997640360942595
 40
0.25
 40
0.25
 40
0.5
 40
0.5
 40
0.75
 40
0.75
 40
1.0
 40
1.0
 40
1.0
 40
1.0
 10
85.95730799118309
 20
428.2151925337113
 30
0.0
 10
86.05068117274567
 20
428.1680916652745
 30
0.0
 10
86.1540469419188
 20
428.1325168166301
 30
0.0
 10
86.45752639149765
 20
428.0626055110915
 30
0.0
 10
86.66792251114629
 20
428.0466588350887
 30
0.0
 10
87.1289482101318
 20
428.044315660389
 30
0.0
 10
87.36997896692702
 20
428.0577306343429
 30
0.0
 10
87.86972719945317
 20
428.0898466750151
 30
0.0
 10
88.12892569899833
 20
428.1086055249845
 30
0.0
 10
88.38935905358773
 20
428.1226615561201
 30
0.0
  0
ARC
  5
457A
330
A
100
AcDbEntity
  8
MODEL
100
AcDbCircle
 10
87.74773769685879
 20
398.114481872377
 30
0.0
 40
30.01503832911427
100
AcDbArc
 50
82.7156516859
 51
88.7751141352
  0
CIRCLE
  5
457B
330
A
100
AcDbEntity
  8
MODEL
100
AcDbCircle
 10
91.5534538003588
 20
435.6390093874772
 30
0.0
 40
10.5155
  0
CIRCLE
  5
457C
330
A
100
AcDbEntity
  8
MODEL
100
AcDbCircle
 10
91.5534538003588
 20
435.6390093874772
 30
0.0
 40
9.3155
  0
LINE
  5
457D
330
A
100
AcDbEntity
  8
MODEL
100
AcDbLine
 10
104.8534538003588
 20
424.6785261502772
 30
0.0
 11
105.4534538003588
 21
424.6785261502772
 31
0.0
  0
LINE
  5
457E
330
A
100
AcDbEntity
  8
MODEL
100
AcDbLine
 10
105.4534538003588
 20
429.8373766498773
 30
0.0
 11
104.8534538003588
 21
429.8373766498773
 31
0.0
  0
LINE
  5
457F
330
A
100
AcDbEntity
  8
MODEL
100
AcDbLine
 10
104.8534538003588
 20
424.6802461221772
 30
0.0
 11
105.4534538003588
 21
424.6802461221772
 31
0.0
  0
LINE
  5
4580
330
A
100
AcDbEntity
  8
MODEL
100
AcDbLine
 10
78.25345380035884
 20
436.7269006970772
 30
0.0
 11
77.6534538003587
 21
436.7269006970772
 31
0.0
  0
LINE
  5
4581
330
A
100
AcDbEntity
  8
MODEL
100
AcDbLine
 10
78.25345380035884
 20
436.7550682424772
 30
0.0
 11
77.6534538003587
 21
436.7550682424772
 31
0.0
  0
LINE
  5
4582
330
A
100
AcDbEntity
  8
MODEL
100
AcDbLine
 10
95.6537512046587
 20
438.4390093874771
 30
0.0
 11
87.45315639605877
 21
438.4390093874771
 31
0.0
  0
SPLINE
  5
4583
330
A
100
AcDbEntity
  8
MODEL
100
AcDbSpline
210
0.0
220
0.0
230
1.0
 70
     8
 71
     3
 72
    14
 73
    10
 74
     0
 42
0.000000001
 43
0.0000000001
 40
0.0
 40
0.0
 40
0.0
 40
0.0
 40
1.0
 40
1.0
 40
1.0
 40
2.0
 40
2.0
 40
2.0
 40
2.501267429837579
 40
2.501267429837579
 40
2.501267429837579
 40
2.501267429837579
 10
102.2921163344791
 20
403.5305183119744
 30
0.0
 10
102.2921163344791
 20
403.5305183119744
 30
0.0
 10
103.2683583830356
 20
403.5305183119744
 30
0.0
 10
103.2683583830356
 20
403.5305183119744
 30
0.0
 10
103.2683583830356
 20
403.5305183119744
 30
0.0
 10
103.2683583830356
 20
399.7142993948901
 30
0.0
 10
103.2683583830356
 20
399.7142993948901
 30
0.0
 10
103.2683583830356
 20
399.7142993948901
 30
0.0
 10
97.40347276066524
 20
399.7142993948901
 30
0.0
 10
91.55345380035868
 20
399.7142993948901
 30
0.0
  0
POLYLINE
  5
4584
330
A
100
AcDbEntity
  8
MODEL
100
AcDb2dPolyline
 66
     1
 10
0.0
 20
0.0
 30
0.0
  0
VERTEX
  5
4585
330
4584
100
AcDbEntity
  8
MODEL
100
AcDbVertex
100
AcDb2dVertex
 10
103.6233554916015
 20
407.9679821690488
 30
0.0
  0
VERTEX
  5
4586
330
4584
100
AcDbEntity
  8
MODEL
100
AcDbVertex
100
AcDb2dVertex
 10
103.6233554916015
 20
405.0392560233798
 30
0.0
  0
VERTEX
  5
4587
330
4584
100
AcDbEntity
  8
MODEL
100
AcDbVertex
100
AcDb2dVertex
 10
91.5534538003588
 20
405.0392560233798
 30
0.0
  0
SEQEND
  5
4588
330
4584
100
AcDbEntity
  8
MODEL
  0
POLYLINE
  5
4589
330
A
100
AcDbEntity
  8
MODEL
100
AcDb2dPolyline
 66
     1
 10
0.0
 20
0.0
 30
0.0
  0
VERTEX
  5
458A
330
4589
100
AcDbEntity
  8
MODEL
100
AcDbVertex
100
AcDb2dVertex
 10
102.2921163344791
 20
405.0392560233798
 30
0.0
  0
VERTEX
  5
458B
330
4589
100
AcDbEntity
  8
MODEL
100
AcDbVertex
100
AcDb2dVertex
 10
102.2921163344791
 20
403.5305183119744
 30
0.0
  0
VERTEX
  5
458C
330
4589
100
AcDbEntity
  8
MODEL
100
AcDbVertex
100
AcDb2dVertex
 10
91.5534538003588
 20
403.5305183119744
 30
0.0
  0
SEQEND
  5
458D
330
4589
100
AcDbEntity
  8
MODEL
  0
LINE
  5
458E
330
A
100
AcDbEntity
  8
MODEL
100
AcDbLine
 10
104.8534538003588
 20
418.6186223204772
 30
0.0
 11
104.1558511544504
 21
407.9679821690488
 31
0.0
  0
LINE
  5
458F
330
A
100
AcDbEntity
  8
MODEL
100
AcDbLine
 10
104.1558511544504
 20
407.9679821690488
 30
0.0
 11
91.5534538003588
 21
407.9679821690488
 31
0.0
  0
SPLINE
  5
4590
330
A
100
AcDbEntity
  8
MODEL
100
AcDbSpline
210
0.0
220
0.0
230
1.0
 70
     8
 71
     3
 72
    14
 73
    10
 74
     0
 42
0.000000001
 43
0.0000000001
 40
0.0
 40
0.0
 40
0.0
 40
0.0
 40
1.0
 40
1.0
 40
1.0
 40
2.0
 40
2.0
 40
2.0
 40
2.501267429837579
 40
2.501267429837579
 40
2.501267429837579
 40
2.501267429837579
 10
80.81479126623827
 20
403.5305183119744
 30
0.0
 10
80.81479126623827
 20
403.5305183119744
 30
0.0
 10
79.83854921768176
 20
403.5305183119744
 30
0.0
 10
79.83854921768176
 20
403.5305183119744
 30
0.0
 10
79.83854921768176
 20
403.5305183119744
 30
0.0
 10
79.83854921768176
 20
399.7142993948901
 30
0.0
 10
79.83854921768176
 20
399.7142993948901
 30
0.0
 10
79.83854921768176
 20
399.7142993948901
 30
0.0
 10
85.70343484005213
 20
399.7142993948901
 30
0.0
 10
91.55345380035868
 20
399.7142993948901
 30
0.0
  0
POLYLINE
  5
4591
330
A
100
AcDbEntity
  8
MODEL
100
AcDb2dPolyline
 66
     1
 10
0.0
 20
0.0
 30
0.0
  0
VERTEX
  5
4592
330
4591
100
AcDbEntity
  8
MODEL
100
AcDbVertex
100
AcDb2dVertex
 10
79.48355210911592
 20
407.9679821690488
 30
0.0
  0
VERTEX
  5
4593
330
4591
100
AcDbEntity
  8
MODEL
100
AcDbVertex
100
AcDb2dVertex
 10
79.48355210911592
 20
405.0392560233798
 30
0.0
  0
VERTEX
  5
4594
330
4591
100
AcDbEntity
  8
MODEL
100
AcDbVertex
100
AcDb2dVertex
 10
91.55345380035857
 20
405.0392560233798
 30
0.0
  0
SEQEND
  5
4595
330
4591
100
AcDbEntity
  8
MODEL
  0
POLYLINE
  5
4596
330
A
100
AcDbEntity
  8
MODEL
100
AcDb2dPolyline
 66
     1
 10
0.0
 20
0.0
 30
0.0
  0
VERTEX
  5
4597
330
4596
100
AcDbEntity
  8
MODEL
100
AcDbVertex
100
AcDb2dVertex
 10
80.81479126623827
 20
405.0392560233798
 30
0.0
  0
VERTEX
  5
4598
330
4596
100
AcDbEntity
  8
MODEL
100
AcDbVertex
100
AcDb2dVertex
 10
80.81479126623827
 20
403.5305183119744
 30
0.0
  0
VERTEX
  5
4599
330
4596
100
AcDbEntity
  8
MODEL
100
AcDbVertex
100
AcDb2dVertex
 10
91.55345380035857
 20
403.5305183119744
 30
0.0
  0
SEQEND
  5
459A
330
4596
100
AcDbEntity
  8
MODEL
  0
LINE
  5
459B
330
A
100
AcDbEntity
  8
MODEL
100
AcDbLine
 10
78.25345380035861
 20
418.6186223204772
 30
0.0
 11
78.95105644626693
 21
407.9679821690488
 31
0.0
  0
LINE
  5
459C
330
A
100
AcDbEntity
  8
MODEL
100
AcDbLine
 10
78.95105644626693
 20
407.9679821690488
 30
0.0
 11
91.55345380035857
 21
407.9679821690488
 31
0.0
  0
LINE
  5
459D
330
A
100
AcDbEntity
  8
MODEL
100
AcDbLine
 10
266.0995832763674
 20
199.164759942247
 30
0.0
 11
266.0995832763674
 21
230.164759942247
 31
0.0
  0
LINE
  5
459E
330
A
100
AcDbEntity
  8
MODEL
100
AcDbLine
 10
257.0995832763674
 20
199.164759942247
 30
0.0
 11
257.0995832763674
 21
230.164759942247
 31
0.0
  0
LINE
  5
459F
330
A
100
AcDbEntity
  8
MODEL
100
AcDbLine
 10
257.0995832763674
 20
199.164759942247
 30
0.0
 11
266.0995832763674
 21
199.164759942247
 31
0.0
  0
LINE
  5
45A0
330
A
100
AcDbEntity
  8
MODEL
100
AcDbLine
 10
266.0995832763674
 20
230.164759942247
 30
0.0
 11
257.0995832763674
 21
230.164759942247
 31
0.0
  0
LINE
  5
45A1
330
A
100
AcDbEntity
  8
MODEL
100
AcDbLine
 10
284.1392387223672
 20
228.664759942247
 30
0.0
 11
266.0995832763674
 21
228.664759942247
 31
0.0
  0
LINE
  5
45A2
330
A
100
AcDbEntity
  8
MODEL
100
AcDbLine
 10
284.1392387223672
 20
227.744759942247
 30
0.0
 11
266.0995832763674
 21
227.744759942247
 31
0.0
  0
LINE
  5
45A3
330
A
100
AcDbEntity
  8
MODEL
100
AcDbLine
 10
284.1392387223672
 20
201.5847599422469
 30
0.0
 11
266.0995832763674
 21
201.5847599422469
 31
0.0
  0
LINE
  5
45A4
330
A
100
AcDbEntity
  8
MODEL
100
AcDbLine
 10
266.0995832763674
 20
200.664759942247
 30
0.0
 11
284.1392387223672
 21
200.664759942247
 31
0.0
  0
LINE
  5
45A5
330
A
100
AcDbEntity
  8
MODEL
100
AcDbLine
 10
230.606795251787
 20
233.5923179318459
 30
0.0
 11
230.3172103808872
 21
233.8209472068459
 31
0.0
  0
SPLINE
  5
45A6
330
A
100
AcDbEntity
  8
MODEL
100
AcDbSpline
210
0.0
220
0.0
230
1.0
 70
     8
 71
     3
 72
    10
 73
     6
 74
     0
 42
0.000000001
 43
0.0000000001
 40
0.0
 40
0.0
 40
0.0
 40
0.0
 40
0.4999999999999999
 40
0.4999999999999999
 40
1.0
 40
1.0
 40
1.0
 40
1.0
 10
230.5241940824156
 20
228.7824878535056
 30
0.0
 10
230.5450973030924
 20
230.2768780921938
 30
0.0
 10
230.5631018665258
 20
231.4812110522477
 30
0.0
 10
230.5938092751921
 20
233.139356653948
 30
0.0
 10
230.60641541105
 20
233.5926200708306
 30
0.0
 10
230.6067952517531
 20
233.5923179318927
 30
0.0
  0
ARC
  5
45A7
330
A
100
AcDbEntity
  8
MODEL
100
AcDbCircle
 10
205.449021881487
 20
203.1760395033459
 30
0.0
 40
35.8392865165635
100
AcDbArc
 50
40.01412026629988
 51
45.60058786379998
  0
LINE
  5
45A8
330
A
100
AcDbEntity
  8
MODEL
100
AcDbLine
 10
215.373013641987
 20
234.0759493282459
 30
0.0
 11
208.1403734937871
 21
222.9306907109459
 31
0.0
  0
LINE
  5
45A9
330
A
100
AcDbEntity
  8
MODEL
100
AcDbLine
 10
215.373013641987
 20
195.7854320936459
 30
0.0
 11
208.1403734937871
 21
206.9306907109459
 31
0.0
  0
LINE
  5
45AA
330
A
100
AcDbEntity
  8
MODEL
100
AcDbLine
 10
199.851633495587
 20
222.5362733904459
 30
0.0
 11
199.851633495587
 21
207.3251080314459
 31
0.0
  0
ARC
  5
45AB
330
A
100
AcDbEntity
  8
MODEL
100
AcDbCircle
 10
180.269881044687
 20
238.7045733988459
 30
0.0
 40
35.40648948270385
100
AcDbArc
 50
352.4867750598
 51
353.8784993479998
  0
ARC
  5
45AC
330
A
100
AcDbEntity
  8
MODEL
100
AcDbCircle
 10
211.629718684087
 20
184.7632701187459
 30
0.0
 40
50.31277275664189
100
AcDbArc
 50
77.43786754989983
 51
85.61734126200005
  0
ARC
  5
45AD
330
A
100
AcDbEntity
  8
MODEL
100
AcDbCircle
 10
214.4687205095869
 20
212.5071669923459
 30
0.0
 40
22.86185252293375
100
AcDbArc
 50
45.38960154979982
 51
69.03074568749976
  0
SPLINE
  5
45AE
330
A
100
AcDbEntity
  8
MODEL
100
AcDbSpline
210
0.0
220
0.0
230
1.0
 70
     8
 71
     3
 72
    14
 73
    10
 74
     0
 42
0.000000001
 43
0.0000000001
 40
0.0
 40
0.0
 40
0.0
 40
0.0
 40
0.25
 40
0.25
 40
0.5
 40
0.5
 40
0.75
 40
0.75
 40
1.0
 40
1.0
 40
1.0
 40
1.0
 10
223.3872053639003
 20
233.8722685359966
 30
0.0
 10
224.2658321983903
 20
234.063814444107
 30
0.0
 10
225.0246625225279
 20
234.2754147692294
 30
0.0
 10
226.3907842239341
 20
234.554880419552
 30
0.0
 10
227.0106826754449
 20
234.6275317587948
 30
0.0
 10
228.1860495982287
 20
234.6001832539401
 30
0.0
 10
228.7416501419668
 20
234.4999390339531
 30
0.0
 10
229.6885006852041
 20
234.2008582646224
 30
0.0
 10
230.0884869445138
 20
233.9999513970832
 30
0.0
 10
230.3171281298677
 20
233.8210116862838
 30
0.0
  0
LINE
  5
45AF
330
A
100
AcDbEntity
  8
MODEL
100
AcDbLine
 10
199.851633495587
 20
222.5362733904459
 30
0.0
 11
199.9537164856869
 21
223.3116685132459
 31
0.0
  0
SPLINE
  5
45B0
330
A
100
AcDbEntity
  8
MODEL
100
AcDbSpline
210
0.0
220
0.0
230
1.0
 70
     8
 71
     3
 72
    17
 73
    13
 74
     0
 42
0.000000001
 43
0.0000000001
 40
0.0
 40
0.0
 40
0.0
 40
0.0
 40
0.0561365517852737
 40
0.1165130167685113
 40
0.1812265940977128
 40
0.2501999119001176
 40
0.3701545472629869
 40
0.4996296189800093
 40
0.622382367934318
 40
0.7489514940013823
 40
0.8719100351401485
 40
1.0
 40
1.0
 40
1.0
 40
1.0
 10
200.3523057421948
 20
223.4871313090502
 30
0.0
 10
200.3905129905973
 20
223.5669272465223
 30
0.0
 10
200.4698132260456
 20
223.7325459941149
 30
0.0
 10
200.6622899756176
 20
223.9131254606145
 30
0.0
 10
200.9258442028387
 20
224.0536386365575
 30
0.0
 10
201.3538939096877
 20
224.165962081766
 30
0.0
 10
202.0291278459568
 20
224.2030451047941
 30
0.0
 10
203.0045494027901
 20
224.1203827088595
 30
0.0
 10
204.154341893155
 20
223.9329257149939
 30
0.0
 10
205.4032024047039
 20
223.6662746503602
 30
0.0
 10
206.7506555777932
 20
223.3295458334564
 30
0.0
 10
207.6708645074913
 20
223.06544184504
 30
0.0
 10
208.140373493704
 20
222.9306907112137
 30
0.0
  0
LINE
  5
45B1
330
A
100
AcDbEntity
  8
MODEL
100
AcDbLine
 10
199.851633495587
 20
207.3251080314459
 30
0.0
 11
199.9537164856869
 21
206.5497129086459
 31
0.0
  0
SPLINE
  5
45B2
330
A
100
AcDbEntity
  8
MODEL
100
AcDbSpline
210
0.0
220
0.0
230
1.0
 70
     8
 71
     3
 72
    14
 73
    10
 74
     0
 42
0.000000001
 43
0.0000000001
 40
0.0
 40
0.0
 40
0.0
 40
0.0
 40
0.25
 40
0.25
 40
0.5
 40
0.5
 40
0.75
 40
0.75
 40
1.0
 40
1.0
 40
1.0
 40
1.0
 10
200.3523057421948
 20
206.374250112845
 30
0.0
 10
200.5184701095552
 20
205.9482875448559
 30
0.0
 10
200.8754869527285
 20
205.783174446142
 30
0.0
 10
201.8411790219714
 20
205.6438540876638
 30
0.0
 10
202.4582018417208
 20
205.6800711634172
 30
0.0
 10
203.860990934078
 20
205.8700980193045
 30
0.0
 10
204.6520234166596
 20
206.0264805968471
 30
0.0
 10
206.3346716277266
 20
206.4215138583637
 30
0.0
 10
207.2465054387537
 20
206.6666536137339
 30
0.0
 10
208.1403734937044
 20
206.9306907106819
 30
0.0
  0
ARC
  5
45B3
330
A
100
AcDbEntity
  8
MODEL
100
AcDbCircle
 10
202.461819920187
 20
265.3956462545459
 30
0.0
 40
31.96375693720399
100
AcDbArc
 50
282.3542893927999
 51
287.5859348980998
  0
SPLINE
  5
45B4
330
A
100
AcDbEntity
  8
MODEL
100
AcDbSpline
210
0.0
220
0.0
230
1.0
 70
     8
 71
     3
 72
    14
 73
    10
 74
     0
 42
0.000000001
 43
0.0000000001
 40
0.0
 40
0.0
 40
0.0
 40
0.0
 40
0.25
 40
0.25
 40
0.5
 40
0.5
 40
0.75
 40
0.75
 40
1.0
 40
1.0
 40
1.0
 40
1.0
 10
203.065026928951
 20
234.3455360023214
 30
0.0
 10
203.1821540688622
 20
234.6082665212157
 30
0.0
 10
203.4421832506752
 20
234.9247189156433
 30
0.0
 10
204.1426735545376
 20
235.3863555606359
 30
0.0
 10
204.5901688248226
 20
235.5107563785454
 30
0.0
 10
205.5392327190098
 20
235.366100086093
 30
0.0
 10
206.0601239538007
 20
235.1263987750298
 30
0.0
 10
207.2403649880256
 20
234.6211528705443
 30
0.0
 10
207.8982787651044
 20
234.3528041158997
 30
0.0
 10
208.6718490141015
 20
234.1731236680637
 30
0.0
  0
LINE
  5
45B5
330
A
100
AcDbEntity
  8
MODEL
100
AcDbLine
 10
202.779040674487
 20
233.8558913988459
 30
0.0
 11
199.9537164856869
 21
223.3116685132459
 31
0.0
  0
SPLINE
  5
45B6
330
A
100
AcDbEntity
  8
MODEL
100
AcDbSpline
210
0.0
220
0.0
230
1.0
 70
     8
 71
     3
 72
    19
 73
    15
 74
     0
 42
0.000000001
 43
0.0000000001
 40
0.0
 40
0.0
 40
0.0
 40
0.0
 40
0.0577293580877787
 40
0.1257578378175792
 40
0.1882258229629183
 40
0.2505327431827824
 40
0.3756891655718115
 40
0.5002494011462059
 40
0.6250644742071915
 40
0.6879643410978258
 40
0.750511054927486
 40
0.8748289132727199
 40
0.9407698569509232
 40
1.0
 40
1.0
 40
1.0
 40
1.0
 10
203.065026928951
 20
195.5158454195739
 30
0.0
 10
203.0967426624185
 20
195.452983064615
 30
0.0
 10
203.1658323283662
 20
195.3160434882622
 30
0.0
 10
203.3316480012303
 20
195.1005564660181
 30
0.0
 10
203.5446879751689
 20
194.8865795150601
 30
0.0
 10
203.8736934801106
 20
194.6341582785561
 30
0.0
 10
204.3705367272796
 20
194.4006847397464
 30
0.0
 10
205.0589738300852
 20
194.3807082270442
 30
0.0
 10
205.6816585451868
 20
194.5787137251602
 30
0.0
 10
206.2202651263087
 20
194.8017498504666
 30
0.0
 10
206.7903114505881
 20
195.0495320732127
 30
0.0
 10
207.4263875020955
 20
195.3130958047732
 30
0.0
 10
208.1185420853582
 20
195.5476108343503
 30
0.0
 10
208.4941254241929
 20
195.6430816063079
 30
0.0
 10
208.6718490141015
 20
195.6882577538315
 30
0.0
  0
ARC
  5
45B7
330
A
100
AcDbEntity
  8
MODEL
100
AcDbCircle
 10
202.582446155187
 20
164.9168617723459
 30
0.0
 40
31.49727543802624
100
AcDbArc
 50
72.37529575300006
 51
77.68447801850006
  0
LINE
  5
45B8
330
A
100
AcDbEntity
  8
MODEL
100
AcDbLine
 10
202.779040674487
 20
196.0054900230459
 30
0.0
 11
199.9537164856869
 21
206.5497129086459
 31
0.0
  0
ARC
  5
45B9
330
A
100
AcDbEntity
  8
MODEL
100
AcDbCircle
 10
211.627411406187
 20
245.1136007053458
 30
0.0
 40
50.32839319488836
100
AcDbArc
 50
274.38393023
 51
282.5608609582001
  0
ARC
  5
45BA
330
A
100
AcDbEntity
  8
MODEL
100
AcDbCircle
 10
251.043271652187
 20
199.6177766797459
 30
0.0
 40
35.87605014297361
100
AcDbArc
 50
186.1306088242
 51
187.5041167681
  0
ARC
  5
45BB
330
A
100
AcDbEntity
  8
MODEL
100
AcDbCircle
 10
214.479139470087
 20
217.3378533973459
 30
0.0
 40
22.84288853970875
100
AcDbArc
 50
290.9599738684001
 51
314.6206117630002
  0
LINE
  5
45BC
330
A
100
AcDbEntity
  8
MODEL
100
AcDbLine
 10
230.606795251787
 20
196.2690634900459
 30
0.0
 11
230.3172103808872
 21
196.0404342150459
 31
0.0
  0
SPLINE
  5
45BD
330
A
100
AcDbEntity
  8
MODEL
100
AcDbSpline
210
0.0
220
0.0
230
1.0
 70
     8
 71
     3
 72
    10
 73
     6
 74
     0
 42
0.000000001
 43
0.0000000001
 40
0.0
 40
0.0
 40
0.0
 40
0.0
 40
0.5
 40
0.5
 40
1.0
 40
1.0
 40
1.0
 40
1.0
 10
230.5241934849002
 20
201.0788928371426
 30
0.0
 10
230.5454165970187
 20
199.584673862342
 30
0.0
 10
230.5648584638204
 20
198.381383142895
 30
0.0
 10
230.5939255424901
 20
196.7221470066543
 30
0.0
 10
230.6035839239821
 20
196.2665090845533
 30
0.0
 10
230.6067952517531
 20
196.2690634900026
 30
0.0
  0
SPLINE
  5
45BE
330
A
100
AcDbEntity
  8
MODEL
100
AcDbSpline
210
0.0
220
0.0
230
1.0
 70
     8
 71
     3
 72
    12
 73
     8
 74
     0
 42
0.000000001
 43
0.0000000001
 40
0.0
 40
0.0
 40
0.0
 40
0.0
 40
0.2499999999999981
 40
0.2499999999999981
 40
0.4999999999999962
 40
0.4999999999999962
 40
1.0
 40
1.0
 40
1.0
 40
1.0
 10
202.1163982203395
 20
235.0664846439196
 30
0.0
 10
202.2385606767386
 20
235.0278901015714
 30
0.0
 10
202.350945474584
 20
234.9668127120789
 30
0.0
 10
202.5476259894294
 20
234.8052151219388
 30
0.0
 10
202.6298755145623
 20
234.7057734034867
 30
0.0
 10
202.8123731872004
 20
234.3723403361132
 30
0.0
 10
202.8453559857343
 20
234.1033827931494
 30
0.0
 10
202.7790406744629
 20
233.8558913988731
 30
0.0
  0
SPLINE
  5
45BF
330
A
100
AcDbEntity
  8
MODEL
100
AcDbSpline
210
0.0
220
0.0
230
1.0
 70
     8
 71
     3
 72
    18
 73
    14
 74
     0
 42
0.000000001
 43
0.0000000001
 40
0.0
 40
0.0
 40
0.0
 40
0.0
 40
0.1249999999999991
 40
0.1249999999999991
 40
0.2499999999999981
 40
0.2499999999999981
 40
0.5
 40
0.5
 40
0.6250000000000009
 40
0.6250000000000009
 40
0.7500000000000019
 40
0.7500000000000019
 40
1.0
 40
1.0
 40
1.0
 40
1.0
 10
230.3171281298677
 20
233.8210116862838
 30
0.0
 10
230.2552239113017
 20
233.8695514485789
 30
0.0
 10
230.1999202169289
 20
233.9238162641799
 30
0.0
 10
230.1017221366217
 20
234.0436283315016
 30
0.0
 10
230.0585596690143
 20
234.1100053781928
 30
0.0
 10
229.9542769965247
 20
234.3177897443613
 30
0.0
 10
229.9158120909154
 20
234.4730340525037
 30
0.0
 10
229.9131063431057
 20
234.705138903252
 30
0.0
 10
229.9213770824171
 20
234.7839661680831
 30
0.0
 10
229.9557797876528
 20
234.9351746832836
 30
0.0
 10
229.9816640451324
 20
235.0081346302749
 30
0.0
 10
230.0866392509885
 20
235.2186936383363
 30
0.0
 10
230.1892134666845
 20
235.3393926733121
 30
0.0
 10
230.3165181731151
 20
235.4313783924205
 30
0.0
  0
ARC
  5
45C0
330
A
100
AcDbEntity
  8
MODEL
100
AcDbCircle
 10
232.558857735087
 20
234.4762392925459
 30
0.0
 40
17.09037144765468
100
AcDbArc
 50
175.6047584468
 51
178.4821866970001
  0
ARC
  5
45C1
330
A
100
AcDbEntity
  8
MODEL
100
AcDbCircle
 10
213.8140853971869
 20
216.8832984062459
 30
0.0
 40
18.12185268754699
100
AcDbArc
 50
84.74295652569992
 51
95.36649739359954
  0
SPLINE
  5
45C2
330
A
100
AcDbEntity
  8
MODEL
100
AcDbSpline
210
0.0
220
0.0
230
1.0
 70
     8
 71
     3
 72
    12
 73
     8
 74
     0
 42
0.000000001
 43
0.0000000001
 40
0.0
 40
0.0
 40
0.0
 40
0.0
 40
0.2499999999999981
 40
0.2499999999999981
 40
0.4999999999999962
 40
0.4999999999999962
 40
1.0
 40
1.0
 40
1.0
 40
1.0
 10
202.1163982203386
 20
194.7948967779755
 30
0.0
 10
202.2385606767386
 20
194.8334913203239
 30
0.0
 10
202.350945474584
 20
194.8945687098163
 30
0.0
 10
202.5476259894294
 20
195.0561662999564
 30
0.0
 10
202.6298755145623
 20
195.1556080184086
 30
0.0
 10
202.8123731872004
 20
195.4890410857821
 30
0.0
 10
202.8453559857343
 20
195.7579986287459
 30
0.0
 10
202.7790406744629
 20
196.0054900230222
 30
0.0
  0
SPLINE
  5
45C3
330
A
100
AcDbEntity
  8
MODEL
100
AcDbSpline
210
0.0
220
0.0
230
1.0
 70
     8
 71
     3
 72
    18
 73
    14
 74
     0
 42
0.000000001
 43
0.0000000001
 40
0.0
 40
0.0
 40
0.0
 40
0.0
 40
0.1249999999999992
 40
0.1249999999999992
 40
0.2499999999999984
 40
0.2499999999999984
 40
0.5000000000000007
 40
0.5000000000000007
 40
0.6250000000000018
 40
0.6250000000000018
 40
0.7500000000000029
 40
0.7500000000000029
 40
1.0
 40
1.0
 40
1.0
 40
1.0
 10
230.3171281298677
 20
196.0403697356114
 30
0.0
 10
230.2552239113017
 20
195.9918299733163
 30
0.0
 10
230.1999202169289
 20
195.9375651577154
 30
0.0
 10
230.1017221366217
 20
195.8177530903937
 30
0.0
 10
230.0585596690143
 20
195.7513760437025
 30
0.0
 10
229.9542769965247
 20
195.543591677534
 30
0.0
 10
229.9158120909154
 20
195.3883473693915
 30
0.0
 10
229.9131063431057
 20
195.1562425186433
 30
0.0
 10
229.9213770824171
 20
195.0774152538121
 30
0.0
 10
229.9557797876528
 20
194.9262067386117
 30
0.0
 10
229.9816640451324
 20
194.8532467916204
 30
0.0
 10
230.0866392509885
 20
194.6426877835589
 30
0.0
 10
230.1892134666845
 20
194.5219887485831
 30
0.0
 10
230.3165181731151
 20
194.4300030294748
 30
0.0
  0
ARC
  5
45C4
330
A
100
AcDbEntity
  8
MODEL
100
AcDbCircle
 10
231.7208676415871
 20
195.3418624667459
 30
0.0
 40
16.2515426482804
100
AcDbArc
 50
181.4435367516001
 51
184.4695181046
  0
ARC
  5
45C5
330
A
100
AcDbEntity
  8
MODEL
100
AcDbCircle
 10
213.8130187197871
 20
211.8615348701459
 30
0.0
 40
17.0104128978517
100
AcDbArc
 50
264.2853400831997
 51
275.6052069981997
  0
LINE
  5
45C6
330
A
100
AcDbEntity
  8
MODEL
100
AcDbLine
 10
223.8190669452869
 20
237.0054502767459
 30
0.0
 11
223.8190669452869
 21
246.5201321466459
 31
0.0
  0
LINE
  5
45C7
330
A
100
AcDbEntity
  8
MODEL
100
AcDbLine
 10
208.7502251844871
 20
237.0054540244459
 30
0.0
 11
208.7502251844871
 21
246.5201313904458
 31
0.0
  0
ARC
  5
45C8
330
A
100
AcDbEntity
  8
MODEL
100
AcDbCircle
 10
227.382188643087
 20
254.5296485021458
 30
0.0
 40
17.88279827954504
100
AcDbArc
 50
258.5068886725
 51
282.3569152291
  0
SPLINE
  5
45C9
330
A
100
AcDbEntity
  8
MODEL
100
AcDbSpline
210
0.0
220
0.0
230
1.0
 70
     8
 71
     3
 72
    14
 73
    10
 74
     0
 42
0.000000001
 43
0.0000000001
 40
0.0
 40
0.0
 40
0.0
 40
0.0
 40
0.2500000000000001
 40
0.2500000000000001
 40
0.5000000000000001
 40
0.5000000000000001
 40
0.7500000000000001
 40
0.7500000000000001
 40
1.0
 40
1.0
 40
1.0
 40
1.0
 10
222.9530135967677
 20
237.00542383335
 30
0.0
 10
221.7705291630145
 20
236.894480359495
 30
0.0
 10
220.5878269683271
 20
236.8033850966457
 30
0.0
 10
218.2218395090352
 20
236.678244440536
 30
0.0
 10
217.0385491868698
 20
236.6446938990908
 30
0.0
 10
214.6712839851249
 20
236.6445726244301
 30
0.0
 10
213.4873090497587
 20
236.6780073496073
 30
0.0
 10
211.1187637534886
 20
236.8031355924209
 30
0.0
 10
209.9330894046774
 20
236.89444705809
 30
0.0
 10
208.7501980351862
 20
237.0054290272855
 30
0.0
  0
ARC
  5
45CA
330
A
100
AcDbEntity
  8
MODEL
100
AcDbCircle
 10
204.321757098787
 20
254.625243556346
 30
0.0
 40
17.97633634767789
100
AcDbArc
 50
257.7060842433999
 51
281.4301095853999
  0
SPLINE
  5
45CB
330
A
100
AcDbEntity
  8
MODEL
100
AcDbSpline
210
0.0
220
0.0
230
1.0
 70
     8
 71
     3
 72
    14
 73
    10
 74
     0
 42
0.000000001
 43
0.0000000001
 40
0.0
 40
0.0
 40
0.0
 40
0.0
 40
0.25
 40
0.25
 40
0.5
 40
0.5
 40
0.75
 40
0.75
 40
1.0
 40
1.0
 40
1.0
 40
1.0
 10
230.3165181731151
 20
235.4313783924205
 30
0.0
 10
230.4468235810155
 20
235.5255323085287
 30
0.0
 10
230.5663344283102
 20
235.6312000966838
 30
0.0
 10
230.7823006123048
 20
235.8671275214861
 30
0.0
 10
230.8796392224206
 20
235.9994389371632
 30
0.0
 10
231.0377396561829
 20
236.2779233364645
 30
0.0
 10
231.0998914588466
 20
236.4248696041531
 30
0.0
 10
231.1861577611161
 20
236.736103528312
 30
0.0
 10
231.2091224461794
 20
236.8982079430556
 30
0.0
 10
231.2091224461794
 20
237.061132481253
 30
0.0
  0
SPLINE
  5
45CC
330
A
100
AcDbEntity
  8
MODEL
100
AcDbSpline
210
0.0
220
0.0
230
1.0
 70
     8
 71
     3
 72
    10
 73
     6
 74
     0
 42
0.000000001
 43
0.0000000001
 40
0.0
 40
0.0
 40
0.0
 40
0.0
 40
0.5
 40
0.5
 40
1.0
 40
1.0
 40
1.0
 40
1.0
 10
200.494116335104
 20
237.0611371267626
 30
0.0
 10
200.494116335104
 20
236.5983323077518
 30
0.0
 10
200.680777706111
 20
236.1541043559588
 30
0.0
 10
201.2777065127987
 20
235.4564813975649
 30
0.0
 10
201.6767787198393
 20
235.2053727600399
 30
0.0
 10
202.1163982203395
 20
235.0664846439196
 30
0.0
  0
LINE
  5
45CD
330
A
100
AcDbEntity
  8
MODEL
100
AcDbLine
 10
223.8190669452869
 20
192.8559311451459
 30
0.0
 11
223.8190669452869
 21
183.3412492752459
 31
0.0
  0
LINE
  5
45CE
330
A
100
AcDbEntity
  8
MODEL
100
AcDbLine
 10
208.7502251844871
 20
192.8559273974459
 30
0.0
 11
208.7502251844871
 21
183.3412500314459
 31
0.0
  0
ARC
  5
45CF
330
A
100
AcDbEntity
  8
MODEL
100
AcDbCircle
 10
227.381445582587
 20
175.2331609433459
 30
0.0
 40
17.97925723931221
100
AcDbArc
 50
77.70799497739974
 51
101.428201121
  0
SPLINE
  5
45D0
330
A
100
AcDbEntity
  8
MODEL
100
AcDbSpline
210
0.0
220
0.0
230
1.0
 70
     8
 71
     2
 72
    12
 73
     9
 74
     0
 42
0.000000001
 43
0.0000000001
 40
0.0
 40
0.0
 40
0.0
 40
0.2308705522898774
 40
0.2308705522898774
 40
0.4999963756084133
 40
0.4999963756084133
 40
0.7691221989269492
 40
0.7691221989269492
 40
1.0
 40
1.0
 40
1.0
 10
222.9530135967677
 20
192.8559575885452
 30
0.0
 10
221.2267004776758
 20
193.0177574016941
 30
0.0
 10
219.6909844649235
 20
193.1048811441535
 30
0.0
 10
217.7193636142967
 20
193.2167344984137
 30
0.0
 10
215.8516051340732
 20
193.2167482442247
 30
0.0
 10
213.9848223034841
 20
193.2167619828553
 30
0.0
 10
212.0122258846822
 20
193.1048779311385
 30
0.0
 10
210.476942374085
 20
193.0177979090608
 30
0.0
 10
208.7501980351862
 20
192.8559523946098
 30
0.0
  0
ARC
  5
45D1
330
A
100
AcDbEntity
  8
MODEL
100
AcDbCircle
 10
204.321779026187
 20
175.2332290548459
 30
0.0
 40
17.97918313302017
100
AcDbArc
 50
78.57179591639992
 51
102.2920102549
  0
SPLINE
  5
45D2
330
A
100
AcDbEntity
  8
MODEL
100
AcDbSpline
210
0.0
220
0.0
230
1.0
 70
     8
 71
     3
 72
    14
 73
    10
 74
     0
 42
0.000000001
 43
0.0000000001
 40
0.0
 40
0.0
 40
0.0
 40
0.0
 40
0.25
 40
0.25
 40
0.5
 40
0.5
 40
0.75
 40
0.75
 40
1.0
 40
1.0
 40
1.0
 40
1.0
 10
230.3165181731151
 20
194.4300030294748
 30
0.0
 10
230.4468235810155
 20
194.3358491133665
 30
0.0
 10
230.5663344283102
 20
194.2301813252115
 30
0.0
 10
230.7823006123048
 20
193.9942539004091
 30
0.0
 10
230.8796392224207
 20
193.8619424847321
 30
0.0
 10
231.0377396561829
 20
193.5834580854307
 30
0.0
 10
231.0998914588466
 20
193.4365118177422
 30
0.0
 10
231.1861577611161
 20
193.1252778935832
 30
0.0
 10
231.2091224461794
 20
192.9631734788397
 30
0.0
 10
231.2091224461794
 20
192.8002489406422
 30
0.0
  0
SPLINE
  5
45D3
330
A
100
AcDbEntity
  8
MODEL
100
AcDbSpline
210
0.0
220
0.0
230
1.0
 70
     8
 71
     3
 72
    10
 73
     6
 74
     0
 42
0.000000001
 43
0.0000000001
 40
0.0
 40
0.0
 40
0.0
 40
0.0
 40
0.5
 40
0.5
 40
1.0
 40
1.0
 40
1.0
 40
1.0
 10
200.494116335104
 20
192.8002442951327
 30
0.0
 10
200.494116335104
 20
193.2630491141434
 30
0.0
 10
200.680777706111
 20
193.7072770659364
 30
0.0
 10
201.2777065127987
 20
194.4049000243304
 30
0.0
 10
201.6767787198393
 20
194.6560086618554
 30
0.0
 10
202.1163982203386
 20
194.7948967779755
 30
0.0
  0
ARC
  5
45D4
330
A
100
AcDbEntity
  8
MODEL
100
AcDbCircle
 10
205.705156872087
 20
226.4902925240459
 30
0.0
 40
35.52075185626634
100
AcDbArc
 50
314.3243472814
 51
319.9670293852998
  0
ARC
  5
45D5
330
A
100
AcDbEntity
  8
MODEL
100
AcDbCircle
 10
225.498758932587
 20
218.4631213870459
 30
0.0
 40
0.0984251531106246
100
AcDbArc
 50
359.9896634541945
 51
90.0
  0
SPLINE
  5
45D6
330
A
100
AcDbEntity
  8
MODEL
100
AcDbSpline
210
0.0
220
0.0
230
1.0
 70
     8
 71
     3
 72
    16
 73
    12
 74
     0
 42
0.000000001
 43
0.0000000001
 40
0.0
 40
0.0
 40
0.0
 40
0.0
 40
0.141511008422583
 40
0.1920922507772815
 40
0.2841510090263215
 40
0.4133355899818805
 40
0.544342456726362
 40
0.668372419031841
 40
0.759380110445097
 40
0.8580732775334621
 40
1.0
 40
1.0
 40
1.0
 40
1.0
 10
222.8662342537114
 20
218.463108294954
 30
0.0
 10
222.8662849864655
 20
218.0918163311631
 30
0.0
 10
222.8672137953751
 20
217.6675562386078
 30
0.0
 10
222.8919002749154
 20
217.0000733116836
 30
0.0
 10
223.077773772992
 20
216.4422200384501
 30
0.0
 10
223.6651905842706
 20
215.9228277428824
 30
0.0
 10
224.5168860135919
 20
215.8472024608612
 30
0.0
 10
225.186090050721
 20
216.2161550035857
 30
0.0
 10
225.5449644048248
 20
216.7905765994905
 30
0.0
 10
225.5955267664098
 20
217.5638179915728
 30
0.0
 10
225.5971172014044
 20
218.0929819640271
 30
0.0
 10
225.597184084054
 20
218.4631036305177
 30
0.0
  0
ARC
  5
45D7
330
A
100
AcDbEntity
  8
MODEL
100
AcDbCircle
 10
222.9646590493871
 20
218.4631217435459
 30
0.0
 40
0.0984247966212093
100
AcDbArc
 50
90.0
 51
180.0078288083082
  0
LINE
  5
45D8
330
A
100
AcDbEntity
  8
MODEL
100
AcDbLine
 10
225.498758932587
 20
218.5615465401459
 30
0.0
 11
222.9646590493871
 21
218.5615465401459
 31
0.0
  0
ARC
  5
45D9
330
A
100
AcDbEntity
  8
MODEL
100
AcDbCircle
 10
222.293275260687
 20
219.2108384861459
 30
0.0
 40
0.6397692952103129
100
AcDbArc
 50
90.0
 51
180.0
  0
LINE
  5
45DA
330
A
100
AcDbEntity
  8
MODEL
100
AcDbLine
 10
221.653505965487
 20
219.2108384861459
 30
0.0
 11
221.653505965487
 21
217.7991588918459
 31
0.0
  0
SPLINE
  5
45DB
330
A
100
AcDbEntity
  8
MODEL
100
AcDbSpline
210
0.0
220
0.0
230
1.0
 70
     8
 71
     3
 72
    33
 73
    29
 74
     0
 42
0.000000001
 43
0.0000000001
 40
0.0
 40
0.0
 40
0.0
 40
0.0
 40
0.0271010577083423
 40
0.0475933627485001
 40
0.1055525777426376
 40
0.1244047119227962
 40
0.181571990374535
 40
0.198834801296985
 40
0.261547653773547
 40
0.2771384288634365
 40
0.3392491045007465
 40
0.353215390285563
 40
0.435680698659524
 40
0.4476309076283225
 40
0.542758857591583
 40
0.552470404059693
 40
0.639550421071876
 40
0.647238364914508
 40
0.712183517980366
 40
0.718352935617658
 40
0.785195472695883
 40
0.789838443420437
 40
0.92412913919351
 40
0.925867450439667
 40
0.999844658573712
 40
0.999844658573712
 40
0.999844658573712
 40
1.0
 40
1.0
 40
1.0
 40
1.0
 10
221.6535059654905
 20
217.7991588918522
 30
0.0
 10
221.653109244976
 20
217.7014003911754
 30
0.0
 10
221.6532345217367
 20
217.544599742757
 30
0.0
 10
221.6579678184981
 20
217.2149450596416
 30
0.0
 10
221.6705424045606
 20
216.8927702372023
 30
0.0
 10
221.7174176032744
 20
216.4498871316846
 30
0.0
 10
221.7745684188408
 20
216.147715947263
 30
0.0
 10
221.9193676101845
 20
215.7226721144022
 30
0.0
 10
222.0715392467711
 20
215.4431958921456
 30
0.0
 10
222.35851842566
 20
215.0788309756051
 30
0.0
 10
222.585269629336
 20
214.8745107705884
 30
0.0
 10
223.0269510365262
 20
214.5968510869065
 30
0.0
 10
223.3684368033823
 20
214.4763338716238
 30
0.0
 10
223.9842362806546
 20
214.3618027561232
 30
0.0
 10
224.3716872293906
 20
214.3562121269144
 30
0.0
 10
224.998060233514
 20
214.4502183506121
 30
0.0
 10
225.3326735840149
 20
214.5531903141678
 30
0.0
 10
225.7908939013176
 20
214.8096582971238
 30
0.0
 10
225.9953684218802
 20
214.9743787685258
 30
0.0
 10
226.3008543886821
 20
215.3108516660776
 30
0.0
 10
226.4416330234529
 20
215.5270961646797
 30
0.0
 10
226.7179623880722
 20
216.146882896038
 30
0.0
 10
226.7769042420737
 20
216.6305998011671
 30
0.0
 10
226.8121461493365
 20
217.3002859828447
 30
0.0
 10
226.8146225254902
 20
217.5308455016378
 30
0.0
 10
226.8097815223325
 20
217.79747867101
 30
0.0
 10
226.8097713569268
 20
217.7980385620612
 30
0.0
 10
226.8097611595064
 20
217.7985986355154
 30
0.0
 10
226.809750930095
 20
217.7991588918521
 30
0.0
  0
LINE
  5
45DC
330
A
100
AcDbEntity
  8
MODEL
100
AcDbLine
 10
226.809750930087
 20
217.7991588918459
 30
0.0
 11
226.809750930087
 21
219.2108385719459
 31
0.0
  0
ARC
  5
45DD
330
A
100
AcDbEntity
  8
MODEL
100
AcDbCircle
 10
226.169981720687
 20
219.2108385719459
 30
0.0
 40
0.6397692093761052
100
AcDbArc
 50
0.0
 51
90.0
  0
LINE
  5
45DE
330
A
100
AcDbEntity
  8
MODEL
100
AcDbLine
 10
226.169981720687
 20
219.8506077813459
 30
0.0
 11
222.293275260687
 21
219.8506077813459
 31
0.0
  0
LINE
  5
45DF
330
A
100
AcDbEntity
  8
MODEL
100
AcDbLine
 10
218.179243116187
 20
212.1030811046459
 30
0.0
 11
216.601633502687
 21
213.6806907180459
 31
0.0
  0
LINE
  5
45E0
330
A
100
AcDbEntity
  8
MODEL
100
AcDbLine
 10
216.601633502687
 20
213.6806907180459
 30
0.0
 11
216.601633502687
 21
218.7429720770459
 31
0.0
  0
LINE
  5
45E1
330
A
100
AcDbEntity
  8
MODEL
100
AcDbLine
 10
216.601633502687
 20
218.7429720770459
 30
0.0
 11
217.480953268587
 21
218.7429720770459
 31
0.0
  0
ARC
  5
45E2
330
A
100
AcDbEntity
  8
MODEL
100
AcDbCircle
 10
217.480953268587
 20
219.3315503331459
 30
0.0
 40
0.5885782561375337
100
AcDbArc
 50
270.0
 51
325.8954461373904
  0
ARC
  5
45E3
330
A
100
AcDbEntity
  8
MODEL
100
AcDbCircle
 10
217.4794257383871
 20
219.3298020047459
 30
0.0
 40
0.5888672869420922
100
AcDbArc
 50
326.1196353018967
 51
22.00000000000097
  0
LINE
  5
45E4
330
A
100
AcDbEntity
  8
MODEL
100
AcDbLine
 10
218.0254139792871
 20
219.5503955730459
 30
0.0
 11
216.3970995500869
 21
223.5806152100459
 31
0.0
  0
ARC
  5
45E5
330
A
100
AcDbEntity
  8
MODEL
100
AcDbCircle
 10
215.847425175987
 20
223.3637690980459
 30
0.0
 40
0.5909011370505466
100
AcDbArc
 50
21.52919566030068
 51
89.5938290492007
  0
ARC
  5
45E6
330
A
100
AcDbEntity
  8
MODEL
100
AcDbCircle
 10
215.855910731987
 20
223.3636677257459
 30
0.0
 40
0.5910032807138315
100
AcDbArc
 50
90.41655242339856
 51
158.4641133997964
  0
LINE
  5
45E7
330
A
100
AcDbEntity
  8
MODEL
100
AcDbLine
 10
215.306166671987
 20
223.5806155220459
 30
0.0
 11
213.677852582287
 21
219.5503967252459
 31
0.0
  0
ARC
  5
45E8
330
A
100
AcDbEntity
  8
MODEL
100
AcDbCircle
 10
214.223840823187
 20
219.3298031569459
 30
0.0
 40
0.5888672869415661
100
AcDbArc
 50
157.9999999999994
 51
213.8804806534027
  0
ARC
  5
45E9
330
A
100
AcDbEntity
  8
MODEL
100
AcDbCircle
 10
214.2223130515869
 20
219.3315518335459
 30
0.0
 40
0.5885782561075933
100
AcDbArc
 50
214.1047111144925
 51
270.0
  0
LINE
  5
45EA
330
A
100
AcDbEntity
  8
MODEL
100
AcDbLine
 10
214.2223130515869
 20
218.7429735774459
 30
0.0
 11
215.101633501487
 21
218.7429735774459
 31
0.0
  0
LINE
  5
45EB
330
A
100
AcDbEntity
  8
MODEL
100
AcDbLine
 10
215.101633501487
 20
218.7429735774459
 30
0.0
 11
215.101633501487
 21
213.6806907050459
 31
0.0
  0
LINE
  5
45EC
330
A
100
AcDbEntity
  8
MODEL
100
AcDbLine
 10
215.101633501487
 20
213.6806907050459
 30
0.0
 11
213.523967776487
 21
212.1030249801459
 31
0.0
  0
ARC
  5
45ED
330
A
100
AcDbEntity
  8
MODEL
100
AcDbCircle
 10
213.940234196787
 20
211.6867585598459
 30
0.0
 40
0.5886896170537271
100
AcDbArc
 50
134.9999999999961
 51
157.3121882691976
  0
ARC
  5
45EE
330
A
100
AcDbEntity
  8
MODEL
100
AcDbCircle
 10
213.9407097588871
 20
211.6868938886459
 30
0.0
 40
0.5890762632847694
100
AcDbArc
 50
157.3421733307006
 51
180.0
  0
LINE
  5
45EF
330
A
100
AcDbEntity
  8
MODEL
100
AcDbLine
 10
213.351633495587
 20
211.6868938886459
 30
0.0
 11
213.351633495587
 21
206.3509820992459
 31
0.0
  0
ARC
  5
45F0
330
A
100
AcDbEntity
  8
MODEL
100
AcDbCircle
 10
213.942287300787
 20
206.3463696102459
 30
0.0
 40
0.5906718147361746
100
AcDbArc
 50
179.5525792230024
 51
247.116370091104
  0
ARC
  5
45F1
330
A
100
AcDbEntity
  8
MODEL
100
AcDbCircle
 10
213.9350612880871
 20
206.3491558268459
 30
0.0
 40
0.5904795737960687
100
AcDbArc
 50
247.8674969349922
 51
315.4598752734877
  0
LINE
  5
45F2
330
A
100
AcDbEntity
  8
MODEL
100
AcDbLine
 10
214.355931167487
 20
205.9349883828459
 30
0.0
 11
215.851633495587
 21
207.4306907109459
 31
0.0
  0
LINE
  5
45F3
330
A
100
AcDbEntity
  8
MODEL
100
AcDbLine
 10
215.851633495587
 20
207.4306907109459
 30
0.0
 11
217.347335823587
 21
205.9349883828459
 31
0.0
  0
ARC
  5
45F4
330
A
100
AcDbEntity
  8
MODEL
100
AcDbCircle
 10
217.7682526569872
 20
206.3493821716459
 30
0.0
 40
0.5906718147462834
100
AcDbArc
 50
224.5525792236943
 51
292.1163700862911
  0
ARC
  5
45F5
330
A
100
AcDbEntity
  8
MODEL
100
AcDbCircle
 10
217.7611729415871
 20
206.3462427617459
 30
0.0
 40
0.590479573794472
100
AcDbArc
 50
292.8674969306998
 51
0.4598752736030772
  0
LINE
  5
45F6
330
A
100
AcDbEntity
  8
MODEL
100
AcDbLine
 10
218.351633495587
 20
206.3509820992459
 30
0.0
 11
218.351633495587
 21
211.6869732457459
 31
0.0
  0
ARC
  5
45F7
330
A
100
AcDbEntity
  8
MODEL
100
AcDbCircle
 10
217.762943878487
 20
211.6869732457459
 30
0.0
 40
0.5886896170546819
100
AcDbArc
 50
0.0
 51
22.31218824389741
  0
ARC
  5
45F8
330
A
100
AcDbEntity
  8
MODEL
100
AcDbCircle
 10
217.762703295687
 20
211.6865412841459
 30
0.0
 40
0.5890762633249461
100
AcDbArc
 50
22.34217293329798
 51
44.99999999999023
  0
ARC
  5
45F9
330
A
100
AcDbEntity
  8
MODEL
100
AcDbCircle
 10
224.750744151787
 20
212.4904709260459
 30
0.0
 40
0.0984251968504019
100
AcDbArc
 50
90.0
 51
179.9999980810954
  0
LINE
  5
45FA
330
A
100
AcDbEntity
  8
MODEL
100
AcDbLine
 10
225.646104605487
 20
212.5888961228459
 30
0.0
 11
224.750744151787
 21
212.5888961228459
 31
0.0
  0
ARC
  5
45FB
330
A
100
AcDbEntity
  8
MODEL
100
AcDbCircle
 10
225.646104605487
 20
212.4904709260459
 30
0.0
 40
0.0984251968503882
100
AcDbArc
 50
359.9999940734022
 51
90.0
  0
LINE
  5
45FC
330
A
100
AcDbEntity
  8
MODEL
100
AcDbLine
 10
225.7445297059871
 20
211.5581653614459
 30
0.0
 11
225.7445298023869
 21
212.4904709158459
 31
0.0
  0
SPLINE
  5
45FD
330
A
100
AcDbEntity
  8
MODEL
100
AcDbSpline
210
0.0
220
0.0
230
1.0
 70
     8
 71
     3
 72
    23
 73
    19
 74
     0
 42
0.000000001
 43
0.0000000001
 40
0.0
 40
0.0
 40
0.0
 40
0.0
 40
0.092398192999856
 40
0.0924640690707342
 40
0.238480572747953
 40
0.238650599483362
 40
0.460146339871655
 40
0.460474405085007
 40
0.589746629526249
 40
0.590167094359008
 40
0.6999843549917301
 40
0.700483414740477
 40
0.8923161321318971
 40
0.8929523164430581
 40
0.9992875495147431
 40
0.9992875495147431
 40
0.9992875495147431
 40
1.0
 40
1.0
 40
1.0
 40
1.0
 10
224.6523189282371
 20
211.6934102760851
 30
0.0
 10
224.6523824447397
 20
211.6071681358336
 30
0.0
 10
224.6545302179097
 20
211.5350367639882
 30
0.0
 10
224.6671293614208
 20
211.3470021727568
 30
0.0
 10
224.6816972190022
 20
211.2297265785867
 30
0.0
 10
224.7840423998547
 20
210.9568458260295
 30
0.0
 10
224.9060545238236
 20
210.8122166226192
 30
0.0
 10
225.1468942547082
 20
210.736863487495
 30
0.0
 10
225.246426241598
 20
210.7421842814944
 30
0.0
 10
225.4135102831833
 20
210.7988167681978
 30
0.0
 10
225.4843248253491
 20
210.8433864409863
 30
0.0
 10
225.6386429161991
 20
211.0073391983356
 30
0.0
 10
225.6937748651782
 20
211.1591553238706
 30
0.0
 10
225.7360259837854
 20
211.387365586752
 30
0.0
 10
225.7425884097872
 20
211.467644542799
 30
0.0
 10
225.7444920632647
 20
211.5563805503066
 30
0.0
 10
225.7445048178224
 20
211.5569750852485
 30
0.0
 10
225.7445173649969
 20
211.5575700212645
 30
0.0
 10
225.7445297059441
 20
211.558165361464
 30
0.0
  0
LINE
  5
45FE
330
A
100
AcDbEntity
  8
MODEL
100
AcDbLine
 10
224.652318954887
 20
212.4904709293459
 30
0.0
 11
224.652318928287
 21
211.6934102760459
 31
0.0
  0
ARC
  5
45FF
330
A
100
AcDbEntity
  8
MODEL
100
AcDbCircle
 10
222.2932697449871
 20
213.2286594480459
 30
0.0
 40
0.6397637795275516
100
AcDbArc
 50
179.5733160096012
 51
270.0
  0
LINE
  5
4600
330
A
100
AcDbEntity
  8
MODEL
100
AcDbLine
 10
222.2932697449871
 20
212.5888956685459
 30
0.0
 11
223.488999222687
 21
212.5888956685459
 31
0.0
  0
ARC
  5
4601
330
A
100
AcDbEntity
  8
MODEL
100
AcDbCircle
 10
223.488999222687
 20
212.4904661072459
 30
0.0
 40
0.0984295613349413
100
AcDbArc
 50
359.4615539187043
 51
90.0
  0
SPLINE
  5
4602
330
A
100
AcDbEntity
  8
MODEL
100
AcDbSpline
210
0.0
220
0.0
230
1.0
 70
     8
 71
     3
 72
    20
 73
    16
 74
     0
 42
0.000000001
 43
0.0000000001
 40
0.0
 40
0.0
 40
0.0
 40
0.0
 40
0.1197166564759233
 40
0.2395147714188278
 40
0.3646891284243638
 40
0.4959541046169471
 40
0.5644469112191609
 40
0.6344595340948006
 40
0.7672851626895844
 40
0.7974211491955324
 40
0.8261286084876474
 40
0.8816231806739643
 40
0.9386749888781608
 40
0.9687015113854645
 40
1.0
 40
1.0
 40
1.0
 40
1.0
 10
223.5874244376634
 20
212.4895411135753
 30
0.0
 10
223.5867807884596
 20
212.421052722983
 30
0.0
 10
223.5854884760698
 20
212.2840294101299
 30
0.0
 10
223.5796704178054
 20
212.0754541034716
 30
0.0
 10
223.5649730212448
 20
211.8605741011897
 30
0.0
 10
223.5361801088788
 20
211.6765777486393
 30
0.0
 10
223.4991655073142
 20
211.5265739122466
 30
0.0
 10
223.4521485740214
 20
211.3788287095117
 30
0.0
 10
223.3959760058166
 20
211.2555768143244
 30
0.0
 10
223.3279589333717
 20
211.1692678962983
 30
0.0
 10
223.2812589726236
 20
211.1232088002068
 30
0.0
 10
223.2133104728745
 20
211.0780896972798
 30
0.0
 10
223.1380905570495
 20
211.0460212045658
 30
0.0
 10
223.0743167071483
 20
211.0232479520089
 30
0.0
 10
223.0410501742785
 20
211.0120956461345
 30
0.0
 10
223.0240719107412
 20
211.0064038360223
 30
0.0
  0
LINE
  5
4603
330
A
100
AcDbEntity
  8
MODEL
100
AcDbLine
 10
223.024071910787
 20
211.0064038360459
 30
0.0
 11
222.089823038787
 21
210.6930434149459
 31
0.0
  0
ARC
  5
4604
330
A
100
AcDbEntity
  8
MODEL
100
AcDbCircle
 10
222.2932697449871
 20
210.0864899290459
 30
0.0
 40
0.6397637795276564
100
AcDbArc
 50
108.5421887240018
 51
178.3494402212011
  0
ARC
  5
4605
330
A
100
AcDbEntity
  8
MODEL
100
AcDbCircle
 10
222.2932697451872
 20
210.1233450756459
 30
0.0
 40
0.6397637795276242
100
AcDbArc
 50
181.6505593545977
 51
279.6032851476855
  0
LINE
  5
4606
330
A
100
AcDbEntity
  8
MODEL
100
AcDbLine
 10
222.399998516887
 20
209.4925466428459
 30
0.0
 11
223.175630536087
 21
209.6237807239459
 31
0.0
  0
ARC
  5
4607
330
A
100
AcDbEntity
  8
MODEL
100
AcDbCircle
 10
223.0689317707869
 20
210.2544018097459
 30
0.0
 40
0.6395839118897594
100
AcDbArc
 50
279.6032851477191
 51
300.2574452817115
  0
SPLINE
  5
4608
330
A
100
AcDbEntity
  8
MODEL
100
AcDbSpline
210
0.0
220
0.0
230
1.0
 70
     8
 71
     3
 72
    13
 73
     9
 74
     0
 42
0.000000001
 43
0.0000000001
 40
0.0
 40
0.0
 40
0.0
 40
0.0
 40
0.1455455796303835
 40
0.281846562498652
 40
0.4974033071830778
 40
0.7536167077972298
 40
0.8781295929096155
 40
1.0
 40
1.0
 40
1.0
 40
1.0
 10
223.3912092928113
 20
209.7019483916854
 30
0.0
 10
223.4153860992232
 20
209.7163321062405
 30
0.0
 10
223.4622040774587
 20
209.7441859271096
 30
0.0
 10
223.5425413684139
 20
209.7970332862667
 30
0.0
 10
223.6376159267463
 20
209.866213093785
 30
0.0
 10
223.7241419167738
 20
209.9429305987526
 30
0.0
 10
223.7873102074317
 20
210.0171817500311
 30
0.0
 10
223.8119112493478
 20
210.058033961369
 30
0.0
 10
223.824079222837
 20
210.078241348922
 30
0.0
  0
ARC
  5
4609
330
A
100
AcDbEntity
  8
MODEL
100
AcDbCircle
 10
223.909713651587
 20
210.0297199302459
 30
0.0
 40
0.0984255223637005
100
AcDbArc
 50
30.30994930117601
 51
150.4636272756114
  0
SPLINE
  5
460A
330
A
100
AcDbEntity
  8
MODEL
100
AcDbSpline
210
0.0
220
0.0
230
1.0
 70
     8
 71
     3
 72
    28
 73
    24
 74
     0
 42
0.000000001
 43
0.0000000001
 40
0.0
 40
0.0
 40
0.0
 40
0.0
 40
0.032571770715603
 40
0.063991642868641
 40
0.1243096290848876
 40
0.1542429662217457
 40
0.1847550736897217
 40
0.2474549648811719
 40
0.2791914796088367
 40
0.3107847434139953
 40
0.3735813427328146
 40
0.4363117654703799
 40
0.4992418953815492
 40
0.5618819096344413
 40
0.6245301905484394
 40
0.6874342798608971
 40
0.7188960501634816
 40
0.7503622312027323
 40
0.7818420906427418
 40
0.8132062101163511
 40
0.8746467097150187
 40
0.935253294624417
 40
1.0
 40
1.0
 40
1.0
 40
1.0
 10
223.994685185268
 20
210.07939308106
 30
0.0
 10
224.0214885698574
 20
210.0351162489347
 30
0.0
 10
224.0741474390751
 20
209.9481284319855
 30
0.0
 10
224.1907024150714
 20
209.7886262273576
 30
0.0
 10
224.3263679404051
 20
209.6482302949005
 30
0.0
 10
224.4855255084626
 20
209.5400399362663
 30
0.0
 10
224.6618020352172
 20
209.4540790314746
 30
0.0
 10
224.8543667578373
 20
209.3996781881724
 30
0.0
 10
225.0525133516568
 20
209.3705961128734
 30
0.0
 10
225.2526158781399
 20
209.3575969894012
 30
0.0
 10
225.5029819903755
 20
209.3723903667203
 30
0.0
 10
225.7958627230112
 20
209.4407390172958
 30
0.0
 10
226.0723838229111
 20
209.5588810375087
 30
0.0
 10
226.3205477001182
 20
209.7301669574153
 30
0.0
 10
226.5200980234439
 20
209.9564749392139
 30
0.0
 10
226.6401596318541
 20
210.1774979142762
 30
0.0
 10
226.705929417468
 20
210.3665311886698
 30
0.0
 10
226.7413409231905
 20
210.5124315753936
 30
0.0
 10
226.7658042446042
 20
210.6603056453997
 30
0.0
 10
226.7870551966845
 20
210.8566201023297
 30
0.0
 10
226.8009035289192
 20
211.0999523646556
 30
0.0
 10
226.811554869982
 20
211.3964752051348
 30
0.0
 10
226.8103653391799
 20
211.5955838315803
 30
0.0
 10
226.809750930095
 20
211.6984261865349
 30
0.0
  0
LINE
  5
460B
330
A
100
AcDbEntity
  8
MODEL
100
AcDbLine
 10
226.809750930087
 20
211.6984261865459
 30
0.0
 11
226.809750930087
 21
213.2381881546459
 31
0.0
  0
ARC
  5
460C
330
A
100
AcDbEntity
  8
MODEL
100
AcDbCircle
 10
226.169981720687
 20
213.2381881546459
 30
0.0
 40
0.6397692094127772
100
AcDbArc
 50
0.0
 51
90.0
  0
LINE
  5
460D
330
A
100
AcDbEntity
  8
MODEL
100
AcDbLine
 10
226.169981720687
 20
213.8779573640459
 30
0.0
 11
222.293275260687
 21
213.8779573640459
 31
0.0
  0
ARC
  5
460E
330
A
100
AcDbEntity
  8
MODEL
100
AcDbCircle
 10
222.293275260687
 20
213.2381880688459
 30
0.0
 40
0.639769295211267
100
AcDbArc
 50
90.0
 51
180.4266816790983
  0
LINE
  5
460F
330
A
100
AcDbEntity
  8
MODEL
100
AcDbLine
 10
213.4420311533869
 20
182.4306907109459
 30
0.0
 11
218.2612358377871
 21
182.4306907109459
 31
0.0
  0
LINE
  5
4610
330
A
100
AcDbEntity
  8
MODEL
100
AcDbLine
 10
203.143246110887
 20
182.4306907109459
 30
0.0
 11
205.552774209687
 21
182.4306907109459
 31
0.0
  0
LINE
  5
4611
330
A
100
AcDbEntity
  8
MODEL
100
AcDbLine
 10
226.150345631687
 20
182.4306907109459
 30
0.0
 11
228.560083176787
 21
182.4306907109459
 31
0.0
  0
LINE
  5
4612
330
A
100
AcDbEntity
  8
MODEL
100
AcDbLine
 10
207.884199780687
 20
183.3412500314459
 30
0.0
 11
207.884199780687
 21
192.8559228613459
 31
0.0
  0
LINE
  5
4613
330
A
100
AcDbEntity
  8
MODEL
100
AcDbLine
 10
222.953040746087
 20
183.3412497430459
 30
0.0
 11
222.953040746087
 21
192.8559267702459
 31
0.0
  0
LINE
  5
4614
330
A
100
AcDbEntity
  8
MODEL
100
AcDbLine
 10
231.209122446187
 20
183.5031124566459
 30
0.0
 11
231.209122446187
 21
192.8002489406459
 31
0.0
  0
LINE
  5
4615
330
A
100
AcDbEntity
  8
MODEL
100
AcDbLine
 10
200.494116335087
 20
183.5031287435459
 30
0.0
 11
200.494116335087
 21
192.8002442951459
 31
0.0
  0
ARC
  5
4616
330
A
100
AcDbEntity
  8
MODEL
100
AcDbCircle
 10
228.793787629487
 20
192.4178399046459
 30
0.0
 40
10.35047551264705
100
AcDbArc
 50
241.2736226394999
 51
247.9241284582005
  0
LINE
  5
4617
330
A
100
AcDbEntity
  8
MODEL
100
AcDbLine
 10
206.799707608387
 20
182.8262688752459
 30
0.0
 11
207.884199780687
 21
183.3412500314459
 31
0.0
  0
ARC
  5
4618
330
A
100
AcDbEntity
  8
MODEL
100
AcDbCircle
 10
225.761994699487
 20
192.8236096336459
 30
0.0
 40
10.79550222621428
100
AcDbArc
 50
292.1689018141993
 51
300.3030653626001
  0
ARC
  5
4619
330
A
100
AcDbEntity
  8
MODEL
100
AcDbCircle
 10
205.9610513953871
 20
192.8627754513459
 30
0.0
 40
10.83929727652136
100
AcDbArc
 50
239.7109572423995
 51
247.8111667764995
  0
LINE
  5
461A
330
A
100
AcDbEntity
  8
MODEL
100
AcDbLine
 10
218.2612358377871
 20
182.4306907109459
 30
0.0
 11
226.150345631687
 21
182.4306907109459
 31
0.0
  0
LINE
  5
461B
330
A
100
AcDbEntity
  8
MODEL
100
AcDbLine
 10
228.560083176787
 20
182.4306907109459
 30
0.0
 11
229.351633495587
 21
182.4306907109459
 31
0.0
  0
LINE
  5
461C
330
A
100
AcDbEntity
  8
MODEL
100
AcDbLine
 10
203.143246110887
 20
182.4306907109459
 30
0.0
 11
202.351633495587
 21
182.4306907109459
 31
0.0
  0
LINE
  5
461D
330
A
100
AcDbEntity
  8
MODEL
100
AcDbLine
 10
205.552774209687
 20
182.4306907109459
 30
0.0
 11
213.4420311533869
 21
182.4306907109459
 31
0.0
  0
ARC
  5
461E
330
A
100
AcDbEntity
  8
MODEL
100
AcDbCircle
 10
227.912353164287
 20
190.1470114103459
 30
0.0
 40
7.914940030104468
100
AcDbArc
 50
247.6588867888994
 51
257.1371569387001
  0
ARC
  5
461F
330
A
100
AcDbEntity
  8
MODEL
100
AcDbCircle
 10
223.3860531845871
 20
182.1172264196459
 30
0.0
 40
1.298357758081153
100
AcDbArc
 50
70.51811459900213
 51
109.4818235076009
  0
LINE
  5
4620
330
A
100
AcDbEntity
  8
MODEL
100
AcDbLine
 10
222.953040746087
 20
183.3412497430459
 30
0.0
 11
220.7833605744869
 21
182.8261289805459
 31
0.0
  0
ARC
  5
4621
330
A
100
AcDbEntity
  8
MODEL
100
AcDbCircle
 10
215.1474834245871
 20
210.5280976373459
 30
0.0
 40
28.26941333098321
100
AcDbArc
 50
276.3237107128999
 51
281.4997040112999
  0
ARC
  5
4622
330
A
100
AcDbEntity
  8
MODEL
100
AcDbCircle
 10
216.555932840887
 20
210.5292858359459
 30
0.0
 40
28.27061074186151
100
AcDbArc
 50
258.5004804933001
 51
263.6762538379999
  0
SPLINE
  5
4623
330
A
100
AcDbEntity
  8
MODEL
100
AcDbSpline
210
0.0
220
0.0
230
1.0
 70
     8
 71
     3
 72
     8
 73
     4
 74
     0
 42
0.000000001
 43
0.0000000001
 40
0.0
 40
0.0
 40
0.0
 40
0.0
 40
1.0
 40
1.0
 40
1.0
 40
1.0
 10
210.9199118959661
 20
182.8261686895535
 30
0.0
 10
210.189487119888
 20
182.9727458534294
 30
0.0
 10
209.4656138499542
 20
183.1467108482781
 30
0.0
 10
208.7502251845156
 20
183.3412500314231
 30
0.0
  0
ARC
  5
4624
330
A
100
AcDbEntity
  8
MODEL
100
AcDbCircle
 10
208.3172124825871
 20
182.1157105662459
 30
0.0
 40
1.299787282830536
100
AcDbArc
 50
70.5404548319019
 51
109.4595451680026
  0
ARC
  5
4625
330
A
100
AcDbEntity
  8
MODEL
100
AcDbCircle
 10
203.790434211187
 20
190.1487714968459
 30
0.0
 40
7.916729961770917
100
AcDbArc
 50
282.8623530673004
 51
292.3393025563997
  0
ARC
  5
4626
330
A
100
AcDbEntity
  8
MODEL
100
AcDbCircle
 10
204.8076969400869
 20
190.0550942907459
 30
0.0
 40
7.803968638526055
100
AcDbArc
 50
247.866906923101
 51
257.6852084904006
  0
ARC
  5
4627
330
A
100
AcDbEntity
  8
MODEL
100
AcDbCircle
 10
226.897302273487
 20
190.0480548240459
 30
0.0
 40
7.796734980965396
100
AcDbArc
 50
282.3138354019995
 51
292.1390830118005
  0
LINE
  5
4628
330
A
100
AcDbEntity
  8
MODEL
100
AcDbLine
 10
218.2612358377871
 20
247.4306907109458
 30
0.0
 11
213.4420311533869
 21
247.4306907109458
 31
0.0
  0
LINE
  5
4629
330
A
100
AcDbEntity
  8
MODEL
100
AcDbLine
 10
228.560083176787
 20
247.4306907109458
 30
0.0
 11
226.150345631687
 21
247.4306907109458
 31
0.0
  0
LINE
  5
462A
330
A
100
AcDbEntity
  8
MODEL
100
AcDbLine
 10
205.552774209687
 20
247.4306907109458
 30
0.0
 11
203.143246110887
 21
247.4306907109458
 31
0.0
  0
LINE
  5
462B
330
A
100
AcDbEntity
  8
MODEL
100
AcDbLine
 10
207.884199780687
 20
246.5201313904458
 30
0.0
 11
207.884199780687
 21
237.0054585605459
 31
0.0
  0
LINE
  5
462C
330
A
100
AcDbEntity
  8
MODEL
100
AcDbLine
 10
222.953040746087
 20
246.520131678846
 30
0.0
 11
222.953040746087
 21
237.0054546516459
 31
0.0
  0
LINE
  5
462D
330
A
100
AcDbEntity
  8
MODEL
100
AcDbLine
 10
231.209122446187
 20
246.3582689652459
 30
0.0
 11
231.209122446187
 21
237.0611324812459
 31
0.0
  0
LINE
  5
462E
330
A
100
AcDbEntity
  8
MODEL
100
AcDbLine
 10
200.494116335087
 20
246.358252678346
 30
0.0
 11
200.494116335087
 21
237.0611371267459
 31
0.0
  0
LINE
  5
462F
330
A
100
AcDbEntity
  8
MODEL
100
AcDbLine
 10
218.2612358377871
 20
247.4306907109458
 30
0.0
 11
226.150345631687
 21
247.4306907109458
 31
0.0
  0
ARC
  5
4630
330
A
100
AcDbEntity
  8
MODEL
100
AcDbCircle
 10
227.9123531668872
 20
239.7143700017459
 30
0.0
 40
7.914940040304494
100
AcDbArc
 50
102.8628430637013
 51
112.3411132037
  0
ARC
  5
4631
330
A
100
AcDbEntity
  8
MODEL
100
AcDbCircle
 10
223.3860531845871
 20
247.7441550022459
 30
0.0
 40
1.298357758081153
100
AcDbArc
 50
250.5181764923991
 51
289.4818854009979
  0
LINE
  5
4632
330
A
100
AcDbEntity
  8
MODEL
100
AcDbLine
 10
222.953040746087
 20
246.520131678846
 30
0.0
 11
220.7833605744869
 21
247.0352524413458
 31
0.0
  0
ARC
  5
4633
330
A
100
AcDbEntity
  8
MODEL
100
AcDbCircle
 10
215.147483424487
 20
219.3332837845459
 30
0.0
 40
28.26941333103007
100
AcDbArc
 50
78.50029598869992
 51
83.67628928709998
  0
ARC
  5
4634
330
A
100
AcDbEntity
  8
MODEL
100
AcDbCircle
 10
203.790434211187
 20
239.7126099250459
 30
0.0
 40
7.91672996174854
100
AcDbArc
 50
67.66069744360043
 51
77.13764693269981
  0
LINE
  5
4635
330
A
100
AcDbEntity
  8
MODEL
100
AcDbLine
 10
205.552774209687
 20
247.4306907109458
 30
0.0
 11
213.4420311533869
 21
247.4306907109458
 31
0.0
  0
ARC
  5
4636
330
A
100
AcDbEntity
  8
MODEL
100
AcDbCircle
 10
216.5559328409869
 20
219.3320955855459
 30
0.0
 40
28.2706107423201
100
AcDbArc
 50
96.32374616200002
 51
101.4995195066996
  0
SPLINE
  5
4637
330
A
100
AcDbEntity
  8
MODEL
100
AcDbSpline
210
0.0
220
0.0
230
1.0
 70
     8
 71
     3
 72
     8
 73
     4
 74
     0
 42
0.000000001
 43
0.0000000001
 40
0.0
 40
0.0
 40
0.0
 40
0.0
 40
1.0
 40
1.0
 40
1.0
 40
1.0
 10
210.9199118959565
 20
247.035212732341
 30
0.0
 10
210.1894871201741
 20
246.8886355685345
 30
0.0
 10
209.4656138500944
 20
246.7146705736554
 30
0.0
 10
208.7502251845156
 20
246.520131390472
 30
0.0
  0
ARC
  5
4638
330
A
100
AcDbEntity
  8
MODEL
100
AcDbCircle
 10
208.3172124825871
 20
247.745670855646
 30
0.0
 40
1.299787282830535
100
AcDbArc
 50
250.5404548319974
 51
289.4595451680977
  0
ARC
  5
4639
330
A
100
AcDbEntity
  8
MODEL
100
AcDbCircle
 10
226.897302273487
 20
239.8133265979459
 30
0.0
 40
7.796734980943358
100
AcDbArc
 50
67.86091698820036
 51
77.68616459800015
  0
LINE
  5
463A
330
A
100
AcDbEntity
  8
MODEL
100
AcDbLine
 10
229.351633495587
 20
247.4306907109458
 30
0.0
 11
228.560083176787
 21
247.4306907109458
 31
0.0
  0
LINE
  5
463B
330
A
100
AcDbEntity
  8
MODEL
100
AcDbLine
 10
202.351633495587
 20
247.4306907109458
 30
0.0
 11
203.143246110887
 21
247.4306907109458
 31
0.0
  0
ARC
  5
463C
330
A
100
AcDbEntity
  8
MODEL
100
AcDbCircle
 10
204.8076969423871
 20
239.8062871220459
 30
0.0
 40
7.803968647818806
100
AcDbArc
 50
102.3147915120004
 51
112.1330930700002
  0
ARC
  5
463D
330
A
100
AcDbEntity
  8
MODEL
100
AcDbCircle
 10
225.761994699487
 20
237.0377717882459
 30
0.0
 40
10.79550222619058
100
AcDbArc
 50
59.69693463740036
 51
67.83109818580006
  0
ARC
  5
463E
330
A
100
AcDbEntity
  8
MODEL
100
AcDbCircle
 10
205.961051402387
 20
236.9986059575459
 30
0.0
 40
10.83929729123551
100
AcDbArc
 50
112.1888332337
 51
120.2890427552002
  0
LINE
  5
463F
330
A
100
AcDbEntity
  8
MODEL
100
AcDbLine
 10
206.799707608387
 20
247.0351125466458
 30
0.0
 11
207.884199780687
 21
246.5201313904458
 31
0.0
  0
ARC
  5
4640
330
A
100
AcDbEntity
  8
MODEL
100
AcDbCircle
 10
228.793787639287
 20
237.4435414982459
 30
0.0
 40
10.35047553412337
100
AcDbArc
 50
112.0758715546
 51
118.7263773575999
  0
ARC
  5
4641
330
A
100
AcDbEntity
  8
MODEL
100
AcDbCircle
 10
3116.429657710888
 20
3862.212998409545
 30
0.0
 40
4636.255130628837
100
AcDbArc
 50
231.5049553057
 51
231.540698722
  0
ARC
  5
4642
330
A
100
AcDbEntity
  8
MODEL
100
AcDbCircle
 10
3116.688638625487
 20
-3432.677715542955
 30
0.0
 40
4636.671557454253
100
AcDbArc
 50
128.4593010655
 51
128.4950411783
  0
LINE
  5
4643
330
A
100
AcDbEntity
  8
MODEL
100
AcDbLine
 10
229.351633495587
 20
182.4306907109459
 30
0.0
 11
231.2091474461872
 21
183.5031268903459
 31
0.0
  0
LINE
  5
4644
330
A
100
AcDbEntity
  8
MODEL
100
AcDbLine
 10
200.4940913350869
 20
183.5031431773459
 30
0.0
 11
202.351633495587
 21
182.4306907109459
 31
0.0
  0
LINE
  5
4645
330
A
100
AcDbEntity
  8
MODEL
100
AcDbLine
 10
231.2091474461872
 20
246.3582545315459
 30
0.0
 11
229.351633495587
 21
247.4306907109458
 31
0.0
  0
LINE
  5
4646
330
A
100
AcDbEntity
  8
MODEL
100
AcDbLine
 10
202.351633495587
 20
247.4306907109458
 30
0.0
 11
200.4940913350869
 21
246.3582382445459
 31
0.0
  0
POLYLINE
  5
4647
330
A
100
AcDbEntity
  8
MODEL
100
AcDb2dPolyline
 66
     1
 10
0.0
 20
0.0
 30
0.0
  0
VERTEX
  5
4648
330
4647
100
AcDbEntity
  8
MODEL
100
AcDbVertex
100
AcDb2dVertex
 10
232.8710306167406
 20
231.7933704305546
 30
0.0
  0
VERTEX
  5
4649
330
4647
100
AcDbEntity
  8
MODEL
100
AcDbVertex
100
AcDb2dVertex
 10
240.3259698966257
 20
227.5334051277631
 30
0.0
  0
VERTEX
  5
464A
330
4647
100
AcDbEntity
  8
MODEL
100
AcDbVertex
100
AcDb2dVertex
 10
248.8459005022088
 20
227.5334051277631
 30
0.0
  0
VERTEX
  5
464B
330
4647
100
AcDbEntity
  8
MODEL
100
AcDbVertex
100
AcDb2dVertex
 10
248.8459005022088
 20
201.7961147567309
 30
0.0
  0
VERTEX
  5
464C
330
4647
100
AcDbEntity
  8
MODEL
100
AcDbVertex
100
AcDb2dVertex
 10
240.1484713423428
 20
201.7961147567309
 30
0.0
  0
VERTEX
  5
464D
330
4647
100
AcDbEntity
  8
MODEL
100
AcDbVertex
100
AcDb2dVertex
 10
232.8710306167406
 20
198.0686451167883
 30
0.0
  0
SEQEND
  5
464E
330
4647
100
AcDbEntity
  8
MODEL
  0
SPLINE
  5
464F
330
A
100
AcDbEntity
  8
MODEL
100
AcDbSpline
210
0.0
220
0.0
230
1.0
 70
     8
 71
     3
 72
    14
 73
    10
 74
     0
 42
0.000000001
 43
0.0000000001
 40
0.0
 40
0.0
 40
0.0
 40
0.0
 40
1.0
 40
1.0
 40
1.0
 40
2.0
 40
2.0
 40
2.0
 40
2.5088729212657
 40
2.5088729212657
 40
2.5088729212657
 40
2.5088729212657
 10
253.2833643592833
 20
225.6696703077918
 30
0.0
 10
253.2833643592833
 20
225.6696703077918
 30
0.0
 10
253.2833643592833
 20
226.6459123563482
 30
0.0
 10
253.2833643592833
 20
226.6459123563482
 30
0.0
 10
253.2833643592833
 20
226.6459123563482
 30
0.0
 10
257.0995832763675
 20
226.6459123563482
 30
0.0
 10
257.0995832763675
 20
226.6459123563482
 30
0.0
 10
257.0995832763675
 20
226.6459123563482
 30
0.0
 10
257.0995832763675
 20
220.6017063856055
 30
0.0
 10
257.0995832763674
 20
214.664759942247
 30
0.0
  0
POLYLINE
  5
4650
330
A
100
AcDbEntity
  8
MODEL
100
AcDb2dPolyline
 66
     1
 10
0.0
 20
0.0
 30
0.0
  0
VERTEX
  5
4651
330
4650
100
AcDbEntity
  8
MODEL
100
AcDbVertex
100
AcDb2dVertex
 10
248.8459005022088
 20
227.0009094649142
 30
0.0
  0
VERTEX
  5
4652
330
4650
100
AcDbEntity
  8
MODEL
100
AcDbVertex
100
AcDb2dVertex
 10
251.7746266478779
 20
227.0009094649142
 30
0.0
  0
VERTEX
  5
4653
330
4650
100
AcDbEntity
  8
MODEL
100
AcDbVertex
100
AcDb2dVertex
 10
251.7746266478779
 20
214.664759942247
 30
0.0
  0
SEQEND
  5
4654
330
4650
100
AcDbEntity
  8
MODEL
  0
POLYLINE
  5
4655
330
A
100
AcDbEntity
  8
MODEL
100
AcDb2dPolyline
 66
     1
 10
0.0
 20
0.0
 30
0.0
  0
VERTEX
  5
4656
330
4655
100
AcDbEntity
  8
MODEL
100
AcDbVertex
100
AcDb2dVertex
 10
251.7746266478779
 20
225.6696703077918
 30
0.0
  0
VERTEX
  5
4657
330
4655
100
AcDbEntity
  8
MODEL
100
AcDbVertex
100
AcDb2dVertex
 10
253.2833643592833
 20
225.6696703077918
 30
0.0
  0
VERTEX
  5
4658
330
4655
100
AcDbEntity
  8
MODEL
100
AcDbVertex
100
AcDb2dVertex
 10
253.2833643592833
 20
214.664759942247
 30
0.0
  0
SEQEND
  5
4659
330
4655
100
AcDbEntity
  8
MODEL
  0
SPLINE
  5
465A
330
A
100
AcDbEntity
  8
MODEL
100
AcDbSpline
210
0.0
220
0.0
230
1.0
 70
     8
 71
     3
 72
    14
 73
    10
 74
     0
 42
0.000000001
 43
0.0000000001
 40
0.0
 40
0.0
 40
0.0
 40
0.0
 40
1.0
 40
1.0
 40
1.0
 40
2.0
 40
2.0
 40
2.0
 40
2.5088729212657
 40
2.5088729212657
 40
2.5088729212657
 40
2.5088729212657
 10
253.2833643592833
 20
203.6598495767022
 30
0.0
 10
253.2833643592833
 20
203.6598495767022
 30
0.0
 10
253.2833643592833
 20
202.6836075281458
 30
0.0
 10
253.2833643592833
 20
202.6836075281458
 30
0.0
 10
253.2833643592833
 20
202.6836075281458
 30
0.0
 10
257.0995832763675
 20
202.6836075281458
 30
0.0
 10
257.0995832763675
 20
202.6836075281458
 30
0.0
 10
257.0995832763675
 20
202.6836075281458
 30
0.0
 10
257.0995832763675
 20
208.7278134988885
 30
0.0
 10
257.0995832763674
 20
214.664759942247
 30
0.0
  0
POLYLINE
  5
465B
330
A
100
AcDbEntity
  8
MODEL
100
AcDb2dPolyline
 66
     1
 10
0.0
 20
0.0
 30
0.0
  0
VERTEX
  5
465C
330
465B
100
AcDbEntity
  8
MODEL
100
AcDbVertex
100
AcDb2dVertex
 10
248.8459005022088
 20
202.3286104195799
 30
0.0
  0
VERTEX
  5
465D
330
465B
100
AcDbEntity
  8
MODEL
100
AcDbVertex
100
AcDb2dVertex
 10
251.7746266478779
 20
202.3286104195799
 30
0.0
  0
VERTEX
  5
465E
330
465B
100
AcDbEntity
  8
MODEL
100
AcDbVertex
100
AcDb2dVertex
 10
251.7746266478779
 20
214.664759942247
 30
0.0
  0
SEQEND
  5
465F
330
465B
100
AcDbEntity
  8
MODEL
  0
POLYLINE
  5
4660
330
A
100
AcDbEntity
  8
MODEL
100
AcDb2dPolyline
 66
     1
 10
0.0
 20
0.0
 30
0.0
  0
VERTEX
  5
4661
330
4660
100
AcDbEntity
  8
MODEL
100
AcDbVertex
100
AcDb2dVertex
 10
251.7746266478779
 20
203.6598495767022
 30
0.0
  0
VERTEX
  5
4662
330
4660
100
AcDbEntity
  8
MODEL
100
AcDbVertex
100
AcDb2dVertex
 10
253.2833643592833
 20
203.6598495767022
 30
0.0
  0
VERTEX
  5
4663
330
4660
100
AcDbEntity
  8
MODEL
100
AcDbVertex
100
AcDb2dVertex
 10
253.2833643592833
 20
214.664759942247
 30
0.0
  0
SEQEND
  5
4664
330
4660
100
AcDbEntity
  8
MODEL
  0
DIMENSION
  5
4665
330
A
100
AcDbEntity
  8
DIM
 48
0.05
100
AcDbDimension
  2
*D16
 10
179.0173384599616
 20
182.4306907109459
 30
0.0
 11
173.5164006082672
 21
214.9306907109458
 31
0.0
 70
    32
 71
     5
 42
64.99999999999997
 73
     0
 74
     0
 75
     0
  3
tfrom線あり
100
AcDbAlignedDimension
 13
202.351633495587
 23
247.4306907109458
 33
0.0
 14
202.351633495587
 24
182.4306907109459
 34
0.0
 50
90.0
100
AcDbRotatedDimension
  0
MTEXT
  5
4666
330
A
100
AcDbEntity
  8
DIM
390
1D
100
AcDbMText
 10
253.1649214467355
 20
260.1658904237275
 30
0.0
 40
4.8865234375
 41
0.0
 46
4.8865234375
 71
     1
 72
     1
  1
{\fＭＳ ゴシック|b0|i0|c1|p0;M24x1}
  7
ＭＳ ゴシック
 73
     1
 44
0.7828267384257843
1001
ACAD
1000
ACAD_MTEXT_DEFINED_HEIGHT_BEGIN
1070
    46
1040
4.8865234375
1000
ACAD_MTEXT_DEFINED_HEIGHT_END
  0
LINE
  5
4667
330
A
100
AcDbEntity
  8
DIM
 48
0.05
100
AcDbLine
 10
257.173436224528
 20
217.6855562661935
 30
0.0
 11
249.6917234729139
 21
253.4219300217879
 31
0.0
  0
LINE
  5
4668
330
A
100
AcDbEntity
  8
DIM
 48
0.05
100
AcDbLine
 10
249.6917234729139
 20
253.4219300217879
 30
0.0
 11
270.7137528290897
 21
253.4219300217879
 31
0.0
  0
DIMENSION
  5
4669
330
A
100
AcDbEntity
  8
DIM
 48
0.05
100
AcDbDimension
  2
*D17
 10
226.351633495587
 20
260.6960553735626
 30
0.0
 11
215.851633495587
 21
260.6960553735626
 31
0.0
 70
   160
  1
G1/2"
 71
     5
 42
21.0
 73
     0
 74
     0
 75
     0
  3
tfrom線あり
100
AcDbAlignedDimension
 13
205.351633495587
 23
247.5392257863103
 33
0.0
 14
226.351633495587
 24
247.5392257863103
 34
0.0
100
AcDbRotatedDimension
  0
LINE
  5
466A
330
A
100
AcDbEntity
  8
MODEL
  6
HIDDEN
 48
0.009
100
AcDbLine
 10
226.351633495587
 20
247.4306907109458
 30
0.0
 11
226.351633495587
 21
236.0683075146475
 31
0.0
  0
LINE
  5
466B
330
A
100
AcDbEntity
  8
MODEL
  6
HIDDEN
 48
0.009
100
AcDbLine
 10
205.351633495587
 20
247.4306907109458
 30
0.0
 11
205.351633495587
 21
236.0683075146475
 31
0.0
  0
LINE
  5
466C
330
A
100
AcDbEntity
  8
MODEL
  6
HIDDEN
 48
0.009
100
AcDbLine
 10
226.351633495587
 20
182.4306907109459
 30
0.0
 11
226.351633495587
 21
193.7930739072443
 31
0.0
  0
LINE
  5
466D
330
A
100
AcDbEntity
  8
MODEL
  6
HIDDEN
 48
0.009
100
AcDbLine
 10
205.351633495587
 20
182.4306907109459
 30
0.0
 11
205.351633495587
 21
193.7930739072443
 31
0.0
  0
DIMENSION
  5
466E
330
A
100
AcDbEntity
  8
DIM
 48
0.05
100
AcDbDimension
  2
*D18
 10
226.351633495587
 20
162.4108456183454
 30
0.0
 11
215.851633495587
 21
162.4108456183454
 31
0.0
 70
   160
  1
G1/2"
 71
     5
 42
21.0
 73
     0
 74
     0
 75
     0
 52
-90.0
  3
tfrom線あり
100
AcDbAlignedDimension
 13
205.351633495587
 23
182.3221556355816
 33
0.0
 14
226.351633495587
 24
182.3221556355816
 34
0.0
100
AcDbRotatedDimension
  0
DIMENSION
  5
466F
102
{ACAD_XDICTIONARY
360
4670
102
}
330
A
100
AcDbEntity
  8
DIM
 48
0.05
100
AcDbDimension
  2
*D19
 10
215.851633495587
 20
135.3349092056703
 30
0.0
 11
254.595436108977
 21
140.8358470573646
 31
0.0
 70
    32
  1
60-105
 71
     5
 42
77.48760522677998
 73
     0
 74
     0
 75
     0
  3
tfrom線あり
100
AcDbAlignedDimension
 13
293.339238722367
 23
140.6647599422469
 33
0.0
 14
215.851633495587
 24
162.4108456183454
 34
0.0
100
AcDbRotatedDimension
  0
MTEXT
  5
4708
330
A
100
AcDbEntity
  8
TEMPLATE
390
1D
100
AcDbMText
 10
248.7069811826034
 20
80.76108055173188
 30
0.0
 40
4.800000000000001
 41
0.0
 46
5.361600000000001
 71
     1
 72
     1
  1
{FHT73-5118-AL1 (ブラッシュドハードグラファイト)}
  7
ＭＳ ゴシック
 73
     1
 44
0.782827
1001
ACAD
1000
ACAD_MTEXT_DEFINED_HEIGHT_BEGIN
1070
    46
1040
5.361600000000001
1000
ACAD_MTEXT_DEFINED_HEIGHT_END
  0
MTEXT
  5
4709
330
A
100
AcDbEntity
  8
TEMPLATE
390
1D
100
AcDbMText
 10
248.7069811826036
 20
87.98227817246108
 30
0.0
 40
4.800000000000001
 41
0.0
 46
5.361600000000001
 71
     1
 72
     1
  1
{FHT73-5118-DC1 (スーパースチール)}
  7
ＭＳ ゴシック
 73
     1
 44
0.782827
1001
ACAD
1000
ACAD_MTEXT_DEFINED_HEIGHT_BEGIN
1070
    46
1040
5.361600000000001
1000
ACAD_MTEXT_DEFINED_HEIGHT_END
  0
MTEXT
  5
470A
330
A
100
AcDbEntity
  8
TEMPLATE
390
1D
100
AcDbMText
 10
248.7069811826036
 20
95.39072859653183
 30
0.0
 40
4.800000000000001
 41
0.0
 46
5.361600000000001
 71
     1
 72
     1
  1
{FHT73-5118-001 (クローム)}
  7
ＭＳ ゴシック
 73
     1
 44
0.782827
1001
ACAD
1000
ACAD_MTEXT_DEFINED_HEIGHT_BEGIN
1070
    46
1040
5.361600000000001
1000
ACAD_MTEXT_DEFINED_HEIGHT_END
  0
MTEXT
  5
4730
330
A
100
AcDbEntity
  8
DIM
390
1D
100
AcDbMText
 10
75.39170403894634
 20
546.700513392735
 30
0.0
 40
5.0
 41
379.886450037282
 46
5.558373452544704
 71
     1
 72
     1
  1
{壁開口寸法}
  7
ＭＳ ゴシック
 73
     1
 44
0.9822934569727008
1001
ACAD
1000
ACAD_MTEXT_DEFINED_HEIGHT_BEGIN
1070
    46
1040
5.558373452544704
1000
ACAD_MTEXT_DEFINED_HEIGHT_END
  0
MTEXT
  5
4750
330
A
100
AcDbEntity
  8
MODEL
100
AcDbMText
 10
26.43029475555556
 20
81.25166719999997
 30
0.0
 40
5.0
 41
98.93546666666668
 46
22.70956485904435
 71
     1
 72
     1
  1
■流量 0.3Mpa時 79.0L/min
  7
ＭＳ ゴシック
 73
     1
 44
1.0
1001
ACAD
1000
ACAD_MTEXT_DEFINED_HEIGHT_BEGIN
1070
    46
1040
22.70956485904435
1000
ACAD_MTEXT_DEFINED_HEIGHT_END
  0
VIEWPORT
  5
349
330
B
100
AcDbEntity
 67
     1
  8
0
100
AcDbViewport
 10
202.5
 20
128.5
 30
0.0
 40
486.0
 41
308.4
 68
     1
 69
     1
 12
202.5
 22
128.5
 13
0.0
 23
0.0
 14
0.5
 24
0.5
 15
0.0
 25
0.0
 16
0.0
 26
0.0
 36
1.0
 17
0.0
 27
0.0
 37
0.0
 42
50.0
 43
0.0
 44
0.0
 45
308.4
 50
0.0
 51
0.0
 72
   100
 90
   557152
  1

281
     0
 71
     1
 74
     0
110
0.0
120
0.0
130
0.0
111
1.0
121
0.0
131
0.0
112
0.0
122
1.0
132
0.0
 79
     0
146
0.0
170
     0
 61
     5
348
26C
292
     1
282
     1
141
0.0
142
0.0
 63
   256
  0
VIEWPORT
  5
34A
330
B
100
AcDbEntity
 67
     1
  8
0
100
AcDbViewport
 10
202.5
 20
128.5
 30
0.0
 40
324.0
 41
205.6
 68
     2
 69
     2
 12
986.6781359294573
 22
1427.077061889956
 13
0.0
 23
0.0
 14
0.5
 24
0.5
 15
0.0
 25
0.0
 16
0.0
 26
0.0
 36
1.0
 17
0.0
 27
0.0
 37
0.0
 42
50.0
 43
0.0
 44
0.0
 45
2890.021615685494
 50
0.0
 51
0.0
 72
   100
 90
   557152
  1

281
     0
 71
     1
 74
     0
110
0.0
120
0.0
130
0.0
111
1.0
121
0.0
131
0.0
112
0.0
122
1.0
132
0.0
 79
     0
146
0.0
170
     0
 61
     5
348
26C
292
     1
282
     1
141
0.0
142
0.0
 63
   256
  0
ENDSEC
  0
SECTION
  2
OBJECTS
  0
DICTIONARY
  5
19
330
0
100
AcDbDictionary
281
     1
  3
ACAD_COLOR
350
674
  3
ACAD_DETAILVIEWSTYLE
350
BBF
  3
ACAD_FIELDLIST
350
3BE4
  3
ACAD_GROUP
350
1A
  3
ACAD_IMAGE_VARS
350
27B
  3
ACAD_LAYOUT
350
1E
  3
ACAD_MATERIAL
350
263
  3
ACAD_MLEADERSTYLE
350
336
  3
ACAD_MLINESTYLE
350
1B
  3
ACAD_PLOTSETTINGS
350
22
  3
ACAD_PLOTSTYLENAME
350
1F
  3
ACAD_SCALELIST
350
241
  3
ACAD_SECTIONVIEWSTYLE
350
BC0
  3
ACAD_TABLESTYLE
350
278
  3
ACAD_VISUALSTYLE
350
267
  3
ACDB_RECOMPOSE_DATA
350
475A
  3
AcDbVariableDictionary
350
330
  3
APPDATA
350
27A
  3
DimOffsetDictionary
350
E38
  0
SUN
  5
904
330
15
100
AcDbSun
 90
        1
290
     0
 63
     7
421
 16777215
 40
1.0
291
     1
 91
  2455826
 92
 54000000
292
     0
 70
     2
 71
   256
280
     1
  0
DICTIONARY
  5
2E1
330
2
100
AcDbDictionary
280
     1
281
     1
  3
ACAD_LAYERSTATES
360
2E2
  3
ACLYDICTIONARY
360
DDE
  0
DICTIONARY
  5
3D3D
330
A
100
AcDbDictionary
280
     1
281
     1
  3
ACAD_SORTENTS
360
3D3E
  3
DIM_BOUNDING_BOXES_V1
360
4711
  0
DICTIONARY
  5
3CB7
330
3CB5
100
AcDbDictionary
280
     1
281
     1
  3
ACAD_FIELD
360
4751
  0
DICTIONARY
  5
4670
330
466F
100
AcDbDictionary
280
     1
281
     1
  3
*A1
360
4672
  0
DICTIONARY
  5
674
102
{ACAD_REACTORS
330
19
102
}
330
19
100
AcDbDictionary
281
     1
  0
DICTIONARY
  5
BBF
102
{ACAD_REACTORS
330
19
102
}
330
19
100
AcDbDictionary
281
     1
  0
FIELDLIST
  5
3BE4
102
{ACAD_REACTORS
330
19
102
}
330
19
100
AcDbIdSet
 90
        2
330
3CB9
330
3CB6
100
AcDbFieldList
  0
DICTIONARY
  5
1A
102
{ACAD_REACTORS
330
19
102
}
330
19
100
AcDbDictionary
281
     1
  3
*A1
350
3C75
  0
RASTERVARIABLES
  5
27B
102
{ACAD_REACTORS
330
19
102
}
330
19
100
AcDbRasterVariables
 90
        0
 70
     1
 71
     1
 72
     1
  0
DICTIONARY
  5
1E
102
{ACAD_REACTORS
330
19
102
}
330
19
100
AcDbDictionary
281
     1
  3
Layout1
350
21
  3
Model
350
20
  0
DICTIONARY
  5
263
102
{ACAD_REACTORS
330
19
102
}
330
19
100
AcDbDictionary
281
     1
  3
ByBlock
350
265
  3
ByLayer
350
264
  3
Global
350
266
  0
DICTIONARY
  5
336
102
{ACAD_REACTORS
330
19
102
}
330
19
100
AcDbDictionary
281
     1
  3
Standard
350
D59
  0
DICTIONARY
  5
1B
102
{ACAD_REACTORS
330
19
102
}
330
19
100
AcDbDictionary
281
     1
  3
Standard
350
1C
  0
DICTIONARY
  5
22
102
{ACAD_REACTORS
330
19
102
}
330
19
100
AcDbDictionary
281
     1
  0
ACDBDICTIONARYWDFLT
  5
1F
102
{ACAD_REACTORS
330
19
102
}
330
19
100
AcDbDictionary
281
     1
  3
Normal
350
1D
100
AcDbDictionaryWithDefault
340
1D
  0
DICTIONARY
  5
241
102
{ACAD_REACTORS
330
19
102
}
330
19
100
AcDbDictionary
281
     1
  3
A0
350
242
  3
A1
350
243
  3
A2
350
244
  3
A3
350
245
  3
A4
350
246
  3
A5
350
247
  3
A6
350
248
  3
A7
350
249
  3
A8
350
24A
  3
A9
350
24B
  3
B0
350
24C
  3
B1
350
24D
  3
B2
350
24E
  3
B3
350
24F
  3
B4
350
250
  3
B5
350
251
  3
B6
350
252
  3
B7
350
253
  3
B8
350
254
  3
B9
350
255
  3
C0
350
256
  3
C1
350
257
  3
C2
350
258
  3
C3
350
259
  3
C4
350
25A
  3
C5
350
25B
  3
C6
350
25C
  3
C7
350
25D
  3
C8
350
25E
  3
C9
350
25F
  3
D0
350
260
  3
D1
350
261
  3
D2
350
262
  0
DICTIONARY
  5
BC0
102
{ACAD_REACTORS
330
19
102
}
330
19
100
AcDbDictionary
281
     1
  0
DICTIONARY
  5
278
102
{ACAD_REACTORS
330
19
102
}
330
19
100
AcDbDictionary
281
     1
  3
Standard
350
279
  0
DICTIONARY
  5
267
102
{ACAD_REACTORS
330
19
102
}
330
19
100
AcDbDictionary
281
     1
  3
2dWireframe
350
26C
  3
3D Hidden
350
26E
  3
3dWireframe
350
26D
  3
Basic
350
26F
  3
Brighten
350
273
  3
ColorChange
350
277
  3
Conceptual
350
271
  3
Dim
350
272
  3
EdgeColorOff
350
8FE
  3
Facepattern
350
276
  3
Flat
350
268
  3
FlatWithEdges
350
269
  3
Gouraud
350
26A
  3
GouraudWithEdges
350
26B
  3
Hidden
350
8FB
  3
JitterOff
350
8FC
  3
Linepattern
350
275
  3
OverhangOff
350
8FD
  3
Realistic
350
270
  3
Shaded
350
903
  3
Shaded with edges
350
902
  3
Shades of Gray
350
8FF
  3
Sketchy
350
900
  3
Thicken
350
274
  3
Wireframe
350
8FA
  3
X-Ray
350
901
  0
XRECORD
  5
475A
102
{ACAD_REACTORS
330
19
102
}
330
19
100
AcDbXrecord
280
     1
 90
        1
330
279
  0
DICTIONARY
  5
330
102
{ACAD_REACTORS
330
19
102
}
330
19
100
AcDbDictionary
281
     1
  3
CANNOSCALE
350
331
  3
CMLEADERSTYLE
350
D5E
  3
CTABLESTYLE
350
335
  3
HPTRANSPARENCY
350
D52
  3
XCLIPFRAME
350
896
  0
DICTIONARY
  5
27A
102
{ACAD_REACTORS
330
19
102
}
330
19
100
AcDbDictionary
281
     1
  0
DICTIONARY
  5
E38
102
{ACAD_REACTORS
330
19
102
}
330
19
100
AcDbDictionary
281
     1
  3
DIMRAILANGLE
350
246C
  3
DIMRAILFIRSTOFFSET
350
246A
  3
DIMRAILOFFSET
350
246B
  3
DIMRAILSENABLED
350
246D
  0
DICTIONARY
  5
2E2
102
{ACAD_REACTORS
330
2E1
102
}
330
2E1
100
AcDbDictionary
281
     1
  0
DICTIONARY
  5
DDE
102
{ACAD_REACTORS
330
2E1
102
}
330
2E1
100
AcDbDictionary
281
     1
1001
ACAD
1000
<All
  0
SORTENTSTABLE
  5
3D3E
102
{ACAD_REACTORS
330
3D3D
102
}
330
3D3D
100
AcDbSortentsTable
330
A
331
3C64
  5
3C1F
331
3C65
  5
3C63
331
3C70
  5
3C64
331
3C71
  5
3C65
331
3C72
  5
3C70
331
3C73
  5
3C71
331
3C74
  5
3C72
331
3CB5
  5
3C92
  0
DICTIONARY
  5
4711
102
{ACAD_REACTORS
330
3D3D
102
}
330
3D3D
100
AcDbDictionary
281
     1
  0
DICTIONARY
  5
4751
102
{ACAD_REACTORS
330
3CB7
102
}
330
3CB7
100
AcDbDictionary
280
     1
281
     1
  3
TEXT
360
3CB6
  0
LINE
  5
4672
102
{ACAD_REACTORS
330
4670
102
}
330
4670
100
AcDbEntity
  8
MODEL
100
AcDbLine
 10
264.3329688988288
 20
136.6444773349123
 30
0.0
 11
264.3329688988288
 21
284.6444773349124
 31
0.0
  0
GROUP
  5
3C75
102
{ACAD_REACTORS
330
1A
102
}
330
1A
100
AcDbGroup
300

 70
     1
 71
     1
340
3C64
340
3C65
340
3C70
340
3C71
340
3C72
340
3C73
340
3C74
  0
LAYOUT
  5
21
102
{ACAD_REACTORS
330
1E
102
}
330
1E
100
AcDbPlotSettings
  1

  2
none_device
  4
ISO_A3_(420.00_x_297.00_MM)
  6

 40
7.5
 41
20.0
 42
7.5
 43
20.0
 44
420.0
 45
297.0
 46
0.0
 47
0.0
 48
0.0
 49
0.0
140
0.0
141
0.0
142
1.0
143
1.0
 70
     0
 72
     1
 73
     0
 74
     0
  7

 75
     0
 76
     0
 77
     2
 78
   300
147
1.0
148
0.0
149
0.0
100
AcDbLayout
  1
Layout1
 70
     0
 71
     0
 10
-7.5
 20
-20.0
 11
412.5
 21
277.0
 12
0.0
 22
0.0
 32
0.0
 14
0.0
 24
0.0
 34
0.0
 15
0.0
 25
0.0
 35
0.0
146
0.0
 13
0.0
 23
0.0
 33
0.0
 16
0.0
 26
0.0
 36
0.0
 17
0.0
 27
0.0
 37
0.0
 76
     0
330
B
331
349
  0
LAYOUT
  5
20
102
{ACAD_REACTORS
330
1E
102
}
330
1E
100
AcDbPlotSettings
  1

  2
Adobe PDF
  4
A4
  6

 40
0.0600000000000023
 41
0.0000000000000205
 42
0.0
 43
0.04
 44
210.0
 45
297.0
 46
0.0
 47
0.0
 48
0.0
 49
0.0
140
0.0
141
0.0
142
1.0
143
2.000571591883395
 70
  1584
 72
     1
 73
     0
 74
     2
  7
monochrome.ctb
 75
     0
 76
 25973
 77
     2
 78
   300
147
0.4998571428571429
148
-301.0201356709001
149
-223.401285469834
100
AcDbLayout
  1
Model
 70
     0
 71
     1
 10
0.0
 20
0.0
 11
420.0
 21
594.0
 12
0.0
 22
0.0
 32
0.0
 14
0.0
 24
0.0
 34
-0.0000000000000071
 15
420.0
 25
594.0
 35
0.0000000000000142
146
0.0
 13
0.0
 23
0.0
 33
0.0
 16
0.0
 26
0.0
 36
0.0
 17
0.0
 27
0.0
 37
0.0
 76
     0
330
A
331
15
1001
PLOTTRANSPARENCY
1071
        0
  0
MATERIAL
  5
265
102
{ACAD_REACTORS
330
263
102
}
330
263
100
AcDbMaterial
  1
ByBlock
 72
     1
 94
      127
  0
MATERIAL
  5
264
102
{ACAD_REACTORS
330
263
102
}
330
263
100
AcDbMaterial
  1
ByLayer
 72
     1
 94
      127
  0
MATERIAL
  5
266
102
{ACAD_REACTORS
330
263
102
}
330
263
100
AcDbMaterial
  1
Global
 72
     1
 94
      127
  0
MLEADERSTYLE
  5
D59
102
{ACAD_REACTORS
330
336
102
}
330
336
100
AcDbMLeaderStyle
170
     2
171
     1
172
     0
 90
        2
 40
0.0
 41
0.0
173
     1
 91
-1056964608
340
11
 92
       -2
290
     1
 42
2.0
291
     1
 43
8.0
  3
Standard
341
0
 44
4.0
300

342
17
174
     1
178
     6
175
     1
176
     0
 93
-1056964608
 45
4.0
292
     0
297
     0
 46
4.0
343
0
 94
-1056964608
 47
1.0
 49
1.0
140
1.0
293
     1
141
0.0
294
     1
177
     0
142
1.0
295
     0
296
     0
143
3.75
1001
ACAD_MLEADERVER
1070
     2
  0
MLINESTYLE
  5
1C
102
{ACAD_REACTORS
330
1B
102
}
330
1B
100
AcDbMlineStyle
  2
Standard
 70
     0
  3

 62
     0
 51
90.0
 52
90.0
 71
     2
 49
0.5
 62
   256
  6
BYLAYER
 49
-0.5
 62
   256
  6
BYLAYER
  0
ACDBPLACEHOLDER
  5
1D
102
{ACAD_REACTORS
330
1F
102
}
330
1F
  0
SCALE
  5
242
102
{ACAD_REACTORS
330
241
102
}
330
241
100
AcDbScale
 70
     0
300
1:1
140
1.0
141
1.0
290
     1
  0
SCALE
  5
243
102
{ACAD_REACTORS
330
241
102
}
330
241
100
AcDbScale
 70
     0
300
1:2
140
1.0
141
2.0
290
     0
  0
SCALE
  5
244
102
{ACAD_REACTORS
330
241
102
}
330
241
100
AcDbScale
 70
     0
300
1:4
140
1.0
141
4.0
290
     0
  0
SCALE
  5
245
102
{ACAD_REACTORS
330
241
102
}
330
241
100
AcDbScale
 70
     0
300
1:5
140
1.0
141
5.0
290
     0
  0
SCALE
  5
246
102
{ACAD_REACTORS
330
241
102
}
330
241
100
AcDbScale
 70
     0
300
1:8
140
1.0
141
8.0
290
     0
  0
SCALE
  5
247
102
{ACAD_REACTORS
330
241
102
}
330
241
100
AcDbScale
 70
     0
300
1:10
140
1.0
141
10.0
290
     0
  0
SCALE
  5
248
102
{ACAD_REACTORS
330
241
102
}
330
241
100
AcDbScale
 70
     0
300
1:16
140
1.0
141
16.0
290
     0
  0
SCALE
  5
249
102
{ACAD_REACTORS
330
241
102
}
330
241
100
AcDbScale
 70
     0
300
1:20
140
1.0
141
20.0
290
     0
  0
SCALE
  5
24A
102
{ACAD_REACTORS
330
241
102
}
330
241
100
AcDbScale
 70
     0
300
1:30
140
1.0
141
30.0
290
     0
  0
SCALE
  5
24B
102
{ACAD_REACTORS
330
241
102
}
330
241
100
AcDbScale
 70
     0
300
1:40
140
1.0
141
40.0
290
     0
  0
SCALE
  5
24C
102
{ACAD_REACTORS
330
241
102
}
330
241
100
AcDbScale
 70
     0
300
1:50
140
1.0
141
50.0
290
     0
  0
SCALE
  5
24D
102
{ACAD_REACTORS
330
241
102
}
330
241
100
AcDbScale
 70
     0
300
1:100
140
1.0
141
100.0
290
     0
  0
SCALE
  5
24E
102
{ACAD_REACTORS
330
241
102
}
330
241
100
AcDbScale
 70
     0
300
2:1
140
2.0
141
1.0
290
     0
  0
SCALE
  5
24F
102
{ACAD_REACTORS
330
241
102
}
330
241
100
AcDbScale
 70
     0
300
4:1
140
4.0
141
1.0
290
     0
  0
SCALE
  5
250
102
{ACAD_REACTORS
330
241
102
}
330
241
100
AcDbScale
 70
     0
300
8:1
140
8.0
141
1.0
290
     0
  0
SCALE
  5
251
102
{ACAD_REACTORS
330
241
102
}
330
241
100
AcDbScale
 70
     0
300
10:1
140
10.0
141
1.0
290
     0
  0
SCALE
  5
252
102
{ACAD_REACTORS
330
241
102
}
330
241
100
AcDbScale
 70
     0
300
100:1
140
100.0
141
1.0
290
     0
  0
SCALE
  5
253
102
{ACAD_REACTORS
330
241
102
}
330
241
100
AcDbScale
 70
     0
300
1/128" = 1'-0"
140
0.0078125
141
12.0
290
     0
  0
SCALE
  5
254
102
{ACAD_REACTORS
330
241
102
}
330
241
100
AcDbScale
 70
     0
300
1/64" = 1'-0"
140
0.015625
141
12.0
290
     0
  0
SCALE
  5
255
102
{ACAD_REACTORS
330
241
102
}
330
241
100
AcDbScale
 70
     0
300
1/32" = 1'-0"
140
0.03125
141
12.0
290
     0
  0
SCALE
  5
256
102
{ACAD_REACTORS
330
241
102
}
330
241
100
AcDbScale
 70
     0
300
1/16" = 1'-0"
140
0.0625
141
12.0
290
     0
  0
SCALE
  5
257
102
{ACAD_REACTORS
330
241
102
}
330
241
100
AcDbScale
 70
     0
300
3/32" = 1'-0"
140
0.09375
141
12.0
290
     0
  0
SCALE
  5
258
102
{ACAD_REACTORS
330
241
102
}
330
241
100
AcDbScale
 70
     0
300
1/8" = 1'-0"
140
0.125
141
12.0
290
     0
  0
SCALE
  5
259
102
{ACAD_REACTORS
330
241
102
}
330
241
100
AcDbScale
 70
     0
300
3/16" = 1'-0"
140
0.1875
141
12.0
290
     0
  0
SCALE
  5
25A
102
{ACAD_REACTORS
330
241
102
}
330
241
100
AcDbScale
 70
     0
300
1/4" = 1'-0"
140
0.25
141
12.0
290
     0
  0
SCALE
  5
25B
102
{ACAD_REACTORS
330
241
102
}
330
241
100
AcDbScale
 70
     0
300
3/8" = 1'-0"
140
0.375
141
12.0
290
     0
  0
SCALE
  5
25C
102
{ACAD_REACTORS
330
241
102
}
330
241
100
AcDbScale
 70
     0
300
1/2" = 1'-0"
140
0.5
141
12.0
290
     0
  0
SCALE
  5
25D
102
{ACAD_REACTORS
330
241
102
}
330
241
100
AcDbScale
 70
     0
300
3/4" = 1'-0"
140
0.75
141
12.0
290
     0
  0
SCALE
  5
25E
102
{ACAD_REACTORS
330
241
102
}
330
241
100
AcDbScale
 70
     0
300
1" = 1'-0"
140
1.0
141
12.0
290
     0
  0
SCALE
  5
25F
102
{ACAD_REACTORS
330
241
102
}
330
241
100
AcDbScale
 70
     0
300
1-1/2" = 1'-0"
140
1.5
141
12.0
290
     0
  0
SCALE
  5
260
102
{ACAD_REACTORS
330
241
102
}
330
241
100
AcDbScale
 70
     0
300
3" = 1'-0"
140
3.0
141
12.0
290
     0
  0
SCALE
  5
261
102
{ACAD_REACTORS
330
241
102
}
330
241
100
AcDbScale
 70
     0
300
6" = 1'-0"
140
6.0
141
12.0
290
     0
  0
SCALE
  5
262
102
{ACAD_REACTORS
330
241
102
}
330
241
100
AcDbScale
 70
     0
300
1'-0" = 1'-0"
140
12.0
141
12.0
290
     0
  0
TABLESTYLE
  5
279
102
{ACAD_REACTORS
330
278
102
}
102
{ACAD_XDICTIONARY
360
4758
102
}
330
278
100
AcDbTableStyle
  3
Standard
 70
     0
 71
     0
 40
0.06
 41
0.06
280
     0
281
     0
  7
Standard
140
4.5
170
     2
 62
     0
 63
   257
283
     0
 90
        4
 91
        0
  1

274
    -2
284
     1
 64
     0
275
    -2
285
     1
 65
     0
276
    -2
286
     1
 66
     0
277
    -2
287
     1
 67
     0
278
    -2
288
     1
 68
     0
279
    -2
289
     1
 69
     0
  7
Standard
140
6.0
170
     5
 62
     0
 63
   257
283
     0
 90
        4
 91
        0
  1

274
    -2
284
     1
 64
     0
275
    -2
285
     1
 65
     0
276
    -2
286
     1
 66
     0
277
    -2
287
     1
 67
     0
278
    -2
288
     1
 68
     0
279
    -2
289
     1
 69
     0
  7
Standard
140
4.5
170
     5
 62
     0
 63
   257
283
     0
 90
        4
 91
        0
  1

274
    -2
284
     1
 64
     0
275
    -2
285
     1
 65
     0
276
    -2
286
     1
 66
     0
277
    -2
287
     1
 67
     0
278
    -2
288
     1
 68
     0
279
    -2
289
     1
 69
     0
  0
VISUALSTYLE
  5
26C
102
{ACAD_REACTORS
330
267
102
}
330
267
100
AcDbVisualStyle
  2
2dWireframe
 70
     4
 71
     0
 72
     2
 73
     0
 90
        0
 40
-0.6
 41
-30.0
 62
     5
 63
     7
421
 16777215
 74
     1
 91
        4
 64
     7
 65
   257
 75
     1
175
     1
 42
1.0
 92
        0
 66
   257
 43
1.0
 76
     1
 77
     6
 78
     2
 67
     7
 79
     5
170
     0
171
     0
290
     0
174
     0
 93
        1
 44
0.0
173
     0
291
     0
 45
0.0
  0
VISUALSTYLE
  5
26E
102
{ACAD_REACTORS
330
267
102
}
330
267
100
AcDbVisualStyle
  2
3D Hidden
 70
     6
 71
     1
 72
     2
 73
     2
 90
        0
 40
-0.6
 41
-30.0
 62
     5
 63
     7
421
 16777215
 74
     2
 91
        2
 64
     7
 65
   257
 75
     2
175
     1
 42
40.0
 92
        0
 66
   257
 43
1.0
 76
     1
 77
     6
 78
     2
 67
     7
 79
     3
170
     0
171
     0
290
     0
174
     0
 93
        1
 44
0.0
173
     0
291
     0
 45
0.0
  0
VISUALSTYLE
  5
26D
102
{ACAD_REACTORS
330
267
102
}
330
267
100
AcDbVisualStyle
  2
3dWireframe
 70
     5
 71
     0
 72
     2
 73
     0
 90
        0
 40
-0.6
 41
-30.0
 62
     5
 63
     7
421
 16777215
 74
     1
 91
        4
 64
     7
 65
   257
 75
     1
175
     1
 42
1.0
 92
        0
 66
   257
 43
1.0
 76
     1
 77
     6
 78
     2
 67
     7
 79
     5
170
     0
171
     0
290
     0
174
     0
 93
        1
 44
0.0
173
     0
291
     0
 45
0.0
  0
VISUALSTYLE
  5
26F
102
{ACAD_REACTORS
330
267
102
}
330
267
100
AcDbVisualStyle
  2
Basic
 70
     7
 71
     1
 72
     0
 73
     1
 90
        0
 40
-0.6
 41
-30.0
 62
     5
 63
     7
421
 16777215
 74
     0
 91
        4
 64
     7
 65
   257
 75
     1
175
     1
 42
1.0
 92
        8
 66
     7
 43
1.0
 76
     1
 77
     6
 78
     2
 67
     7
 79
     5
170
     0
171
     0
290
     0
174
     0
 93
        1
 44
0.0
173
     0
291
     1
 45
0.0
  0
VISUALSTYLE
  5
273
102
{ACAD_REACTORS
330
267
102
}
330
267
100
AcDbVisualStyle
  2
Brighten
 70
    12
 71
     2
 72
     2
 73
     0
 90
        0
 40
-0.6
 41
-30.0
 62
     5
 63
     7
421
 16777215
 74
     1
 91
        4
 64
     7
 65
   257
 75
     1
175
     1
 42
1.0
 92
        8
 66
     7
 43
1.0
 76
     1
 77
     6
 78
     2
 67
     7
 79
     5
170
     0
171
     0
290
     0
174
     0
 93
        1
 44
50.0
173
     0
291
     1
 45
0.0
  0
VISUALSTYLE
  5
277
102
{ACAD_REACTORS
330
267
102
}
330
267
100
AcDbVisualStyle
  2
ColorChange
 70
    16
 71
     2
 72
     2
 73
     3
 90
        0
 40
-0.6
 41
-30.0
 62
     5
 63
     8
421
  8421504
 74
     1
 91
        4
 64
     7
 65
   257
 75
     1
175
     1
 42
1.0
 92
        8
 66
     8
424
  8421504
 43
1.0
 76
     1
 77
     6
 78
     2
 67
     7
 79
     5
170
     0
171
     0
290
     0
174
     0
 93
        1
 44
0.0
173
     0
291
     1
 45
0.0
  0
VISUALSTYLE
  5
271
102
{ACAD_REACTORS
330
267
102
}
330
267
100
AcDbVisualStyle
  2
Conceptual
 70
     9
 71
     3
 72
     2
 73
     0
 90
        0
 40
-0.6
 41
-30.0
 62
     5
 63
     7
421
 16777215
 74
     2
 91
        2
 64
     7
 65
   257
 75
     1
175
     1
 42
40.0
 92
        8
 66
     7
 43
1.0
 76
     1
 77
     6
 78
     2
 67
     7
 79
     3
170
     0
171
     0
290
     0
174
     0
 93
        1
 44
0.0
173
     0
291
     0
 45
0.0
  0
VISUALSTYLE
  5
272
102
{ACAD_REACTORS
330
267
102
}
330
267
100
AcDbVisualStyle
  2
Dim
 70
    11
 71
     2
 72
     2
 73
     0
 90
        0
 40
-0.6
 41
-30.0
 62
     5
 63
     7
421
 16777215
 74
     1
 91
        4
 64
     7
 65
   257
 75
     1
175
     1
 42
1.0
 92
        8
 66
     7
 43
1.0
 76
     1
 77
     6
 78
     2
 67
     7
 79
     5
170
     0
171
     0
290
     0
174
     0
 93
        1
 44
-50.0
173
     0
291
     1
 45
0.0
  0
VISUALSTYLE
  5
8FE
102
{ACAD_REACTORS
330
267
102
}
330
267
100
AcDbVisualStyle
  2
EdgeColorOff
 70
    22
 71
     2
 72
     2
 73
     0
 90
        0
 40
0.6
 41
30.0
 62
     5
 63
     7
421
 16777215
 74
     1
 91
        4
 64
     7
 65
   257
 75
     1
175
     1
 42
1.0
 92
        8
 66
     7
 43
1.0
 76
     1
 77
     6
 78
     2
 67
     7
 79
     5
170
     0
171
     0
290
     0
174
     0
 93
        1
 44
0.0
173
     0
291
     1
 45
0.0
  0
VISUALSTYLE
  5
276
102
{ACAD_REACTORS
330
267
102
}
330
267
100
AcDbVisualStyle
  2
Facepattern
 70
    15
 71
     2
 72
     2
 73
     0
 90
        0
 40
-0.6
 41
-30.0
 62
     5
 63
     7
421
 16777215
 74
     1
 91
        4
 64
     7
 65
   257
 75
     1
175
     1
 42
1.0
 92
        8
 66
     7
 43
1.0
 76
     1
 77
     6
 78
     2
 67
     7
 79
     5
170
     0
171
     0
290
     0
174
     0
 93
        1
 44
0.0
173
     0
291
     1
 45
0.0
  0
VISUALSTYLE
  5
268
102
{ACAD_REACTORS
330
267
102
}
330
267
100
AcDbVisualStyle
  2
Flat
 70
     0
 71
     2
 72
     1
 73
     1
 90
        2
 40
-0.6
 41
30.0
 62
     5
 63
     7
421
 16777215
 74
     0
 91
        4
 64
     7
 65
   257
 75
     1
175
     1
 42
1.0
 92
        8
 66
     7
 43
1.0
 76
     1
 77
     6
 78
     2
 67
     7
 79
     5
170
     0
171
     0
290
     0
174
     0
 93
       13
 44
0.0
173
     0
291
     1
 45
0.0
  0
VISUALSTYLE
  5
269
102
{ACAD_REACTORS
330
267
102
}
330
267
100
AcDbVisualStyle
  2
FlatWithEdges
 70
     1
 71
     2
 72
     1
 73
     1
 90
        2
 40
-0.6
 41
30.0
 62
     5
 63
     7
421
 16777215
 74
     1
 91
        4
 64
     7
 65
   257
 75
     1
175
     1
 42
1.0
 92
        0
 66
   257
 43
1.0
 76
     1
 77
     6
 78
     2
 67
     7
 79
     5
170
     0
171
     0
290
     0
174
     0
 93
       13
 44
0.0
173
     0
291
     1
 45
0.0
  0
VISUALSTYLE
  5
26A
102
{ACAD_REACTORS
330
267
102
}
330
267
100
AcDbVisualStyle
  2
Gouraud
 70
     2
 71
     2
 72
     2
 73
     1
 90
        2
 40
-0.6
 41
30.0
 62
     5
 63
     7
421
 16777215
 74
     0
 91
        4
 64
     7
 65
   257
 75
     1
175
     1
 42
1.0
 92
        0
 66
     7
 43
1.0
 76
     1
 77
     6
 78
     2
 67
     7
 79
     5
170
     0
171
     0
290
     0
174
     0
 93
       13
 44
0.0
173
     0
291
     1
 45
0.0
  0
VISUALSTYLE
  5
26B
102
{ACAD_REACTORS
330
267
102
}
330
267
100
AcDbVisualStyle
  2
GouraudWithEdges
 70
     3
 71
     2
 72
     2
 73
     1
 90
        2
 40
-0.6
 41
30.0
 62
     5
 63
     7
421
 16777215
 74
     1
 91
        4
 64
     7
 65
   257
 75
     1
175
     1
 42
1.0
 92
        0
 66
   257
 43
1.0
 76
     1
 77
     6
 78
     2
 67
     7
 79
     5
170
     0
171
     0
290
     0
174
     0
 93
       13
 44
0.0
173
     0
291
     1
 45
0.0
  0
VISUALSTYLE
  5
8FB
102
{ACAD_REACTORS
330
267
102
}
330
267
100
AcDbVisualStyle
  2
Hidden
 70
     6
 71
     1
 72
     2
 73
     2
 90
        0
 40
0.6
 41
30.0
 62
     5
 63
     7
421
 16777215
 74
     2
 91
        2
 64
     7
 65
   257
 75
     2
175
     1
 42
40.0
 92
        0
 66
   257
 43
1.0
 76
     1
 77
     6
 78
     2
 67
     7
 79
     3
170
     0
171
     0
290
     0
174
     0
 93
        1
 44
0.0
173
     0
291
     0
 45
0.0
  0
VISUALSTYLE
  5
8FC
102
{ACAD_REACTORS
330
267
102
}
330
267
100
AcDbVisualStyle
  2
JitterOff
 70
    20
 71
     2
 72
     2
 73
     0
 90
        0
 40
0.6
 41
30.0
 62
     5
 63
     7
421
 16777215
 74
     1
 91
        4
 64
     7
 65
   257
 75
     1
175
     1
 42
1.0
 92
       10
 66
     7
 43
1.0
 76
     1
 77
     6
 78
     2
 67
     7
 79
     5
170
     0
171
     0
290
     0
174
     0
 93
        1
 44
0.0
173
     0
291
     1
 45
0.0
  0
VISUALSTYLE
  5
275
102
{ACAD_REACTORS
330
267
102
}
330
267
100
AcDbVisualStyle
  2
Linepattern
 70
    14
 71
     2
 72
     2
 73
     0
 90
        0
 40
-0.6
 41
-30.0
 62
     5
 63
     7
421
 16777215
 74
     1
 91
        4
 64
     7
 65
   257
 75
     7
175
     7
 42
1.0
 92
        8
 66
     7
 43
1.0
 76
     1
 77
     6
 78
     2
 67
     7
 79
     5
170
     0
171
     0
290
     0
174
     0
 93
        1
 44
0.0
173
     0
291
     1
 45
0.0
  0
VISUALSTYLE
  5
8FD
102
{ACAD_REACTORS
330
267
102
}
330
267
100
AcDbVisualStyle
  2
OverhangOff
 70
    21
 71
     2
 72
     2
 73
     0
 90
        0
 40
0.6
 41
30.0
 62
     5
 63
     7
421
 16777215
 74
     1
 91
        4
 64
     7
 65
   257
 75
     1
175
     1
 42
1.0
 92
        9
 66
     7
 43
1.0
 76
     1
 77
     6
 78
     2
 67
     7
 79
     5
170
     0
171
     0
290
     0
174
     0
 93
        1
 44
0.0
173
     0
291
     1
 45
0.0
  0
VISUALSTYLE
  5
270
102
{ACAD_REACTORS
330
267
102
}
330
267
100
AcDbVisualStyle
  2
Realistic
 70
     8
 71
     2
 72
     2
 73
     0
 90
        0
 40
-0.6
 41
-30.0
 62
     5
 63
     7
421
 16777215
 74
     1
 91
        0
 64
     7
 65
   257
 75
     1
175
     1
 42
1.0
 92
        8
 66
     8
424
  7895160
 43
1.0
 76
     1
 77
     6
 78
     2
 67
     7
 79
     5
170
     0
171
     0
290
     0
174
     0
 93
       13
 44
0.0
173
     0
291
     0
 45
0.0
  0
VISUALSTYLE
  5
903
102
{ACAD_REACTORS
330
267
102
}
330
267
100
AcDbVisualStyle
  2
Shaded
 70
    27
 71
     2
 72
     2
 73
     1
 90
        2
 40
0.6
 41
30.0
 62
     5
 63
     7
421
 16777215
 74
     0
 91
        4
 64
     7
 65
   257
 75
     1
175
     1
 42
1.0
 92
        8
 66
   257
 43
1.0
 76
     1
 77
     6
 78
     2
 67
     8
425
  7895160
 79
     3
170
     0
171
     0
290
     0
174
     0
 93
        5
 44
0.0
173
     0
291
     0
 45
0.0
  0
VISUALSTYLE
  5
902
102
{ACAD_REACTORS
330
267
102
}
330
267
100
AcDbVisualStyle
  2
Shaded with edges
 70
    26
 71
     2
 72
     2
 73
     1
 90
        2
 40
0.6
 41
30.0
 62
     5
 63
     7
421
 16777215
 74
     1
 91
       10
 64
     7
 65
   257
 75
     2
175
     1
 42
1.0
 92
        8
 66
   257
 43
1.0
 76
     1
 77
     6
 78
     2
 67
     7
 79
     3
170
     0
171
     0
290
     0
174
     0
 93
        5
 44
0.0
173
     0
291
     0
 45
0.0
  0
VISUALSTYLE
  5
8FF
102
{ACAD_REACTORS
330
267
102
}
330
267
100
AcDbVisualStyle
  2
Shades of Gray
 70
    23
 71
     2
 72
     2
 73
     3
 90
        0
 40
0.6
 41
30.0
 62
     5
 63
     7
421
 16777215
 74
     2
 91
        2
 64
     7
 65
     7
 75
     1
175
     1
 42
40.0
 92
        8
 66
     7
 43
1.0
 76
     1
 77
     6
 78
     2
 67
     7
 79
     3
170
     0
171
     0
290
     0
174
     0
 93
        1
 44
0.0
173
     0
291
     0
 45
0.0
  0
VISUALSTYLE
  5
900
102
{ACAD_REACTORS
330
267
102
}
330
267
100
AcDbVisualStyle
  2
Sketchy
 70
    24
 71
     1
 72
     2
 73
     2
 90
        0
 40
0.6
 41
30.0
 62
     5
 63
     7
421
 16777215
 74
     2
 91
        2
 64
     7
 65
     7
 75
     1
175
     1
 42
40.0
 92
       11
 66
     7
 43
1.0
 76
     1
 77
     6
 78
     2
 67
     7
 79
     6
170
     0
171
     0
290
     0
174
     0
 93
        1
 44
0.0
173
     0
291
     0
 45
0.0
  0
VISUALSTYLE
  5
274
102
{ACAD_REACTORS
330
267
102
}
330
267
100
AcDbVisualStyle
  2
Thicken
 70
    13
 71
     2
 72
     2
 73
     0
 90
        0
 40
-0.6
 41
-30.0
 62
     5
 63
     7
421
 16777215
 74
     1
 91
        4
 64
     7
 65
   257
 75
     1
175
     1
 42
1.0
 92
       12
 66
     7
 43
1.0
 76
     1
 77
     6
 78
     2
 67
     7
 79
     5
170
     0
171
     0
290
     0
174
     0
 93
        1
 44
0.0
173
     0
291
     1
 45
0.0
  0
VISUALSTYLE
  5
8FA
102
{ACAD_REACTORS
330
267
102
}
330
267
100
AcDbVisualStyle
  2
Wireframe
 70
     5
 71
     0
 72
     2
 73
     0
 90
        0
 40
0.6
 41
30.0
 62
     5
 63
     7
421
 16777215
 74
     1
 91
        4
 64
     7
 65
   257
 75
     1
175
     1
 42
1.0
 92
        0
 66
   257
 43
1.0
 76
     1
 77
     6
 78
     2
 67
     7
 79
     3
170
     0
171
     0
290
     0
174
     0
 93
        1
 44
0.0
173
     0
291
     0
 45
0.0
  0
VISUALSTYLE
  5
901
102
{ACAD_REACTORS
330
267
102
}
330
267
100
AcDbVisualStyle
  2
X-Ray
 70
    25
 71
     2
 72
     2
 73
     1
 90
        1
 40
0.5
 41
30.0
 62
     5
 63
     7
421
 16777215
 74
     1
 91
        0
 64
     7
 65
   257
 75
     1
175
     1
 42
1.0
 92
        8
 66
     7
 43
1.0
 76
     1
 77
     6
 78
     2
 67
     7
 79
     3
170
     0
171
     0
290
     0
174
     0
 93
       13
 44
0.0
173
     0
291
     0
 45
0.0
  0
DICTIONARYVAR
  5
331
102
{ACAD_REACTORS
330
330
102
}
330
330
100
DictionaryVariables
280
     0
  1
1:1
  0
DICTIONARYVAR
  5
D5E
102
{ACAD_REACTORS
330
330
102
}
330
330
100
DictionaryVariables
280
     0
  1
Standard
  0
DICTIONARYVAR
  5
335
102
{ACAD_REACTORS
330
330
102
}
330
330
100
DictionaryVariables
280
     0
  1
Standard
  0
DICTIONARYVAR
  5
D52
102
{ACAD_REACTORS
330
330
102
}
330
330
100
DictionaryVariables
280
     0
  1
ByLayer
  0
DICTIONARYVAR
  5
896
102
{ACAD_REACTORS
330
330
102
}
330
330
100
DictionaryVariables
280
     0
  1
0
  0
DICTIONARYVAR
  5
246C
102
{ACAD_REACTORS
330
E38
102
}
330
E38
100
DictionaryVariables
280
     0
  1
0.261799
  0
DICTIONARYVAR
  5
246A
102
{ACAD_REACTORS
330
E38
102
}
330
E38
100
DictionaryVariables
280
     0
  1
0.400000
  0
DICTIONARYVAR
  5
246B
102
{ACAD_REACTORS
330
E38
102
}
330
E38
100
DictionaryVariables
280
     0
  1
0.250000
  0
DICTIONARYVAR
  5
246D
102
{ACAD_REACTORS
330
E38
102
}
330
E38
100
DictionaryVariables
280
     0
  1
1
  0
FIELD
  5
3CB6
102
{ACAD_REACTORS
330
4710
330
4751
102
}
330
4751
100
AcDbField
  1
_text
  2
{%<\_FldIdx 0>%M}
 90
        1
360
3CB9
 97
        0
 91
       63
 92
        0
 94
       11
 95
        2
 96
        0
300

 93
        1
  6
ACFD_FIELDTEXT_CHECKSUM
 93
        2
 90
        2
140
4488.0
 94
        0
300

302

304
ACVALUE_END
  7
ACFD_FIELD_VALUE
 93
        6
 90
        4
  1
{20230821M}
 94
        0
300

302

304
ACVALUE_END
301
{20230821M}
 98
       11
  0
DICTIONARY
  5
4758
330
279
100
AcDbDictionary
280
     1
281
     1
  3
ACAD_ROUNDTRIP_2008_TABLESTYLE_CELLSTYLEMAP
360
4759
  0
FIELD
  5
3CB9
330
3CB6
100
AcDbField
  1
AcVar
  2
\AcVar CreateDate \f "yyyyMMdd"
 90
        0
 97
        0
 91
       63
 92
        0
 94
       11
 95
        2
 96
        0
300

 93
        1
  6
Variable
 93
        2
 90
        4
  1
CreateDate
 94
        0
300

302

304
ACVALUE_END
  7
ACFD_FIELD_VALUE
 93
        6
 90
        8
 92
       16
310
E70708000000150004002F0032000000
 94
        0
300
yyyyMMdd
302

304
ACVALUE_END
301
20230821
 98
        8
  0
CELLSTYLEMAP
  5
4759
102
{ACAD_REACTORS
330
4758
102
}
330
4758
100
AcDbCellStyleMap
 90
        3
300
CELLSTYLE
  1
TABLEFORMAT_BEGIN
 90
        5
170
     1
 91
        0
 92
    32768
 62
   257
 93
        1
300
CONTENTFORMAT
  1
CONTENTFORMAT_BEGIN
 90
        0
 91
        0
 92
        4
 93
        0
300

 40
0.0
140
1.0
 94
        5
 62
     0
340
17
144
6.0
309
CONTENTFORMAT_END
171
     1
301
MARGIN
  1
CELLMARGIN_BEGIN
 40
0.06
 40
0.06
 40
0.06
 40
0.06
 40
0.18
 40
0.18
309
CELLMARGIN_END
 94
        6
 95
        1
302
GRIDFORMAT
  1
GRIDFORMAT_BEGIN
 90
        0
 91
        1
 62
     0
 92
       -2
340
0
 93
        0
 40
0.045
309
GRIDFORMAT_END
 95
        2
302
GRIDFORMAT
  1
GRIDFORMAT_BEGIN
 90
        0
 91
        1
 62
     0
 92
       -2
340
0
 93
        0
 40
0.045
309
GRIDFORMAT_END
 95
        4
302
GRIDFORMAT
  1
GRIDFORMAT_BEGIN
 90
        0
 91
        1
 62
     0
 92
       -2
340
0
 93
        0
 40
0.045
309
GRIDFORMAT_END
 95
        8
302
GRIDFORMAT
  1
GRIDFORMAT_BEGIN
 90
        0
 91
        1
 62
     0
 92
       -2
340
0
 93
        0
 40
0.045
309
GRIDFORMAT_END
 95
       16
302
GRIDFORMAT
  1
GRIDFORMAT_BEGIN
 90
        0
 91
        1
 62
     0
 92
       -2
340
0
 93
        0
 40
0.045
309
GRIDFORMAT_END
 95
       32
302
GRIDFORMAT
  1
GRIDFORMAT_BEGIN
 90
        0
 91
        1
 62
     0
 92
       -2
340
0
 93
        0
 40
0.045
309
GRIDFORMAT_END
309
TABLEFORMAT_END
  1
CELLSTYLE_BEGIN
 90
        1
 91
        1
300
_TITLE
309
CELLSTYLE_END
300
CELLSTYLE
  1
TABLEFORMAT_BEGIN
 90
        5
170
     1
 91
        0
 92
        0
 62
   257
 93
        1
300
CONTENTFORMAT
  1
CONTENTFORMAT_BEGIN
 90
        0
 91
        0
 92
        4
 93
        0
300

 40
0.0
140
1.0
 94
        5
 62
     0
340
17
144
4.5
309
CONTENTFORMAT_END
171
     1
301
MARGIN
  1
CELLMARGIN_BEGIN
 40
0.06
 40
0.06
 40
0.06
 40
0.06
 40
0.18
 40
0.18
309
CELLMARGIN_END
 94
        6
 95
        1
302
GRIDFORMAT
  1
GRIDFORMAT_BEGIN
 90
        0
 91
        1
 62
     0
 92
       -2
340
0
 93
        0
 40
0.045
309
GRIDFORMAT_END
 95
        2
302
GRIDFORMAT
  1
GRIDFORMAT_BEGIN
 90
        0
 91
        1
 62
     0
 92
       -2
340
0
 93
        0
 40
0.045
309
GRIDFORMAT_END
 95
        4
302
GRIDFORMAT
  1
GRIDFORMAT_BEGIN
 90
        0
 91
        1
 62
     0
 92
       -2
340
0
 93
        0
 40
0.045
309
GRIDFORMAT_END
 95
        8
302
GRIDFORMAT
  1
GRIDFORMAT_BEGIN
 90
        0
 91
        1
 62
     0
 92
       -2
340
0
 93
        0
 40
0.045
309
GRIDFORMAT_END
 95
       16
302
GRIDFORMAT
  1
GRIDFORMAT_BEGIN
 90
        0
 91
        1
 62
     0
 92
       -2
340
0
 93
        0
 40
0.045
309
GRIDFORMAT_END
 95
       32
302
GRIDFORMAT
  1
GRIDFORMAT_BEGIN
 90
        0
 91
        1
 62
     0
 92
       -2
340
0
 93
        0
 40
0.045
309
GRIDFORMAT_END
309
TABLEFORMAT_END
  1
CELLSTYLE_BEGIN
 90
        2
 91
        1
300
_HEADER
309
CELLSTYLE_END
300
CELLSTYLE
  1
TABLEFORMAT_BEGIN
 90
        5
170
     1
 91
        0
 92
        0
 62
   257
 93
        1
300
CONTENTFORMAT
  1
CONTENTFORMAT_BEGIN
 90
        0
 91
        0
 92
        4
 93
        0
300

 40
0.0
140
1.0
 94
        2
 62
     0
340
17
144
4.5
309
CONTENTFORMAT_END
171
     1
301
MARGIN
  1
CELLMARGIN_BEGIN
 40
0.06
 40
0.06
 40
0.06
 40
0.06
 40
0.18
 40
0.18
309
CELLMARGIN_END
 94
        6
 95
        1
302
GRIDFORMAT
  1
GRIDFORMAT_BEGIN
 90
        0
 91
        1
 62
     0
 92
       -2
340
0
 93
        0
 40
0.045
309
GRIDFORMAT_END
 95
        2
302
GRIDFORMAT
  1
GRIDFORMAT_BEGIN
 90
        0
 91
        1
 62
     0
 92
       -2
340
0
 93
        0
 40
0.045
309
GRIDFORMAT_END
 95
        4
302
GRIDFORMAT
  1
GRIDFORMAT_BEGIN
 90
        0
 91
        1
 62
     0
 92
       -2
340
0
 93
        0
 40
0.045
309
GRIDFORMAT_END
 95
        8
302
GRIDFORMAT
  1
GRIDFORMAT_BEGIN
 90
        0
 91
        1
 62
     0
 92
       -2
340
0
 93
        0
 40
0.045
309
GRIDFORMAT_END
 95
       16
302
GRIDFORMAT
  1
GRIDFORMAT_BEGIN
 90
        0
 91
        1
 62
     0
 92
       -2
340
0
 93
        0
 40
0.045
309
GRIDFORMAT_END
 95
       32
302
GRIDFORMAT
  1
GRIDFORMAT_BEGIN
 90
        0
 91
        1
 62
     0
 92
       -2
340
0
 93
        0
 40
0.045
309
GRIDFORMAT_END
309
TABLEFORMAT_END
  1
CELLSTYLE_BEGIN
 90
        3
 91
        2
300
_DATA
309
CELLSTYLE_END
  0
ENDSEC
  0
EOF
