  0
SECTION
  2
HEADER
  9
$ACADVER
  1
AC1021
  9
$ACADMAINTVER
 70
    25
  9
$DWGCODEPAGE
  3
ANSI_932
  9
$LASTSAVEDBY
  1
tform
  9
$INSBASE
 10
0.0
 20
0.0
 30
0.0
  9
$EXTMIN
 10
0.0
 20
0.0
 30
-0.0000000000000071
  9
$EXTMAX
 10
420.0
 20
594.0
 30
0.0000000000000142
  9
$LIMMIN
 10
0.0
 20
0.0
  9
$LIMMAX
 10
420.0
 20
594.0
  9
$ORTHOMODE
 70
     0
  9
$REGENMODE
 70
     1
  9
$FILLMODE
 70
     1
  9
$QTEXTMODE
 70
     0
  9
$MIRRTEXT
 70
     1
  9
$LTSCALE
 40
1.0
  9
$ATTMODE
 70
     1
  9
$TEXTSIZE
 40
2.5
  9
$TRACEWID
 40
1.0
  9
$TEXTSTYLE
  7
ＭＳ ゴシック
  9
$CLAYER
  8
DIM
  9
$CELTYPE
  6
ByLayer
  9
$CECOLOR
 62
   256
  9
$CELTSCALE
 40
1.0
  9
$DISPSILH
 70
     0
  9
$DIMSCALE
 40
1.0
  9
$DIMASZ
 40
2.0
  9
$DIMEXO
 40
5.0
  9
$DIMDLI
 40
0.9999999999999999
  9
$DIMRND
 40
0.0
  9
$DIMDLE
 40
0.0
  9
$DIMEXE
 40
0.0
  9
$DIMTP
 40
0.0
  9
$DIMTM
 40
0.0
  9
$DIMTXT
 40
5.0
  9
$DIMCEN
 40
0.0
  9
$DIMTSZ
 40
0.0
  9
$DIMTOL
 70
     0
  9
$DIMLIM
 70
     0
  9
$DIMTIH
 70
     0
  9
$DIMTOH
 70
     0
  9
$DIMSE1
 70
     0
  9
$DIMSE2
 70
     0
  9
$DIMTAD
 70
     1
  9
$DIMZIN
 70
    11
  9
$DIMBLK
  1
DOT
  9
$DIMASO
 70
     1
  9
$DIMSHO
 70
     1
  9
$DIMPOST
  1
<>
  9
$DIMAPOST
  1
[]
  9
$DIMALT
 70
     0
  9
$DIMALTD
 70
     1
  9
$DIMALTF
 40
1.0
  9
$DIMLFAC
 40
1.0
  9
$DIMTOFL
 70
     0
  9
$DIMTVP
 40
0.0
  9
$DIMTIX
 70
     1
  9
$DIMSOXD
 70
     0
  9
$DIMSAH
 70
     0
  9
$DIMBLK1
  1

  9
$DIMBLK2
  1

  9
$DIMSTYLE
  2
tfrom線あり
  9
$DIMCLRD
 70
     0
  9
$DIMCLRE
 70
     0
  9
$DIMCLRT
 70
     0
  9
$DIMTFAC
 40
1.0
  9
$DIMGAP
 40
3.0
  9
$DIMJUST
 70
     0
  9
$DIMSD1
 70
     0
  9
$DIMSD2
 70
     0
  9
$DIMTOLJ
 70
     1
  9
$DIMTZIN
 70
    11
  9
$DIMALTZ
 70
    11
  9
$DIMALTTZ
 70
    11
  9
$DIMUPT
 70
     0
  9
$DIMDEC
 70
     0
  9
$DIMTDEC
 70
     1
  9
$DIMALTU
 70
     2
  9
$DIMALTTD
 70
     2
  9
$DIMTXSTY
  7
ＭＳ ゴシック
  9
$DIMAUNIT
 70
     0
  9
$DIMADEC
 70
     2
  9
$DIMALTRND
 40
0.0
  9
$DIMAZIN
 70
     0
  9
$DIMDSEP
 70
    46
  9
$DIMATFIT
 70
     0
  9
$DIMFRAC
 70
     2
  9
$DIMLDRBLK
  1
DOT
  9
$DIMLUNIT
 70
     2
  9
$DIMLWD
 70
    -2
  9
$DIMLWE
 70
    -2
  9
$DIMTMOVE
 70
     0
  9
$DIMFXL
 40
1.0
  9
$DIMFXLON
 70
     0
  9
$DIMJOGANG
 40
0.7853981633974483
  9
$DIMTFILL
 70
     0
  9
$DIMTFILLCLR
 70
     0
  9
$DIMARCSYM
 70
     0
  9
$DIMLTYPE
  6

  9
$DIMLTEX1
  6

  9
$DIMLTEX2
  6

  9
$LUNITS
 70
     2
  9
$LUPREC
 70
     0
  9
$SKETCHINC
 40
0.1
  9
$FILLETRAD
 40
0.0
  9
$AUNITS
 70
     0
  9
$AUPREC
 70
     0
  9
$MENU
  1
acad
  9
$ELEVATION
 40
0.0
  9
$PELEVATION
 40
0.0
  9
$THICKNESS
 40
0.0
  9
$LIMCHECK
 70
     0
  9
$CHAMFERA
 40
0.0
  9
$CHAMFERB
 40
0.0
  9
$CHAMFERC
 40
0.0
  9
$CHAMFERD
 40
0.0
  9
$SKPOLY
 70
     0
  9
$TDCREATE
 40
2447893.375
  9
$TDUCREATE
 40
0.0
  9
$TDUPDATE
 40
2460180.479180081
  9
$TDUUPDATE
 40
2460180.104180081
  9
$TDINDWG
 40
0.2216236458
  9
$TDUSRTIMER
 40
0.0000488657
  9
$USRTIMER
 70
     1
  9
$ANGBASE
 50
0.0
  9
$ANGDIR
 70
     0
  9
$PDMODE
 70
     1
  9
$PDSIZE
 40
-2.0
  9
$PLINEWID
 40
0.0
  9
$SPLFRAME
 70
     0
  9
$SPLINETYPE
 70
     6
  9
$SPLINESEGS
 70
     8
  9
$HANDSEED
  5
4968
  9
$SURFTAB1
 70
     6
  9
$SURFTAB2
 70
     6
  9
$SURFTYPE
 70
     6
  9
$SURFU
 70
     6
  9
$SURFV
 70
     6
  9
$UCSBASE
  2

  9
$UCSNAME
  2

  9
$UCSORG
 10
0.0
 20
0.0
 30
0.0
  9
$UCSXDIR
 10
1.0
 20
0.0
 30
0.0
  9
$UCSYDIR
 10
0.0
 20
1.0
 30
0.0
  9
$UCSORTHOREF
  2

  9
$UCSORTHOVIEW
 70
     0
  9
$UCSORGTOP
 10
0.0
 20
0.0
 30
0.0
  9
$UCSORGBOTTOM
 10
0.0
 20
0.0
 30
0.0
  9
$UCSORGLEFT
 10
0.0
 20
0.0
 30
0.0
  9
$UCSORGRIGHT
 10
0.0
 20
0.0
 30
0.0
  9
$UCSORGFRONT
 10
0.0
 20
0.0
 30
0.0
  9
$UCSORGBACK
 10
0.0
 20
0.0
 30
0.0
  9
$PUCSBASE
  2

  9
$PUCSNAME
  2

  9
$PUCSORG
 10
0.0
 20
0.0
 30
0.0
  9
$PUCSXDIR
 10
1.0
 20
0.0
 30
0.0
  9
$PUCSYDIR
 10
0.0
 20
1.0
 30
0.0
  9
$PUCSORTHOREF
  2

  9
$PUCSORTHOVIEW
 70
     0
  9
$PUCSORGTOP
 10
0.0
 20
0.0
 30
0.0
  9
$PUCSORGBOTTOM
 10
0.0
 20
0.0
 30
0.0
  9
$PUCSORGLEFT
 10
0.0
 20
0.0
 30
0.0
  9
$PUCSORGRIGHT
 10
0.0
 20
0.0
 30
0.0
  9
$PUCSORGFRONT
 10
0.0
 20
0.0
 30
0.0
  9
$PUCSORGBACK
 10
0.0
 20
0.0
 30
0.0
  9
$USERI1
 70
     0
  9
$USERI2
 70
     0
  9
$USERI3
 70
     0
  9
$USERI4
 70
     0
  9
$USERI5
 70
     0
  9
$USERR1
 40
0.0
  9
$USERR2
 40
0.0
  9
$USERR3
 40
0.0
  9
$USERR4
 40
0.0
  9
$USERR5
 40
0.0
  9
$WORLDVIEW
 70
     1
  9
$SHADEDGE
 70
     3
  9
$SHADEDIF
 70
    70
  9
$TILEMODE
 70
     1
  9
$MAXACTVP
 70
    64
  9
$PINSBASE
 10
0.0
 20
0.0
 30
0.0
  9
$PLIMCHECK
 70
     0
  9
$PEXTMIN
 10
0.0
 20
0.0
 30
0.0
  9
$PEXTMAX
 10
0.0
 20
0.0
 30
0.0
  9
$PLIMMIN
 10
-7.5
 20
-20.0
  9
$PLIMMAX
 10
412.5
 20
277.0
  9
$UNITMODE
 70
     0
  9
$VISRETAIN
 70
     0
  9
$PLINEGEN
 70
     1
  9
$PSLTSCALE
 70
     0
  9
$TREEDEPTH
 70
  3020
  9
$CMLSTYLE
  2
Standard
  9
$CMLJUST
 70
     0
  9
$CMLSCALE
 40
1.0
  9
$PROXYGRAPHICS
 70
     0
  9
$MEASUREMENT
 70
     1
  9
$CELWEIGHT
370
    -1
  9
$ENDCAPS
280
     0
  9
$JOINSTYLE
280
     0
  9
$LWDISPLAY
290
     1
  9
$INSUNITS
 70
     4
  9
$HYPERLINKBASE
  1

  9
$STYLESHEET
  1

  9
$XEDIT
290
     1
  9
$CEPSNTYPE
380
     0
  9
$PSTYLEMODE
290
     1
  9
$FINGERPRINTGUID
  2

  9
$VERSIONGUID
  2

  9
$EXTNAMES
290
     1
  9
$PSVPSCALE
 40
0.0
  9
$OLESTARTUP
290
     0
  9
$SORTENTS
280
   127
  9
$INDEXCTL
280
     0
  9
$HIDETEXT
280
     1
  9
$XCLIPFRAME
290
     0
  9
$HALOGAP
280
     0
  9
$OBSCOLOR
 70
   257
  9
$OBSLTYPE
280
     0
  9
$INTERSECTIONDISPLAY
280
     0
  9
$INTERSECTIONCOLOR
 70
   257
  9
$DIMASSOC
280
     2
  9
$PROJECTNAME
  1

  9
$CAMERADISPLAY
290
     0
  9
$LENSLENGTH
 40
50.0
  9
$CAMERAHEIGHT
 40
0.0
  9
$STEPSPERSEC
 40
2.0
  9
$STEPSIZE
 40
6.0
  9
$3DDWFPREC
 40
2.0
  9
$PSOLWIDTH
 40
0.25
  9
$PSOLHEIGHT
 40
4.0
  9
$LOFTANG1
 40
1.570796326794897
  9
$LOFTANG2
 40
1.570796326794897
  9
$LOFTMAG1
 40
0.0
  9
$LOFTMAG2
 40
0.0
  9
$LOFTPARAM
 70
     7
  9
$LOFTNORMALS
280
     1
  9
$LATITUDE
 40
37.795
  9
$LONGITUDE
 40
-122.394
  9
$NORTHDIRECTION
 40
0.0
  9
$TIMEZONE
 70
 -8000
  9
$LIGHTGLYPHDISPLAY
280
     1
  9
$TILEMODELIGHTSYNCH
280
     1
  9
$SOLIDHIST
280
     1
  9
$SHOWHIST
280
     1
  9
$DWFFRAME
280
     2
  9
$DGNFRAME
280
     2
  9
$REALWORLDSCALE
290
     1
  9
$INTERFERECOLOR
 62
   256
  9
$CSHADOW
280
     0
  9
$SHADOWPLANELOCATION
 40
0.0
  0
ENDSEC
  0
SECTION
  2
CLASSES
  0
CLASS
  1
LWPOLYLINE
  2
AcDbPolyline
  3
ObjectDBX Classes
 90
        0
 91
        1
280
     0
281
     1
  0
CLASS
  1
IMAGE
  2
AcDbRasterImage
  3
ISM
 90
      127
 91
        4
280
     0
281
     1
  0
CLASS
  1
OLE2FRAME
  2
AcDbOle2Frame
  3
ObjectDBX Classes
 90
        0
 91
        1
280
     0
281
     1
  0
CLASS
  1
HATCH
  2
AcDbHatch
  3
ObjectDBX Classes
 90
        0
 91
        1
280
     0
281
     1
  0
CLASS
  1
DICTIONARYVAR
  2
AcDbDictionaryVar
  3
ObjectDBX Classes
 90
        0
 91
        3
280
     0
281
     0
  0
CLASS
  1
RASTERVARIABLES
  2
AcDbRasterVariables
  3
ISM
 90
        0
 91
        3
280
     0
281
     0
  0
CLASS
  1
IMAGEDEF
  2
AcDbRasterImageDef
  3
ISM
 90
        0
 91
        3
280
     0
281
     0
  0
CLASS
  1
IMAGEDEF_REACTOR
  2
AcDbRasterImageDefReactor
  3
ISM
 90
        1
 91
        3
280
     0
281
     0
  0
CLASS
  1
IDBUFFER
  2
AcDbIdBuffer
  3
ObjectDBX Classes
 90
        0
 91
        3
280
     0
281
     0
  0
CLASS
  1
SPATIAL_FILTER
  2
AcDbSpatialFilter
  3
ObjectDBX Classes
 90
        0
 91
        3
280
     0
281
     0
  0
CLASS
  1
XRECORD
  2
AcDbXrecord
  3
ObjectDBX Classes
 90
        0
 91
        1
280
     0
281
     0
  0
CLASS
  1
SORTENTSTABLE
  2
AcDbSortentsTable
  3
ObjectDBX Classes
 90
        0
 91
        3
280
     0
281
     0
  0
CLASS
  1
LAYER_INDEX
  2
AcDbLayerIndex
  3
ObjectDBX Classes
 90
        0
 91
        3
280
     0
281
     0
  0
CLASS
  1
SPATIAL_INDEX
  2
AcDbSpatialIndex
  3
AutoCAD 2000
 90
        0
 91
        3
280
     0
281
     0
  0
CLASS
  1
OBJECT_PTR
  2
CAseDLPNTableRecord
  3
ASE-LPNTableRecord
 90
        1
 91
        3
280
     0
281
     0
  0
CLASS
  1
LAYOUT
  2
AcDbLayout
  3
ObjectDBX Classes
 90
        0
 91
        1
280
     0
281
     0
  0
CLASS
  1
PLOTSETTINGS
  2
AcDbPlotSettings
  3
ObjectDBX Classes
 90
        0
 91
        3
280
     0
281
     0
  0
CLASS
  1
ACDBDICTIONARYWDFLT
  2
AcDbDictionaryWithDefault
  3
ObjectDBX Classes
 90
        0
 91
        3
280
     0
281
     0
  0
CLASS
  1
ACDBPLACEHOLDER
  2
AcDbPlaceHolder
  3
ObjectDBX Classes
 90
        0
 91
        1
280
     0
281
     0
  0
CLASS
  1
SCALE
  2
AcDbScale
  3
ObjectDBX Classes
 90
     1153
 91
        3
280
     0
281
     0
  0
CLASS
  1
MATERIAL
  2
AcDbMaterial
  3
ObjectDBX Classes
 90
     1153
 91
        3
280
     0
281
     0
  0
CLASS
  1
VISUALSTYLE
  2
AcDbVisualStyle
  3
ObjectDBX Classes
 90
     4095
 91
        3
280
     0
281
     0
  0
CLASS
  1
TABLESTYLE
  2
AcDbTableStyle
  3
ObjectDBX Classes
 90
     4095
 91
        3
280
     0
281
     0
  0
CLASS
  1
DIMASSOC
  2
AcDbDimAssoc
  3
"AcDbDimAssoc|Product Desc:     AcDim ARX App For Dimension|Company:          Autodesk, Inc.|WEB Address:      www.autodesk.com"
 90
        0
 91
        3
280
     0
281
     0
  0
CLASS
  1
CELLSTYLEMAP
  2
AcDbCellStyleMap
  3
ObjectDBX Classes
 90
     1152
 91
        3
280
     0
281
     0
  0
CLASS
  1
SUN
  2
AcDbSun
  3
SCENEOE
 90
     1153
 91
        3
280
     0
281
     0
  0
CLASS
  1
MLEADERSTYLE
  2
AcDbMLeaderStyle
  3
ACDB_MLEADERSTYLE_CLASS
 90
     4095
 91
        3
280
     0
281
     0
  0
CLASS
  1
FIELD
  2
AcDbField
  3
ObjectDBX Classes
 90
     1152
 91
        3
280
     0
281
     0
  0
CLASS
  1
FIELDLIST
  2
AcDbFieldList
  3
ObjectDBX Classes
 90
     1152
 91
        3
280
     0
281
     0
  0
ENDSEC
  0
SECTION
  2
TABLES
  0
TABLE
  2
VPORT
  5
7
330
0
100
AcDbSymbolTable
 70
     1
  0
VPORT
  5
15
330
7
100
AcDbSymbolTableRecord
100
AcDbViewportTableRecord
  2
*ACTIVE
 70
     0
 10
0.0
 20
0.0
 11
1.0
 21
1.0
 12
301.0201356709003
 22
223.401285469834
 13
0.0
 23
0.0
 14
1.0
 24
1.0
 15
0.0
 25
0.0
 16
0.0
 26
0.0
 36
1.0
 17
-91.02013567090034
 27
73.59871453016603
 37
-46.86809886248109
 40
605.88
 41
2.189300411522634
 42
50.0
 43
0.0
 44
0.0
 50
0.0
 51
0.0
 71
    16
 72
  2000
 73
     1
 74
     1
 75
     0
 76
     0
 77
     0
 78
     0
281
     0
 65
     1
110
0.0
120
0.0
130
0.0
111
1.0
121
0.0
131
0.0
112
0.0
122
1.0
132
0.0
 79
     0
146
0.0
348
26C
 60
     3
 61
     5
292
     1
282
     1
141
0.0
142
0.0
 63
   256
361
904
  0
ENDTAB
  0
TABLE
  2
LTYPE
  5
4
330
0
100
AcDbSymbolTable
 70
     3
  0
LTYPE
  5
11
330
4
100
AcDbSymbolTableRecord
100
AcDbLinetypeTableRecord
  2
ByBlock
 70
     0
  3

 72
    65
 73
     0
 40
0.0
  0
LTYPE
  5
12
330
4
100
AcDbSymbolTableRecord
100
AcDbLinetypeTableRecord
  2
ByLayer
 70
     0
  3

 72
    65
 73
     0
 40
0.0
  0
LTYPE
  5
13
330
4
100
AcDbSymbolTableRecord
100
AcDbLinetypeTableRecord
  2
Continuous
 70
     0
  3
Solid line
 72
    65
 73
     0
 40
0.0
  0
LTYPE
  5
D6C
330
4
100
AcDbSymbolTableRecord
100
AcDbLinetypeTableRecord
  2
BORDER
 70
     0
  3
Border __  __  . __  __  . __  __  . __  __  . 
 72
    65
 73
     6
 40
44.45
 49
12.7
 74
     0
 49
-6.35
 74
     0
 49
12.7
 74
     0
 49
-6.35
 74
     0
 49
0.0
 74
     0
 49
-6.35
 74
     0
  0
LTYPE
  5
D6D
330
4
100
AcDbSymbolTableRecord
100
AcDbLinetypeTableRecord
  2
HIDDEN
 70
     0
  3
Hidden _ _ _ _ _ _ _ _ _ _ _ _ _ _ _ _ _ _ _ _ 
 72
    65
 73
     2
 40
9.524999999999999
 49
6.35
 74
     0
 49
-3.175
 74
     0
  0
ENDTAB
  0
TABLE
  2
LAYER
  5
2
102
{ACAD_XDICTIONARY
360
2E1
102
}
330
0
100
AcDbSymbolTable
 70
     9
  0
LAYER
  5
14
330
2
100
AcDbSymbolTableRecord
100
AcDbLayerTableRecord
  2
0
 70
     0
 62
     7
  6
Continuous
370
    -3
390
1D
347
266
  0
LAYER
  5
4B
330
2
100
AcDbSymbolTableRecord
100
AcDbLayerTableRecord
  2
TEMPLATE
 70
     0
 62
     7
  6
Continuous
370
    20
390
1D
347
266
  0
LAYER
  5
4C
330
2
100
AcDbSymbolTableRecord
100
AcDbLayerTableRecord
  2
DIM
 70
     0
 62
     3
  6
Continuous
370
    13
390
1D
347
266
  0
LAYER
  5
4D
330
2
100
AcDbSymbolTableRecord
100
AcDbLayerTableRecord
  2
MODEL
 70
     0
 62
     7
  6
Continuous
370
    20
390
1D
347
266
  0
LAYER
  5
88C
330
2
100
AcDbSymbolTableRecord
100
AcDbLayerTableRecord
  2
HIDDEN
 70
     0
 62
     8
  6
HIDDEN
370
    20
390
1D
347
266
1001
AcAecLayerStandard
1000

1000

  0
LAYER
  5
D6B
330
2
100
AcDbSymbolTableRecord
100
AcDbLayerTableRecord
  2
BORDER
 70
     0
 62
     4
  6
BORDER
290
     0
370
    20
390
1D
347
266
1001
AcAecLayerStandard
1000

1000

  0
LAYER
  5
D8C
330
2
100
AcDbSymbolTableRecord
100
AcDbLayerTableRecord
  2
Defpoints
 70
     0
 62
     7
  6
Continuous
290
     0
370
    -3
390
1D
347
266
  0
LAYER
  5
3653
330
2
100
AcDbSymbolTableRecord
100
AcDbLayerTableRecord
  2
Standard
 70
     0
 62
     7
  6
Continuous
370
    -3
390
1D
347
266
  0
LAYER
  5
3D4C
330
2
100
AcDbSymbolTableRecord
100
AcDbLayerTableRecord
  2
Default
 70
     0
 62
     7
  6
Continuous
370
    -3
390
1D
347
266
  0
ENDTAB
  0
TABLE
  2
STYLE
  5
3
330
0
100
AcDbSymbolTable
 70
     2
  0
STYLE
  5
17
330
3
100
AcDbSymbolTableRecord
100
AcDbTextStyleTableRecord
  2
Standard
 70
     0
 40
0.0
 41
1.0
 50
0.0
 71
     0
 42
2.5
  3
txt
  4
BIGFONT.SHX
  0
STYLE
  5
39
330
3
100
AcDbSymbolTableRecord
100
AcDbTextStyleTableRecord
  2
ＭＳ ゴシック
 70
     0
 40
0.0
 41
1.0
 50
0.0
 71
     0
 42
2.5
  3
msgothic.ttc
  4
ＭＳ ゴシック
1001
ACAD
1000
ＭＳ ゴシック
1071
        0
  0
ENDTAB
  0
TABLE
  2
VIEW
  5
5
330
0
100
AcDbSymbolTable
 70
     0
  0
ENDTAB
  0
TABLE
  2
UCS
  5
6
330
0
100
AcDbSymbolTable
 70
     0
  0
ENDTAB
  0
TABLE
  2
APPID
  5
8
330
0
100
AcDbSymbolTable
 70
     4
  0
APPID
  5
16
330
8
100
AcDbSymbolTableRecord
100
AcDbRegAppTableRecord
  2
ACAD
 70
     0
  0
APPID
  5
7AC
330
8
100
AcDbSymbolTableRecord
100
AcDbRegAppTableRecord
  2
AcAecLayerStandard
 70
     0
  0
APPID
  5
E29
330
8
100
AcDbSymbolTableRecord
100
AcDbRegAppTableRecord
  2
ACAD_MLEADERVER
 70
     0
  0
APPID
  5
495C
330
8
100
AcDbSymbolTableRecord
100
AcDbRegAppTableRecord
  2
PLOTTRANSPARENCY
 70
     0
  0
ENDTAB
  0
TABLE
  2
DIMSTYLE
  5
9
330
0
100
AcDbSymbolTable
 70
     3
100
AcDbDimStyleTable
  0
DIMSTYLE
105
18
330
9
100
AcDbSymbolTableRecord
100
AcDbDimStyleTableRecord
  2
Standard
 70
     0
178
     0
340
17
  0
DIMSTYLE
105
57
102
{ACAD_REACTORS
330
41B6
330
41B7
330
46B9
330
46BD
330
46C2
330
46C3
102
}
330
9
100
AcDbSymbolTableRecord
100
AcDbDimStyleTableRecord
  2
tfrom線あり
 70
     0
  3
<>
  4
[]
 41
2.0
 42
5.0
 43
0.9999999999999999
 44
0.0
 73
     0
 74
     0
 77
     1
 78
    11
140
5.0
141
0.0
143
1.0
147
3.0
171
     1
174
     1
178
     0
179
     2
271
     0
272
     1
276
     2
284
    11
285
    11
286
    11
289
     0
340
39
341
4E
342
4E
  0
DIMSTYLE
105
432E
330
9
100
AcDbSymbolTableRecord
100
AcDbDimStyleTableRecord
  2
ISO-25
 70
     0
 41
2.5
 42
0.625
 43
3.75
 44
1.25
 73
     0
 74
     0
 77
     1
 78
     8
140
2.5
141
2.5
143
0.0393700787
147
0.625
171
     3
172
     1
178
     0
271
     2
272
     2
274
     3
278
    44
283
     0
284
     8
340
17
  0
ENDTAB
  0
TABLE
  2
BLOCK_RECORD
  5
1
330
0
100
AcDbSymbolTable
 70
    20
  0
BLOCK_RECORD
  5
A
102
{ACAD_XDICTIONARY
360
3D3D
102
}
330
1
100
AcDbSymbolTableRecord
100
AcDbBlockTableRecord
  2
*MODEL_SPACE
340
20
 70
     0
280
     1
281
     0
  0
BLOCK_RECORD
  5
B
330
1
100
AcDbSymbolTableRecord
100
AcDbBlockTableRecord
  2
*PAPER_SPACE
340
21
 70
     0
280
     1
281
     0
  0
BLOCK_RECORD
  5
4E
330
1
100
AcDbSymbolTableRecord
100
AcDbBlockTableRecord
  2
_DOT
340
0
102
{BLKREFS
331
41FF
331
4200
331
420B
331
420C
331
4218
331
4219
331
4224
331
4230
331
4231
331
42BD
331
42BE
331
4528
331
4529
331
4538
331
4539
331
4549
331
454A
331
4558
331
4559
331
4760
331
4761
331
476C
331
476D
331
4778
331
4779
331
4784
331
4785
102
}
 70
     0
280
     1
281
     0
  0
BLOCK_RECORD
  5
68D
330
1
100
AcDbSymbolTableRecord
100
AcDbBlockTableRecord
  2
block 2
340
0
102
{BLKREFS
331
68C
331
1343
102
}
 70
     0
280
     1
281
     0
  0
BLOCK_RECORD
  5
3D81
330
1
100
AcDbSymbolTableRecord
100
AcDbBlockTableRecord
  2
SE3
340
0
 70
     0
280
     1
281
     0
  0
BLOCK_RECORD
  5
3DC5
330
1
100
AcDbSymbolTableRecord
100
AcDbBlockTableRecord
  2
SE4
340
0
 70
     0
280
     1
281
     0
  0
BLOCK_RECORD
  5
3EE6
330
1
100
AcDbSymbolTableRecord
100
AcDbBlockTableRecord
  2
SE5
340
0
 70
     0
280
     1
281
     0
  0
BLOCK_RECORD
  5
3F2A
330
1
100
AcDbSymbolTableRecord
100
AcDbBlockTableRecord
  2
SE6
340
0
 70
     0
280
     1
281
     0
  0
BLOCK_RECORD
  5
41F7
330
1
100
AcDbSymbolTableRecord
100
AcDbBlockTableRecord
  2
*D6
340
0
 70
     0
280
     1
281
     0
  0
BLOCK_RECORD
  5
4205
330
1
100
AcDbSymbolTableRecord
100
AcDbBlockTableRecord
  2
*D7
340
0
 70
     0
280
     1
281
     0
  0
BLOCK_RECORD
  5
4212
330
1
100
AcDbSymbolTableRecord
100
AcDbBlockTableRecord
  2
*D8
340
0
 70
     0
280
     1
281
     0
  0
BLOCK_RECORD
  5
421F
330
1
100
AcDbSymbolTableRecord
100
AcDbBlockTableRecord
  2
*D9
340
0
 70
     0
280
     1
281
     0
  0
BLOCK_RECORD
  5
422A
330
1
100
AcDbSymbolTableRecord
100
AcDbBlockTableRecord
  2
*D10
340
0
 70
     0
280
     1
281
     0
  0
BLOCK_RECORD
  5
42B7
330
1
100
AcDbSymbolTableRecord
100
AcDbBlockTableRecord
  2
*D11
340
0
 70
     0
280
     1
281
     0
  0
BLOCK_RECORD
  5
4523
330
1
100
AcDbSymbolTableRecord
100
AcDbBlockTableRecord
  2
*D12
340
0
 70
     0
280
     1
281
     0
  0
BLOCK_RECORD
  5
4533
330
1
100
AcDbSymbolTableRecord
100
AcDbBlockTableRecord
  2
*D13
340
0
 70
     0
280
     1
281
     0
  0
BLOCK_RECORD
  5
4544
330
1
100
AcDbSymbolTableRecord
100
AcDbBlockTableRecord
  2
*D14
340
0
 70
     0
280
     1
281
     0
  0
BLOCK_RECORD
  5
4553
330
1
100
AcDbSymbolTableRecord
100
AcDbBlockTableRecord
  2
*D15
340
0
 70
     0
280
     1
281
     0
  0
BLOCK_RECORD
  5
475A
330
1
100
AcDbSymbolTableRecord
100
AcDbBlockTableRecord
  2
*D16
340
0
 70
     0
280
     1
281
     0
  0
BLOCK_RECORD
  5
4766
330
1
100
AcDbSymbolTableRecord
100
AcDbBlockTableRecord
  2
*D17
340
0
 70
     0
280
     1
281
     0
  0
BLOCK_RECORD
  5
4772
330
1
100
AcDbSymbolTableRecord
100
AcDbBlockTableRecord
  2
*D18
340
0
 70
     0
280
     1
281
     0
  0
BLOCK_RECORD
  5
477E
330
1
100
AcDbSymbolTableRecord
100
AcDbBlockTableRecord
  2
*D19
340
0
 70
     0
280
     1
281
     0
  0
ENDTAB
  0
ENDSEC
  0
SECTION
  2
BLOCKS
  0
BLOCK
  5
D
330
A
100
AcDbEntity
  8
0
390
1D
100
AcDbBlockBegin
  2
*MODEL_SPACE
 70
     0
 10
0.0
 20
0.0
 30
0.0
  3
*MODEL_SPACE
  1
*MODEL_SPACE
  0
ENDBLK
  5
E
330
A
100
AcDbEntity
  8
0
390
1D
100
AcDbBlockEnd
  0
BLOCK
  5
F
330
B
100
AcDbEntity
 67
     1
  8
0
390
1D
100
AcDbBlockBegin
  2
*PAPER_SPACE
 70
     0
 10
0.0
 20
0.0
 30
0.0
  3
*PAPER_SPACE
  1
*PAPER_SPACE
  0
ENDBLK
  5
10
330
B
100
AcDbEntity
 67
     1
  8
0
390
1D
100
AcDbBlockEnd
  0
BLOCK
  5
2462
330
4E
100
AcDbEntity
  8
0
390
1D
100
AcDbBlockBegin
  2
_DOT
 70
     0
 10
0.0
 20
0.0
 30
0.0
  3
_DOT
  1
_DOT
  0
POLYLINE
  5
2464
330
4E
100
AcDbEntity
  8
0
  6
ByBlock
 62
     0
370
    -2
390
1D
100
AcDb2dPolyline
 66
     1
 10
0.0
 20
0.0
 30
0.0
 70
     1
 40
0.5
 41
0.5
  0
VERTEX
  5
2465
330
2464
100
AcDbEntity
  8
0
  6
ByBlock
 62
     0
370
    -2
390
1D
100
AcDbVertex
100
AcDb2dVertex
 10
-0.25
 20
0.0
 30
0.0
 42
1.0
  0
VERTEX
  5
2466
330
2464
100
AcDbEntity
  8
0
  6
ByBlock
 62
     0
370
    -2
390
1D
100
AcDbVertex
100
AcDb2dVertex
 10
0.25
 20
0.0
 30
0.0
 42
1.0
  0
SEQEND
  5
2467
330
2464
100
AcDbEntity
  8
0
390
1D
  0
LINE
  5
2468
330
4E
100
AcDbEntity
  8
0
  6
ByBlock
 62
     0
370
    -2
390
1D
100
AcDbLine
 10
-0.5
 20
0.0
 30
0.0
 11
-1.0
 21
0.0
 31
0.0
  0
ENDBLK
  5
2469
330
4E
100
AcDbEntity
  8
0
390
1D
100
AcDbBlockEnd
  0
BLOCK
  5
68E
330
68D
100
AcDbEntity
  8
0
100
AcDbBlockBegin
  2
block 2
 70
     0
 10
0.0
 20
0.0
 30
0.0
  3
block 2
  1
block 2
  0
ENDBLK
  5
6B0
330
68D
100
AcDbEntity
  8
0
100
AcDbBlockEnd
  0
BLOCK
  5
3D82
330
3D81
100
AcDbEntity
  8
0
100
AcDbBlockBegin
  2
SE3
 70
     0
 10
0.0
 20
0.0
 30
0.0
  3
SE3
  1

  0
LINE
  5
3D83
330
3D81
100
AcDbEntity
  8
Default
  6
Continuous
 62
     7
100
AcDbLine
 10
64.7778035388
 20
146.5929326898
 30
0.0
 11
70.8592133497
 21
146.5929326898
 31
0.0
  0
LINE
  5
3D84
330
3D81
100
AcDbEntity
  8
Default
  6
Continuous
 62
     7
100
AcDbLine
 10
46.3039673855
 20
146.5929326898
 30
0.0
 11
64.7778035388
 21
146.5929326898
 31
0.0
  0
LINE
  5
3D85
330
3D81
100
AcDbEntity
  8
Default
  6
Continuous
 62
     7
100
AcDbLine
 10
70.8592133497
 20
146.5929326898
 30
0.0
 11
73.2039673855
 21
146.5929326898
 31
0.0
  0
ENDBLK
  5
3D86
330
3D81
100
AcDbEntity
  8
0
100
AcDbBlockEnd
  0
BLOCK
  5
3DC6
330
3DC5
100
AcDbEntity
  8
0
100
AcDbBlockBegin
  2
SE4
 70
     0
 10
0.0
 20
0.0
 30
0.0
  3
SE4
  1

  0
LINE
  5
3DC7
330
3DC5
100
AcDbEntity
  8
Default
  6
Continuous
 62
     7
100
AcDbLine
 10
64.7778035388
 20
160.5929326898
 30
0.0
 11
70.8592133497
 21
160.5929326898
 31
0.0
  0
LINE
  5
3DC8
330
3DC5
100
AcDbEntity
  8
Default
  6
Continuous
 62
     7
100
AcDbLine
 10
46.3039673855
 20
160.5929326898
 30
0.0
 11
64.7778035388
 21
160.5929326898
 31
0.0
  0
LINE
  5
3DC9
330
3DC5
100
AcDbEntity
  8
Default
  6
Continuous
 62
     7
100
AcDbLine
 10
70.8592133497
 20
160.5929326898
 30
0.0
 11
73.2039673855
 21
160.5929326898
 31
0.0
  0
ENDBLK
  5
3DCA
330
3DC5
100
AcDbEntity
  8
0
100
AcDbBlockEnd
  0
BLOCK
  5
3EE7
330
3EE6
100
AcDbEntity
  8
0
100
AcDbBlockBegin
  2
SE5
 70
     0
 10
0.0
 20
0.0
 30
0.0
  3
SE5
  1

  0
LINE
  5
3EE8
330
3EE6
100
AcDbEntity
  8
Default
  6
Continuous
 62
     7
100
AcDbLine
 10
64.7778035388
 20
225.011590921
 30
0.0
 11
70.8592133497
 21
225.011590921
 31
0.0
  0
LINE
  5
3EE9
330
3EE6
100
AcDbEntity
  8
Default
  6
Continuous
 62
     7
100
AcDbLine
 10
46.3039673855
 20
225.011590921
 30
0.0
 11
64.7778035388
 21
225.011590921
 31
0.0
  0
LINE
  5
3EEA
330
3EE6
100
AcDbEntity
  8
Default
  6
Continuous
 62
     7
100
AcDbLine
 10
70.8592133497
 20
225.011590921
 30
0.0
 11
73.2039673855
 21
225.011590921
 31
0.0
  0
ENDBLK
  5
3EEB
330
3EE6
100
AcDbEntity
  8
0
100
AcDbBlockEnd
  0
BLOCK
  5
3F2B
330
3F2A
100
AcDbEntity
  8
0
100
AcDbBlockBegin
  2
SE6
 70
     0
 10
0.0
 20
0.0
 30
0.0
  3
SE6
  1

  0
LINE
  5
3F2C
330
3F2A
100
AcDbEntity
  8
Default
  6
Continuous
 62
     7
100
AcDbLine
 10
64.7778035388
 20
239.011590921
 30
0.0
 11
70.8592133497
 21
239.011590921
 31
0.0
  0
LINE
  5
3F2D
330
3F2A
100
AcDbEntity
  8
Default
  6
Continuous
 62
     7
100
AcDbLine
 10
46.3039673855
 20
239.011590921
 30
0.0
 11
64.7778035388
 21
239.011590921
 31
0.0
  0
LINE
  5
3F2E
330
3F2A
100
AcDbEntity
  8
Default
  6
Continuous
 62
     7
100
AcDbLine
 10
70.8592133497
 20
239.011590921
 30
0.0
 11
73.2039673855
 21
239.011590921
 31
0.0
  0
ENDBLK
  5
3F2F
330
3F2A
100
AcDbEntity
  8
0
100
AcDbBlockEnd
  0
BLOCK
  5
41F8
330
41F7
100
AcDbEntity
  8
0
100
AcDbBlockBegin
  2
*D6
 70
     1
 10
0.0
 20
0.0
 30
0.0
  3
*D6
  1

  0
LINE
  5
41FA
330
41F7
100
AcDbEntity
  8
DIM
 62
     0
370
    -2
100
AcDbLine
 10
293.339238722367
 20
136.833686048293
 30
0.0
 11
293.339238722367
 21
125.3760428067842
 31
0.0
  0
LINE
  5
41FB
330
41F7
100
AcDbEntity
  8
DIM
 62
     0
370
    -2
100
AcDbLine
 10
301.0392387223671
 20
151.2736860482929
 30
0.0
 11
301.0392387223671
 21
125.3760428067842
 31
0.0
  0
LINE
  5
41FC
330
41F7
100
AcDbEntity
  8
DIM
 62
     0
370
    -2
100
AcDbLine
 10
301.0392387223671
 20
125.3760428067842
 30
0.0
 11
316.1175192736924
 21
125.3760428067842
 31
0.0
  0
LINE
  5
41FD
330
41F7
100
AcDbEntity
  8
DIM
 62
     0
370
    -2
100
AcDbLine
 10
295.339238722367
 20
125.3760428067842
 30
0.0
 11
299.0392387223671
 21
125.3760428067842
 31
0.0
  0
LINE
  5
41FE
330
41F7
100
AcDbEntity
  8
DIM
 62
     0
370
    -2
100
AcDbLine
 10
299.0392387223671
 20
125.3760428067842
 30
0.0
 11
297.0392387223671
 21
125.3760428067842
 31
0.0
  0
INSERT
  5
41FF
330
41F7
100
AcDbEntity
  8
DIM
 62
     0
370
    -2
100
AcDbBlockReference
  2
_DOT
 10
293.339238722367
 20
125.3760428067842
 30
0.0
 41
2.0
 42
2.0
 43
2.0
 50
180.0
  0
INSERT
  5
4200
330
41F7
100
AcDbEntity
  8
DIM
 62
     0
370
    -2
100
AcDbBlockReference
  2
_DOT
 10
301.0392387223671
 20
125.3760428067842
 30
0.0
 41
2.0
 42
2.0
 43
2.0
  0
MTEXT
  5
4201
330
41F7
100
AcDbEntity
  8
DIM
 62
     0
100
AcDbMText
 10
311.7975192736924
 20
130.8760428067842
 30
0.0
 40
5.0
 41
0.0
 46
0.0
 71
     5
 72
     1
  1
\A1;8
  7
ＭＳ ゴシック
 73
     1
 44
1.0
  0
POINT
  5
4202
330
41F7
100
AcDbEntity
  8
Defpoints
 62
     0
100
AcDbPoint
 10
293.339238722367
 20
141.833686048293
 30
0.0
  0
POINT
  5
4203
330
41F7
100
AcDbEntity
  8
Defpoints
 62
     0
100
AcDbPoint
 10
301.0392387223671
 20
156.2736860482929
 30
0.0
  0
POINT
  5
4204
330
41F7
100
AcDbEntity
  8
Defpoints
 62
     0
100
AcDbPoint
 10
301.0392387223671
 20
125.3760428067842
 30
0.0
  0
ENDBLK
  5
41F9
330
41F7
100
AcDbEntity
  8
0
100
AcDbBlockEnd
  0
BLOCK
  5
4206
330
4205
100
AcDbEntity
  8
0
100
AcDbBlockBegin
  2
*D7
 70
     1
 10
0.0
 20
0.0
 30
0.0
  3
*D7
  1

  0
LINE
  5
4208
330
4205
100
AcDbEntity
  8
DIM
 62
     0
370
    -2
100
AcDbLine
 10
293.339238722367
 20
136.833686048293
 30
0.0
 11
293.339238722367
 21
111.5038353116162
 31
0.0
  0
LINE
  5
4209
330
4205
100
AcDbEntity
  8
DIM
 62
     0
370
    -2
100
AcDbLine
 10
359.9192387223672
 20
178.1336860482929
 30
0.0
 11
359.9192387223672
 21
111.5038353116162
 31
0.0
  0
LINE
  5
420A
330
4205
100
AcDbEntity
  8
DIM
 62
     0
370
    -2
100
AcDbLine
 10
295.339238722367
 20
111.5038353116162
 30
0.0
 11
357.9192387223672
 21
111.5038353116162
 31
0.0
  0
INSERT
  5
420B
330
4205
100
AcDbEntity
  8
DIM
 62
     0
370
    -2
100
AcDbBlockReference
  2
_DOT
 10
293.339238722367
 20
111.5038353116162
 30
0.0
 41
2.0
 42
2.0
 43
2.0
 50
180.0
  0
INSERT
  5
420C
330
4205
100
AcDbEntity
  8
DIM
 62
     0
370
    -2
100
AcDbBlockReference
  2
_DOT
 10
359.9192387223672
 20
111.5038353116162
 30
0.0
 41
2.0
 42
2.0
 43
2.0
  0
MTEXT
  5
420D
330
4205
100
AcDbEntity
  8
DIM
 62
     0
100
AcDbMText
 10
326.6292374921671
 20
117.0038353116162
 30
0.0
 40
5.0
 41
0.0
 46
0.0
 71
     5
 72
     1
  1
\A1;\A1;67
  7
ＭＳ ゴシック
 73
     1
 44
1.0
  0
POINT
  5
420E
330
4205
100
AcDbEntity
  8
Defpoints
 62
     0
100
AcDbPoint
 10
293.339238722367
 20
141.833686048293
 30
0.0
  0
POINT
  5
420F
330
4205
100
AcDbEntity
  8
Defpoints
 62
     0
100
AcDbPoint
 10
359.9192387223672
 20
183.1336860482929
 30
0.0
  0
POINT
  5
4210
330
4205
100
AcDbEntity
  8
Defpoints
 62
     0
100
AcDbPoint
 10
359.9192387223672
 20
111.5038353116162
 30
0.0
  0
ENDBLK
  5
4207
330
4205
100
AcDbEntity
  8
0
100
AcDbBlockEnd
  0
BLOCK
  5
4213
330
4212
100
AcDbEntity
  8
0
100
AcDbBlockBegin
  2
*D8
 70
     1
 10
0.0
 20
0.0
 30
0.0
  3
*D8
  1

  0
LINE
  5
4215
330
4212
100
AcDbEntity
  8
DIM
 62
     0
370
    -2
100
AcDbLine
 10
293.339238722367
 20
136.833686048293
 30
0.0
 11
293.339238722367
 21
111.5038353116162
 31
0.0
  0
LINE
  5
4216
330
4212
100
AcDbEntity
  8
DIM
 62
     0
370
    -2
100
AcDbLine
 10
188.339238722367
 20
134.2058650470402
 30
0.0
 11
188.339238722367
 21
111.5038353116162
 31
0.0
  0
LINE
  5
4217
330
4212
100
AcDbEntity
  8
DIM
 62
     0
370
    -2
100
AcDbLine
 10
291.339238722367
 20
111.5038353116162
 30
0.0
 11
190.339238722367
 21
111.5038353116162
 31
0.0
  0
INSERT
  5
4218
330
4212
100
AcDbEntity
  8
DIM
 62
     0
370
    -2
100
AcDbBlockReference
  2
_DOT
 10
293.339238722367
 20
111.5038353116162
 30
0.0
 41
2.0
 42
2.0
 43
2.0
  0
INSERT
  5
4219
330
4212
100
AcDbEntity
  8
DIM
 62
     0
370
    -2
100
AcDbBlockReference
  2
_DOT
 10
188.339238722367
 20
111.5038353116162
 30
0.0
 41
2.0
 42
2.0
 43
2.0
 50
180.0
  0
MTEXT
  5
421A
330
4212
100
AcDbEntity
  8
DIM
 62
     0
100
AcDbMText
 10
240.839240361567
 20
117.0038353116162
 30
0.0
 40
5.0
 41
0.0
 46
0.0
 71
     5
 72
     1
  1
\A1;\A1;110-65 {}
  7
ＭＳ ゴシック
 73
     1
 44
1.0
  0
POINT
  5
421B
330
4212
100
AcDbEntity
  8
Defpoints
 62
     0
100
AcDbPoint
 10
293.339238722367
 20
141.833686048293
 30
0.0
  0
POINT
  5
421C
330
4212
100
AcDbEntity
  8
Defpoints
 62
     0
100
AcDbPoint
 10
188.339238722367
 20
139.2058650470402
 30
0.0
  0
POINT
  5
421D
330
4212
100
AcDbEntity
  8
Defpoints
 62
     0
100
AcDbPoint
 10
188.339238722367
 20
111.5038353116162
 30
0.0
  0
ENDBLK
  5
4214
330
4212
100
AcDbEntity
  8
0
100
AcDbBlockEnd
  0
BLOCK
  5
4220
330
421F
100
AcDbEntity
  8
0
100
AcDbBlockBegin
  2
*D9
 70
     1
 10
0.0
 20
0.0
 30
0.0
  3
*D9
  1

  0
LINE
  5
4222
330
421F
100
AcDbEntity
  8
DIM
 62
     0
370
    -2
100
AcDbLine
 10
109.5142274827086
 20
540.828468943816
 30
0.0
 11
144.7942409143943
 21
555.7441577125539
 31
0.0
  0
MTEXT
  5
4223
330
421F
100
AcDbEntity
  8
DIM
 62
     0
100
AcDbMText
 10
129.5871847475389
 20
555.2862628140196
 30
0.0
 40
5.0
 41
0.0
 46
0.0
 71
     5
 72
     1
  1
\A1;\A1;%%C35-%%C40 {}
  7
ＭＳ ゴシック
 11
0.9210653170480444
 21
0.3894081171870786
 31
0.0
 73
     1
 44
1.0
  0
INSERT
  5
4224
330
421F
100
AcDbEntity
  8
DIM
 62
     0
370
    -2
100
AcDbBlockReference
  2
_DOT
 10
107.6720968486125
 20
540.0496527094418
 30
0.0
 41
2.0
 42
2.0
 43
2.0
 50
202.9176757399343
  0
POINT
  5
4225
330
421F
100
AcDbEntity
  8
Defpoints
 62
     0
100
AcDbPoint
 10
107.6720968486125
 20
540.0496527094418
 30
0.0
  0
POINT
  5
4226
330
421F
100
AcDbEntity
  8
Defpoints
 62
     0
100
AcDbPoint
 10
75.43481075190476
 20
526.420368607883
 30
0.0
  0
ENDBLK
  5
4221
330
421F
100
AcDbEntity
  8
0
100
AcDbBlockEnd
  0
BLOCK
  5
422B
330
422A
100
AcDbEntity
  8
0
100
AcDbBlockBegin
  2
*D10
 70
     1
 10
0.0
 20
0.0
 30
0.0
  3
*D10
  1

  0
LINE
  5
422D
330
422A
100
AcDbEntity
  8
DIM
 62
     0
370
    -2
100
AcDbLine
 10
200.978738722367
 20
228.333686048293
 30
0.0
 11
200.978738722367
 21
238.0528176998402
 31
0.0
  0
LINE
  5
422E
330
422A
100
AcDbEntity
  8
DIM
 62
     0
370
    -2
100
AcDbLine
 10
175.699738722367
 20
228.333686048293
 30
0.0
 11
175.699738722367
 21
238.0528176998402
 31
0.0
  0
LINE
  5
422F
330
422A
100
AcDbEntity
  8
DIM
 62
     0
370
    -2
100
AcDbLine
 10
198.978738722367
 20
238.0528176998402
 30
0.0
 11
177.699738722367
 21
238.0528176998402
 31
0.0
  0
INSERT
  5
4230
330
422A
100
AcDbEntity
  8
DIM
 62
     0
370
    -2
100
AcDbBlockReference
  2
_DOT
 10
200.978738722367
 20
238.0528176998402
 30
0.0
 41
2.0
 42
2.0
 43
2.0
  0
INSERT
  5
4231
330
422A
100
AcDbEntity
  8
DIM
 62
     0
370
    -2
100
AcDbBlockReference
  2
_DOT
 10
175.699738722367
 20
238.0528176998402
 30
0.0
 41
2.0
 42
2.0
 43
2.0
 50
180.0
  0
MTEXT
  5
4232
330
422A
100
AcDbEntity
  8
DIM
 62
     0
100
AcDbMText
 10
188.3392387223671
 20
244.0853176998402
 30
0.0
 40
5.0
 41
0.0
 46
0.0
 71
     5
 72
     1
  1
\A1;G3/4"
  7
ＭＳ ゴシック
 73
     1
 44
1.0
  0
POINT
  5
4233
330
422A
100
AcDbEntity
  8
Defpoints
 62
     0
100
AcDbPoint
 10
200.978738722367
 20
223.333686048293
 30
0.0
  0
POINT
  5
4234
330
422A
100
AcDbEntity
  8
Defpoints
 62
     0
100
AcDbPoint
 10
175.699738722367
 20
223.333686048293
 30
0.0
  0
POINT
  5
4235
330
422A
100
AcDbEntity
  8
Defpoints
 62
     0
100
AcDbPoint
 10
175.699738722367
 20
238.0528176998402
 30
0.0
  0
ENDBLK
  5
422C
330
422A
100
AcDbEntity
  8
0
100
AcDbBlockEnd
  0
BLOCK
  5
42B8
330
42B7
100
AcDbEntity
  8
0
100
AcDbBlockBegin
  2
*D11
 70
     1
 10
0.0
 20
0.0
 30
0.0
  3
*D11
  1

  0
LINE
  5
42BA
330
42B7
100
AcDbEntity
  8
DIM
 62
     0
370
    -2
100
AcDbLine
 10
200.978738722367
 20
153.3336860480929
 30
0.0
 11
200.978738722367
 21
139.2058650470402
 31
0.0
  0
LINE
  5
42BB
330
42B7
100
AcDbEntity
  8
DIM
 62
     0
370
    -2
100
AcDbLine
 10
175.699738722367
 20
153.333686048093
 30
0.0
 11
175.699738722367
 21
139.2058650470402
 31
0.0
  0
LINE
  5
42BC
330
42B7
100
AcDbEntity
  8
DIM
 62
     0
370
    -2
100
AcDbLine
 10
198.978738722367
 20
139.2058650470402
 30
0.0
 11
177.699738722367
 21
139.2058650470402
 31
0.0
  0
INSERT
  5
42BD
330
42B7
100
AcDbEntity
  8
DIM
 62
     0
370
    -2
100
AcDbBlockReference
  2
_DOT
 10
200.978738722367
 20
139.2058650470402
 30
0.0
 41
2.0
 42
2.0
 43
2.0
  0
INSERT
  5
42BE
330
42B7
100
AcDbEntity
  8
DIM
 62
     0
370
    -2
100
AcDbBlockReference
  2
_DOT
 10
175.699738722367
 20
139.2058650470402
 30
0.0
 41
2.0
 42
2.0
 43
2.0
 50
180.0
  0
MTEXT
  5
42BF
330
42B7
100
AcDbEntity
  8
DIM
 62
     0
100
AcDbMText
 10
188.339238722367
 20
145.2383650470402
 30
0.0
 40
5.0
 41
0.0
 46
0.0
 71
     5
 72
     1
  1
\A1;G3/4"
  7
ＭＳ ゴシック
 73
     1
 44
1.0
  0
POINT
  5
42C0
330
42B7
100
AcDbEntity
  8
Defpoints
 62
     0
100
AcDbPoint
 10
200.978738722367
 20
158.3336860480929
 30
0.0
  0
POINT
  5
42C1
330
42B7
100
AcDbEntity
  8
Defpoints
 62
     0
100
AcDbPoint
 10
175.699738722367
 20
158.333686048093
 30
0.0
  0
POINT
  5
42C2
330
42B7
100
AcDbEntity
  8
Defpoints
 62
     0
100
AcDbPoint
 10
175.699738722367
 20
139.2058650470402
 30
0.0
  0
ENDBLK
  5
42B9
330
42B7
100
AcDbEntity
  8
0
100
AcDbBlockEnd
  0
BLOCK
  5
4524
330
4523
100
AcDbEntity
  8
0
100
AcDbBlockBegin
  2
*D12
 70
     1
 10
0.0
 20
0.0
 30
0.0
  3
*D12
  1

  0
LINE
  5
4525
330
4523
100
AcDbEntity
  8
DIM
 62
     0
 48
0.05
370
    -2
100
AcDbLine
 10
121.3068310636284
 20
113.0957815052756
 30
0.0
 11
102.972536028003
 21
113.0957815052756
 31
0.0
  0
LINE
  5
4526
330
4523
100
AcDbEntity
  8
DIM
 62
     0
 48
0.05
370
    -2
100
AcDbLine
 10
121.3068310636284
 20
48.0957815052756
 30
0.0
 11
102.972536028003
 21
48.0957815052756
 31
0.0
  0
LINE
  5
4527
330
4523
100
AcDbEntity
  8
DIM
 62
     0
 48
0.05
370
    -2
100
AcDbLine
 10
102.972536028003
 20
111.0957815052756
 30
0.0
 11
102.972536028003
 21
50.0957815052756
 31
0.0
  0
INSERT
  5
4528
330
4523
100
AcDbEntity
  8
DIM
 62
     0
370
    -2
100
AcDbBlockReference
  2
_DOT
 10
102.972536028003
 20
113.0957815052756
 30
0.0
 41
2.0
 42
2.0
 43
2.0
 50
90.0
  0
INSERT
  5
4529
330
4523
100
AcDbEntity
  8
DIM
 62
     0
370
    -2
100
AcDbBlockReference
  2
_DOT
 10
102.972536028003
 20
48.0957815052756
 30
0.0
 41
2.0
 42
2.0
 43
2.0
 50
270.0
  0
MTEXT
  5
452A
330
4523
100
AcDbEntity
  8
DIM
 62
     0
100
AcDbMText
 10
97.47253602800299
 20
80.5957815052756
 30
0.0
 40
5.0
 41
0.0
 46
0.0
 71
     5
 72
     1
  1
\A1;65
  7
ＭＳ ゴシック
 11
0.0
 21
1.0
 31
0.0
 73
     1
 44
1.0
  0
POINT
  5
452B
330
4523
100
AcDbEntity
  8
Defpoints
 62
     0
100
AcDbPoint
 10
126.3068310636284
 20
113.0957815052756
 30
0.0
  0
POINT
  5
452C
330
4523
100
AcDbEntity
  8
Defpoints
 62
     0
100
AcDbPoint
 10
126.3068310636284
 20
48.0957815052756
 30
0.0
  0
POINT
  5
452D
330
4523
100
AcDbEntity
  8
Defpoints
 62
     0
100
AcDbPoint
 10
102.972536028003
 20
48.0957815052756
 30
0.0
  0
ENDBLK
  5
452E
330
4523
100
AcDbEntity
  8
0
100
AcDbBlockEnd
  0
BLOCK
  5
4534
330
4533
100
AcDbEntity
  8
0
100
AcDbBlockBegin
  2
*D13
 70
     1
 10
0.0
 20
0.0
 30
0.0
  3
*D13
  1

  0
LINE
  5
4535
330
4533
100
AcDbEntity
  8
DIM
 62
     0
 48
0.05
370
    -2
100
AcDbLine
 10
129.3068310636284
 20
118.2043165806399
 30
0.0
 11
129.3068310636284
 21
126.3611461678923
 31
0.0
  0
LINE
  5
4536
330
4533
100
AcDbEntity
  8
DIM
 62
     0
 48
0.05
370
    -2
100
AcDbLine
 10
150.3068310636284
 20
118.2043165806399
 30
0.0
 11
150.3068310636284
 21
126.3611461678923
 31
0.0
  0
LINE
  5
4537
330
4533
100
AcDbEntity
  8
DIM
 62
     0
 48
0.05
370
    -2
100
AcDbLine
 10
131.3068310636284
 20
126.3611461678923
 30
0.0
 11
148.3068310636284
 21
126.3611461678923
 31
0.0
  0
INSERT
  5
4538
330
4533
100
AcDbEntity
  8
DIM
 62
     0
370
    -2
100
AcDbBlockReference
  2
_DOT
 10
129.3068310636284
 20
126.3611461678923
 30
0.0
 41
2.0
 42
2.0
 43
2.0
 50
180.0
  0
INSERT
  5
4539
330
4533
100
AcDbEntity
  8
DIM
 62
     0
370
    -2
100
AcDbBlockReference
  2
_DOT
 10
150.3068310636284
 20
126.3611461678923
 30
0.0
 41
2.0
 42
2.0
 43
2.0
  0
MTEXT
  5
453A
330
4533
100
AcDbEntity
  8
DIM
 62
     0
100
AcDbMText
 10
139.8068310636284
 20
132.3936461678923
 30
0.0
 40
5.0
 41
0.0
 46
0.0
 71
     5
 72
     1
  1
\A1;G1/2"
  7
ＭＳ ゴシック
 73
     1
 44
1.0
  0
POINT
  5
453B
330
4533
100
AcDbEntity
  8
Defpoints
 62
     0
100
AcDbPoint
 10
129.3068310636284
 20
113.2043165806399
 30
0.0
  0
POINT
  5
453C
330
4533
100
AcDbEntity
  8
Defpoints
 62
     0
100
AcDbPoint
 10
150.3068310636284
 20
113.2043165806399
 30
0.0
  0
POINT
  5
453D
330
4533
100
AcDbEntity
  8
Defpoints
 62
     0
100
AcDbPoint
 10
150.3068310636284
 20
126.3611461678923
 30
0.0
  0
ENDBLK
  5
453E
330
4533
100
AcDbEntity
  8
0
100
AcDbBlockEnd
  0
BLOCK
  5
4545
330
4544
100
AcDbEntity
  8
0
100
AcDbBlockBegin
  2
*D14
 70
     1
 10
0.0
 20
0.0
 30
0.0
  3
*D14
  1

  0
LINE
  5
4546
330
4544
100
AcDbEntity
  8
DIM
 62
     0
 48
0.05
370
    -2
100
AcDbLine
 10
129.3068310636284
 20
42.98724642991129
 30
0.0
 11
129.3068310636284
 21
28.07593641267511
 31
0.0
  0
LINE
  5
4547
330
4544
100
AcDbEntity
  8
DIM
 62
     0
 48
0.05
370
    -2
100
AcDbLine
 10
150.3068310636284
 20
42.98724642991129
 30
0.0
 11
150.3068310636284
 21
28.07593641267511
 31
0.0
  0
LINE
  5
4548
330
4544
100
AcDbEntity
  8
DIM
 62
     0
 48
0.05
370
    -2
100
AcDbLine
 10
131.3068310636284
 20
28.07593641267511
 30
0.0
 11
148.3068310636284
 21
28.07593641267511
 31
0.0
  0
INSERT
  5
4549
330
4544
100
AcDbEntity
  8
DIM
 62
     0
370
    -2
100
AcDbBlockReference
  2
_DOT
 10
129.3068310636284
 20
28.07593641267511
 30
0.0
 41
2.0
 42
2.0
 43
2.0
 50
180.0
  0
INSERT
  5
454A
330
4544
100
AcDbEntity
  8
DIM
 62
     0
370
    -2
100
AcDbBlockReference
  2
_DOT
 10
150.3068310636284
 20
28.07593641267511
 30
0.0
 41
2.0
 42
2.0
 43
2.0
  0
MTEXT
  5
454B
330
4544
100
AcDbEntity
  8
DIM
 62
     0
100
AcDbMText
 10
139.8068310636284
 20
34.1084364126751
 30
0.0
 40
5.0
 41
0.0
 46
0.0
 71
     5
 72
     1
  1
\A1;G1/2"
  7
ＭＳ ゴシック
 73
     1
 44
1.0
  0
POINT
  5
454C
330
4544
100
AcDbEntity
  8
Defpoints
 62
     0
100
AcDbPoint
 10
129.3068310636284
 20
47.98724642991129
 30
0.0
  0
POINT
  5
454D
330
4544
100
AcDbEntity
  8
Defpoints
 62
     0
100
AcDbPoint
 10
150.3068310636284
 20
47.98724642991129
 30
0.0
  0
POINT
  5
454E
330
4544
100
AcDbEntity
  8
Defpoints
 62
     0
100
AcDbPoint
 10
150.3068310636284
 20
28.07593641267511
 30
0.0
  0
ENDBLK
  5
454F
330
4544
100
AcDbEntity
  8
0
100
AcDbBlockEnd
  0
BLOCK
  5
4554
330
4553
100
AcDbEntity
  8
0
100
AcDbBlockBegin
  2
*D15
 70
     1
 10
0.0
 20
0.0
 30
0.0
  3
*D15
  1

  0
LINE
  5
4555
330
4553
100
AcDbEntity
  8
DIM
 62
     0
 48
0.05
370
    -2
100
AcDbLine
 10
217.2944362904083
 20
1.329850736576589
 30
0.0
 11
217.2944362904083
 21
0.9999999999999858
 31
0.0
  0
LINE
  5
4556
330
4553
100
AcDbEntity
  8
DIM
 62
     0
 48
0.05
370
    -2
100
AcDbLine
 10
139.8068310636284
 20
23.07593641267511
 30
0.0
 11
139.8068310636284
 21
0.9999999999999858
 31
0.0
  0
LINE
  5
4557
330
4553
100
AcDbEntity
  8
DIM
 62
     0
 48
0.05
370
    -2
100
AcDbLine
 10
215.2944362904083
 20
0.9999999999999858
 30
0.0
 11
141.8068310636284
 21
0.9999999999999858
 31
0.0
  0
INSERT
  5
4558
330
4553
100
AcDbEntity
  8
DIM
 62
     0
370
    -2
100
AcDbBlockReference
  2
_DOT
 10
217.2944362904083
 20
0.9999999999999858
 30
0.0
 41
2.0
 42
2.0
 43
2.0
  0
INSERT
  5
4559
330
4553
100
AcDbEntity
  8
DIM
 62
     0
370
    -2
100
AcDbBlockReference
  2
_DOT
 10
139.8068310636284
 20
0.9999999999999858
 30
0.0
 41
2.0
 42
2.0
 43
2.0
 50
180.0
  0
MTEXT
  5
455A
330
4553
100
AcDbEntity
  8
DIM
 62
     0
100
AcDbMText
 10
178.5506336770183
 20
6.499999999999986
 30
0.0
 40
5.0
 41
0.0
 46
0.0
 71
     5
 72
     1
  1
\A1;60-105
  7
ＭＳ ゴシック
 73
     1
 44
1.0
  0
POINT
  5
455B
330
4553
100
AcDbEntity
  8
Defpoints
 62
     0
100
AcDbPoint
 10
217.2944362904083
 20
6.329850736576589
 30
0.0
  0
POINT
  5
455C
330
4553
100
AcDbEntity
  8
Defpoints
 62
     0
100
AcDbPoint
 10
139.8068310636284
 20
28.07593641267511
 30
0.0
  0
POINT
  5
455D
330
4553
100
AcDbEntity
  8
Defpoints
 62
     0
100
AcDbPoint
 10
139.8068310636284
 20
0.9999999999999858
 30
0.0
  0
ENDBLK
  5
455E
330
4553
100
AcDbEntity
  8
0
100
AcDbBlockEnd
  0
BLOCK
  5
475B
330
475A
100
AcDbEntity
  8
0
100
AcDbBlockBegin
  2
*D16
 70
     1
 10
0.0
 20
0.0
 30
0.0
  3
*D16
  1

  0
LINE
  5
475D
330
475A
100
AcDbEntity
  8
DIM
 62
     0
 48
0.05
370
    -2
100
AcDbLine
 10
197.351633495587
 20
223.5996168168918
 30
0.0
 11
179.0173384599618
 21
223.5996168168918
 31
0.0
  0
LINE
  5
475E
330
475A
100
AcDbEntity
  8
DIM
 62
     0
 48
0.05
370
    -2
100
AcDbLine
 10
197.351633495587
 20
158.5996168168918
 30
0.0
 11
179.0173384599618
 21
158.5996168168918
 31
0.0
  0
LINE
  5
475F
330
475A
100
AcDbEntity
  8
DIM
 62
     0
 48
0.05
370
    -2
100
AcDbLine
 10
179.0173384599618
 20
221.5996168168918
 30
0.0
 11
179.0173384599618
 21
160.5996168168918
 31
0.0
  0
INSERT
  5
4760
330
475A
100
AcDbEntity
  8
DIM
 62
     0
370
    -2
100
AcDbBlockReference
  2
_DOT
 10
179.0173384599618
 20
223.5996168168918
 30
0.0
 41
2.0
 42
2.0
 43
2.0
 50
90.0
  0
INSERT
  5
4761
330
475A
100
AcDbEntity
  8
DIM
 62
     0
370
    -2
100
AcDbBlockReference
  2
_DOT
 10
179.0173384599618
 20
158.5996168168918
 30
0.0
 41
2.0
 42
2.0
 43
2.0
 50
270.0
  0
MTEXT
  5
4762
330
475A
100
AcDbEntity
  8
DIM
 62
     0
100
AcDbMText
 10
173.5173384599618
 20
191.0996168168918
 30
0.0
 40
5.0
 41
0.0
 46
0.0
 71
     5
 72
     1
  1
\A1;65
  7
ＭＳ ゴシック
 11
0.0
 21
1.0
 31
0.0
 73
     1
 44
1.0
  0
POINT
  5
4763
330
475A
100
AcDbEntity
  8
Defpoints
 62
     0
100
AcDbPoint
 10
202.351633495587
 20
223.5996168168918
 30
0.0
  0
POINT
  5
4764
330
475A
100
AcDbEntity
  8
Defpoints
 62
     0
100
AcDbPoint
 10
202.351633495587
 20
158.5996168168918
 30
0.0
  0
POINT
  5
4765
330
475A
100
AcDbEntity
  8
Defpoints
 62
     0
100
AcDbPoint
 10
179.0173384599618
 20
158.5996168168918
 30
0.0
  0
ENDBLK
  5
475C
330
475A
100
AcDbEntity
  8
0
100
AcDbBlockEnd
  0
BLOCK
  5
4767
330
4766
100
AcDbEntity
  8
0
100
AcDbBlockBegin
  2
*D17
 70
     1
 10
0.0
 20
0.0
 30
0.0
  3
*D17
  1

  0
LINE
  5
4769
330
4766
100
AcDbEntity
  8
DIM
 62
     0
 48
0.05
370
    -2
100
AcDbLine
 10
205.351633495587
 20
228.7081518922561
 30
0.0
 11
205.351633495587
 21
236.8649814795085
 31
0.0
  0
LINE
  5
476A
330
4766
100
AcDbEntity
  8
DIM
 62
     0
 48
0.05
370
    -2
100
AcDbLine
 10
226.351633495587
 20
228.7081518922561
 30
0.0
 11
226.351633495587
 21
236.8649814795085
 31
0.0
  0
LINE
  5
476B
330
4766
100
AcDbEntity
  8
DIM
 62
     0
 48
0.05
370
    -2
100
AcDbLine
 10
207.351633495587
 20
236.8649814795085
 30
0.0
 11
224.351633495587
 21
236.8649814795085
 31
0.0
  0
INSERT
  5
476C
330
4766
100
AcDbEntity
  8
DIM
 62
     0
370
    -2
100
AcDbBlockReference
  2
_DOT
 10
205.351633495587
 20
236.8649814795085
 30
0.0
 41
2.0
 42
2.0
 43
2.0
 50
180.0
  0
INSERT
  5
476D
330
4766
100
AcDbEntity
  8
DIM
 62
     0
370
    -2
100
AcDbBlockReference
  2
_DOT
 10
226.351633495587
 20
236.8649814795085
 30
0.0
 41
2.0
 42
2.0
 43
2.0
  0
MTEXT
  5
476E
330
4766
100
AcDbEntity
  8
DIM
 62
     0
100
AcDbMText
 10
215.851633495587
 20
242.8974814795085
 30
0.0
 40
5.0
 41
0.0
 46
0.0
 71
     5
 72
     1
  1
\A1;G1/2"
  7
ＭＳ ゴシック
 73
     1
 44
1.0
  0
POINT
  5
476F
330
4766
100
AcDbEntity
  8
Defpoints
 62
     0
100
AcDbPoint
 10
205.351633495587
 20
223.7081518922561
 30
0.0
  0
POINT
  5
4770
330
4766
100
AcDbEntity
  8
Defpoints
 62
     0
100
AcDbPoint
 10
226.351633495587
 20
223.7081518922561
 30
0.0
  0
POINT
  5
4771
330
4766
100
AcDbEntity
  8
Defpoints
 62
     0
100
AcDbPoint
 10
226.351633495587
 20
236.8649814795085
 30
0.0
  0
ENDBLK
  5
4768
330
4766
100
AcDbEntity
  8
0
100
AcDbBlockEnd
  0
BLOCK
  5
4773
330
4772
100
AcDbEntity
  8
0
100
AcDbBlockBegin
  2
*D18
 70
     1
 10
0.0
 20
0.0
 30
0.0
  3
*D18
  1

  0
LINE
  5
4775
330
4772
100
AcDbEntity
  8
DIM
 62
     0
 48
0.05
370
    -2
100
AcDbLine
 10
205.351633495587
 20
153.4910817415275
 30
0.0
 11
205.351633495587
 21
138.5797717242913
 31
0.0
  0
LINE
  5
4776
330
4772
100
AcDbEntity
  8
DIM
 62
     0
 48
0.05
370
    -2
100
AcDbLine
 10
226.351633495587
 20
153.4910817415275
 30
0.0
 11
226.351633495587
 21
138.5797717242913
 31
0.0
  0
LINE
  5
4777
330
4772
100
AcDbEntity
  8
DIM
 62
     0
 48
0.05
370
    -2
100
AcDbLine
 10
207.351633495587
 20
138.5797717242913
 30
0.0
 11
224.351633495587
 21
138.5797717242913
 31
0.0
  0
INSERT
  5
4778
330
4772
100
AcDbEntity
  8
DIM
 62
     0
370
    -2
100
AcDbBlockReference
  2
_DOT
 10
205.351633495587
 20
138.5797717242913
 30
0.0
 41
2.0
 42
2.0
 43
2.0
 50
180.0
  0
INSERT
  5
4779
330
4772
100
AcDbEntity
  8
DIM
 62
     0
370
    -2
100
AcDbBlockReference
  2
_DOT
 10
226.351633495587
 20
138.5797717242913
 30
0.0
 41
2.0
 42
2.0
 43
2.0
  0
MTEXT
  5
477A
330
4772
100
AcDbEntity
  8
DIM
 62
     0
100
AcDbMText
 10
215.851633495587
 20
144.6122717242913
 30
0.0
 40
5.0
 41
0.0
 46
0.0
 71
     5
 72
     1
  1
\A1;G1/2"
  7
ＭＳ ゴシック
 73
     1
 44
1.0
  0
POINT
  5
477B
330
4772
100
AcDbEntity
  8
Defpoints
 62
     0
100
AcDbPoint
 10
205.351633495587
 20
158.4910817415275
 30
0.0
  0
POINT
  5
477C
330
4772
100
AcDbEntity
  8
Defpoints
 62
     0
100
AcDbPoint
 10
226.351633495587
 20
158.4910817415275
 30
0.0
  0
POINT
  5
477D
330
4772
100
AcDbEntity
  8
Defpoints
 62
     0
100
AcDbPoint
 10
226.351633495587
 20
138.5797717242913
 30
0.0
  0
ENDBLK
  5
4774
330
4772
100
AcDbEntity
  8
0
100
AcDbBlockEnd
  0
BLOCK
  5
477F
330
477E
100
AcDbEntity
  8
0
100
AcDbBlockBegin
  2
*D19
 70
     1
 10
0.0
 20
0.0
 30
0.0
  3
*D19
  1

  0
LINE
  5
4781
330
477E
100
AcDbEntity
  8
DIM
 62
     0
 48
0.05
370
    -2
100
AcDbLine
 10
293.339238722367
 20
111.8336860481928
 30
0.0
 11
293.339238722367
 21
111.5038353116162
 31
0.0
  0
LINE
  5
4782
330
477E
100
AcDbEntity
  8
DIM
 62
     0
 48
0.05
370
    -2
100
AcDbLine
 10
215.851633495587
 20
133.5797717242913
 30
0.0
 11
215.851633495587
 21
111.5038353116162
 31
0.0
  0
LINE
  5
4783
330
477E
100
AcDbEntity
  8
DIM
 62
     0
 48
0.05
370
    -2
100
AcDbLine
 10
291.339238722367
 20
111.5038353116162
 30
0.0
 11
217.851633495587
 21
111.5038353116162
 31
0.0
  0
INSERT
  5
4784
330
477E
100
AcDbEntity
  8
DIM
 62
     0
370
    -2
100
AcDbBlockReference
  2
_DOT
 10
293.339238722367
 20
111.5038353116162
 30
0.0
 41
2.0
 42
2.0
 43
2.0
  0
INSERT
  5
4785
330
477E
100
AcDbEntity
  8
DIM
 62
     0
370
    -2
100
AcDbBlockReference
  2
_DOT
 10
215.851633495587
 20
111.5038353116162
 30
0.0
 41
2.0
 42
2.0
 43
2.0
 50
180.0
  0
MTEXT
  5
4786
330
477E
100
AcDbEntity
  8
DIM
 62
     0
100
AcDbMText
 10
254.595436108977
 20
117.0038353116162
 30
0.0
 40
5.0
 41
0.0
 46
0.0
 71
     5
 72
     1
  1
\A1;60-105
  7
ＭＳ ゴシック
 73
     1
 44
1.0
  0
POINT
  5
4787
330
477E
100
AcDbEntity
  8
Defpoints
 62
     0
100
AcDbPoint
 10
293.339238722367
 20
116.8336860481928
 30
0.0
  0
POINT
  5
4788
330
477E
100
AcDbEntity
  8
Defpoints
 62
     0
100
AcDbPoint
 10
215.851633495587
 20
138.5797717242913
 30
0.0
  0
POINT
  5
4789
330
477E
100
AcDbEntity
  8
Defpoints
 62
     0
100
AcDbPoint
 10
215.851633495587
 20
111.5038353116162
 30
0.0
  0
ENDBLK
  5
4780
330
477E
100
AcDbEntity
  8
0
100
AcDbBlockEnd
  0
ENDSEC
  0
SECTION
  2
ENTITIES
  0
MTEXT
  5
177
330
A
100
AcDbEntity
  8
TEMPLATE
390
1D
100
AcDbMText
 10
15.84042890954615
 20
68.74635032628565
 30
0.0
 40
3.257682291666665
 41
0.0
 46
0.0
 71
     1
 72
     1
  1
品名
  7
ＭＳ ゴシック
 73
     1
 44
0.7828267384257843
  0
MTEXT
  5
178
330
A
100
AcDbEntity
  8
TEMPLATE
390
1D
100
AcDbMText
 10
15.84042890954615
 20
51.7463503262856
 30
0.0
 40
3.257682291666665
 41
0.0
 46
0.0
 71
     1
 72
     1
  1
仕様
  7
ＭＳ ゴシック
 73
     1
 44
0.7828267384257843
  0
LINE
  5
179
330
A
100
AcDbEntity
  8
TEMPLATE
390
1D
100
AcDbLine
 10
404.4404289094496
 20
53.42933470128568
 30
0.0
 11
14.44042890944975
 21
53.42933470128568
 31
0.0
  0
LWPOLYLINE
  5
17A
330
A
100
AcDbEntity
  8
TEMPLATE
390
1D
100
AcDbPolyline
 90
        5
 70
   128
 43
0.0
 10
404.4404289094496
 20
579.4293347012853
 10
14.44042890944975
 20
579.4293347012853
 10
14.44042890944975
 20
19.42933470128565
 10
404.4404289094496
 20
19.42933470128565
 10
404.4404289094496
 20
579.4293347012853
  0
LINE
  5
17B
330
A
100
AcDbEntity
  8
TEMPLATE
390
1D
100
AcDbLine
 10
404.4404289094496
 20
70.42933470128564
 30
0.0
 11
14.44042890944975
 21
70.42933470128564
 31
0.0
  0
LINE
  5
17C
330
A
100
AcDbEntity
  8
TEMPLATE
390
1D
100
AcDbLine
 10
404.4404289095464
 20
36.42933470128565
 30
0.0
 11
253.840428909546
 21
36.42933470128565
 31
0.0
  0
MTEXT
  5
17E
330
A
100
AcDbEntity
  8
TEMPLATE
390
1D
100
AcDbMText
 10
259.8147101599982
 20
30.44725580662403
 30
0.0
 40
4.8865234375
 41
0.0
 46
0.0
 71
     1
 72
     1
  1
大洋金物株式会社 ティーフォルム事業部
  7
ＭＳ ゴシック
 73
     1
 44
0.7828267384257843
  0
MTEXT
  5
180
330
A
100
AcDbEntity
  8
TEMPLATE
390
1D
100
AcDbMText
 10
366.240428909598
 20
46.02985813878564
 30
0.0
 40
4.8865234375
 41
0.0
 46
4.8865234375
 71
     1
 72
     1
  1
{1:2}
  7
ＭＳ ゴシック
 73
     1
 44
0.7828267384257843
1001
ACAD
1000
ACAD_MTEXT_DEFINED_HEIGHT_BEGIN
1070
    46
1040
4.8865234375
1000
ACAD_MTEXT_DEFINED_HEIGHT_END
  0
MTEXT
  5
181
330
A
100
AcDbEntity
  8
TEMPLATE
390
1D
100
AcDbMText
 10
355.640428909598
 20
51.7463503262856
 30
0.0
 40
3.257682291666665
 41
0.0
 46
0.0
 71
     1
 72
     1
  1
縮尺
  7
ＭＳ ゴシック
 73
     1
 44
0.7828267384257843
  0
LINE
  5
182
330
A
100
AcDbEntity
  8
TEMPLATE
390
1D
100
AcDbLine
 10
354.240428909598
 20
36.42933470128565
 30
0.0
 11
354.240428909598
 21
53.42933470128568
 31
0.0
  0
MTEXT
  5
183
330
A
100
AcDbEntity
  8
TEMPLATE
390
1D
100
AcDbMText
 10
305.440428909598
 20
51.7463503262856
 30
0.0
 40
3.257682291666665
 41
0.0
 46
0.0
 71
     1
 72
     1
  1
容量
  7
ＭＳ ゴシック
 73
     1
 44
0.7828267384257843
  0
LINE
  5
184
330
A
100
AcDbEntity
  8
TEMPLATE
390
1D
100
AcDbLine
 10
304.040428909598
 20
36.42933470128565
 30
0.0
 11
304.040428909598
 21
53.42933470128568
 31
0.0
  0
MTEXT
  5
185
330
A
100
AcDbEntity
  8
TEMPLATE
390
1D
100
AcDbMText
 10
255.240428909598
 20
68.74635032628565
 30
0.0
 40
3.257682291666665
 41
0.0
 46
0.0
 71
     1
 72
     1
  1
品番
  7
ＭＳ ゴシック
 73
     1
 44
0.7828267384257843
  0
MTEXT
  5
186
330
A
100
AcDbEntity
  8
TEMPLATE
390
1D
100
AcDbMText
 10
255.240428909598
 20
51.7463503262856
 30
0.0
 40
3.257682291666665
 41
0.0
 46
0.0
 71
     1
 72
     1
  1
重量
  7
ＭＳ ゴシック
 73
     1
 44
0.7828267384257843
  0
MTEXT
  5
187
330
A
100
AcDbEntity
  8
TEMPLATE
390
1D
100
AcDbMText
 10
265.840428909598
 20
63.02985813878564
 30
0.0
 40
4.8865234375
 41
0.0
 46
4.8865234375
 71
     1
 72
     1
  1
{FHT73-5218}
  7
ＭＳ ゴシック
 73
     1
 44
0.7828267384257843
1001
ACAD
1000
ACAD_MTEXT_DEFINED_HEIGHT_BEGIN
1070
    46
1040
4.8865234375
1000
ACAD_MTEXT_DEFINED_HEIGHT_END
  0
LINE
  5
188
330
A
100
AcDbEntity
  8
TEMPLATE
390
1D
100
AcDbLine
 10
253.840428909598
 20
19.42933470128565
 30
0.0
 11
253.840428909598
 21
70.42933470128564
 31
0.0
  0
MTEXT
  5
189
330
A
100
AcDbEntity
  8
TEMPLATE
390
1D
100
AcDbMText
 10
26.44042890954615
 20
63.02985813878564
 30
0.0
 40
4.8865234375
 41
0.0
 46
5.5071119140625
 71
     1
 72
     1
  1
{埋込ストップバルブ　-GROHE, New Atrio-}
  7
ＭＳ ゴシック
 73
     1
 44
0.7828267384257843
1001
ACAD
1000
ACAD_MTEXT_DEFINED_HEIGHT_BEGIN
1070
    46
1040
5.5071119140625
1000
ACAD_MTEXT_DEFINED_HEIGHT_END
  0
INSERT
  5
68C
330
A
100
AcDbEntity
  8
TEMPLATE
100
AcDbBlockReference
  2
block 2
 10
367.7097207081031
 20
3.349230605734547
 30
0.0
 41
0.1524
 42
0.1524
 43
0.1524
  0
LWPOLYLINE
  5
D69
330
A
100
AcDbEntity
  8
BORDER
100
AcDbPolyline
 90
        4
 70
     1
 43
0.0
 10
0.0
 20
0.0
 10
0.0
 20
594.0
 10
420.0
 20
594.0
 10
420.0
 20
0.0
  0
INSERT
  5
1343
330
A
100
AcDbEntity
  8
TEMPLATE
100
AcDbBlockReference
  2
block 2
 10
838.6973883465873
 20
9.774128564918277
 30
0.0
 41
0.1524
 42
0.1524
 43
0.1524
  0
HATCH
  5
3C64
102
{ACAD_REACTORS
330
3C75
102
}
330
A
100
AcDbEntity
  8
TEMPLATE
100
AcDbHatch
 10
0.0
 20
0.0
 30
0.0
210
0.0
220
0.0
230
1.0
  2
SOLID
 70
     1
 71
     1
 91
        6
 92
        1
 93
        8
 72
     1
 10
386.9584116981973
 20
30.78695932253559
 11
386.9584116981973
 21
29.60507779640349
 72
     1
 10
386.9584116981973
 20
29.60507779640349
 11
385.086293388135
 21
29.60507779640349
 72
     1
 10
385.086293388135
 20
29.60507779640349
 11
385.086293388135
 21
24.78695932282479
 72
     1
 10
385.086293388135
 20
24.78695932282479
 11
383.4397707574798
 21
24.78695932282479
 72
     1
 10
383.4397707574798
 20
24.78695932282479
 11
383.4397707574798
 21
29.60507779640349
 72
     1
 10
383.4397707574798
 20
29.60507779640349
 11
381.6008304705712
 21
29.60507779640349
 72
     1
 10
381.6008304705712
 20
29.60507779640349
 11
381.6008304705712
 21
30.78695932253559
 72
     1
 10
381.6008304705712
 20
30.78695932253559
 11
386.9584116981973
 21
30.78695932253559
 97
        1
330
3C65
 92
        1
 93
        1
 72
     4
 94
        3
 73
     0
 74
     1
 95
       56
 96
       52
 40
0.0
 40
0.0
 40
0.0
 40
0.0
 40
1.0
 40
1.0
 40
1.0
 40
2.0
 40
2.0
 40
2.0
 40
3.0
 40
3.0
 40
3.0
 40
4.0
 40
4.0
 40
4.0
 40
5.0
 40
5.0
 40
5.0
 40
6.0
 40
6.0
 40
6.0
 40
7.0
 40
7.0
 40
7.0
 40
8.0
 40
8.0
 40
8.0
 40
9.0
 40
9.0
 40
9.0
 40
10.0
 40
10.0
 40
10.0
 40
11.0
 40
11.0
 40
11.0
 40
12.0
 40
12.0
 40
12.0
 40
13.0
 40
13.0
 40
13.0
 40
14.0
 40
14.0
 40
14.0
 40
15.0
 40
15.0
 40
15.0
 40
16.0
 40
16.0
 40
16.0
 40
17.0
 40
17.0
 40
17.0
 40
17.0
 10
389.4668487850558
 20
30.64408553045313
 10
389.6976220214394
 20
30.70904304125516
 10
389.9955398401064
 20
30.65470844907718
 10
389.9955398401064
 20
30.65470844907718
 10
389.9955398401064
 20
30.65470844907718
 10
389.85241312139
 20
30.22519439059248
 10
389.85241312139
 20
30.22519439059248
 10
389.85241312139
 20
30.22519439059248
 10
389.5599406643706
 20
30.29287458221835
 10
389.3343598630008
 20
30.1149927683958
 10
389.1590668276665
 20
29.97588311974736
 10
389.0455027690426
 20
29.60625316134929
 10
389.0019398758616
 20
29.46571522112114
 10
389.0019398758616
 20
29.46571522112114
 10
388.8077219770962
 20
28.86958202304137
 10
388.8077219770962
 20
28.86958202304137
 10
388.8077219770962
 20
28.86958202304137
 10
389.4445466071603
 20
28.86958202304137
 10
389.4445466071603
 20
28.86958202304137
 10
389.4445466071603
 20
28.86958202304137
 10
389.34550351293
 20
28.49438767869736
 10
389.34550351293
 20
28.49438767869736
 10
389.34550351293
 20
28.49438767869736
 10
388.7034864478522
 20
28.49438767869736
 10
388.7034864478522
 20
28.49438767869736
 10
388.7034864478522
 20
28.49438767869736
 10
387.5547978229109
 20
24.78695932282479
 10
387.5547978229109
 20
24.78695932282479
 10
387.5547978229109
 20
24.78695932282479
 10
387.1951510275336
 20
24.78695932282479
 10
387.1951510275336
 20
24.78695932282479
 10
387.1951510275336
 20
24.78695932282479
 10
388.3448811150849
 20
28.49438767869736
 10
388.3448811150849
 20
28.49438767869736
 10
388.3448811150849
 20
28.49438767869736
 10
387.8711346517413
 20
28.49438767869736
 10
387.8711346517413
 20
28.49438767869736
 10
387.8711346517413
 20
28.49438767869736
 10
387.9704455506427
 20
28.86958202304137
 10
387.9704455506427
 20
28.86958202304137
 10
387.9704455506427
 20
28.86958202304137
 10
388.4491166443289
 20
28.86958202304137
 10
388.4491166443289
 20
28.86958202304137
 10
388.4491166443289
 20
28.86958202304137
 10
388.6184287086733
 20
29.38948015805433
 10
388.6184287086733
 20
29.38948015805433
 10
388.7553364078029
 20
29.82536201649855
 10
388.8715041229524
 20
30.059378665011
 10
388.971082826525
 20
30.23581730921654
 10
389.0696051894502
 20
30.41240473379499
 10
389.2645967461546
 20
30.58586777054282
 10
389.4668487850558
 20
30.64408553045313
 97
        1
330
3C70
 92
        1
 93
        1
 72
     4
 94
        3
 73
     0
 74
     1
 95
       32
 96
       28
 40
0.0
 40
0.0
 40
0.0
 40
0.0
 40
1.0
 40
1.0
 40
1.0
 40
2.0
 40
2.0
 40
2.0
 40
3.0
 40
3.0
 40
3.0
 40
4.0
 40
4.0
 40
4.0
 40
5.0
 40
5.0
 40
5.0
 40
6.0
 40
6.0
 40
6.0
 40
7.0
 40
7.0
 40
7.0
 40
8.0
 40
8.0
 40
8.0
 40
9.0
 40
9.0
 40
9.0
 40
9.0
 10
390.3419600603343
 20
28.64284073476305
 10
390.1254548617105
 20
28.36279143887966
 10
389.9587315758544
 20
28.11075748721071
 10
389.6888142233646
 20
27.31860614785359
 10
389.4406634394279
 20
26.59401597582401
 10
389.2827479516467
 20
26.06685735861421
 10
389.2588984578731
 20
25.42484029353638
 10
389.240747252381
 20
24.94707676012474
 10
389.5316723935223
 20
24.78695932282479
 10
389.9582257225866
 20
24.78695932282479
 10
390.1420587513246
 20
24.78695932282479
 10
390.6059559539832
 20
24.79865346013363
 10
390.9363078939394
 20
25.20702582763122
 10
391.1675721055534
 20
25.49393389870466
 10
391.38071486775
 20
25.79134586410385
 10
391.6664624519149
 20
26.76695828126675
 10
391.9042432438614
 20
27.58257228542799
 10
392.068883604497
 20
28.10971602460051
 10
392.056713369995
 20
28.40985067082352
 10
392.056713369995
 20
28.40985067082352
 10
392.056713369995
 20
28.40985067082352
 10
392.056713369995
 20
28.40985067082352
 10
391.9791690396468
 20
28.91055613773418
 10
391.615639076537
 20
29.01635386089345
 10
391.4079416759881
 20
29.01635386089345
 10
391.2033686632698
 20
29.01635386089345
 10
390.6552022574085
 20
29.05174871160303
 10
390.3419600603343
 20
28.64284073476305
 97
        1
330
3C73
 92
        1
 93
        1
 72
     4
 94
        3
 73
     0
 74
     1
 95
       38
 96
       34
 40
0.0
 40
0.0
 40
0.0
 40
0.0
 40
1.0
 40
1.0
 40
1.0
 40
2.0
 40
2.0
 40
2.0
 40
3.0
 40
3.0
 40
3.0
 40
4.0
 40
4.0
 40
4.0
 40
5.0
 40
5.0
 40
5.0
 40
6.0
 40
6.0
 40
6.0
 40
7.0
 40
7.0
 40
7.0
 40
8.0
 40
8.0
 40
8.0
 40
9.0
 40
9.0
 40
9.0
 40
10.0
 40
10.0
 40
10.0
 40
11.0
 40
11.0
 40
11.0
 40
11.0
 10
393.3716045494872
 20
28.85519496098328
 10
393.3716045494872
 20
28.85519496098328
 10
393.7413535321836
 20
28.85519496098328
 10
393.7413535321836
 20
28.85519496098328
 10
393.7413535321836
 20
28.85519496098328
 10
393.5761775622055
 20
28.32635512555987
 10
393.5761775622055
 20
28.32635512555987
 10
393.7016886847722
 20
28.47480818162555
 10
393.8997748732327
 20
28.67252241915381
 10
394.0698903515905
 20
28.77222014702475
 10
394.3240072284799
 20
28.92067320309043
 10
394.4692168724166
 20
28.94025270016223
 10
394.6289177246725
 20
28.93635465439262
 10
394.6289177246725
 20
28.93635465439262
 10
394.4728471135151
 20
28.43630382112264
 10
394.4728471135151
 20
28.43630382112264
 10
394.3712003627593
 20
28.47934598299858
 10
394.057958165685
 20
28.39741263165024
 10
393.8782612313133
 20
28.26815224368685
 10
393.7162096491659
 20
28.15159769956793
 10
393.6041780283826
 20
28.0524207030021
 10
393.4714361796937
 20
27.80309455411968
 10
393.3397060375404
 20
27.55339645430504
 10
393.2357383129677
 20
27.15524529842472
 10
393.0568150365349
 20
26.57765013480655
 10
393.0568150365349
 20
26.57765013480655
 10
392.4980257120495
 20
24.78695932282479
 10
392.4980257120495
 20
24.78695932282479
 10
392.4980257120495
 20
24.78695932282479
 10
392.1391674526484
 20
24.78695932282479
 10
392.1391674526484
 20
24.78695932282479
 10
392.1391674526484
 20
24.78695932282479
 10
393.3716045494872
 20
28.85519496098328
 10
393.3716045494872
 20
28.85519496098328
 97
        1
330
3C71
 92
        1
 93
        1
 72
     4
 94
        3
 73
     0
 74
     1
 95
      104
 96
      100
 40
0.0
 40
0.0
 40
0.0
 40
0.0
 40
1.0
 40
1.0
 40
1.0
 40
2.0
 40
2.0
 40
2.0
 40
3.0
 40
3.0
 40
3.0
 40
4.0
 40
4.0
 40
4.0
 40
5.0
 40
5.0
 40
5.0
 40
6.0
 40
6.0
 40
6.0
 40
7.0
 40
7.0
 40
7.0
 40
8.0
 40
8.0
 40
8.0
 40
9.0
 40
9.0
 40
9.0
 40
10.0
 40
10.0
 40
10.0
 40
11.0
 40
11.0
 40
11.0
 40
12.0
 40
12.0
 40
12.0
 40
13.0
 40
13.0
 40
13.0
 40
14.0
 40
14.0
 40
14.0
 40
15.0
 40
15.0
 40
15.0
 40
16.0
 40
16.0
 40
16.0
 40
17.0
 40
17.0
 40
17.0
 40
18.0
 40
18.0
 40
18.0
 40
19.0
 40
19.0
 40
19.0
 40
20.0
 40
20.0
 40
20.0
 40
21.0
 40
21.0
 40
21.0
 40
22.0
 40
22.0
 40
22.0
 40
23.0
 40
23.0
 40
23.0
 40
24.0
 40
24.0
 40
24.0
 40
25.0
 40
25.0
 40
25.0
 40
26.0
 40
26.0
 40
26.0
 40
27.0
 40
27.0
 40
27.0
 40
28.0
 40
28.0
 40
28.0
 40
29.0
 40
29.0
 40
29.0
 40
30.0
 40
30.0
 40
30.0
 40
31.0
 40
31.0
 40
31.0
 40
32.0
 40
32.0
 40
32.0
 40
33.0
 40
33.0
 40
33.0
 40
33.0
 10
395.4068307823444
 20
28.857396910502
 10
395.4068307823444
 20
28.857396910502
 10
395.7296544354325
 20
28.857396910502
 10
395.7296544354325
 20
28.857396910502
 10
395.7296544354325
 20
28.857396910502
 10
395.5665613906749
 20
28.32805122181077
 10
395.5665613906749
 20
28.32805122181077
 10
395.7081110374387
 20
28.55000178208216
 10
395.8351694758834
 20
28.64892585201409
 10
396.0039756869598
 20
28.77675794839777
 10
396.1732877513042
 20
28.90277492423224
 10
396.3742602789986
 20
28.92845441659237
 10
396.5137567566165
 20
28.92845441659237
 10
396.6864610134627
 20
28.92845441659237
 10
396.8531842993187
 20
28.8943539551269
 10
396.9408159389486
 20
28.70506068670399
 10
397.0079753992694
 20
28.55662250867558
 10
397.0110997871
 20
28.5391110587869
 10
396.9919071189977
 20
28.24610299242514
 10
397.1674382029287
 20
28.54650544331934
 10
397.2970854198616
 20
28.67589973361832
 10
397.5174886642549
 20
28.80022061320189
 10
397.7487826319435
 20
28.92845441659237
 10
397.8836074058529
 20
28.93805075064353
 10
398.0402433824273
 20
28.9149600367716
 10
398.2710017407735
 20
28.88087445334342
 10
398.4182943099307
 20
28.79853939498828
 10
398.4953030309365
 20
28.54832056386854
 10
398.5725795566135
 20
28.29887539068781
 10
398.5308317839817
 20
28.16507720135141
 10
398.4354040528126
 20
27.76796750808128
 10
398.3918411596316
 20
27.58711008680102
 10
398.3288177936771
 20
27.36812025595006
 10
398.2463637110236
 20
27.10754631087745
 10
398.2463637110236
 20
27.10754631087745
 10
397.5174886642549
 20
24.78695932282479
 10
397.5174886642549
 20
24.78695932282479
 10
397.5174886642549
 20
24.78695932282479
 10
397.1383962741413
 20
24.78695932282479
 10
397.1383962741413
 20
24.78695932282479
 10
397.1383962741413
 20
24.78695932282479
 10
397.7765450495241
 20
26.81569873142421
 10
397.7765450495241
 20
26.81569873142421
 10
397.9098225075554
 20
27.24016913526807
 10
398.0000429256735
 20
27.55015304217612
 10
398.0467302066851
 20
27.74450484327716
 10
398.1053199175276
 20
27.98694246089495
 10
398.1286486799962
 20
28.06694166739577
 10
398.1009160184902
 20
28.24339518963862
 10
398.0755043308013
 20
28.4076487213048
 10
397.9925146388055
 20
28.51460693137258
 10
397.8504293826993
 20
28.51460693137258
 10
397.6990007191758
 20
28.51460693137258
 10
397.5763461797686
 20
28.49775011512458
 10
397.4047131416073
 20
28.32532854098695
 10
397.2330503473714
 20
28.15159769956793
 10
397.0912031398618
 20
27.94766444245305
 10
396.9799749330922
 20
27.71312706263549
 10
396.8689847749192
 20
27.47716139123824
 10
396.7564473008682
 20
27.17806820762544
 10
396.6423625109393
 20
26.81569873142421
 10
396.6423625109393
 20
26.81569873142421
 10
396.0039756869598
 20
24.78695932282479
 10
396.0039756869598
 20
24.78695932282479
 10
396.0039756869598
 20
24.78695932282479
 10
395.6474384013758
 20
24.78695932282479
 10
395.6474384013758
 20
24.78695932282479
 10
395.6474384013758
 20
24.78695932282479
 10
396.3773549107547
 20
27.10650484826726
 10
396.3773549107547
 20
27.10650484826726
 10
396.4543636317604
 20
27.35336124295977
 10
396.5122094407385
 20
27.55457181925085
 10
396.5503269722719
 20
27.71183267339138
 10
396.6151357027011
 20
27.98253856185753
 10
396.6332869081932
 20
28.1655979326565
 10
396.5842786533645
 20
28.32805122181077
 10
396.5360440564749
 20
28.48998377965993
 10
396.4512690000045
 20
28.53134472332225
 10
396.3096895971661
 20
28.53134472332225
 10
396.1909331035284
 20
28.53134472332225
 10
396.0750331930502
 20
28.48038744560878
 10
395.9427971976291
 20
28.37899362148695
 10
395.7763119603696
 20
28.25142932977446
 10
395.7096881093912
 20
28.1466730692254
 10
395.6280076846768
 20
28.02220340926895
 10
395.5177911844429
 20
27.85754817059597
 10
395.4661941511259
 20
27.74670679279587
 10
395.3731171498484
 20
27.50348063920177
 10
395.2800103924964
 20
27.25882619402798
 10
395.1918728995987
 20
26.97412007247326
 10
395.1303968495222
 20
26.77719437092129
 10
395.1303968495222
 20
26.77719437092129
 10
394.5042100161195
 20
24.78695932282479
 10
394.5042100161195
 20
24.78695932282479
 10
394.5042100161195
 20
24.78695932282479
 10
394.1308307923247
 20
24.78695932282479
 10
394.1308307923247
 20
24.78695932282479
 10
394.1308307923247
 20
24.78695932282479
 10
395.4068307823444
 20
28.857396910502
 10
395.4068307823444
 20
28.857396910502
 97
        1
330
3C72
 92
       16
 93
        1
 72
     4
 94
        3
 73
     0
 74
     1
 95
       29
 96
       25
 40
0.0
 40
0.0
 40
0.0
 40
0.0
 40
1.0
 40
1.0
 40
1.0
 40
2.0
 40
2.0
 40
2.0
 40
3.0
 40
3.0
 40
3.0
 40
4.0
 40
4.0
 40
4.0
 40
5.0
 40
5.0
 40
5.0
 40
6.0
 40
6.0
 40
6.0
 40
7.0
 40
7.0
 40
7.0
 40
8.0
 40
8.0
 40
8.0
 40
8.0
 10
389.6462927927937
 20
25.54487629838084
 10
389.6447157208412
 20
25.82830290872873
 10
389.7341922370948
 20
26.33186495879882
 10
389.9634032795631
 20
27.00563175545052
 10
390.2756040140271
 20
27.91796788002499
 10
390.4628292352669
 20
28.25142932977446
 10
390.6266661818889
 20
28.41374871659313
 10
390.866024045788
 20
28.65010121695988
 10
391.1878062362659
 20
28.66188462249246
 10
391.2827281141673
 20
28.65010121695988
 10
391.4178206927478
 20
28.6338841563153
 10
391.6086463990114
 20
28.54546398070914
 10
391.6200429755745
 20
28.24779908867604
 10
391.629148334395
 20
27.99304245618328
 10
391.5557400984131
 20
27.51593355641234
 10
391.2987963944389
 20
26.76695828126675
 10
391.0026639402465
 20
25.896622855958
 10
390.824782126424
 20
25.55448751046927
 10
390.6821910170501
 20
25.40537982076289
 10
390.413553175767
 20
25.1258512561846
 10
390.1254548617105
 20
25.15269123545324
 10
390.0829334311396
 20
25.15269123545324
 10
390.0277061567243
 20
25.15269123545324
 10
389.6470664507327
 20
25.21261996965174
 10
389.6462927927937
 20
25.54487629838084
 97
        1
330
3C74
 75
     0
 76
     1
 98
        1
 10
371.9300318427923
 20
14.61939790801677
1001
ACAD
1010
0.0
1020
0.0
1030
0.0
  0
POLYLINE
  5
3C65
102
{ACAD_REACTORS
330
3C64
330
3C75
102
}
330
A
100
AcDbEntity
  8
TEMPLATE
100
AcDb2dPolyline
 66
     1
 10
0.0
 20
0.0
 30
0.0
  0
VERTEX
  5
3C66
330
3C65
100
AcDbEntity
  8
TEMPLATE
100
AcDbVertex
100
AcDb2dVertex
 10
386.9584116981973
 20
30.78695932253559
 30
0.0
  0
VERTEX
  5
3C67
330
3C65
100
AcDbEntity
  8
TEMPLATE
100
AcDbVertex
100
AcDb2dVertex
 10
386.9584116981973
 20
29.60507779640349
 30
0.0
  0
VERTEX
  5
3C68
330
3C65
100
AcDbEntity
  8
TEMPLATE
100
AcDbVertex
100
AcDb2dVertex
 10
385.086293388135
 20
29.60507779640349
 30
0.0
  0
VERTEX
  5
3C69
330
3C65
100
AcDbEntity
  8
TEMPLATE
100
AcDbVertex
100
AcDb2dVertex
 10
385.086293388135
 20
24.78695932282479
 30
0.0
  0
VERTEX
  5
3C6A
330
3C65
100
AcDbEntity
  8
TEMPLATE
100
AcDbVertex
100
AcDb2dVertex
 10
383.4397707574798
 20
24.78695932282479
 30
0.0
  0
VERTEX
  5
3C6B
330
3C65
100
AcDbEntity
  8
TEMPLATE
100
AcDbVertex
100
AcDb2dVertex
 10
383.4397707574798
 20
29.60507779640349
 30
0.0
  0
VERTEX
  5
3C6C
330
3C65
100
AcDbEntity
  8
TEMPLATE
100
AcDbVertex
100
AcDb2dVertex
 10
381.6008304705712
 20
29.60507779640349
 30
0.0
  0
VERTEX
  5
3C6D
330
3C65
100
AcDbEntity
  8
TEMPLATE
100
AcDbVertex
100
AcDb2dVertex
 10
381.6008304705712
 20
30.78695932253559
 30
0.0
  0
VERTEX
  5
3C6E
330
3C65
100
AcDbEntity
  8
TEMPLATE
100
AcDbVertex
100
AcDb2dVertex
 10
386.9584116981973
 20
30.78695932253559
 30
0.0
  0
SEQEND
  5
3C6F
330
3C65
100
AcDbEntity
  8
TEMPLATE
  0
SPLINE
  5
3C70
102
{ACAD_REACTORS
330
3C64
330
3C75
102
}
330
A
100
AcDbEntity
  8
TEMPLATE
100
AcDbSpline
210
0.0
220
0.0
230
1.0
 70
    11
 71
     3
 72
    56
 73
    52
 74
     0
 42
0.000000001
 43
0.0000000001
 40
0.0
 40
0.0
 40
0.0
 40
0.0
 40
1.0
 40
1.0
 40
1.0
 40
2.0
 40
2.0
 40
2.0
 40
3.0
 40
3.0
 40
3.0
 40
4.0
 40
4.0
 40
4.0
 40
5.0
 40
5.0
 40
5.0
 40
6.0
 40
6.0
 40
6.0
 40
7.0
 40
7.0
 40
7.0
 40
8.0
 40
8.0
 40
8.0
 40
9.0
 40
9.0
 40
9.0
 40
10.0
 40
10.0
 40
10.0
 40
11.0
 40
11.0
 40
11.0
 40
12.0
 40
12.0
 40
12.0
 40
13.0
 40
13.0
 40
13.0
 40
14.0
 40
14.0
 40
14.0
 40
15.0
 40
15.0
 40
15.0
 40
16.0
 40
16.0
 40
16.0
 40
17.0
 40
17.0
 40
17.0
 40
17.0
 10
389.4668487850558
 20
30.64408553045313
 30
0.0
 10
389.6976220214394
 20
30.70904304125516
 30
0.0
 10
389.9955398401064
 20
30.65470844907718
 30
0.0
 10
389.9955398401064
 20
30.65470844907718
 30
0.0
 10
389.9955398401064
 20
30.65470844907718
 30
0.0
 10
389.85241312139
 20
30.22519439059248
 30
0.0
 10
389.85241312139
 20
30.22519439059248
 30
0.0
 10
389.85241312139
 20
30.22519439059248
 30
0.0
 10
389.5599406643706
 20
30.29287458221835
 30
0.0
 10
389.3343598630008
 20
30.1149927683958
 30
0.0
 10
389.1590668276665
 20
29.97588311974736
 30
0.0
 10
389.0455027690426
 20
29.60625316134929
 30
0.0
 10
389.0019398758616
 20
29.46571522112114
 30
0.0
 10
389.0019398758616
 20
29.46571522112114
 30
0.0
 10
388.8077219770962
 20
28.86958202304137
 30
0.0
 10
388.8077219770962
 20
28.86958202304137
 30
0.0
 10
388.8077219770962
 20
28.86958202304137
 30
0.0
 10
389.4445466071603
 20
28.86958202304137
 30
0.0
 10
389.4445466071603
 20
28.86958202304137
 30
0.0
 10
389.4445466071603
 20
28.86958202304137
 30
0.0
 10
389.34550351293
 20
28.49438767869736
 30
0.0
 10
389.34550351293
 20
28.49438767869736
 30
0.0
 10
389.34550351293
 20
28.49438767869736
 30
0.0
 10
388.7034864478522
 20
28.49438767869736
 30
0.0
 10
388.7034864478522
 20
28.49438767869736
 30
0.0
 10
388.7034864478522
 20
28.49438767869736
 30
0.0
 10
387.5547978229109
 20
24.78695932282479
 30
0.0
 10
387.5547978229109
 20
24.78695932282479
 30
0.0
 10
387.5547978229109
 20
24.78695932282479
 30
0.0
 10
387.1951510275336
 20
24.78695932282479
 30
0.0
 10
387.1951510275336
 20
24.78695932282479
 30
0.0
 10
387.1951510275336
 20
24.78695932282479
 30
0.0
 10
388.3448811150849
 20
28.49438767869736
 30
0.0
 10
388.3448811150849
 20
28.49438767869736
 30
0.0
 10
388.3448811150849
 20
28.49438767869736
 30
0.0
 10
387.8711346517413
 20
28.49438767869736
 30
0.0
 10
387.8711346517413
 20
28.49438767869736
 30
0.0
 10
387.8711346517413
 20
28.49438767869736
 30
0.0
 10
387.9704455506427
 20
28.86958202304137
 30
0.0
 10
387.9704455506427
 20
28.86958202304137
 30
0.0
 10
387.9704455506427
 20
28.86958202304137
 30
0.0
 10
388.4491166443289
 20
28.86958202304137
 30
0.0
 10
388.4491166443289
 20
28.86958202304137
 30
0.0
 10
388.4491166443289
 20
28.86958202304137
 30
0.0
 10
388.6184287086733
 20
29.38948015805433
 30
0.0
 10
388.6184287086733
 20
29.38948015805433
 30
0.0
 10
388.7553364078029
 20
29.82536201649855
 30
0.0
 10
388.8715041229524
 20
30.059378665011
 30
0.0
 10
388.971082826525
 20
30.23581730921654
 30
0.0
 10
389.0696051894502
 20
30.41240473379499
 30
0.0
 10
389.2645967461546
 20
30.58586777054282
 30
0.0
 10
389.4668487850558
 20
30.64408553045313
 30
0.0
  0
SPLINE
  5
3C71
102
{ACAD_REACTORS
330
3C64
330
3C75
102
}
330
A
100
AcDbEntity
  8
TEMPLATE
100
AcDbSpline
210
0.0
220
0.0
230
1.0
 70
    11
 71
     3
 72
    38
 73
    34
 74
     0
 42
0.000000001
 43
0.0000000001
 40
0.0
 40
0.0
 40
0.0
 40
0.0
 40
1.0
 40
1.0
 40
1.0
 40
2.0
 40
2.0
 40
2.0
 40
3.0
 40
3.0
 40
3.0
 40
4.0
 40
4.0
 40
4.0
 40
5.0
 40
5.0
 40
5.0
 40
6.0
 40
6.0
 40
6.0
 40
7.0
 40
7.0
 40
7.0
 40
8.0
 40
8.0
 40
8.0
 40
9.0
 40
9.0
 40
9.0
 40
10.0
 40
10.0
 40
10.0
 40
11.0
 40
11.0
 40
11.0
 40
11.0
 10
393.3716045494872
 20
28.85519496098328
 30
0.0
 10
393.3716045494872
 20
28.85519496098328
 30
0.0
 10
393.7413535321836
 20
28.85519496098328
 30
0.0
 10
393.7413535321836
 20
28.85519496098328
 30
0.0
 10
393.7413535321836
 20
28.85519496098328
 30
0.0
 10
393.5761775622055
 20
28.32635512555987
 30
0.0
 10
393.5761775622055
 20
28.32635512555987
 30
0.0
 10
393.7016886847722
 20
28.47480818162555
 30
0.0
 10
393.8997748732327
 20
28.67252241915381
 30
0.0
 10
394.0698903515905
 20
28.77222014702475
 30
0.0
 10
394.3240072284799
 20
28.92067320309043
 30
0.0
 10
394.4692168724166
 20
28.94025270016223
 30
0.0
 10
394.6289177246725
 20
28.93635465439262
 30
0.0
 10
394.6289177246725
 20
28.93635465439262
 30
0.0
 10
394.4728471135151
 20
28.43630382112264
 30
0.0
 10
394.4728471135151
 20
28.43630382112264
 30
0.0
 10
394.3712003627593
 20
28.47934598299858
 30
0.0
 10
394.057958165685
 20
28.39741263165024
 30
0.0
 10
393.8782612313133
 20
28.26815224368685
 30
0.0
 10
393.7162096491659
 20
28.15159769956793
 30
0.0
 10
393.6041780283826
 20
28.0524207030021
 30
0.0
 10
393.4714361796937
 20
27.80309455411968
 30
0.0
 10
393.3397060375404
 20
27.55339645430504
 30
0.0
 10
393.2357383129677
 20
27.15524529842472
 30
0.0
 10
393.0568150365349
 20
26.57765013480655
 30
0.0
 10
393.0568150365349
 20
26.57765013480655
 30
0.0
 10
392.4980257120495
 20
24.78695932282479
 30
0.0
 10
392.4980257120495
 20
24.78695932282479
 30
0.0
 10
392.4980257120495
 20
24.78695932282479
 30
0.0
 10
392.1391674526484
 20
24.78695932282479
 30
0.0
 10
392.1391674526484
 20
24.78695932282479
 30
0.0
 10
392.1391674526484
 20
24.78695932282479
 30
0.0
 10
393.3716045494872
 20
28.85519496098328
 30
0.0
 10
393.3716045494872
 20
28.85519496098328
 30
0.0
  0
SPLINE
  5
3C72
102
{ACAD_REACTORS
330
3C64
330
3C75
102
}
330
A
100
AcDbEntity
  8
TEMPLATE
100
AcDbSpline
210
0.0
220
0.0
230
1.0
 70
    11
 71
     3
 72
   104
 73
   100
 74
     0
 42
0.000000001
 43
0.0000000001
 40
0.0
 40
0.0
 40
0.0
 40
0.0
 40
1.0
 40
1.0
 40
1.0
 40
2.0
 40
2.0
 40
2.0
 40
3.0
 40
3.0
 40
3.0
 40
4.0
 40
4.0
 40
4.0
 40
5.0
 40
5.0
 40
5.0
 40
6.0
 40
6.0
 40
6.0
 40
7.0
 40
7.0
 40
7.0
 40
8.0
 40
8.0
 40
8.0
 40
9.0
 40
9.0
 40
9.0
 40
10.0
 40
10.0
 40
10.0
 40
11.0
 40
11.0
 40
11.0
 40
12.0
 40
12.0
 40
12.0
 40
13.0
 40
13.0
 40
13.0
 40
14.0
 40
14.0
 40
14.0
 40
15.0
 40
15.0
 40
15.0
 40
16.0
 40
16.0
 40
16.0
 40
17.0
 40
17.0
 40
17.0
 40
18.0
 40
18.0
 40
18.0
 40
19.0
 40
19.0
 40
19.0
 40
20.0
 40
20.0
 40
20.0
 40
21.0
 40
21.0
 40
21.0
 40
22.0
 40
22.0
 40
22.0
 40
23.0
 40
23.0
 40
23.0
 40
24.0
 40
24.0
 40
24.0
 40
25.0
 40
25.0
 40
25.0
 40
26.0
 40
26.0
 40
26.0
 40
27.0
 40
27.0
 40
27.0
 40
28.0
 40
28.0
 40
28.0
 40
29.0
 40
29.0
 40
29.0
 40
30.0
 40
30.0
 40
30.0
 40
31.0
 40
31.0
 40
31.0
 40
32.0
 40
32.0
 40
32.0
 40
33.0
 40
33.0
 40
33.0
 40
33.0
 10
395.4068307823444
 20
28.857396910502
 30
0.0
 10
395.4068307823444
 20
28.857396910502
 30
0.0
 10
395.7296544354325
 20
28.857396910502
 30
0.0
 10
395.7296544354325
 20
28.857396910502
 30
0.0
 10
395.7296544354325
 20
28.857396910502
 30
0.0
 10
395.5665613906749
 20
28.32805122181077
 30
0.0
 10
395.5665613906749
 20
28.32805122181077
 30
0.0
 10
395.7081110374387
 20
28.55000178208216
 30
0.0
 10
395.8351694758834
 20
28.64892585201409
 30
0.0
 10
396.0039756869598
 20
28.77675794839777
 30
0.0
 10
396.1732877513042
 20
28.90277492423224
 30
0.0
 10
396.3742602789986
 20
28.92845441659237
 30
0.0
 10
396.5137567566165
 20
28.92845441659237
 30
0.0
 10
396.6864610134627
 20
28.92845441659237
 30
0.0
 10
396.8531842993187
 20
28.8943539551269
 30
0.0
 10
396.9408159389486
 20
28.70506068670399
 30
0.0
 10
397.0079753992694
 20
28.55662250867558
 30
0.0
 10
397.0110997871
 20
28.5391110587869
 30
0.0
 10
396.9919071189977
 20
28.24610299242514
 30
0.0
 10
397.1674382029287
 20
28.54650544331934
 30
0.0
 10
397.2970854198616
 20
28.67589973361832
 30
0.0
 10
397.5174886642549
 20
28.80022061320189
 30
0.0
 10
397.7487826319435
 20
28.92845441659237
 30
0.0
 10
397.8836074058529
 20
28.93805075064353
 30
0.0
 10
398.0402433824273
 20
28.9149600367716
 30
0.0
 10
398.2710017407735
 20
28.88087445334342
 30
0.0
 10
398.4182943099307
 20
28.79853939498828
 30
0.0
 10
398.4953030309365
 20
28.54832056386854
 30
0.0
 10
398.5725795566135
 20
28.29887539068781
 30
0.0
 10
398.5308317839817
 20
28.16507720135141
 30
0.0
 10
398.4354040528126
 20
27.76796750808128
 30
0.0
 10
398.3918411596316
 20
27.58711008680102
 30
0.0
 10
398.3288177936771
 20
27.36812025595006
 30
0.0
 10
398.2463637110236
 20
27.10754631087745
 30
0.0
 10
398.2463637110236
 20
27.10754631087745
 30
0.0
 10
397.5174886642549
 20
24.78695932282479
 30
0.0
 10
397.5174886642549
 20
24.78695932282479
 30
0.0
 10
397.5174886642549
 20
24.78695932282479
 30
0.0
 10
397.1383962741413
 20
24.78695932282479
 30
0.0
 10
397.1383962741413
 20
24.78695932282479
 30
0.0
 10
397.1383962741413
 20
24.78695932282479
 30
0.0
 10
397.7765450495241
 20
26.81569873142421
 30
0.0
 10
397.7765450495241
 20
26.81569873142421
 30
0.0
 10
397.9098225075554
 20
27.24016913526807
 30
0.0
 10
398.0000429256735
 20
27.55015304217612
 30
0.0
 10
398.0467302066851
 20
27.74450484327716
 30
0.0
 10
398.1053199175276
 20
27.98694246089495
 30
0.0
 10
398.1286486799962
 20
28.06694166739577
 30
0.0
 10
398.1009160184902
 20
28.24339518963862
 30
0.0
 10
398.0755043308013
 20
28.4076487213048
 30
0.0
 10
397.9925146388055
 20
28.51460693137258
 30
0.0
 10
397.8504293826993
 20
28.51460693137258
 30
0.0
 10
397.6990007191758
 20
28.51460693137258
 30
0.0
 10
397.5763461797686
 20
28.49775011512458
 30
0.0
 10
397.4047131416073
 20
28.32532854098695
 30
0.0
 10
397.2330503473714
 20
28.15159769956793
 30
0.0
 10
397.0912031398618
 20
27.94766444245305
 30
0.0
 10
396.9799749330922
 20
27.71312706263549
 30
0.0
 10
396.8689847749192
 20
27.47716139123824
 30
0.0
 10
396.7564473008682
 20
27.17806820762544
 30
0.0
 10
396.6423625109393
 20
26.81569873142421
 30
0.0
 10
396.6423625109393
 20
26.81569873142421
 30
0.0
 10
396.0039756869598
 20
24.78695932282479
 30
0.0
 10
396.0039756869598
 20
24.78695932282479
 30
0.0
 10
396.0039756869598
 20
24.78695932282479
 30
0.0
 10
395.6474384013758
 20
24.78695932282479
 30
0.0
 10
395.6474384013758
 20
24.78695932282479
 30
0.0
 10
395.6474384013758
 20
24.78695932282479
 30
0.0
 10
396.3773549107547
 20
27.10650484826726
 30
0.0
 10
396.3773549107547
 20
27.10650484826726
 30
0.0
 10
396.4543636317604
 20
27.35336124295977
 30
0.0
 10
396.5122094407385
 20
27.55457181925085
 30
0.0
 10
396.5503269722719
 20
27.71183267339138
 30
0.0
 10
396.6151357027011
 20
27.98253856185753
 30
0.0
 10
396.6332869081932
 20
28.1655979326565
 30
0.0
 10
396.5842786533645
 20
28.32805122181077
 30
0.0
 10
396.5360440564749
 20
28.48998377965993
 30
0.0
 10
396.4512690000045
 20
28.53134472332225
 30
0.0
 10
396.3096895971661
 20
28.53134472332225
 30
0.0
 10
396.1909331035284
 20
28.53134472332225
 30
0.0
 10
396.0750331930502
 20
28.48038744560878
 30
0.0
 10
395.9427971976291
 20
28.37899362148695
 30
0.0
 10
395.7763119603696
 20
28.25142932977446
 30
0.0
 10
395.7096881093912
 20
28.1466730692254
 30
0.0
 10
395.6280076846768
 20
28.02220340926895
 30
0.0
 10
395.5177911844429
 20
27.85754817059597
 30
0.0
 10
395.4661941511259
 20
27.74670679279587
 30
0.0
 10
395.3731171498484
 20
27.50348063920177
 30
0.0
 10
395.2800103924964
 20
27.25882619402798
 30
0.0
 10
395.1918728995987
 20
26.97412007247326
 30
0.0
 10
395.1303968495222
 20
26.77719437092129
 30
0.0
 10
395.1303968495222
 20
26.77719437092129
 30
0.0
 10
394.5042100161195
 20
24.78695932282479
 30
0.0
 10
394.5042100161195
 20
24.78695932282479
 30
0.0
 10
394.5042100161195
 20
24.78695932282479
 30
0.0
 10
394.1308307923247
 20
24.78695932282479
 30
0.0
 10
394.1308307923247
 20
24.78695932282479
 30
0.0
 10
394.1308307923247
 20
24.78695932282479
 30
0.0
 10
395.4068307823444
 20
28.857396910502
 30
0.0
 10
395.4068307823444
 20
28.857396910502
 30
0.0
  0
SPLINE
  5
3C73
102
{ACAD_REACTORS
330
3C64
330
3C75
102
}
330
A
100
AcDbEntity
  8
TEMPLATE
100
AcDbSpline
210
0.0
220
0.0
230
1.0
 70
    11
 71
     3
 72
    32
 73
    28
 74
     0
 42
0.000000001
 43
0.0000000001
 40
0.0
 40
0.0
 40
0.0
 40
0.0
 40
1.0
 40
1.0
 40
1.0
 40
2.0
 40
2.0
 40
2.0
 40
3.0
 40
3.0
 40
3.0
 40
4.0
 40
4.0
 40
4.0
 40
5.0
 40
5.0
 40
5.0
 40
6.0
 40
6.0
 40
6.0
 40
7.0
 40
7.0
 40
7.0
 40
8.0
 40
8.0
 40
8.0
 40
9.0
 40
9.0
 40
9.0
 40
9.0
 10
390.3419600603343
 20
28.64284073476305
 30
0.0
 10
390.1254548617105
 20
28.36279143887966
 30
0.0
 10
389.9587315758544
 20
28.11075748721071
 30
0.0
 10
389.6888142233646
 20
27.31860614785359
 30
0.0
 10
389.4406634394279
 20
26.59401597582401
 30
0.0
 10
389.2827479516467
 20
26.06685735861421
 30
0.0
 10
389.2588984578731
 20
25.42484029353638
 30
0.0
 10
389.240747252381
 20
24.94707676012474
 30
0.0
 10
389.5316723935223
 20
24.78695932282479
 30
0.0
 10
389.9582257225866
 20
24.78695932282479
 30
0.0
 10
390.1420587513246
 20
24.78695932282479
 30
0.0
 10
390.6059559539832
 20
24.79865346013363
 30
0.0
 10
390.9363078939394
 20
25.20702582763122
 30
0.0
 10
391.1675721055534
 20
25.49393389870466
 30
0.0
 10
391.38071486775
 20
25.79134586410385
 30
0.0
 10
391.6664624519149
 20
26.76695828126675
 30
0.0
 10
391.9042432438614
 20
27.58257228542799
 30
0.0
 10
392.068883604497
 20
28.10971602460051
 30
0.0
 10
392.056713369995
 20
28.40985067082352
 30
0.0
 10
392.056713369995
 20
28.40985067082352
 30
0.0
 10
392.056713369995
 20
28.40985067082352
 30
0.0
 10
392.056713369995
 20
28.40985067082352
 30
0.0
 10
391.9791690396468
 20
28.91055613773418
 30
0.0
 10
391.615639076537
 20
29.01635386089345
 30
0.0
 10
391.4079416759881
 20
29.01635386089345
 30
0.0
 10
391.2033686632698
 20
29.01635386089345
 30
0.0
 10
390.6552022574085
 20
29.05174871160303
 30
0.0
 10
390.3419600603343
 20
28.64284073476305
 30
0.0
  0
SPLINE
  5
3C74
102
{ACAD_REACTORS
330
3C64
330
3C75
102
}
330
A
100
AcDbEntity
  8
TEMPLATE
100
AcDbSpline
210
0.0
220
0.0
230
1.0
 70
    11
 71
     3
 72
    29
 73
    25
 74
     0
 42
0.000000001
 43
0.0000000001
 40
0.0
 40
0.0
 40
0.0
 40
0.0
 40
1.0
 40
1.0
 40
1.0
 40
2.0
 40
2.0
 40
2.0
 40
3.0
 40
3.0
 40
3.0
 40
4.0
 40
4.0
 40
4.0
 40
5.0
 40
5.0
 40
5.0
 40
6.0
 40
6.0
 40
6.0
 40
7.0
 40
7.0
 40
7.0
 40
8.0
 40
8.0
 40
8.0
 40
8.0
 10
389.6462927927937
 20
25.54487629838084
 30
0.0
 10
389.6447157208412
 20
25.82830290872873
 30
0.0
 10
389.7341922370948
 20
26.33186495879882
 30
0.0
 10
389.9634032795631
 20
27.00563175545052
 30
0.0
 10
390.2756040140271
 20
27.91796788002499
 30
0.0
 10
390.4628292352669
 20
28.25142932977446
 30
0.0
 10
390.6266661818889
 20
28.41374871659313
 30
0.0
 10
390.866024045788
 20
28.65010121695988
 30
0.0
 10
391.1878062362659
 20
28.66188462249246
 30
0.0
 10
391.2827281141673
 20
28.65010121695988
 30
0.0
 10
391.4178206927478
 20
28.6338841563153
 30
0.0
 10
391.6086463990114
 20
28.54546398070914
 30
0.0
 10
391.6200429755745
 20
28.24779908867604
 30
0.0
 10
391.629148334395
 20
27.99304245618328
 30
0.0
 10
391.5557400984131
 20
27.51593355641234
 30
0.0
 10
391.2987963944389
 20
26.76695828126675
 30
0.0
 10
391.0026639402465
 20
25.896622855958
 30
0.0
 10
390.824782126424
 20
25.55448751046927
 30
0.0
 10
390.6821910170501
 20
25.40537982076289
 30
0.0
 10
390.413553175767
 20
25.1258512561846
 30
0.0
 10
390.1254548617105
 20
25.15269123545324
 30
0.0
 10
390.0829334311396
 20
25.15269123545324
 30
0.0
 10
390.0277061567243
 20
25.15269123545324
 30
0.0
 10
389.6470664507327
 20
25.21261996965174
 30
0.0
 10
389.6462927927937
 20
25.54487629838084
 30
0.0
  0
MTEXT
  5
3CB5
102
{ACAD_XDICTIONARY
360
3CB7
102
}
330
A
100
AcDbEntity
  8
TEMPLATE
100
AcDbMText
 10
15.00779663219942
 20
17.57619761830519
 30
0.0
 40
4.0
 41
0.0
 46
4.0
 71
     1
 72
     1
  1
{20230823M}
  7
ＭＳ ゴシック
 73
     1
 44
1.0
1001
ACAD
1000
ACAD_MTEXT_DEFINED_HEIGHT_BEGIN
1070
    46
1040
4.0
1000
ACAD_MTEXT_DEFINED_HEIGHT_END
  0
LINE
  5
4016
330
A
100
AcDbEntity
  8
MODEL
100
AcDbLine
 10
293.339238722367
 20
155.833686048293
 30
0.0
 11
293.339238722367
 21
225.833686048293
 31
0.0
  0
LINE
  5
4017
330
A
100
AcDbEntity
  8
MODEL
100
AcDbLine
 10
301.0392387223671
 20
225.3936860482929
 30
0.0
 11
301.0392387223671
 21
156.2736860482929
 31
0.0
  0
LINE
  5
4018
330
A
100
AcDbEntity
  8
MODEL
100
AcDbLine
 10
284.1392387223672
 20
206.342337416693
 30
0.0
 11
284.1392387223672
 21
175.3250346796929
 31
0.0
  0
LINE
  5
4019
330
A
100
AcDbEntity
  8
MODEL
100
AcDbLine
 10
293.339238722367
 20
155.833686048293
 30
0.0
 11
300.599238722367
 21
155.833686048293
 31
0.0
  0
LINE
  5
401A
330
A
100
AcDbEntity
  8
MODEL
100
AcDbLine
 10
300.599238722367
 20
225.833686048293
 30
0.0
 11
293.339238722367
 21
225.833686048293
 31
0.0
  0
ARC
  5
401B
330
A
100
AcDbEntity
  8
MODEL
100
AcDbCircle
 10
300.599238722367
 20
156.2736860482929
 30
0.0
 40
0.4400000000000028
100
AcDbArc
 50
270.0
 51
0.0
  0
ARC
  5
401C
330
A
100
AcDbEntity
  8
MODEL
100
AcDbCircle
 10
300.599238722367
 20
225.3936860482929
 30
0.0
 40
0.4400000000000002
100
AcDbArc
 50
0.0
 51
90.0
  0
LINE
  5
401D
330
A
100
AcDbEntity
  8
MODEL
100
AcDbLine
 10
293.339238722367
 20
206.9942726454929
 30
0.0
 11
284.6305125191672
 21
206.8422612642929
 31
0.0
  0
LINE
  5
401E
330
A
100
AcDbEntity
  8
MODEL
100
AcDbLine
 10
284.6305125191672
 20
174.8251108322929
 30
0.0
 11
293.339238722367
 21
174.673099450893
 31
0.0
  0
ARC
  5
401F
330
A
100
AcDbEntity
  8
MODEL
100
AcDbCircle
 10
284.6392387223672
 20
175.3250346796929
 30
0.0
 40
0.5000000000000004
100
AcDbArc
 50
180.0
 51
268.9999999999982
  0
ARC
  5
4020
330
A
100
AcDbEntity
  8
MODEL
100
AcDbCircle
 10
284.6392387223672
 20
206.342337416693
 30
0.0
 40
0.5000000000000002
100
AcDbArc
 50
91.00000000000178
 51
180.0
  0
LINE
  5
4048
330
A
100
AcDbEntity
  8
MODEL
100
AcDbLine
 10
293.339238722367
 20
159.406028337693
 30
0.0
 11
293.339238722367
 21
183.6543947714929
 31
0.0
  0
HATCH
  5
404A
330
A
100
AcDbEntity
  8
MODEL
100
AcDbHatch
 10
0.0
 20
0.0
 30
0.0
210
0.0
220
0.0
230
1.0
  2
LINE
 70
     0
 71
     0
 91
        1
 92
        1
 93
        4
 72
     1
 10
287.3392398114406
 20
224.3359860482154
 11
272.7150932785916
 21
224.3359860482154
 72
     1
 10
272.7150932785916
 20
224.3359860482154
 11
272.7150932785916
 21
208.3336860482156
 72
     1
 10
272.7150932785916
 20
208.3336860482156
 11
287.3392398114405
 21
208.3336860482156
 72
     1
 10
287.3392398114406
 20
208.3336860482156
 11
287.3392398114406
 21
224.3359860482154
 97
        0
 75
     0
 76
     1
 52
45.0
 41
1.889763779600006
 77
     0
 78
     1
 53
45.0
 43
137.7313039513671
 44
-131.849879331307
 45
-4.242640687119286
 46
4.242640687119286
 79
     0
 98
        0
  0
HATCH
  5
404B
330
A
100
AcDbEntity
  8
MODEL
100
AcDbHatch
 10
0.0
 20
0.0
 30
0.0
210
0.0
220
0.0
230
1.0
  2
LINE
 70
     0
 71
     0
 91
        1
 92
        1
 93
        5
 72
     1
 10
287.3392398114406
 20
224.3359860482154
 11
287.3392398114406
 21
208.3336860482156
 72
     1
 10
287.3392398114406
 20
208.3336860482156
 11
293.3392387224333
 21
208.3336860482156
 72
     1
 10
293.3392387224334
 20
208.3336860482156
 11
293.3392387224334
 21
210.3359860482154
 72
     1
 10
293.3392387224334
 20
210.3359860482154
 11
293.3392387224334
 21
224.3359860482154
 72
     1
 10
293.3392387224334
 20
224.3359860482154
 11
287.3392398114407
 21
224.3359860482154
 97
        0
 75
     0
 76
     1
 52
315.0
 41
1.8897637796
 77
     0
 78
     1
 53
315.0
 43
137.7313039513671
 44
-131.849879331307
 45
4.242640687119286
 46
4.242640687119286
 79
     0
 98
        0
  0
HATCH
  5
404C
330
A
100
AcDbEntity
  8
MODEL
100
AcDbHatch
 10
0.0
 20
0.0
 30
0.0
210
0.0
220
0.0
230
1.0
  2
LINE
 70
     0
 71
     0
 91
        1
 92
        1
 93
        4
 72
     1
 10
272.7150932785916
 20
157.3313860482154
 11
287.3392398114405
 21
157.3313860482154
 72
     1
 10
287.3392398114406
 20
157.3313860482154
 11
287.3392398114406
 21
173.3336860482156
 72
     1
 10
287.3392398114406
 20
173.3336860482156
 11
272.7150932785917
 21
173.3336860482156
 72
     1
 10
272.7150932785916
 20
173.3336860482156
 11
272.7150932785916
 21
157.3313860482154
 97
        0
 75
     0
 76
     1
 52
45.0
 41
1.889763779600006
 77
     0
 78
     1
 53
45.0
 43
137.7313039513671
 44
-100.854479331307
 45
-4.242640687119286
 46
4.242640687119286
 79
     0
 98
        0
  0
HATCH
  5
404D
330
A
100
AcDbEntity
  8
MODEL
100
AcDbHatch
 10
0.0
 20
0.0
 30
0.0
210
0.0
220
0.0
230
1.0
  2
LINE
 70
     0
 71
     0
 91
        1
 92
        1
 93
        5
 72
     1
 10
287.3392398114406
 20
173.3336860482156
 11
287.3392398114406
 21
157.3313860482154
 72
     1
 10
287.3392398114406
 20
157.3313860482154
 11
293.3392387224333
 21
157.3313860482154
 72
     1
 10
293.3392387224334
 20
157.3313860482154
 11
293.3392387224334
 21
171.3313860482154
 72
     1
 10
293.3392387224334
 20
171.3313860482154
 11
293.3392387224334
 21
173.3336860482156
 72
     1
 10
293.3392387224334
 20
173.3336860482156
 11
287.3392398114407
 21
173.3336860482156
 97
        0
 75
     0
 76
     1
 52
315.0
 41
1.8897637796
 77
     0
 78
     1
 53
315.0
 43
137.7313039513671
 44
-100.854479331307
 45
4.242640687119286
 46
4.242640687119286
 79
     0
 98
        0
  0
LINE
  5
4050
330
A
100
AcDbEntity
  8
MODEL
100
AcDbLine
 10
287.3392398113671
 20
173.3336860482929
 30
0.0
 11
287.3392398113671
 21
157.331386048293
 31
0.0
  0
LINE
  5
4051
330
A
100
AcDbEntity
  8
MODEL
100
AcDbLine
 10
293.339238722367
 20
173.3336860482929
 30
0.0
 11
272.7150932785671
 21
173.3336860482929
 31
0.0
  0
LINE
  5
4052
330
A
100
AcDbEntity
  8
MODEL
100
AcDbLine
 10
287.3392398113671
 20
208.3336860482929
 30
0.0
 11
287.3392398113671
 21
224.335986048293
 31
0.0
  0
LINE
  5
4053
330
A
100
AcDbEntity
  8
MODEL
100
AcDbLine
 10
293.339238722367
 20
208.3336860482929
 30
0.0
 11
272.7150932785671
 21
208.3336860482929
 31
0.0
  0
LINE
  5
4054
330
A
100
AcDbEntity
  8
MODEL
100
AcDbLine
 10
293.339238722367
 20
141.833686048293
 30
0.0
 11
293.339238722367
 21
239.833686048293
 31
0.0
  0
CIRCLE
  5
40EE
330
A
100
AcDbEntity
  8
MODEL
100
AcDbCircle
 10
91.5534538003588
 20
523.4340106586625
 30
0.0
 40
17.5
  0
LINE
  5
416F
330
A
100
AcDbEntity
  8
MODEL
100
AcDbLine
 10
56.55345380035868
 20
339.6435700548365
 30
0.0
 11
126.5534538003587
 21
339.6435700548365
 31
0.0
  0
LINE
  5
4170
330
A
100
AcDbEntity
  8
MODEL
100
AcDbLine
 10
126.1134538003586
 20
331.9435700548364
 30
0.0
 11
56.99345380035874
 21
331.9435700548365
 31
0.0
  0
LINE
  5
4171
330
A
100
AcDbEntity
  8
MODEL
100
AcDbLine
 10
107.0621051687587
 20
348.8435700548363
 30
0.0
 11
76.04480243195866
 21
348.8435700548363
 31
0.0
  0
LINE
  5
4172
330
A
100
AcDbEntity
  8
MODEL
100
AcDbLine
 10
56.55345380035868
 20
339.6435700548365
 30
0.0
 11
56.55345380035868
 21
332.3835700548365
 31
0.0
  0
LINE
  5
4173
330
A
100
AcDbEntity
  8
MODEL
100
AcDbLine
 10
126.5534538003587
 20
332.3835700548365
 30
0.0
 11
126.5534538003587
 21
339.6435700548365
 31
0.0
  0
ARC
  5
4174
330
A
100
AcDbEntity
  8
MODEL
100
AcDbCircle
 10
56.99345380035874
 20
332.3835700548365
 30
0.0
 40
0.4400000000000028
100
AcDbArc
 50
180.0
 51
270.0
  0
ARC
  5
4175
330
A
100
AcDbEntity
  8
MODEL
100
AcDbCircle
 10
126.1134538003586
 20
332.3835700548365
 30
0.0
 40
0.4400000000000002
100
AcDbArc
 50
270.0
 51
0.0
  0
LINE
  5
4176
330
A
100
AcDbEntity
  8
MODEL
100
AcDbLine
 10
107.7140403977587
 20
339.6435700548365
 30
0.0
 11
107.5620290163587
 21
348.3522962580363
 31
0.0
  0
LINE
  5
4177
330
A
100
AcDbEntity
  8
MODEL
100
AcDbLine
 10
75.54487858435863
 20
348.3522962580363
 30
0.0
 11
75.39286720295871
 21
339.6435700548365
 31
0.0
  0
ARC
  5
4178
330
A
100
AcDbEntity
  8
MODEL
100
AcDbCircle
 10
76.04480243195866
 20
348.3435700548363
 30
0.0
 40
0.5000000000000004
100
AcDbArc
 50
90.0
 51
178.9999999999983
  0
ARC
  5
4179
330
A
100
AcDbEntity
  8
MODEL
100
AcDbCircle
 10
107.0621051687587
 20
348.3435700548363
 30
0.0
 40
0.5000000000000002
100
AcDbArc
 50
1.000000000001762
 51
90.0
  0
LINE
  5
41A1
330
A
100
AcDbEntity
  8
MODEL
100
AcDbLine
 10
60.12579608995867
 20
339.6435700548365
 30
0.0
 11
84.37416252355871
 21
339.6435700548365
 31
0.0
  0
HATCH
  5
41A3
330
A
100
AcDbEntity
  8
MODEL
100
AcDbHatch
 10
0.0
 20
0.0
 30
0.0
210
0.0
220
0.0
230
1.0
  2
LINE
 70
     0
 71
     0
 91
        1
 92
        1
 93
        4
 72
     1
 10
125.0557538003874
 20
345.6435689657629
 11
125.0557538003874
 21
360.2677154986119
 72
     1
 10
125.0557538003875
 20
360.2677154986119
 11
109.0534538003877
 21
360.2677154986119
 72
     1
 10
109.0534538003877
 20
360.2677154986119
 11
109.0534538003877
 21
345.6435689657629
 72
     1
 10
109.0534538003876
 20
345.6435689657629
 11
125.0557538003874
 21
345.6435689657629
 97
        0
 75
     0
 76
     1
 52
315.0
 41
1.889763779600003
 77
     0
 78
     1
 53
315.0
 43
-387.9674280416413
 44
495.2515048258366
 45
4.242640687119287
 46
4.242640687119285
 79
     0
 98
        0
  0
HATCH
  5
41A4
330
A
100
AcDbEntity
  8
MODEL
100
AcDbHatch
 10
0.0
 20
0.0
 30
0.0
210
0.0
220
0.0
230
1.0
  2
LINE
 70
     0
 71
     0
 91
        1
 92
        1
 93
        5
 72
     1
 10
125.0557538003874
 20
345.6435689657629
 11
109.0534538003876
 21
345.6435689657629
 72
     1
 10
109.0534538003876
 20
345.6435689657629
 11
109.0534538003876
 21
339.6435700547703
 72
     1
 10
109.0534538003876
 20
339.6435700547701
 11
111.0557538003875
 21
339.6435700547701
 72
     1
 10
111.0557538003873
 20
339.6435700547701
 11
125.0557538003875
 21
339.6435700547701
 72
     1
 10
125.0557538003874
 20
339.6435700547701
 11
125.0557538003874
 21
345.6435689657627
 97
        0
 75
     0
 76
     1
 52
225.0
 41
1.8897637796
 77
     0
 78
     1
 53
225.0
 43
-387.9674280416413
 44
495.2515048258366
 45
4.242640687119285
 46
-4.242640687119287
 79
     0
 98
        0
  0
HATCH
  5
41A5
330
A
100
AcDbEntity
  8
MODEL
100
AcDbHatch
 10
0.0
 20
0.0
 30
0.0
210
0.0
220
0.0
230
1.0
  2
LINE
 70
     0
 71
     0
 91
        1
 92
        1
 93
        4
 72
     1
 10
58.05115380038762
 20
360.267715498612
 11
58.05115380038762
 21
345.6435689657631
 72
     1
 10
58.05115380038757
 20
345.6435689657631
 11
74.05345380038779
 21
345.6435689657631
 72
     1
 10
74.05345380038767
 20
345.6435689657631
 11
74.05345380038767
 21
360.2677154986119
 72
     1
 10
74.05345380038773
 20
360.267715498612
 11
58.05115380038751
 21
360.267715498612
 97
        0
 75
     0
 76
     1
 52
315.0
 41
1.889763779600003
 77
     0
 78
     1
 53
315.0
 43
-356.9720280416412
 44
495.2515048258366
 45
4.242640687119287
 46
4.242640687119285
 79
     0
 98
        0
  0
HATCH
  5
41A6
330
A
100
AcDbEntity
  8
MODEL
100
AcDbHatch
 10
0.0
 20
0.0
 30
0.0
210
0.0
220
0.0
230
1.0
  2
LINE
 70
     0
 71
     0
 91
        1
 92
        1
 93
        5
 72
     1
 10
74.05345380038767
 20
345.6435689657631
 11
58.05115380038745
 21
345.6435689657631
 72
     1
 10
58.05115380038757
 20
345.6435689657631
 11
58.05115380038757
 21
339.6435700547704
 72
     1
 10
58.05115380038757
 20
339.6435700547701
 11
72.05115380038757
 21
339.6435700547701
 72
     1
 10
72.05115380038757
 20
339.6435700547701
 11
74.05345380038779
 21
339.6435700547701
 72
     1
 10
74.05345380038767
 20
339.6435700547701
 11
74.05345380038767
 21
345.6435689657628
 97
        0
 75
     0
 76
     1
 52
225.0
 41
1.8897637796
 77
     0
 78
     1
 53
225.0
 43
-356.9720280416412
 44
495.2515048258366
 45
4.242640687119285
 46
-4.242640687119287
 79
     0
 98
        0
  0
LINE
  5
41A9
330
A
100
AcDbEntity
  8
MODEL
100
AcDbLine
 10
74.05345380035868
 20
345.6435689658365
 30
0.0
 11
58.05115380035869
 21
345.6435689658365
 31
0.0
  0
LINE
  5
41AA
330
A
100
AcDbEntity
  8
MODEL
100
AcDbLine
 10
74.05345380035868
 20
339.6435700548365
 30
0.0
 11
74.05345380035874
 21
360.2677154986366
 31
0.0
  0
LINE
  5
41AB
330
A
100
AcDbEntity
  8
MODEL
100
AcDbLine
 10
109.0534538003587
 20
345.6435689658364
 30
0.0
 11
125.0557538003586
 21
345.6435689658364
 31
0.0
  0
LINE
  5
41AC
330
A
100
AcDbEntity
  8
MODEL
100
AcDbLine
 10
109.0534538003587
 20
339.6435700548365
 30
0.0
 11
109.0534538003587
 21
360.2677154986364
 31
0.0
  0
LINE
  5
41AD
330
A
100
AcDbEntity
  8
MODEL
100
AcDbLine
 10
42.55345380035868
 20
339.6435700548365
 30
0.0
 11
140.5534538003587
 21
339.6435700548365
 31
0.0
  0
DIMENSION
  5
41B6
330
A
100
AcDbEntity
  8
DIM
100
AcDbDimension
  2
*D6
 10
301.0392387223671
 20
125.3760428067842
 30
0.0
 11
311.7975192736924
 21
125.3760428067842
 31
0.0
 70
   160
 71
     5
 42
7.700000000000045
 73
     0
 74
     1
 75
     1
  3
tfrom線あり
100
AcDbAlignedDimension
 13
293.339238722367
 23
141.833686048293
 33
0.0
 14
301.0392387223671
 24
156.2736860482929
 34
0.0
100
AcDbRotatedDimension
1001
ACAD
1000
DSTYLE
1002
{
1070
   172
1070
     1
1002
}
  0
DIMENSION
  5
41B7
330
A
100
AcDbEntity
  8
DIM
100
AcDbDimension
  2
*D7
 10
359.9192387223672
 20
111.5038353116162
 30
0.0
 11
326.6292374921671
 21
111.5038353116162
 31
0.0
 70
   160
  1
\A1;<>
 71
     5
 42
66.58000000000015
 73
     0
 74
     0
 75
     0
  3
tfrom線あり
100
AcDbAlignedDimension
 13
293.339238722367
 23
141.833686048293
 33
0.0
 14
359.9192387223672
 24
183.1336860482929
 34
0.0
100
AcDbRotatedDimension
  0
LINE
  5
4241
330
A
100
AcDbEntity
  8
DIM
100
AcDbLine
 10
296.969238722367
 20
225.833686048293
 30
0.0
 11
308.2220832751515
 21
255.6217787993068
 31
0.0
  0
LINE
  5
4242
330
A
100
AcDbEntity
  8
DIM
100
AcDbLine
 10
308.2220832751515
 20
255.6217787993068
 30
0.0
 11
327.8341794696804
 21
255.6217787993068
 31
0.0
  0
MTEXT
  5
4276
330
A
100
AcDbEntity
  8
DIM
390
1D
100
AcDbMText
 10
312.3649123028281
 20
262.5875264015925
 30
0.0
 40
5.0
 41
379.8864500372819
 46
5.0
 71
     1
 72
     1
  1
{Ø70}
  7
ＭＳ ゴシック
 73
     1
 44
0.9822934569727008
1001
ACAD
1000
ACAD_MTEXT_DEFINED_HEIGHT_BEGIN
1070
    46
1040
5.0
1000
ACAD_MTEXT_DEFINED_HEIGHT_END
  0
LINE
  5
42E6
330
A
100
AcDbEntity
  8
DIM
100
AcDbLine
 10
105.0165411389157
 20
512.2538818886353
 30
0.0
 11
118.336714176
 21
491.0330557440001
 31
0.0
  0
LINE
  5
42E7
330
A
100
AcDbEntity
  8
DIM
100
AcDbLine
 10
118.336714176
 20
491.0330557440001
 30
0.0
 11
159.3876074880001
 21
491.0330557440001
 31
0.0
  0
MTEXT
  5
431A
330
A
100
AcDbEntity
  8
DIM
390
1D
100
AcDbMText
 10
120.6149370240001
 20
497.5614800640002
 30
0.0
 40
5.0
 41
379.886450037282
 46
5.585
 71
     1
 72
     1
  1
{Ø35(%%c35-%%c40)}
  7
ＭＳ ゴシック
 73
     1
 44
0.9822934569727008
1001
ACAD
1000
ACAD_MTEXT_DEFINED_HEIGHT_BEGIN
1070
    46
1040
5.585
1000
ACAD_MTEXT_DEFINED_HEIGHT_END
  0
ARC
  5
43BC
330
A
100
AcDbEntity
  8
MODEL
100
AcDbCircle
 10
91.55345380035862
 20
190.833686048293
 30
0.0
 40
35.0
100
AcDbArc
 50
276.5629669335
 51
0.0
  0
ARC
  5
43BD
330
A
100
AcDbEntity
  8
MODEL
100
AcDbCircle
 10
91.55345380035862
 20
190.833686048293
 30
0.0
 40
35.0
100
AcDbArc
 50
0.0
 51
263.4376738430999
  0
LINE
  5
43BE
330
A
100
AcDbEntity
  8
MODEL
100
AcDbLine
 10
87.55338764315866
 20
183.636847155693
 30
0.0
 11
87.55363719955858
 21
129.827758733593
 31
0.0
  0
LINE
  5
43BF
330
A
100
AcDbEntity
  8
MODEL
100
AcDbLine
 10
95.55390261315858
 20
129.827709915993
 30
0.0
 11
95.55365305545865
 21
183.637081257593
 31
0.0
  0
ARC
  5
43C0
330
A
100
AcDbEntity
  8
MODEL
100
AcDbCircle
 10
91.55384823265865
 20
140.693561661093
 30
0.0
 40
11.7785714285718
100
AcDbArc
 50
251.2469826345996
 51
288.7526517679996
  0
ARC
  5
43C1
330
A
100
AcDbEntity
  8
MODEL
100
AcDbCircle
 10
87.85094017605866
 20
129.823717366493
 30
0.0
 40
0.2952728587779966
100
AcDbArc
 50
179.5659534046987
 51
253.6072899792763
  0
SPLINE
  5
43C2
330
A
100
AcDbEntity
  8
MODEL
100
AcDbSpline
210
0.0
220
0.0
230
1.0
 70
     8
 71
     3
 72
    12
 73
     8
 74
     0
 42
0.000000001
 43
0.0000000001
 40
0.0
 40
0.0
 40
0.0
 40
0.0
 40
0.1835462417257389
 40
0.4359165772857287
 40
0.704644140268268
 40
0.9854052808020485
 40
1.0
 40
1.0
 40
1.0
 40
1.0
 10
95.34036549341488
 20
129.540847268049
 30
0.0
 10
95.36430421872626
 20
129.5494578755744
 30
0.0
 10
95.4124120598176
 20
129.5678443969417
 30
0.0
 10
95.4858033186357
 20
129.6284497066121
 30
0.0
 10
95.53651169400939
 20
129.7159447620651
 30
0.0
 10
95.55955955871832
 20
129.7921213393589
 30
0.0
 10
95.55293820553698
 20
129.8274195303575
 30
0.0
 10
95.55255709014807
 20
129.8294403725942
 30
0.0
  0
ARC
  5
43C3
330
A
100
AcDbEntity
  8
MODEL
100
AcDbCircle
 10
87.11665303725863
 20
183.639966297793
 30
0.0
 40
0.4421880224751502
100
AcDbArc
 50
359.632483014603
 51
52.1901787154128
  0
ARC
  5
43C4
330
A
100
AcDbEntity
  8
MODEL
100
AcDbCircle
 10
95.99842483445855
 20
183.633448062593
 30
0.0
 40
0.4525560876768925
100
AcDbArc
 50
128.0618184429969
 51
179.6022224711911
  0
ARC
  5
43C5
330
A
100
AcDbEntity
  8
MODEL
100
AcDbCircle
 10
91.55345380035862
 20
190.833686048293
 30
0.0
 40
15.0
100
AcDbArc
 50
285.4669330967001
 51
0.0
  0
ARC
  5
43C6
330
A
100
AcDbEntity
  8
MODEL
100
AcDbCircle
 10
91.55345380035862
 20
190.833686048293
 30
0.0
 40
15.0
100
AcDbArc
 50
0.0
 51
254.5338612938997
  0
ARC
  5
43C7
330
A
100
AcDbEntity
  8
MODEL
100
AcDbCircle
 10
91.55345380035862
 20
190.833686048293
 30
0.0
 40
8.200000000000003
100
AcDbArc
 50
0.0
 51
240.6756129538997
  0
ARC
  5
43C8
330
A
100
AcDbEntity
  8
MODEL
100
AcDbCircle
 10
91.55345380035862
 20
190.833686048293
 30
0.0
 40
8.200000000000003
100
AcDbArc
 50
299.3058696504993
 51
0.0
  0
CIRCLE
  5
43C9
330
A
100
AcDbEntity
  8
MODEL
100
AcDbCircle
 10
91.55345380035862
 20
190.833686048293
 30
0.0
 40
8.0
  0
LINE
  5
43D0
330
A
100
AcDbEntity
  8
MODEL
100
AcDbLine
 10
357.9192387223671
 20
198.533686048293
 30
0.0
 11
357.9192387223671
 21
183.1336860482929
 31
0.0
  0
LINE
  5
43D1
330
A
100
AcDbEntity
  8
MODEL
100
AcDbLine
 10
347.439110156567
 20
182.3736916904929
 30
0.0
 11
347.438764852367
 21
129.834512769093
 31
0.0
  0
LINE
  5
43D2
330
A
100
AcDbEntity
  8
MODEL
100
AcDbLine
 10
355.439030175667
 20
129.820799806893
 30
0.0
 11
355.439375569967
 21
182.373690076893
 31
0.0
  0
ARC
  5
43D3
330
A
100
AcDbEntity
  8
MODEL
100
AcDbCircle
 10
351.459261993167
 20
140.693561661093
 30
0.0
 40
11.77857142857179
100
AcDbArc
 50
251.0998547429004
 51
288.6963776507004
  0
ARC
  5
43D4
330
A
100
AcDbEntity
  8
MODEL
100
AcDbCircle
 10
347.7387660312671
 20
129.834671172993
 30
0.0
 40
0.3000000104698096
100
AcDbArc
 50
179.9849542313046
 51
251.5671378573946
  0
ARC
  5
43D5
330
A
100
AcDbEntity
  8
MODEL
100
AcDbCircle
 10
355.1390301756671
 20
129.820801746693
 30
0.0
 40
0.2999999999979892
100
AcDbArc
 50
288.7436851111072
 51
0.0170850708038658
  0
ARC
  5
43D6
330
A
100
AcDbEntity
  8
MODEL
100
AcDbCircle
 10
346.984688674167
 20
182.380927973393
 30
0.0
 40
0.4510251445617224
100
AcDbArc
 50
359.1004597967952
 51
90.71182332548827
  0
ARC
  5
43D7
330
A
100
AcDbEntity
  8
MODEL
100
AcDbCircle
 10
355.895799155867
 20
182.3795238799929
 30
0.0
 40
0.4531897745726643
100
AcDbArc
 50
84.76254776469317
 51
180.776638753802
  0
ARC
  5
43D8
330
A
100
AcDbEntity
  8
MODEL
100
AcDbCircle
 10
357.619238722367
 20
198.533686048293
 30
0.0
 40
0.3000000000000086
100
AcDbArc
 50
0.0
 51
90.0
  0
ARC
  5
43D9
330
A
100
AcDbEntity
  8
MODEL
100
AcDbCircle
 10
357.619238722367
 20
183.1336860482929
 30
0.0
 40
0.3000000000000008
100
AcDbArc
 50
270.0
 51
0.0
  0
LINE
  5
43DA
330
A
100
AcDbEntity
  8
MODEL
100
AcDbLine
 10
355.8993744469671
 20
182.833686048293
 30
0.0
 11
357.619238722367
 21
182.833686048293
 31
0.0
  0
LINE
  5
43DB
330
A
100
AcDbEntity
  8
MODEL
100
AcDbLine
 10
337.920846133667
 20
182.833686048293
 30
0.0
 11
346.979119966267
 21
182.833686048293
 31
0.0
  0
LINE
  5
43DC
330
A
100
AcDbEntity
  8
MODEL
100
AcDbLine
 10
357.619238722367
 20
198.833686048293
 30
0.0
 11
337.920846133667
 21
198.833686048293
 31
0.0
  0
LINE
  5
43DD
330
A
100
AcDbEntity
  8
MODEL
100
AcDbLine
 10
334.3208461336671
 20
205.6336860482929
 30
0.0
 11
334.3208461336671
 21
176.033686048293
 31
0.0
  0
LINE
  5
43DE
330
A
100
AcDbEntity
  8
MODEL
100
AcDbLine
 10
334.120846133667
 20
205.833686048293
 30
0.0
 11
301.0392387223671
 21
205.833686048293
 31
0.0
  0
LINE
  5
43DF
330
A
100
AcDbEntity
  8
MODEL
100
AcDbLine
 10
301.0392387223671
 20
175.833686048293
 30
0.0
 11
334.120846133667
 21
175.833686048293
 31
0.0
  0
ARC
  5
43E0
330
A
100
AcDbEntity
  8
MODEL
100
AcDbCircle
 10
334.120846133667
 20
176.033686048293
 30
0.0
 40
0.1999999999999988
100
AcDbArc
 50
270.0
 51
0.0
  0
ARC
  5
43E1
330
A
100
AcDbEntity
  8
MODEL
100
AcDbCircle
 10
334.120846133667
 20
205.6336860482929
 30
0.0
 40
0.2000000000000057
100
AcDbArc
 50
0.0
 51
90.0
  0
LINE
  5
43E2
330
A
100
AcDbEntity
  8
MODEL
100
AcDbLine
 10
334.3208461336671
 20
176.033686048293
 30
0.0
 11
334.3208461336671
 21
205.6336860482929
 31
0.0
  0
LINE
  5
43E3
330
A
100
AcDbEntity
  8
MODEL
100
AcDbLine
 10
337.920846133667
 20
205.533686048293
 30
0.0
 11
337.920846133667
 21
176.1336860482929
 31
0.0
  0
LINE
  5
43E4
330
A
100
AcDbEntity
  8
MODEL
100
AcDbLine
 10
334.520846133667
 20
175.833686048293
 30
0.0
 11
337.620846133667
 21
175.833686048293
 31
0.0
  0
LINE
  5
43E5
330
A
100
AcDbEntity
  8
MODEL
100
AcDbLine
 10
337.620846133667
 20
205.833686048293
 30
0.0
 11
334.520846133667
 21
205.833686048293
 31
0.0
  0
ARC
  5
43E6
330
A
100
AcDbEntity
  8
MODEL
100
AcDbCircle
 10
334.520846133667
 20
205.6336860482929
 30
0.0
 40
0.1999999999999988
100
AcDbArc
 50
90.0
 51
180.0
  0
ARC
  5
43E7
330
A
100
AcDbEntity
  8
MODEL
100
AcDbCircle
 10
334.520846133667
 20
176.033686048293
 30
0.0
 40
0.1999999999999988
100
AcDbArc
 50
180.0
 51
270.0
  0
ARC
  5
43E8
330
A
100
AcDbEntity
  8
MODEL
100
AcDbCircle
 10
337.620846133667
 20
205.533686048293
 30
0.0
 40
0.3000000000000017
100
AcDbArc
 50
0.0
 51
90.0
  0
ARC
  5
43E9
330
A
100
AcDbEntity
  8
MODEL
100
AcDbCircle
 10
337.620846133667
 20
176.1336860482929
 30
0.0
 40
0.2999999999999999
100
AcDbArc
 50
270.0
 51
0.0
  0
LINE
  5
43EA
330
A
100
AcDbEntity
  8
MODEL
100
AcDbLine
 10
359.9192387223671
 20
198.533686048293
 30
0.0
 11
359.9192387223671
 21
183.1336860482929
 31
0.0
  0
LINE
  5
43EB
330
A
100
AcDbEntity
  8
MODEL
100
AcDbLine
 10
357.9192387223671
 20
183.1336860482929
 30
0.0
 11
357.9192387223671
 21
198.533686048293
 31
0.0
  0
LINE
  5
43EC
330
A
100
AcDbEntity
  8
MODEL
100
AcDbLine
 10
359.619238722367
 20
198.833686048293
 30
0.0
 11
358.219238722367
 21
198.833686048293
 31
0.0
  0
LINE
  5
43ED
330
A
100
AcDbEntity
  8
MODEL
100
AcDbLine
 10
358.219238722367
 20
182.833686048293
 30
0.0
 11
359.619238722367
 21
182.833686048293
 31
0.0
  0
ARC
  5
43EE
330
A
100
AcDbEntity
  8
MODEL
100
AcDbCircle
 10
359.619238722367
 20
198.533686048293
 30
0.0
 40
0.2999999999999947
100
AcDbArc
 50
0.0
 51
90.0
  0
ARC
  5
43EF
330
A
100
AcDbEntity
  8
MODEL
100
AcDbCircle
 10
359.619238722367
 20
183.1336860482929
 30
0.0
 40
0.2999999999999999
100
AcDbArc
 50
270.0
 51
0.0
  0
ARC
  5
43F0
330
A
100
AcDbEntity
  8
MODEL
100
AcDbCircle
 10
358.219238722367
 20
183.1336860482929
 30
0.0
 40
0.3000000000000086
100
AcDbArc
 50
180.0
 51
270.0
  0
ARC
  5
43F1
330
A
100
AcDbEntity
  8
MODEL
100
AcDbCircle
 10
358.219238722367
 20
198.533686048293
 30
0.0
 40
0.3000000000000017
100
AcDbArc
 50
90.0
 51
180.0
  0
LINE
  5
43F8
330
A
100
AcDbEntity
  8
MODEL
100
AcDbLine
 10
83.8534538003588
 20
275.0635700548364
 30
0.0
 11
99.25345380035878
 21
275.0635700548364
 31
0.0
  0
ARC
  5
43F9
330
A
100
AcDbEntity
  8
MODEL
100
AcDbCircle
 10
99.25345380035878
 20
275.3635700548364
 30
0.0
 40
0.2999999999999947
100
AcDbArc
 50
270.0
 51
0.0
  0
ARC
  5
43FA
330
A
100
AcDbEntity
  8
MODEL
100
AcDbCircle
 10
83.8534538003588
 20
275.3635700548364
 30
0.0
 40
0.2999999999999982
100
AcDbArc
 50
180.0
 51
270.0
  0
LINE
  5
43FB
330
A
100
AcDbEntity
  8
MODEL
100
AcDbLine
 10
83.55345380035885
 20
295.0619626435364
 30
0.0
 11
83.55345380035885
 21
275.3635700548364
 31
0.0
  0
LINE
  5
43FC
330
A
100
AcDbEntity
  8
MODEL
100
AcDbLine
 10
99.55345380035885
 20
275.3635700548364
 30
0.0
 11
99.55345380035885
 21
295.0619626435364
 31
0.0
  0
LINE
  5
43FD
330
A
100
AcDbEntity
  8
MODEL
100
AcDbLine
 10
76.75345380035878
 20
298.6619626435364
 30
0.0
 11
106.3534538003588
 21
298.6619626435364
 31
0.0
  0
LINE
  5
43FE
330
A
100
AcDbEntity
  8
MODEL
100
AcDbLine
 10
106.5534538003589
 20
298.8619626435365
 30
0.0
 11
106.5534538003589
 21
331.9435700548364
 31
0.0
  0
LINE
  5
43FF
330
A
100
AcDbEntity
  8
MODEL
100
AcDbLine
 10
76.55345380035885
 20
331.9435700548364
 30
0.0
 11
76.55345380035885
 21
298.8619626435365
 31
0.0
  0
ARC
  5
4400
330
A
100
AcDbEntity
  8
MODEL
100
AcDbCircle
 10
76.75345380035878
 20
298.8619626435365
 30
0.0
 40
0.2000000000000005
100
AcDbArc
 50
180.0
 51
270.0
  0
ARC
  5
4401
330
A
100
AcDbEntity
  8
MODEL
100
AcDbCircle
 10
106.3534538003588
 20
298.8619626435365
 30
0.0
 40
0.2000000000000057
100
AcDbArc
 50
270.0
 51
0.0
  0
LINE
  5
4402
330
A
100
AcDbEntity
  8
MODEL
100
AcDbLine
 10
106.3534538003588
 20
298.6619626435364
 30
0.0
 11
76.75345380035878
 21
298.6619626435364
 31
0.0
  0
LINE
  5
4403
330
A
100
AcDbEntity
  8
MODEL
100
AcDbLine
 10
76.8534538003588
 20
295.0619626435364
 30
0.0
 11
106.2534538003588
 21
295.0619626435364
 31
0.0
  0
LINE
  5
4404
330
A
100
AcDbEntity
  8
MODEL
100
AcDbLine
 10
76.55345380035885
 20
298.4619626435364
 30
0.0
 11
76.55345380035885
 21
295.3619626435365
 31
0.0
  0
LINE
  5
4405
330
A
100
AcDbEntity
  8
MODEL
100
AcDbLine
 10
106.5534538003589
 20
295.3619626435365
 30
0.0
 11
106.5534538003589
 21
298.4619626435364
 31
0.0
  0
ARC
  5
4406
330
A
100
AcDbEntity
  8
MODEL
100
AcDbCircle
 10
106.3534538003588
 20
298.4619626435364
 30
0.0
 40
0.1999999999999988
100
AcDbArc
 50
0.0
 51
90.0
  0
ARC
  5
4407
330
A
100
AcDbEntity
  8
MODEL
100
AcDbCircle
 10
76.75345380035878
 20
298.4619626435364
 30
0.0
 40
0.1999999999999988
100
AcDbArc
 50
90.0
 51
180.0
  0
ARC
  5
4408
330
A
100
AcDbEntity
  8
MODEL
100
AcDbCircle
 10
106.2534538003588
 20
295.3619626435365
 30
0.0
 40
0.3000000000000017
100
AcDbArc
 50
270.0
 51
0.0
  0
ARC
  5
4409
330
A
100
AcDbEntity
  8
MODEL
100
AcDbCircle
 10
76.8534538003588
 20
295.3619626435365
 30
0.0
 40
0.2999999999999999
100
AcDbArc
 50
180.0
 51
270.0
  0
LINE
  5
440A
330
A
100
AcDbEntity
  8
MODEL
100
AcDbLine
 10
83.8534538003588
 20
273.0635700548364
 30
0.0
 11
99.25345380035878
 21
273.0635700548364
 31
0.0
  0
LINE
  5
440B
330
A
100
AcDbEntity
  8
MODEL
100
AcDbLine
 10
99.25345380035878
 20
275.0635700548364
 30
0.0
 11
83.8534538003588
 21
275.0635700548364
 31
0.0
  0
LINE
  5
440C
330
A
100
AcDbEntity
  8
MODEL
100
AcDbLine
 10
99.55345380035885
 20
273.3635700548364
 30
0.0
 11
99.55345380035885
 21
274.7635700548364
 31
0.0
  0
LINE
  5
440D
330
A
100
AcDbEntity
  8
MODEL
100
AcDbLine
 10
83.55345380035885
 20
274.7635700548364
 30
0.0
 11
83.55345380035885
 21
273.3635700548364
 31
0.0
  0
ARC
  5
440E
330
A
100
AcDbEntity
  8
MODEL
100
AcDbCircle
 10
99.25345380035878
 20
273.3635700548364
 30
0.0
 40
0.3000000000000086
100
AcDbArc
 50
270.0
 51
0.0
  0
ARC
  5
440F
330
A
100
AcDbEntity
  8
MODEL
100
AcDbCircle
 10
83.8534538003588
 20
273.3635700548364
 30
0.0
 40
0.3000000000000008
100
AcDbArc
 50
180.0
 51
270.0
  0
ARC
  5
4410
330
A
100
AcDbEntity
  8
MODEL
100
AcDbCircle
 10
83.8534538003588
 20
274.7635700548364
 30
0.0
 40
0.2999999999999947
100
AcDbArc
 50
90.0
 51
180.0
  0
ARC
  5
4411
330
A
100
AcDbEntity
  8
MODEL
100
AcDbCircle
 10
99.25345380035878
 20
274.7635700548364
 30
0.0
 40
0.2999999999999982
100
AcDbArc
 50
0.0
 51
90.0
  0
ARC
  5
4427
330
A
100
AcDbEntity
  8
MODEL
100
AcDbCircle
 10
351.4392392332247
 20
178.3771996832368
 30
0.0
 40
6.208654948974964
100
AcDbArc
 50
49.88803889479469
 51
130.1119611052048
  0
LINE
  5
45F6
330
A
100
AcDbEntity
  8
MODEL
100
AcDbLine
 10
257.0995832763674
 20
175.3336860481929
 30
0.0
 11
257.0995832763674
 21
206.3336860481929
 31
0.0
  0
LINE
  5
45F7
330
A
100
AcDbEntity
  8
MODEL
100
AcDbLine
 10
257.0995832763674
 20
175.3336860481929
 30
0.0
 11
266.0995832763674
 21
175.3336860481929
 31
0.0
  0
LINE
  5
45F8
330
A
100
AcDbEntity
  8
MODEL
100
AcDbLine
 10
266.0995832763674
 20
206.3336860481929
 30
0.0
 11
257.0995832763674
 21
206.3336860481929
 31
0.0
  0
LINE
  5
45F9
330
A
100
AcDbEntity
  8
MODEL
100
AcDbLine
 10
230.6067952517871
 20
209.7612440377918
 30
0.0
 11
230.3172103808872
 21
209.9898733127918
 31
0.0
  0
SPLINE
  5
45FA
330
A
100
AcDbEntity
  8
MODEL
100
AcDbSpline
210
0.0
220
0.0
230
1.0
 70
     8
 71
     3
 72
    10
 73
     6
 74
     0
 42
0.000000001
 43
0.0000000001
 40
0.0
 40
0.0
 40
0.0
 40
0.0
 40
0.4999999999999999
 40
0.4999999999999999
 40
1.0
 40
1.0
 40
1.0
 40
1.0
 10
230.5241940824157
 20
204.9514139594515
 30
0.0
 10
230.5450973030924
 20
206.4458041981397
 30
0.0
 10
230.5631018665258
 20
207.6501371581936
 30
0.0
 10
230.5938092751921
 20
209.3082827598939
 30
0.0
 10
230.6064154110501
 20
209.7615461767765
 30
0.0
 10
230.6067952517532
 20
209.7612440378386
 30
0.0
  0
ARC
  5
45FB
330
A
100
AcDbEntity
  8
MODEL
100
AcDbCircle
 10
205.4490218814871
 20
179.3449656092918
 30
0.0
 40
35.8392865165635
100
AcDbArc
 50
40.01412026629988
 51
45.60058786379998
  0
LINE
  5
45FC
330
A
100
AcDbEntity
  8
MODEL
100
AcDbLine
 10
215.3730136419871
 20
210.2448754341918
 30
0.0
 11
208.1403734937871
 21
199.0996168168918
 31
0.0
  0
LINE
  5
45FD
330
A
100
AcDbEntity
  8
MODEL
100
AcDbLine
 10
215.3730136419871
 20
171.9543581995918
 30
0.0
 11
208.1403734937871
 21
183.0996168168918
 31
0.0
  0
LINE
  5
45FE
330
A
100
AcDbEntity
  8
MODEL
100
AcDbLine
 10
199.851633495587
 20
198.7051994963918
 30
0.0
 11
199.851633495587
 21
183.4940341373918
 31
0.0
  0
ARC
  5
45FF
330
A
100
AcDbEntity
  8
MODEL
100
AcDbCircle
 10
180.269881044687
 20
214.8734995047918
 30
0.0
 40
35.40648948270385
100
AcDbArc
 50
352.4867750598
 51
353.8784993479998
  0
ARC
  5
4600
330
A
100
AcDbEntity
  8
MODEL
100
AcDbCircle
 10
211.629718684087
 20
160.9321962246918
 30
0.0
 40
50.31277275664189
100
AcDbArc
 50
77.43786754989983
 51
85.61734126200005
  0
ARC
  5
4601
330
A
100
AcDbEntity
  8
MODEL
100
AcDbCircle
 10
214.4687205095869
 20
188.6760930982918
 30
0.0
 40
22.86185252293375
100
AcDbArc
 50
45.38960154979969
 51
69.03074568749976
  0
SPLINE
  5
4602
330
A
100
AcDbEntity
  8
MODEL
100
AcDbSpline
210
0.0
220
0.0
230
1.0
 70
     8
 71
     3
 72
    14
 73
    10
 74
     0
 42
0.000000001
 43
0.0000000001
 40
0.0
 40
0.0
 40
0.0
 40
0.0
 40
0.25
 40
0.25
 40
0.5
 40
0.5
 40
0.75
 40
0.75
 40
1.0
 40
1.0
 40
1.0
 40
1.0
 10
223.3872053639004
 20
210.0411946419425
 30
0.0
 10
224.2658321983903
 20
210.2327405500529
 30
0.0
 10
225.0246625225279
 20
210.4443408751753
 30
0.0
 10
226.3907842239341
 20
210.7238065254979
 30
0.0
 10
227.0106826754449
 20
210.7964578647407
 30
0.0
 10
228.1860495982289
 20
210.769109359886
 30
0.0
 10
228.7416501419668
 20
210.668865139899
 30
0.0
 10
229.6885006852041
 20
210.3697843705683
 30
0.0
 10
230.0884869445139
 20
210.1688775030291
 30
0.0
 10
230.3171281298677
 20
209.9899377922297
 30
0.0
  0
LINE
  5
4603
330
A
100
AcDbEntity
  8
MODEL
100
AcDbLine
 10
199.851633495587
 20
198.7051994963918
 30
0.0
 11
199.9537164856869
 21
199.4805946191918
 31
0.0
  0
SPLINE
  5
4604
330
A
100
AcDbEntity
  8
MODEL
100
AcDbSpline
210
0.0
220
0.0
230
1.0
 70
     8
 71
     3
 72
    17
 73
    13
 74
     0
 42
0.000000001
 43
0.0000000001
 40
0.0
 40
0.0
 40
0.0
 40
0.0
 40
0.0561365517852737
 40
0.1165130167685113
 40
0.1812265940977128
 40
0.2501999119001176
 40
0.3701545472629869
 40
0.4996296189800093
 40
0.622382367934318
 40
0.7489514940013823
 40
0.8719100351401485
 40
1.0
 40
1.0
 40
1.0
 40
1.0
 10
200.3523057421948
 20
199.6560574149961
 30
0.0
 10
200.3905129905974
 20
199.7358533524682
 30
0.0
 10
200.4698132260457
 20
199.9014721000608
 30
0.0
 10
200.6622899756177
 20
200.0820515665604
 30
0.0
 10
200.9258442028387
 20
200.2225647425034
 30
0.0
 10
201.3538939096877
 20
200.3348881877119
 30
0.0
 10
202.0291278459569
 20
200.37197121074
 30
0.0
 10
203.0045494027901
 20
200.2893088148054
 30
0.0
 10
204.154341893155
 20
200.1018518209398
 30
0.0
 10
205.4032024047039
 20
199.8352007563061
 30
0.0
 10
206.7506555777933
 20
199.4984719394023
 30
0.0
 10
207.6708645074913
 20
199.2343679509859
 30
0.0
 10
208.1403734937041
 20
199.0996168171596
 30
0.0
  0
LINE
  5
4605
330
A
100
AcDbEntity
  8
MODEL
100
AcDbLine
 10
199.851633495587
 20
183.4940341373918
 30
0.0
 11
199.9537164856869
 21
182.7186390145918
 31
0.0
  0
SPLINE
  5
4606
330
A
100
AcDbEntity
  8
MODEL
100
AcDbSpline
210
0.0
220
0.0
230
1.0
 70
     8
 71
     3
 72
    14
 73
    10
 74
     0
 42
0.000000001
 43
0.0000000001
 40
0.0
 40
0.0
 40
0.0
 40
0.0
 40
0.25
 40
0.25
 40
0.5
 40
0.5
 40
0.75
 40
0.75
 40
1.0
 40
1.0
 40
1.0
 40
1.0
 10
200.3523057421948
 20
182.5431762187909
 30
0.0
 10
200.5184701095552
 20
182.1172136508018
 30
0.0
 10
200.8754869527285
 20
181.9521005520879
 30
0.0
 10
201.8411790219715
 20
181.8127801936097
 30
0.0
 10
202.4582018417208
 20
181.8489972693631
 30
0.0
 10
203.860990934078
 20
182.0390241252504
 30
0.0
 10
204.6520234166596
 20
182.195406702793
 30
0.0
 10
206.3346716277267
 20
182.5904399643096
 30
0.0
 10
207.2465054387537
 20
182.8355797196798
 30
0.0
 10
208.1403734937045
 20
183.0996168166278
 30
0.0
  0
ARC
  5
4607
330
A
100
AcDbEntity
  8
MODEL
100
AcDbCircle
 10
202.461819920187
 20
241.5645723604918
 30
0.0
 40
31.96375693720399
100
AcDbArc
 50
282.3542893927999
 51
287.5859348980998
  0
SPLINE
  5
4608
330
A
100
AcDbEntity
  8
MODEL
100
AcDbSpline
210
0.0
220
0.0
230
1.0
 70
     8
 71
     3
 72
    14
 73
    10
 74
     0
 42
0.000000001
 43
0.0000000001
 40
0.0
 40
0.0
 40
0.0
 40
0.0
 40
0.25
 40
0.25
 40
0.5
 40
0.5
 40
0.75
 40
0.75
 40
1.0
 40
1.0
 40
1.0
 40
1.0
 10
203.065026928951
 20
210.5144621082673
 30
0.0
 10
203.1821540688622
 20
210.7771926271616
 30
0.0
 10
203.4421832506752
 20
211.0936450215892
 30
0.0
 10
204.1426735545376
 20
211.5552816665818
 30
0.0
 10
204.5901688248227
 20
211.6796824844913
 30
0.0
 10
205.5392327190099
 20
211.5350261920389
 30
0.0
 10
206.0601239538007
 20
211.2953248809757
 30
0.0
 10
207.2403649880256
 20
210.7900789764902
 30
0.0
 10
207.8982787651045
 20
210.5217302218456
 30
0.0
 10
208.6718490141015
 20
210.3420497740096
 30
0.0
  0
LINE
  5
4609
330
A
100
AcDbEntity
  8
MODEL
100
AcDbLine
 10
202.779040674487
 20
210.0248175047918
 30
0.0
 11
199.9537164856869
 21
199.4805946191918
 31
0.0
  0
SPLINE
  5
460A
330
A
100
AcDbEntity
  8
MODEL
100
AcDbSpline
210
0.0
220
0.0
230
1.0
 70
     8
 71
     3
 72
    19
 73
    15
 74
     0
 42
0.000000001
 43
0.0000000001
 40
0.0
 40
0.0
 40
0.0
 40
0.0
 40
0.0577293580877787
 40
0.1257578378175792
 40
0.1882258229629183
 40
0.2505327431827824
 40
0.3756891655718115
 40
0.5002494011462059
 40
0.6250644742071915
 40
0.6879643410978258
 40
0.750511054927486
 40
0.8748289132727199
 40
0.9407698569509232
 40
1.0
 40
1.0
 40
1.0
 40
1.0
 10
203.065026928951
 20
171.6847715255198
 30
0.0
 10
203.0967426624185
 20
171.6219091705609
 30
0.0
 10
203.1658323283663
 20
171.4849695942081
 30
0.0
 10
203.3316480012303
 20
171.269482571964
 30
0.0
 10
203.5446879751689
 20
171.055505621006
 30
0.0
 10
203.8736934801106
 20
170.803084384502
 30
0.0
 10
204.3705367272796
 20
170.5696108456923
 30
0.0
 10
205.0589738300852
 20
170.5496343329901
 30
0.0
 10
205.681658545187
 20
170.7476398311061
 30
0.0
 10
206.2202651263087
 20
170.9706759564125
 30
0.0
 10
206.7903114505881
 20
171.2184581791586
 30
0.0
 10
207.4263875020956
 20
171.4820219107191
 30
0.0
 10
208.1185420853582
 20
171.7165369402962
 30
0.0
 10
208.494125424193
 20
171.8120077122538
 30
0.0
 10
208.6718490141015
 20
171.8571838597774
 30
0.0
  0
ARC
  5
460B
330
A
100
AcDbEntity
  8
MODEL
100
AcDbCircle
 10
202.5824461551871
 20
141.0857878782918
 30
0.0
 40
31.49727543802624
100
AcDbArc
 50
72.37529575300007
 51
77.68447801850006
  0
LINE
  5
460C
330
A
100
AcDbEntity
  8
MODEL
100
AcDbLine
 10
202.779040674487
 20
172.1744161289918
 30
0.0
 11
199.9537164856869
 21
182.7186390145918
 31
0.0
  0
ARC
  5
460D
330
A
100
AcDbEntity
  8
MODEL
100
AcDbCircle
 10
211.627411406187
 20
221.2825268112918
 30
0.0
 40
50.32839319488836
100
AcDbArc
 50
274.38393023
 51
282.5608609582001
  0
ARC
  5
460E
330
A
100
AcDbEntity
  8
MODEL
100
AcDbCircle
 10
251.043271652187
 20
175.7867027856918
 30
0.0
 40
35.87605014297361
100
AcDbArc
 50
186.1306088242
 51
187.5041167681
  0
ARC
  5
460F
330
A
100
AcDbEntity
  8
MODEL
100
AcDbCircle
 10
214.4791394700871
 20
193.5067795032918
 30
0.0
 40
22.84288853970875
100
AcDbArc
 50
290.9599738683997
 51
314.6206117629999
  0
LINE
  5
4610
330
A
100
AcDbEntity
  8
MODEL
100
AcDbLine
 10
230.6067952517871
 20
172.4379895959918
 30
0.0
 11
230.3172103808872
 21
172.2093603209918
 31
0.0
  0
SPLINE
  5
4611
330
A
100
AcDbEntity
  8
MODEL
100
AcDbSpline
210
0.0
220
0.0
230
1.0
 70
     8
 71
     3
 72
    10
 73
     6
 74
     0
 42
0.000000001
 43
0.0000000001
 40
0.0
 40
0.0
 40
0.0
 40
0.0
 40
0.5
 40
0.5
 40
1.0
 40
1.0
 40
1.0
 40
1.0
 10
230.5241934849002
 20
177.2478189430885
 30
0.0
 10
230.5454165970188
 20
175.7535999682879
 30
0.0
 10
230.5648584638204
 20
174.5503092488409
 30
0.0
 10
230.5939255424902
 20
172.8910731126002
 30
0.0
 10
230.6035839239821
 20
172.4354351904992
 30
0.0
 10
230.6067952517532
 20
172.4379895959485
 30
0.0
  0
SPLINE
  5
4612
330
A
100
AcDbEntity
  8
MODEL
100
AcDbSpline
210
0.0
220
0.0
230
1.0
 70
     8
 71
     3
 72
    12
 73
     8
 74
     0
 42
0.000000001
 43
0.0000000001
 40
0.0
 40
0.0
 40
0.0
 40
0.0
 40
0.2499999999999981
 40
0.2499999999999981
 40
0.4999999999999962
 40
0.4999999999999962
 40
1.0
 40
1.0
 40
1.0
 40
1.0
 10
202.1163982203395
 20
211.2354107498655
 30
0.0
 10
202.2385606767386
 20
211.1968162075173
 30
0.0
 10
202.350945474584
 20
211.1357388180248
 30
0.0
 10
202.5476259894294
 20
210.9741412278847
 30
0.0
 10
202.6298755145623
 20
210.8746995094326
 30
0.0
 10
202.8123731872005
 20
210.5412664420591
 30
0.0
 10
202.8453559857343
 20
210.2723088990953
 30
0.0
 10
202.7790406744629
 20
210.024817504819
 30
0.0
  0
SPLINE
  5
4613
330
A
100
AcDbEntity
  8
MODEL
100
AcDbSpline
210
0.0
220
0.0
230
1.0
 70
     8
 71
     3
 72
    18
 73
    14
 74
     0
 42
0.000000001
 43
0.0000000001
 40
0.0
 40
0.0
 40
0.0
 40
0.0
 40
0.1249999999999991
 40
0.1249999999999991
 40
0.2499999999999981
 40
0.2499999999999981
 40
0.5
 40
0.5
 40
0.6250000000000009
 40
0.6250000000000009
 40
0.7500000000000019
 40
0.7500000000000019
 40
1.0
 40
1.0
 40
1.0
 40
1.0
 10
230.3171281298677
 20
209.9899377922297
 30
0.0
 10
230.2552239113017
 20
210.0384775545248
 30
0.0
 10
230.199920216929
 20
210.0927423701258
 30
0.0
 10
230.1017221366218
 20
210.2125544374475
 30
0.0
 10
230.0585596690143
 20
210.2789314841387
 30
0.0
 10
229.9542769965248
 20
210.4867158503072
 30
0.0
 10
229.9158120909155
 20
210.6419601584496
 30
0.0
 10
229.9131063431057
 20
210.8740650091979
 30
0.0
 10
229.9213770824171
 20
210.952892274029
 30
0.0
 10
229.9557797876529
 20
211.1041007892295
 30
0.0
 10
229.9816640451324
 20
211.1770607362208
 30
0.0
 10
230.0866392509885
 20
211.3876197442822
 30
0.0
 10
230.1892134666845
 20
211.508318779258
 30
0.0
 10
230.3165181731151
 20
211.6003044983664
 30
0.0
  0
ARC
  5
4614
330
A
100
AcDbEntity
  8
MODEL
100
AcDbCircle
 10
232.558857735087
 20
210.6451653984918
 30
0.0
 40
17.09037144765468
100
AcDbArc
 50
175.6047584468
 51
178.4821866970001
  0
ARC
  5
4615
330
A
100
AcDbEntity
  8
MODEL
100
AcDbCircle
 10
213.8140853971869
 20
193.0522245121918
 30
0.0
 40
18.12185268754699
100
AcDbArc
 50
84.74295652569992
 51
95.36649739359954
  0
SPLINE
  5
4616
330
A
100
AcDbEntity
  8
MODEL
100
AcDbSpline
210
0.0
220
0.0
230
1.0
 70
     8
 71
     3
 72
    12
 73
     8
 74
     0
 42
0.000000001
 43
0.0000000001
 40
0.0
 40
0.0
 40
0.0
 40
0.0
 40
0.2499999999999981
 40
0.2499999999999981
 40
0.4999999999999962
 40
0.4999999999999962
 40
1.0
 40
1.0
 40
1.0
 40
1.0
 10
202.1163982203386
 20
170.9638228839214
 30
0.0
 10
202.2385606767386
 20
171.0024174262698
 30
0.0
 10
202.350945474584
 20
171.0634948157622
 30
0.0
 10
202.5476259894294
 20
171.2250924059023
 30
0.0
 10
202.6298755145623
 20
171.3245341243545
 30
0.0
 10
202.8123731872005
 20
171.657967191728
 30
0.0
 10
202.8453559857343
 20
171.9269247346918
 30
0.0
 10
202.7790406744629
 20
172.1744161289681
 30
0.0
  0
SPLINE
  5
4617
330
A
100
AcDbEntity
  8
MODEL
100
AcDbSpline
210
0.0
220
0.0
230
1.0
 70
     8
 71
     3
 72
    18
 73
    14
 74
     0
 42
0.000000001
 43
0.0000000001
 40
0.0
 40
0.0
 40
0.0
 40
0.0
 40
0.1249999999999992
 40
0.1249999999999992
 40
0.2499999999999984
 40
0.2499999999999984
 40
0.5000000000000007
 40
0.5000000000000007
 40
0.6250000000000018
 40
0.6250000000000018
 40
0.7500000000000029
 40
0.7500000000000029
 40
1.0
 40
1.0
 40
1.0
 40
1.0
 10
230.3171281298677
 20
172.2092958415573
 30
0.0
 10
230.2552239113017
 20
172.1607560792622
 30
0.0
 10
230.199920216929
 20
172.1064912636613
 30
0.0
 10
230.1017221366218
 20
171.9866791963396
 30
0.0
 10
230.0585596690143
 20
171.9203021496484
 30
0.0
 10
229.9542769965248
 20
171.7125177834799
 30
0.0
 10
229.9158120909155
 20
171.5572734753374
 30
0.0
 10
229.9131063431057
 20
171.3251686245892
 30
0.0
 10
229.9213770824171
 20
171.246341359758
 30
0.0
 10
229.9557797876529
 20
171.0951328445576
 30
0.0
 10
229.9816640451324
 20
171.0221728975663
 30
0.0
 10
230.0866392509885
 20
170.8116138895048
 30
0.0
 10
230.1892134666845
 20
170.690914854529
 30
0.0
 10
230.3165181731151
 20
170.5989291354207
 30
0.0
  0
ARC
  5
4618
330
A
100
AcDbEntity
  8
MODEL
100
AcDbCircle
 10
231.7208676415871
 20
171.5107885726918
 30
0.0
 40
16.2515426482804
100
AcDbArc
 50
181.4435367516001
 51
184.4695181046
  0
ARC
  5
4619
330
A
100
AcDbEntity
  8
MODEL
100
AcDbCircle
 10
213.8130187197871
 20
188.0304609760918
 30
0.0
 40
17.0104128978517
100
AcDbArc
 50
264.2853400831997
 51
275.6052069982002
  0
LINE
  5
461A
330
A
100
AcDbEntity
  8
MODEL
100
AcDbLine
 10
223.8190669452869
 20
213.1743763826918
 30
0.0
 11
223.8190669452869
 21
222.6890582525918
 31
0.0
  0
LINE
  5
461B
330
A
100
AcDbEntity
  8
MODEL
100
AcDbLine
 10
208.7502251844871
 20
213.1743801303918
 30
0.0
 11
208.7502251844871
 21
222.6890574963918
 31
0.0
  0
ARC
  5
461C
330
A
100
AcDbEntity
  8
MODEL
100
AcDbCircle
 10
227.3821886430871
 20
230.6985746080918
 30
0.0
 40
17.88279827954504
100
AcDbArc
 50
258.5068886724996
 51
282.3569152291
  0
SPLINE
  5
461D
330
A
100
AcDbEntity
  8
MODEL
100
AcDbSpline
210
0.0
220
0.0
230
1.0
 70
     8
 71
     3
 72
    14
 73
    10
 74
     0
 42
0.000000001
 43
0.0000000001
 40
0.0
 40
0.0
 40
0.0
 40
0.0
 40
0.2500000000000001
 40
0.2500000000000001
 40
0.5000000000000001
 40
0.5000000000000001
 40
0.7500000000000001
 40
0.7500000000000001
 40
1.0
 40
1.0
 40
1.0
 40
1.0
 10
222.9530135967677
 20
213.1743499392959
 30
0.0
 10
221.7705291630145
 20
213.0634064654409
 30
0.0
 10
220.5878269683271
 20
212.9723112025916
 30
0.0
 10
218.2218395090353
 20
212.8471705464819
 30
0.0
 10
217.0385491868698
 20
212.8136200050367
 30
0.0
 10
214.6712839851249
 20
212.813498730376
 30
0.0
 10
213.4873090497587
 20
212.8469334555532
 30
0.0
 10
211.1187637534887
 20
212.9720616983668
 30
0.0
 10
209.9330894046774
 20
213.0633731640359
 30
0.0
 10
208.7501980351862
 20
213.1743551332314
 30
0.0
  0
ARC
  5
461E
330
A
100
AcDbEntity
  8
MODEL
100
AcDbCircle
 10
204.3217570987871
 20
230.7941696622918
 30
0.0
 40
17.97633634767789
100
AcDbArc
 50
257.7060842433999
 51
281.4301095853999
  0
SPLINE
  5
461F
330
A
100
AcDbEntity
  8
MODEL
100
AcDbSpline
210
0.0
220
0.0
230
1.0
 70
     8
 71
     3
 72
    14
 73
    10
 74
     0
 42
0.000000001
 43
0.0000000001
 40
0.0
 40
0.0
 40
0.0
 40
0.0
 40
0.25
 40
0.25
 40
0.5
 40
0.5
 40
0.75
 40
0.75
 40
1.0
 40
1.0
 40
1.0
 40
1.0
 10
230.3165181731151
 20
211.6003044983664
 30
0.0
 10
230.4468235810156
 20
211.6944584144746
 30
0.0
 10
230.5663344283102
 20
211.8001262026297
 30
0.0
 10
230.7823006123048
 20
212.036053627432
 30
0.0
 10
230.8796392224207
 20
212.1683650431091
 30
0.0
 10
231.037739656183
 20
212.4468494424104
 30
0.0
 10
231.0998914588467
 20
212.593795710099
 30
0.0
 10
231.1861577611161
 20
212.9050296342579
 30
0.0
 10
231.2091224461794
 20
213.0671340490015
 30
0.0
 10
231.2091224461794
 20
213.2300585871989
 30
0.0
  0
SPLINE
  5
4620
330
A
100
AcDbEntity
  8
MODEL
100
AcDbSpline
210
0.0
220
0.0
230
1.0
 70
     8
 71
     3
 72
    10
 73
     6
 74
     0
 42
0.000000001
 43
0.0000000001
 40
0.0
 40
0.0
 40
0.0
 40
0.0
 40
0.5
 40
0.5
 40
1.0
 40
1.0
 40
1.0
 40
1.0
 10
200.494116335104
 20
213.2300632327085
 30
0.0
 10
200.494116335104
 20
212.7672584136977
 30
0.0
 10
200.680777706111
 20
212.3230304619047
 30
0.0
 10
201.2777065127988
 20
211.6254075035108
 30
0.0
 10
201.6767787198393
 20
211.3742988659858
 30
0.0
 10
202.1163982203395
 20
211.2354107498655
 30
0.0
  0
LINE
  5
4621
330
A
100
AcDbEntity
  8
MODEL
100
AcDbLine
 10
223.8190669452869
 20
169.0248572510918
 30
0.0
 11
223.8190669452869
 21
159.5101753811918
 31
0.0
  0
LINE
  5
4622
330
A
100
AcDbEntity
  8
MODEL
100
AcDbLine
 10
208.7502251844871
 20
169.0248535033918
 30
0.0
 11
208.7502251844871
 21
159.5101761373918
 31
0.0
  0
ARC
  5
4623
330
A
100
AcDbEntity
  8
MODEL
100
AcDbCircle
 10
227.381445582587
 20
151.4020870492918
 30
0.0
 40
17.97925723931221
100
AcDbArc
 50
77.70799497739974
 51
101.428201121
  0
SPLINE
  5
4624
330
A
100
AcDbEntity
  8
MODEL
100
AcDbSpline
210
0.0
220
0.0
230
1.0
 70
     8
 71
     2
 72
    12
 73
     9
 74
     0
 42
0.000000001
 43
0.0000000001
 40
0.0
 40
0.0
 40
0.0
 40
0.2308705522898774
 40
0.2308705522898774
 40
0.4999963756084133
 40
0.4999963756084133
 40
0.7691221989269492
 40
0.7691221989269492
 40
1.0
 40
1.0
 40
1.0
 10
222.9530135967677
 20
169.0248836944911
 30
0.0
 10
221.2267004776758
 20
169.18668350764
 30
0.0
 10
219.6909844649235
 20
169.2738072500994
 30
0.0
 10
217.7193636142967
 20
169.3856606043596
 30
0.0
 10
215.8516051340732
 20
169.3856743501706
 30
0.0
 10
213.9848223034841
 20
169.3856880888012
 30
0.0
 10
212.0122258846822
 20
169.2738040370844
 30
0.0
 10
210.4769423740851
 20
169.1867240150067
 30
0.0
 10
208.7501980351862
 20
169.0248785005557
 30
0.0
  0
ARC
  5
4625
330
A
100
AcDbEntity
  8
MODEL
100
AcDbCircle
 10
204.3217790261871
 20
151.4021551607918
 30
0.0
 40
17.97918313302017
100
AcDbArc
 50
78.57179591639992
 51
102.2920102549
  0
SPLINE
  5
4626
330
A
100
AcDbEntity
  8
MODEL
100
AcDbSpline
210
0.0
220
0.0
230
1.0
 70
     8
 71
     3
 72
    14
 73
    10
 74
     0
 42
0.000000001
 43
0.0000000001
 40
0.0
 40
0.0
 40
0.0
 40
0.0
 40
0.25
 40
0.25
 40
0.5
 40
0.5
 40
0.75
 40
0.75
 40
1.0
 40
1.0
 40
1.0
 40
1.0
 10
230.3165181731151
 20
170.5989291354207
 30
0.0
 10
230.4468235810156
 20
170.5047752193124
 30
0.0
 10
230.5663344283102
 20
170.3991074311574
 30
0.0
 10
230.7823006123048
 20
170.163180006355
 30
0.0
 10
230.8796392224207
 20
170.030868590678
 30
0.0
 10
231.037739656183
 20
169.7523841913766
 30
0.0
 10
231.0998914588467
 20
169.6054379236881
 30
0.0
 10
231.1861577611161
 20
169.2942039995291
 30
0.0
 10
231.2091224461794
 20
169.1320995847856
 30
0.0
 10
231.2091224461794
 20
168.9691750465881
 30
0.0
  0
SPLINE
  5
4627
330
A
100
AcDbEntity
  8
MODEL
100
AcDbSpline
210
0.0
220
0.0
230
1.0
 70
     8
 71
     3
 72
    10
 73
     6
 74
     0
 42
0.000000001
 43
0.0000000001
 40
0.0
 40
0.0
 40
0.0
 40
0.0
 40
0.5
 40
0.5
 40
1.0
 40
1.0
 40
1.0
 40
1.0
 10
200.494116335104
 20
168.9691704010786
 30
0.0
 10
200.494116335104
 20
169.4319752200893
 30
0.0
 10
200.680777706111
 20
169.8762031718823
 30
0.0
 10
201.2777065127988
 20
170.5738261302763
 30
0.0
 10
201.6767787198393
 20
170.8249347678013
 30
0.0
 10
202.1163982203386
 20
170.9638228839214
 30
0.0
  0
ARC
  5
4628
330
A
100
AcDbEntity
  8
MODEL
100
AcDbCircle
 10
205.7051568720871
 20
202.6592186299918
 30
0.0
 40
35.52075185626634
100
AcDbArc
 50
314.3243472813998
 51
319.9670293852996
  0
ARC
  5
4629
330
A
100
AcDbEntity
  8
MODEL
100
AcDbCircle
 10
225.4987589325871
 20
194.6320474929918
 30
0.0
 40
0.0984251531106246
100
AcDbArc
 50
359.9896634541945
 51
90.0
  0
SPLINE
  5
462A
330
A
100
AcDbEntity
  8
MODEL
100
AcDbSpline
210
0.0
220
0.0
230
1.0
 70
     8
 71
     3
 72
    16
 73
    12
 74
     0
 42
0.000000001
 43
0.0000000001
 40
0.0
 40
0.0
 40
0.0
 40
0.0
 40
0.141511008422583
 40
0.1920922507772815
 40
0.2841510090263215
 40
0.4133355899818805
 40
0.544342456726362
 40
0.668372419031841
 40
0.759380110445097
 40
0.8580732775334621
 40
1.0
 40
1.0
 40
1.0
 40
1.0
 10
222.8662342537115
 20
194.6320344008999
 30
0.0
 10
222.8662849864656
 20
194.260742437109
 30
0.0
 10
222.8672137953751
 20
193.8364823445537
 30
0.0
 10
222.8919002749155
 20
193.1689994176295
 30
0.0
 10
223.077773772992
 20
192.611146144396
 30
0.0
 10
223.6651905842706
 20
192.0917538488283
 30
0.0
 10
224.516886013592
 20
192.0161285668071
 30
0.0
 10
225.186090050721
 20
192.3850811095316
 30
0.0
 10
225.5449644048248
 20
192.9595027054364
 30
0.0
 10
225.5955267664098
 20
193.7327440975187
 30
0.0
 10
225.5971172014044
 20
194.261908069973
 30
0.0
 10
225.597184084054
 20
194.6320297364636
 30
0.0
  0
ARC
  5
462B
330
A
100
AcDbEntity
  8
MODEL
100
AcDbCircle
 10
222.9646590493871
 20
194.6320478494918
 30
0.0
 40
0.0984247966212093
100
AcDbArc
 50
90.0
 51
180.0078288083082
  0
LINE
  5
462C
330
A
100
AcDbEntity
  8
MODEL
100
AcDbLine
 10
225.4987589325871
 20
194.7304726460918
 30
0.0
 11
222.9646590493871
 21
194.7304726460918
 31
0.0
  0
ARC
  5
462D
330
A
100
AcDbEntity
  8
MODEL
100
AcDbCircle
 10
222.293275260687
 20
195.3797645920918
 30
0.0
 40
0.6397692952103129
100
AcDbArc
 50
90.0
 51
180.0
  0
LINE
  5
462E
330
A
100
AcDbEntity
  8
MODEL
100
AcDbLine
 10
221.653505965487
 20
195.3797645920918
 30
0.0
 11
221.653505965487
 21
193.9680849977918
 31
0.0
  0
SPLINE
  5
462F
330
A
100
AcDbEntity
  8
MODEL
100
AcDbSpline
210
0.0
220
0.0
230
1.0
 70
     8
 71
     3
 72
    33
 73
    29
 74
     0
 42
0.000000001
 43
0.0000000001
 40
0.0
 40
0.0
 40
0.0
 40
0.0
 40
0.0271010577083423
 40
0.0475933627485001
 40
0.1055525777426376
 40
0.1244047119227962
 40
0.181571990374535
 40
0.198834801296985
 40
0.261547653773547
 40
0.2771384288634365
 40
0.3392491045007465
 40
0.353215390285563
 40
0.435680698659524
 40
0.4476309076283225
 40
0.542758857591583
 40
0.552470404059693
 40
0.639550421071876
 40
0.647238364914508
 40
0.712183517980366
 40
0.718352935617658
 40
0.785195472695883
 40
0.789838443420437
 40
0.92412913919351
 40
0.925867450439667
 40
0.999844658573712
 40
0.999844658573712
 40
0.999844658573712
 40
1.0
 40
1.0
 40
1.0
 40
1.0
 10
221.6535059654906
 20
193.9680849977981
 30
0.0
 10
221.6531092449761
 20
193.8703264971213
 30
0.0
 10
221.6532345217367
 20
193.7135258487029
 30
0.0
 10
221.6579678184982
 20
193.3838711655875
 30
0.0
 10
221.6705424045608
 20
193.0616963431482
 30
0.0
 10
221.7174176032744
 20
192.6188132376305
 30
0.0
 10
221.7745684188409
 20
192.3166420532089
 30
0.0
 10
221.9193676101845
 20
191.8915982203481
 30
0.0
 10
222.0715392467711
 20
191.6121219980915
 30
0.0
 10
222.3585184256601
 20
191.247757081551
 30
0.0
 10
222.5852696293361
 20
191.0434368765343
 30
0.0
 10
223.0269510365262
 20
190.7657771928524
 30
0.0
 10
223.3684368033823
 20
190.6452599775697
 30
0.0
 10
223.9842362806546
 20
190.5307288620691
 30
0.0
 10
224.3716872293907
 20
190.5251382328603
 30
0.0
 10
224.998060233514
 20
190.619144456558
 30
0.0
 10
225.332673584015
 20
190.7221164201137
 30
0.0
 10
225.7908939013177
 20
190.9785844030697
 30
0.0
 10
225.9953684218803
 20
191.1433048744717
 30
0.0
 10
226.3008543886821
 20
191.4797777720235
 30
0.0
 10
226.441633023453
 20
191.6960222706256
 30
0.0
 10
226.7179623880722
 20
192.3158090019839
 30
0.0
 10
226.7769042420738
 20
192.799525907113
 30
0.0
 10
226.8121461493365
 20
193.4692120887906
 30
0.0
 10
226.8146225254902
 20
193.6997716075837
 30
0.0
 10
226.8097815223325
 20
193.9664047769559
 30
0.0
 10
226.8097713569268
 20
193.9669646680071
 30
0.0
 10
226.8097611595064
 20
193.9675247414613
 30
0.0
 10
226.809750930095
 20
193.968084997798
 30
0.0
  0
LINE
  5
4630
330
A
100
AcDbEntity
  8
MODEL
100
AcDbLine
 10
226.8097509300871
 20
193.9680849977918
 30
0.0
 11
226.8097509300871
 21
195.3797646778918
 31
0.0
  0
ARC
  5
4631
330
A
100
AcDbEntity
  8
MODEL
100
AcDbCircle
 10
226.169981720687
 20
195.3797646778918
 30
0.0
 40
0.6397692093761052
100
AcDbArc
 50
0.0
 51
90.0
  0
LINE
  5
4632
330
A
100
AcDbEntity
  8
MODEL
100
AcDbLine
 10
226.169981720687
 20
196.0195338872918
 30
0.0
 11
222.293275260687
 21
196.0195338872918
 31
0.0
  0
LINE
  5
4633
330
A
100
AcDbEntity
  8
MODEL
100
AcDbLine
 10
218.179243116187
 20
188.2720072105918
 30
0.0
 11
216.601633502687
 21
189.8496168239918
 31
0.0
  0
LINE
  5
4634
330
A
100
AcDbEntity
  8
MODEL
100
AcDbLine
 10
216.601633502687
 20
189.8496168239918
 30
0.0
 11
216.601633502687
 21
194.9118981829918
 31
0.0
  0
LINE
  5
4635
330
A
100
AcDbEntity
  8
MODEL
100
AcDbLine
 10
216.601633502687
 20
194.9118981829918
 30
0.0
 11
217.4809532685871
 21
194.9118981829918
 31
0.0
  0
ARC
  5
4636
330
A
100
AcDbEntity
  8
MODEL
100
AcDbCircle
 10
217.4809532685871
 20
195.5004764390918
 30
0.0
 40
0.5885782561375337
100
AcDbArc
 50
270.0
 51
325.8954461373904
  0
ARC
  5
4637
330
A
100
AcDbEntity
  8
MODEL
100
AcDbCircle
 10
217.4794257383871
 20
195.4987281106918
 30
0.0
 40
0.5888672869420922
100
AcDbArc
 50
326.1196353019013
 51
21.99999999999944
  0
LINE
  5
4638
330
A
100
AcDbEntity
  8
MODEL
100
AcDbLine
 10
218.0254139792871
 20
195.7193216789918
 30
0.0
 11
216.3970995500869
 21
199.7495413159918
 31
0.0
  0
ARC
  5
4639
330
A
100
AcDbEntity
  8
MODEL
100
AcDbCircle
 10
215.8474251759871
 20
199.5326952039918
 30
0.0
 40
0.5909011370505466
100
AcDbArc
 50
21.5291956603058
 51
89.5938290492007
  0
ARC
  5
463A
330
A
100
AcDbEntity
  8
MODEL
100
AcDbCircle
 10
215.855910731987
 20
199.5325938316918
 30
0.0
 40
0.5910032807138315
100
AcDbArc
 50
90.41655242339856
 51
158.4641133997949
  0
LINE
  5
463B
330
A
100
AcDbEntity
  8
MODEL
100
AcDbLine
 10
215.306166671987
 20
199.7495416279918
 30
0.0
 11
213.6778525822871
 21
195.7193228311918
 31
0.0
  0
ARC
  5
463C
330
A
100
AcDbEntity
  8
MODEL
100
AcDbCircle
 10
214.2238408231871
 20
195.4987292628918
 30
0.0
 40
0.5888672869415661
100
AcDbArc
 50
157.9999999999994
 51
213.8804806534027
  0
ARC
  5
463D
330
A
100
AcDbEntity
  8
MODEL
100
AcDbCircle
 10
214.2223130515869
 20
195.5004779394918
 30
0.0
 40
0.5885782561075933
100
AcDbArc
 50
214.1047111144932
 51
270.0
  0
LINE
  5
463E
330
A
100
AcDbEntity
  8
MODEL
100
AcDbLine
 10
214.2223130515869
 20
194.9118996833918
 30
0.0
 11
215.1016335014871
 21
194.9118996833918
 31
0.0
  0
LINE
  5
463F
330
A
100
AcDbEntity
  8
MODEL
100
AcDbLine
 10
215.1016335014871
 20
194.9118996833918
 30
0.0
 11
215.1016335014871
 21
189.8496168109918
 31
0.0
  0
LINE
  5
4640
330
A
100
AcDbEntity
  8
MODEL
100
AcDbLine
 10
215.1016335014871
 20
189.8496168109918
 30
0.0
 11
213.523967776487
 21
188.2719510860918
 31
0.0
  0
ARC
  5
4641
330
A
100
AcDbEntity
  8
MODEL
100
AcDbCircle
 10
213.940234196787
 20
187.8556846657918
 30
0.0
 40
0.5886896170537271
100
AcDbArc
 50
134.9999999999922
 51
157.3121882691961
  0
ARC
  5
4642
330
A
100
AcDbEntity
  8
MODEL
100
AcDbCircle
 10
213.9407097588871
 20
187.8558199945918
 30
0.0
 40
0.5890762632847694
100
AcDbArc
 50
157.3421733306991
 51
180.0
  0
LINE
  5
4643
330
A
100
AcDbEntity
  8
MODEL
100
AcDbLine
 10
213.351633495587
 20
187.8558199945918
 30
0.0
 11
213.351633495587
 21
182.5199082051918
 31
0.0
  0
ARC
  5
4644
330
A
100
AcDbEntity
  8
MODEL
100
AcDbCircle
 10
213.942287300787
 20
182.5152957161918
 30
0.0
 40
0.5906718147361746
100
AcDbArc
 50
179.5525792230024
 51
247.1163700911164
  0
ARC
  5
4645
330
A
100
AcDbEntity
  8
MODEL
100
AcDbCircle
 10
213.9350612880871
 20
182.5180819327918
 30
0.0
 40
0.5904795737960687
100
AcDbArc
 50
247.8674969349922
 51
315.4598752734915
  0
LINE
  5
4646
330
A
100
AcDbEntity
  8
MODEL
100
AcDbLine
 10
214.3559311674871
 20
182.1039144887918
 30
0.0
 11
215.851633495587
 21
183.5996168168918
 31
0.0
  0
LINE
  5
4647
330
A
100
AcDbEntity
  8
MODEL
100
AcDbLine
 10
215.851633495587
 20
183.5996168168918
 30
0.0
 11
217.3473358235871
 21
182.1039144887918
 31
0.0
  0
ARC
  5
4648
330
A
100
AcDbEntity
  8
MODEL
100
AcDbCircle
 10
217.7682526569872
 20
182.5183082775918
 30
0.0
 40
0.5906718147462834
100
AcDbArc
 50
224.552579223706
 51
292.1163700862911
  0
ARC
  5
4649
330
A
100
AcDbEntity
  8
MODEL
100
AcDbCircle
 10
217.7611729415871
 20
182.5151688676918
 30
0.0
 40
0.590479573794472
100
AcDbArc
 50
292.8674969306998
 51
0.459875273603055
  0
LINE
  5
464A
330
A
100
AcDbEntity
  8
MODEL
100
AcDbLine
 10
218.351633495587
 20
182.5199082051918
 30
0.0
 11
218.351633495587
 21
187.8558993516918
 31
0.0
  0
ARC
  5
464B
330
A
100
AcDbEntity
  8
MODEL
100
AcDbCircle
 10
217.762943878487
 20
187.8558993516918
 30
0.0
 40
0.5886896170546819
100
AcDbArc
 50
0.0
 51
22.3121882438959
  0
ARC
  5
464C
330
A
100
AcDbEntity
  8
MODEL
100
AcDbCircle
 10
217.762703295687
 20
187.8554673900918
 30
0.0
 40
0.5890762633249461
100
AcDbArc
 50
22.34217293329693
 51
44.99999999999023
  0
ARC
  5
464D
330
A
100
AcDbEntity
  8
MODEL
100
AcDbCircle
 10
224.750744151787
 20
188.6593970319918
 30
0.0
 40
0.0984251968504019
100
AcDbArc
 50
90.0
 51
179.9999980810954
  0
LINE
  5
464E
330
A
100
AcDbEntity
  8
MODEL
100
AcDbLine
 10
225.6461046054871
 20
188.7578222287918
 30
0.0
 11
224.750744151787
 21
188.7578222287918
 31
0.0
  0
ARC
  5
464F
330
A
100
AcDbEntity
  8
MODEL
100
AcDbCircle
 10
225.6461046054871
 20
188.6593970319918
 30
0.0
 40
0.0984251968503882
100
AcDbArc
 50
359.9999940734022
 51
90.0
  0
LINE
  5
4650
330
A
100
AcDbEntity
  8
MODEL
100
AcDbLine
 10
225.7445297059871
 20
187.7270914673918
 30
0.0
 11
225.7445298023869
 21
188.6593970217918
 31
0.0
  0
SPLINE
  5
4651
330
A
100
AcDbEntity
  8
MODEL
100
AcDbSpline
210
0.0
220
0.0
230
1.0
 70
     8
 71
     3
 72
    23
 73
    19
 74
     0
 42
0.000000001
 43
0.0000000001
 40
0.0
 40
0.0
 40
0.0
 40
0.0
 40
0.092398192999856
 40
0.0924640690707342
 40
0.238480572747953
 40
0.238650599483362
 40
0.460146339871655
 40
0.460474405085007
 40
0.589746629526249
 40
0.590167094359008
 40
0.6999843549917301
 40
0.700483414740477
 40
0.8923161321318971
 40
0.8929523164430581
 40
0.9992875495147431
 40
0.9992875495147431
 40
0.9992875495147431
 40
1.0
 40
1.0
 40
1.0
 40
1.0
 10
224.6523189282372
 20
187.862336382031
 30
0.0
 10
224.6523824447397
 20
187.7760942417795
 30
0.0
 10
224.6545302179097
 20
187.7039628699341
 30
0.0
 10
224.6671293614208
 20
187.5159282787027
 30
0.0
 10
224.6816972190022
 20
187.3986526845326
 30
0.0
 10
224.7840423998547
 20
187.1257719319754
 30
0.0
 10
224.9060545238237
 20
186.9811427285651
 30
0.0
 10
225.1468942547082
 20
186.9057895934409
 30
0.0
 10
225.246426241598
 20
186.9111103874403
 30
0.0
 10
225.4135102831833
 20
186.9677428741437
 30
0.0
 10
225.4843248253491
 20
187.0123125469322
 30
0.0
 10
225.6386429161991
 20
187.1762653042815
 30
0.0
 10
225.6937748651782
 20
187.3280814298165
 30
0.0
 10
225.7360259837855
 20
187.5562916926979
 30
0.0
 10
225.7425884097872
 20
187.6365706487449
 30
0.0
 10
225.7444920632647
 20
187.7253066562525
 30
0.0
 10
225.7445048178224
 20
187.7259011911944
 30
0.0
 10
225.7445173649969
 20
187.7264961272104
 30
0.0
 10
225.7445297059441
 20
187.7270914674099
 30
0.0
  0
LINE
  5
4652
330
A
100
AcDbEntity
  8
MODEL
100
AcDbLine
 10
224.652318954887
 20
188.6593970352918
 30
0.0
 11
224.652318928287
 21
187.8623363819918
 31
0.0
  0
ARC
  5
4653
330
A
100
AcDbEntity
  8
MODEL
100
AcDbCircle
 10
222.2932697449871
 20
189.3975855539918
 30
0.0
 40
0.6397637795275516
100
AcDbArc
 50
179.5733160096011
 51
270.0
  0
LINE
  5
4654
330
A
100
AcDbEntity
  8
MODEL
100
AcDbLine
 10
222.2932697449871
 20
188.7578217744918
 30
0.0
 11
223.4889992226871
 21
188.7578217744918
 31
0.0
  0
ARC
  5
4655
330
A
100
AcDbEntity
  8
MODEL
100
AcDbCircle
 10
223.4889992226871
 20
188.6593922131918
 30
0.0
 40
0.0984295613349413
100
AcDbArc
 50
359.461553918704
 51
90.0
  0
SPLINE
  5
4656
330
A
100
AcDbEntity
  8
MODEL
100
AcDbSpline
210
0.0
220
0.0
230
1.0
 70
     8
 71
     3
 72
    20
 73
    16
 74
     0
 42
0.000000001
 43
0.0000000001
 40
0.0
 40
0.0
 40
0.0
 40
0.0
 40
0.1197166564759233
 40
0.2395147714188278
 40
0.3646891284243638
 40
0.4959541046169471
 40
0.5644469112191609
 40
0.6344595340948006
 40
0.7672851626895844
 40
0.7974211491955324
 40
0.8261286084876474
 40
0.8816231806739643
 40
0.9386749888781608
 40
0.9687015113854645
 40
1.0
 40
1.0
 40
1.0
 40
1.0
 10
223.5874244376634
 20
188.6584672195212
 30
0.0
 10
223.5867807884596
 20
188.5899788289289
 30
0.0
 10
223.5854884760699
 20
188.4529555160758
 30
0.0
 10
223.5796704178055
 20
188.2443802094175
 30
0.0
 10
223.5649730212448
 20
188.0295002071356
 30
0.0
 10
223.5361801088788
 20
187.8455038545852
 30
0.0
 10
223.4991655073142
 20
187.6955000181925
 30
0.0
 10
223.4521485740215
 20
187.5477548154576
 30
0.0
 10
223.3959760058166
 20
187.4245029202703
 30
0.0
 10
223.3279589333717
 20
187.3381940022442
 30
0.0
 10
223.2812589726236
 20
187.2921349061527
 30
0.0
 10
223.2133104728745
 20
187.2470158032257
 30
0.0
 10
223.1380905570495
 20
187.2149473105117
 30
0.0
 10
223.0743167071484
 20
187.1921740579548
 30
0.0
 10
223.0410501742785
 20
187.1810217520804
 30
0.0
 10
223.0240719107412
 20
187.1753299419682
 30
0.0
  0
LINE
  5
4657
330
A
100
AcDbEntity
  8
MODEL
100
AcDbLine
 10
223.0240719107871
 20
187.1753299419918
 30
0.0
 11
222.089823038787
 21
186.8619695208918
 31
0.0
  0
ARC
  5
4658
330
A
100
AcDbEntity
  8
MODEL
100
AcDbCircle
 10
222.2932697449871
 20
186.2554160349918
 30
0.0
 40
0.6397637795276564
100
AcDbArc
 50
108.5421887239914
 51
178.3494402212011
  0
ARC
  5
4659
330
A
100
AcDbEntity
  8
MODEL
100
AcDbCircle
 10
222.2932697451872
 20
186.2922711815918
 30
0.0
 40
0.6397637795276242
100
AcDbArc
 50
181.6505593545976
 51
279.6032851476855
  0
LINE
  5
465A
330
A
100
AcDbEntity
  8
MODEL
100
AcDbLine
 10
222.399998516887
 20
185.6614727487918
 30
0.0
 11
223.175630536087
 21
185.7927068298918
 31
0.0
  0
ARC
  5
465B
330
A
100
AcDbEntity
  8
MODEL
100
AcDbCircle
 10
223.0689317707869
 20
186.4233279156918
 30
0.0
 40
0.6395839118897594
100
AcDbArc
 50
279.6032851477191
 51
300.2574452817115
  0
SPLINE
  5
465C
330
A
100
AcDbEntity
  8
MODEL
100
AcDbSpline
210
0.0
220
0.0
230
1.0
 70
     8
 71
     3
 72
    13
 73
     9
 74
     0
 42
0.000000001
 43
0.0000000001
 40
0.0
 40
0.0
 40
0.0
 40
0.0
 40
0.1455455796303835
 40
0.281846562498652
 40
0.4974033071830778
 40
0.7536167077972298
 40
0.8781295929096155
 40
1.0
 40
1.0
 40
1.0
 40
1.0
 10
223.3912092928114
 20
185.8708744976313
 30
0.0
 10
223.4153860992232
 20
185.8852582121864
 30
0.0
 10
223.4622040774588
 20
185.9131120330555
 30
0.0
 10
223.542541368414
 20
185.9659593922126
 30
0.0
 10
223.6376159267463
 20
186.0351391997309
 30
0.0
 10
223.7241419167739
 20
186.1118567046985
 30
0.0
 10
223.7873102074317
 20
186.186107855977
 30
0.0
 10
223.8119112493479
 20
186.2269600673149
 30
0.0
 10
223.824079222837
 20
186.2471674548679
 30
0.0
  0
ARC
  5
465D
330
A
100
AcDbEntity
  8
MODEL
100
AcDbCircle
 10
223.909713651587
 20
186.1986460361918
 30
0.0
 40
0.0984255223637005
100
AcDbArc
 50
30.30994930116766
 51
150.4636272756052
  0
SPLINE
  5
465E
330
A
100
AcDbEntity
  8
MODEL
100
AcDbSpline
210
0.0
220
0.0
230
1.0
 70
     8
 71
     3
 72
    28
 73
    24
 74
     0
 42
0.000000001
 43
0.0000000001
 40
0.0
 40
0.0
 40
0.0
 40
0.0
 40
0.032571770715603
 40
0.063991642868641
 40
0.1243096290848876
 40
0.1542429662217457
 40
0.1847550736897217
 40
0.2474549648811719
 40
0.2791914796088367
 40
0.3107847434139953
 40
0.3735813427328146
 40
0.4363117654703799
 40
0.4992418953815492
 40
0.5618819096344413
 40
0.6245301905484394
 40
0.6874342798608971
 40
0.7188960501634816
 40
0.7503622312027323
 40
0.7818420906427418
 40
0.8132062101163511
 40
0.8746467097150187
 40
0.935253294624417
 40
1.0
 40
1.0
 40
1.0
 40
1.0
 10
223.994685185268
 20
186.2483191870059
 30
0.0
 10
224.0214885698574
 20
186.2040423548806
 30
0.0
 10
224.0741474390751
 20
186.1170545379314
 30
0.0
 10
224.1907024150714
 20
185.9575523333035
 30
0.0
 10
224.3263679404051
 20
185.8171564008464
 30
0.0
 10
224.4855255084626
 20
185.7089660422122
 30
0.0
 10
224.6618020352172
 20
185.6230051374205
 30
0.0
 10
224.8543667578373
 20
185.5686042941183
 30
0.0
 10
225.0525133516568
 20
185.5395222188193
 30
0.0
 10
225.2526158781399
 20
185.5265230953471
 30
0.0
 10
225.5029819903756
 20
185.5413164726662
 30
0.0
 10
225.7958627230113
 20
185.6096651232417
 30
0.0
 10
226.0723838229111
 20
185.7278071434546
 30
0.0
 10
226.3205477001183
 20
185.8990930633612
 30
0.0
 10
226.5200980234439
 20
186.1254010451598
 30
0.0
 10
226.6401596318541
 20
186.3464240202221
 30
0.0
 10
226.705929417468
 20
186.5354572946157
 30
0.0
 10
226.7413409231905
 20
186.6813576813395
 30
0.0
 10
226.7658042446043
 20
186.8292317513456
 30
0.0
 10
226.7870551966845
 20
187.0255462082756
 30
0.0
 10
226.8009035289192
 20
187.2688784706015
 30
0.0
 10
226.811554869982
 20
187.5654013110807
 30
0.0
 10
226.8103653391799
 20
187.7645099375262
 30
0.0
 10
226.809750930095
 20
187.8673522924808
 30
0.0
  0
LINE
  5
465F
330
A
100
AcDbEntity
  8
MODEL
100
AcDbLine
 10
226.8097509300871
 20
187.8673522924918
 30
0.0
 11
226.8097509300871
 21
189.4071142605918
 31
0.0
  0
ARC
  5
4660
330
A
100
AcDbEntity
  8
MODEL
100
AcDbCircle
 10
226.169981720687
 20
189.4071142605918
 30
0.0
 40
0.6397692094127772
100
AcDbArc
 50
0.0
 51
90.0
  0
LINE
  5
4661
330
A
100
AcDbEntity
  8
MODEL
100
AcDbLine
 10
226.169981720687
 20
190.0468834699918
 30
0.0
 11
222.293275260687
 21
190.0468834699918
 31
0.0
  0
ARC
  5
4662
330
A
100
AcDbEntity
  8
MODEL
100
AcDbCircle
 10
222.293275260687
 20
189.4071141747918
 30
0.0
 40
0.639769295211267
100
AcDbArc
 50
90.0
 51
180.4266816790982
  0
LINE
  5
4663
330
A
100
AcDbEntity
  8
MODEL
100
AcDbLine
 10
213.4420311533869
 20
158.5996168168918
 30
0.0
 11
218.2612358377871
 21
158.5996168168918
 31
0.0
  0
LINE
  5
4664
330
A
100
AcDbEntity
  8
MODEL
100
AcDbLine
 10
203.143246110887
 20
158.5996168168918
 30
0.0
 11
205.5527742096871
 21
158.5996168168918
 31
0.0
  0
LINE
  5
4665
330
A
100
AcDbEntity
  8
MODEL
100
AcDbLine
 10
226.150345631687
 20
158.5996168168918
 30
0.0
 11
228.5600831767871
 21
158.5996168168918
 31
0.0
  0
LINE
  5
4666
330
A
100
AcDbEntity
  8
MODEL
100
AcDbLine
 10
207.8841997806871
 20
159.5101761373918
 30
0.0
 11
207.8841997806871
 21
169.0248489672918
 31
0.0
  0
LINE
  5
4667
330
A
100
AcDbEntity
  8
MODEL
100
AcDbLine
 10
222.953040746087
 20
159.5101758489918
 30
0.0
 11
222.953040746087
 21
169.0248528761918
 31
0.0
  0
LINE
  5
4668
330
A
100
AcDbEntity
  8
MODEL
100
AcDbLine
 10
231.2091224461871
 20
159.6720385625918
 30
0.0
 11
231.2091224461871
 21
168.9691750465918
 31
0.0
  0
LINE
  5
4669
330
A
100
AcDbEntity
  8
MODEL
100
AcDbLine
 10
200.494116335087
 20
159.6720548494918
 30
0.0
 11
200.494116335087
 21
168.9691704010918
 31
0.0
  0
ARC
  5
466A
330
A
100
AcDbEntity
  8
MODEL
100
AcDbCircle
 10
228.793787629487
 20
168.5867660105918
 30
0.0
 40
10.35047551264705
100
AcDbArc
 50
241.2736226395006
 51
247.9241284582005
  0
LINE
  5
466B
330
A
100
AcDbEntity
  8
MODEL
100
AcDbLine
 10
206.799707608387
 20
158.9951949811918
 30
0.0
 11
207.8841997806871
 21
159.5101761373918
 31
0.0
  0
ARC
  5
466C
330
A
100
AcDbEntity
  8
MODEL
100
AcDbCircle
 10
225.761994699487
 20
168.9925357395918
 30
0.0
 40
10.79550222621428
100
AcDbArc
 50
292.1689018141993
 51
300.3030653626001
  0
ARC
  5
466D
330
A
100
AcDbEntity
  8
MODEL
100
AcDbCircle
 10
205.9610513953871
 20
169.0317015572918
 30
0.0
 40
10.83929727652136
100
AcDbArc
 50
239.7109572424002
 51
247.8111667765001
  0
LINE
  5
466E
330
A
100
AcDbEntity
  8
MODEL
100
AcDbLine
 10
218.2612358377871
 20
158.5996168168918
 30
0.0
 11
226.150345631687
 21
158.5996168168918
 31
0.0
  0
LINE
  5
466F
330
A
100
AcDbEntity
  8
MODEL
100
AcDbLine
 10
228.5600831767871
 20
158.5996168168918
 30
0.0
 11
229.351633495587
 21
158.5996168168918
 31
0.0
  0
LINE
  5
4670
330
A
100
AcDbEntity
  8
MODEL
100
AcDbLine
 10
203.143246110887
 20
158.5996168168918
 30
0.0
 11
202.351633495587
 21
158.5996168168918
 31
0.0
  0
LINE
  5
4671
330
A
100
AcDbEntity
  8
MODEL
100
AcDbLine
 10
205.5527742096871
 20
158.5996168168918
 30
0.0
 11
213.4420311533869
 21
158.5996168168918
 31
0.0
  0
ARC
  5
4672
330
A
100
AcDbEntity
  8
MODEL
100
AcDbCircle
 10
227.9123531642871
 20
166.3159375162918
 30
0.0
 40
7.914940030104468
100
AcDbArc
 50
247.6588867888985
 51
257.1371569387001
  0
ARC
  5
4673
330
A
100
AcDbEntity
  8
MODEL
100
AcDbCircle
 10
223.3860531845871
 20
158.2861525255918
 30
0.0
 40
1.298357758081153
100
AcDbArc
 50
70.51811459899656
 51
109.4818235076009
  0
LINE
  5
4674
330
A
100
AcDbEntity
  8
MODEL
100
AcDbLine
 10
222.953040746087
 20
159.5101758489918
 30
0.0
 11
220.7833605744869
 21
158.9950550864918
 31
0.0
  0
ARC
  5
4675
330
A
100
AcDbEntity
  8
MODEL
100
AcDbCircle
 10
215.1474834245871
 20
186.6970237432918
 30
0.0
 40
28.26941333098321
100
AcDbArc
 50
276.3237107128999
 51
281.4997040112999
  0
ARC
  5
4676
330
A
100
AcDbEntity
  8
MODEL
100
AcDbCircle
 10
216.5559328408871
 20
186.6982119418918
 30
0.0
 40
28.27061074186151
100
AcDbArc
 50
258.5004804932998
 51
263.6762538379999
  0
SPLINE
  5
4677
330
A
100
AcDbEntity
  8
MODEL
100
AcDbSpline
210
0.0
220
0.0
230
1.0
 70
     8
 71
     3
 72
     8
 73
     4
 74
     0
 42
0.000000001
 43
0.0000000001
 40
0.0
 40
0.0
 40
0.0
 40
0.0
 40
1.0
 40
1.0
 40
1.0
 40
1.0
 10
210.9199118959661
 20
158.9950947954994
 30
0.0
 10
210.189487119888
 20
159.1416719593753
 30
0.0
 10
209.4656138499542
 20
159.315636954224
 30
0.0
 10
208.7502251845157
 20
159.510176137369
 30
0.0
  0
ARC
  5
4678
330
A
100
AcDbEntity
  8
MODEL
100
AcDbCircle
 10
208.3172124825871
 20
158.2846366721918
 30
0.0
 40
1.299787282830536
100
AcDbArc
 50
70.5404548319019
 51
109.4595451680026
  0
ARC
  5
4679
330
A
100
AcDbEntity
  8
MODEL
100
AcDbCircle
 10
203.7904342111871
 20
166.3176976027918
 30
0.0
 40
7.916729961770917
100
AcDbArc
 50
282.8623530672996
 51
292.3393025563997
  0
ARC
  5
467A
330
A
100
AcDbEntity
  8
MODEL
100
AcDbCircle
 10
204.8076969400869
 20
166.2240203966918
 30
0.0
 40
7.803968638526055
100
AcDbArc
 50
247.866906923101
 51
257.6852084904006
  0
ARC
  5
467B
330
A
100
AcDbEntity
  8
MODEL
100
AcDbCircle
 10
226.8973022734871
 20
166.2169809299918
 30
0.0
 40
7.796734980965396
100
AcDbArc
 50
282.3138354019986
 51
292.1390830117996
  0
LINE
  5
467C
330
A
100
AcDbEntity
  8
MODEL
100
AcDbLine
 10
218.2612358377871
 20
223.5996168168918
 30
0.0
 11
213.4420311533869
 21
223.5996168168918
 31
0.0
  0
LINE
  5
467D
330
A
100
AcDbEntity
  8
MODEL
100
AcDbLine
 10
228.5600831767871
 20
223.5996168168918
 30
0.0
 11
226.150345631687
 21
223.5996168168918
 31
0.0
  0
LINE
  5
467E
330
A
100
AcDbEntity
  8
MODEL
100
AcDbLine
 10
205.5527742096871
 20
223.5996168168918
 30
0.0
 11
203.143246110887
 21
223.5996168168918
 31
0.0
  0
LINE
  5
467F
330
A
100
AcDbEntity
  8
MODEL
100
AcDbLine
 10
207.8841997806871
 20
222.6890574963918
 30
0.0
 11
207.8841997806871
 21
213.1743846664918
 31
0.0
  0
LINE
  5
4680
330
A
100
AcDbEntity
  8
MODEL
100
AcDbLine
 10
222.953040746087
 20
222.6890577847918
 30
0.0
 11
222.953040746087
 21
213.1743807575918
 31
0.0
  0
LINE
  5
4681
330
A
100
AcDbEntity
  8
MODEL
100
AcDbLine
 10
231.2091224461871
 20
222.5271950711918
 30
0.0
 11
231.2091224461871
 21
213.2300585871918
 31
0.0
  0
LINE
  5
4682
330
A
100
AcDbEntity
  8
MODEL
100
AcDbLine
 10
200.494116335087
 20
222.5271787842918
 30
0.0
 11
200.494116335087
 21
213.2300632326918
 31
0.0
  0
LINE
  5
4683
330
A
100
AcDbEntity
  8
MODEL
100
AcDbLine
 10
218.2612358377871
 20
223.5996168168918
 30
0.0
 11
226.150345631687
 21
223.5996168168918
 31
0.0
  0
ARC
  5
4684
330
A
100
AcDbEntity
  8
MODEL
100
AcDbCircle
 10
227.9123531668872
 20
215.8832961076918
 30
0.0
 40
7.914940040304494
100
AcDbArc
 50
102.8628430637012
 51
112.3411132037
  0
ARC
  5
4685
330
A
100
AcDbEntity
  8
MODEL
100
AcDbCircle
 10
223.3860531845871
 20
223.9130811081918
 30
0.0
 40
1.298357758081153
100
AcDbArc
 50
250.5181764923991
 51
289.4818854010035
  0
LINE
  5
4686
330
A
100
AcDbEntity
  8
MODEL
100
AcDbLine
 10
222.953040746087
 20
222.6890577847918
 30
0.0
 11
220.7833605744869
 21
223.2041785472918
 31
0.0
  0
ARC
  5
4687
330
A
100
AcDbEntity
  8
MODEL
100
AcDbCircle
 10
215.147483424487
 20
195.5022098904918
 30
0.0
 40
28.26941333103007
100
AcDbArc
 50
78.50029598869968
 51
83.67628928709995
  0
ARC
  5
4688
330
A
100
AcDbEntity
  8
MODEL
100
AcDbCircle
 10
203.7904342111871
 20
215.8815360309918
 30
0.0
 40
7.91672996174854
100
AcDbArc
 50
67.66069744360135
 51
77.1376469327006
  0
LINE
  5
4689
330
A
100
AcDbEntity
  8
MODEL
100
AcDbLine
 10
205.5527742096871
 20
223.5996168168918
 30
0.0
 11
213.4420311533869
 21
223.5996168168918
 31
0.0
  0
ARC
  5
468A
330
A
100
AcDbEntity
  8
MODEL
100
AcDbCircle
 10
216.5559328409869
 20
195.5010216914918
 30
0.0
 40
28.2706107423201
100
AcDbArc
 50
96.323746162
 51
101.4995195066996
  0
SPLINE
  5
468B
330
A
100
AcDbEntity
  8
MODEL
100
AcDbSpline
210
0.0
220
0.0
230
1.0
 70
     8
 71
     3
 72
     8
 73
     4
 74
     0
 42
0.000000001
 43
0.0000000001
 40
0.0
 40
0.0
 40
0.0
 40
0.0
 40
1.0
 40
1.0
 40
1.0
 40
1.0
 10
210.9199118959565
 20
223.2041388382868
 30
0.0
 10
210.1894871201741
 20
223.0575616744804
 30
0.0
 10
209.4656138500945
 20
222.8835966796012
 30
0.0
 10
208.7502251845157
 20
222.689057496418
 30
0.0
  0
ARC
  5
468C
330
A
100
AcDbEntity
  8
MODEL
100
AcDbCircle
 10
208.3172124825871
 20
223.9145969615918
 30
0.0
 40
1.299787282830535
100
AcDbArc
 50
250.5404548319974
 51
289.4595451680981
  0
ARC
  5
468D
330
A
100
AcDbEntity
  8
MODEL
100
AcDbCircle
 10
226.8973022734871
 20
215.9822527038918
 30
0.0
 40
7.796734980943358
100
AcDbArc
 50
67.8609169882013
 51
77.6861645980002
  0
LINE
  5
468E
330
A
100
AcDbEntity
  8
MODEL
100
AcDbLine
 10
229.351633495587
 20
223.5996168168918
 30
0.0
 11
228.5600831767871
 21
223.5996168168918
 31
0.0
  0
LINE
  5
468F
330
A
100
AcDbEntity
  8
MODEL
100
AcDbLine
 10
202.351633495587
 20
223.5996168168918
 30
0.0
 11
203.143246110887
 21
223.5996168168918
 31
0.0
  0
ARC
  5
4690
330
A
100
AcDbEntity
  8
MODEL
100
AcDbCircle
 10
204.8076969423871
 20
215.9752132279918
 30
0.0
 40
7.803968647818806
100
AcDbArc
 50
102.3147915120004
 51
112.1330930700002
  0
ARC
  5
4691
330
A
100
AcDbEntity
  8
MODEL
100
AcDbCircle
 10
225.761994699487
 20
213.2066978941918
 30
0.0
 40
10.79550222619058
100
AcDbArc
 50
59.69693463740047
 51
67.83109818580006
  0
ARC
  5
4692
330
A
100
AcDbEntity
  8
MODEL
100
AcDbCircle
 10
205.961051402387
 20
213.1675320634918
 30
0.0
 40
10.83929729123551
100
AcDbArc
 50
112.1888332337
 51
120.2890427552002
  0
LINE
  5
4693
330
A
100
AcDbEntity
  8
MODEL
100
AcDbLine
 10
206.799707608387
 20
223.2040386525918
 30
0.0
 11
207.8841997806871
 21
222.6890574963918
 31
0.0
  0
ARC
  5
4694
330
A
100
AcDbEntity
  8
MODEL
100
AcDbCircle
 10
228.793787639287
 20
213.6124676041918
 30
0.0
 40
10.35047553412337
100
AcDbArc
 50
112.0758715545993
 51
118.7263773576
  0
ARC
  5
4695
330
A
100
AcDbEntity
  8
MODEL
100
AcDbCircle
 10
3116.429657710888
 20
3838.381924515491
 30
0.0
 40
4636.255130628837
100
AcDbArc
 50
231.5049553057
 51
231.540698722
  0
ARC
  5
4696
330
A
100
AcDbEntity
  8
MODEL
100
AcDbCircle
 10
3116.688638625487
 20
-3456.508789437009
 30
0.0
 40
4636.671557454253
100
AcDbArc
 50
128.4593010655
 51
128.4950411783
  0
LINE
  5
4697
330
A
100
AcDbEntity
  8
MODEL
100
AcDbLine
 10
229.351633495587
 20
158.5996168168918
 30
0.0
 11
231.2091474461872
 21
159.6720529962918
 31
0.0
  0
LINE
  5
4698
330
A
100
AcDbEntity
  8
MODEL
100
AcDbLine
 10
200.4940913350869
 20
159.6720692832918
 30
0.0
 11
202.351633495587
 21
158.5996168168918
 31
0.0
  0
LINE
  5
4699
330
A
100
AcDbEntity
  8
MODEL
100
AcDbLine
 10
231.2091474461872
 20
222.5271806374918
 30
0.0
 11
229.351633495587
 21
223.5996168168918
 31
0.0
  0
LINE
  5
469A
330
A
100
AcDbEntity
  8
MODEL
100
AcDbLine
 10
202.351633495587
 20
223.5996168168918
 30
0.0
 11
200.4940913350869
 21
222.5271643504918
 31
0.0
  0
POLYLINE
  5
469B
330
A
100
AcDbEntity
  8
MODEL
100
AcDb2dPolyline
 66
     1
 10
0.0
 20
0.0
 30
0.0
  0
VERTEX
  5
469C
330
469B
100
AcDbEntity
  8
MODEL
100
AcDbVertex
100
AcDb2dVertex
 10
232.8710306167406
 20
207.9622965365005
 30
0.0
  0
VERTEX
  5
469D
330
469B
100
AcDbEntity
  8
MODEL
100
AcDbVertex
100
AcDb2dVertex
 10
240.3259698966257
 20
203.702331233709
 30
0.0
  0
VERTEX
  5
469E
330
469B
100
AcDbEntity
  8
MODEL
100
AcDbVertex
100
AcDb2dVertex
 10
248.8459005022088
 20
203.702331233709
 30
0.0
  0
VERTEX
  5
469F
330
469B
100
AcDbEntity
  8
MODEL
100
AcDbVertex
100
AcDb2dVertex
 10
248.8459005022088
 20
177.9650408626768
 30
0.0
  0
VERTEX
  5
46A0
330
469B
100
AcDbEntity
  8
MODEL
100
AcDbVertex
100
AcDb2dVertex
 10
240.1484713423428
 20
177.9650408626768
 30
0.0
  0
VERTEX
  5
46A1
330
469B
100
AcDbEntity
  8
MODEL
100
AcDbVertex
100
AcDb2dVertex
 10
232.8710306167406
 20
174.2375712227342
 30
0.0
  0
SEQEND
  5
46A2
330
469B
100
AcDbEntity
  8
MODEL
  0
SPLINE
  5
46A3
330
A
100
AcDbEntity
  8
MODEL
100
AcDbSpline
210
0.0
220
0.0
230
1.0
 70
     8
 71
     3
 72
    14
 73
    10
 74
     0
 42
0.000000001
 43
0.0000000001
 40
0.0
 40
0.0
 40
0.0
 40
0.0
 40
1.0
 40
1.0
 40
1.0
 40
2.0
 40
2.0
 40
2.0
 40
2.5088729212657
 40
2.5088729212657
 40
2.5088729212657
 40
2.5088729212657
 10
253.2833643592834
 20
201.8385964137377
 30
0.0
 10
253.2833643592834
 20
201.8385964137377
 30
0.0
 10
253.2833643592834
 20
202.8148384622941
 30
0.0
 10
253.2833643592834
 20
202.8148384622941
 30
0.0
 10
253.2833643592834
 20
202.8148384622941
 30
0.0
 10
257.0995832763676
 20
202.8148384622941
 30
0.0
 10
257.0995832763676
 20
202.8148384622941
 30
0.0
 10
257.0995832763676
 20
202.8148384622941
 30
0.0
 10
257.0995832763676
 20
196.7706324915514
 30
0.0
 10
257.0995832763674
 20
190.8336860481929
 30
0.0
  0
POLYLINE
  5
46A4
330
A
100
AcDbEntity
  8
MODEL
100
AcDb2dPolyline
 66
     1
 10
0.0
 20
0.0
 30
0.0
  0
VERTEX
  5
46A5
330
46A4
100
AcDbEntity
  8
MODEL
100
AcDbVertex
100
AcDb2dVertex
 10
248.8459005022088
 20
203.1698355708601
 30
0.0
  0
VERTEX
  5
46A6
330
46A4
100
AcDbEntity
  8
MODEL
100
AcDbVertex
100
AcDb2dVertex
 10
251.7746266478779
 20
203.1698355708601
 30
0.0
  0
VERTEX
  5
46A7
330
46A4
100
AcDbEntity
  8
MODEL
100
AcDbVertex
100
AcDb2dVertex
 10
251.7746266478779
 20
190.8336860481929
 30
0.0
  0
SEQEND
  5
46A8
330
46A4
100
AcDbEntity
  8
MODEL
  0
POLYLINE
  5
46A9
330
A
100
AcDbEntity
  8
MODEL
100
AcDb2dPolyline
 66
     1
 10
0.0
 20
0.0
 30
0.0
  0
VERTEX
  5
46AA
330
46A9
100
AcDbEntity
  8
MODEL
100
AcDbVertex
100
AcDb2dVertex
 10
251.7746266478779
 20
201.8385964137377
 30
0.0
  0
VERTEX
  5
46AB
330
46A9
100
AcDbEntity
  8
MODEL
100
AcDbVertex
100
AcDb2dVertex
 10
253.2833643592834
 20
201.8385964137377
 30
0.0
  0
VERTEX
  5
46AC
330
46A9
100
AcDbEntity
  8
MODEL
100
AcDbVertex
100
AcDb2dVertex
 10
253.2833643592834
 20
190.8336860481929
 30
0.0
  0
SEQEND
  5
46AD
330
46A9
100
AcDbEntity
  8
MODEL
  0
SPLINE
  5
46AE
330
A
100
AcDbEntity
  8
MODEL
100
AcDbSpline
210
0.0
220
0.0
230
1.0
 70
     8
 71
     3
 72
    14
 73
    10
 74
     0
 42
0.000000001
 43
0.0000000001
 40
0.0
 40
0.0
 40
0.0
 40
0.0
 40
1.0
 40
1.0
 40
1.0
 40
2.0
 40
2.0
 40
2.0
 40
2.5088729212657
 40
2.5088729212657
 40
2.5088729212657
 40
2.5088729212657
 10
253.2833643592834
 20
179.8287756826481
 30
0.0
 10
253.2833643592834
 20
179.8287756826481
 30
0.0
 10
253.2833643592834
 20
178.8525336340917
 30
0.0
 10
253.2833643592834
 20
178.8525336340917
 30
0.0
 10
253.2833643592834
 20
178.8525336340917
 30
0.0
 10
257.0995832763676
 20
178.8525336340917
 30
0.0
 10
257.0995832763676
 20
178.8525336340917
 30
0.0
 10
257.0995832763676
 20
178.8525336340917
 30
0.0
 10
257.0995832763676
 20
184.8967396048344
 30
0.0
 10
257.0995832763674
 20
190.8336860481929
 30
0.0
  0
POLYLINE
  5
46AF
330
A
100
AcDbEntity
  8
MODEL
100
AcDb2dPolyline
 66
     1
 10
0.0
 20
0.0
 30
0.0
  0
VERTEX
  5
46B0
330
46AF
100
AcDbEntity
  8
MODEL
100
AcDbVertex
100
AcDb2dVertex
 10
248.8459005022088
 20
178.4975365255258
 30
0.0
  0
VERTEX
  5
46B1
330
46AF
100
AcDbEntity
  8
MODEL
100
AcDbVertex
100
AcDb2dVertex
 10
251.7746266478779
 20
178.4975365255258
 30
0.0
  0
VERTEX
  5
46B2
330
46AF
100
AcDbEntity
  8
MODEL
100
AcDbVertex
100
AcDb2dVertex
 10
251.7746266478779
 20
190.8336860481929
 30
0.0
  0
SEQEND
  5
46B3
330
46AF
100
AcDbEntity
  8
MODEL
  0
POLYLINE
  5
46B4
330
A
100
AcDbEntity
  8
MODEL
100
AcDb2dPolyline
 66
     1
 10
0.0
 20
0.0
 30
0.0
  0
VERTEX
  5
46B5
330
46B4
100
AcDbEntity
  8
MODEL
100
AcDbVertex
100
AcDb2dVertex
 10
251.7746266478779
 20
179.8287756826481
 30
0.0
  0
VERTEX
  5
46B6
330
46B4
100
AcDbEntity
  8
MODEL
100
AcDbVertex
100
AcDb2dVertex
 10
253.2833643592834
 20
179.8287756826481
 30
0.0
  0
VERTEX
  5
46B7
330
46B4
100
AcDbEntity
  8
MODEL
100
AcDbVertex
100
AcDb2dVertex
 10
253.2833643592834
 20
190.8336860481929
 30
0.0
  0
SEQEND
  5
46B8
330
46B4
100
AcDbEntity
  8
MODEL
  0
DIMENSION
  5
46B9
330
A
100
AcDbEntity
  8
DIM
 48
0.05
100
AcDbDimension
  2
*D16
 10
179.0173384599618
 20
158.5996168168918
 30
0.0
 11
173.5173384599618
 21
191.0996168168918
 31
0.0
 70
    32
 71
     5
 42
65.0
 73
     0
 74
     0
 75
     0
  3
tfrom線あり
100
AcDbAlignedDimension
 13
202.351633495587
 23
223.5996168168918
 33
0.0
 14
202.351633495587
 24
158.5996168168918
 34
0.0
 50
90.0
100
AcDbRotatedDimension
  0
MTEXT
  5
46BA
330
A
100
AcDbEntity
  8
DIM
390
1D
100
AcDbMText
 10
253.1649214467356
 20
236.3348165296734
 30
0.0
 40
4.8865234375
 41
0.0
 46
4.8865234375
 71
     1
 72
     1
  1
{\fＭＳ ゴシック|b0|i0|c1|p0;M24x1}
  7
ＭＳ ゴシック
 73
     1
 44
0.7828267384257843
1001
ACAD
1000
ACAD_MTEXT_DEFINED_HEIGHT_BEGIN
1070
    46
1040
4.8865234375
1000
ACAD_MTEXT_DEFINED_HEIGHT_END
  0
LINE
  5
46BB
330
A
100
AcDbEntity
  8
DIM
 48
0.05
100
AcDbLine
 10
257.1734362245281
 20
193.8544823721394
 30
0.0
 11
249.6917234729139
 21
229.5908561277338
 31
0.0
  0
LINE
  5
46BC
330
A
100
AcDbEntity
  8
DIM
 48
0.05
100
AcDbLine
 10
249.6917234729139
 20
229.5908561277338
 30
0.0
 11
270.7137528290897
 21
229.5908561277338
 31
0.0
  0
DIMENSION
  5
46BD
330
A
100
AcDbEntity
  8
DIM
 48
0.05
100
AcDbDimension
  2
*D17
 10
226.351633495587
 20
236.8649814795085
 30
0.0
 11
215.851633495587
 21
236.8649814795085
 31
0.0
 70
   160
  1
G1/2"
 71
     5
 42
21.0
 73
     0
 74
     0
 75
     0
  3
tfrom線あり
100
AcDbAlignedDimension
 13
205.351633495587
 23
223.7081518922561
 33
0.0
 14
226.351633495587
 24
223.7081518922561
 34
0.0
100
AcDbRotatedDimension
  0
LINE
  5
46BE
330
A
100
AcDbEntity
  8
MODEL
  6
HIDDEN
 48
0.009
100
AcDbLine
 10
226.351633495587
 20
223.5996168168918
 30
0.0
 11
226.351633495587
 21
212.2372336205934
 31
0.0
  0
LINE
  5
46BF
330
A
100
AcDbEntity
  8
MODEL
  6
HIDDEN
 48
0.009
100
AcDbLine
 10
205.351633495587
 20
223.5996168168918
 30
0.0
 11
205.351633495587
 21
212.2372336205934
 31
0.0
  0
LINE
  5
46C0
330
A
100
AcDbEntity
  8
MODEL
  6
HIDDEN
 48
0.009
100
AcDbLine
 10
226.351633495587
 20
158.5996168168918
 30
0.0
 11
226.351633495587
 21
169.9620000131902
 31
0.0
  0
LINE
  5
46C1
330
A
100
AcDbEntity
  8
MODEL
  6
HIDDEN
 48
0.009
100
AcDbLine
 10
205.351633495587
 20
158.5996168168918
 30
0.0
 11
205.351633495587
 21
169.9620000131902
 31
0.0
  0
DIMENSION
  5
46C2
330
A
100
AcDbEntity
  8
DIM
 48
0.05
100
AcDbDimension
  2
*D18
 10
226.351633495587
 20
138.5797717242913
 30
0.0
 11
215.851633495587
 21
138.5797717242913
 31
0.0
 70
   160
  1
G1/2"
 71
     5
 42
21.0
 73
     0
 74
     0
 75
     0
 52
-90.0
  3
tfrom線あり
100
AcDbAlignedDimension
 13
205.351633495587
 23
158.4910817415275
 33
0.0
 14
226.351633495587
 24
158.4910817415275
 34
0.0
100
AcDbRotatedDimension
  0
DIMENSION
  5
46C3
102
{ACAD_XDICTIONARY
360
46C4
102
}
330
A
100
AcDbEntity
  8
DIM
 48
0.05
100
AcDbDimension
  2
*D19
 10
215.851633495587
 20
111.5038353116162
 30
0.0
 11
254.595436108977
 21
117.0038353116162
 31
0.0
 70
    32
  1
60-105
 71
     5
 42
77.48760522678003
 73
     0
 74
     0
 75
     0
  3
tfrom線あり
100
AcDbAlignedDimension
 13
293.339238722367
 23
116.8336860481928
 33
0.0
 14
215.851633495587
 24
138.5797717242913
 34
0.0
100
AcDbRotatedDimension
  0
LINE
  5
4754
330
A
100
AcDbEntity
  8
MODEL
100
AcDbLine
 10
266.0995832763674
 20
175.3336860481929
 30
0.0
 11
266.0995832763674
 21
206.3336860481929
 31
0.0
  0
LINE
  5
4756
330
A
100
AcDbEntity
  8
MODEL
100
AcDbLine
 10
284.1392387223672
 20
204.8336860481929
 30
0.0
 11
266.0995832763674
 21
204.8336860481929
 31
0.0
  0
LINE
  5
4757
330
A
100
AcDbEntity
  8
MODEL
100
AcDbLine
 10
284.1392387223672
 20
203.9136860481929
 30
0.0
 11
266.0995832763674
 21
203.9136860481929
 31
0.0
  0
LINE
  5
4758
330
A
100
AcDbEntity
  8
MODEL
100
AcDbLine
 10
284.1392387223672
 20
177.7536860481928
 30
0.0
 11
266.0995832763674
 21
177.7536860481928
 31
0.0
  0
LINE
  5
4759
330
A
100
AcDbEntity
  8
MODEL
100
AcDbLine
 10
266.0995832763674
 20
176.8336860481929
 30
0.0
 11
284.1392387223672
 21
176.8336860481929
 31
0.0
  0
LINE
  5
4855
330
A
100
AcDbEntity
  8
MODEL
100
AcDbLine
 10
76.05345380035857
 20
366.883225500836
 30
0.0
 11
107.0534538003588
 21
366.883225500836
 31
0.0
  0
LINE
  5
4856
330
A
100
AcDbEntity
  8
MODEL
100
AcDbLine
 10
76.05345380035857
 20
375.883225500836
 30
0.0
 11
107.0534538003588
 21
375.883225500836
 31
0.0
  0
LINE
  5
4857
330
A
100
AcDbEntity
  8
MODEL
100
AcDbLine
 10
76.05345380035857
 20
375.883225500836
 30
0.0
 11
76.05345380035857
 21
366.883225500836
 31
0.0
  0
LINE
  5
4858
330
A
100
AcDbEntity
  8
MODEL
100
AcDbLine
 10
107.0534538003588
 20
366.883225500836
 30
0.0
 11
107.0534538003588
 21
375.883225500836
 31
0.0
  0
LINE
  5
4859
330
A
100
AcDbEntity
  8
MODEL
100
AcDbLine
 10
105.5534538003588
 20
348.8435700548363
 30
0.0
 11
105.5534538003588
 21
366.883225500836
 31
0.0
  0
LINE
  5
485A
330
A
100
AcDbEntity
  8
MODEL
100
AcDbLine
 10
104.6334538003587
 20
348.8435700548363
 30
0.0
 11
104.6334538003587
 21
366.883225500836
 31
0.0
  0
LINE
  5
485B
330
A
100
AcDbEntity
  8
MODEL
100
AcDbLine
 10
78.47345380035841
 20
348.8435700548363
 30
0.0
 11
78.47345380035841
 21
366.883225500836
 31
0.0
  0
LINE
  5
485C
330
A
100
AcDbEntity
  8
MODEL
100
AcDbLine
 10
77.55345380035857
 20
366.883225500836
 30
0.0
 11
77.55345380035857
 21
348.8435700548363
 31
0.0
  0
ARC
  5
485D
330
A
100
AcDbEntity
  8
MODEL
100
AcDbCircle
 10
86.25345380035884
 20
419.519195495223
 30
0.0
 40
8.000000000000002
100
AcDbArc
 50
101.8041911250001
 51
179.9999999996996
  0
ARC
  5
485E
330
A
100
AcDbEntity
  8
MODEL
100
AcDbCircle
 10
86.25345380035884
 20
419.519195495223
 30
0.0
 40
8.000000000000815
100
AcDbArc
 50
93.00000000000038
 51
101.8041911250006
  0
LINE
  5
485F
330
A
100
AcDbEntity
  8
MODEL
100
AcDbLine
 10
85.83476615045885
 20
427.5082317732231
 30
0.0
 11
91.5534538003588
 21
427.8079354934231
 31
0.0
  0
LINE
  5
4860
330
A
100
AcDbEntity
  8
MODEL
100
AcDbLine
 10
97.27214145035879
 20
427.5082317732231
 30
0.0
 11
91.5534538003588
 21
427.8079354934231
 31
0.0
  0
ARC
  5
4861
330
A
100
AcDbEntity
  8
MODEL
100
AcDbCircle
 10
96.8530278054588
 20
419.515916454623
 30
0.0
 40
8.003296845704055
100
AcDbArc
 50
78.1976258308006
 51
86.99818304420012
  0
ARC
  5
4862
330
A
100
AcDbEntity
  8
MODEL
100
AcDbCircle
 10
96.85345380035875
 20
419.519195495223
 30
0.0
 40
8.000000000000009
100
AcDbArc
 50
0.0000000003004479
 51
78.19580887499986
  0
LINE
  5
4863
330
A
100
AcDbEntity
  8
MODEL
100
AcDbLine
 10
104.8534538003589
 20
418.950156116123
 30
0.0
 11
104.8534538003589
 21
419.519195495223
 31
0.0
  0
LINE
  5
4864
330
A
100
AcDbEntity
  8
MODEL
100
AcDbLine
 10
104.8534538003589
 20
404.664391311123
 30
0.0
 11
104.8534538003589
 21
398.321827532623
 31
0.0
  0
LINE
  5
4865
330
A
100
AcDbEntity
  8
MODEL
100
AcDbLine
 10
104.8534538003589
 20
398.3218028325231
 30
0.0
 11
104.8534538003589
 21
394.7875484264231
 31
0.0
  0
LINE
  5
4866
330
A
100
AcDbEntity
  8
MODEL
100
AcDbLine
 10
78.25345380035884
 20
404.664405437323
 30
0.0
 11
78.25345380035884
 21
398.3218275467231
 31
0.0
  0
LINE
  5
4867
330
A
100
AcDbEntity
  8
MODEL
100
AcDbLine
 10
78.25345380035884
 20
398.321803052523
 30
0.0
 11
78.25345380035884
 21
394.7866640605231
 31
0.0
  0
ARC
  5
4868
330
A
100
AcDbEntity
  8
MODEL
100
AcDbCircle
 10
90.39505959355898
 20
1500.659278387624
 30
0.0
 40
1103.607112601119
100
AcDbArc
 50
270.1144937849
 51
270.7035907766
  0
ARC
  5
4869
330
A
100
AcDbEntity
  8
MODEL
100
AcDbCircle
 10
91.9561966813589
 20
1387.296033360224
 30
0.0
 40
990.2433415229849
100
AcDbArc
 50
269.2595829423
 51
269.9162012427001
  0
LINE
  5
486A
330
A
100
AcDbEntity
  8
MODEL
100
AcDbLine
 10
91.5534538003588
 20
416.322146010423
 30
0.0
 11
83.64848675155878
 21
416.736427778823
 31
0.0
  0
LINE
  5
486B
330
A
100
AcDbEntity
  8
MODEL
100
AcDbLine
 10
91.5534538003588
 20
414.280508389323
 30
0.0
 11
91.5534538003588
 21
414.209503109623
 31
0.0
  0
LINE
  5
486C
330
A
100
AcDbEntity
  8
MODEL
100
AcDbLine
 10
84.09499415465876
 20
415.348816591523
 30
0.0
 11
83.3487818878587
 21
415.387923919323
 31
0.0
  0
LINE
  5
486D
330
A
100
AcDbEntity
  8
MODEL
100
AcDbLine
 10
99.01191344615876
 20
415.348816591523
 30
0.0
 11
99.75812571285877
 21
415.387923919323
 31
0.0
  0
LINE
  5
486E
330
A
100
AcDbEntity
  8
MODEL
100
AcDbLine
 10
99.45842084915881
 20
416.736427778823
 30
0.0
 11
91.5534538003588
 21
416.322146010423
 31
0.0
  0
ARC
  5
486F
330
A
100
AcDbEntity
  8
MODEL
100
AcDbCircle
 10
99.6534538003587
 20
417.3851829888231
 30
0.0
 40
2.0
100
AcDbArc
 50
273.0000000000023
 51
283.6774911304018
  0
ARC
  5
4870
330
A
100
AcDbEntity
  8
MODEL
100
AcDbCircle
 10
83.45345380035877
 20
417.3851829888231
 30
0.0
 40
2.0
100
AcDbArc
 50
256.2789813959992
 51
266.9999999999977
  0
LINE
  5
4871
330
A
100
AcDbEntity
  8
MODEL
100
AcDbLine
 10
104.8534538003589
 20
413.3036378214231
 30
0.0
 11
105.4534538003588
 21
413.3036378214231
 31
0.0
  0
LINE
  5
4872
330
A
100
AcDbEntity
  8
MODEL
100
AcDbLine
 10
104.8534538003589
 20
411.8079354934231
 30
0.0
 11
105.4534538003588
 21
411.8079354934231
 31
0.0
  0
LINE
  5
4873
330
A
100
AcDbEntity
  8
MODEL
100
AcDbLine
 10
104.8534538003589
 20
410.3122331653231
 30
0.0
 11
105.4534538003588
 21
410.3122331653231
 31
0.0
  0
LINE
  5
4874
330
A
100
AcDbEntity
  8
MODEL
100
AcDbLine
 10
104.8534538003589
 20
409.668934910023
 30
0.0
 11
105.4534538003588
 21
409.668934910023
 31
0.0
  0
LINE
  5
4875
330
A
100
AcDbEntity
  8
MODEL
100
AcDbLine
 10
104.8534538003589
 20
409.3079354934231
 30
0.0
 11
105.4534538003588
 21
409.3079354934231
 31
0.0
  0
LINE
  5
4876
330
A
100
AcDbEntity
  8
MODEL
100
AcDbLine
 10
104.8534538003589
 20
413.9469707674231
 30
0.0
 11
105.4534538003588
 21
413.9469707674231
 31
0.0
  0
LINE
  5
4877
330
A
100
AcDbEntity
  8
MODEL
100
AcDbLine
 10
104.8534538003589
 20
414.3079354934231
 30
0.0
 11
105.4534538003588
 21
414.3079354934231
 31
0.0
  0
LINE
  5
4878
330
A
100
AcDbEntity
  8
MODEL
100
AcDbLine
 10
105.4534538003588
 20
414.3079535029231
 30
0.0
 11
105.4534538003588
 21
413.9469707674231
 31
0.0
  0
LINE
  5
4879
330
A
100
AcDbEntity
  8
MODEL
100
AcDbLine
 10
105.4534538003588
 20
413.9469707674231
 30
0.0
 11
105.4534538003588
 21
413.3036378214231
 31
0.0
  0
LINE
  5
487A
330
A
100
AcDbEntity
  8
MODEL
100
AcDbLine
 10
105.4534538003588
 20
413.3036378214231
 30
0.0
 11
105.4534538003588
 21
411.8079354934231
 31
0.0
  0
LINE
  5
487B
330
A
100
AcDbEntity
  8
MODEL
100
AcDbLine
 10
105.4534538003588
 20
411.8079354934231
 30
0.0
 11
105.4534538003588
 21
410.3122331653231
 31
0.0
  0
LINE
  5
487C
330
A
100
AcDbEntity
  8
MODEL
100
AcDbLine
 10
105.4534538003588
 20
410.3122331653231
 30
0.0
 11
105.4534538003588
 21
409.668934910023
 31
0.0
  0
LINE
  5
487D
330
A
100
AcDbEntity
  8
MODEL
100
AcDbLine
 10
105.4534538003588
 20
409.668934910023
 30
0.0
 11
105.4534538003588
 21
409.3079164735231
 31
0.0
  0
LINE
  5
487E
330
A
100
AcDbEntity
  8
MODEL
100
AcDbLine
 10
104.8534538003589
 20
406.005797577023
 30
0.0
 11
105.4534538003588
 21
406.005797577023
 31
0.0
  0
LINE
  5
487F
330
A
100
AcDbEntity
  8
MODEL
100
AcDbLine
 10
104.8534538003589
 20
404.2683596961231
 30
0.0
 11
105.4534538003588
 21
404.2683596961231
 31
0.0
  0
LINE
  5
4880
330
A
100
AcDbEntity
  8
MODEL
100
AcDbLine
 10
104.8534538003589
 20
403.835489766123
 30
0.0
 11
105.4534538003588
 21
403.835489766123
 31
0.0
  0
LINE
  5
4881
330
A
100
AcDbEntity
  8
MODEL
100
AcDbLine
 10
104.8534538003589
 20
403.664883803723
 30
0.0
 11
105.4534538003588
 21
403.664883803723
 31
0.0
  0
LINE
  5
4882
330
A
100
AcDbEntity
  8
MODEL
100
AcDbLine
 10
104.8534538003589
 20
406.006045283523
 30
0.0
 11
105.4534538003588
 21
406.006045283523
 31
0.0
  0
LINE
  5
4883
330
A
100
AcDbEntity
  8
MODEL
100
AcDbLine
 10
105.4534538003588
 20
406.0060630235231
 30
0.0
 11
105.4534538003588
 21
406.005797577023
 31
0.0
  0
LINE
  5
4884
330
A
100
AcDbEntity
  8
MODEL
100
AcDbLine
 10
105.4534538003588
 20
406.005797577023
 30
0.0
 11
105.4534538003588
 21
405.2595704721231
 31
0.0
  0
LINE
  5
4885
330
A
100
AcDbEntity
  8
MODEL
100
AcDbLine
 10
105.4534538003588
 20
405.2595704721231
 30
0.0
 11
105.4534538003588
 21
404.483938452923
 31
0.0
  0
LINE
  5
4886
330
A
100
AcDbEntity
  8
MODEL
100
AcDbLine
 10
105.4534538003588
 20
404.483938452923
 30
0.0
 11
105.4534538003588
 21
404.2683596961231
 31
0.0
  0
LINE
  5
4887
330
A
100
AcDbEntity
  8
MODEL
100
AcDbLine
 10
105.4534538003588
 20
404.2683596961231
 30
0.0
 11
105.4534538003588
 21
403.835489766123
 31
0.0
  0
LINE
  5
4888
330
A
100
AcDbEntity
  8
MODEL
100
AcDbLine
 10
105.4534538003588
 20
403.835489766123
 30
0.0
 11
105.4534538003588
 21
403.664883803723
 31
0.0
  0
LINE
  5
4889
330
A
100
AcDbEntity
  8
MODEL
100
AcDbLine
 10
105.4534538003588
 20
403.664883803723
 30
0.0
 11
105.4534538003588
 21
400.849172229123
 31
0.0
  0
LINE
  5
488A
330
A
100
AcDbEntity
  8
MODEL
100
AcDbLine
 10
78.25345380035884
 20
407.7395818384231
 30
0.0
 11
77.6534538003587
 21
407.7395818384231
 31
0.0
  0
LINE
  5
488B
330
A
100
AcDbEntity
  8
MODEL
100
AcDbLine
 10
77.6534538003587
 20
407.7395818384231
 30
0.0
 11
77.6534538003587
 21
408.330133019523
 31
0.0
  0
LINE
  5
488C
330
A
100
AcDbEntity
  8
MODEL
100
AcDbLine
 10
77.6534538003587
 20
408.330133019523
 30
0.0
 11
77.6534538003587
 21
412.305270810323
 31
0.0
  0
LINE
  5
488D
330
A
100
AcDbEntity
  8
MODEL
100
AcDbLine
 10
77.6534538003587
 20
412.8958219914231
 30
0.0
 11
77.6534538003587
 21
412.3052659988231
 31
0.0
  0
LINE
  5
488E
330
A
100
AcDbEntity
  8
MODEL
100
AcDbLine
 10
78.25345380035884
 20
412.8958268033231
 30
0.0
 11
77.6534538003587
 21
412.8958268033231
 31
0.0
  0
LINE
  5
488F
330
A
100
AcDbEntity
  8
MODEL
100
AcDbLine
 10
78.25345380035884
 20
419.084380124023
 30
0.0
 11
78.25345380035884
 21
419.519195495223
 31
0.0
  0
LINE
  5
4890
330
A
100
AcDbEntity
  8
MODEL
100
AcDbLine
 10
78.25345380035884
 20
419.086185916123
 30
0.0
 11
77.6534538003587
 21
419.086185916123
 31
0.0
  0
LINE
  5
4891
330
A
100
AcDbEntity
  8
MODEL
100
AcDbLine
 10
78.25345380035884
 20
413.929958678023
 30
0.0
 11
77.6534538003587
 21
413.929958678023
 31
0.0
  0
LINE
  5
4892
330
A
100
AcDbEntity
  8
MODEL
100
AcDbLine
 10
77.6534538003587
 20
413.929940951523
 30
0.0
 11
77.6534538003587
 21
414.5697047310231
 31
0.0
  0
LINE
  5
4893
330
A
100
AcDbEntity
  8
MODEL
100
AcDbLine
 10
77.6534538003587
 20
414.5697047310231
 30
0.0
 11
77.6534538003587
 21
418.4464166772231
 31
0.0
  0
LINE
  5
4894
330
A
100
AcDbEntity
  8
MODEL
100
AcDbLine
 10
77.6534538003587
 20
418.4464166772231
 30
0.0
 11
77.6534538003587
 21
419.086185916123
 31
0.0
  0
ELLIPSE
  5
4895
330
A
100
AcDbEntity
  8
MODEL
100
AcDbEllipse
 10
91.5534538003588
 20
414.958553843923
 30
0.0
 11
7.45841370995597
 21
0.395752351444616
 31
0.0
210
0.0
220
0.0
230
1.0
 40
0.0906559535
 41
4.707578704172821
 42
6.275085499517159
  0
ELLIPSE
  5
4896
330
A
100
AcDbEntity
  8
MODEL
100
AcDbEllipse
 10
91.5534538003588
 20
414.958553843923
 30
0.0
 11
7.458413709955973
 21
-0.3957523514446193
 31
0.0
210
0.0
220
0.0
230
1.0
 40
0.0906559535
 41
3.149692461254207
 42
4.717199256596558
  0
LINE
  5
4897
330
A
100
AcDbEntity
  8
MODEL
100
AcDbLine
 10
84.09499415465876
 20
415.348816591523
 30
0.0
 11
91.5534538003588
 21
414.9579352846231
 31
0.0
  0
LINE
  5
4898
330
A
100
AcDbEntity
  8
MODEL
100
AcDbLine
 10
91.5534538003588
 20
414.9579352846231
 30
0.0
 11
99.01191344615876
 21
415.348816591523
 31
0.0
  0
LINE
  5
4899
330
A
100
AcDbEntity
  8
MODEL
100
AcDbLine
 10
78.27023820505877
 20
409.398333151223
 30
0.0
 11
78.27023820505877
 21
414.217537835623
 31
0.0
  0
LINE
  5
489A
330
A
100
AcDbEntity
  8
MODEL
100
AcDbLine
 10
78.25345380035884
 20
406.8762125889231
 30
0.0
 11
78.25345380035884
 21
416.739658515423
 31
0.0
  0
ARC
  5
489B
330
A
100
AcDbEntity
  8
MODEL
100
AcDbCircle
 10
334.2735273783588
 20
406.433546362423
 30
0.0
 40
256.0204562691462
100
AcDbArc
 50
179.3364843985
 51
179.9009340132
  0
ARC
  5
489C
330
A
100
AcDbEntity
  8
MODEL
100
AcDbCircle
 10
334.2735295564588
 20
417.182324618323
 30
0.0
 40
256.0204584469816
100
AcDbArc
 50
180.0990659582997
 51
180.6635155944998
  0
LINE
  5
489D
330
A
100
AcDbEntity
  8
MODEL
100
AcDbLine
 10
82.82513796005884
 20
422.1067947793231
 30
0.0
 11
86.9985783814588
 21
424.5163228780231
 31
0.0
  0
LINE
  5
489E
330
A
100
AcDbEntity
  8
MODEL
100
AcDbLine
 10
80.63249695975884
 20
420.860258445923
 30
0.0
 11
89.17443527485881
 21
425.791930713723
 31
0.0
  0
LINE
  5
489F
330
A
100
AcDbEntity
  8
MODEL
100
AcDbLine
 10
86.99875219655877
 20
399.099485812123
 30
0.0
 11
82.82496433555872
 21
401.509223357223
 31
0.0
  0
LINE
  5
48A0
330
A
100
AcDbEntity
  8
MODEL
100
AcDbLine
 10
89.1745237066587
 20
397.823922472723
 30
0.0
 11
80.63242001125883
 21
402.755708340723
 31
0.0
  0
LINE
  5
48A1
330
A
100
AcDbEntity
  8
MODEL
100
AcDbLine
 10
104.8366693957589
 20
414.217537835623
 30
0.0
 11
104.8366693957589
 21
409.398333151223
 31
0.0
  0
LINE
  5
48A2
330
A
100
AcDbEntity
  8
MODEL
100
AcDbLine
 10
104.8534538003589
 20
406.876214128923
 30
0.0
 11
104.8534538003589
 21
416.7396570930231
 31
0.0
  0
LINE
  5
48A3
330
A
100
AcDbEntity
  8
MODEL
100
AcDbLine
 10
96.10832921925879
 20
424.5163228780231
 30
0.0
 11
100.2817696407588
 21
422.1067947793231
 31
0.0
  0
LINE
  5
48A4
330
A
100
AcDbEntity
  8
MODEL
100
AcDbLine
 10
102.4747357928588
 20
420.860059137823
 30
0.0
 11
93.93219174755876
 21
425.7920901824231
 31
0.0
  0
LINE
  5
48A5
330
A
100
AcDbEntity
  8
MODEL
100
AcDbLine
 10
100.2819432651588
 20
401.509223357223
 30
0.0
 11
96.10815540415871
 21
399.099485812123
 31
0.0
  0
LINE
  5
48A6
330
A
100
AcDbEntity
  8
MODEL
100
AcDbLine
 10
93.93255529405877
 20
397.8240189075231
 30
0.0
 11
102.4747399890587
 21
402.7558424814231
 31
0.0
  0
LINE
  5
48A7
330
A
100
AcDbEntity
  8
MODEL
100
AcDbLine
 10
104.3534524227587
 20
403.8405020437231
 30
0.0
 11
102.4747399890587
 21
402.7558424814231
 31
0.0
  0
LINE
  5
48A8
330
A
100
AcDbEntity
  8
MODEL
100
AcDbLine
 10
102.4747357928588
 20
420.860059137823
 30
0.0
 11
104.3534538003589
 21
419.7753692082231
 31
0.0
  0
LINE
  5
48A9
330
A
100
AcDbEntity
  8
MODEL
100
AcDbLine
 10
93.93255529405877
 20
397.8240189075231
 30
0.0
 11
91.5534538003588
 21
396.450446542823
 31
0.0
  0
LINE
  5
48AA
330
A
100
AcDbEntity
  8
MODEL
100
AcDbLine
 10
91.5534538003588
 20
427.1654526538231
 30
0.0
 11
93.93219174755876
 21
425.7920901824231
 31
0.0
  0
LINE
  5
48AB
330
A
100
AcDbEntity
  8
MODEL
100
AcDbLine
 10
78.25345380035884
 20
416.739658515423
 30
0.0
 11
78.25345380035884
 21
418.909370953823
 31
0.0
  0
LINE
  5
48AC
330
A
100
AcDbEntity
  8
MODEL
100
AcDbLine
 10
78.25345380035884
 20
404.7065553922231
 30
0.0
 11
78.25345380035884
 21
406.8762125889231
 31
0.0
  0
ARC
  5
48AD
330
A
100
AcDbEntity
  8
MODEL
100
AcDbCircle
 10
91.5534538003588
 20
411.8079354934231
 30
0.0
 40
13.49999999999955
100
AcDbArc
 50
310.2823475056997
 51
349.7182356784003
  0
ARC
  5
48AE
330
A
100
AcDbEntity
  8
MODEL
100
AcDbCircle
 10
91.5534538003588
 20
411.8079354934231
 30
0.0
 40
13.50000000000039
100
AcDbArc
 50
250.2823475056998
 51
289.7176524943001
  0
ARC
  5
48AF
330
A
100
AcDbEntity
  8
MODEL
100
AcDbCircle
 10
91.5534538003588
 20
411.8079354934231
 30
0.0
 40
13.50000000000011
100
AcDbArc
 50
190.2817643215998
 51
229.7176524942997
  0
ARC
  5
48B0
330
A
100
AcDbEntity
  8
MODEL
100
AcDbCircle
 10
91.5534538003588
 20
411.8079354934231
 30
0.0
 40
13.50000000000011
100
AcDbArc
 50
130.2813815717001
 51
169.7182356783997
  0
ARC
  5
48B1
330
A
100
AcDbEntity
  8
MODEL
100
AcDbCircle
 10
91.5534538003588
 20
411.8079354934231
 30
0.0
 40
13.50000000000039
100
AcDbArc
 50
70.28156386189993
 51
109.7184361381001
  0
ARC
  5
48B2
330
A
100
AcDbEntity
  8
MODEL
100
AcDbCircle
 10
91.5534538003588
 20
411.8079354934231
 30
0.0
 40
13.50000000000011
100
AcDbArc
 50
10.28176432160028
 51
49.71861842829988
  0
ARC
  5
48B3
330
A
100
AcDbEntity
  8
MODEL
100
AcDbCircle
 10
-25.30355109204123
 20
624.965340419523
 30
0.0
 40
256.3286028625805
100
AcDbArc
 50
299.336601788
 51
299.9004190516
  0
ARC
  5
48B4
330
A
100
AcDbEntity
  8
MODEL
100
AcDbCircle
 10
103.8534538003589
 20
404.706528242923
 30
0.0
 40
0.9999999999999879
100
AcDbArc
 50
299.9999088549071
 51
0.0
  0
LINE
  5
48B5
330
A
100
AcDbEntity
  8
MODEL
100
AcDbLine
 10
104.8534538003589
 20
404.706528242923
 30
0.0
 11
104.8534538003589
 21
406.876214128923
 31
0.0
  0
ARC
  5
48B6
330
A
100
AcDbEntity
  8
MODEL
100
AcDbCircle
 10
-151.1665912638412
 20
406.4335462818232
 30
0.0
 40
256.0204277582511
100
AcDbArc
 50
0.0990663604999537
 51
0.6635156934999593
  0
ARC
  5
48B7
330
A
100
AcDbEntity
  8
MODEL
100
AcDbCircle
 10
-151.1665956128413
 20
417.1823246926232
 30
0.0
 40
256.0204321067579
100
AcDbArc
 50
359.3364843205999
 51
359.9009336964999
  0
LINE
  5
48B8
330
A
100
AcDbEntity
  8
MODEL
100
AcDbLine
 10
104.8534538003589
 20
416.7396570930231
 30
0.0
 11
104.8534538003589
 21
418.9093438044231
 31
0.0
  0
ARC
  5
48B9
330
A
100
AcDbEntity
  8
MODEL
100
AcDbCircle
 10
103.8534538003589
 20
418.9093438044231
 30
0.0
 40
0.9999999999999877
100
AcDbArc
 50
0.0
 51
59.99999999999946
  0
ARC
  5
48BA
330
A
100
AcDbEntity
  8
MODEL
100
AcDbCircle
 10
-25.00223727104134
 20
199.1843864747231
 30
0.0
 40
255.7156282127
100
AcDbArc
 50
60.09848344879995
 51
60.66369815189996
  0
ARC
  5
48BB
330
A
100
AcDbEntity
  8
MODEL
100
AcDbCircle
 10
-34.43269689164134
 20
204.3400890947231
 30
0.0
 40
255.9658833147647
100
AcDbArc
 50
59.33657995439993
 51
59.90122901359989
  0
LINE
  5
48BC
330
A
100
AcDbEntity
  8
MODEL
100
AcDbLine
 10
91.5534538003588
 20
427.1654526538231
 30
0.0
 11
89.17443527485881
 21
425.791930713723
 31
0.0
  0
ARC
  5
48BD
330
A
100
AcDbEntity
  8
MODEL
100
AcDbCircle
 10
217.5722605711588
 20
204.2849364438231
 30
0.0
 40
256.0299788136598
100
AcDbArc
 50
120.0989761751
 51
120.6634116602
  0
ARC
  5
48BE
330
A
100
AcDbEntity
  8
MODEL
100
AcDbCircle
 10
208.2635599264588
 20
198.9105803952231
 30
0.0
 40
256.0299744576896
100
AcDbArc
 50
119.3364060355
 51
119.9008414776
  0
LINE
  5
48BF
330
A
100
AcDbEntity
  8
MODEL
100
AcDbLine
 10
80.63249695975884
 20
420.860258445923
 30
0.0
 11
78.7534551780588
 21
419.775397152923
 31
0.0
  0
ARC
  5
48C0
330
A
100
AcDbEntity
  8
MODEL
100
AcDbCircle
 10
79.25345380035884
 20
418.909370953823
 30
0.0
 40
0.9999999999999809
100
AcDbArc
 50
119.9999088549071
 51
180.0
  0
ARC
  5
48C1
330
A
100
AcDbEntity
  8
MODEL
100
AcDbCircle
 10
79.25345380035884
 20
404.7065553922231
 30
0.0
 40
0.9999999999999775
100
AcDbArc
 50
180.0
 51
239.9999999999994
  0
LINE
  5
48C2
330
A
100
AcDbEntity
  8
MODEL
100
AcDbLine
 10
78.75345380035884
 20
403.840529988423
 30
0.0
 11
80.63242001125883
 21
402.755708340723
 31
0.0
  0
ARC
  5
48C3
330
A
100
AcDbEntity
  8
MODEL
100
AcDbCircle
 10
208.2517321945588
 20
624.684182849923
 30
0.0
 40
256.0057355609477
100
AcDbArc
 50
240.0990727271
 51
240.6635371213
  0
ARC
  5
48C4
330
A
100
AcDbEntity
  8
MODEL
100
AcDbCircle
 10
217.5583258008588
 20
619.305939065323
 30
0.0
 40
256.001336547441
100
AcDbArc
 50
239.3364585589999
 51
239.900935673
  0
LINE
  5
48C5
330
A
100
AcDbEntity
  8
MODEL
100
AcDbLine
 10
89.1745237066587
 20
397.823922472723
 30
0.0
 11
91.5534538003588
 21
396.450446542823
 31
0.0
  0
ARC
  5
48C6
330
A
100
AcDbEntity
  8
MODEL
100
AcDbCircle
 10
-34.48528364784119
 20
619.3631974940231
 30
0.0
 40
256.0678601607302
100
AcDbArc
 50
300.0992390238
 51
300.6635254936
  0
ARC
  5
48C7
330
A
100
AcDbEntity
  8
MODEL
100
AcDbCircle
 10
95.36044289835883
 20
374.266296427823
 30
0.0
 40
30.03217319559116
100
AcDbArc
 50
91.22661609070012
 51
97.28261808830018
  0
SPLINE
  5
48C8
330
A
100
AcDbEntity
  8
MODEL
100
AcDbSpline
210
0.0
220
0.0
230
1.0
 70
     8
 71
     3
 72
    14
 73
    10
 74
     0
 42
0.000000001
 43
0.0000000001
 40
0.0
 40
0.0
 40
0.0
 40
0.0
 40
0.2499999999999997
 40
0.2499999999999997
 40
0.4999999999999998
 40
0.4999999999999998
 40
0.7499999999999999
 40
0.7499999999999999
 40
0.9007569234906664
 40
0.9007569234906664
 40
0.9007569234906664
 40
0.9007569234906664
 10
94.7175485471825
 20
404.291587662066
 30
0.0
 10
94.97782902609043
 20
404.277539881891
 30
0.0
 10
95.23305007497794
 20
404.2590774433894
 30
0.0
 10
95.72927789090187
 20
404.2271101068169
 30
0.0
 10
95.97104584420487
 20
404.2134630152078
 30
0.0
 10
96.4343426075755
 20
404.2153112858655
 30
0.0
 10
96.64537911450572
 20
404.2309819505076
 30
0.0
 10
96.95057006340977
 20
404.3006957020385
 30
0.0
 10
97.05507767343335
 20
404.3365291057229
 30
0.0
 10
97.14941961542746
 20
404.3840837527026
 30
0.0
  0
SPLINE
  5
48C9
330
A
100
AcDbEntity
  8
MODEL
100
AcDbSpline
210
0.0
220
0.0
230
1.0
 70
     8
 71
     3
 72
    14
 73
    10
 74
     0
 42
0.000000001
 43
0.0000000001
 40
0.0997640360942595
 40
0.0997640360942595
 40
0.0997640360942595
 40
0.0997640360942595
 40
0.25
 40
0.25
 40
0.5
 40
0.5
 40
0.75
 40
0.75
 40
1.0
 40
1.0
 40
1.0
 40
1.0
 10
85.95730799118309
 20
404.3841186396572
 30
0.0
 10
86.05068117274567
 20
404.3370177712204
 30
0.0
 10
86.1540469419188
 20
404.301442922576
 30
0.0
 10
86.45752639149765
 20
404.2315316170374
 30
0.0
 10
86.66792251114629
 20
404.2155849410346
 30
0.0
 10
87.1289482101318
 20
404.2132417663348
 30
0.0
 10
87.36997896692702
 20
404.2266567402887
 30
0.0
 10
87.86972719945317
 20
404.258772780961
 30
0.0
 10
88.12892569899833
 20
404.2775316309304
 30
0.0
 10
88.38935905358773
 20
404.291587662066
 30
0.0
  0
ARC
  5
48CA
330
A
100
AcDbEntity
  8
MODEL
100
AcDbCircle
 10
87.74773769685879
 20
374.283407978323
 30
0.0
 40
30.01503832911427
100
AcDbArc
 50
82.7156516859
 51
88.7751141352
  0
CIRCLE
  5
48CB
330
A
100
AcDbEntity
  8
MODEL
100
AcDbCircle
 10
91.5534538003588
 20
411.8079354934231
 30
0.0
 40
10.5155
  0
CIRCLE
  5
48CC
330
A
100
AcDbEntity
  8
MODEL
100
AcDbCircle
 10
91.5534538003588
 20
411.8079354934231
 30
0.0
 40
9.3155
  0
LINE
  5
48CD
330
A
100
AcDbEntity
  8
MODEL
100
AcDbLine
 10
104.8534538003589
 20
400.8474522562231
 30
0.0
 11
105.4534538003588
 21
400.8474522562231
 31
0.0
  0
LINE
  5
48CE
330
A
100
AcDbEntity
  8
MODEL
100
AcDbLine
 10
105.4534538003588
 20
406.0063027558231
 30
0.0
 11
104.8534538003589
 21
406.0063027558231
 31
0.0
  0
LINE
  5
48CF
330
A
100
AcDbEntity
  8
MODEL
100
AcDbLine
 10
104.8534538003589
 20
400.8491722281231
 30
0.0
 11
105.4534538003588
 21
400.8491722281231
 31
0.0
  0
LINE
  5
48D0
330
A
100
AcDbEntity
  8
MODEL
100
AcDbLine
 10
78.25345380035884
 20
412.8958268030231
 30
0.0
 11
77.6534538003587
 21
412.8958268030231
 31
0.0
  0
LINE
  5
48D1
330
A
100
AcDbEntity
  8
MODEL
100
AcDbLine
 10
78.25345380035884
 20
412.9239943484231
 30
0.0
 11
77.6534538003587
 21
412.9239943484231
 31
0.0
  0
LINE
  5
48D2
330
A
100
AcDbEntity
  8
MODEL
100
AcDbLine
 10
95.6537512046587
 20
414.607935493423
 30
0.0
 11
87.45315639605877
 21
414.607935493423
 31
0.0
  0
SPLINE
  5
48D3
330
A
100
AcDbEntity
  8
MODEL
100
AcDbSpline
210
0.0
220
0.0
230
1.0
 70
     8
 71
     3
 72
    14
 73
    10
 74
     0
 42
0.000000001
 43
0.0000000001
 40
0.0
 40
0.0
 40
0.0
 40
0.0
 40
1.0
 40
1.0
 40
1.0
 40
2.0
 40
2.0
 40
2.0
 40
2.501267429837579
 40
2.501267429837579
 40
2.501267429837579
 40
2.501267429837579
 10
102.2921163344791
 20
379.6994444179203
 30
0.0
 10
102.2921163344791
 20
379.6994444179203
 30
0.0
 10
103.2683583830356
 20
379.6994444179203
 30
0.0
 10
103.2683583830356
 20
379.6994444179203
 30
0.0
 10
103.2683583830356
 20
379.6994444179203
 30
0.0
 10
103.2683583830356
 20
375.883225500836
 30
0.0
 10
103.2683583830356
 20
375.883225500836
 30
0.0
 10
103.2683583830356
 20
375.883225500836
 30
0.0
 10
97.40347276066524
 20
375.883225500836
 30
0.0
 10
91.55345380035868
 20
375.883225500836
 30
0.0
  0
POLYLINE
  5
48D4
330
A
100
AcDbEntity
  8
MODEL
100
AcDb2dPolyline
 66
     1
 10
0.0
 20
0.0
 30
0.0
  0
VERTEX
  5
48D5
330
48D4
100
AcDbEntity
  8
MODEL
100
AcDbVertex
100
AcDb2dVertex
 10
103.6233554916016
 20
384.1369082749947
 30
0.0
  0
VERTEX
  5
48D6
330
48D4
100
AcDbEntity
  8
MODEL
100
AcDbVertex
100
AcDb2dVertex
 10
103.6233554916016
 20
381.2081821293257
 30
0.0
  0
VERTEX
  5
48D7
330
48D4
100
AcDbEntity
  8
MODEL
100
AcDbVertex
100
AcDb2dVertex
 10
91.5534538003588
 20
381.2081821293257
 30
0.0
  0
SEQEND
  5
48D8
330
48D4
100
AcDbEntity
  8
MODEL
  0
POLYLINE
  5
48D9
330
A
100
AcDbEntity
  8
MODEL
100
AcDb2dPolyline
 66
     1
 10
0.0
 20
0.0
 30
0.0
  0
VERTEX
  5
48DA
330
48D9
100
AcDbEntity
  8
MODEL
100
AcDbVertex
100
AcDb2dVertex
 10
102.2921163344791
 20
381.2081821293257
 30
0.0
  0
VERTEX
  5
48DB
330
48D9
100
AcDbEntity
  8
MODEL
100
AcDbVertex
100
AcDb2dVertex
 10
102.2921163344791
 20
379.6994444179203
 30
0.0
  0
VERTEX
  5
48DC
330
48D9
100
AcDbEntity
  8
MODEL
100
AcDbVertex
100
AcDb2dVertex
 10
91.5534538003588
 20
379.6994444179203
 30
0.0
  0
SEQEND
  5
48DD
330
48D9
100
AcDbEntity
  8
MODEL
  0
LINE
  5
48DE
330
A
100
AcDbEntity
  8
MODEL
100
AcDbLine
 10
104.8534538003589
 20
394.7875484264231
 30
0.0
 11
104.1558511544503
 21
384.1369082749947
 31
0.0
  0
LINE
  5
48DF
330
A
100
AcDbEntity
  8
MODEL
100
AcDbLine
 10
104.1558511544503
 20
384.1369082749947
 30
0.0
 11
91.5534538003588
 21
384.1369082749947
 31
0.0
  0
SPLINE
  5
48E0
330
A
100
AcDbEntity
  8
MODEL
100
AcDbSpline
210
0.0
220
0.0
230
1.0
 70
     8
 71
     3
 72
    14
 73
    10
 74
     0
 42
0.000000001
 43
0.0000000001
 40
0.0
 40
0.0
 40
0.0
 40
0.0
 40
1.0
 40
1.0
 40
1.0
 40
2.0
 40
2.0
 40
2.0
 40
2.501267429837579
 40
2.501267429837579
 40
2.501267429837579
 40
2.501267429837579
 10
80.81479126623827
 20
379.6994444179203
 30
0.0
 10
80.81479126623827
 20
379.6994444179203
 30
0.0
 10
79.83854921768176
 20
379.6994444179203
 30
0.0
 10
79.83854921768176
 20
379.6994444179203
 30
0.0
 10
79.83854921768176
 20
379.6994444179203
 30
0.0
 10
79.83854921768176
 20
375.883225500836
 30
0.0
 10
79.83854921768176
 20
375.883225500836
 30
0.0
 10
79.83854921768176
 20
375.883225500836
 30
0.0
 10
85.70343484005213
 20
375.883225500836
 30
0.0
 10
91.55345380035868
 20
375.883225500836
 30
0.0
  0
POLYLINE
  5
48E1
330
A
100
AcDbEntity
  8
MODEL
100
AcDb2dPolyline
 66
     1
 10
0.0
 20
0.0
 30
0.0
  0
VERTEX
  5
48E2
330
48E1
100
AcDbEntity
  8
MODEL
100
AcDbVertex
100
AcDb2dVertex
 10
79.48355210911592
 20
384.1369082749947
 30
0.0
  0
VERTEX
  5
48E3
330
48E1
100
AcDbEntity
  8
MODEL
100
AcDbVertex
100
AcDb2dVertex
 10
79.48355210911592
 20
381.2081821293257
 30
0.0
  0
VERTEX
  5
48E4
330
48E1
100
AcDbEntity
  8
MODEL
100
AcDbVertex
100
AcDb2dVertex
 10
91.55345380035857
 20
381.2081821293257
 30
0.0
  0
SEQEND
  5
48E5
330
48E1
100
AcDbEntity
  8
MODEL
  0
POLYLINE
  5
48E6
330
A
100
AcDbEntity
  8
MODEL
100
AcDb2dPolyline
 66
     1
 10
0.0
 20
0.0
 30
0.0
  0
VERTEX
  5
48E7
330
48E6
100
AcDbEntity
  8
MODEL
100
AcDbVertex
100
AcDb2dVertex
 10
80.81479126623827
 20
381.2081821293257
 30
0.0
  0
VERTEX
  5
48E8
330
48E6
100
AcDbEntity
  8
MODEL
100
AcDbVertex
100
AcDb2dVertex
 10
80.81479126623827
 20
379.6994444179203
 30
0.0
  0
VERTEX
  5
48E9
330
48E6
100
AcDbEntity
  8
MODEL
100
AcDbVertex
100
AcDb2dVertex
 10
91.55345380035857
 20
379.6994444179203
 30
0.0
  0
SEQEND
  5
48EA
330
48E6
100
AcDbEntity
  8
MODEL
  0
LINE
  5
48EB
330
A
100
AcDbEntity
  8
MODEL
100
AcDbLine
 10
78.25345380035861
 20
394.7875484264231
 30
0.0
 11
78.95105644626693
 21
384.1369082749947
 31
0.0
  0
LINE
  5
48EC
330
A
100
AcDbEntity
  8
MODEL
100
AcDbLine
 10
78.95105644626693
 20
384.1369082749947
 30
0.0
 11
91.55345380035857
 21
384.1369082749947
 31
0.0
  0
MTEXT
  5
492C
330
A
100
AcDbEntity
  8
TEMPLATE
390
1D
100
AcDbMText
 10
250.0692975248782
 20
79.74842826538223
 30
0.0
 40
4.800000000000001
 41
0.0
 46
5.361600000000001
 71
     1
 72
     1
  1
{FHT73-5218-AL1 (ブラッシュドハードグラファイト)}
  7
ＭＳ ゴシック
 73
     1
 44
0.782827
1001
ACAD
1000
ACAD_MTEXT_DEFINED_HEIGHT_BEGIN
1070
    46
1040
5.361600000000001
1000
ACAD_MTEXT_DEFINED_HEIGHT_END
  0
MTEXT
  5
492D
330
A
100
AcDbEntity
  8
TEMPLATE
390
1D
100
AcDbMText
 10
250.0692975248784
 20
86.96962588611143
 30
0.0
 40
4.800000000000001
 41
0.0
 46
5.361600000000001
 71
     1
 72
     1
  1
{FHT73-5218-DC1 (スーパースチール)}
  7
ＭＳ ゴシック
 73
     1
 44
0.782827
1001
ACAD
1000
ACAD_MTEXT_DEFINED_HEIGHT_BEGIN
1070
    46
1040
5.361600000000001
1000
ACAD_MTEXT_DEFINED_HEIGHT_END
  0
MTEXT
  5
492E
330
A
100
AcDbEntity
  8
TEMPLATE
390
1D
100
AcDbMText
 10
250.0692975248784
 20
94.37807631018218
 30
0.0
 40
4.800000000000001
 41
0.0
 46
5.361600000000001
 71
     1
 72
     1
  1
{FHT73-5218-001 (クローム)}
  7
ＭＳ ゴシック
 73
     1
 44
0.782827
1001
ACAD
1000
ACAD_MTEXT_DEFINED_HEIGHT_BEGIN
1070
    46
1040
5.361600000000001
1000
ACAD_MTEXT_DEFINED_HEIGHT_END
  0
MTEXT
  5
4954
330
A
100
AcDbEntity
  8
DIM
390
1D
100
AcDbMText
 10
76.47528544304014
 20
561.4358189308455
 30
0.0
 40
5.0
 41
379.886450037282
 46
5.558373452544704
 71
     1
 72
     1
  1
{壁開口寸法}
  7
ＭＳ ゴシック
 73
     1
 44
0.9822934569727008
1001
ACAD
1000
ACAD_MTEXT_DEFINED_HEIGHT_BEGIN
1070
    46
1040
5.558373452544704
1000
ACAD_MTEXT_DEFINED_HEIGHT_END
  0
MTEXT
  5
4960
330
A
100
AcDbEntity
  8
MODEL
100
AcDbMText
 10
27.04901375999998
 20
82.01926812444444
 30
0.0
 40
5.0
 41
109.80687872
 46
46.98939220126658
 71
     1
 72
     1
  1
■流量 0.3Mpa時 79.0L/min
  7
ＭＳ ゴシック
 73
     1
 44
1.0
1001
ACAD
1000
ACAD_MTEXT_DEFINED_HEIGHT_BEGIN
1070
    46
1040
46.98939220126658
1000
ACAD_MTEXT_DEFINED_HEIGHT_END
  0
VIEWPORT
  5
349
330
B
100
AcDbEntity
 67
     1
  8
0
100
AcDbViewport
 10
202.5
 20
128.5
 30
0.0
 40
486.0
 41
308.4
 68
     1
 69
     1
 12
202.5
 22
128.5
 13
0.0
 23
0.0
 14
0.5
 24
0.5
 15
0.0
 25
0.0
 16
0.0
 26
0.0
 36
1.0
 17
0.0
 27
0.0
 37
0.0
 42
50.0
 43
0.0
 44
0.0
 45
308.4
 50
0.0
 51
0.0
 72
   100
 90
   557152
  1

281
     0
 71
     1
 74
     0
110
0.0
120
0.0
130
0.0
111
1.0
121
0.0
131
0.0
112
0.0
122
1.0
132
0.0
 79
     0
146
0.0
170
     0
 61
     5
348
26C
292
     1
282
     1
141
0.0
142
0.0
 63
   256
  0
VIEWPORT
  5
34A
330
B
100
AcDbEntity
 67
     1
  8
0
100
AcDbViewport
 10
202.5
 20
128.5
 30
0.0
 40
324.0
 41
205.6
 68
     2
 69
     2
 12
986.6781359294573
 22
1427.077061889956
 13
0.0
 23
0.0
 14
0.5
 24
0.5
 15
0.0
 25
0.0
 16
0.0
 26
0.0
 36
1.0
 17
0.0
 27
0.0
 37
0.0
 42
50.0
 43
0.0
 44
0.0
 45
2890.021615685494
 50
0.0
 51
0.0
 72
   100
 90
   557152
  1

281
     0
 71
     1
 74
     0
110
0.0
120
0.0
130
0.0
111
1.0
121
0.0
131
0.0
112
0.0
122
1.0
132
0.0
 79
     0
146
0.0
170
     0
 61
     5
348
26C
292
     1
282
     1
141
0.0
142
0.0
 63
   256
  0
ENDSEC
  0
SECTION
  2
OBJECTS
  0
DICTIONARY
  5
19
330
0
100
AcDbDictionary
281
     1
  3
ACAD_COLOR
350
674
  3
ACAD_DETAILVIEWSTYLE
350
BBF
  3
ACAD_FIELDLIST
350
3BE4
  3
ACAD_GROUP
350
1A
  3
ACAD_IMAGE_VARS
350
27B
  3
ACAD_LAYOUT
350
1E
  3
ACAD_MATERIAL
350
263
  3
ACAD_MLEADERSTYLE
350
336
  3
ACAD_MLINESTYLE
350
1B
  3
ACAD_PLOTSETTINGS
350
22
  3
ACAD_PLOTSTYLENAME
350
1F
  3
ACAD_SCALELIST
350
241
  3
ACAD_SECTIONVIEWSTYLE
350
BC0
  3
ACAD_TABLESTYLE
350
278
  3
ACAD_VISUALSTYLE
350
267
  3
ACDB_RECOMPOSE_DATA
350
4967
  3
AcDbVariableDictionary
350
330
  3
APPDATA
350
27A
  3
DimOffsetDictionary
350
E38
  0
SUN
  5
904
330
15
100
AcDbSun
 90
        1
290
     0
 63
     7
421
 16777215
 40
1.0
291
     1
 91
  2455826
 92
 54000000
292
     0
 70
     2
 71
   256
280
     1
  0
DICTIONARY
  5
2E1
330
2
100
AcDbDictionary
280
     1
281
     1
  3
ACAD_LAYERSTATES
360
2E2
  3
ACLYDICTIONARY
360
DDE
  0
DICTIONARY
  5
3D3D
330
A
100
AcDbDictionary
280
     1
281
     1
  3
ACAD_SORTENTS
360
3D3E
  3
DIM_BOUNDING_BOXES_V1
360
4955
  0
DICTIONARY
  5
3CB7
330
3CB5
100
AcDbDictionary
280
     1
281
     1
  3
ACAD_FIELD
360
4961
  0
DICTIONARY
  5
46C4
330
46C3
100
AcDbDictionary
280
     1
281
     1
  3
*A1
360
46C5
  0
DICTIONARY
  5
674
102
{ACAD_REACTORS
330
19
102
}
330
19
100
AcDbDictionary
281
     1
  0
DICTIONARY
  5
BBF
102
{ACAD_REACTORS
330
19
102
}
330
19
100
AcDbDictionary
281
     1
  0
FIELDLIST
  5
3BE4
102
{ACAD_REACTORS
330
19
102
}
330
19
100
AcDbIdSet
 90
        2
330
3CB9
330
3CB6
100
AcDbFieldList
  0
DICTIONARY
  5
1A
102
{ACAD_REACTORS
330
19
102
}
330
19
100
AcDbDictionary
281
     1
  3
*A1
350
3C75
  0
RASTERVARIABLES
  5
27B
102
{ACAD_REACTORS
330
19
102
}
330
19
100
AcDbRasterVariables
 90
        0
 70
     1
 71
     1
 72
     1
  0
DICTIONARY
  5
1E
102
{ACAD_REACTORS
330
19
102
}
330
19
100
AcDbDictionary
281
     1
  3
Layout1
350
21
  3
Model
350
20
  0
DICTIONARY
  5
263
102
{ACAD_REACTORS
330
19
102
}
330
19
100
AcDbDictionary
281
     1
  3
ByBlock
350
265
  3
ByLayer
350
264
  3
Global
350
266
  0
DICTIONARY
  5
336
102
{ACAD_REACTORS
330
19
102
}
330
19
100
AcDbDictionary
281
     1
  3
Standard
350
D59
  0
DICTIONARY
  5
1B
102
{ACAD_REACTORS
330
19
102
}
330
19
100
AcDbDictionary
281
     1
  3
Standard
350
1C
  0
DICTIONARY
  5
22
102
{ACAD_REACTORS
330
19
102
}
330
19
100
AcDbDictionary
281
     1
  0
ACDBDICTIONARYWDFLT
  5
1F
102
{ACAD_REACTORS
330
19
102
}
330
19
100
AcDbDictionary
281
     1
  3
Normal
350
1D
100
AcDbDictionaryWithDefault
340
1D
  0
DICTIONARY
  5
241
102
{ACAD_REACTORS
330
19
102
}
330
19
100
AcDbDictionary
281
     1
  3
A0
350
242
  3
A1
350
243
  3
A2
350
244
  3
A3
350
245
  3
A4
350
246
  3
A5
350
247
  3
A6
350
248
  3
A7
350
249
  3
A8
350
24A
  3
A9
350
24B
  3
B0
350
24C
  3
B1
350
24D
  3
B2
350
24E
  3
B3
350
24F
  3
B4
350
250
  3
B5
350
251
  3
B6
350
252
  3
B7
350
253
  3
B8
350
254
  3
B9
350
255
  3
C0
350
256
  3
C1
350
257
  3
C2
350
258
  3
C3
350
259
  3
C4
350
25A
  3
C5
350
25B
  3
C6
350
25C
  3
C7
350
25D
  3
C8
350
25E
  3
C9
350
25F
  3
D0
350
260
  3
D1
350
261
  3
D2
350
262
  0
DICTIONARY
  5
BC0
102
{ACAD_REACTORS
330
19
102
}
330
19
100
AcDbDictionary
281
     1
  0
DICTIONARY
  5
278
102
{ACAD_REACTORS
330
19
102
}
330
19
100
AcDbDictionary
281
     1
  3
Standard
350
279
  0
DICTIONARY
  5
267
102
{ACAD_REACTORS
330
19
102
}
330
19
100
AcDbDictionary
281
     1
  3
2dWireframe
350
26C
  3
3D Hidden
350
26E
  3
3dWireframe
350
26D
  3
Basic
350
26F
  3
Brighten
350
273
  3
ColorChange
350
277
  3
Conceptual
350
271
  3
Dim
350
272
  3
EdgeColorOff
350
8FE
  3
Facepattern
350
276
  3
Flat
350
268
  3
FlatWithEdges
350
269
  3
Gouraud
350
26A
  3
GouraudWithEdges
350
26B
  3
Hidden
350
8FB
  3
JitterOff
350
8FC
  3
Linepattern
350
275
  3
OverhangOff
350
8FD
  3
Realistic
350
270
  3
Shaded
350
903
  3
Shaded with edges
350
902
  3
Shades of Gray
350
8FF
  3
Sketchy
350
900
  3
Thicken
350
274
  3
Wireframe
350
8FA
  3
X-Ray
350
901
  0
XRECORD
  5
4967
102
{ACAD_REACTORS
330
19
102
}
330
19
100
AcDbXrecord
280
     1
 90
        1
330
279
  0
DICTIONARY
  5
330
102
{ACAD_REACTORS
330
19
102
}
330
19
100
AcDbDictionary
281
     1
  3
CANNOSCALE
350
331
  3
CMLEADERSTYLE
350
D5E
  3
CTABLESTYLE
350
335
  3
HPTRANSPARENCY
350
D52
  3
XCLIPFRAME
350
896
  0
DICTIONARY
  5
27A
102
{ACAD_REACTORS
330
19
102
}
330
19
100
AcDbDictionary
281
     1
  0
DICTIONARY
  5
E38
102
{ACAD_REACTORS
330
19
102
}
330
19
100
AcDbDictionary
281
     1
  3
DIMRAILANGLE
350
246C
  3
DIMRAILFIRSTOFFSET
350
246A
  3
DIMRAILOFFSET
350
246B
  3
DIMRAILSENABLED
350
246D
  0
DICTIONARY
  5
2E2
102
{ACAD_REACTORS
330
2E1
102
}
330
2E1
100
AcDbDictionary
281
     1
  0
DICTIONARY
  5
DDE
102
{ACAD_REACTORS
330
2E1
102
}
330
2E1
100
AcDbDictionary
281
     1
1001
ACAD
1000
<All
  0
SORTENTSTABLE
  5
3D3E
102
{ACAD_REACTORS
330
3D3D
102
}
330
3D3D
100
AcDbSortentsTable
330
A
331
3C64
  5
3C1F
331
3C65
  5
3C63
331
3C70
  5
3C64
331
3C71
  5
3C65
331
3C72
  5
3C70
331
3C73
  5
3C71
331
3C74
  5
3C72
331
3CB5
  5
3C92
  0
DICTIONARY
  5
4955
102
{ACAD_REACTORS
330
3D3D
102
}
330
3D3D
100
AcDbDictionary
281
     1
  0
DICTIONARY
  5
4961
102
{ACAD_REACTORS
330
3CB7
102
}
330
3CB7
100
AcDbDictionary
280
     1
281
     1
  3
TEXT
360
3CB6
  0
LINE
  5
46C5
102
{ACAD_REACTORS
330
46C4
102
}
330
46C4
100
AcDbEntity
  8
MODEL
100
AcDbLine
 10
264.3329688988288
 20
136.6444773349123
 30
0.0
 11
264.3329688988288
 21
284.6444773349124
 31
0.0
  0
GROUP
  5
3C75
102
{ACAD_REACTORS
330
1A
102
}
330
1A
100
AcDbGroup
300

 70
     1
 71
     1
340
3C64
340
3C65
340
3C70
340
3C71
340
3C72
340
3C73
340
3C74
  0
LAYOUT
  5
21
102
{ACAD_REACTORS
330
1E
102
}
330
1E
100
AcDbPlotSettings
  1

  2
none_device
  4
ISO_A3_(420.00_x_297.00_MM)
  6

 40
7.5
 41
20.0
 42
7.5
 43
20.0
 44
420.0
 45
297.0
 46
0.0
 47
0.0
 48
0.0
 49
0.0
140
0.0
141
0.0
142
1.0
143
1.0
 70
     0
 72
     1
 73
     0
 74
     0
  7

 75
     0
 76
     0
 77
     2
 78
   300
147
1.0
148
0.0
149
0.0
100
AcDbLayout
  1
Layout1
 70
     0
 71
     0
 10
-7.5
 20
-20.0
 11
412.5
 21
277.0
 12
0.0
 22
0.0
 32
0.0
 14
0.0
 24
0.0
 34
0.0
 15
0.0
 25
0.0
 35
0.0
146
0.0
 13
0.0
 23
0.0
 33
0.0
 16
0.0
 26
0.0
 36
0.0
 17
0.0
 27
0.0
 37
0.0
 76
     0
330
B
331
349
  0
LAYOUT
  5
20
102
{ACAD_REACTORS
330
1E
102
}
330
1E
100
AcDbPlotSettings
  1

  2
Adobe PDF
  4
A4
  6

 40
0.0600000000000023
 41
0.0000000000000205
 42
0.0
 43
0.04
 44
210.0
 45
297.0
 46
0.0
 47
0.0
 48
0.0
 49
0.0
140
0.0
141
0.0
142
1.0
143
2.000571591883395
 70
  1584
 72
     1
 73
     0
 74
     2
  7
monochrome.ctb
 75
     0
 76
 32760
 77
     2
 78
   300
147
0.4998571428571429
148
-301.0201356709003
149
-223.401285469834
100
AcDbLayout
  1
Model
 70
     0
 71
     1
 10
0.0
 20
0.0
 11
420.0
 21
594.0
 12
0.0
 22
0.0
 32
0.0
 14
0.0
 24
0.0
 34
-0.0000000000000071
 15
420.0
 25
594.0
 35
0.0000000000000142
146
0.0
 13
0.0
 23
0.0
 33
0.0
 16
0.0
 26
0.0
 36
0.0
 17
0.0
 27
0.0
 37
0.0
 76
     0
330
A
331
15
1001
PLOTTRANSPARENCY
1071
        0
  0
MATERIAL
  5
265
102
{ACAD_REACTORS
330
263
102
}
330
263
100
AcDbMaterial
  1
ByBlock
 72
     1
 94
      127
  0
MATERIAL
  5
264
102
{ACAD_REACTORS
330
263
102
}
330
263
100
AcDbMaterial
  1
ByLayer
 72
     1
 94
      127
  0
MATERIAL
  5
266
102
{ACAD_REACTORS
330
263
102
}
330
263
100
AcDbMaterial
  1
Global
 72
     1
 94
      127
  0
MLEADERSTYLE
  5
D59
102
{ACAD_REACTORS
330
336
102
}
330
336
100
AcDbMLeaderStyle
170
     2
171
     1
172
     0
 90
        2
 40
0.0
 41
0.0
173
     1
 91
-1056964608
340
11
 92
       -2
290
     1
 42
2.0
291
     1
 43
8.0
  3
Standard
341
0
 44
4.0
300

342
17
174
     1
178
     6
175
     1
176
     0
 93
-1056964608
 45
4.0
292
     0
297
     0
 46
4.0
343
0
 94
-1056964608
 47
1.0
 49
1.0
140
1.0
293
     1
141
0.0
294
     1
177
     0
142
1.0
295
     0
296
     0
143
3.75
1001
ACAD_MLEADERVER
1070
     2
  0
MLINESTYLE
  5
1C
102
{ACAD_REACTORS
330
1B
102
}
330
1B
100
AcDbMlineStyle
  2
Standard
 70
     0
  3

 62
     0
 51
90.0
 52
90.0
 71
     2
 49
0.5
 62
   256
  6
BYLAYER
 49
-0.5
 62
   256
  6
BYLAYER
  0
ACDBPLACEHOLDER
  5
1D
102
{ACAD_REACTORS
330
1F
102
}
330
1F
  0
SCALE
  5
242
102
{ACAD_REACTORS
330
241
102
}
330
241
100
AcDbScale
 70
     0
300
1:1
140
1.0
141
1.0
290
     1
  0
SCALE
  5
243
102
{ACAD_REACTORS
330
241
102
}
330
241
100
AcDbScale
 70
     0
300
1:2
140
1.0
141
2.0
290
     0
  0
SCALE
  5
244
102
{ACAD_REACTORS
330
241
102
}
330
241
100
AcDbScale
 70
     0
300
1:4
140
1.0
141
4.0
290
     0
  0
SCALE
  5
245
102
{ACAD_REACTORS
330
241
102
}
330
241
100
AcDbScale
 70
     0
300
1:5
140
1.0
141
5.0
290
     0
  0
SCALE
  5
246
102
{ACAD_REACTORS
330
241
102
}
330
241
100
AcDbScale
 70
     0
300
1:8
140
1.0
141
8.0
290
     0
  0
SCALE
  5
247
102
{ACAD_REACTORS
330
241
102
}
330
241
100
AcDbScale
 70
     0
300
1:10
140
1.0
141
10.0
290
     0
  0
SCALE
  5
248
102
{ACAD_REACTORS
330
241
102
}
330
241
100
AcDbScale
 70
     0
300
1:16
140
1.0
141
16.0
290
     0
  0
SCALE
  5
249
102
{ACAD_REACTORS
330
241
102
}
330
241
100
AcDbScale
 70
     0
300
1:20
140
1.0
141
20.0
290
     0
  0
SCALE
  5
24A
102
{ACAD_REACTORS
330
241
102
}
330
241
100
AcDbScale
 70
     0
300
1:30
140
1.0
141
30.0
290
     0
  0
SCALE
  5
24B
102
{ACAD_REACTORS
330
241
102
}
330
241
100
AcDbScale
 70
     0
300
1:40
140
1.0
141
40.0
290
     0
  0
SCALE
  5
24C
102
{ACAD_REACTORS
330
241
102
}
330
241
100
AcDbScale
 70
     0
300
1:50
140
1.0
141
50.0
290
     0
  0
SCALE
  5
24D
102
{ACAD_REACTORS
330
241
102
}
330
241
100
AcDbScale
 70
     0
300
1:100
140
1.0
141
100.0
290
     0
  0
SCALE
  5
24E
102
{ACAD_REACTORS
330
241
102
}
330
241
100
AcDbScale
 70
     0
300
2:1
140
2.0
141
1.0
290
     0
  0
SCALE
  5
24F
102
{ACAD_REACTORS
330
241
102
}
330
241
100
AcDbScale
 70
     0
300
4:1
140
4.0
141
1.0
290
     0
  0
SCALE
  5
250
102
{ACAD_REACTORS
330
241
102
}
330
241
100
AcDbScale
 70
     0
300
8:1
140
8.0
141
1.0
290
     0
  0
SCALE
  5
251
102
{ACAD_REACTORS
330
241
102
}
330
241
100
AcDbScale
 70
     0
300
10:1
140
10.0
141
1.0
290
     0
  0
SCALE
  5
252
102
{ACAD_REACTORS
330
241
102
}
330
241
100
AcDbScale
 70
     0
300
100:1
140
100.0
141
1.0
290
     0
  0
SCALE
  5
253
102
{ACAD_REACTORS
330
241
102
}
330
241
100
AcDbScale
 70
     0
300
1/128" = 1'-0"
140
0.0078125
141
12.0
290
     0
  0
SCALE
  5
254
102
{ACAD_REACTORS
330
241
102
}
330
241
100
AcDbScale
 70
     0
300
1/64" = 1'-0"
140
0.015625
141
12.0
290
     0
  0
SCALE
  5
255
102
{ACAD_REACTORS
330
241
102
}
330
241
100
AcDbScale
 70
     0
300
1/32" = 1'-0"
140
0.03125
141
12.0
290
     0
  0
SCALE
  5
256
102
{ACAD_REACTORS
330
241
102
}
330
241
100
AcDbScale
 70
     0
300
1/16" = 1'-0"
140
0.0625
141
12.0
290
     0
  0
SCALE
  5
257
102
{ACAD_REACTORS
330
241
102
}
330
241
100
AcDbScale
 70
     0
300
3/32" = 1'-0"
140
0.09375
141
12.0
290
     0
  0
SCALE
  5
258
102
{ACAD_REACTORS
330
241
102
}
330
241
100
AcDbScale
 70
     0
300
1/8" = 1'-0"
140
0.125
141
12.0
290
     0
  0
SCALE
  5
259
102
{ACAD_REACTORS
330
241
102
}
330
241
100
AcDbScale
 70
     0
300
3/16" = 1'-0"
140
0.1875
141
12.0
290
     0
  0
SCALE
  5
25A
102
{ACAD_REACTORS
330
241
102
}
330
241
100
AcDbScale
 70
     0
300
1/4" = 1'-0"
140
0.25
141
12.0
290
     0
  0
SCALE
  5
25B
102
{ACAD_REACTORS
330
241
102
}
330
241
100
AcDbScale
 70
     0
300
3/8" = 1'-0"
140
0.375
141
12.0
290
     0
  0
SCALE
  5
25C
102
{ACAD_REACTORS
330
241
102
}
330
241
100
AcDbScale
 70
     0
300
1/2" = 1'-0"
140
0.5
141
12.0
290
     0
  0
SCALE
  5
25D
102
{ACAD_REACTORS
330
241
102
}
330
241
100
AcDbScale
 70
     0
300
3/4" = 1'-0"
140
0.75
141
12.0
290
     0
  0
SCALE
  5
25E
102
{ACAD_REACTORS
330
241
102
}
330
241
100
AcDbScale
 70
     0
300
1" = 1'-0"
140
1.0
141
12.0
290
     0
  0
SCALE
  5
25F
102
{ACAD_REACTORS
330
241
102
}
330
241
100
AcDbScale
 70
     0
300
1-1/2" = 1'-0"
140
1.5
141
12.0
290
     0
  0
SCALE
  5
260
102
{ACAD_REACTORS
330
241
102
}
330
241
100
AcDbScale
 70
     0
300
3" = 1'-0"
140
3.0
141
12.0
290
     0
  0
SCALE
  5
261
102
{ACAD_REACTORS
330
241
102
}
330
241
100
AcDbScale
 70
     0
300
6" = 1'-0"
140
6.0
141
12.0
290
     0
  0
SCALE
  5
262
102
{ACAD_REACTORS
330
241
102
}
330
241
100
AcDbScale
 70
     0
300
1'-0" = 1'-0"
140
12.0
141
12.0
290
     0
  0
TABLESTYLE
  5
279
102
{ACAD_REACTORS
330
278
102
}
102
{ACAD_XDICTIONARY
360
4965
102
}
330
278
100
AcDbTableStyle
  3
Standard
 70
     0
 71
     0
 40
0.06
 41
0.06
280
     0
281
     0
  7
Standard
140
4.5
170
     2
 62
     0
 63
   257
283
     0
 90
        4
 91
        0
  1

274
    -2
284
     1
 64
     0
275
    -2
285
     1
 65
     0
276
    -2
286
     1
 66
     0
277
    -2
287
     1
 67
     0
278
    -2
288
     1
 68
     0
279
    -2
289
     1
 69
     0
  7
Standard
140
6.0
170
     5
 62
     0
 63
   257
283
     0
 90
        4
 91
        0
  1

274
    -2
284
     1
 64
     0
275
    -2
285
     1
 65
     0
276
    -2
286
     1
 66
     0
277
    -2
287
     1
 67
     0
278
    -2
288
     1
 68
     0
279
    -2
289
     1
 69
     0
  7
Standard
140
4.5
170
     5
 62
     0
 63
   257
283
     0
 90
        4
 91
        0
  1

274
    -2
284
     1
 64
     0
275
    -2
285
     1
 65
     0
276
    -2
286
     1
 66
     0
277
    -2
287
     1
 67
     0
278
    -2
288
     1
 68
     0
279
    -2
289
     1
 69
     0
  0
VISUALSTYLE
  5
26C
102
{ACAD_REACTORS
330
267
102
}
330
267
100
AcDbVisualStyle
  2
2dWireframe
 70
     4
 71
     0
 72
     2
 73
     0
 90
        0
 40
-0.6
 41
-30.0
 62
     5
 63
     7
421
 16777215
 74
     1
 91
        4
 64
     7
 65
   257
 75
     1
175
     1
 42
1.0
 92
        0
 66
   257
 43
1.0
 76
     1
 77
     6
 78
     2
 67
     7
 79
     5
170
     0
171
     0
290
     0
174
     0
 93
        1
 44
0.0
173
     0
291
     0
 45
0.0
  0
VISUALSTYLE
  5
26E
102
{ACAD_REACTORS
330
267
102
}
330
267
100
AcDbVisualStyle
  2
3D Hidden
 70
     6
 71
     1
 72
     2
 73
     2
 90
        0
 40
-0.6
 41
-30.0
 62
     5
 63
     7
421
 16777215
 74
     2
 91
        2
 64
     7
 65
   257
 75
     2
175
     1
 42
40.0
 92
        0
 66
   257
 43
1.0
 76
     1
 77
     6
 78
     2
 67
     7
 79
     3
170
     0
171
     0
290
     0
174
     0
 93
        1
 44
0.0
173
     0
291
     0
 45
0.0
  0
VISUALSTYLE
  5
26D
102
{ACAD_REACTORS
330
267
102
}
330
267
100
AcDbVisualStyle
  2
3dWireframe
 70
     5
 71
     0
 72
     2
 73
     0
 90
        0
 40
-0.6
 41
-30.0
 62
     5
 63
     7
421
 16777215
 74
     1
 91
        4
 64
     7
 65
   257
 75
     1
175
     1
 42
1.0
 92
        0
 66
   257
 43
1.0
 76
     1
 77
     6
 78
     2
 67
     7
 79
     5
170
     0
171
     0
290
     0
174
     0
 93
        1
 44
0.0
173
     0
291
     0
 45
0.0
  0
VISUALSTYLE
  5
26F
102
{ACAD_REACTORS
330
267
102
}
330
267
100
AcDbVisualStyle
  2
Basic
 70
     7
 71
     1
 72
     0
 73
     1
 90
        0
 40
-0.6
 41
-30.0
 62
     5
 63
     7
421
 16777215
 74
     0
 91
        4
 64
     7
 65
   257
 75
     1
175
     1
 42
1.0
 92
        8
 66
     7
 43
1.0
 76
     1
 77
     6
 78
     2
 67
     7
 79
     5
170
     0
171
     0
290
     0
174
     0
 93
        1
 44
0.0
173
     0
291
     1
 45
0.0
  0
VISUALSTYLE
  5
273
102
{ACAD_REACTORS
330
267
102
}
330
267
100
AcDbVisualStyle
  2
Brighten
 70
    12
 71
     2
 72
     2
 73
     0
 90
        0
 40
-0.6
 41
-30.0
 62
     5
 63
     7
421
 16777215
 74
     1
 91
        4
 64
     7
 65
   257
 75
     1
175
     1
 42
1.0
 92
        8
 66
     7
 43
1.0
 76
     1
 77
     6
 78
     2
 67
     7
 79
     5
170
     0
171
     0
290
     0
174
     0
 93
        1
 44
50.0
173
     0
291
     1
 45
0.0
  0
VISUALSTYLE
  5
277
102
{ACAD_REACTORS
330
267
102
}
330
267
100
AcDbVisualStyle
  2
ColorChange
 70
    16
 71
     2
 72
     2
 73
     3
 90
        0
 40
-0.6
 41
-30.0
 62
     5
 63
     8
421
  8421504
 74
     1
 91
        4
 64
     7
 65
   257
 75
     1
175
     1
 42
1.0
 92
        8
 66
     8
424
  8421504
 43
1.0
 76
     1
 77
     6
 78
     2
 67
     7
 79
     5
170
     0
171
     0
290
     0
174
     0
 93
        1
 44
0.0
173
     0
291
     1
 45
0.0
  0
VISUALSTYLE
  5
271
102
{ACAD_REACTORS
330
267
102
}
330
267
100
AcDbVisualStyle
  2
Conceptual
 70
     9
 71
     3
 72
     2
 73
     0
 90
        0
 40
-0.6
 41
-30.0
 62
     5
 63
     7
421
 16777215
 74
     2
 91
        2
 64
     7
 65
   257
 75
     1
175
     1
 42
40.0
 92
        8
 66
     7
 43
1.0
 76
     1
 77
     6
 78
     2
 67
     7
 79
     3
170
     0
171
     0
290
     0
174
     0
 93
        1
 44
0.0
173
     0
291
     0
 45
0.0
  0
VISUALSTYLE
  5
272
102
{ACAD_REACTORS
330
267
102
}
330
267
100
AcDbVisualStyle
  2
Dim
 70
    11
 71
     2
 72
     2
 73
     0
 90
        0
 40
-0.6
 41
-30.0
 62
     5
 63
     7
421
 16777215
 74
     1
 91
        4
 64
     7
 65
   257
 75
     1
175
     1
 42
1.0
 92
        8
 66
     7
 43
1.0
 76
     1
 77
     6
 78
     2
 67
     7
 79
     5
170
     0
171
     0
290
     0
174
     0
 93
        1
 44
-50.0
173
     0
291
     1
 45
0.0
  0
VISUALSTYLE
  5
8FE
102
{ACAD_REACTORS
330
267
102
}
330
267
100
AcDbVisualStyle
  2
EdgeColorOff
 70
    22
 71
     2
 72
     2
 73
     0
 90
        0
 40
0.6
 41
30.0
 62
     5
 63
     7
421
 16777215
 74
     1
 91
        4
 64
     7
 65
   257
 75
     1
175
     1
 42
1.0
 92
        8
 66
     7
 43
1.0
 76
     1
 77
     6
 78
     2
 67
     7
 79
     5
170
     0
171
     0
290
     0
174
     0
 93
        1
 44
0.0
173
     0
291
     1
 45
0.0
  0
VISUALSTYLE
  5
276
102
{ACAD_REACTORS
330
267
102
}
330
267
100
AcDbVisualStyle
  2
Facepattern
 70
    15
 71
     2
 72
     2
 73
     0
 90
        0
 40
-0.6
 41
-30.0
 62
     5
 63
     7
421
 16777215
 74
     1
 91
        4
 64
     7
 65
   257
 75
     1
175
     1
 42
1.0
 92
        8
 66
     7
 43
1.0
 76
     1
 77
     6
 78
     2
 67
     7
 79
     5
170
     0
171
     0
290
     0
174
     0
 93
        1
 44
0.0
173
     0
291
     1
 45
0.0
  0
VISUALSTYLE
  5
268
102
{ACAD_REACTORS
330
267
102
}
330
267
100
AcDbVisualStyle
  2
Flat
 70
     0
 71
     2
 72
     1
 73
     1
 90
        2
 40
-0.6
 41
30.0
 62
     5
 63
     7
421
 16777215
 74
     0
 91
        4
 64
     7
 65
   257
 75
     1
175
     1
 42
1.0
 92
        8
 66
     7
 43
1.0
 76
     1
 77
     6
 78
     2
 67
     7
 79
     5
170
     0
171
     0
290
     0
174
     0
 93
       13
 44
0.0
173
     0
291
     1
 45
0.0
  0
VISUALSTYLE
  5
269
102
{ACAD_REACTORS
330
267
102
}
330
267
100
AcDbVisualStyle
  2
FlatWithEdges
 70
     1
 71
     2
 72
     1
 73
     1
 90
        2
 40
-0.6
 41
30.0
 62
     5
 63
     7
421
 16777215
 74
     1
 91
        4
 64
     7
 65
   257
 75
     1
175
     1
 42
1.0
 92
        0
 66
   257
 43
1.0
 76
     1
 77
     6
 78
     2
 67
     7
 79
     5
170
     0
171
     0
290
     0
174
     0
 93
       13
 44
0.0
173
     0
291
     1
 45
0.0
  0
VISUALSTYLE
  5
26A
102
{ACAD_REACTORS
330
267
102
}
330
267
100
AcDbVisualStyle
  2
Gouraud
 70
     2
 71
     2
 72
     2
 73
     1
 90
        2
 40
-0.6
 41
30.0
 62
     5
 63
     7
421
 16777215
 74
     0
 91
        4
 64
     7
 65
   257
 75
     1
175
     1
 42
1.0
 92
        0
 66
     7
 43
1.0
 76
     1
 77
     6
 78
     2
 67
     7
 79
     5
170
     0
171
     0
290
     0
174
     0
 93
       13
 44
0.0
173
     0
291
     1
 45
0.0
  0
VISUALSTYLE
  5
26B
102
{ACAD_REACTORS
330
267
102
}
330
267
100
AcDbVisualStyle
  2
GouraudWithEdges
 70
     3
 71
     2
 72
     2
 73
     1
 90
        2
 40
-0.6
 41
30.0
 62
     5
 63
     7
421
 16777215
 74
     1
 91
        4
 64
     7
 65
   257
 75
     1
175
     1
 42
1.0
 92
        0
 66
   257
 43
1.0
 76
     1
 77
     6
 78
     2
 67
     7
 79
     5
170
     0
171
     0
290
     0
174
     0
 93
       13
 44
0.0
173
     0
291
     1
 45
0.0
  0
VISUALSTYLE
  5
8FB
102
{ACAD_REACTORS
330
267
102
}
330
267
100
AcDbVisualStyle
  2
Hidden
 70
     6
 71
     1
 72
     2
 73
     2
 90
        0
 40
0.6
 41
30.0
 62
     5
 63
     7
421
 16777215
 74
     2
 91
        2
 64
     7
 65
   257
 75
     2
175
     1
 42
40.0
 92
        0
 66
   257
 43
1.0
 76
     1
 77
     6
 78
     2
 67
     7
 79
     3
170
     0
171
     0
290
     0
174
     0
 93
        1
 44
0.0
173
     0
291
     0
 45
0.0
  0
VISUALSTYLE
  5
8FC
102
{ACAD_REACTORS
330
267
102
}
330
267
100
AcDbVisualStyle
  2
JitterOff
 70
    20
 71
     2
 72
     2
 73
     0
 90
        0
 40
0.6
 41
30.0
 62
     5
 63
     7
421
 16777215
 74
     1
 91
        4
 64
     7
 65
   257
 75
     1
175
     1
 42
1.0
 92
       10
 66
     7
 43
1.0
 76
     1
 77
     6
 78
     2
 67
     7
 79
     5
170
     0
171
     0
290
     0
174
     0
 93
        1
 44
0.0
173
     0
291
     1
 45
0.0
  0
VISUALSTYLE
  5
275
102
{ACAD_REACTORS
330
267
102
}
330
267
100
AcDbVisualStyle
  2
Linepattern
 70
    14
 71
     2
 72
     2
 73
     0
 90
        0
 40
-0.6
 41
-30.0
 62
     5
 63
     7
421
 16777215
 74
     1
 91
        4
 64
     7
 65
   257
 75
     7
175
     7
 42
1.0
 92
        8
 66
     7
 43
1.0
 76
     1
 77
     6
 78
     2
 67
     7
 79
     5
170
     0
171
     0
290
     0
174
     0
 93
        1
 44
0.0
173
     0
291
     1
 45
0.0
  0
VISUALSTYLE
  5
8FD
102
{ACAD_REACTORS
330
267
102
}
330
267
100
AcDbVisualStyle
  2
OverhangOff
 70
    21
 71
     2
 72
     2
 73
     0
 90
        0
 40
0.6
 41
30.0
 62
     5
 63
     7
421
 16777215
 74
     1
 91
        4
 64
     7
 65
   257
 75
     1
175
     1
 42
1.0
 92
        9
 66
     7
 43
1.0
 76
     1
 77
     6
 78
     2
 67
     7
 79
     5
170
     0
171
     0
290
     0
174
     0
 93
        1
 44
0.0
173
     0
291
     1
 45
0.0
  0
VISUALSTYLE
  5
270
102
{ACAD_REACTORS
330
267
102
}
330
267
100
AcDbVisualStyle
  2
Realistic
 70
     8
 71
     2
 72
     2
 73
     0
 90
        0
 40
-0.6
 41
-30.0
 62
     5
 63
     7
421
 16777215
 74
     1
 91
        0
 64
     7
 65
   257
 75
     1
175
     1
 42
1.0
 92
        8
 66
     8
424
  7895160
 43
1.0
 76
     1
 77
     6
 78
     2
 67
     7
 79
     5
170
     0
171
     0
290
     0
174
     0
 93
       13
 44
0.0
173
     0
291
     0
 45
0.0
  0
VISUALSTYLE
  5
903
102
{ACAD_REACTORS
330
267
102
}
330
267
100
AcDbVisualStyle
  2
Shaded
 70
    27
 71
     2
 72
     2
 73
     1
 90
        2
 40
0.6
 41
30.0
 62
     5
 63
     7
421
 16777215
 74
     0
 91
        4
 64
     7
 65
   257
 75
     1
175
     1
 42
1.0
 92
        8
 66
   257
 43
1.0
 76
     1
 77
     6
 78
     2
 67
     8
425
  7895160
 79
     3
170
     0
171
     0
290
     0
174
     0
 93
        5
 44
0.0
173
     0
291
     0
 45
0.0
  0
VISUALSTYLE
  5
902
102
{ACAD_REACTORS
330
267
102
}
330
267
100
AcDbVisualStyle
  2
Shaded with edges
 70
    26
 71
     2
 72
     2
 73
     1
 90
        2
 40
0.6
 41
30.0
 62
     5
 63
     7
421
 16777215
 74
     1
 91
       10
 64
     7
 65
   257
 75
     2
175
     1
 42
1.0
 92
        8
 66
   257
 43
1.0
 76
     1
 77
     6
 78
     2
 67
     7
 79
     3
170
     0
171
     0
290
     0
174
     0
 93
        5
 44
0.0
173
     0
291
     0
 45
0.0
  0
VISUALSTYLE
  5
8FF
102
{ACAD_REACTORS
330
267
102
}
330
267
100
AcDbVisualStyle
  2
Shades of Gray
 70
    23
 71
     2
 72
     2
 73
     3
 90
        0
 40
0.6
 41
30.0
 62
     5
 63
     7
421
 16777215
 74
     2
 91
        2
 64
     7
 65
     7
 75
     1
175
     1
 42
40.0
 92
        8
 66
     7
 43
1.0
 76
     1
 77
     6
 78
     2
 67
     7
 79
     3
170
     0
171
     0
290
     0
174
     0
 93
        1
 44
0.0
173
     0
291
     0
 45
0.0
  0
VISUALSTYLE
  5
900
102
{ACAD_REACTORS
330
267
102
}
330
267
100
AcDbVisualStyle
  2
Sketchy
 70
    24
 71
     1
 72
     2
 73
     2
 90
        0
 40
0.6
 41
30.0
 62
     5
 63
     7
421
 16777215
 74
     2
 91
        2
 64
     7
 65
     7
 75
     1
175
     1
 42
40.0
 92
       11
 66
     7
 43
1.0
 76
     1
 77
     6
 78
     2
 67
     7
 79
     6
170
     0
171
     0
290
     0
174
     0
 93
        1
 44
0.0
173
     0
291
     0
 45
0.0
  0
VISUALSTYLE
  5
274
102
{ACAD_REACTORS
330
267
102
}
330
267
100
AcDbVisualStyle
  2
Thicken
 70
    13
 71
     2
 72
     2
 73
     0
 90
        0
 40
-0.6
 41
-30.0
 62
     5
 63
     7
421
 16777215
 74
     1
 91
        4
 64
     7
 65
   257
 75
     1
175
     1
 42
1.0
 92
       12
 66
     7
 43
1.0
 76
     1
 77
     6
 78
     2
 67
     7
 79
     5
170
     0
171
     0
290
     0
174
     0
 93
        1
 44
0.0
173
     0
291
     1
 45
0.0
  0
VISUALSTYLE
  5
8FA
102
{ACAD_REACTORS
330
267
102
}
330
267
100
AcDbVisualStyle
  2
Wireframe
 70
     5
 71
     0
 72
     2
 73
     0
 90
        0
 40
0.6
 41
30.0
 62
     5
 63
     7
421
 16777215
 74
     1
 91
        4
 64
     7
 65
   257
 75
     1
175
     1
 42
1.0
 92
        0
 66
   257
 43
1.0
 76
     1
 77
     6
 78
     2
 67
     7
 79
     3
170
     0
171
     0
290
     0
174
     0
 93
        1
 44
0.0
173
     0
291
     0
 45
0.0
  0
VISUALSTYLE
  5
901
102
{ACAD_REACTORS
330
267
102
}
330
267
100
AcDbVisualStyle
  2
X-Ray
 70
    25
 71
     2
 72
     2
 73
     1
 90
        1
 40
0.5
 41
30.0
 62
     5
 63
     7
421
 16777215
 74
     1
 91
        0
 64
     7
 65
   257
 75
     1
175
     1
 42
1.0
 92
        8
 66
     7
 43
1.0
 76
     1
 77
     6
 78
     2
 67
     7
 79
     3
170
     0
171
     0
290
     0
174
     0
 93
       13
 44
0.0
173
     0
291
     0
 45
0.0
  0
DICTIONARYVAR
  5
331
102
{ACAD_REACTORS
330
330
102
}
330
330
100
DictionaryVariables
280
     0
  1
1:1
  0
DICTIONARYVAR
  5
D5E
102
{ACAD_REACTORS
330
330
102
}
330
330
100
DictionaryVariables
280
     0
  1
Standard
  0
DICTIONARYVAR
  5
335
102
{ACAD_REACTORS
330
330
102
}
330
330
100
DictionaryVariables
280
     0
  1
Standard
  0
DICTIONARYVAR
  5
D52
102
{ACAD_REACTORS
330
330
102
}
330
330
100
DictionaryVariables
280
     0
  1
ByLayer
  0
DICTIONARYVAR
  5
896
102
{ACAD_REACTORS
330
330
102
}
330
330
100
DictionaryVariables
280
     0
  1
0
  0
DICTIONARYVAR
  5
246C
102
{ACAD_REACTORS
330
E38
102
}
330
E38
100
DictionaryVariables
280
     0
  1
0.261799
  0
DICTIONARYVAR
  5
246A
102
{ACAD_REACTORS
330
E38
102
}
330
E38
100
DictionaryVariables
280
     0
  1
0.400000
  0
DICTIONARYVAR
  5
246B
102
{ACAD_REACTORS
330
E38
102
}
330
E38
100
DictionaryVariables
280
     0
  1
0.250000
  0
DICTIONARYVAR
  5
246D
102
{ACAD_REACTORS
330
E38
102
}
330
E38
100
DictionaryVariables
280
     0
  1
1
  0
FIELD
  5
3CB6
102
{ACAD_REACTORS
330
441D
330
4961
102
}
330
4961
100
AcDbField
  1
_text
  2
{%<\_FldIdx 0>%M}
 90
        1
360
3CB9
 97
        0
 91
       63
 92
        0
 94
       11
 95
        2
 96
        0
300

 93
        1
  6
ACFD_FIELDTEXT_CHECKSUM
 93
        2
 90
        2
140
4506.0
 94
        0
300

302

304
ACVALUE_END
  7
ACFD_FIELD_VALUE
 93
        6
 90
        4
  1
{20230823M}
 94
        0
300

302

304
ACVALUE_END
301
{20230823M}
 98
       11
  0
DICTIONARY
  5
4965
330
279
100
AcDbDictionary
280
     1
281
     1
  3
ACAD_ROUNDTRIP_2008_TABLESTYLE_CELLSTYLEMAP
360
4966
  0
FIELD
  5
3CB9
330
3CB6
100
AcDbField
  1
AcVar
  2
\AcVar CreateDate \f "yyyyMMdd"
 90
        0
 97
        0
 91
       63
 92
        0
 94
       11
 95
        2
 96
        0
300

 93
        1
  6
Variable
 93
        2
 90
        4
  1
CreateDate
 94
        0
300

302

304
ACVALUE_END
  7
ACFD_FIELD_VALUE
 93
        6
 90
        8
 92
       16
310
E7070800000017000200180003000000
 94
        0
300
yyyyMMdd
302

304
ACVALUE_END
301
20230823
 98
        8
  0
CELLSTYLEMAP
  5
4966
102
{ACAD_REACTORS
330
4965
102
}
330
4965
100
AcDbCellStyleMap
 90
        3
300
CELLSTYLE
  1
TABLEFORMAT_BEGIN
 90
        5
170
     1
 91
        0
 92
    32768
 62
   257
 93
        1
300
CONTENTFORMAT
  1
CONTENTFORMAT_BEGIN
 90
        0
 91
        0
 92
        4
 93
        0
300

 40
0.0
140
1.0
 94
        5
 62
     0
340
17
144
6.0
309
CONTENTFORMAT_END
171
     1
301
MARGIN
  1
CELLMARGIN_BEGIN
 40
0.06
 40
0.06
 40
0.06
 40
0.06
 40
0.18
 40
0.18
309
CELLMARGIN_END
 94
        6
 95
        1
302
GRIDFORMAT
  1
GRIDFORMAT_BEGIN
 90
        0
 91
        1
 62
     0
 92
       -2
340
0
 93
        0
 40
0.045
309
GRIDFORMAT_END
 95
        2
302
GRIDFORMAT
  1
GRIDFORMAT_BEGIN
 90
        0
 91
        1
 62
     0
 92
       -2
340
0
 93
        0
 40
0.045
309
GRIDFORMAT_END
 95
        4
302
GRIDFORMAT
  1
GRIDFORMAT_BEGIN
 90
        0
 91
        1
 62
     0
 92
       -2
340
0
 93
        0
 40
0.045
309
GRIDFORMAT_END
 95
        8
302
GRIDFORMAT
  1
GRIDFORMAT_BEGIN
 90
        0
 91
        1
 62
     0
 92
       -2
340
0
 93
        0
 40
0.045
309
GRIDFORMAT_END
 95
       16
302
GRIDFORMAT
  1
GRIDFORMAT_BEGIN
 90
        0
 91
        1
 62
     0
 92
       -2
340
0
 93
        0
 40
0.045
309
GRIDFORMAT_END
 95
       32
302
GRIDFORMAT
  1
GRIDFORMAT_BEGIN
 90
        0
 91
        1
 62
     0
 92
       -2
340
0
 93
        0
 40
0.045
309
GRIDFORMAT_END
309
TABLEFORMAT_END
  1
CELLSTYLE_BEGIN
 90
        1
 91
        1
300
_TITLE
309
CELLSTYLE_END
300
CELLSTYLE
  1
TABLEFORMAT_BEGIN
 90
        5
170
     1
 91
        0
 92
        0
 62
   257
 93
        1
300
CONTENTFORMAT
  1
CONTENTFORMAT_BEGIN
 90
        0
 91
        0
 92
        4
 93
        0
300

 40
0.0
140
1.0
 94
        5
 62
     0
340
17
144
4.5
309
CONTENTFORMAT_END
171
     1
301
MARGIN
  1
CELLMARGIN_BEGIN
 40
0.06
 40
0.06
 40
0.06
 40
0.06
 40
0.18
 40
0.18
309
CELLMARGIN_END
 94
        6
 95
        1
302
GRIDFORMAT
  1
GRIDFORMAT_BEGIN
 90
        0
 91
        1
 62
     0
 92
       -2
340
0
 93
        0
 40
0.045
309
GRIDFORMAT_END
 95
        2
302
GRIDFORMAT
  1
GRIDFORMAT_BEGIN
 90
        0
 91
        1
 62
     0
 92
       -2
340
0
 93
        0
 40
0.045
309
GRIDFORMAT_END
 95
        4
302
GRIDFORMAT
  1
GRIDFORMAT_BEGIN
 90
        0
 91
        1
 62
     0
 92
       -2
340
0
 93
        0
 40
0.045
309
GRIDFORMAT_END
 95
        8
302
GRIDFORMAT
  1
GRIDFORMAT_BEGIN
 90
        0
 91
        1
 62
     0
 92
       -2
340
0
 93
        0
 40
0.045
309
GRIDFORMAT_END
 95
       16
302
GRIDFORMAT
  1
GRIDFORMAT_BEGIN
 90
        0
 91
        1
 62
     0
 92
       -2
340
0
 93
        0
 40
0.045
309
GRIDFORMAT_END
 95
       32
302
GRIDFORMAT
  1
GRIDFORMAT_BEGIN
 90
        0
 91
        1
 62
     0
 92
       -2
340
0
 93
        0
 40
0.045
309
GRIDFORMAT_END
309
TABLEFORMAT_END
  1
CELLSTYLE_BEGIN
 90
        2
 91
        1
300
_HEADER
309
CELLSTYLE_END
300
CELLSTYLE
  1
TABLEFORMAT_BEGIN
 90
        5
170
     1
 91
        0
 92
        0
 62
   257
 93
        1
300
CONTENTFORMAT
  1
CONTENTFORMAT_BEGIN
 90
        0
 91
        0
 92
        4
 93
        0
300

 40
0.0
140
1.0
 94
        2
 62
     0
340
17
144
4.5
309
CONTENTFORMAT_END
171
     1
301
MARGIN
  1
CELLMARGIN_BEGIN
 40
0.06
 40
0.06
 40
0.06
 40
0.06
 40
0.18
 40
0.18
309
CELLMARGIN_END
 94
        6
 95
        1
302
GRIDFORMAT
  1
GRIDFORMAT_BEGIN
 90
        0
 91
        1
 62
     0
 92
       -2
340
0
 93
        0
 40
0.045
309
GRIDFORMAT_END
 95
        2
302
GRIDFORMAT
  1
GRIDFORMAT_BEGIN
 90
        0
 91
        1
 62
     0
 92
       -2
340
0
 93
        0
 40
0.045
309
GRIDFORMAT_END
 95
        4
302
GRIDFORMAT
  1
GRIDFORMAT_BEGIN
 90
        0
 91
        1
 62
     0
 92
       -2
340
0
 93
        0
 40
0.045
309
GRIDFORMAT_END
 95
        8
302
GRIDFORMAT
  1
GRIDFORMAT_BEGIN
 90
        0
 91
        1
 62
     0
 92
       -2
340
0
 93
        0
 40
0.045
309
GRIDFORMAT_END
 95
       16
302
GRIDFORMAT
  1
GRIDFORMAT_BEGIN
 90
        0
 91
        1
 62
     0
 92
       -2
340
0
 93
        0
 40
0.045
309
GRIDFORMAT_END
 95
       32
302
GRIDFORMAT
  1
GRIDFORMAT_BEGIN
 90
        0
 91
        1
 62
     0
 92
       -2
340
0
 93
        0
 40
0.045
309
GRIDFORMAT_END
309
TABLEFORMAT_END
  1
CELLSTYLE_BEGIN
 90
        3
 91
        2
300
_DATA
309
CELLSTYLE_END
  0
ENDSEC
  0
EOF
