  0
SECTION
  2
HEADER
  9
$ACADVER
  1
AC1021
  9
$ACADMAINTVER
 70
    25
  9
$DWGCODEPAGE
  3
ANSI_932
  9
$LASTSAVEDBY
  1
Shimosaki
  9
$INSBASE
 10
0.0
 20
0.0
 30
0.0
  9
$EXTMIN
 10
0.0
 20
-5486.504037957064
 30
0.0
  9
$EXTMAX
 10
3857.315858408597
 20
2970.0
 30
34.99521132346015
  9
$LIMMIN
 10
0.0
 20
0.0
  9
$LIMMAX
 10
2100.0
 20
2970.0
  9
$ORTHOMODE
 70
     0
  9
$REGENMODE
 70
     1
  9
$FILLMODE
 70
     1
  9
$QTEXTMODE
 70
     0
  9
$MIRRTEXT
 70
     1
  9
$LTSCALE
 40
5.0
  9
$ATTMODE
 70
     1
  9
$TEXTSIZE
 40
533.0403732820173
  9
$TRACEWID
 40
1.0
  9
$TEXTSTYLE
  7
Standard
  9
$CLAYER
  8
Dim
  9
$CELTYPE
  6
Continuous
  9
$CECOLOR
 62
   256
  9
$CELTSCALE
 40
1.0
  9
$DISPSILH
 70
     0
  9
$DIMSCALE
 40
1.0
  9
$DIMASZ
 40
9.0
  9
$DIMEXO
 40
25.0
  9
$DIMDLI
 40
25.0
  9
$DIMRND
 40
0.0
  9
$DIMDLE
 40
0.0
  9
$DIMEXE
 40
0.0
  9
$DIMTP
 40
0.0
  9
$DIMTM
 40
0.0
  9
$DIMTXT
 40
24.4326171875
  9
$DIMCEN
 40
0.0
  9
$DIMTSZ
 40
0.0
  9
$DIMTOL
 70
     0
  9
$DIMLIM
 70
     0
  9
$DIMTIH
 70
     0
  9
$DIMTOH
 70
     0
  9
$DIMSE1
 70
     0
  9
$DIMSE2
 70
     0
  9
$DIMTAD
 70
     1
  9
$DIMZIN
 70
    11
  9
$DIMBLK
  1
DOT
  9
$DIMASO
 70
     1
  9
$DIMSHO
 70
     1
  9
$DIMPOST
  1
<>
  9
$DIMAPOST
  1
[]
  9
$DIMALT
 70
     0
  9
$DIMALTD
 70
     1
  9
$DIMALTF
 40
1.0
  9
$DIMLFAC
 40
1.0
  9
$DIMTOFL
 70
     0
  9
$DIMTVP
 40
0.0
  9
$DIMTIX
 70
     1
  9
$DIMSOXD
 70
     0
  9
$DIMSAH
 70
     0
  9
$DIMBLK1
  1

  9
$DIMBLK2
  1

  9
$DIMSTYLE
  2
JIS
  9
$DIMCLRD
 70
     0
  9
$DIMCLRE
 70
     0
  9
$DIMCLRT
 70
     0
  9
$DIMTFAC
 40
1.0
  9
$DIMGAP
 40
10.0
  9
$DIMJUST
 70
     0
  9
$DIMSD1
 70
     0
  9
$DIMSD2
 70
     0
  9
$DIMTOLJ
 70
     1
  9
$DIMTZIN
 70
    11
  9
$DIMALTZ
 70
    11
  9
$DIMALTTZ
 70
    11
  9
$DIMUPT
 70
     0
  9
$DIMDEC
 70
     0
  9
$DIMTDEC
 70
     1
  9
$DIMALTU
 70
     2
  9
$DIMALTTD
 70
     2
  9
$DIMTXSTY
  7
ＭＳ ゴシック
  9
$DIMAUNIT
 70
     0
  9
$DIMADEC
 70
     0
  9
$DIMALTRND
 40
0.0
  9
$DIMAZIN
 70
     0
  9
$DIMDSEP
 70
    46
  9
$DIMATFIT
 70
     0
  9
$DIMFRAC
 70
     2
  9
$DIMLDRBLK
  1
DOT
  9
$DIMLUNIT
 70
     2
  9
$DIMLWD
 70
    -2
  9
$DIMLWE
 70
    -2
  9
$DIMTMOVE
 70
     0
  9
$DIMFXL
 40
1.0
  9
$DIMFXLON
 70
     0
  9
$DIMJOGANG
 40
0.7853981633974483
  9
$DIMTFILL
 70
     0
  9
$DIMTFILLCLR
 70
     0
  9
$DIMARCSYM
 70
     0
  9
$DIMLTYPE
  6

  9
$DIMLTEX1
  6

  9
$DIMLTEX2
  6

  9
$LUNITS
 70
     2
  9
$LUPREC
 70
     0
  9
$SKETCHINC
 40
0.1
  9
$FILLETRAD
 40
10.0
  9
$AUNITS
 70
     0
  9
$AUPREC
 70
     0
  9
$MENU
  1
acad
  9
$ELEVATION
 40
0.0
  9
$PELEVATION
 40
0.0
  9
$THICKNESS
 40
0.0
  9
$LIMCHECK
 70
     0
  9
$CHAMFERA
 40
0.0
  9
$CHAMFERB
 40
0.0
  9
$CHAMFERC
 40
0.0
  9
$CHAMFERD
 40
0.0
  9
$SKPOLY
 70
     0
  9
$TDCREATE
 40
2447893.375
  9
$TDUCREATE
 40
0.0
  9
$TDUPDATE
 40
2458130.657874306
  9
$TDUUPDATE
 40
2458130.282874306
  9
$TDINDWG
 40
0.0003013079
  9
$TDUSRTIMER
 40
2458130.28257309
  9
$USRTIMER
 70
     1
  9
$ANGBASE
 50
0.0
  9
$ANGDIR
 70
     0
  9
$PDMODE
 70
     1
  9
$PDSIZE
 40
-2.0
  9
$PLINEWID
 40
0.0
  9
$SPLFRAME
 70
     0
  9
$SPLINETYPE
 70
     6
  9
$SPLINESEGS
 70
     8
  9
$HANDSEED
  5
2C10
  9
$SURFTAB1
 70
     6
  9
$SURFTAB2
 70
     6
  9
$SURFTYPE
 70
     6
  9
$SURFU
 70
     6
  9
$SURFV
 70
     6
  9
$UCSBASE
  2

  9
$UCSNAME
  2

  9
$UCSORG
 10
0.0
 20
0.0
 30
0.0
  9
$UCSXDIR
 10
1.0
 20
0.0
 30
0.0
  9
$UCSYDIR
 10
0.0
 20
1.0
 30
0.0
  9
$UCSORTHOREF
  2

  9
$UCSORTHOVIEW
 70
     0
  9
$UCSORGTOP
 10
0.0
 20
0.0
 30
0.0
  9
$UCSORGBOTTOM
 10
0.0
 20
0.0
 30
0.0
  9
$UCSORGLEFT
 10
0.0
 20
0.0
 30
0.0
  9
$UCSORGRIGHT
 10
0.0
 20
0.0
 30
0.0
  9
$UCSORGFRONT
 10
0.0
 20
0.0
 30
0.0
  9
$UCSORGBACK
 10
0.0
 20
0.0
 30
0.0
  9
$PUCSBASE
  2

  9
$PUCSNAME
  2

  9
$PUCSORG
 10
0.0
 20
0.0
 30
0.0
  9
$PUCSXDIR
 10
1.0
 20
0.0
 30
0.0
  9
$PUCSYDIR
 10
0.0
 20
1.0
 30
0.0
  9
$PUCSORTHOREF
  2

  9
$PUCSORTHOVIEW
 70
     0
  9
$PUCSORGTOP
 10
0.0
 20
0.0
 30
0.0
  9
$PUCSORGBOTTOM
 10
0.0
 20
0.0
 30
0.0
  9
$PUCSORGLEFT
 10
0.0
 20
0.0
 30
0.0
  9
$PUCSORGRIGHT
 10
0.0
 20
0.0
 30
0.0
  9
$PUCSORGFRONT
 10
0.0
 20
0.0
 30
0.0
  9
$PUCSORGBACK
 10
0.0
 20
0.0
 30
0.0
  9
$USERI1
 70
     0
  9
$USERI2
 70
     0
  9
$USERI3
 70
     0
  9
$USERI4
 70
     0
  9
$USERI5
 70
     0
  9
$USERR1
 40
0.0
  9
$USERR2
 40
0.0
  9
$USERR3
 40
0.0
  9
$USERR4
 40
0.0
  9
$USERR5
 40
0.0
  9
$WORLDVIEW
 70
     1
  9
$SHADEDGE
 70
     3
  9
$SHADEDIF
 70
    70
  9
$TILEMODE
 70
     1
  9
$MAXACTVP
 70
    64
  9
$PINSBASE
 10
0.0
 20
0.0
 30
0.0
  9
$PLIMCHECK
 70
     0
  9
$PEXTMIN
 10
0.0
 20
0.0
 30
0.0
  9
$PEXTMAX
 10
0.0
 20
0.0
 30
0.0
  9
$PLIMMIN
 10
-7.5
 20
-20.0
  9
$PLIMMAX
 10
412.5
 20
277.0
  9
$UNITMODE
 70
     0
  9
$VISRETAIN
 70
     0
  9
$PLINEGEN
 70
     1
  9
$PSLTSCALE
 70
     0
  9
$TREEDEPTH
 70
  3020
  9
$CMLSTYLE
  2
Standard
  9
$CMLJUST
 70
     0
  9
$CMLSCALE
 40
1.0
  9
$PROXYGRAPHICS
 70
     0
  9
$MEASUREMENT
 70
     1
  9
$CELWEIGHT
370
    -1
  9
$ENDCAPS
280
     0
  9
$JOINSTYLE
280
     0
  9
$LWDISPLAY
290
     1
  9
$INSUNITS
 70
     4
  9
$HYPERLINKBASE
  1

  9
$STYLESHEET
  1

  9
$XEDIT
290
     1
  9
$CEPSNTYPE
380
     0
  9
$PSTYLEMODE
290
     1
  9
$FINGERPRINTGUID
  2

  9
$VERSIONGUID
  2

  9
$EXTNAMES
290
     1
  9
$PSVPSCALE
 40
0.0
  9
$OLESTARTUP
290
     0
  9
$SORTENTS
280
   127
  9
$INDEXCTL
280
     0
  9
$HIDETEXT
280
     1
  9
$XCLIPFRAME
290
     0
  9
$HALOGAP
280
     0
  9
$OBSCOLOR
 70
   257
  9
$OBSLTYPE
280
     0
  9
$INTERSECTIONDISPLAY
280
     0
  9
$INTERSECTIONCOLOR
 70
   257
  9
$DIMASSOC
280
     2
  9
$PROJECTNAME
  1

  9
$CAMERADISPLAY
290
     0
  9
$LENSLENGTH
 40
50.0
  9
$CAMERAHEIGHT
 40
0.0
  9
$STEPSPERSEC
 40
2.0
  9
$STEPSIZE
 40
6.0
  9
$3DDWFPREC
 40
2.0
  9
$PSOLWIDTH
 40
0.25
  9
$PSOLHEIGHT
 40
4.0
  9
$LOFTANG1
 40
1.570796326794897
  9
$LOFTANG2
 40
1.570796326794897
  9
$LOFTMAG1
 40
0.0
  9
$LOFTMAG2
 40
0.0
  9
$LOFTPARAM
 70
     7
  9
$LOFTNORMALS
280
     1
  9
$LATITUDE
 40
37.795
  9
$LONGITUDE
 40
-122.394
  9
$NORTHDIRECTION
 40
0.0
  9
$TIMEZONE
 70
 -8000
  9
$LIGHTGLYPHDISPLAY
280
     1
  9
$TILEMODELIGHTSYNCH
280
     1
  9
$SOLIDHIST
280
     1
  9
$SHOWHIST
280
     1
  9
$DWFFRAME
280
     2
  9
$DGNFRAME
280
     2
  9
$REALWORLDSCALE
290
     1
  9
$INTERFERECOLOR
 62
   256
  9
$CSHADOW
280
     0
  9
$SHADOWPLANELOCATION
 40
0.0
  0
ENDSEC
  0
SECTION
  2
CLASSES
  0
CLASS
  1
LWPOLYLINE
  2
AcDbPolyline
  3
ObjectDBX Classes
 90
        0
 91
        1
280
     0
281
     1
  0
CLASS
  1
IMAGE
  2
AcDbRasterImage
  3
ISM
 90
      127
 91
        5
280
     0
281
     1
  0
CLASS
  1
OLE2FRAME
  2
AcDbOle2Frame
  3
ObjectDBX Classes
 90
        0
 91
        1
280
     0
281
     1
  0
CLASS
  1
HATCH
  2
AcDbHatch
  3
ObjectDBX Classes
 90
        0
 91
        1
280
     0
281
     1
  0
CLASS
  1
DICTIONARYVAR
  2
AcDbDictionaryVar
  3
ObjectDBX Classes
 90
        0
 91
        4
280
     0
281
     0
  0
CLASS
  1
RASTERVARIABLES
  2
AcDbRasterVariables
  3
ISM
 90
        0
 91
        4
280
     0
281
     0
  0
CLASS
  1
IMAGEDEF
  2
AcDbRasterImageDef
  3
ISM
 90
        0
 91
        4
280
     0
281
     0
  0
CLASS
  1
IMAGEDEF_REACTOR
  2
AcDbRasterImageDefReactor
  3
ISM
 90
        1
 91
        4
280
     0
281
     0
  0
CLASS
  1
IDBUFFER
  2
AcDbIdBuffer
  3
ObjectDBX Classes
 90
        0
 91
        4
280
     0
281
     0
  0
CLASS
  1
SPATIAL_FILTER
  2
AcDbSpatialFilter
  3
ObjectDBX Classes
 90
        0
 91
        4
280
     0
281
     0
  0
CLASS
  1
XRECORD
  2
AcDbXrecord
  3
ObjectDBX Classes
 90
        0
 91
        1
280
     0
281
     0
  0
CLASS
  1
SORTENTSTABLE
  2
AcDbSortentsTable
  3
ObjectDBX Classes
 90
        0
 91
        4
280
     0
281
     0
  0
CLASS
  1
LAYER_INDEX
  2
AcDbLayerIndex
  3
ObjectDBX Classes
 90
        0
 91
        4
280
     0
281
     0
  0
CLASS
  1
SPATIAL_INDEX
  2
AcDbSpatialIndex
  3
AutoCAD 2000
 90
        0
 91
        4
280
     0
281
     0
  0
CLASS
  1
OBJECT_PTR
  2
CAseDLPNTableRecord
  3
ASE-LPNTableRecord
 90
        1
 91
        4
280
     0
281
     0
  0
CLASS
  1
LAYOUT
  2
AcDbLayout
  3
ObjectDBX Classes
 90
        0
 91
        1
280
     0
281
     0
  0
CLASS
  1
PLOTSETTINGS
  2
AcDbPlotSettings
  3
ObjectDBX Classes
 90
        0
 91
        4
280
     0
281
     0
  0
CLASS
  1
ACDBDICTIONARYWDFLT
  2
AcDbDictionaryWithDefault
  3
ObjectDBX Classes
 90
        0
 91
        4
280
     0
281
     0
  0
CLASS
  1
ACDBPLACEHOLDER
  2
AcDbPlaceHolder
  3
ObjectDBX Classes
 90
        0
 91
        1
280
     0
281
     0
  0
CLASS
  1
SCALE
  2
AcDbScale
  3
ObjectDBX Classes
 90
     1153
 91
        4
280
     0
281
     0
  0
CLASS
  1
MATERIAL
  2
AcDbMaterial
  3
ObjectDBX Classes
 90
     1153
 91
        4
280
     0
281
     0
  0
CLASS
  1
VISUALSTYLE
  2
AcDbVisualStyle
  3
ObjectDBX Classes
 90
     4095
 91
        4
280
     0
281
     0
  0
CLASS
  1
TABLESTYLE
  2
AcDbTableStyle
  3
ObjectDBX Classes
 90
     4095
 91
        4
280
     0
281
     0
  0
CLASS
  1
DIMASSOC
  2
AcDbDimAssoc
  3
"AcDbDimAssoc|Product Desc:     AcDim ARX App For Dimension|Company:          Autodesk, Inc.|WEB Address:      www.autodesk.com"
 90
        0
 91
        4
280
     0
281
     0
  0
CLASS
  1
CELLSTYLEMAP
  2
AcDbCellStyleMap
  3
ObjectDBX Classes
 90
     1152
 91
        4
280
     0
281
     0
  0
CLASS
  1
SUN
  2
AcDbSun
  3
SCENEOE
 90
     1153
 91
        4
280
     0
281
     0
  0
CLASS
  1
MLEADERSTYLE
  2
AcDbMLeaderStyle
  3
ACDB_MLEADERSTYLE_CLASS
 90
     4095
 91
        4
280
     0
281
     0
  0
CLASS
  1
FIELD
  2
AcDbField
  3
ObjectDBX Classes
 90
     1152
 91
        4
280
     0
281
     0
  0
CLASS
  1
FIELDLIST
  2
AcDbFieldList
  3
ObjectDBX Classes
 90
     1152
 91
        4
280
     0
281
     0
  0
ENDSEC
  0
SECTION
  2
TABLES
  0
TABLE
  2
VPORT
  5
7
330
0
100
AcDbSymbolTable
 70
     1
  0
VPORT
  5
15
330
7
100
AcDbSymbolTableRecord
100
AcDbViewportTableRecord
  2
*ACTIVE
 70
     0
 10
0.0
 20
0.0
 11
1.0
 21
1.0
 12
1702.022958178529
 22
1557.974470342482
 13
0.0
 23
0.0
 14
1.0
 24
1.0
 15
0.0
 25
0.0
 16
0.0
 26
0.0
 36
1.0
 17
377.0474382459643
 27
-297.6123702345246
 37
0.0
 40
3786.749999999998
 41
2.396092362344583
 42
50.0
 43
0.0
 44
0.0
 50
0.0
 51
0.0
 71
    16
 72
  2000
 73
     1
 74
     1
 75
     0
 76
     0
 77
     0
 78
     0
281
     0
 65
     1
110
0.0
120
0.0
130
0.0
111
1.0
121
0.0
131
0.0
112
0.0
122
1.0
132
0.0
 79
     0
146
0.0
348
26C
 60
     3
 61
     5
292
     1
282
     1
141
0.0
142
0.0
 63
   256
361
8C2
  0
ENDTAB
  0
TABLE
  2
LTYPE
  5
4
330
0
100
AcDbSymbolTable
 70
     8
  0
LTYPE
  5
11
330
4
100
AcDbSymbolTableRecord
100
AcDbLinetypeTableRecord
  2
ByBlock
 70
     0
  3

 72
    65
 73
     0
 40
0.0
  0
LTYPE
  5
12
330
4
100
AcDbSymbolTableRecord
100
AcDbLinetypeTableRecord
  2
ByLayer
 70
     0
  3

 72
    65
 73
     0
 40
0.0
  0
LTYPE
  5
13
330
4
100
AcDbSymbolTableRecord
100
AcDbLinetypeTableRecord
  2
Continuous
 70
     0
  3
Solid line
 72
    65
 73
     0
 40
0.0
  0
LTYPE
  5
8D4
330
4
100
AcDbSymbolTableRecord
100
AcDbLinetypeTableRecord
  2
HIDDEN
 70
     0
  3
Hidden _ _ _ _ _ _ _ _ _ _ _ _ _ _ _ _ _ _ _ _ 
 72
    65
 73
     2
 40
9.524999999999999
 49
6.35
 74
     0
 49
-3.175
 74
     0
  0
LTYPE
  5
BF2
330
4
100
AcDbSymbolTableRecord
100
AcDbLinetypeTableRecord
  2
BORDER
 70
     0
  3
Border __  __  . __  __  . __  __  . __  __  . 
 72
    65
 73
     6
 40
44.45
 49
12.7
 74
     0
 49
-6.35
 74
     0
 49
12.7
 74
     0
 49
-6.35
 74
     0
 49
0.0
 74
     0
 49
-6.35
 74
     0
  0
LTYPE
  5
1B00
330
4
100
AcDbSymbolTableRecord
100
AcDbLinetypeTableRecord
  2
AI-Linetype-1
 70
     0
  3
Adobe Illustrator Linetype No. 1
 72
    65
 73
     4
 40
28.79999971389771
 49
18.0
 74
     0
 49
-3.599999904632568
 74
     0
 49
3.599999904632568
 74
     0
 49
-3.599999904632568
 74
     0
  0
LTYPE
  5
1B01
330
4
100
AcDbSymbolTableRecord
100
AcDbLinetypeTableRecord
  2
AI-Linetype-2
 70
     0
  3
Adobe Illustrator Linetype No. 2
 72
    65
 73
     4
 40
28.79999971389771
 49
18.0
 74
     0
 49
-3.599999904632568
 74
     0
 49
3.599999904632568
 74
     0
 49
-3.599999904632568
 74
     0
  0
LTYPE
  5
1B02
330
4
100
AcDbSymbolTableRecord
100
AcDbLinetypeTableRecord
  2
AI-Linetype-3
 70
     0
  3
Adobe Illustrator Linetype No. 3
 72
    65
 73
     4
 40
28.79999971389771
 49
18.0
 74
     0
 49
-3.599999904632568
 74
     0
 49
3.599999904632568
 74
     0
 49
-3.599999904632568
 74
     0
  0
LTYPE
  5
1B03
330
4
100
AcDbSymbolTableRecord
100
AcDbLinetypeTableRecord
  2
AI-Linetype-4
 70
     0
  3
Adobe Illustrator Linetype No. 4
 72
    65
 73
     4
 40
28.79999971389771
 49
18.0
 74
     0
 49
-3.599999904632568
 74
     0
 49
3.599999904632568
 74
     0
 49
-3.599999904632568
 74
     0
  0
LTYPE
  5
2475
330
4
100
AcDbSymbolTableRecord
100
AcDbLinetypeTableRecord
  2
CENTER
 70
     0
  3
 Center _____  _  _____  _  _____  _  _____  _ 
 72
    65
 73
     4
 40
50.8
 49
31.75
 74
     0
 49
-6.35
 74
     0
 49
6.35
 74
     0
 49
-6.35
 74
     0
  0
ENDTAB
  0
TABLE
  2
LAYER
  5
2
102
{ACAD_XDICTIONARY
360
2E1
102
}
330
0
100
AcDbSymbolTable
 70
     9
  0
LAYER
  5
14
330
2
100
AcDbSymbolTableRecord
100
AcDbLayerTableRecord
  2
0
 70
     0
 62
     7
  6
Continuous
370
    -3
390
1D
347
266
  0
LAYER
  5
4A
330
2
100
AcDbSymbolTableRecord
100
AcDbLayerTableRecord
  2
Defpoints
 70
     0
 62
     7
  6
Continuous
290
     0
370
    20
390
1D
347
266
  0
LAYER
  5
4B
330
2
100
AcDbSymbolTableRecord
100
AcDbLayerTableRecord
  2
template
 70
     0
 62
     7
  6
Continuous
370
    20
390
1D
347
266
  0
LAYER
  5
4D
330
2
100
AcDbSymbolTableRecord
100
AcDbLayerTableRecord
  2
MODEL
 70
     0
 62
     7
  6
Continuous
370
    20
390
1D
347
266
  0
LAYER
  5
382
330
2
100
AcDbSymbolTableRecord
100
AcDbLayerTableRecord
  2
レイヤー 1
 70
     0
 62
     7
  6
Continuous
370
    -3
390
1D
347
266
  0
LAYER
  5
5C4
330
2
100
AcDbSymbolTableRecord
100
AcDbLayerTableRecord
  2
HIDDEN
 70
     0
 62
   253
  6
HIDDEN
370
    20
390
1D
347
266
1001
AcAecLayerStandard
1000

1000

  0
LAYER
  5
5EB
330
2
100
AcDbSymbolTableRecord
100
AcDbLayerTableRecord
  2
Dim
 70
     0
 62
     3
  6
Continuous
370
    13
390
1D
347
266
1001
AcAecLayerStandard
1000

1000

  0
LAYER
  5
BF1
330
2
100
AcDbSymbolTableRecord
100
AcDbLayerTableRecord
  2
PRINT BORDER
 70
     0
 62
     4
  6
BORDER
290
     0
370
    20
390
1D
347
266
1001
AcAecLayerStandard
1000

1000

  0
LAYER
  5
24ED
330
2
100
AcDbSymbolTableRecord
100
AcDbLayerTableRecord
  2
LOGO
 70
     0
 62
     7
  6
Continuous
370
    -3
390
1D
347
266
  0
ENDTAB
  0
TABLE
  2
STYLE
  5
3
330
0
100
AcDbSymbolTable
 70
     2
  0
STYLE
  5
17
330
3
100
AcDbSymbolTableRecord
100
AcDbTextStyleTableRecord
  2
Standard
 70
     0
 40
0.0
 41
1.0
 50
0.0
 71
     0
 42
533.0403732820173
  3
txt
  4
BIGFONT.SHX
  0
STYLE
  5
39
330
3
100
AcDbSymbolTableRecord
100
AcDbTextStyleTableRecord
  2
ＭＳ ゴシック
 70
     0
 40
0.0
 41
1.0
 50
0.0
 71
     0
 42
2.5
  3
msgothic.ttc
  4
ＭＳ ゴシック
1001
ACAD
1000
ＭＳ ゴシック
1071
        0
  0
ENDTAB
  0
TABLE
  2
VIEW
  5
5
330
0
100
AcDbSymbolTable
 70
     0
  0
ENDTAB
  0
TABLE
  2
UCS
  5
6
330
0
100
AcDbSymbolTable
 70
     0
  0
ENDTAB
  0
TABLE
  2
APPID
  5
8
330
0
100
AcDbSymbolTable
 70
    11
  0
APPID
  5
16
330
8
100
AcDbSymbolTableRecord
100
AcDbRegAppTableRecord
  2
ACAD
 70
     0
  0
APPID
  5
5C5
330
8
100
AcDbSymbolTableRecord
100
AcDbRegAppTableRecord
  2
AcAecLayerStandard
 70
     0
  0
APPID
  5
913
330
8
100
AcDbSymbolTableRecord
100
AcDbRegAppTableRecord
  2
ACAD_DSTYLE_DIMBREAK
 70
     0
  0
APPID
  5
914
330
8
100
AcDbSymbolTableRecord
100
AcDbRegAppTableRecord
  2
ACAD_DSTYLE_DIMJAG
 70
     0
  0
APPID
  5
915
330
8
100
AcDbSymbolTableRecord
100
AcDbRegAppTableRecord
  2
ACAD_DSTYLE_DIMTALN
 70
     0
  0
APPID
  5
E4F
330
8
100
AcDbSymbolTableRecord
100
AcDbRegAppTableRecord
  2
ACAD_MLEADERVER
 70
     0
  0
APPID
  5
E79
330
8
100
AcDbSymbolTableRecord
100
AcDbRegAppTableRecord
  2
ACAD_PSEXT
 70
     0
  0
APPID
  5
E7A
330
8
100
AcDbSymbolTableRecord
100
AcDbRegAppTableRecord
  2
ACAD_NAV_VCDISPLAY
 70
     0
  0
APPID
  5
166E
330
8
100
AcDbSymbolTableRecord
100
AcDbRegAppTableRecord
  2
AcadAnnotative
 70
     0
  0
APPID
  5
166F
330
8
100
AcDbSymbolTableRecord
100
AcDbRegAppTableRecord
  2
GradientColor1ACI
 70
     0
  0
APPID
  5
1670
330
8
100
AcDbSymbolTableRecord
100
AcDbRegAppTableRecord
  2
GradientColor2ACI
 70
     0
  0
ENDTAB
  0
TABLE
  2
DIMSTYLE
  5
9
330
0
100
AcDbSymbolTable
 70
     3
100
AcDbDimStyleTable
  0
DIMSTYLE
105
18
330
9
100
AcDbSymbolTableRecord
100
AcDbDimStyleTableRecord
  2
Standard
 70
     0
178
     0
340
17
  0
DIMSTYLE
105
5C
102
{ACAD_REACTORS
330
1F2C
330
1F39
330
1FD9
330
2224
330
2231
330
2287
330
22A6
330
22B8
330
23CD
330
2AF2
330
2B02
102
}
330
9
100
AcDbSymbolTableRecord
100
AcDbDimStyleTableRecord
  2
JIS
 70
     0
  3
<>
  4
[]
 41
9.0
 42
0.0
 43
6.99999999999994
 44
19.9999999999962
 73
     0
 74
     0
 77
     1
 78
    11
140
24.4326171875
141
0.0
143
1.0
147
10.0
171
     1
174
     1
178
     0
179
     2
271
     1
272
     1
276
     2
284
    11
285
    11
286
    11
289
     0
340
39
341
4E
342
4E
  0
DIMSTYLE
105
24F4
102
{ACAD_REACTORS
330
2A9C
330
2A9F
330
2AA2
330
2AA5
330
2AA7
330
2AB0
102
}
330
9
100
AcDbSymbolTableRecord
100
AcDbDimStyleTableRecord
  2
tfrom線あり
 70
     0
  3
<>
  4
[]
 41
8.0
 42
30.0
 43
0.0
 44
0.0
 73
     0
 74
     0
 77
     1
 78
    11
140
24.0
141
0.0
143
1.0
147
20.0
171
     1
174
     1
178
     0
179
     2
271
     0
272
     1
276
     2
284
    11
285
    11
286
    11
289
     0
340
39
341
4E
342
4E
  0
ENDTAB
  0
TABLE
  2
BLOCK_RECORD
  5
1
330
0
100
AcDbSymbolTable
 70
    73
  0
BLOCK_RECORD
  5
A
330
1
100
AcDbSymbolTableRecord
100
AcDbBlockTableRecord
  2
*MODEL_SPACE
340
20
 70
     0
280
     1
281
     0
  0
BLOCK_RECORD
  5
B
330
1
100
AcDbSymbolTableRecord
100
AcDbBlockTableRecord
  2
*PAPER_SPACE
340
21
 70
     0
280
     1
281
     0
  0
BLOCK_RECORD
  5
4E
330
1
100
AcDbSymbolTableRecord
100
AcDbBlockTableRecord
  2
_DOT
340
0
102
{BLKREFS
331
19BF
331
19C0
331
19DB
331
19DC
331
19EB
331
19EC
331
19FA
331
19FB
331
1A0A
331
1A0B
331
1A1F
331
1A20
331
1A2C
331
1A2D
331
1A3C
331
1A3D
331
1A49
331
1A4A
331
1A8F
331
1A90
331
1AAA
331
1AAB
331
1F0A
331
1F0B
331
1F33
331
1F34
331
1F40
331
1F41
331
1FE0
331
1FE1
331
222B
331
222C
331
2238
331
2239
331
2269
331
226A
331
2278
331
2279
331
228E
331
228F
331
22AF
331
22B0
331
22BF
331
22C0
331
22DC
331
22DD
331
22F2
331
22F3
331
2377
331
2378
331
23C3
331
23C4
331
23D4
331
23D5
331
24CE
331
24CF
331
24DF
331
24E0
331
2561
331
2562
331
256E
331
256F
331
257B
331
257C
331
2588
331
2589
331
25B6
331
25B7
331
25C6
331
25C7
331
25D3
331
25D4
331
25E0
331
25E1
331
25ED
331
25EE
331
2775
331
2776
331
2786
331
2787
331
2793
331
2794
331
27A1
331
27A2
331
27AF
331
27B0
331
27C1
331
27C2
331
29B0
331
29B1
331
29BC
331
29BD
331
29C8
331
29C9
331
29D4
331
29D5
331
29DF
331
29E0
331
29EB
331
29EC
331
29F7
331
29F8
331
2A03
331
2A04
331
2A0F
331
2A10
331
2A1A
331
2A1B
331
2A28
331
2A29
331
2A34
331
2A35
331
2A40
331
2A41
331
2A4D
331
2A4E
331
2A59
331
2A5A
331
2AB6
331
2AB7
331
2AC4
331
2AC5
331
2AD0
331
2AD1
331
2ADD
331
2ADE
331
2AE9
331
2AEA
331
2AF9
331
2AFA
331
2B08
331
2B09
102
}
 70
     0
280
     1
281
     0
  0
BLOCK_RECORD
  5
3A5
330
1
100
AcDbSymbolTableRecord
100
AcDbBlockTableRecord
  2
名称未設定-1
340
0
102
{BLKREFS
331
3D0
102
}
 70
     1
280
     1
281
     0
  0
BLOCK_RECORD
  5
3A8
330
1
100
AcDbSymbolTableRecord
100
AcDbBlockTableRecord
  2
block 2
340
0
102
{BLKREFS
331
3A7
102
}
 70
     0
280
     1
281
     0
  0
BLOCK_RECORD
  5
3AB
330
1
100
AcDbSymbolTableRecord
100
AcDbBlockTableRecord
  2
block 3
340
0
102
{BLKREFS
331
3AA
102
}
 70
     0
280
     1
281
     0
  0
BLOCK_RECORD
  5
3AE
330
1
100
AcDbSymbolTableRecord
100
AcDbBlockTableRecord
  2
block 4
340
0
102
{BLKREFS
331
3AD
102
}
 70
     0
280
     1
281
     0
  0
BLOCK_RECORD
  5
3BD
330
1
100
AcDbSymbolTableRecord
100
AcDbBlockTableRecord
  2
block 5
340
0
102
{BLKREFS
331
3BC
102
}
 70
     0
280
     1
281
     0
  0
BLOCK_RECORD
  5
11F0
330
1
100
AcDbSymbolTableRecord
100
AcDbBlockTableRecord
  2
BLOCK_2
340
0
102
{BLKREFS
331
1273
331
127B
331
127C
102
}
 70
     0
280
     1
281
     0
  0
BLOCK_RECORD
  5
19B9
330
1
100
AcDbSymbolTableRecord
100
AcDbBlockTableRecord
  2
*D7
340
0
 70
     0
280
     1
281
     0
  0
BLOCK_RECORD
  5
19D5
330
1
100
AcDbSymbolTableRecord
100
AcDbBlockTableRecord
  2
*D8
340
0
 70
     0
280
     1
281
     0
  0
BLOCK_RECORD
  5
19E5
330
1
100
AcDbSymbolTableRecord
100
AcDbBlockTableRecord
  2
*D9
340
0
 70
     0
280
     1
281
     0
  0
BLOCK_RECORD
  5
19F4
330
1
100
AcDbSymbolTableRecord
100
AcDbBlockTableRecord
  2
*D10
340
0
 70
     0
280
     1
281
     0
  0
BLOCK_RECORD
  5
1A04
330
1
100
AcDbSymbolTableRecord
100
AcDbBlockTableRecord
  2
*D11
340
0
 70
     0
280
     1
281
     0
  0
BLOCK_RECORD
  5
1A19
330
1
100
AcDbSymbolTableRecord
100
AcDbBlockTableRecord
  2
*D12
340
0
 70
     0
280
     1
281
     0
  0
BLOCK_RECORD
  5
1A26
330
1
100
AcDbSymbolTableRecord
100
AcDbBlockTableRecord
  2
*D13
340
0
 70
     0
280
     1
281
     0
  0
BLOCK_RECORD
  5
1A36
330
1
100
AcDbSymbolTableRecord
100
AcDbBlockTableRecord
  2
*D14
340
0
 70
     0
280
     1
281
     0
  0
BLOCK_RECORD
  5
1A43
330
1
100
AcDbSymbolTableRecord
100
AcDbBlockTableRecord
  2
*D15
340
0
 70
     0
280
     1
281
     0
  0
BLOCK_RECORD
  5
1A89
330
1
100
AcDbSymbolTableRecord
100
AcDbBlockTableRecord
  2
*D16
340
0
 70
     0
280
     1
281
     0
  0
BLOCK_RECORD
  5
1AA5
330
1
100
AcDbSymbolTableRecord
100
AcDbBlockTableRecord
  2
*D17
340
0
 70
     0
280
     1
281
     0
  0
BLOCK_RECORD
  5
1F04
330
1
100
AcDbSymbolTableRecord
100
AcDbBlockTableRecord
  2
*D18
340
0
 70
     0
280
     1
281
     0
  0
BLOCK_RECORD
  5
1F2D
330
1
100
AcDbSymbolTableRecord
100
AcDbBlockTableRecord
  2
*D19
340
0
 70
     0
280
     1
281
     0
  0
BLOCK_RECORD
  5
1F3A
330
1
100
AcDbSymbolTableRecord
100
AcDbBlockTableRecord
  2
*D20
340
0
 70
     0
280
     1
281
     0
  0
BLOCK_RECORD
  5
1FDA
330
1
100
AcDbSymbolTableRecord
100
AcDbBlockTableRecord
  2
*D21
340
0
 70
     0
280
     1
281
     0
  0
BLOCK_RECORD
  5
2225
330
1
100
AcDbSymbolTableRecord
100
AcDbBlockTableRecord
  2
*D22
340
0
 70
     0
280
     1
281
     0
  0
BLOCK_RECORD
  5
2232
330
1
100
AcDbSymbolTableRecord
100
AcDbBlockTableRecord
  2
*D23
340
0
 70
     0
280
     1
281
     0
  0
BLOCK_RECORD
  5
2263
330
1
100
AcDbSymbolTableRecord
100
AcDbBlockTableRecord
  2
*D24
340
0
 70
     0
280
     1
281
     0
  0
BLOCK_RECORD
  5
2272
330
1
100
AcDbSymbolTableRecord
100
AcDbBlockTableRecord
  2
*D25
340
0
 70
     0
280
     1
281
     0
  0
BLOCK_RECORD
  5
2288
330
1
100
AcDbSymbolTableRecord
100
AcDbBlockTableRecord
  2
*D26
340
0
 70
     0
280
     1
281
     0
  0
BLOCK_RECORD
  5
22A9
330
1
100
AcDbSymbolTableRecord
100
AcDbBlockTableRecord
  2
*D27
340
0
 70
     0
280
     1
281
     0
  0
BLOCK_RECORD
  5
22B9
330
1
100
AcDbSymbolTableRecord
100
AcDbBlockTableRecord
  2
*D28
340
0
 70
     0
280
     1
281
     0
  0
BLOCK_RECORD
  5
22D5
330
1
100
AcDbSymbolTableRecord
100
AcDbBlockTableRecord
  2
*D29
340
0
 70
     0
280
     1
281
     0
  0
BLOCK_RECORD
  5
22EB
330
1
100
AcDbSymbolTableRecord
100
AcDbBlockTableRecord
  2
*D30
340
0
 70
     0
280
     1
281
     0
  0
BLOCK_RECORD
  5
2371
330
1
100
AcDbSymbolTableRecord
100
AcDbBlockTableRecord
  2
*D31
340
0
 70
     0
280
     1
281
     0
  0
BLOCK_RECORD
  5
23BF
330
1
100
AcDbSymbolTableRecord
100
AcDbBlockTableRecord
  2
*D32
340
0
 70
     0
280
     1
281
     0
  0
BLOCK_RECORD
  5
23CF
330
1
100
AcDbSymbolTableRecord
100
AcDbBlockTableRecord
  2
*D33
340
0
 70
     0
280
     1
281
     0
  0
BLOCK_RECORD
  5
24CA
330
1
100
AcDbSymbolTableRecord
100
AcDbBlockTableRecord
  2
*D34
340
0
 70
     0
280
     1
281
     0
  0
BLOCK_RECORD
  5
24D9
330
1
100
AcDbSymbolTableRecord
100
AcDbBlockTableRecord
  2
*D35
340
0
 70
     0
280
     1
281
     0
  0
BLOCK_RECORD
  5
255C
330
1
100
AcDbSymbolTableRecord
100
AcDbBlockTableRecord
  2
*D36
340
0
 70
     0
280
     1
281
     0
  0
BLOCK_RECORD
  5
2569
330
1
100
AcDbSymbolTableRecord
100
AcDbBlockTableRecord
  2
*D37
340
0
 70
     0
280
     1
281
     0
  0
BLOCK_RECORD
  5
2576
330
1
100
AcDbSymbolTableRecord
100
AcDbBlockTableRecord
  2
*D38
340
0
 70
     0
280
     1
281
     0
  0
BLOCK_RECORD
  5
2583
330
1
100
AcDbSymbolTableRecord
100
AcDbBlockTableRecord
  2
*D39
340
0
 70
     0
280
     1
281
     0
  0
BLOCK_RECORD
  5
25B2
330
1
100
AcDbSymbolTableRecord
100
AcDbBlockTableRecord
  2
*D40
340
0
 70
     0
280
     1
281
     0
  0
BLOCK_RECORD
  5
25C1
330
1
100
AcDbSymbolTableRecord
100
AcDbBlockTableRecord
  2
*D41
340
0
 70
     0
280
     1
281
     0
  0
BLOCK_RECORD
  5
25CE
330
1
100
AcDbSymbolTableRecord
100
AcDbBlockTableRecord
  2
*D42
340
0
 70
     0
280
     1
281
     0
  0
BLOCK_RECORD
  5
25DB
330
1
100
AcDbSymbolTableRecord
100
AcDbBlockTableRecord
  2
*D43
340
0
 70
     0
280
     1
281
     0
  0
BLOCK_RECORD
  5
25E8
330
1
100
AcDbSymbolTableRecord
100
AcDbBlockTableRecord
  2
*D44
340
0
 70
     0
280
     1
281
     0
  0
BLOCK_RECORD
  5
2771
330
1
100
AcDbSymbolTableRecord
100
AcDbBlockTableRecord
  2
*D45
340
0
 70
     0
280
     1
281
     0
  0
BLOCK_RECORD
  5
2781
330
1
100
AcDbSymbolTableRecord
100
AcDbBlockTableRecord
  2
*D46
340
0
 70
     0
280
     1
281
     0
  0
BLOCK_RECORD
  5
278E
330
1
100
AcDbSymbolTableRecord
100
AcDbBlockTableRecord
  2
*D47
340
0
 70
     0
280
     1
281
     0
  0
BLOCK_RECORD
  5
279C
330
1
100
AcDbSymbolTableRecord
100
AcDbBlockTableRecord
  2
*D48
340
0
 70
     0
280
     1
281
     0
  0
BLOCK_RECORD
  5
27A9
330
1
100
AcDbSymbolTableRecord
100
AcDbBlockTableRecord
  2
*D49
340
0
 70
     0
280
     1
281
     0
  0
BLOCK_RECORD
  5
27BC
330
1
100
AcDbSymbolTableRecord
100
AcDbBlockTableRecord
  2
*D50
340
0
 70
     0
280
     1
281
     0
  0
BLOCK_RECORD
  5
29AA
330
1
100
AcDbSymbolTableRecord
100
AcDbBlockTableRecord
  2
*D51
340
0
 70
     0
280
     1
281
     0
  0
BLOCK_RECORD
  5
29B6
330
1
100
AcDbSymbolTableRecord
100
AcDbBlockTableRecord
  2
*D52
340
0
 70
     0
280
     1
281
     0
  0
BLOCK_RECORD
  5
29C2
330
1
100
AcDbSymbolTableRecord
100
AcDbBlockTableRecord
  2
*D53
340
0
 70
     0
280
     1
281
     0
  0
BLOCK_RECORD
  5
29CE
330
1
100
AcDbSymbolTableRecord
100
AcDbBlockTableRecord
  2
*D54
340
0
 70
     0
280
     1
281
     0
  0
BLOCK_RECORD
  5
29DA
330
1
100
AcDbSymbolTableRecord
100
AcDbBlockTableRecord
  2
*D55
340
0
 70
     0
280
     1
281
     0
  0
BLOCK_RECORD
  5
29E5
330
1
100
AcDbSymbolTableRecord
100
AcDbBlockTableRecord
  2
*D56
340
0
 70
     0
280
     1
281
     0
  0
BLOCK_RECORD
  5
29F1
330
1
100
AcDbSymbolTableRecord
100
AcDbBlockTableRecord
  2
*D57
340
0
 70
     0
280
     1
281
     0
  0
BLOCK_RECORD
  5
29FD
330
1
100
AcDbSymbolTableRecord
100
AcDbBlockTableRecord
  2
*D58
340
0
 70
     0
280
     1
281
     0
  0
BLOCK_RECORD
  5
2A09
330
1
100
AcDbSymbolTableRecord
100
AcDbBlockTableRecord
  2
*D59
340
0
 70
     0
280
     1
281
     0
  0
BLOCK_RECORD
  5
2A15
330
1
100
AcDbSymbolTableRecord
100
AcDbBlockTableRecord
  2
*D60
340
0
 70
     0
280
     1
281
     0
  0
BLOCK_RECORD
  5
2A22
330
1
100
AcDbSymbolTableRecord
100
AcDbBlockTableRecord
  2
*D61
340
0
 70
     0
280
     1
281
     0
  0
BLOCK_RECORD
  5
2A2E
330
1
100
AcDbSymbolTableRecord
100
AcDbBlockTableRecord
  2
*D62
340
0
 70
     0
280
     1
281
     0
  0
BLOCK_RECORD
  5
2A3A
330
1
100
AcDbSymbolTableRecord
100
AcDbBlockTableRecord
  2
*D63
340
0
 70
     0
280
     1
281
     0
  0
BLOCK_RECORD
  5
2A46
330
1
100
AcDbSymbolTableRecord
100
AcDbBlockTableRecord
  2
*D64
340
0
 70
     0
280
     1
281
     0
  0
BLOCK_RECORD
  5
2A53
330
1
100
AcDbSymbolTableRecord
100
AcDbBlockTableRecord
  2
*D65
340
0
 70
     0
280
     1
281
     0
  0
BLOCK_RECORD
  5
2AB1
330
1
100
AcDbSymbolTableRecord
100
AcDbBlockTableRecord
  2
*D66
340
0
 70
     0
280
     1
281
     0
  0
BLOCK_RECORD
  5
2ABE
330
1
100
AcDbSymbolTableRecord
100
AcDbBlockTableRecord
  2
*D67
340
0
 70
     0
280
     1
281
     0
  0
BLOCK_RECORD
  5
2ACA
330
1
100
AcDbSymbolTableRecord
100
AcDbBlockTableRecord
  2
*D68
340
0
 70
     0
280
     1
281
     0
  0
BLOCK_RECORD
  5
2AD6
330
1
100
AcDbSymbolTableRecord
100
AcDbBlockTableRecord
  2
*D69
340
0
 70
     0
280
     1
281
     0
  0
BLOCK_RECORD
  5
2AE3
330
1
100
AcDbSymbolTableRecord
100
AcDbBlockTableRecord
  2
*D70
340
0
 70
     0
280
     1
281
     0
  0
BLOCK_RECORD
  5
2AF3
330
1
100
AcDbSymbolTableRecord
100
AcDbBlockTableRecord
  2
*D71
340
0
 70
     0
280
     1
281
     0
  0
BLOCK_RECORD
  5
2B03
330
1
100
AcDbSymbolTableRecord
100
AcDbBlockTableRecord
  2
*D72
340
0
 70
     0
280
     1
281
     0
  0
ENDTAB
  0
ENDSEC
  0
SECTION
  2
BLOCKS
  0
BLOCK
  5
D
330
A
100
AcDbEntity
  8
0
390
1D
100
AcDbBlockBegin
  2
*MODEL_SPACE
 70
     0
 10
0.0
 20
0.0
 30
0.0
  3
*MODEL_SPACE
  1
*MODEL_SPACE
  0
ENDBLK
  5
E
330
A
100
AcDbEntity
  8
0
390
1D
100
AcDbBlockEnd
  0
BLOCK
  5
F
330
B
100
AcDbEntity
 67
     1
  8
0
390
1D
100
AcDbBlockBegin
  2
*PAPER_SPACE
 70
     0
 10
0.0
 20
0.0
 30
0.0
  3
*PAPER_SPACE
  1
*PAPER_SPACE
  0
ENDBLK
  5
10
330
B
100
AcDbEntity
 67
     1
  8
0
390
1D
100
AcDbBlockEnd
  0
BLOCK
  5
2BB
330
4E
100
AcDbEntity
  8
0
390
1D
100
AcDbBlockBegin
  2
_DOT
 70
     0
 10
0.0
 20
0.0
 30
0.0
  3
_DOT
  1
_DOT
  0
POLYLINE
  5
2BD
330
4E
100
AcDbEntity
  8
0
  6
ByBlock
 62
     0
370
    -2
390
1D
100
AcDb2dPolyline
 66
     1
 10
0.0
 20
0.0
 30
0.0
 70
     1
 40
0.5
 41
0.5
  0
VERTEX
  5
2BE
330
2BD
100
AcDbEntity
  8
0
  6
ByBlock
 62
     0
370
    -2
390
1D
100
AcDbVertex
100
AcDb2dVertex
 10
-0.25
 20
0.0
 30
0.0
 42
1.0
  0
VERTEX
  5
2BF
330
2BD
100
AcDbEntity
  8
0
  6
ByBlock
 62
     0
370
    -2
390
1D
100
AcDbVertex
100
AcDb2dVertex
 10
0.25
 20
0.0
 30
0.0
 42
1.0
  0
SEQEND
  5
2C0
330
2BD
100
AcDbEntity
  8
0
390
1D
  0
LINE
  5
2C1
330
4E
100
AcDbEntity
  8
0
  6
ByBlock
 62
     0
370
    -2
390
1D
100
AcDbLine
 10
-0.5
 20
0.0
 30
0.0
 11
-1.0
 21
0.0
 31
0.0
  0
ENDBLK
  5
2C2
330
4E
100
AcDbEntity
  8
0
390
1D
100
AcDbBlockEnd
  0
BLOCK
  5
3A6
330
3A5
100
AcDbEntity
  8
0
100
AcDbBlockBegin
  2
名称未設定-1
 70
     0
 10
0.0
 20
0.0
 30
0.0
  3
名称未設定-1
  1
名称未設定-1
  0
INSERT
  5
3A7
330
3A5
100
AcDbEntity
  8
レイヤー 1
100
AcDbBlockReference
  2
block 2
 10
0.0
 20
0.0
 30
0.0
  0
ENDBLK
  5
3CC
330
3A5
100
AcDbEntity
  8
0
100
AcDbBlockEnd
  0
BLOCK
  5
3A9
330
3A8
100
AcDbEntity
  8
0
100
AcDbBlockBegin
  2
block 2
 70
     0
 10
0.0
 20
0.0
 30
0.0
  3
block 2
  1
block 2
  0
INSERT
  5
3AA
330
3A8
100
AcDbEntity
  8
レイヤー 1
100
AcDbBlockReference
  2
block 3
 10
0.0
 20
0.0
 30
0.0
  0
ENDBLK
  5
3CB
330
3A8
100
AcDbEntity
  8
0
100
AcDbBlockEnd
  0
BLOCK
  5
3AC
330
3AB
100
AcDbEntity
  8
0
100
AcDbBlockBegin
  2
block 3
 70
     0
 10
0.0
 20
0.0
 30
0.0
  3
block 3
  1
block 3
  0
INSERT
  5
3AD
330
3AB
100
AcDbEntity
  8
レイヤー 1
100
AcDbBlockReference
  2
block 4
 10
0.0
 20
0.0
 30
0.0
  0
ENDBLK
  5
3CA
330
3AB
100
AcDbEntity
  8
0
100
AcDbBlockEnd
  0
BLOCK
  5
3AF
330
3AE
100
AcDbEntity
  8
0
100
AcDbBlockBegin
  2
block 4
 70
     0
 10
0.0
 20
0.0
 30
0.0
  3
block 4
  1
block 4
  0
POLYLINE
  5
3B0
330
3AE
100
AcDbEntity
  8
レイヤー 1
370
     0
100
AcDb2dPolyline
 66
     1
 10
0.0
 20
0.0
 30
0.0
  0
VERTEX
  5
3B1
330
3B0
100
AcDbEntity
  8
レイヤー 1
370
     0
100
AcDbVertex
100
AcDb2dVertex
 10
83.79545727667795
 20
167.6444858234922
 30
0.0
  0
VERTEX
  5
3B2
330
3B0
100
AcDbEntity
  8
レイヤー 1
370
     0
100
AcDbVertex
100
AcDb2dVertex
 10
83.79545727667795
 20
159.7968976406313
 30
0.0
  0
VERTEX
  5
3B3
330
3B0
100
AcDbEntity
  8
レイヤー 1
370
     0
100
AcDbVertex
100
AcDb2dVertex
 10
71.3631329975216
 20
159.7968976406313
 30
0.0
  0
VERTEX
  5
3B4
330
3B0
100
AcDbEntity
  8
レイヤー 1
370
     0
100
AcDbVertex
100
AcDb2dVertex
 10
71.3631329975216
 20
127.8027915271048
 30
0.0
  0
VERTEX
  5
3B5
330
3B0
100
AcDbEntity
  8
レイヤー 1
370
     0
100
AcDbVertex
100
AcDb2dVertex
 10
60.43011526263018
 20
127.8027915271048
 30
0.0
  0
VERTEX
  5
3B6
330
3B0
100
AcDbEntity
  8
レイヤー 1
370
     0
100
AcDbVertex
100
AcDb2dVertex
 10
60.43011526263018
 20
159.7968976406313
 30
0.0
  0
VERTEX
  5
3B7
330
3B0
100
AcDbEntity
  8
レイヤー 1
370
     0
100
AcDbVertex
100
AcDb2dVertex
 10
48.21793273020759
 20
159.7968976406313
 30
0.0
  0
VERTEX
  5
3B8
330
3B0
100
AcDbEntity
  8
レイヤー 1
370
     0
100
AcDbVertex
100
AcDb2dVertex
 10
48.21793273020759
 20
167.6444858234922
 30
0.0
  0
VERTEX
  5
3B9
330
3B0
100
AcDbEntity
  8
レイヤー 1
370
     0
100
AcDbVertex
100
AcDb2dVertex
 10
83.79545727667795
 20
167.6444858234922
 30
0.0
  0
SEQEND
  5
3BA
330
3B0
100
AcDbEntity
  8
レイヤー 1
370
     0
  0
HATCH
  5
3BB
330
3AE
100
AcDbEntity
  8
レイヤー 1
 62
   250
420
  2234388
100
AcDbHatch
 10
0.0
 20
0.0
 30
0.0
210
0.0
220
0.0
230
1.0
  2
SOLID
 70
     1
 71
     0
 91
        1
 92
        1
 93
        8
 72
     1
 10
83.79545727667795
 20
167.6444858234922
 11
83.79545727667795
 21
159.7968976406313
 72
     1
 10
83.79545727667795
 20
159.7968976406313
 11
71.3631329975216
 21
159.7968976406313
 72
     1
 10
71.3631329975216
 20
159.7968976406313
 11
71.3631329975216
 21
127.8027915271048
 72
     1
 10
71.3631329975216
 20
127.8027915271048
 11
60.43011526263018
 21
127.8027915271048
 72
     1
 10
60.43011526263018
 20
127.8027915271048
 11
60.43011526263018
 21
159.7968976406313
 72
     1
 10
60.43011526263018
 20
159.7968976406313
 11
48.21793273020759
 21
159.7968976406313
 72
     1
 10
48.21793273020759
 20
159.7968976406313
 11
48.21793273020759
 21
167.6444858234922
 72
     1
 10
48.21793273020759
 20
167.6444858234922
 11
83.79545727667795
 21
167.6444858234922
 97
        0
 75
     2
 76
     1
 98
        0
  0
INSERT
  5
3BC
330
3AE
100
AcDbEntity
  8
レイヤー 1
100
AcDbBlockReference
  2
block 5
 10
0.0
 20
0.0
 30
0.0
  0
ENDBLK
  5
3C9
330
3AE
100
AcDbEntity
  8
0
100
AcDbBlockEnd
  0
BLOCK
  5
3BE
330
3BD
100
AcDbEntity
  8
0
100
AcDbBlockBegin
  2
block 5
 70
     0
 10
0.0
 20
0.0
 30
0.0
  3
block 5
  1
block 5
  0
SPLINE
  5
3BF
330
3BD
100
AcDbEntity
  8
レイヤー 1
370
     0
100
AcDbSpline
210
0.0
220
0.0
230
1.0
 70
    11
 71
     3
 72
    56
 73
    52
 74
     0
 42
0.000000001
 43
0.0000000001
 40
0.0
 40
0.0
 40
0.0
 40
0.0
 40
1.0
 40
1.0
 40
1.0
 40
2.0
 40
2.0
 40
2.0
 40
3.0
 40
3.0
 40
3.0
 40
4.0
 40
4.0
 40
4.0
 40
5.0
 40
5.0
 40
5.0
 40
6.0
 40
6.0
 40
6.0
 40
7.0
 40
7.0
 40
7.0
 40
8.0
 40
8.0
 40
8.0
 40
9.0
 40
9.0
 40
9.0
 40
10.0
 40
10.0
 40
10.0
 40
11.0
 40
11.0
 40
11.0
 40
12.0
 40
12.0
 40
12.0
 40
13.0
 40
13.0
 40
13.0
 40
14.0
 40
14.0
 40
14.0
 40
15.0
 40
15.0
 40
15.0
 40
16.0
 40
16.0
 40
16.0
 40
17.0
 40
17.0
 40
17.0
 40
17.0
 10
100.4504378777679
 20
166.69157178364
 30
0.0
 10
101.9848844191641
 20
167.1313385124438
 30
0.0
 10
103.9637485713373
 20
166.7649523658846
 30
0.0
 10
103.9637485713373
 20
166.7649523658846
 30
0.0
 10
103.9637485713373
 20
166.7649523658846
 30
0.0
 10
103.0132460999156
 20
163.911205638077
 30
0.0
 10
103.0132460999156
 20
163.911205638077
 30
0.0
 10
103.0132460999156
 20
163.911205638077
 30
0.0
 10
101.0674548862189
 20
164.3601018759394
 30
0.0
 10
99.57090442016032
 20
163.1805004036133
 30
0.0
 10
98.40508333886608
 20
162.258247733807
 30
0.0
 10
97.65301849830304
 20
159.804132345923
 30
0.0
 10
97.3598406791005
 20
158.8699940888517
 30
0.0
 10
97.3598406791005
 20
158.8699940888517
 30
0.0
 10
96.07137411762282
 20
154.9119212747295
 30
0.0
 10
96.07137411762282
 20
154.9119212747295
 30
0.0
 10
96.07137411762282
 20
154.9119212747295
 30
0.0
 10
100.3012651448482
 20
154.9119212747295
 30
0.0
 10
100.3012651448482
 20
154.9119212747295
 30
0.0
 10
100.3012651448482
 20
154.9119212747295
 30
0.0
 10
99.64152892419852
 20
152.4199098115079
 30
0.0
 10
99.64152892419852
 20
152.4199098115079
 30
0.0
 10
99.64152892419852
 20
152.4199098115079
 30
0.0
 10
95.38097652692731
 20
152.4199098115079
 30
0.0
 10
95.38097652692731
 20
152.4199098115079
 30
0.0
 10
95.38097652692731
 20
152.4199098115079
 30
0.0
 10
87.75353009080013
 20
127.8027915271048
 30
0.0
 10
87.75353009080013
 20
127.8027915271048
 30
0.0
 10
87.75353009080013
 20
127.8027915271048
 30
0.0
 10
85.36538832498108
 20
127.8027915271048
 30
0.0
 10
85.36538832498108
 20
127.8027915271048
 30
0.0
 10
85.36538832498108
 20
127.8027915271048
 30
0.0
 10
93.00006946639998
 20
152.4199098115079
 30
0.0
 10
93.00006946639998
 20
152.4199098115079
 30
0.0
 10
93.00006946639998
 20
152.4199098115079
 30
0.0
 10
89.85297266450198
 20
152.4199098115079
 30
0.0
 10
89.85297266450198
 20
152.4199098115079
 30
0.0
 10
89.85297266450198
 20
152.4199098115079
 30
0.0
 10
90.51270888515164
 20
154.9119212747295
 30
0.0
 10
90.51270888515164
 20
154.9119212747295
 30
0.0
 10
90.51270888515164
 20
154.9119212747295
 30
0.0
 10
93.6904670570955
 20
154.9119212747295
 30
0.0
 10
93.6904670570955
 20
154.9119212747295
 30
0.0
 10
93.6904670570955
 20
154.9119212747295
 30
0.0
 10
94.81598049462158
 20
158.3616699146644
 30
0.0
 10
94.81598049462158
 20
158.3616699146644
 30
0.0
 10
95.7237637538445
 20
161.2605474231013
 30
0.0
 10
96.4968436907311
 20
162.8139420021662
 30
0.0
 10
97.15657991138076
 20
163.9844139654337
 30
0.0
 10
97.81183750494507
 20
165.1523021053827
 30
0.0
 10
99.1047826935081
 20
166.3084769129547
 30
0.0
 10
100.4504378777679
 20
166.69157178364
 30
0.0
  0
HATCH
  5
3C0
330
3BD
100
AcDbEntity
  8
レイヤー 1
 62
   250
420
  2234388
100
AcDbHatch
 10
0.0
 20
0.0
 30
0.0
210
0.0
220
0.0
230
1.0
  2
SOLID
 70
     1
 71
     0
 91
        1
 92
        1
 93
        1
 72
     4
 94
        3
 73
     0
 74
     1
 95
       56
 96
       52
 40
0.0
 40
0.0
 40
0.0
 40
0.0
 40
1.0
 40
1.0
 40
1.0
 40
2.0
 40
2.0
 40
2.0
 40
3.0
 40
3.0
 40
3.0
 40
4.0
 40
4.0
 40
4.0
 40
5.0
 40
5.0
 40
5.0
 40
6.0
 40
6.0
 40
6.0
 40
7.0
 40
7.0
 40
7.0
 40
8.0
 40
8.0
 40
8.0
 40
9.0
 40
9.0
 40
9.0
 40
10.0
 40
10.0
 40
10.0
 40
11.0
 40
11.0
 40
11.0
 40
12.0
 40
12.0
 40
12.0
 40
13.0
 40
13.0
 40
13.0
 40
14.0
 40
14.0
 40
14.0
 40
15.0
 40
15.0
 40
15.0
 40
16.0
 40
16.0
 40
16.0
 40
17.0
 40
17.0
 40
17.0
 40
17.0
 10
100.4504378777679
 20
166.69157178364
 10
101.9848844191641
 20
167.1313385124438
 10
103.9637485713373
 20
166.7649523658846
 10
103.9637485713373
 20
166.7649523658846
 10
103.9637485713373
 20
166.7649523658846
 10
103.0132460999156
 20
163.911205638077
 10
103.0132460999156
 20
163.911205638077
 10
103.0132460999156
 20
163.911205638077
 10
101.0674548862189
 20
164.3601018759394
 10
99.57090442016032
 20
163.1805004036133
 10
98.40508333886608
 20
162.258247733807
 10
97.65301849830304
 20
159.804132345923
 10
97.3598406791005
 20
158.8699940888517
 10
97.3598406791005
 20
158.8699940888517
 10
96.07137411762282
 20
154.9119212747295
 10
96.07137411762282
 20
154.9119212747295
 10
96.07137411762282
 20
154.9119212747295
 10
100.3012651448482
 20
154.9119212747295
 10
100.3012651448482
 20
154.9119212747295
 10
100.3012651448482
 20
154.9119212747295
 10
99.64152892419852
 20
152.4199098115079
 10
99.64152892419852
 20
152.4199098115079
 10
99.64152892419852
 20
152.4199098115079
 10
95.38097652692731
 20
152.4199098115079
 10
95.38097652692731
 20
152.4199098115079
 10
95.38097652692731
 20
152.4199098115079
 10
87.75353009080013
 20
127.8027915271048
 10
87.75353009080013
 20
127.8027915271048
 10
87.75353009080013
 20
127.8027915271048
 10
85.36538832498108
 20
127.8027915271048
 10
85.36538832498108
 20
127.8027915271048
 10
85.36538832498108
 20
127.8027915271048
 10
93.00006946639998
 20
152.4199098115079
 10
93.00006946639998
 20
152.4199098115079
 10
93.00006946639998
 20
152.4199098115079
 10
89.85297266450198
 20
152.4199098115079
 10
89.85297266450198
 20
152.4199098115079
 10
89.85297266450198
 20
152.4199098115079
 10
90.51270888515164
 20
154.9119212747295
 10
90.51270888515164
 20
154.9119212747295
 10
90.51270888515164
 20
154.9119212747295
 10
93.6904670570955
 20
154.9119212747295
 10
93.6904670570955
 20
154.9119212747295
 10
93.6904670570955
 20
154.9119212747295
 10
94.81598049462158
 20
158.3616699146644
 10
94.81598049462158
 20
158.3616699146644
 10
95.7237637538445
 20
161.2605474231013
 10
96.4968436907311
 20
162.8139420021662
 10
97.15657991138076
 20
163.9844139654337
 10
97.81183750494507
 20
165.1523021053827
 10
99.1047826935081
 20
166.3084769129547
 10
100.4504378777679
 20
166.69157178364
 97
        0
 75
     2
 76
     1
 98
        0
  0
SPLINE
  5
3C1
330
3BD
100
AcDbEntity
  8
レイヤー 1
370
     0
100
AcDbSpline
210
0.0
220
0.0
230
1.0
 70
    11
 71
     3
 72
    38
 73
    34
 74
     0
 42
0.000000001
 43
0.0000000001
 40
0.0
 40
0.0
 40
0.0
 40
0.0
 40
1.0
 40
1.0
 40
1.0
 40
2.0
 40
2.0
 40
2.0
 40
3.0
 40
3.0
 40
3.0
 40
4.0
 40
4.0
 40
4.0
 40
5.0
 40
5.0
 40
5.0
 40
6.0
 40
6.0
 40
6.0
 40
7.0
 40
7.0
 40
7.0
 40
8.0
 40
8.0
 40
8.0
 40
9.0
 40
9.0
 40
9.0
 40
10.0
 40
10.0
 40
10.0
 40
11.0
 40
11.0
 40
11.0
 40
11.0
 10
126.377554584636
 20
154.8151140277308
 30
0.0
 10
126.377554584636
 20
154.8151140277308
 30
0.0
 10
128.8311532078563
 20
154.8151140277308
 30
0.0
 10
128.8311532078563
 20
154.8151140277308
 30
0.0
 10
128.8311532078563
 20
154.8151140277308
 30
0.0
 10
127.7345785914971
 20
151.3062819612468
 30
0.0
 10
127.7345785914971
 20
151.3062819612468
 30
0.0
 10
128.571392836906
 20
152.2922689395754
 30
0.0
 10
129.8860421413442
 20
153.604506675583
 30
0.0
 10
131.0163787157314
 20
154.2664822097754
 30
0.0
 10
132.7044766171327
 20
155.2500576196734
 30
0.0
 10
133.6642808525008
 20
155.3847609420097
 30
0.0
 10
134.7284715499351
 20
155.3565111403944
 30
0.0
 10
134.7284715499351
 20
155.3565111403944
 30
0.0
 10
133.6877075172549
 20
152.0345756272799
 30
0.0
 10
133.6877075172549
 20
152.0345756272799
 30
0.0
 10
133.011434827367
 20
152.3184516825359
 30
0.0
 10
130.930940291334
 20
151.7768823149844
 30
0.0
 10
129.739280976855
 20
150.9162968950455
 30
0.0
 10
128.66613302525
 20
150.1454562717016
 30
0.0
 10
127.9192358313239
 20
149.4857200510519
 30
0.0
 10
127.0393578639405
 20
147.8282835196966
 30
0.0
 10
126.164647543194
 20
146.1699857139017
 30
0.0
 10
125.4742499524985
 20
143.5262176944419
 30
0.0
 10
124.2822461282437
 20
139.6959580071401
 30
0.0
 10
124.2822461282437
 20
139.6959580071401
 30
0.0
 10
120.5753209406769
 20
127.8027915271048
 30
0.0
 10
120.5753209406769
 20
127.8027915271048
 30
0.0
 10
120.5753209406769
 20
127.8027915271048
 30
0.0
 10
118.1964809388044
 20
127.8027915271048
 30
0.0
 10
118.1964809388044
 20
127.8027915271048
 30
0.0
 10
118.1964809388044
 20
127.8027915271048
 30
0.0
 10
126.377554584636
 20
154.8151140277308
 30
0.0
 10
126.377554584636
 20
154.8151140277308
 30
0.0
  0
HATCH
  5
3C2
330
3BD
100
AcDbEntity
  8
レイヤー 1
 62
   250
420
  2234388
100
AcDbHatch
 10
0.0
 20
0.0
 30
0.0
210
0.0
220
0.0
230
1.0
  2
SOLID
 70
     1
 71
     0
 91
        1
 92
        1
 93
        1
 72
     4
 94
        3
 73
     0
 74
     1
 95
       38
 96
       34
 40
0.0
 40
0.0
 40
0.0
 40
0.0
 40
1.0
 40
1.0
 40
1.0
 40
2.0
 40
2.0
 40
2.0
 40
3.0
 40
3.0
 40
3.0
 40
4.0
 40
4.0
 40
4.0
 40
5.0
 40
5.0
 40
5.0
 40
6.0
 40
6.0
 40
6.0
 40
7.0
 40
7.0
 40
7.0
 40
8.0
 40
8.0
 40
8.0
 40
9.0
 40
9.0
 40
9.0
 40
10.0
 40
10.0
 40
10.0
 40
11.0
 40
11.0
 40
11.0
 40
11.0
 10
126.377554584636
 20
154.8151140277308
 10
126.377554584636
 20
154.8151140277308
 10
128.8311532078563
 20
154.8151140277308
 10
128.8311532078563
 20
154.8151140277308
 10
128.8311532078563
 20
154.8151140277308
 10
127.7345785914971
 20
151.3062819612468
 10
127.7345785914971
 20
151.3062819612468
 10
128.571392836906
 20
152.2922689395754
 10
129.8860421413442
 20
153.604506675583
 10
131.0163787157314
 20
154.2664822097754
 10
132.7044766171327
 20
155.2500576196734
 10
133.6642808525008
 20
155.3847609420097
 10
134.7284715499351
 20
155.3565111403944
 10
134.7284715499351
 20
155.3565111403944
 10
133.6877075172549
 20
152.0345756272799
 10
133.6877075172549
 20
152.0345756272799
 10
133.011434827367
 20
152.3184516825359
 10
130.930940291334
 20
151.7768823149844
 10
129.739280976855
 20
150.9162968950455
 10
128.66613302525
 20
150.1454562717016
 10
127.9192358313239
 20
149.4857200510519
 10
127.0393578639405
 20
147.8282835196966
 10
126.164647543194
 20
146.1699857139017
 10
125.4742499524985
 20
143.5262176944419
 10
124.2822461282437
 20
139.6959580071401
 10
124.2822461282437
 20
139.6959580071401
 10
120.5753209406769
 20
127.8027915271048
 10
120.5753209406769
 20
127.8027915271048
 10
120.5753209406769
 20
127.8027915271048
 10
118.1964809388044
 20
127.8027915271048
 10
118.1964809388044
 20
127.8027915271048
 10
118.1964809388044
 20
127.8027915271048
 10
126.377554584636
 20
154.8151140277308
 10
126.377554584636
 20
154.8151140277308
 97
        0
 75
     2
 76
     1
 98
        0
  0
SPLINE
  5
3C3
330
3BD
100
AcDbEntity
  8
レイヤー 1
370
     0
100
AcDbSpline
210
0.0
220
0.0
230
1.0
 70
    11
 71
     3
 72
   104
 73
   100
 74
     0
 42
0.000000001
 43
0.0000000001
 40
0.0
 40
0.0
 40
0.0
 40
0.0
 40
1.0
 40
1.0
 40
1.0
 40
2.0
 40
2.0
 40
2.0
 40
3.0
 40
3.0
 40
3.0
 40
4.0
 40
4.0
 40
4.0
 40
5.0
 40
5.0
 40
5.0
 40
6.0
 40
6.0
 40
6.0
 40
7.0
 40
7.0
 40
7.0
 40
8.0
 40
8.0
 40
8.0
 40
9.0
 40
9.0
 40
9.0
 40
10.0
 40
10.0
 40
10.0
 40
11.0
 40
11.0
 40
11.0
 40
12.0
 40
12.0
 40
12.0
 40
13.0
 40
13.0
 40
13.0
 40
14.0
 40
14.0
 40
14.0
 40
15.0
 40
15.0
 40
15.0
 40
16.0
 40
16.0
 40
16.0
 40
17.0
 40
17.0
 40
17.0
 40
18.0
 40
18.0
 40
18.0
 40
19.0
 40
19.0
 40
19.0
 40
20.0
 40
20.0
 40
20.0
 40
21.0
 40
21.0
 40
21.0
 40
22.0
 40
22.0
 40
22.0
 40
23.0
 40
23.0
 40
23.0
 40
24.0
 40
24.0
 40
24.0
 40
25.0
 40
25.0
 40
25.0
 40
26.0
 40
26.0
 40
26.0
 40
27.0
 40
27.0
 40
27.0
 40
28.0
 40
28.0
 40
28.0
 40
29.0
 40
29.0
 40
29.0
 40
30.0
 40
30.0
 40
30.0
 40
31.0
 40
31.0
 40
31.0
 40
32.0
 40
32.0
 40
32.0
 40
33.0
 40
33.0
 40
33.0
 40
33.0
 10
139.8926730891197
 20
154.8294111834263
 30
0.0
 10
139.8926730891197
 20
154.8294111834263
 30
0.0
 10
142.0344903652445
 20
154.8294111834263
 30
0.0
 10
142.0344903652445
 20
154.8294111834263
 30
0.0
 10
142.0344903652445
 20
154.8294111834263
 30
0.0
 10
140.9516961399171
 20
151.3157559800812
 30
0.0
 10
140.9516961399171
 20
151.3157559800812
 30
0.0
 10
141.8928968473923
 20
152.7887075264977
 30
0.0
 10
142.7341897198865
 20
153.4484437471474
 30
0.0
 10
143.8552245303272
 20
154.2926649527359
 30
0.0
 10
144.9803934580775
 20
155.1296514530327
 30
0.0
 10
146.3139908001845
 20
155.3044901642492
 30
0.0
 10
147.241066606852
 20
155.3044901642492
 30
0.0
 10
148.3855280820469
 20
155.3044901642492
 30
0.0
 10
149.4969166187653
 20
155.0752189084569
 30
0.0
 10
150.0784491203092
 20
153.8172414621372
 30
0.0
 10
150.5228667310863
 20
152.833838307127
 30
0.0
 10
150.5414702589793
 20
152.7201500811143
 30
0.0
 10
150.4140016419347
 20
150.7765981809602
 30
0.0
 10
151.5818897818837
 20
152.7699317437168
 30
0.0
 10
152.4424752018226
 20
153.6256940267945
 30
0.0
 10
153.9038856707499
 20
154.4507949398263
 30
0.0
 10
155.4455669174378
 20
155.3044901642492
 30
0.0
 10
156.339225275853
 20
155.3659851592288
 30
0.0
 10
157.3748216618963
 20
155.2147453676543
 30
0.0
 10
158.911679771723
 20
154.9877134254046
 30
0.0
 10
159.8859534176746
 20
154.4390816074493
 30
0.0
 10
160.3965169054045
 20
152.7816450760939
 30
0.0
 10
160.9070803931344
 20
151.1219692311958
 30
0.0
 10
160.6328506116007
 20
150.2303779314354
 30
0.0
 10
159.9992971339115
 20
147.597634224801
 30
0.0
 10
159.7105979417943
 20
146.4014962832367
 30
0.0
 10
159.2947746424084
 20
144.9400858143094
 30
0.0
 10
158.7463150793409
 20
143.2092687007094
 30
0.0
 10
158.7463150793409
 20
143.2092687007094
 30
0.0
 10
153.9038856707499
 20
127.8027915271048
 30
0.0
 10
153.9038856707499
 20
127.8027915271048
 30
0.0
 10
153.9038856707499
 20
127.8027915271048
 30
0.0
 10
151.3882752878863
 20
127.8027915271048
 30
0.0
 10
151.3882752878863
 20
127.8027915271048
 30
0.0
 10
151.3882752878863
 20
127.8027915271048
 30
0.0
 10
155.6250565106276
 20
141.2751908193897
 30
0.0
 10
155.6250565106276
 20
141.2751908193897
 30
0.0
 10
156.5094131050963
 20
144.0936252951782
 30
0.0
 10
157.109893644309
 20
146.1506931664571
 30
0.0
 10
157.4220195011804
 20
147.4415712963654
 30
0.0
 10
157.8095929989511
 20
149.0530157726519
 30
0.0
 10
157.9656559273867
 20
149.5826995529385
 30
0.0
 10
157.7816877071116
 20
150.7529992613181
 30
0.0
 10
157.6111553680925
 20
151.8430281919372
 30
0.0
 10
157.0582171779396
 20
152.5547853887321
 30
0.0
 10
156.1170164704645
 20
152.5547853887321
 30
0.0
 10
155.1096698860365
 20
152.5547853887321
 30
0.0
 10
154.2962823053817
 20
152.4412694176073
 30
0.0
 10
153.156643967048
 20
151.2945686288697
 30
0.0
 10
152.0170056287143
 20
150.1476955852443
 30
0.0
 10
151.076149431015
 20
148.7930831468137
 30
0.0
 10
150.3337308641742
 20
147.2290087646991
 30
0.0
 10
149.5957909244188
 20
145.6683794803425
 30
0.0
 10
148.8530278478023
 20
143.6822806228776
 30
0.0
 10
148.0964843801539
 20
141.2751908193897
 30
0.0
 10
148.0964843801539
 20
141.2751908193897
 30
0.0
 10
143.8552245303272
 20
127.8027915271048
 30
0.0
 10
143.8552245303272
 20
127.8027915271048
 30
0.0
 10
143.8552245303272
 20
127.8027915271048
 30
0.0
 10
141.486030802177
 20
127.8027915271048
 30
0.0
 10
141.486030802177
 20
127.8027915271048
 30
0.0
 10
141.486030802177
 20
127.8027915271048
 30
0.0
 10
146.3329388378533
 20
143.2092687007094
 30
0.0
 10
146.3329388378533
 20
143.2092687007094
 30
0.0
 10
146.8483254624444
 20
144.8408669988801
 30
0.0
 10
147.2314203331297
 20
146.1837661049335
 30
0.0
 10
147.4867020769946
 20
147.224185627838
 30
0.0
 10
147.9169947869641
 20
149.0197705792876
 30
0.0
 10
148.0306830129768
 20
150.2400242051577
 30
0.0
 10
147.709255392159
 20
151.3157559800812
 30
0.0
 10
147.3874832615654
 20
152.3916600098926
 30
0.0
 10
146.8245542879144
 20
152.6683013598569
 30
0.0
 10
145.8840425999909
 20
152.6683013598569
 30
0.0
 10
145.0989048209514
 20
152.6683013598569
 30
0.0
 10
144.3282364524954
 20
152.3275811915945
 30
0.0
 10
143.4531816219731
 20
151.6538923250251
 30
0.0
 10
142.34627171234
 20
150.8074318058939
 30
0.0
 10
141.901854101563
 20
150.1097995099067
 30
0.0
 10
141.3578731655808
 20
149.289521733736
 30
0.0
 10
140.6299240093235
 20
148.192602607601
 30
0.0
 10
140.2850697237515
 20
147.455696197173
 30
0.0
 10
139.6652966370942
 20
145.8385673095858
 30
0.0
 10
139.0506911970739
 20
144.2214384219986
 30
0.0
 10
138.463991048893
 20
142.3252566160164
 30
0.0
 10
138.0571250036777
 20
141.0154304484394
 30
0.0
 10
138.0571250036777
 20
141.0154304484394
 30
0.0
 10
133.9009590684727
 20
127.8027915271048
 30
0.0
 10
133.9009590684727
 20
127.8027915271048
 30
0.0
 10
133.9009590684727
 20
127.8027915271048
 30
0.0
 10
131.4180771143097
 20
127.8027915271048
 30
0.0
 10
131.4180771143097
 20
127.8027915271048
 30
0.0
 10
131.4180771143097
 20
127.8027915271048
 30
0.0
 10
139.8926730891197
 20
154.8294111834263
 30
0.0
 10
139.8926730891197
 20
154.8294111834263
 30
0.0
  0
HATCH
  5
3C4
330
3BD
100
AcDbEntity
  8
レイヤー 1
 62
   250
420
  2234388
100
AcDbHatch
 10
0.0
 20
0.0
 30
0.0
210
0.0
220
0.0
230
1.0
  2
SOLID
 70
     1
 71
     0
 91
        1
 92
        1
 93
        1
 72
     4
 94
        3
 73
     0
 74
     1
 95
      104
 96
      100
 40
0.0
 40
0.0
 40
0.0
 40
0.0
 40
1.0
 40
1.0
 40
1.0
 40
2.0
 40
2.0
 40
2.0
 40
3.0
 40
3.0
 40
3.0
 40
4.0
 40
4.0
 40
4.0
 40
5.0
 40
5.0
 40
5.0
 40
6.0
 40
6.0
 40
6.0
 40
7.0
 40
7.0
 40
7.0
 40
8.0
 40
8.0
 40
8.0
 40
9.0
 40
9.0
 40
9.0
 40
10.0
 40
10.0
 40
10.0
 40
11.0
 40
11.0
 40
11.0
 40
12.0
 40
12.0
 40
12.0
 40
13.0
 40
13.0
 40
13.0
 40
14.0
 40
14.0
 40
14.0
 40
15.0
 40
15.0
 40
15.0
 40
16.0
 40
16.0
 40
16.0
 40
17.0
 40
17.0
 40
17.0
 40
18.0
 40
18.0
 40
18.0
 40
19.0
 40
19.0
 40
19.0
 40
20.0
 40
20.0
 40
20.0
 40
21.0
 40
21.0
 40
21.0
 40
22.0
 40
22.0
 40
22.0
 40
23.0
 40
23.0
 40
23.0
 40
24.0
 40
24.0
 40
24.0
 40
25.0
 40
25.0
 40
25.0
 40
26.0
 40
26.0
 40
26.0
 40
27.0
 40
27.0
 40
27.0
 40
28.0
 40
28.0
 40
28.0
 40
29.0
 40
29.0
 40
29.0
 40
30.0
 40
30.0
 40
30.0
 40
31.0
 40
31.0
 40
31.0
 40
32.0
 40
32.0
 40
32.0
 40
33.0
 40
33.0
 40
33.0
 40
33.0
 10
139.8926730891197
 20
154.8294111834263
 10
139.8926730891197
 20
154.8294111834263
 10
142.0344903652445
 20
154.8294111834263
 10
142.0344903652445
 20
154.8294111834263
 10
142.0344903652445
 20
154.8294111834263
 10
140.9516961399171
 20
151.3157559800812
 10
140.9516961399171
 20
151.3157559800812
 10
141.8928968473923
 20
152.7887075264977
 10
142.7341897198865
 20
153.4484437471474
 10
143.8552245303272
 20
154.2926649527359
 10
144.9803934580775
 20
155.1296514530327
 10
146.3139908001845
 20
155.3044901642492
 10
147.241066606852
 20
155.3044901642492
 10
148.3855280820469
 20
155.3044901642492
 10
149.4969166187653
 20
155.0752189084569
 10
150.0784491203092
 20
153.8172414621372
 10
150.5228667310863
 20
152.833838307127
 10
150.5414702589793
 20
152.7201500811143
 10
150.4140016419347
 20
150.7765981809602
 10
151.5818897818837
 20
152.7699317437168
 10
152.4424752018226
 20
153.6256940267945
 10
153.9038856707499
 20
154.4507949398263
 10
155.4455669174378
 20
155.3044901642492
 10
156.339225275853
 20
155.3659851592288
 10
157.3748216618963
 20
155.2147453676543
 10
158.911679771723
 20
154.9877134254046
 10
159.8859534176746
 20
154.4390816074493
 10
160.3965169054045
 20
152.7816450760939
 10
160.9070803931344
 20
151.1219692311958
 10
160.6328506116007
 20
150.2303779314354
 10
159.9992971339115
 20
147.597634224801
 10
159.7105979417943
 20
146.4014962832367
 10
159.2947746424084
 20
144.9400858143094
 10
158.7463150793409
 20
143.2092687007094
 10
158.7463150793409
 20
143.2092687007094
 10
153.9038856707499
 20
127.8027915271048
 10
153.9038856707499
 20
127.8027915271048
 10
153.9038856707499
 20
127.8027915271048
 10
151.3882752878863
 20
127.8027915271048
 10
151.3882752878863
 20
127.8027915271048
 10
151.3882752878863
 20
127.8027915271048
 10
155.6250565106276
 20
141.2751908193897
 10
155.6250565106276
 20
141.2751908193897
 10
156.5094131050963
 20
144.0936252951782
 10
157.109893644309
 20
146.1506931664571
 10
157.4220195011804
 20
147.4415712963654
 10
157.8095929989511
 20
149.0530157726519
 10
157.9656559273867
 20
149.5826995529385
 10
157.7816877071116
 20
150.7529992613181
 10
157.6111553680925
 20
151.8430281919372
 10
157.0582171779396
 20
152.5547853887321
 10
156.1170164704645
 20
152.5547853887321
 10
155.1096698860365
 20
152.5547853887321
 10
154.2962823053817
 20
152.4412694176073
 10
153.156643967048
 20
151.2945686288697
 10
152.0170056287143
 20
150.1476955852443
 10
151.076149431015
 20
148.7930831468137
 10
150.3337308641742
 20
147.2290087646991
 10
149.5957909244188
 20
145.6683794803425
 10
148.8530278478023
 20
143.6822806228776
 10
148.0964843801539
 20
141.2751908193897
 10
148.0964843801539
 20
141.2751908193897
 10
143.8552245303272
 20
127.8027915271048
 10
143.8552245303272
 20
127.8027915271048
 10
143.8552245303272
 20
127.8027915271048
 10
141.486030802177
 20
127.8027915271048
 10
141.486030802177
 20
127.8027915271048
 10
141.486030802177
 20
127.8027915271048
 10
146.3329388378533
 20
143.2092687007094
 10
146.3329388378533
 20
143.2092687007094
 10
146.8483254624444
 20
144.8408669988801
 10
147.2314203331297
 20
146.1837661049335
 10
147.4867020769946
 20
147.224185627838
 10
147.9169947869641
 20
149.0197705792876
 10
148.0306830129768
 20
150.2400242051577
 10
147.709255392159
 20
151.3157559800812
 10
147.3874832615654
 20
152.3916600098926
 10
146.8245542879144
 20
152.6683013598569
 10
145.8840425999909
 20
152.6683013598569
 10
145.0989048209514
 20
152.6683013598569
 10
144.3282364524954
 20
152.3275811915945
 10
143.4531816219731
 20
151.6538923250251
 10
142.34627171234
 20
150.8074318058939
 10
141.901854101563
 20
150.1097995099067
 10
141.3578731655808
 20
149.289521733736
 10
140.6299240093235
 20
148.192602607601
 10
140.2850697237515
 20
147.455696197173
 10
139.6652966370942
 20
145.8385673095858
 10
139.0506911970739
 20
144.2214384219986
 10
138.463991048893
 20
142.3252566160164
 10
138.0571250036777
 20
141.0154304484394
 10
138.0571250036777
 20
141.0154304484394
 10
133.9009590684727
 20
127.8027915271048
 10
133.9009590684727
 20
127.8027915271048
 10
133.9009590684727
 20
127.8027915271048
 10
131.4180771143097
 20
127.8027915271048
 10
131.4180771143097
 20
127.8027915271048
 10
131.4180771143097
 20
127.8027915271048
 10
139.8926730891197
 20
154.8294111834263
 10
139.8926730891197
 20
154.8294111834263
 97
        0
 75
     2
 76
     1
 98
        0
  0
SPLINE
  5
3C5
330
3BD
100
AcDbEntity
  8
レイヤー 1
370
     0
100
AcDbSpline
210
0.0
220
0.0
230
1.0
 70
    11
 71
     3
 72
    29
 73
    25
 74
     0
 42
0.000000001
 43
0.0000000001
 40
0.0
 40
0.0
 40
0.0
 40
0.0
 40
1.0
 40
1.0
 40
1.0
 40
2.0
 40
2.0
 40
2.0
 40
3.0
 40
3.0
 40
3.0
 40
4.0
 40
4.0
 40
4.0
 40
5.0
 40
5.0
 40
5.0
 40
6.0
 40
6.0
 40
6.0
 40
7.0
 40
7.0
 40
7.0
 40
8.0
 40
8.0
 40
8.0
 40
8.0
 10
101.6420971922469
 20
132.8388354296931
 30
0.0
 10
101.630039350094
 20
134.7164137077823
 30
0.0
 10
102.2236296937908
 20
138.0598810818841
 30
0.0
 10
103.7487744712405
 20
142.5378191476827
 30
0.0
 10
105.819967243327
 20
148.5896501242061
 30
0.0
 10
107.0602024361932
 20
150.8074318058939
 30
0.0
 10
108.1522984254671
 20
151.8833358357054
 30
0.0
 10
109.741177511439
 20
153.4532668840085
 30
0.0
 10
111.8740375333931
 20
153.5290590346837
 30
0.0
 10
112.5075910110823
 20
153.4532668840085
 30
0.0
 10
113.4012493694975
 20
153.3490526768302
 30
0.0
 10
114.6683563248758
 20
152.7580461564518
 30
0.0
 10
114.7493161221879
 20
150.7838328862519
 30
0.0
 10
114.8106388622796
 20
149.0909118479895
 30
0.0
 10
114.3186789024427
 20
145.9191825971221
 30
0.0
 10
112.6164561002338
 20
140.9489400617108
 30
0.0
 10
110.6444821435766
 20
135.1746117095912
 30
0.0
 10
109.4669477299053
 20
132.8960240524753
 30
0.0
 10
108.5212683953448
 20
131.9072809959403
 30
0.0
 10
106.7346406980658
 20
130.0538184021569
 30
0.0
 10
104.8222669326213
 20
130.2336525051225
 30
0.0
 10
104.5408024457958
 20
130.2336525051225
 30
0.0
 10
104.1721769856939
 20
130.2336525051225
 30
0.0
 10
101.6465758193322
 20
130.6305277668397
 30
0.0
 10
101.6420971922469
 20
132.8388354296931
 30
0.0
  0
SPLINE
  5
3C6
330
3BD
100
AcDbEntity
  8
レイヤー 1
370
     0
100
AcDbSpline
210
0.0
220
0.0
230
1.0
 70
    11
 71
     3
 72
    32
 73
    28
 74
     0
 42
0.000000001
 43
0.0000000001
 40
0.0
 40
0.0
 40
0.0
 40
0.0
 40
1.0
 40
1.0
 40
1.0
 40
2.0
 40
2.0
 40
2.0
 40
3.0
 40
3.0
 40
3.0
 40
4.0
 40
4.0
 40
4.0
 40
5.0
 40
5.0
 40
5.0
 40
6.0
 40
6.0
 40
6.0
 40
7.0
 40
7.0
 40
7.0
 40
8.0
 40
8.0
 40
8.0
 40
9.0
 40
9.0
 40
9.0
 40
9.0
 10
106.2595617172429
 20
153.4105476718098
 30
0.0
 10
104.8222669326213
 20
151.5474388043041
 30
0.0
 10
103.7177685914188
 20
149.8758773721411
 30
0.0
 10
101.9232171692965
 20
144.6141795664062
 30
0.0
 10
100.2754269116635
 20
139.7999999594306
 30
0.0
 10
99.22777268346732
 20
136.3052927937542
 30
0.0
 10
99.06964269637689
 20
132.039572749846
 30
0.0
 10
98.94665270641765
 20
128.8673267343149
 30
0.0
 10
100.8807305877373
 20
127.8027915271048
 30
0.0
 10
103.7129454545577
 20
127.8027915271048
 30
0.0
 10
104.9352661390825
 20
127.8027915271048
 30
0.0
 10
108.0151835347002
 20
127.8827177950895
 30
0.0
 10
110.2045431598849
 20
130.5926316915021
 30
0.0
 10
111.7417457794874
 20
132.4984597712065
 30
0.0
 10
113.155269389579
 20
134.475256864725
 30
0.0
 10
115.0562743324223
 20
140.9489400617108
 30
0.0
 10
116.6361961642235
 20
146.3680788349845
 30
0.0
 10
117.7282921534974
 20
149.8639917848761
 30
0.0
 10
117.6480213757369
 20
151.8595646611754
 30
0.0
 10
117.6480213757369
 20
151.8595646611754
 30
0.0
 10
117.6480213757369
 20
151.8595646611754
 30
0.0
 10
117.6480213757369
 20
151.8595646611754
 30
0.0
 10
117.13229024137
 20
155.18150017429
 30
0.0
 10
114.7162431837115
 20
155.886194920681
 30
0.0
 10
113.3351034925446
 20
155.886194920681
 30
0.0
 10
111.9829026225447
 20
155.886194920681
 30
0.0
 10
108.3414342923792
 20
156.1251124501957
 30
0.0
 10
106.2595617172429
 20
153.4105476718098
 30
0.0
  0
HATCH
  5
3C7
330
3BD
100
AcDbEntity
  8
レイヤー 1
 62
   250
420
  2234388
100
AcDbHatch
 10
0.0
 20
0.0
 30
0.0
210
0.0
220
0.0
230
1.0
  2
SOLID
 70
     1
 71
     0
 91
        2
 92
        1
 93
        1
 72
     4
 94
        3
 73
     0
 74
     1
 95
       29
 96
       25
 40
0.0
 40
0.0
 40
0.0
 40
0.0
 40
1.0
 40
1.0
 40
1.0
 40
2.0
 40
2.0
 40
2.0
 40
3.0
 40
3.0
 40
3.0
 40
4.0
 40
4.0
 40
4.0
 40
5.0
 40
5.0
 40
5.0
 40
6.0
 40
6.0
 40
6.0
 40
7.0
 40
7.0
 40
7.0
 40
8.0
 40
8.0
 40
8.0
 40
8.0
 10
101.6420971922469
 20
132.8388354296931
 10
101.630039350094
 20
134.7164137077823
 10
102.2236296937908
 20
138.0598810818841
 10
103.7487744712405
 20
142.5378191476827
 10
105.819967243327
 20
148.5896501242061
 10
107.0602024361932
 20
150.8074318058939
 10
108.1522984254671
 20
151.8833358357054
 10
109.741177511439
 20
153.4532668840085
 10
111.8740375333931
 20
153.5290590346837
 10
112.5075910110823
 20
153.4532668840085
 10
113.4012493694975
 20
153.3490526768302
 10
114.6683563248758
 20
152.7580461564518
 10
114.7493161221879
 20
150.7838328862519
 10
114.8106388622796
 20
149.0909118479895
 10
114.3186789024427
 20
145.9191825971221
 10
112.6164561002338
 20
140.9489400617108
 10
110.6444821435766
 20
135.1746117095912
 10
109.4669477299053
 20
132.8960240524753
 10
108.5212683953448
 20
131.9072809959403
 10
106.7346406980658
 20
130.0538184021569
 10
104.8222669326213
 20
130.2336525051225
 10
104.5408024457958
 20
130.2336525051225
 10
104.1721769856939
 20
130.2336525051225
 10
101.6465758193322
 20
130.6305277668397
 10
101.6420971922469
 20
132.8388354296931
 97
        0
 92
        1
 93
        1
 72
     4
 94
        3
 73
     0
 74
     1
 95
       32
 96
       28
 40
0.0
 40
0.0
 40
0.0
 40
0.0
 40
1.0
 40
1.0
 40
1.0
 40
2.0
 40
2.0
 40
2.0
 40
3.0
 40
3.0
 40
3.0
 40
4.0
 40
4.0
 40
4.0
 40
5.0
 40
5.0
 40
5.0
 40
6.0
 40
6.0
 40
6.0
 40
7.0
 40
7.0
 40
7.0
 40
8.0
 40
8.0
 40
8.0
 40
9.0
 40
9.0
 40
9.0
 40
9.0
 10
106.2595617172429
 20
153.4105476718098
 10
104.8222669326213
 20
151.5474388043041
 10
103.7177685914188
 20
149.8758773721411
 10
101.9232171692965
 20
144.6141795664062
 10
100.2754269116635
 20
139.7999999594306
 10
99.22777268346732
 20
136.3052927937542
 10
99.06964269637689
 20
132.039572749846
 10
98.94665270641765
 20
128.8673267343149
 10
100.8807305877373
 20
127.8027915271048
 10
103.7129454545577
 20
127.8027915271048
 10
104.9352661390825
 20
127.8027915271048
 10
108.0151835347002
 20
127.8827177950895
 10
110.2045431598849
 20
130.5926316915021
 10
111.7417457794874
 20
132.4984597712065
 10
113.155269389579
 20
134.475256864725
 10
115.0562743324223
 20
140.9489400617108
 10
116.6361961642235
 20
146.3680788349845
 10
117.7282921534974
 20
149.8639917848761
 10
117.6480213757369
 20
151.8595646611754
 10
117.6480213757369
 20
151.8595646611754
 10
117.6480213757369
 20
151.8595646611754
 10
117.6480213757369
 20
151.8595646611754
 10
117.13229024137
 20
155.18150017429
 10
114.7162431837115
 20
155.886194920681
 10
113.3351034925446
 20
155.886194920681
 10
111.9829026225447
 20
155.886194920681
 10
108.3414342923792
 20
156.1251124501957
 10
106.2595617172429
 20
153.4105476718098
 97
        0
 75
     2
 76
     1
 98
        0
  0
ENDBLK
  5
3C8
330
3BD
100
AcDbEntity
  8
0
100
AcDbBlockEnd
  0
BLOCK
  5
11F1
330
11F0
100
AcDbEntity
  8
0
100
AcDbBlockBegin
  2
BLOCK_2
 70
     0
 10
0.0
 20
0.0
 30
0.0
  3
BLOCK_2
  1
BLOCK_2
  0
ENDBLK
  5
11F2
330
11F0
100
AcDbEntity
  8
0
100
AcDbBlockEnd
  0
BLOCK
  5
19BA
330
19B9
100
AcDbEntity
  8
0
100
AcDbBlockBegin
  2
*D7
 70
     1
 10
0.0
 20
0.0
 30
0.0
  3
*D7
  1
*D171
  0
LINE
  5
19BC
330
19B9
100
AcDbEntity
  8
Dim
  6
Continuous
 62
     0
370
    -2
100
AcDbLine
 10
-1099.996083546581
 20
2038.96504316011
 30
0.0
 11
-1099.996083546581
 21
2303.281849329459
 31
0.0
  0
LINE
  5
19BD
330
19B9
100
AcDbEntity
  8
Dim
  6
Continuous
 62
     0
370
    -2
100
AcDbLine
 10
-1799.89088807097
 20
2038.96504316011
 30
0.0
 11
-1799.89088807097
 21
2303.281849329459
 31
0.0
  0
LINE
  5
19BE
330
19B9
100
AcDbEntity
  8
Dim
  6
Continuous
 62
     0
370
    -2
100
AcDbLine
 10
-1108.996083546581
 20
2303.281849329459
 30
0.0
 11
-1790.89088807097
 21
2303.281849329459
 31
0.0
  0
INSERT
  5
19BF
330
19B9
100
AcDbEntity
  8
Dim
 62
     0
370
    -2
100
AcDbBlockReference
  2
_DOT
 10
-1099.996083546581
 20
2303.281849329459
 30
0.0
 41
9.0
 42
9.0
 43
9.0
  0
INSERT
  5
19C0
330
19B9
100
AcDbEntity
  8
Dim
 62
     0
370
    -2
100
AcDbBlockReference
  2
_DOT
 10
-1799.89088807097
 20
2303.281849329459
 30
0.0
 41
9.0
 42
9.0
 43
9.0
 50
180.0
  0
MTEXT
  5
19C1
330
19B9
100
AcDbEntity
  8
Dim
  6
Continuous
 62
     0
100
AcDbMText
 10
-1449.943485808775
 20
2325.498157923209
 30
0.0
 40
24.4326171875
 41
0.0
 46
0.0
 71
     5
 72
     1
  1
\A1;700
  7
ＭＳ ゴシック
 73
     1
 44
1.0
  0
POINT
  5
19C2
330
19B9
100
AcDbEntity
  8
Defpoints
 62
     0
100
AcDbPoint
 10
-1099.996083546581
 20
2013.96504316011
 30
0.0
  0
POINT
  5
19C3
330
19B9
100
AcDbEntity
  8
Defpoints
 62
     0
100
AcDbPoint
 10
-1799.89088807097
 20
2013.96504316011
 30
0.0
  0
POINT
  5
19C4
330
19B9
100
AcDbEntity
  8
Defpoints
 62
     0
100
AcDbPoint
 10
-1799.89088807097
 20
2303.281849329459
 30
0.0
  0
ENDBLK
  5
19BB
330
19B9
100
AcDbEntity
  8
0
100
AcDbBlockEnd
  0
BLOCK
  5
19D6
330
19D5
100
AcDbEntity
  8
0
100
AcDbBlockBegin
  2
*D8
 70
     1
 10
0.0
 20
0.0
 30
0.0
  3
*D8
  1
*D173
  0
LINE
  5
19D8
330
19D5
100
AcDbEntity
  8
Dim
  6
Continuous
 62
     0
370
    -2
100
AcDbLine
 10
-1249.325954287327
 20
2198.454981313166
 30
0.0
 11
-1025.715534479406
 21
2198.454981313166
 31
0.0
  0
LINE
  5
19D9
330
19D5
100
AcDbEntity
  8
Dim
  6
Continuous
 62
     0
370
    -2
100
AcDbLine
 10
-1249.325954287327
 20
1828.454981313166
 30
0.0
 11
-1025.715534479406
 21
1828.454981313166
 31
0.0
  0
LINE
  5
19DA
330
19D5
100
AcDbEntity
  8
Dim
  6
Continuous
 62
     0
370
    -2
100
AcDbLine
 10
-1025.715534479406
 20
2189.454981313166
 30
0.0
 11
-1025.715534479406
 21
1837.454981313166
 31
0.0
  0
INSERT
  5
19DB
330
19D5
100
AcDbEntity
  8
Dim
 62
     0
370
    -2
100
AcDbBlockReference
  2
_DOT
 10
-1025.715534479406
 20
2198.454981313166
 30
0.0
 41
9.0
 42
9.0
 43
9.0
 50
90.0
  0
INSERT
  5
19DC
330
19D5
100
AcDbEntity
  8
Dim
 62
     0
370
    -2
100
AcDbBlockReference
  2
_DOT
 10
-1025.715534479406
 20
1828.454981313166
 30
0.0
 41
9.0
 42
9.0
 43
9.0
 50
270.0
  0
MTEXT
  5
19DD
330
19D5
100
AcDbEntity
  8
Dim
  6
Continuous
 62
     0
100
AcDbMText
 10
-1047.931843073156
 20
2013.454981313166
 30
0.0
 40
24.4326171875
 41
0.0
 46
0.0
 71
     5
 72
     1
  1
\A1;370
  7
ＭＳ ゴシック
 11
0.0
 21
1.0
 31
0.0
 73
     1
 44
1.0
  0
POINT
  5
19DE
330
19D5
100
AcDbEntity
  8
Defpoints
 62
     0
100
AcDbPoint
 10
-1274.325954287327
 20
2198.454981313166
 30
0.0
  0
POINT
  5
19DF
330
19D5
100
AcDbEntity
  8
Defpoints
 62
     0
100
AcDbPoint
 10
-1274.325954287327
 20
1828.454981313166
 30
0.0
  0
POINT
  5
19E0
330
19D5
100
AcDbEntity
  8
Defpoints
 62
     0
100
AcDbPoint
 10
-1025.715534479406
 20
1828.454981313166
 30
0.0
  0
ENDBLK
  5
19D7
330
19D5
100
AcDbEntity
  8
0
100
AcDbBlockEnd
  0
BLOCK
  5
19E6
330
19E5
100
AcDbEntity
  8
0
100
AcDbBlockBegin
  2
*D9
 70
     1
 10
0.0
 20
0.0
 30
0.0
  3
*D9
  1
*D174
  0
LINE
  5
19E8
330
19E5
100
AcDbEntity
  8
Dim
  6
Continuous
 62
     0
370
    -2
100
AcDbLine
 10
-1658.462652838284
 20
2171.208593363257
 30
0.0
 11
-1848.980854296902
 21
2171.208593363257
 31
0.0
  0
LINE
  5
19E9
330
19E5
100
AcDbEntity
  8
Dim
  6
Continuous
 62
     0
370
    -2
100
AcDbLine
 10
-1658.462652838284
 20
1856.208593363257
 30
0.0
 11
-1848.980854296902
 21
1856.208593363257
 31
0.0
  0
LINE
  5
19EA
330
19E5
100
AcDbEntity
  8
Dim
  6
Continuous
 62
     0
370
    -2
100
AcDbLine
 10
-1848.980854296902
 20
2162.208593363257
 30
0.0
 11
-1848.980854296902
 21
1865.208593363257
 31
0.0
  0
INSERT
  5
19EB
330
19E5
100
AcDbEntity
  8
Dim
 62
     0
370
    -2
100
AcDbBlockReference
  2
_DOT
 10
-1848.980854296902
 20
2171.208593363257
 30
0.0
 41
9.0
 42
9.0
 43
9.0
 50
90.0
  0
INSERT
  5
19EC
330
19E5
100
AcDbEntity
  8
Dim
 62
     0
370
    -2
100
AcDbBlockReference
  2
_DOT
 10
-1848.980854296902
 20
1856.208593363257
 30
0.0
 41
9.0
 42
9.0
 43
9.0
 50
270.0
  0
MTEXT
  5
19ED
330
19E5
100
AcDbEntity
  8
Dim
  6
Continuous
 62
     0
100
AcDbMText
 10
-1871.197162890652
 20
2013.708593363257
 30
0.0
 40
24.4326171875
 41
0.0
 46
0.0
 71
     5
 72
     1
  1
\A1;315
  7
ＭＳ ゴシック
 11
0.0
 21
1.0
 31
0.0
 73
     1
 44
1.0
  0
POINT
  5
19EE
330
19E5
100
AcDbEntity
  8
Defpoints
 62
     0
100
AcDbPoint
 10
-1633.462652838284
 20
2171.208593363257
 30
0.0
  0
POINT
  5
19EF
330
19E5
100
AcDbEntity
  8
Defpoints
 62
     0
100
AcDbPoint
 10
-1633.462652838284
 20
1856.208593363257
 30
0.0
  0
POINT
  5
19F0
330
19E5
100
AcDbEntity
  8
Defpoints
 62
     0
100
AcDbPoint
 10
-1848.980854296902
 20
1856.208593363257
 30
0.0
  0
ENDBLK
  5
19E7
330
19E5
100
AcDbEntity
  8
0
100
AcDbBlockEnd
  0
BLOCK
  5
19F5
330
19F4
100
AcDbEntity
  8
0
100
AcDbBlockBegin
  2
*D10
 70
     1
 10
0.0
 20
0.0
 30
0.0
  3
*D10
  1
*D175
  0
LINE
  5
19F7
330
19F4
100
AcDbEntity
  8
Dim
  6
Continuous
 62
     0
370
    -2
100
AcDbLine
 10
-1769.89088878071
 20
1962.447941487623
 30
0.0
 11
-1769.89088878071
 21
1742.239402837962
 31
0.0
  0
LINE
  5
19F8
330
19F4
100
AcDbEntity
  8
Dim
  6
Continuous
 62
     0
370
    -2
100
AcDbLine
 10
-1129.996082836847
 20
1962.447941487651
 30
0.0
 11
-1129.996082836847
 21
1742.239402837962
 31
0.0
  0
LINE
  5
19F9
330
19F4
100
AcDbEntity
  8
Dim
  6
Continuous
 62
     0
370
    -2
100
AcDbLine
 10
-1760.89088878071
 20
1742.239402837962
 30
0.0
 11
-1138.996082836847
 21
1742.239402837962
 31
0.0
  0
INSERT
  5
19FA
330
19F4
100
AcDbEntity
  8
Dim
 62
     0
370
    -2
100
AcDbBlockReference
  2
_DOT
 10
-1769.89088878071
 20
1742.239402837962
 30
0.0
 41
9.0
 42
9.0
 43
9.0
 50
180.0
  0
INSERT
  5
19FB
330
19F4
100
AcDbEntity
  8
Dim
 62
     0
370
    -2
100
AcDbBlockReference
  2
_DOT
 10
-1129.996082836847
 20
1742.239402837962
 30
0.0
 41
9.0
 42
9.0
 43
9.0
  0
MTEXT
  5
19FC
330
19F4
100
AcDbEntity
  8
Dim
  6
Continuous
 62
     0
100
AcDbMText
 10
-1449.943485808778
 20
1764.455711431712
 30
0.0
 40
24.4326171875
 41
0.0
 46
0.0
 71
     5
 72
     1
  1
\A1;640
  7
ＭＳ ゴシック
 73
     1
 44
1.0
  0
POINT
  5
19FD
330
19F4
100
AcDbEntity
  8
Defpoints
 62
     0
100
AcDbPoint
 10
-1769.89088878071
 20
1987.447941487623
 30
0.0
  0
POINT
  5
19FE
330
19F4
100
AcDbEntity
  8
Defpoints
 62
     0
100
AcDbPoint
 10
-1129.996082836847
 20
1987.447941487651
 30
0.0
  0
POINT
  5
19FF
330
19F4
100
AcDbEntity
  8
Defpoints
 62
     0
100
AcDbPoint
 10
-1129.996082836847
 20
1742.239402837962
 30
0.0
  0
ENDBLK
  5
19F6
330
19F4
100
AcDbEntity
  8
0
100
AcDbBlockEnd
  0
BLOCK
  5
1A05
330
1A04
100
AcDbEntity
  8
0
100
AcDbBlockBegin
  2
*D11
 70
     1
 10
0.0
 20
0.0
 30
0.0
  3
*D11
  1
*D176
  0
LINE
  5
1A07
330
1A04
100
AcDbEntity
  8
Dim
  6
Continuous
 62
     0
370
    -2
100
AcDbLine
 10
-327.3720526930472
 20
986.4496762339288
 30
0.0
 11
-327.3720526930472
 21
735.8857509555712
 31
0.0
  0
LINE
  5
1A08
330
1A04
100
AcDbEntity
  8
Dim
  6
Continuous
 62
     0
370
    -2
100
AcDbLine
 10
-512.3720526930472
 20
778.9884752019805
 30
0.0
 11
-512.3720526930472
 21
735.8857509555712
 31
0.0
  0
LINE
  5
1A09
330
1A04
100
AcDbEntity
  8
Dim
  6
Continuous
 62
     0
370
    -2
100
AcDbLine
 10
-336.3720526930472
 20
735.8857509555712
 30
0.0
 11
-503.3720526930472
 21
735.8857509555712
 31
0.0
  0
INSERT
  5
1A0A
330
1A04
100
AcDbEntity
  8
Dim
 62
     0
370
    -2
100
AcDbBlockReference
  2
_DOT
 10
-327.3720526930472
 20
735.8857509555712
 30
0.0
 41
9.0
 42
9.0
 43
9.0
  0
INSERT
  5
1A0B
330
1A04
100
AcDbEntity
  8
Dim
 62
     0
370
    -2
100
AcDbBlockReference
  2
_DOT
 10
-512.3720526930472
 20
735.8857509555712
 30
0.0
 41
9.0
 42
9.0
 43
9.0
 50
180.0
  0
MTEXT
  5
1A0C
330
1A04
100
AcDbEntity
  8
Dim
  6
Continuous
 62
     0
100
AcDbMText
 10
-419.8720526930472
 20
758.1020595493212
 30
0.0
 40
24.4326171875
 41
0.0
 46
0.0
 71
     5
 72
     1
  1
\A1;185
  7
ＭＳ ゴシック
 73
     1
 44
1.0
  0
POINT
  5
1A0D
330
1A04
100
AcDbEntity
  8
Defpoints
 62
     0
100
AcDbPoint
 10
-327.3720526930472
 20
1011.449676233929
 30
0.0
  0
POINT
  5
1A0E
330
1A04
100
AcDbEntity
  8
Defpoints
 62
     0
100
AcDbPoint
 10
-512.3720526930472
 20
803.9884752019805
 30
0.0
  0
POINT
  5
1A0F
330
1A04
100
AcDbEntity
  8
Defpoints
 62
     0
100
AcDbPoint
 10
-512.3720526930472
 20
735.8857509555712
 30
0.0
  0
ENDBLK
  5
1A06
330
1A04
100
AcDbEntity
  8
0
100
AcDbBlockEnd
  0
BLOCK
  5
1A1A
330
1A19
100
AcDbEntity
  8
0
100
AcDbBlockBegin
  2
*D12
 70
     1
 10
0.0
 20
0.0
 30
0.0
  3
*D12
  1
*D177
  0
LINE
  5
1A1C
330
1A19
100
AcDbEntity
  8
Dim
  6
Continuous
 62
     0
370
    -2
100
AcDbLine
 10
-719.6927189960682
 20
1042.146970822732
 30
0.0
 11
-761.3768901128972
 21
1042.146970822732
 31
0.0
  0
LINE
  5
1A1D
330
1A19
100
AcDbEntity
  8
Dim
  6
Continuous
 62
     0
370
    -2
100
AcDbLine
 10
-702.471264939091
 20
967.2331786268264
 30
0.0
 11
-761.3768901128972
 21
967.2331786268264
 31
0.0
  0
LINE
  5
1A1E
330
1A19
100
AcDbEntity
  8
Dim
  6
Continuous
 62
     0
370
    -2
100
AcDbLine
 10
-761.3768901128972
 20
1033.146970822732
 30
0.0
 11
-761.3768901128972
 21
976.2331786268264
 31
0.0
  0
INSERT
  5
1A1F
330
1A19
100
AcDbEntity
  8
Dim
 62
     0
370
    -2
100
AcDbBlockReference
  2
_DOT
 10
-761.3768901128972
 20
1042.146970822732
 30
0.0
 41
9.0
 42
9.0
 43
9.0
 50
90.0
  0
INSERT
  5
1A20
330
1A19
100
AcDbEntity
  8
Dim
 62
     0
370
    -2
100
AcDbBlockReference
  2
_DOT
 10
-761.3768901128972
 20
967.2331786268264
 30
0.0
 41
9.0
 42
9.0
 43
9.0
 50
270.0
  0
MTEXT
  5
1A21
330
1A19
100
AcDbEntity
  8
Dim
  6
Continuous
 62
     0
100
AcDbMText
 10
-783.5931987066472
 20
1004.690074724779
 30
0.0
 40
24.4326171875
 41
0.0
 46
0.0
 71
     5
 72
     1
  1
\A1;75
  7
ＭＳ ゴシック
 11
0.0
 21
1.0
 31
0.0
 73
     1
 44
1.0
  0
POINT
  5
1A22
330
1A19
100
AcDbEntity
  8
Defpoints
 62
     0
100
AcDbPoint
 10
-694.6927189960682
 20
1042.146970822732
 30
0.0
  0
POINT
  5
1A23
330
1A19
100
AcDbEntity
  8
Defpoints
 62
     0
100
AcDbPoint
 10
-677.471264939091
 20
967.2331786268264
 30
0.0
  0
POINT
  5
1A24
330
1A19
100
AcDbEntity
  8
Defpoints
 62
     0
100
AcDbPoint
 10
-761.3768901128972
 20
967.2331786268264
 30
0.0
  0
ENDBLK
  5
1A1B
330
1A19
100
AcDbEntity
  8
0
100
AcDbBlockEnd
  0
BLOCK
  5
1A27
330
1A26
100
AcDbEntity
  8
0
100
AcDbBlockBegin
  2
*D13
 70
     1
 10
0.0
 20
0.0
 30
0.0
  3
*D13
  1
*D178
  0
LINE
  5
1A29
330
1A26
100
AcDbEntity
  8
Dim
  6
Continuous
 62
     0
370
    -2
100
AcDbLine
 10
-727.471264939091
 20
967.2331786268264
 30
0.0
 11
-761.3768901128972
 21
967.2331786268264
 31
0.0
  0
LINE
  5
1A2A
330
1A26
100
AcDbEntity
  8
Dim
  6
Continuous
 62
     0
370
    -2
100
AcDbLine
 10
-664.2463188304221
 20
892.2331786268264
 30
0.0
 11
-761.3768901128972
 21
892.2331786268264
 31
0.0
  0
LINE
  5
1A2B
330
1A26
100
AcDbEntity
  8
Dim
  6
Continuous
 62
     0
370
    -2
100
AcDbLine
 10
-761.3768901128972
 20
958.2331786268264
 30
0.0
 11
-761.3768901128972
 21
901.2331786268264
 31
0.0
  0
INSERT
  5
1A2C
330
1A26
100
AcDbEntity
  8
Dim
 62
     0
370
    -2
100
AcDbBlockReference
  2
_DOT
 10
-761.3768901128972
 20
967.2331786268264
 30
0.0
 41
9.0
 42
9.0
 43
9.0
 50
90.0
  0
INSERT
  5
1A2D
330
1A26
100
AcDbEntity
  8
Dim
 62
     0
370
    -2
100
AcDbBlockReference
  2
_DOT
 10
-761.3768901128972
 20
892.2331786268264
 30
0.0
 41
9.0
 42
9.0
 43
9.0
 50
270.0
  0
MTEXT
  5
1A2E
330
1A26
100
AcDbEntity
  8
Dim
  6
Continuous
 62
     0
100
AcDbMText
 10
-783.5931987066472
 20
929.7331786268264
 30
0.0
 40
24.4326171875
 41
0.0
 46
0.0
 71
     5
 72
     1
  1
\A1;75
  7
ＭＳ ゴシック
 11
0.0
 21
1.0
 31
0.0
 73
     1
 44
1.0
  0
POINT
  5
1A2F
330
1A26
100
AcDbEntity
  8
Defpoints
 62
     0
100
AcDbPoint
 10
-702.471264939091
 20
967.2331786268264
 30
0.0
  0
POINT
  5
1A30
330
1A26
100
AcDbEntity
  8
Defpoints
 62
     0
100
AcDbPoint
 10
-639.2463188304221
 20
892.2331786268264
 30
0.0
  0
POINT
  5
1A31
330
1A26
100
AcDbEntity
  8
Defpoints
 62
     0
100
AcDbPoint
 10
-761.3768901128972
 20
892.2331786268264
 30
0.0
  0
ENDBLK
  5
1A28
330
1A26
100
AcDbEntity
  8
0
100
AcDbBlockEnd
  0
BLOCK
  5
1A37
330
1A36
100
AcDbEntity
  8
0
100
AcDbBlockBegin
  2
*D14
 70
     1
 10
0.0
 20
0.0
 30
0.0
  3
*D14
  1
*D179
  0
LINE
  5
1A39
330
1A36
100
AcDbEntity
  8
Dim
  6
Continuous
 62
     0
370
    -2
100
AcDbLine
 10
-1079.023640787445
 20
1042.154778093721
 30
0.0
 11
-1010.950968915361
 21
1042.154778093721
 31
0.0
  0
LINE
  5
1A3A
330
1A36
100
AcDbEntity
  8
Dim
  6
Continuous
 62
     0
370
    -2
100
AcDbLine
 10
-1127.580864198037
 20
892.1547780937206
 30
0.0
 11
-1010.950968915361
 21
892.1547780937206
 31
0.0
  0
LINE
  5
1A3B
330
1A36
100
AcDbEntity
  8
Dim
  6
Continuous
 62
     0
370
    -2
100
AcDbLine
 10
-1010.950968915361
 20
1033.154778093721
 30
0.0
 11
-1010.950968915361
 21
901.1547780937206
 31
0.0
  0
INSERT
  5
1A3C
330
1A36
100
AcDbEntity
  8
Dim
 62
     0
370
    -2
100
AcDbBlockReference
  2
_DOT
 10
-1010.950968915361
 20
1042.154778093721
 30
0.0
 41
9.0
 42
9.0
 43
9.0
 50
90.0
  0
INSERT
  5
1A3D
330
1A36
100
AcDbEntity
  8
Dim
 62
     0
370
    -2
100
AcDbBlockReference
  2
_DOT
 10
-1010.950968915361
 20
892.1547780937206
 30
0.0
 41
9.0
 42
9.0
 43
9.0
 50
270.0
  0
MTEXT
  5
1A3E
330
1A36
100
AcDbEntity
  8
Dim
  6
Continuous
 62
     0
100
AcDbMText
 10
-1033.167277509111
 20
967.1547780937207
 30
0.0
 40
24.4326171875
 41
0.0
 46
0.0
 71
     5
 72
     1
  1
\A1;150
  7
ＭＳ ゴシック
 11
0.0
 21
1.0
 31
0.0
 73
     1
 44
1.0
  0
POINT
  5
1A3F
330
1A36
100
AcDbEntity
  8
Defpoints
 62
     0
100
AcDbPoint
 10
-1104.023640787445
 20
1042.154778093721
 30
0.0
  0
POINT
  5
1A40
330
1A36
100
AcDbEntity
  8
Defpoints
 62
     0
100
AcDbPoint
 10
-1152.580864198037
 20
892.1547780937206
 30
0.0
  0
POINT
  5
1A41
330
1A36
100
AcDbEntity
  8
Defpoints
 62
     0
100
AcDbPoint
 10
-1010.950968915361
 20
892.1547780937206
 30
0.0
  0
ENDBLK
  5
1A38
330
1A36
100
AcDbEntity
  8
0
100
AcDbBlockEnd
  0
BLOCK
  5
1A44
330
1A43
100
AcDbEntity
  8
0
100
AcDbBlockBegin
  2
*D15
 70
     1
 10
0.0
 20
0.0
 30
0.0
  3
*D15
  1
*D180
  0
LINE
  5
1A46
330
1A43
100
AcDbEntity
  8
Dim
  6
Continuous
 62
     0
370
    -2
100
AcDbLine
 10
-1730.498314026006
 20
864.0829322445534
 30
0.0
 11
-1730.498314026006
 21
800.3750743564613
 31
0.0
  0
LINE
  5
1A47
330
1A43
100
AcDbEntity
  8
Dim
  6
Continuous
 62
     0
370
    -2
100
AcDbLine
 10
-1165.498314026006
 20
864.0829322445534
 30
0.0
 11
-1165.498314026006
 21
800.3750743564613
 31
0.0
  0
LINE
  5
1A48
330
1A43
100
AcDbEntity
  8
Dim
  6
Continuous
 62
     0
370
    -2
100
AcDbLine
 10
-1721.498314026006
 20
800.3750743564613
 30
0.0
 11
-1174.498314026006
 21
800.3750743564613
 31
0.0
  0
INSERT
  5
1A49
330
1A43
100
AcDbEntity
  8
Dim
 62
     0
370
    -2
100
AcDbBlockReference
  2
_DOT
 10
-1730.498314026006
 20
800.3750743564613
 30
0.0
 41
9.0
 42
9.0
 43
9.0
 50
180.0
  0
INSERT
  5
1A4A
330
1A43
100
AcDbEntity
  8
Dim
 62
     0
370
    -2
100
AcDbBlockReference
  2
_DOT
 10
-1165.498314026006
 20
800.3750743564613
 30
0.0
 41
9.0
 42
9.0
 43
9.0
  0
MTEXT
  5
1A4B
330
1A43
100
AcDbEntity
  8
Dim
  6
Continuous
 62
     0
100
AcDbMText
 10
-1447.998314026006
 20
822.5913829502113
 30
0.0
 40
24.4326171875
 41
0.0
 46
0.0
 71
     5
 72
     1
  1
\A1;565
  7
ＭＳ ゴシック
 73
     1
 44
1.0
  0
POINT
  5
1A4C
330
1A43
100
AcDbEntity
  8
Defpoints
 62
     0
100
AcDbPoint
 10
-1730.498314026006
 20
889.0829322445534
 30
0.0
  0
POINT
  5
1A4D
330
1A43
100
AcDbEntity
  8
Defpoints
 62
     0
100
AcDbPoint
 10
-1165.498314026006
 20
889.0829322445534
 30
0.0
  0
POINT
  5
1A4E
330
1A43
100
AcDbEntity
  8
Defpoints
 62
     0
100
AcDbPoint
 10
-1165.498314026006
 20
800.3750743564613
 30
0.0
  0
ENDBLK
  5
1A45
330
1A43
100
AcDbEntity
  8
0
100
AcDbBlockEnd
  0
BLOCK
  5
1A8A
330
1A89
100
AcDbEntity
  8
0
100
AcDbBlockBegin
  2
*D16
 70
     1
 10
0.0
 20
0.0
 30
0.0
  3
*D16
  1
*D182
  0
LINE
  5
1A8C
330
1A89
100
AcDbEntity
  8
Dim
  6
Continuous
 62
     0
370
    -2
100
AcDbLine
 10
-629.8720526930472
 20
868.9935144224153
 30
0.0
 11
-629.8720526930472
 21
803.9884752019805
 31
0.0
  0
LINE
  5
1A8D
330
1A89
100
AcDbEntity
  8
Dim
  6
Continuous
 62
     0
370
    -2
100
AcDbLine
 10
-394.8720526930472
 20
868.9935144224153
 30
0.0
 11
-394.8720526930472
 21
803.9884752019805
 31
0.0
  0
LINE
  5
1A8E
330
1A89
100
AcDbEntity
  8
Dim
  6
Continuous
 62
     0
370
    -2
100
AcDbLine
 10
-620.8720526930472
 20
803.9884752019805
 30
0.0
 11
-403.8720526930472
 21
803.9884752019805
 31
0.0
  0
INSERT
  5
1A8F
330
1A89
100
AcDbEntity
  8
Dim
 62
     0
370
    -2
100
AcDbBlockReference
  2
_DOT
 10
-629.8720526930472
 20
803.9884752019805
 30
0.0
 41
9.0
 42
9.0
 43
9.0
 50
180.0
  0
INSERT
  5
1A90
330
1A89
100
AcDbEntity
  8
Dim
 62
     0
370
    -2
100
AcDbBlockReference
  2
_DOT
 10
-394.8720526930472
 20
803.9884752019805
 30
0.0
 41
9.0
 42
9.0
 43
9.0
  0
MTEXT
  5
1A91
330
1A89
100
AcDbEntity
  8
Dim
  6
Continuous
 62
     0
100
AcDbMText
 10
-512.3720526930472
 20
826.2047837957305
 30
0.0
 40
24.4326171875
 41
0.0
 46
0.0
 71
     5
 72
     1
  1
\A1;235
  7
ＭＳ ゴシック
 73
     1
 44
1.0
  0
POINT
  5
1A92
330
1A89
100
AcDbEntity
  8
Defpoints
 62
     0
100
AcDbPoint
 10
-629.8720526930472
 20
893.9935144224153
 30
0.0
  0
POINT
  5
1A93
330
1A89
100
AcDbEntity
  8
Defpoints
 62
     0
100
AcDbPoint
 10
-394.8720526930472
 20
893.9935144224153
 30
0.0
  0
POINT
  5
1A94
330
1A89
100
AcDbEntity
  8
Defpoints
 62
     0
100
AcDbPoint
 10
-394.8720526930472
 20
803.9884752019805
 30
0.0
  0
ENDBLK
  5
1A8B
330
1A89
100
AcDbEntity
  8
0
100
AcDbBlockEnd
  0
BLOCK
  5
1AA6
330
1AA5
100
AcDbEntity
  8
0
100
AcDbBlockBegin
  2
*D17
 70
     1
 10
0.0
 20
0.0
 30
0.0
  3
*D17
  1
*D183
  0
LINE
  5
1AA8
330
1AA5
100
AcDbEntity
  8
Dim
  6
Continuous
 62
     0
370
    -2
100
AcDbLine
 10
-512.3720447192811
 20
1042.148728416899
 30
0.0
 11
-512.3720447192811
 21
1212.524648338775
 31
0.0
  0
LINE
  5
1AA9
330
1AA5
100
AcDbEntity
  8
Dim
  6
Continuous
 62
     0
370
    -2
100
AcDbLine
 10
-512.3720447192811
 20
929.8244651276623
 30
0.0
 11
-512.3720447192811
 21
1033.148728416899
 31
0.0
  0
INSERT
  5
1AAA
330
1AA5
100
AcDbEntity
  8
Dim
 62
     0
370
    -2
100
AcDbBlockReference
  2
_DOT
 10
-512.3720447192811
 20
920.8244651276623
 30
0.0
 41
9.0
 42
9.0
 43
9.0
 50
270.0
  0
INSERT
  5
1AAB
330
1AA5
100
AcDbEntity
  8
Dim
 62
     0
370
    -2
100
AcDbBlockReference
  2
_DOT
 10
-512.3720447192811
 20
1042.148728416899
 30
0.0
 41
9.0
 42
9.0
 43
9.0
 50
90.0
  0
MTEXT
  5
1AAC
330
1AA5
100
AcDbEntity
  8
Dim
  6
Continuous
 62
     0
100
AcDbMText
 10
-536.7506399341248
 20
1136.336688377837
 30
0.0
 40
24.4326171875
 41
0.0
 46
0.0
 71
     5
 72
     1
  1
\A1;120(深さ)
  7
ＭＳ ゴシック
 11
0.0
 21
1.0
 31
0.0
 73
     1
 44
1.0
  0
POINT
  5
1AAD
330
1AA5
100
AcDbEntity
  8
Defpoints
 62
     0
100
AcDbPoint
 10
-512.372057990432
 20
920.8244651276623
 30
0.0
  0
POINT
  5
1AAE
330
1AA5
100
AcDbEntity
  8
Defpoints
 62
     0
100
AcDbPoint
 10
-512.3720507163941
 20
1042.148728416899
 30
0.0
  0
POINT
  5
1AB3
330
1AA5
100
AcDbEntity
  8
Defpoints
 62
     0
100
AcDbPoint
 10
-512.3720447192811
 20
1042.148728416899
 30
0.0
  0
ENDBLK
  5
1AA7
330
1AA5
100
AcDbEntity
  8
0
100
AcDbBlockEnd
  0
BLOCK
  5
1F05
330
1F04
100
AcDbEntity
  8
0
100
AcDbBlockBegin
  2
*D18
 70
     1
 10
0.0
 20
0.0
 30
0.0
  3
*D18
  1
*D19
  0
LINE
  5
1F07
330
1F04
100
AcDbEntity
  8
Dim
  6
Continuous
 62
     0
370
    -2
100
AcDbLine
 10
1355.994685124231
 20
1321.970768872396
 30
0.0
 11
1628.973347528182
 21
1321.970768872396
 31
0.0
  0
LINE
  5
1F08
330
1F04
100
AcDbEntity
  8
Dim
  6
Continuous
 62
     0
370
    -2
100
AcDbLine
 10
1355.994685124231
 20
1781.970768859167
 30
0.0
 11
1628.973347528182
 21
1781.970768859167
 31
0.0
  0
LINE
  5
1F09
330
1F04
100
AcDbEntity
  8
Dim
  6
Continuous
 62
     0
370
    -2
100
AcDbLine
 10
1628.973347528182
 20
1330.970768872396
 30
0.0
 11
1628.973347528182
 21
1772.970768859167
 31
0.0
  0
INSERT
  5
1F0A
330
1F04
100
AcDbEntity
  8
Dim
 62
     0
370
    -2
100
AcDbBlockReference
  2
_DOT
 10
1628.973347528182
 20
1321.970768872396
 30
0.0
 41
9.0
 42
9.0
 43
9.0
 50
270.0
  0
INSERT
  5
1F0B
330
1F04
100
AcDbEntity
  8
Dim
 62
     0
370
    -2
100
AcDbBlockReference
  2
_DOT
 10
1628.973347528182
 20
1781.970768859167
 30
0.0
 41
9.0
 42
9.0
 43
9.0
 50
90.0
  0
MTEXT
  5
1F0C
330
1F04
100
AcDbEntity
  8
Dim
  6
Continuous
 62
     0
100
AcDbMText
 10
1606.757038934432
 20
1551.970768865782
 30
0.0
 40
24.4326171875
 41
0.0
 46
0.0
 71
     5
 72
     1
  1
\A1;459.99999999
  7
ＭＳ ゴシック
 11
0.0
 21
1.0
 31
0.0
 73
     1
 44
1.0
  0
POINT
  5
1F0D
330
1F04
100
AcDbEntity
  8
Defpoints
 62
     0
100
AcDbPoint
 10
1330.994685124231
 20
1321.970768872396
 30
0.0
  0
POINT
  5
1F0E
330
1F04
100
AcDbEntity
  8
Defpoints
 62
     0
100
AcDbPoint
 10
1330.994685124231
 20
1781.970768859167
 30
0.0
  0
POINT
  5
1F0F
330
1F04
100
AcDbEntity
  8
Defpoints
 62
     0
100
AcDbPoint
 10
1628.973347528182
 20
1781.970768859167
 30
0.0
  0
ENDBLK
  5
1F06
330
1F04
100
AcDbEntity
  8
0
100
AcDbBlockEnd
  0
BLOCK
  5
1F2E
330
1F2D
100
AcDbEntity
  8
0
100
AcDbBlockBegin
  2
*D19
 70
     1
 10
0.0
 20
0.0
 30
0.0
  3
*D19
  1
*D20
  0
LINE
  5
1F30
330
1F2D
100
AcDbEntity
  8
Dim
  6
Continuous
 62
     0
370
    -2
100
AcDbLine
 10
232.5864052750364
 20
2340.043238176732
 30
0.0
 11
232.5864052750364
 21
2411.918379600744
 31
0.0
  0
LINE
  5
1F31
330
1F2D
100
AcDbEntity
  8
Dim
  6
Continuous
 62
     0
370
    -2
100
AcDbLine
 10
832.5864052750364
 20
2340.043238176732
 30
0.0
 11
832.5864052750364
 21
2411.918379600744
 31
0.0
  0
LINE
  5
1F32
330
1F2D
100
AcDbEntity
  8
Dim
  6
Continuous
 62
     0
370
    -2
100
AcDbLine
 10
241.5864052750364
 20
2411.918379600744
 30
0.0
 11
823.5864052750364
 21
2411.918379600744
 31
0.0
  0
INSERT
  5
1F33
330
1F2D
100
AcDbEntity
  8
Dim
 62
     0
370
    -2
100
AcDbBlockReference
  2
_DOT
 10
232.5864052750364
 20
2411.918379600744
 30
0.0
 41
9.0
 42
9.0
 43
9.0
 50
180.0
  0
INSERT
  5
1F34
330
1F2D
100
AcDbEntity
  8
Dim
 62
     0
370
    -2
100
AcDbBlockReference
  2
_DOT
 10
832.5864052750364
 20
2411.918379600744
 30
0.0
 41
9.0
 42
9.0
 43
9.0
  0
MTEXT
  5
1F35
330
1F2D
100
AcDbEntity
  8
Dim
  6
Continuous
 62
     0
100
AcDbMText
 10
532.1003989163187
 20
2434.134688194494
 30
0.0
 40
24.4326171875
 41
0.0
 46
0.0
 71
     5
 72
     1
  1
\A1;600
  7
ＭＳ ゴシック
 73
     1
 44
1.0
  0
POINT
  5
1F36
330
1F2D
100
AcDbEntity
  8
Defpoints
 62
     0
100
AcDbPoint
 10
232.5864052750364
 20
2315.043238176732
 30
0.0
  0
POINT
  5
1F37
330
1F2D
100
AcDbEntity
  8
Defpoints
 62
     0
100
AcDbPoint
 10
832.5864052750364
 20
2315.043238176732
 30
0.0
  0
POINT
  5
1F38
330
1F2D
100
AcDbEntity
  8
Defpoints
 62
     0
100
AcDbPoint
 10
832.5864052750364
 20
2411.918379600744
 30
0.0
  0
ENDBLK
  5
1F2F
330
1F2D
100
AcDbEntity
  8
0
100
AcDbBlockEnd
  0
BLOCK
  5
1F3B
330
1F3A
100
AcDbEntity
  8
0
100
AcDbBlockBegin
  2
*D20
 70
     1
 10
0.0
 20
0.0
 30
0.0
  3
*D20
  1
*D21
  0
LINE
  5
1F3D
330
1F3A
100
AcDbEntity
  8
Dim
  6
Continuous
 62
     0
370
    -2
100
AcDbLine
 10
854.5864614281752
 20
2318.043930943782
 30
0.0
 11
955.032373464498
 21
2318.043930943782
 31
0.0
  0
LINE
  5
1F3E
330
1F3A
100
AcDbEntity
  8
Dim
  6
Continuous
 62
     0
370
    -2
100
AcDbLine
 10
854.5864614281752
 20
1858.043930943782
 30
0.0
 11
955.032373464498
 21
1858.043930943782
 31
0.0
  0
LINE
  5
1F3F
330
1F3A
100
AcDbEntity
  8
Dim
  6
Continuous
 62
     0
370
    -2
100
AcDbLine
 10
955.032373464498
 20
2309.043930943782
 30
0.0
 11
955.032373464498
 21
1867.043930943782
 31
0.0
  0
INSERT
  5
1F40
330
1F3A
100
AcDbEntity
  8
Dim
 62
     0
370
    -2
100
AcDbBlockReference
  2
_DOT
 10
955.032373464498
 20
2318.043930943782
 30
0.0
 41
9.0
 42
9.0
 43
9.0
 50
90.0
  0
INSERT
  5
1F41
330
1F3A
100
AcDbEntity
  8
Dim
 62
     0
370
    -2
100
AcDbBlockReference
  2
_DOT
 10
955.032373464498
 20
1858.043930943782
 30
0.0
 41
9.0
 42
9.0
 43
9.0
 50
270.0
  0
MTEXT
  5
1F42
330
1F3A
100
AcDbEntity
  8
Dim
  6
Continuous
 62
     0
100
AcDbMText
 10
932.816064870748
 20
2088.043930943782
 30
0.0
 40
24.4326171875
 41
0.0
 46
0.0
 71
     5
 72
     1
  1
\A1;460
  7
ＭＳ ゴシック
 11
0.0
 21
1.0
 31
0.0
 73
     1
 44
1.0
  0
POINT
  5
1F43
330
1F3A
100
AcDbEntity
  8
Defpoints
 62
     0
100
AcDbPoint
 10
829.5864614281752
 20
2318.043930943782
 30
0.0
  0
POINT
  5
1F44
330
1F3A
100
AcDbEntity
  8
Defpoints
 62
     0
100
AcDbPoint
 10
829.5864614281752
 20
1858.043930943782
 30
0.0
  0
POINT
  5
1F45
330
1F3A
100
AcDbEntity
  8
Defpoints
 62
     0
100
AcDbPoint
 10
955.032373464498
 20
1858.043930943782
 30
0.0
  0
ENDBLK
  5
1F3C
330
1F3A
100
AcDbEntity
  8
0
100
AcDbBlockEnd
  0
BLOCK
  5
1FDB
330
1FDA
100
AcDbEntity
  8
0
100
AcDbBlockBegin
  2
*D21
 70
     1
 10
0.0
 20
0.0
 30
0.0
  3
*D21
  1
*D21
  0
LINE
  5
1FDD
330
1FDA
100
AcDbEntity
  8
Dim
  6
Continuous
 62
     0
370
    -2
100
AcDbLine
 10
1750.521988840847
 20
883.917043845074
 30
0.0
 11
1750.521988840847
 21
767.7062457407194
 31
0.0
  0
LINE
  5
1FDE
330
1FDA
100
AcDbEntity
  8
Dim
  6
Continuous
 62
     0
370
    -2
100
AcDbLine
 10
1483.021988840847
 20
871.2764795813009
 30
0.0
 11
1483.021988840847
 21
767.7062457407194
 31
0.0
  0
LINE
  5
1FDF
330
1FDA
100
AcDbEntity
  8
Dim
  6
Continuous
 62
     0
370
    -2
100
AcDbLine
 10
1741.521988840847
 20
767.7062457407194
 30
0.0
 11
1492.021988840847
 21
767.7062457407194
 31
0.0
  0
INSERT
  5
1FE0
330
1FDA
100
AcDbEntity
  8
Dim
 62
     0
370
    -2
100
AcDbBlockReference
  2
_DOT
 10
1750.521988840847
 20
767.7062457407194
 30
0.0
 41
9.0
 42
9.0
 43
9.0
  0
INSERT
  5
1FE1
330
1FDA
100
AcDbEntity
  8
Dim
 62
     0
370
    -2
100
AcDbBlockReference
  2
_DOT
 10
1483.021988840847
 20
767.7062457407194
 30
0.0
 41
9.0
 42
9.0
 43
9.0
 50
180.0
  0
MTEXT
  5
1FE2
330
1FDA
100
AcDbEntity
  8
Dim
  6
Continuous
 62
     0
100
AcDbMText
 10
1616.771988840847
 20
789.9225543344694
 30
0.0
 40
24.4326171875
 41
0.0
 46
0.0
 71
     5
 72
     1
  1
\A1;267.5
  7
ＭＳ ゴシック
 73
     1
 44
1.0
  0
POINT
  5
1FE3
330
1FDA
100
AcDbEntity
  8
Defpoints
 62
     0
100
AcDbPoint
 10
1750.521988840847
 20
908.917043845074
 30
0.0
  0
POINT
  5
1FE4
330
1FDA
100
AcDbEntity
  8
Defpoints
 62
     0
100
AcDbPoint
 10
1483.021988840847
 20
896.2764795813009
 30
0.0
  0
POINT
  5
1FE5
330
1FDA
100
AcDbEntity
  8
Defpoints
 62
     0
100
AcDbPoint
 10
1483.021988840847
 20
767.7062457407194
 30
0.0
  0
ENDBLK
  5
1FDC
330
1FDA
100
AcDbEntity
  8
0
100
AcDbBlockEnd
  0
BLOCK
  5
2226
330
2225
100
AcDbEntity
  8
0
100
AcDbBlockBegin
  2
*D22
 70
     1
 10
0.0
 20
0.0
 30
0.0
  3
*D22
  1
*D22
  0
LINE
  5
2228
330
2225
100
AcDbEntity
  8
Dim
  6
Continuous
 62
     0
370
    -2
100
AcDbLine
 10
228.143151489871
 20
2227.232494671609
 30
0.0
 11
154.3466238880593
 21
2227.232494671609
 31
0.0
  0
LINE
  5
2229
330
2225
100
AcDbEntity
  8
Dim
  6
Continuous
 62
     0
370
    -2
100
AcDbLine
 10
228.143151489871
 20
1873.232494671609
 30
0.0
 11
154.3466238880593
 21
1873.232494671609
 31
0.0
  0
LINE
  5
222A
330
2225
100
AcDbEntity
  8
Dim
  6
Continuous
 62
     0
370
    -2
100
AcDbLine
 10
154.3466238880593
 20
2218.232494671609
 30
0.0
 11
154.3466238880593
 21
1882.232494671609
 31
0.0
  0
INSERT
  5
222B
330
2225
100
AcDbEntity
  8
Dim
 62
     0
370
    -2
100
AcDbBlockReference
  2
_DOT
 10
154.3466238880593
 20
2227.232494671609
 30
0.0
 41
9.0
 42
9.0
 43
9.0
 50
90.0
  0
INSERT
  5
222C
330
2225
100
AcDbEntity
  8
Dim
 62
     0
370
    -2
100
AcDbBlockReference
  2
_DOT
 10
154.3466238880593
 20
1873.232494671609
 30
0.0
 41
9.0
 42
9.0
 43
9.0
 50
270.0
  0
MTEXT
  5
222D
330
2225
100
AcDbEntity
  8
Dim
  6
Continuous
 62
     0
100
AcDbMText
 10
132.1303152943093
 20
2050.232494671609
 30
0.0
 40
24.4326171875
 41
0.0
 46
0.0
 71
     5
 72
     1
  1
\A1;354
  7
ＭＳ ゴシック
 11
8.028731477515256E-17
 21
1.0
 31
0.0
 73
     1
 44
1.0
  0
POINT
  5
222E
330
2225
100
AcDbEntity
  8
Defpoints
 62
     0
100
AcDbPoint
 10
253.143151489871
 20
2227.232494671609
 30
0.0
  0
POINT
  5
222F
330
2225
100
AcDbEntity
  8
Defpoints
 62
     0
100
AcDbPoint
 10
253.143151489871
 20
1873.232494671609
 30
0.0
  0
POINT
  5
2230
330
2225
100
AcDbEntity
  8
Defpoints
 62
     0
100
AcDbPoint
 10
154.3466238880593
 20
1873.232494671609
 30
0.0
  0
ENDBLK
  5
2227
330
2225
100
AcDbEntity
  8
0
100
AcDbBlockEnd
  0
BLOCK
  5
2233
330
2232
100
AcDbEntity
  8
0
100
AcDbBlockBegin
  2
*D23
 70
     1
 10
0.0
 20
0.0
 30
0.0
  3
*D23
  1
*D23
  0
LINE
  5
2235
330
2232
100
AcDbEntity
  8
Dim
  6
Continuous
 62
     0
370
    -2
100
AcDbLine
 10
252.3854653579735
 20
1851.724228445952
 30
0.0
 11
252.3854653579735
 21
1749.767444817948
 31
0.0
  0
LINE
  5
2236
330
2232
100
AcDbEntity
  8
Dim
  6
Continuous
 62
     0
370
    -2
100
AcDbLine
 10
813.3854653579735
 20
1851.724228445952
 30
0.0
 11
813.3854653579735
 21
1749.767444817948
 31
0.0
  0
LINE
  5
2237
330
2232
100
AcDbEntity
  8
Dim
  6
Continuous
 62
     0
370
    -2
100
AcDbLine
 10
261.3854653579735
 20
1749.767444817948
 30
0.0
 11
804.3854653579735
 21
1749.767444817948
 31
0.0
  0
INSERT
  5
2238
330
2232
100
AcDbEntity
  8
Dim
 62
     0
370
    -2
100
AcDbBlockReference
  2
_DOT
 10
252.3854653579735
 20
1749.767444817948
 30
0.0
 41
9.0
 42
9.0
 43
9.0
 50
180.0
  0
INSERT
  5
2239
330
2232
100
AcDbEntity
  8
Dim
 62
     0
370
    -2
100
AcDbBlockReference
  2
_DOT
 10
813.3854653579735
 20
1749.767444817948
 30
0.0
 41
9.0
 42
9.0
 43
9.0
  0
MTEXT
  5
223A
330
2232
100
AcDbEntity
  8
Dim
  6
Continuous
 62
     0
100
AcDbMText
 10
532.8854653579735
 20
1771.983753411698
 30
0.0
 40
24.4326171875
 41
0.0
 46
0.0
 71
     5
 72
     1
  1
\A1;561
  7
ＭＳ ゴシック
 73
     1
 44
1.0
  0
POINT
  5
223B
330
2232
100
AcDbEntity
  8
Defpoints
 62
     0
100
AcDbPoint
 10
252.3854653579735
 20
1876.724228445952
 30
0.0
  0
POINT
  5
223C
330
2232
100
AcDbEntity
  8
Defpoints
 62
     0
100
AcDbPoint
 10
813.3854653579735
 20
1876.724228445952
 30
0.0
  0
POINT
  5
223D
330
2232
100
AcDbEntity
  8
Defpoints
 62
     0
100
AcDbPoint
 10
813.3854653579735
 20
1749.767444817948
 30
0.0
  0
ENDBLK
  5
2234
330
2232
100
AcDbEntity
  8
0
100
AcDbBlockEnd
  0
BLOCK
  5
2264
330
2263
100
AcDbEntity
  8
0
100
AcDbBlockBegin
  2
*D24
 70
     1
 10
0.0
 20
0.0
 30
0.0
  3
*D24
  1
*D24
  0
LINE
  5
2266
330
2263
100
AcDbEntity
  8
Dim
  6
Continuous
 62
     0
370
    -2
100
AcDbLine
 10
857.5905993074723
 20
1022.506761241599
 30
0.0
 11
927.9737488056321
 21
1022.506761241599
 31
0.0
  0
LINE
  5
2267
330
2263
100
AcDbEntity
  8
Dim
  6
Continuous
 62
     0
370
    -2
100
AcDbLine
 10
857.5905993074723
 20
902.506611457562
 30
0.0
 11
927.9737488056321
 21
902.506611457562
 31
0.0
  0
LINE
  5
2268
330
2263
100
AcDbEntity
  8
Dim
  6
Continuous
 62
     0
370
    -2
100
AcDbLine
 10
927.9737488056321
 20
1013.506761241599
 30
0.0
 11
927.9737488056321
 21
911.506611457562
 31
0.0
  0
INSERT
  5
2269
330
2263
100
AcDbEntity
  8
Dim
 62
     0
370
    -2
100
AcDbBlockReference
  2
_DOT
 10
927.9737488056321
 20
1022.506761241599
 30
0.0
 41
9.0
 42
9.0
 43
9.0
 50
90.0
  0
INSERT
  5
226A
330
2263
100
AcDbEntity
  8
Dim
 62
     0
370
    -2
100
AcDbBlockReference
  2
_DOT
 10
927.9737488056321
 20
902.506611457562
 30
0.0
 41
9.0
 42
9.0
 43
9.0
 50
270.0
  0
MTEXT
  5
226B
330
2263
100
AcDbEntity
  8
Dim
  6
Continuous
 62
     0
100
AcDbMText
 10
905.7574402118821
 20
962.5066863495805
 30
0.0
 40
24.4326171875
 41
0.0
 46
0.0
 71
     5
 72
     1
  1
\A1;120
  7
ＭＳ ゴシック
 11
0.0
 21
1.0
 31
0.0
 73
     1
 44
1.0
  0
POINT
  5
226C
330
2263
100
AcDbEntity
  8
Defpoints
 62
     0
100
AcDbPoint
 10
832.5905993074723
 20
1022.506761241599
 30
0.0
  0
POINT
  5
226D
330
2263
100
AcDbEntity
  8
Defpoints
 62
     0
100
AcDbPoint
 10
832.5905993074723
 20
902.506611457562
 30
0.0
  0
POINT
  5
226E
330
2263
100
AcDbEntity
  8
Defpoints
 62
     0
100
AcDbPoint
 10
927.9737488056321
 20
902.506611457562
 30
0.0
  0
ENDBLK
  5
2265
330
2263
100
AcDbEntity
  8
0
100
AcDbBlockEnd
  0
BLOCK
  5
2273
330
2272
100
AcDbEntity
  8
0
100
AcDbBlockBegin
  2
*D25
 70
     1
 10
0.0
 20
0.0
 30
0.0
  3
*D25
  1
*D25
  0
LINE
  5
2275
330
2272
100
AcDbEntity
  8
Dim
  6
Continuous
 62
     0
370
    -2
100
AcDbLine
 10
857.5905993074723
 20
1022.506761241599
 30
0.0
 11
955.0323734644979
 21
1022.506761241599
 31
0.0
  0
LINE
  5
2276
330
2272
100
AcDbEntity
  8
Dim
  6
Continuous
 62
     0
370
    -2
100
AcDbLine
 10
857.5905993074723
 20
902.506611457562
 30
0.0
 11
955.0323734644979
 21
902.506611457562
 31
0.0
  0
LINE
  5
2277
330
2272
100
AcDbEntity
  8
Dim
  6
Continuous
 62
     0
370
    -2
100
AcDbLine
 10
955.0323734644979
 20
1013.506761241599
 30
0.0
 11
955.0323734644979
 21
911.506611457562
 31
0.0
  0
INSERT
  5
2278
330
2272
100
AcDbEntity
  8
Dim
 62
     0
370
    -2
100
AcDbBlockReference
  2
_DOT
 10
955.0323734644979
 20
1022.506761241599
 30
0.0
 41
9.0
 42
9.0
 43
9.0
 50
90.0
  0
INSERT
  5
2279
330
2272
100
AcDbEntity
  8
Dim
 62
     0
370
    -2
100
AcDbBlockReference
  2
_DOT
 10
955.0323734644979
 20
902.506611457562
 30
0.0
 41
9.0
 42
9.0
 43
9.0
 50
270.0
  0
MTEXT
  5
227A
330
2272
100
AcDbEntity
  8
Dim
  6
Continuous
 62
     0
100
AcDbMText
 10
932.8160648707479
 20
962.5066863495805
 30
0.0
 40
24.4326171875
 41
0.0
 46
0.0
 71
     5
 72
     1
  1
\A1;120
  7
ＭＳ ゴシック
 11
0.0
 21
1.0
 31
0.0
 73
     1
 44
1.0
  0
POINT
  5
227B
330
2272
100
AcDbEntity
  8
Defpoints
 62
     0
100
AcDbPoint
 10
832.5905993074723
 20
1022.506761241599
 30
0.0
  0
POINT
  5
227C
330
2272
100
AcDbEntity
  8
Defpoints
 62
     0
100
AcDbPoint
 10
832.5905993074723
 20
902.506611457562
 30
0.0
  0
POINT
  5
227D
330
2272
100
AcDbEntity
  8
Defpoints
 62
     0
100
AcDbPoint
 10
955.0323734644979
 20
902.506611457562
 30
0.0
  0
ENDBLK
  5
2274
330
2272
100
AcDbEntity
  8
0
100
AcDbBlockEnd
  0
BLOCK
  5
2289
330
2288
100
AcDbEntity
  8
0
100
AcDbBlockBegin
  2
*D26
 70
     1
 10
0.0
 20
0.0
 30
0.0
  3
*D26
  1
*D26
  0
LINE
  5
228B
330
2288
100
AcDbEntity
  8
Dim
  6
Continuous
 62
     0
370
    -2
100
AcDbLine
 10
857.5905993074723
 20
1022.506761241599
 30
0.0
 11
955.0323734644979
 21
1022.506761241599
 31
0.0
  0
LINE
  5
228C
330
2288
100
AcDbEntity
  8
Dim
  6
Continuous
 62
     0
370
    -2
100
AcDbLine
 10
595.7053684875867
 20
864.506761241599
 30
0.0
 11
955.0323734644979
 21
864.506761241599
 31
0.0
  0
LINE
  5
228D
330
2288
100
AcDbEntity
  8
Dim
  6
Continuous
 62
     0
370
    -2
100
AcDbLine
 10
955.0323734644979
 20
1013.506761241599
 30
0.0
 11
955.0323734644979
 21
873.506761241599
 31
0.0
  0
INSERT
  5
228E
330
2288
100
AcDbEntity
  8
Dim
 62
     0
370
    -2
100
AcDbBlockReference
  2
_DOT
 10
955.0323734644979
 20
1022.506761241599
 30
0.0
 41
9.0
 42
9.0
 43
9.0
 50
90.0
  0
INSERT
  5
228F
330
2288
100
AcDbEntity
  8
Dim
 62
     0
370
    -2
100
AcDbBlockReference
  2
_DOT
 10
955.0323734644979
 20
864.506761241599
 30
0.0
 41
9.0
 42
9.0
 43
9.0
 50
270.0
  0
MTEXT
  5
2290
330
2288
100
AcDbEntity
  8
Dim
  6
Continuous
 62
     0
100
AcDbMText
 10
932.8160648707479
 20
943.506761241599
 30
0.0
 40
24.4326171875
 41
0.0
 46
0.0
 71
     5
 72
     1
  1
\A1;158
  7
ＭＳ ゴシック
 11
0.0
 21
1.0
 31
0.0
 73
     1
 44
1.0
  0
POINT
  5
2291
330
2288
100
AcDbEntity
  8
Defpoints
 62
     0
100
AcDbPoint
 10
832.5905993074723
 20
1022.506761241599
 30
0.0
  0
POINT
  5
2292
330
2288
100
AcDbEntity
  8
Defpoints
 62
     0
100
AcDbPoint
 10
570.7053684875867
 20
864.506761241599
 30
0.0
  0
POINT
  5
2293
330
2288
100
AcDbEntity
  8
Defpoints
 62
     0
100
AcDbPoint
 10
955.0323734644979
 20
864.506761241599
 30
0.0
  0
ENDBLK
  5
228A
330
2288
100
AcDbEntity
  8
0
100
AcDbBlockEnd
  0
BLOCK
  5
22AA
330
22A9
100
AcDbEntity
  8
0
100
AcDbBlockBegin
  2
*D27
 70
     1
 10
0.0
 20
0.0
 30
0.0
  3
*D27
  1
*D27
  0
LINE
  5
22AC
330
22A9
100
AcDbEntity
  8
Dim
  6
Continuous
 62
     0
370
    -2
100
AcDbLine
 10
1273.999407903719
 20
1022.506761241599
 30
0.0
 11
1218.069528638858
 21
1022.506761241599
 31
0.0
  0
LINE
  5
22AD
330
22A9
100
AcDbEntity
  8
Dim
  6
Continuous
 62
     0
370
    -2
100
AcDbLine
 10
1273.999407903719
 20
902.506761241599
 30
0.0
 11
1218.069528638858
 21
902.506761241599
 31
0.0
  0
LINE
  5
22AE
330
22A9
100
AcDbEntity
  8
Dim
  6
Continuous
 62
     0
370
    -2
100
AcDbLine
 10
1218.069528638858
 20
1013.506761241599
 30
0.0
 11
1218.069528638858
 21
911.506761241599
 31
0.0
  0
INSERT
  5
22AF
330
22A9
100
AcDbEntity
  8
Dim
 62
     0
370
    -2
100
AcDbBlockReference
  2
_DOT
 10
1218.069528638858
 20
1022.506761241599
 30
0.0
 41
9.0
 42
9.0
 43
9.0
 50
90.0
  0
INSERT
  5
22B0
330
22A9
100
AcDbEntity
  8
Dim
 62
     0
370
    -2
100
AcDbBlockReference
  2
_DOT
 10
1218.069528638858
 20
902.506761241599
 30
0.0
 41
9.0
 42
9.0
 43
9.0
 50
270.0
  0
MTEXT
  5
22B1
330
22A9
100
AcDbEntity
  8
Dim
  6
Continuous
 62
     0
100
AcDbMText
 10
1195.853220045108
 20
962.506761241599
 30
0.0
 40
24.4326171875
 41
0.0
 46
0.0
 71
     5
 72
     1
  1
\A1;120
  7
ＭＳ ゴシック
 11
0.0
 21
1.0
 31
0.0
 73
     1
 44
1.0
  0
POINT
  5
22B2
330
22A9
100
AcDbEntity
  8
Defpoints
 62
     0
100
AcDbPoint
 10
1298.999407903719
 20
1022.506761241599
 30
0.0
  0
POINT
  5
22B3
330
22A9
100
AcDbEntity
  8
Defpoints
 62
     0
100
AcDbPoint
 10
1298.999407903719
 20
902.506761241599
 30
0.0
  0
POINT
  5
22B4
330
22A9
100
AcDbEntity
  8
Defpoints
 62
     0
100
AcDbPoint
 10
1218.069528638858
 20
902.506761241599
 30
0.0
  0
ENDBLK
  5
22AB
330
22A9
100
AcDbEntity
  8
0
100
AcDbBlockEnd
  0
BLOCK
  5
22BA
330
22B9
100
AcDbEntity
  8
0
100
AcDbBlockBegin
  2
*D28
 70
     1
 10
0.0
 20
0.0
 30
0.0
  3
*D28
  1
*D28
  0
LINE
  5
22BC
330
22B9
100
AcDbEntity
  8
Dim
  6
Continuous
 62
     0
370
    -2
100
AcDbLine
 10
1750.521988840847
 20
1047.963105379361
 30
0.0
 11
1750.521988840847
 21
1086.432246484251
 31
0.0
  0
LINE
  5
22BD
330
22B9
100
AcDbEntity
  8
Dim
  6
Continuous
 62
     0
370
    -2
100
AcDbLine
 10
1705.021988840847
 20
1047.963105379361
 30
0.0
 11
1705.021988840847
 21
1086.432246484251
 31
0.0
  0
LINE
  5
22BE
330
22B9
100
AcDbEntity
  8
Dim
  6
Continuous
 62
     0
370
    -2
100
AcDbLine
 10
1741.521988840847
 20
1086.432246484251
 30
0.0
 11
1714.021988840847
 21
1086.432246484251
 31
0.0
  0
INSERT
  5
22BF
330
22B9
100
AcDbEntity
  8
Dim
 62
     0
370
    -2
100
AcDbBlockReference
  2
_DOT
 10
1750.521988840847
 20
1086.432246484251
 30
0.0
 41
9.0
 42
9.0
 43
9.0
  0
INSERT
  5
22C0
330
22B9
100
AcDbEntity
  8
Dim
 62
     0
370
    -2
100
AcDbBlockReference
  2
_DOT
 10
1705.021988840847
 20
1086.432246484251
 30
0.0
 41
9.0
 42
9.0
 43
9.0
 50
180.0
  0
MTEXT
  5
22C1
330
22B9
100
AcDbEntity
  8
Dim
  6
Continuous
 62
     0
100
AcDbMText
 10
1727.771988840847
 20
1108.648555078001
 30
0.0
 40
24.4326171875
 41
0.0
 46
0.0
 71
     5
 72
     1
  1
\A1;45.5
  7
ＭＳ ゴシック
 73
     1
 44
1.0
  0
POINT
  5
22C2
330
22B9
100
AcDbEntity
  8
Defpoints
 62
     0
100
AcDbPoint
 10
1750.521988840847
 20
1022.963105379361
 30
0.0
  0
POINT
  5
22C3
330
22B9
100
AcDbEntity
  8
Defpoints
 62
     0
100
AcDbPoint
 10
1705.021988840847
 20
1022.963105379361
 30
0.0
  0
POINT
  5
22C4
330
22B9
100
AcDbEntity
  8
Defpoints
 62
     0
100
AcDbPoint
 10
1705.021988840847
 20
1086.432246484251
 30
0.0
  0
ENDBLK
  5
22BB
330
22B9
100
AcDbEntity
  8
0
100
AcDbBlockEnd
  0
BLOCK
  5
22D6
330
22D5
100
AcDbEntity
  8
0
100
AcDbBlockBegin
  2
*D29
 70
     1
 10
0.0
 20
0.0
 30
0.0
  3
*D29
  1
*D29
  0
LINE
  5
22D8
330
22D5
100
AcDbEntity
  8
Dim
  6
Continuous
 62
     0
370
    -2
100
AcDbLine
 10
1785.062343916189
 20
2396.038336426735
 30
0.0
 11
1822.319400729145
 21
2396.038336426735
 31
0.0
  0
LINE
  5
22D9
330
22D5
100
AcDbEntity
  8
Dim
  6
Continuous
 62
     0
370
    -2
100
AcDbLine
 10
1510.41554081255
 20
2350.512900640068
 30
0.0
 11
1822.319400729145
 21
2350.512900640068
 31
0.0
  0
LINE
  5
22DA
330
22D5
100
AcDbEntity
  8
Dim
  6
Continuous
 62
     0
370
    -2
100
AcDbLine
 10
1822.319400729145
 20
2405.038336426735
 30
0.0
 11
1822.319400729145
 21
2414.038336426735
 31
0.0
  0
LINE
  5
22DB
330
22D5
100
AcDbEntity
  8
Dim
  6
Continuous
 62
     0
370
    -2
100
AcDbLine
 10
1822.319400729145
 20
2341.512900640068
 30
0.0
 11
1822.319400729145
 21
2332.512900640068
 31
0.0
  0
INSERT
  5
22DC
330
22D5
100
AcDbEntity
  8
Dim
 62
     0
370
    -2
100
AcDbBlockReference
  2
_DOT
 10
1822.319400729145
 20
2396.038336426735
 30
0.0
 41
9.0
 42
9.0
 43
9.0
 50
270.0
  0
INSERT
  5
22DD
330
22D5
100
AcDbEntity
  8
Dim
 62
     0
370
    -2
100
AcDbBlockReference
  2
_DOT
 10
1822.319400729145
 20
2350.512900640068
 30
0.0
 41
9.0
 42
9.0
 43
9.0
 50
90.0
  0
MTEXT
  5
22DE
330
22D5
100
AcDbEntity
  8
Dim
  6
Continuous
 62
     0
100
AcDbMText
 10
1800.103092135395
 20
2373.275618533401
 30
0.0
 40
24.4326171875
 41
0.0
 46
0.0
 71
     5
 72
     1
  1
\A1;46
  7
ＭＳ ゴシック
 11
0.0
 21
1.0
 31
0.0
 73
     1
 44
1.0
  0
POINT
  5
22DF
330
22D5
100
AcDbEntity
  8
Defpoints
 62
     0
100
AcDbPoint
 10
1760.062343916189
 20
2396.038336426735
 30
0.0
  0
POINT
  5
22E0
330
22D5
100
AcDbEntity
  8
Defpoints
 62
     0
100
AcDbPoint
 10
1485.41554081255
 20
2350.512900640068
 30
0.0
  0
POINT
  5
22E1
330
22D5
100
AcDbEntity
  8
Defpoints
 62
     0
100
AcDbPoint
 10
1822.319400729145
 20
2350.512900640068
 30
0.0
  0
ENDBLK
  5
22D7
330
22D5
100
AcDbEntity
  8
0
100
AcDbBlockEnd
  0
BLOCK
  5
22EC
330
22EB
100
AcDbEntity
  8
0
100
AcDbBlockBegin
  2
*D30
 70
     1
 10
0.0
 20
0.0
 30
0.0
  3
*D30
  1
*D30
  0
LINE
  5
22EE
330
22EB
100
AcDbEntity
  8
Dim
  6
Continuous
 62
     0
370
    -2
100
AcDbLine
 10
1510.41554081255
 20
2350.512900640068
 30
0.0
 11
1503.590139293516
 21
2350.512900640068
 31
0.0
  0
LINE
  5
22EF
330
22EB
100
AcDbEntity
  8
Dim
  6
Continuous
 62
     0
370
    -2
100
AcDbLine
 10
1510.41554081255
 20
2305.696371602127
 30
0.0
 11
1503.590139293516
 21
2305.696371602127
 31
0.0
  0
LINE
  5
22F0
330
22EB
100
AcDbEntity
  8
Dim
  6
Continuous
 62
     0
370
    -2
100
AcDbLine
 10
1503.590139293516
 20
2359.512900640068
 30
0.0
 11
1503.590139293516
 21
2368.512900640068
 31
0.0
  0
LINE
  5
22F1
330
22EB
100
AcDbEntity
  8
Dim
  6
Continuous
 62
     0
370
    -2
100
AcDbLine
 10
1503.590139293516
 20
2296.696371602127
 30
0.0
 11
1503.590139293516
 21
2287.696371602127
 31
0.0
  0
INSERT
  5
22F2
330
22EB
100
AcDbEntity
  8
Dim
 62
     0
370
    -2
100
AcDbBlockReference
  2
_DOT
 10
1503.590139293516
 20
2350.512900640068
 30
0.0
 41
9.0
 42
9.0
 43
9.0
 50
270.0
  0
INSERT
  5
22F3
330
22EB
100
AcDbEntity
  8
Dim
 62
     0
370
    -2
100
AcDbBlockReference
  2
_DOT
 10
1503.590139293516
 20
2305.696371602127
 30
0.0
 41
9.0
 42
9.0
 43
9.0
 50
90.0
  0
MTEXT
  5
22F4
330
22EB
100
AcDbEntity
  8
Dim
  6
Continuous
 62
     0
100
AcDbMText
 10
1481.373830699766
 20
2328.104636121097
 30
0.0
 40
24.4326171875
 41
0.0
 46
0.0
 71
     5
 72
     1
  1
\A1;45
  7
ＭＳ ゴシック
 11
0.0
 21
1.0
 31
0.0
 73
     1
 44
1.0
  0
POINT
  5
22F5
330
22EB
100
AcDbEntity
  8
Defpoints
 62
     0
100
AcDbPoint
 10
1485.41554081255
 20
2350.512900640068
 30
0.0
  0
POINT
  5
22F6
330
22EB
100
AcDbEntity
  8
Defpoints
 62
     0
100
AcDbPoint
 10
1485.41554081255
 20
2305.696371602127
 30
0.0
  0
POINT
  5
22F7
330
22EB
100
AcDbEntity
  8
Defpoints
 62
     0
100
AcDbPoint
 10
1503.590139293516
 20
2305.696371602127
 30
0.0
  0
ENDBLK
  5
22ED
330
22EB
100
AcDbEntity
  8
0
100
AcDbBlockEnd
  0
BLOCK
  5
2372
330
2371
100
AcDbEntity
  8
0
100
AcDbBlockBegin
  2
*D31
 70
     1
 10
0.0
 20
0.0
 30
0.0
  3
*D31
  1
*D32
  0
LINE
  5
2374
330
2371
100
AcDbEntity
  8
Dim
  6
Continuous
 62
     0
370
    -2
100
AcDbLine
 10
1431.0540207815
 20
863.3334419401144
 30
0.0
 11
1379.802899870765
 21
863.3334419401144
 31
0.0
  0
LINE
  5
2375
330
2371
100
AcDbEntity
  8
Dim
  6
Continuous
 62
     0
370
    -2
100
AcDbLine
 10
1431.0540207815
 20
898.3334419401144
 30
0.0
 11
1379.802899870765
 21
898.3334419401144
 31
0.0
  0
LINE
  5
2376
330
2371
100
AcDbEntity
  8
Dim
  6
Continuous
 62
     0
370
    -2
100
AcDbLine
 10
1379.802899870765
 20
872.3334419401144
 30
0.0
 11
1379.802899870765
 21
889.3334419401144
 31
0.0
  0
INSERT
  5
2377
330
2371
100
AcDbEntity
  8
Dim
 62
     0
370
    -2
100
AcDbBlockReference
  2
_DOT
 10
1379.802899870765
 20
863.3334419401144
 30
0.0
 41
9.0
 42
9.0
 43
9.0
 50
270.0
  0
INSERT
  5
2378
330
2371
100
AcDbEntity
  8
Dim
 62
     0
370
    -2
100
AcDbBlockReference
  2
_DOT
 10
1379.802899870765
 20
898.3334419401144
 30
0.0
 41
9.0
 42
9.0
 43
9.0
 50
90.0
  0
MTEXT
  5
2379
330
2371
100
AcDbEntity
  8
Dim
  6
Continuous
 62
     0
100
AcDbMText
 10
1357.586591277015
 20
880.8334419401144
 30
0.0
 40
24.4326171875
 41
0.0
 46
0.0
 71
     5
 72
     1
  1
\A1;35
  7
ＭＳ ゴシック
 11
0.0
 21
1.0
 31
0.0
 73
     1
 44
1.0
  0
POINT
  5
237A
330
2371
100
AcDbEntity
  8
Defpoints
 62
     0
100
AcDbPoint
 10
1456.0540207815
 20
863.3334419401144
 30
0.0
  0
POINT
  5
237B
330
2371
100
AcDbEntity
  8
Defpoints
 62
     0
100
AcDbPoint
 10
1456.0540207815
 20
898.3334419401144
 30
0.0
  0
POINT
  5
237C
330
2371
100
AcDbEntity
  8
Defpoints
 62
     0
100
AcDbPoint
 10
1379.802899870765
 20
898.3334419401144
 30
0.0
  0
ENDBLK
  5
2373
330
2371
100
AcDbEntity
  8
0
100
AcDbBlockEnd
  0
BLOCK
  5
23C0
330
23BF
100
AcDbEntity
  8
0
100
AcDbBlockBegin
  2
*D32
 70
     1
 10
0.0
 20
0.0
 30
0.0
  3
*D32
  1
*D34
  0
LINE
  5
23C1
330
23BF
100
AcDbEntity
  8
Dim
  6
Continuous
 62
     0
370
    -2
100
AcDbLine
 10
39.36800585937475
 20
116.583554290781
 30
0.0
 11
39.36800585937477
 21
286.9594742126559
 31
0.0
  0
LINE
  5
23C2
330
23BF
100
AcDbEntity
  8
Dim
  6
Continuous
 62
     0
370
    -2
100
AcDbLine
 10
39.36800585937475
 20
13.5
 30
0.0
 11
39.36800585937475
 21
107.583554290781
 31
0.0
  0
INSERT
  5
23C3
330
23BF
100
AcDbEntity
  8
Dim
 62
     0
370
    -2
100
AcDbBlockReference
  2
_DOT
 10
39.36800585937475
 20
4.5
 30
0.0
 41
9.0
 42
9.0
 43
9.0
 50
270.0
  0
INSERT
  5
23C4
330
23BF
100
AcDbEntity
  8
Dim
 62
     0
370
    -2
100
AcDbBlockReference
  2
_DOT
 10
39.36800585937475
 20
116.583554290781
 30
0.0
 41
9.0
 42
9.0
 43
9.0
 50
90.0
  0
MTEXT
  5
23C5
330
23BF
100
AcDbEntity
  8
Dim
  6
Continuous
 62
     0
100
AcDbMText
 10
14.98941064453101
 20
210.7715142517185
 30
0.0
 40
24.4326171875
 41
0.0
 46
0.0
 71
     5
 72
     1
  1
\A1;110(深さ)
  7
ＭＳ ゴシック
 11
6.339402245549090E-17
 21
1.0
 31
0.0
 73
     1
 44
1.0
  0
POINT
  5
23C6
330
23BF
100
AcDbEntity
  8
Defpoints
 62
     0
100
AcDbPoint
 10
39.36799258822384
 20
4.5
 30
0.0
  0
POINT
  5
23C7
330
23BF
100
AcDbEntity
  8
Defpoints
 62
     0
100
AcDbPoint
 10
39.36800585937476
 20
116.583554290781
 30
0.0
  0
POINT
  5
23C8
330
23BF
100
AcDbEntity
  8
Defpoints
 62
     0
100
AcDbPoint
 10
39.36800585937476
 20
116.583554290781
 30
0.0
  0
ENDBLK
  5
23C9
330
23BF
100
AcDbEntity
  8
0
100
AcDbBlockEnd
  0
BLOCK
  5
23D0
330
23CF
100
AcDbEntity
  8
0
100
AcDbBlockBegin
  2
*D33
 70
     1
 10
0.0
 20
0.0
 30
0.0
  3
*D33
  1
*D35
  0
LINE
  5
23D2
330
23CF
100
AcDbEntity
  8
Dim
  6
Continuous
 62
     0
370
    -2
100
AcDbLine
 10
1484.416767432871
 20
1021.840502075404
 30
0.0
 11
1484.416767432871
 21
1192.216421997279
 31
0.0
  0
LINE
  5
23D3
330
23CF
100
AcDbEntity
  8
Dim
  6
Continuous
 62
     0
370
    -2
100
AcDbLine
 10
1484.416767432871
 20
918.7569477846228
 30
0.0
 11
1484.416767432871
 21
1012.840502075404
 31
0.0
  0
INSERT
  5
23D4
330
23CF
100
AcDbEntity
  8
Dim
 62
     0
370
    -2
100
AcDbBlockReference
  2
_DOT
 10
1484.416767432871
 20
909.7569477846228
 30
0.0
 41
9.0
 42
9.0
 43
9.0
 50
270.0
  0
INSERT
  5
23D5
330
23CF
100
AcDbEntity
  8
Dim
 62
     0
370
    -2
100
AcDbBlockReference
  2
_DOT
 10
1484.416767432871
 20
1021.840502075404
 30
0.0
 41
9.0
 42
9.0
 43
9.0
 50
90.0
  0
MTEXT
  5
23D6
330
23CF
100
AcDbEntity
  8
Dim
  6
Continuous
 62
     0
100
AcDbMText
 10
1460.038172218028
 20
1116.028462036341
 30
0.0
 40
24.4326171875
 41
0.0
 46
0.0
 71
     5
 72
     1
  1
\A1;110(深さ)
  7
ＭＳ ゴシック
 11
0.0
 21
1.0
 31
0.0
 73
     1
 44
1.0
  0
POINT
  5
23D7
330
23CF
100
AcDbEntity
  8
Defpoints
 62
     0
100
AcDbPoint
 10
1484.416754161721
 20
909.7569477846228
 30
0.0
  0
POINT
  5
23D8
330
23CF
100
AcDbEntity
  8
Defpoints
 62
     0
100
AcDbPoint
 10
1484.416767432871
 20
1021.840502075404
 30
0.0
  0
POINT
  5
23D9
330
23CF
100
AcDbEntity
  8
Defpoints
 62
     0
100
AcDbPoint
 10
1484.416767432871
 20
1021.840502075404
 30
0.0
  0
ENDBLK
  5
23D1
330
23CF
100
AcDbEntity
  8
0
100
AcDbBlockEnd
  0
BLOCK
  5
24CB
330
24CA
100
AcDbEntity
  8
0
100
AcDbBlockBegin
  2
*D34
 70
     1
 10
0.0
 20
0.0
 30
0.0
  3
*D34
  1
*D35
  0
ARC
  5
24CD
330
24CA
100
AcDbEntity
  8
Dim
  6
Continuous
 62
     0
370
    -2
100
AcDbCircle
 10
1467.916093154419
 20
1953.203369893515
 30
0.0
 40
207.9094433351015
100
AcDbArc
 50
47.48041780779609
 51
87.51958219220388
  0
INSERT
  5
24CE
330
24CA
100
AcDbEntity
  8
Dim
 62
     0
370
    -2
100
AcDbBlockReference
  2
_DOT
 10
1614.93027040939
 20
2100.217547148485
 30
0.0
 41
9.0
 42
9.0
 43
9.0
 50
316.2402089038982
  0
INSERT
  5
24CF
330
24CA
100
AcDbEntity
  8
Dim
 62
     0
370
    -2
100
AcDbBlockReference
  2
_DOT
 10
1467.916093154419
 20
2161.112813228616
 30
0.0
 41
9.0
 42
9.0
 43
9.0
 50
178.759791096102
  0
MTEXT
  5
24D0
330
24CA
100
AcDbEntity
  8
Dim
  6
Continuous
 62
     0
100
AcDbMText
 10
1556.145030039771
 20
2166.206865915892
 30
0.0
 40
24.4326171875
 41
0.0
 46
0.0
 71
     5
 72
     1
  1
\A1;45%%d
  7
ＭＳ ゴシック
 11
0.9238795325112865
 21
-0.3826834323650902
 31
0.0
 73
     1
 44
1.0
  0
POINT
  5
24D1
330
24CA
100
AcDbEntity
  8
Defpoints
 62
     0
100
AcDbPoint
 10
1571.87081482197
 20
2133.258229508394
 30
0.0
  0
POINT
  5
24D2
330
24CA
100
AcDbEntity
  8
Defpoints
 62
     0
100
AcDbPoint
 10
1510.014249844109
 20
1995.301526583205
 30
0.0
  0
POINT
  5
24D3
330
24CA
100
AcDbEntity
  8
Defpoints
 62
     0
100
AcDbPoint
 10
1467.916093154419
 20
2344.589481515189
 30
0.0
  0
POINT
  5
24D4
330
24CA
100
AcDbEntity
  8
Defpoints
 62
     0
100
AcDbPoint
 10
1467.916093154419
 20
1702.03293355083
 30
0.0
  0
POINT
  5
24D5
330
24CA
100
AcDbEntity
  8
Defpoints
 62
     0
100
AcDbPoint
 10
1704.987160966285
 20
2190.27443770538
 30
0.0
  0
ENDBLK
  5
24CC
330
24CA
100
AcDbEntity
  8
0
100
AcDbBlockEnd
  0
BLOCK
  5
24DA
330
24D9
100
AcDbEntity
  8
0
100
AcDbBlockBegin
  2
*D35
 70
     1
 10
0.0
 20
0.0
 30
0.0
  3
*D35
  1
*D36
  0
LINE
  5
24DC
330
24D9
100
AcDbEntity
  8
Dim
  6
Continuous
 62
     0
370
    -2
100
AcDbLine
 10
1227.916093154419
 20
2318.045653499906
 30
0.0
 11
1227.916093154419
 21
2384.545288367829
 31
0.0
  0
LINE
  5
24DD
330
24D9
100
AcDbEntity
  8
Dim
  6
Continuous
 62
     0
370
    -2
100
AcDbLine
 10
1707.916093154419
 20
2318.045653499906
 30
0.0
 11
1707.916093154419
 21
2384.545288367829
 31
0.0
  0
LINE
  5
24DE
330
24D9
100
AcDbEntity
  8
Dim
  6
Continuous
 62
     0
370
    -2
100
AcDbLine
 10
1236.916093154419
 20
2384.545288367829
 30
0.0
 11
1698.916093154419
 21
2384.545288367829
 31
0.0
  0
INSERT
  5
24DF
330
24D9
100
AcDbEntity
  8
Dim
 62
     0
370
    -2
100
AcDbBlockReference
  2
_DOT
 10
1227.916093154419
 20
2384.545288367829
 30
0.0
 41
9.0
 42
9.0
 43
9.0
 50
180.0
  0
INSERT
  5
24E0
330
24D9
100
AcDbEntity
  8
Dim
 62
     0
370
    -2
100
AcDbBlockReference
  2
_DOT
 10
1707.916093154419
 20
2384.545288367829
 30
0.0
 41
9.0
 42
9.0
 43
9.0
  0
MTEXT
  5
24E1
330
24D9
100
AcDbEntity
  8
Dim
  6
Continuous
 62
     0
100
AcDbMText
 10
1467.916093154419
 20
2406.761596961579
 30
0.0
 40
24.4326171875
 41
0.0
 46
0.0
 71
     5
 72
     1
  1
\A1;480
  7
ＭＳ ゴシック
 73
     1
 44
1.0
  0
POINT
  5
24E2
330
24D9
100
AcDbEntity
  8
Defpoints
 62
     0
100
AcDbPoint
 10
1227.916093154419
 20
2293.045653499906
 30
0.0
  0
POINT
  5
24E3
330
24D9
100
AcDbEntity
  8
Defpoints
 62
     0
100
AcDbPoint
 10
1707.916093154419
 20
2293.045653499906
 30
0.0
  0
POINT
  5
24E4
330
24D9
100
AcDbEntity
  8
Defpoints
 62
     0
100
AcDbPoint
 10
1707.916093154419
 20
2384.545288367829
 30
0.0
  0
ENDBLK
  5
24DB
330
24D9
100
AcDbEntity
  8
0
100
AcDbBlockEnd
  0
BLOCK
  5
255D
330
255C
100
AcDbEntity
  8
0
100
AcDbBlockBegin
  2
*D36
 70
     1
 10
0.0
 20
0.0
 30
0.0
  3
*D36
  1
*D170
  0
LINE
  5
255E
330
255C
100
AcDbEntity
  8
Dim
  6
Continuous
 62
     0
370
    -2
100
AcDbLine
 10
302.1098716312057
 20
7985.262984987113
 30
0.0
 11
302.1098716312057
 21
8114.591550733466
 31
0.0
  0
LINE
  5
255F
330
255C
100
AcDbEntity
  8
Dim
  6
Continuous
 62
     0
370
    -2
100
AcDbLine
 10
902.1115422555705
 20
7985.262984987113
 30
0.0
 11
902.1115422555705
 21
8114.591550733466
 31
0.0
  0
LINE
  5
2560
330
255C
100
AcDbEntity
  8
Dim
  6
Continuous
 62
     0
370
    -2
100
AcDbLine
 10
310.1098716312057
 20
8114.591550733466
 30
0.0
 11
894.1115422555705
 21
8114.591550733466
 31
0.0
  0
INSERT
  5
2561
330
255C
100
AcDbEntity
  8
Dim
 62
     0
370
    -2
100
AcDbBlockReference
  2
_DOT
 10
302.1098716312057
 20
8114.591550733466
 30
0.0
 41
8.0
 42
8.0
 43
8.0
 50
180.0
  0
INSERT
  5
2562
330
255C
100
AcDbEntity
  8
Dim
 62
     0
370
    -2
100
AcDbBlockReference
  2
_DOT
 10
902.1115422555705
 20
8114.591550733466
 30
0.0
 41
8.0
 42
8.0
 43
8.0
  0
MTEXT
  5
2563
330
255C
100
AcDbEntity
  8
Dim
  6
Continuous
 62
     0
100
AcDbMText
 10
602.1107069433881
 20
8146.591550733466
 30
0.0
 40
24.0
 41
0.0
 46
0.0
 71
     5
 72
     1
  1
\A1;600
  7
ＭＳ ゴシック
 73
     1
 44
1.0
  0
POINT
  5
2564
330
255C
100
AcDbEntity
  8
Defpoints
 62
     0
100
AcDbPoint
 10
302.1098716312057
 20
7955.262984987113
 30
0.0
  0
POINT
  5
2565
330
255C
100
AcDbEntity
  8
Defpoints
 62
     0
100
AcDbPoint
 10
902.1115422555705
 20
7955.262984987113
 30
0.0
  0
POINT
  5
2566
330
255C
100
AcDbEntity
  8
Defpoints
 62
     0
100
AcDbPoint
 10
902.1115422555705
 20
8114.591550733466
 30
0.0
  0
ENDBLK
  5
2567
330
255C
100
AcDbEntity
  8
0
100
AcDbBlockEnd
  0
BLOCK
  5
256A
330
2569
100
AcDbEntity
  8
0
100
AcDbBlockBegin
  2
*D37
 70
     1
 10
0.0
 20
0.0
 30
0.0
  3
*D37
  1
*D171
  0
LINE
  5
256B
330
2569
100
AcDbEntity
  8
Dim
  6
Continuous
 62
     0
370
    -2
100
AcDbLine
 10
929.1108621083866
 20
7958.263665134298
 30
0.0
 11
1034.72924012231
 21
7958.263665134298
 31
0.0
  0
LINE
  5
256C
330
2569
100
AcDbEntity
  8
Dim
  6
Continuous
 62
     0
370
    -2
100
AcDbLine
 10
929.1108621083866
 20
7498.263877197979
 30
0.0
 11
1034.72924012231
 21
7498.263877197979
 31
0.0
  0
LINE
  5
256D
330
2569
100
AcDbEntity
  8
Dim
  6
Continuous
 62
     0
370
    -2
100
AcDbLine
 10
1034.72924012231
 20
7950.263665134298
 30
0.0
 11
1034.72924012231
 21
7506.263877197979
 31
0.0
  0
INSERT
  5
256E
330
2569
100
AcDbEntity
  8
Dim
 62
     0
370
    -2
100
AcDbBlockReference
  2
_DOT
 10
1034.72924012231
 20
7958.263665134298
 30
0.0
 41
8.0
 42
8.0
 43
8.0
 50
90.0
  0
INSERT
  5
256F
330
2569
100
AcDbEntity
  8
Dim
 62
     0
370
    -2
100
AcDbBlockReference
  2
_DOT
 10
1034.72924012231
 20
7498.263877197979
 30
0.0
 41
8.0
 42
8.0
 43
8.0
 50
270.0
  0
MTEXT
  5
2570
330
2569
100
AcDbEntity
  8
Dim
  6
Continuous
 62
     0
100
AcDbMText
 10
1002.72924012231
 20
7728.263771166139
 30
0.0
 40
24.0
 41
0.0
 46
0.0
 71
     5
 72
     1
  1
\A1;460
  7
ＭＳ ゴシック
 11
0.0
 21
1.0
 31
0.0
 73
     1
 44
1.0
  0
POINT
  5
2571
330
2569
100
AcDbEntity
  8
Defpoints
 62
     0
100
AcDbPoint
 10
899.1108621083866
 20
7958.263665134298
 30
0.0
  0
POINT
  5
2572
330
2569
100
AcDbEntity
  8
Defpoints
 62
     0
100
AcDbPoint
 10
899.1108621083866
 20
7498.263877197979
 30
0.0
  0
POINT
  5
2573
330
2569
100
AcDbEntity
  8
Defpoints
 62
     0
100
AcDbPoint
 10
1034.72924012231
 20
7498.263877197979
 30
0.0
  0
ENDBLK
  5
2574
330
2569
100
AcDbEntity
  8
0
100
AcDbBlockEnd
  0
BLOCK
  5
2577
330
2576
100
AcDbEntity
  8
0
100
AcDbBlockBegin
  2
*D38
 70
     1
 10
0.0
 20
0.0
 30
0.0
  3
*D38
  1
*D172
  0
LINE
  5
2578
330
2576
100
AcDbEntity
  8
Dim
  6
Continuous
 62
     0
370
    -2
100
AcDbLine
 10
321.7228131672817
 20
7479.83190848106
 30
0.0
 11
321.7228131672817
 21
7375.176190918966
 31
0.0
  0
LINE
  5
2579
330
2576
100
AcDbEntity
  8
Dim
  6
Continuous
 62
     0
370
    -2
100
AcDbLine
 10
882.4986007194947
 20
7479.83190848106
 30
0.0
 11
882.4986007194948
 21
7375.176190918966
 31
0.0
  0
LINE
  5
257A
330
2576
100
AcDbEntity
  8
Dim
  6
Continuous
 62
     0
370
    -2
100
AcDbLine
 10
329.7228131672817
 20
7375.176190918966
 30
0.0
 11
874.4986007194948
 21
7375.176190918966
 31
0.0
  0
INSERT
  5
257B
330
2576
100
AcDbEntity
  8
Dim
 62
     0
370
    -2
100
AcDbBlockReference
  2
_DOT
 10
321.7228131672817
 20
7375.176190918966
 30
0.0
 41
8.0
 42
8.0
 43
8.0
 50
180.0
  0
INSERT
  5
257C
330
2576
100
AcDbEntity
  8
Dim
 62
     0
370
    -2
100
AcDbBlockReference
  2
_DOT
 10
882.4986007194948
 20
7375.176190918966
 30
0.0
 41
8.0
 42
8.0
 43
8.0
  0
MTEXT
  5
257D
330
2576
100
AcDbEntity
  8
Dim
  6
Continuous
 62
     0
100
AcDbMText
 10
602.1107069433882
 20
7407.176190918966
 30
0.0
 40
24.0
 41
0.0
 46
0.0
 71
     5
 72
     1
  1
\A1;561
  7
ＭＳ ゴシック
 73
     1
 44
1.0
  0
POINT
  5
257E
330
2576
100
AcDbEntity
  8
Defpoints
 62
     0
100
AcDbPoint
 10
321.7228131672817
 20
7509.83190848106
 30
0.0
  0
POINT
  5
257F
330
2576
100
AcDbEntity
  8
Defpoints
 62
     0
100
AcDbPoint
 10
882.4986007194947
 20
7509.83190848106
 30
0.0
  0
POINT
  5
2580
330
2576
100
AcDbEntity
  8
Defpoints
 62
     0
100
AcDbPoint
 10
882.4986007194947
 20
7375.176190918966
 30
0.0
  0
ENDBLK
  5
2581
330
2576
100
AcDbEntity
  8
0
100
AcDbBlockEnd
  0
BLOCK
  5
2584
330
2583
100
AcDbEntity
  8
0
100
AcDbBlockBegin
  2
*D39
 70
     1
 10
0.0
 20
0.0
 30
0.0
  3
*D39
  1
*D173
  0
LINE
  5
2585
330
2583
100
AcDbEntity
  8
Dim
  6
Continuous
 62
     0
370
    -2
100
AcDbLine
 10
259.6784072195153
 20
7867.426772550121
 30
0.0
 11
185.699431900381
 21
7867.426772550121
 31
0.0
  0
LINE
  5
2586
330
2583
100
AcDbEntity
  8
Dim
  6
Continuous
 62
     0
370
    -2
100
AcDbLine
 10
259.6784072195153
 20
7513.426772550121
 30
0.0
 11
185.699431900381
 21
7513.426772550121
 31
0.0
  0
LINE
  5
2587
330
2583
100
AcDbEntity
  8
Dim
  6
Continuous
 62
     0
370
    -2
100
AcDbLine
 10
185.699431900381
 20
7859.426772550121
 30
0.0
 11
185.699431900381
 21
7521.426772550121
 31
0.0
  0
INSERT
  5
2588
330
2583
100
AcDbEntity
  8
Dim
 62
     0
370
    -2
100
AcDbBlockReference
  2
_DOT
 10
185.699431900381
 20
7867.426772550121
 30
0.0
 41
8.0
 42
8.0
 43
8.0
 50
90.0
  0
INSERT
  5
2589
330
2583
100
AcDbEntity
  8
Dim
 62
     0
370
    -2
100
AcDbBlockReference
  2
_DOT
 10
185.699431900381
 20
7513.426772550121
 30
0.0
 41
8.0
 42
8.0
 43
8.0
 50
270.0
  0
MTEXT
  5
258A
330
2583
100
AcDbEntity
  8
Dim
  6
Continuous
 62
     0
100
AcDbMText
 10
153.699431900381
 20
7690.426772550121
 30
0.0
 40
24.0
 41
0.0
 46
0.0
 71
     5
 72
     1
  1
\A1;354
  7
ＭＳ ゴシック
 11
8.028731477515256E-17
 21
1.0
 31
0.0
 73
     1
 44
1.0
  0
POINT
  5
258B
330
2583
100
AcDbEntity
  8
Defpoints
 62
     0
100
AcDbPoint
 10
289.6784072195153
 20
7867.426772550121
 30
0.0
  0
POINT
  5
258C
330
2583
100
AcDbEntity
  8
Defpoints
 62
     0
100
AcDbPoint
 10
289.6784072195153
 20
7513.426772550121
 30
0.0
  0
POINT
  5
258D
330
2583
100
AcDbEntity
  8
Defpoints
 62
     0
100
AcDbPoint
 10
185.699431900381
 20
7513.426772550121
 30
0.0
  0
ENDBLK
  5
258E
330
2583
100
AcDbEntity
  8
0
100
AcDbBlockEnd
  0
BLOCK
  5
25B3
330
25B2
100
AcDbEntity
  8
0
100
AcDbBlockBegin
  2
*D40
 70
     1
 10
0.0
 20
0.0
 30
0.0
  3
*D40
  1
*D196
  0
LINE
  5
25B4
330
25B2
100
AcDbEntity
  8
Dim
  6
Continuous
 62
     0
370
    -2
100
AcDbLine
 10
1554.086290988541
 20
6532.211280371676
 30
0.0
 11
1554.086290988541
 21
6733.239830495395
 31
0.0
  0
LINE
  5
25B5
330
25B2
100
AcDbEntity
  8
Dim
  6
Continuous
 62
     0
370
    -2
100
AcDbLine
 10
1554.086290988541
 20
6524.211280371676
 30
0.0
 11
1554.086290988541
 21
6430.088284366925
 31
0.0
  0
INSERT
  5
25B6
330
25B2
100
AcDbEntity
  8
Dim
 62
     0
370
    -2
100
AcDbBlockReference
  2
_DOT
 10
1554.086290988541
 20
6532.211280371676
 30
0.0
 41
8.0
 42
8.0
 43
8.0
 50
90.0
  0
INSERT
  5
25B7
330
25B2
100
AcDbEntity
  8
Dim
 62
     0
370
    -2
100
AcDbBlockReference
  2
_DOT
 10
1554.086290988541
 20
6422.088284366925
 30
0.0
 41
8.0
 42
8.0
 43
8.0
 50
270.0
  0
MTEXT
  5
25B8
330
25B2
100
AcDbEntity
  8
Dim
  6
Continuous
 62
     0
100
AcDbMText
 10
1519.962290988541
 20
6648.223830495395
 30
0.0
 40
24.0
 41
0.0
 46
0.0
 71
     5
 72
     1
  1
\A1;110(深さ)
  7
ＭＳ ゴシック
 11
0.0
 21
1.0
 31
0.0
 73
     1
 44
1.0
  0
POINT
  5
25B9
330
25B2
100
AcDbEntity
  8
Defpoints
 62
     0
100
AcDbPoint
 10
1576.587991356504
 20
6532.211280371676
 30
0.0
  0
POINT
  5
25BA
330
25B2
100
AcDbEntity
  8
Defpoints
 62
     0
100
AcDbPoint
 10
1576.587991356504
 20
6422.088284366925
 30
0.0
  0
POINT
  5
25BB
330
25B2
100
AcDbEntity
  8
Defpoints
 62
     0
100
AcDbPoint
 10
1554.086290988541
 20
6422.088284366925
 30
0.0
  0
ENDBLK
  5
25BC
330
25B2
100
AcDbEntity
  8
0
100
AcDbBlockEnd
  0
BLOCK
  5
25C2
330
25C1
100
AcDbEntity
  8
0
100
AcDbBlockBegin
  2
*D41
 70
     1
 10
0.0
 20
0.0
 30
0.0
  3
*D41
  1
*D197
  0
LINE
  5
25C3
330
25C1
100
AcDbEntity
  8
Dim
  6
Continuous
 62
     0
370
    -2
100
AcDbLine
 10
1552.65702687898
 20
6379.211635266355
 30
0.0
 11
1552.65702687898
 21
6292.357109307765
 31
0.0
  0
LINE
  5
25C4
330
25C1
100
AcDbEntity
  8
Dim
  6
Continuous
 62
     0
370
    -2
100
AcDbLine
 10
1820.158532491432
 20
6386.540745500136
 30
0.0
 11
1820.158532491432
 21
6292.357109307765
 31
0.0
  0
LINE
  5
25C5
330
25C1
100
AcDbEntity
  8
Dim
  6
Continuous
 62
     0
370
    -2
100
AcDbLine
 10
1560.65702687898
 20
6292.357109307765
 30
0.0
 11
1812.158532491432
 21
6292.357109307765
 31
0.0
  0
INSERT
  5
25C6
330
25C1
100
AcDbEntity
  8
Dim
 62
     0
370
    -2
100
AcDbBlockReference
  2
_DOT
 10
1552.65702687898
 20
6292.357109307765
 30
0.0
 41
8.0
 42
8.0
 43
8.0
 50
180.0
  0
INSERT
  5
25C7
330
25C1
100
AcDbEntity
  8
Dim
 62
     0
370
    -2
100
AcDbBlockReference
  2
_DOT
 10
1820.158532491432
 20
6292.357109307765
 30
0.0
 41
8.0
 42
8.0
 43
8.0
  0
MTEXT
  5
25C8
330
25C1
100
AcDbEntity
  8
Dim
  6
Continuous
 62
     0
100
AcDbMText
 10
1686.407779685206
 20
6324.357109307765
 30
0.0
 40
24.0
 41
0.0
 46
0.0
 71
     5
 72
     1
  1
\A1;267
  7
ＭＳ ゴシック
 73
     1
 44
1.0
  0
POINT
  5
25C9
330
25C1
100
AcDbEntity
  8
Defpoints
 62
     0
100
AcDbPoint
 10
1552.65702687898
 20
6409.211635266355
 30
0.0
  0
POINT
  5
25CA
330
25C1
100
AcDbEntity
  8
Defpoints
 62
     0
100
AcDbPoint
 10
1820.158532491432
 20
6416.540745500136
 30
0.0
  0
POINT
  5
25CB
330
25C1
100
AcDbEntity
  8
Defpoints
 62
     0
100
AcDbPoint
 10
1820.158532491432
 20
6292.357109307765
 30
0.0
  0
ENDBLK
  5
25CC
330
25C1
100
AcDbEntity
  8
0
100
AcDbBlockEnd
  0
BLOCK
  5
25CF
330
25CE
100
AcDbEntity
  8
0
100
AcDbBlockBegin
  2
*D42
 70
     1
 10
0.0
 20
0.0
 30
0.0
  3
*D42
  1
*D198
  0
LINE
  5
25D0
330
25CE
100
AcDbEntity
  8
Dim
  6
Continuous
 62
     0
370
    -2
100
AcDbLine
 10
1333.159424702298
 20
6532.211280371676
 30
0.0
 11
1292.265877712646
 21
6532.211280371676
 31
0.0
  0
LINE
  5
25D1
330
25CE
100
AcDbEntity
  8
Dim
  6
Continuous
 62
     0
370
    -2
100
AcDbLine
 10
1333.159424702298
 20
6412.211635266355
 30
0.0
 11
1292.265877712646
 21
6412.211635266355
 31
0.0
  0
LINE
  5
25D2
330
25CE
100
AcDbEntity
  8
Dim
  6
Continuous
 62
     0
370
    -2
100
AcDbLine
 10
1292.265877712646
 20
6524.211280371676
 30
0.0
 11
1292.265877712646
 21
6420.211635266355
 31
0.0
  0
INSERT
  5
25D3
330
25CE
100
AcDbEntity
  8
Dim
 62
     0
370
    -2
100
AcDbBlockReference
  2
_DOT
 10
1292.265877712646
 20
6532.211280371676
 30
0.0
 41
8.0
 42
8.0
 43
8.0
 50
90.0
  0
INSERT
  5
25D4
330
25CE
100
AcDbEntity
  8
Dim
 62
     0
370
    -2
100
AcDbBlockReference
  2
_DOT
 10
1292.265877712646
 20
6412.211635266355
 30
0.0
 41
8.0
 42
8.0
 43
8.0
 50
270.0
  0
MTEXT
  5
25D5
330
25CE
100
AcDbEntity
  8
Dim
  6
Continuous
 62
     0
100
AcDbMText
 10
1260.265877712646
 20
6472.211457819016
 30
0.0
 40
24.0
 41
0.0
 46
0.0
 71
     5
 72
     1
  1
\A1;120
  7
ＭＳ ゴシック
 11
0.0
 21
1.0
 31
0.0
 73
     1
 44
1.0
  0
POINT
  5
25D6
330
25CE
100
AcDbEntity
  8
Defpoints
 62
     0
100
AcDbPoint
 10
1363.159424702298
 20
6532.211280371676
 30
0.0
  0
POINT
  5
25D7
330
25CE
100
AcDbEntity
  8
Defpoints
 62
     0
100
AcDbPoint
 10
1363.159424702298
 20
6412.211635266355
 30
0.0
  0
POINT
  5
25D8
330
25CE
100
AcDbEntity
  8
Defpoints
 62
     0
100
AcDbPoint
 10
1292.265877712646
 20
6412.211635266355
 30
0.0
  0
ENDBLK
  5
25D9
330
25CE
100
AcDbEntity
  8
0
100
AcDbBlockEnd
  0
BLOCK
  5
25DC
330
25DB
100
AcDbEntity
  8
0
100
AcDbBlockBegin
  2
*D43
 70
     1
 10
0.0
 20
0.0
 30
0.0
  3
*D43
  1
*D200
  0
LINE
  5
25DD
330
25DB
100
AcDbEntity
  8
Dim
  6
Continuous
 62
     0
370
    -2
100
AcDbLine
 10
932.1115422555707
 20
6532.211280371676
 30
0.0
 11
1004.665254177202
 21
6532.211280371676
 31
0.0
  0
LINE
  5
25DE
330
25DB
100
AcDbEntity
  8
Dim
  6
Continuous
 62
     0
370
    -2
100
AcDbLine
 10
677.9597383325125
 20
6409.211280371676
 30
0.0
 11
1004.665254177202
 21
6409.211280371676
 31
0.0
  0
LINE
  5
25DF
330
25DB
100
AcDbEntity
  8
Dim
  6
Continuous
 62
     0
370
    -2
100
AcDbLine
 10
1004.665254177202
 20
6524.211280371676
 30
0.0
 11
1004.665254177202
 21
6417.211280371676
 31
0.0
  0
INSERT
  5
25E0
330
25DB
100
AcDbEntity
  8
Dim
 62
     0
370
    -2
100
AcDbBlockReference
  2
_DOT
 10
1004.665254177202
 20
6532.211280371676
 30
0.0
 41
8.0
 42
8.0
 43
8.0
 50
90.0
  0
INSERT
  5
25E1
330
25DB
100
AcDbEntity
  8
Dim
 62
     0
370
    -2
100
AcDbBlockReference
  2
_DOT
 10
1004.665254177202
 20
6409.211280371676
 30
0.0
 41
8.0
 42
8.0
 43
8.0
 50
270.0
  0
MTEXT
  5
25E2
330
25DB
100
AcDbEntity
  8
Dim
  6
Continuous
 62
     0
100
AcDbMText
 10
972.665254177202
 20
6470.711280371676
 30
0.0
 40
24.0
 41
0.0
 46
0.0
 71
     5
 72
     1
  1
\A1;123
  7
ＭＳ ゴシック
 11
0.0
 21
1.0
 31
0.0
 73
     1
 44
1.0
  0
POINT
  5
25E3
330
25DB
100
AcDbEntity
  8
Defpoints
 62
     0
100
AcDbPoint
 10
902.1115422555707
 20
6532.211280371676
 30
0.0
  0
POINT
  5
25E4
330
25DB
100
AcDbEntity
  8
Defpoints
 62
     0
100
AcDbPoint
 10
647.9597383325125
 20
6409.211280371676
 30
0.0
  0
POINT
  5
25E5
330
25DB
100
AcDbEntity
  8
Defpoints
 62
     0
100
AcDbPoint
 10
1004.665254177202
 20
6409.211280371676
 30
0.0
  0
ENDBLK
  5
25E6
330
25DB
100
AcDbEntity
  8
0
100
AcDbBlockEnd
  0
BLOCK
  5
25E9
330
25E8
100
AcDbEntity
  8
0
100
AcDbBlockBegin
  2
*D44
 70
     1
 10
0.0
 20
0.0
 30
0.0
  3
*D44
  1
*D203
  0
LINE
  5
25EA
330
25E8
100
AcDbEntity
  8
Dim
  6
Continuous
 62
     0
370
    -2
100
AcDbLine
 10
1820.158532491432
 20
6559.214045322256
 30
0.0
 11
1820.158532491432
 21
6596.009661164565
 31
0.0
  0
LINE
  5
25EB
330
25E8
100
AcDbEntity
  8
Dim
  6
Continuous
 62
     0
370
    -2
100
AcDbLine
 10
1774.658532491432
 20
6540.770787782815
 30
0.0
 11
1774.658532491432
 21
6596.009661164565
 31
0.0
  0
LINE
  5
25EC
330
25E8
100
AcDbEntity
  8
Dim
  6
Continuous
 62
     0
370
    -2
100
AcDbLine
 10
1812.158532491432
 20
6596.009661164565
 30
0.0
 11
1782.658532491432
 21
6596.009661164565
 31
0.0
  0
INSERT
  5
25ED
330
25E8
100
AcDbEntity
  8
Dim
 62
     0
370
    -2
100
AcDbBlockReference
  2
_DOT
 10
1820.158532491432
 20
6596.009661164565
 30
0.0
 41
8.0
 42
8.0
 43
8.0
  0
INSERT
  5
25EE
330
25E8
100
AcDbEntity
  8
Dim
 62
     0
370
    -2
100
AcDbBlockReference
  2
_DOT
 10
1774.658532491432
 20
6596.009661164565
 30
0.0
 41
8.0
 42
8.0
 43
8.0
 50
180.0
  0
MTEXT
  5
25EF
330
25E8
100
AcDbEntity
  8
Dim
  6
Continuous
 62
     0
100
AcDbMText
 10
1797.408532491432
 20
6628.009661164565
 30
0.0
 40
24.0
 41
0.0
 46
0.0
 71
     5
 72
     1
  1
\A1;45
  7
ＭＳ ゴシック
 73
     1
 44
1.0
  0
POINT
  5
25F0
330
25E8
100
AcDbEntity
  8
Defpoints
 62
     0
100
AcDbPoint
 10
1820.158532491432
 20
6529.214045322256
 30
0.0
  0
POINT
  5
25F1
330
25E8
100
AcDbEntity
  8
Defpoints
 62
     0
100
AcDbPoint
 10
1774.658532491432
 20
6510.770787782815
 30
0.0
  0
POINT
  5
25F2
330
25E8
100
AcDbEntity
  8
Defpoints
 62
     0
100
AcDbPoint
 10
1774.658532491432
 20
6596.009661164565
 30
0.0
  0
ENDBLK
  5
25F3
330
25E8
100
AcDbEntity
  8
0
100
AcDbBlockEnd
  0
BLOCK
  5
2772
330
2771
100
AcDbEntity
  8
0
100
AcDbBlockBegin
  2
*D45
 70
     1
 10
0.0
 20
0.0
 30
0.0
  3
*D45
  1
*D385
  0
LINE
  5
2773
330
2771
100
AcDbEntity
  8
Dim
  6
Continuous
 62
     0
370
    -2
100
AcDbLine
 10
1552.416792796886
 20
7666.03224125408
 30
0.0
 11
1552.416792796886
 21
7737.157430895676
 31
0.0
  0
ARC
  5
2774
330
2771
100
AcDbEntity
  8
Dim
  6
Continuous
 62
     0
370
    -2
100
AcDbCircle
 10
1552.416792796886
 20
7596.051801670531
 30
0.0
 40
141.1056292251455
100
AcDbArc
 50
48.24892748565944
 51
86.75117392459441
  0
INSERT
  5
2775
330
2771
100
AcDbEntity
  8
Dim
 62
     0
370
    -2
100
AcDbBlockReference
  2
_DOT
 10
1652.193363486287
 20
7695.828725558207
 30
0.0
 41
8.0
 42
8.0
 43
8.0
 50
316.6245144479566
  0
INSERT
  5
2776
330
2771
100
AcDbEntity
  8
Dim
 62
     0
370
    -2
100
AcDbBlockReference
  2
_DOT
 10
1552.416792796886
 20
7737.157430895676
 30
0.0
 41
8.0
 42
8.0
 43
8.0
 50
178.3755869622975
  0
MTEXT
  5
2777
330
2771
100
AcDbEntity
  8
Dim
  6
Continuous
 62
     0
100
AcDbMText
 10
1618.822034316286
 20
7756.368637644588
 30
0.0
 40
24.0
 41
0.0
 46
0.0
 71
     5
 72
     1
  1
\A1;45%%d
  7
ＭＳ ゴシック
 11
0.9238798711748234
 21
-0.3826826147579632
 31
0.0
 73
     1
 44
1.0
  0
POINT
  5
2778
330
2771
100
AcDbEntity
  8
Defpoints
 62
     0
100
AcDbPoint
 10
1622.969463216817
 20
7718.252944446042
 30
0.0
  0
POINT
  5
2779
330
2771
100
AcDbEntity
  8
Defpoints
 62
     0
100
AcDbPoint
 10
1787.135092654351
 20
7830.770932405408
 30
0.0
  0
POINT
  5
277A
330
2771
100
AcDbEntity
  8
Defpoints
 62
     0
100
AcDbPoint
 10
1552.416792796886
 20
7636.03224125408
 30
0.0
  0
POINT
  5
277B
330
2771
100
AcDbEntity
  8
Defpoints
 62
     0
100
AcDbPoint
 10
1552.416792796886
 20
7618.644722370219
 30
0.0
  0
POINT
  5
277C
330
2771
100
AcDbEntity
  8
Defpoints
 62
     0
100
AcDbPoint
 10
1592.490858937049
 20
7636.126009668556
 30
0.0
  0
ENDBLK
  5
277D
330
2771
100
AcDbEntity
  8
0
100
AcDbBlockEnd
  0
BLOCK
  5
2782
330
2781
100
AcDbEntity
  8
0
100
AcDbBlockBegin
  2
*D46
 70
     1
 10
0.0
 20
0.0
 30
0.0
  3
*D46
  1
*D386
  0
LINE
  5
2783
330
2781
100
AcDbEntity
  8
Dim
  6
Continuous
 62
     0
370
    -2
100
AcDbLine
 10
1810.065063035461
 20
7943.553097707801
 30
0.0
 11
1903.389136773741
 21
7943.553097707801
 31
0.0
  0
LINE
  5
2784
330
2781
100
AcDbEntity
  8
Dim
  6
Continuous
 62
     0
370
    -2
100
AcDbLine
 10
1580.062757498872
 20
7618.552221495416
 30
0.0
 11
1903.389136773741
 21
7618.552221495416
 31
0.0
  0
LINE
  5
2785
330
2781
100
AcDbEntity
  8
Dim
  6
Continuous
 62
     0
370
    -2
100
AcDbLine
 10
1903.389136773741
 20
7935.553097707801
 30
0.0
 11
1903.389136773741
 21
7626.552221495416
 31
0.0
  0
INSERT
  5
2786
330
2781
100
AcDbEntity
  8
Dim
 62
     0
370
    -2
100
AcDbBlockReference
  2
_DOT
 10
1903.389136773741
 20
7943.553097707801
 30
0.0
 41
8.0
 42
8.0
 43
8.0
 50
90.0
  0
INSERT
  5
2787
330
2781
100
AcDbEntity
  8
Dim
 62
     0
370
    -2
100
AcDbBlockReference
  2
_DOT
 10
1903.389136773741
 20
7618.552221495416
 30
0.0
 41
8.0
 42
8.0
 43
8.0
 50
270.0
  0
MTEXT
  5
2788
330
2781
100
AcDbEntity
  8
Dim
  6
Continuous
 62
     0
100
AcDbMText
 10
1871.389136773741
 20
7781.052659601609
 30
0.0
 40
24.0
 41
0.0
 46
0.0
 71
     5
 72
     1
  1
\A1;325
  7
ＭＳ ゴシック
 11
0.0
 21
1.0
 31
0.0
 73
     1
 44
1.0
  0
POINT
  5
2789
330
2781
100
AcDbEntity
  8
Defpoints
 62
     0
100
AcDbPoint
 10
1780.065063035461
 20
7943.553097707801
 30
0.0
  0
POINT
  5
278A
330
2781
100
AcDbEntity
  8
Defpoints
 62
     0
100
AcDbPoint
 10
1550.062757498872
 20
7618.552221495416
 30
0.0
  0
POINT
  5
278B
330
2781
100
AcDbEntity
  8
Defpoints
 62
     0
100
AcDbPoint
 10
1903.389136773741
 20
7618.552221495416
 30
0.0
  0
ENDBLK
  5
278C
330
2781
100
AcDbEntity
  8
0
100
AcDbBlockEnd
  0
BLOCK
  5
278F
330
278E
100
AcDbEntity
  8
0
100
AcDbBlockBegin
  2
*D47
 70
     1
 10
0.0
 20
0.0
 30
0.0
  3
*D47
  1
*D387
  0
LINE
  5
2790
330
278E
100
AcDbEntity
  8
Dim
  6
Continuous
 62
     0
370
    -2
100
AcDbLine
 10
1789.872567332826
 20
7743.082097079488
 30
0.0
 11
1789.872567332826
 21
7372.720016075727
 31
0.0
  0
LINE
  5
2791
330
278E
100
AcDbEntity
  8
Dim
  6
Continuous
 62
     0
370
    -2
100
AcDbLine
 10
1310.062950523564
 20
7741.131654983819
 30
0.0
 11
1310.062950523564
 21
7372.720016075727
 31
0.0
  0
LINE
  5
2792
330
278E
100
AcDbEntity
  8
Dim
  6
Continuous
 62
     0
370
    -2
100
AcDbLine
 10
1781.872567332826
 20
7372.720016075727
 30
0.0
 11
1318.062950523564
 21
7372.720016075727
 31
0.0
  0
INSERT
  5
2793
330
278E
100
AcDbEntity
  8
Dim
 62
     0
370
    -2
100
AcDbBlockReference
  2
_DOT
 10
1789.872567332826
 20
7372.720016075727
 30
0.0
 41
8.0
 42
8.0
 43
8.0
  0
INSERT
  5
2794
330
278E
100
AcDbEntity
  8
Dim
 62
     0
370
    -2
100
AcDbBlockReference
  2
_DOT
 10
1310.062950523564
 20
7372.720016075727
 30
0.0
 41
8.0
 42
8.0
 43
8.0
 50
180.0
  0
MTEXT
  5
2795
330
278E
100
AcDbEntity
  8
Dim
  6
Continuous
 62
     0
100
AcDbMText
 10
1549.967758928195
 20
7404.720016075727
 30
0.0
 40
24.0
 41
0.0
 46
0.0
 71
     5
 72
     1
  1
\A1;480
  7
ＭＳ ゴシック
 73
     1
 44
1.0
  0
POINT
  5
2796
330
278E
100
AcDbEntity
  8
Defpoints
 62
     0
100
AcDbPoint
 10
1789.872567332826
 20
7773.082097079488
 30
0.0
  0
POINT
  5
2797
330
278E
100
AcDbEntity
  8
Defpoints
 62
     0
100
AcDbPoint
 10
1310.062950523564
 20
7771.131654983819
 30
0.0
  0
POINT
  5
2798
330
278E
100
AcDbEntity
  8
Defpoints
 62
     0
100
AcDbPoint
 10
1310.062950523564
 20
7372.720016075727
 30
0.0
  0
ENDBLK
  5
2799
330
278E
100
AcDbEntity
  8
0
100
AcDbBlockEnd
  0
BLOCK
  5
279D
330
279C
100
AcDbEntity
  8
0
100
AcDbBlockBegin
  2
*D48
 70
     1
 10
0.0
 20
0.0
 30
0.0
  3
*D48
  1
*D388
  0
LINE
  5
279E
330
279C
100
AcDbEntity
  8
Dim
  6
Continuous
 62
     0
370
    -2
100
AcDbLine
 10
1520.064135537975
 20
7678.553097707801
 30
0.0
 11
1215.712522050123
 21
7678.553097707801
 31
0.0
  0
LINE
  5
279F
330
279C
100
AcDbEntity
  8
Dim
  6
Continuous
 62
     0
370
    -2
100
AcDbLine
 10
1290.063208040488
 20
7943.553097707801
 30
0.0
 11
1215.712522050123
 21
7943.553097707801
 31
0.0
  0
LINE
  5
27A0
330
279C
100
AcDbEntity
  8
Dim
  6
Continuous
 62
     0
370
    -2
100
AcDbLine
 10
1215.712522050123
 20
7686.553097707801
 30
0.0
 11
1215.712522050123
 21
7935.553097707801
 31
0.0
  0
INSERT
  5
27A1
330
279C
100
AcDbEntity
  8
Dim
 62
     0
370
    -2
100
AcDbBlockReference
  2
_DOT
 10
1215.712522050123
 20
7678.553097707801
 30
0.0
 41
8.0
 42
8.0
 43
8.0
 50
270.0
  0
INSERT
  5
27A2
330
279C
100
AcDbEntity
  8
Dim
 62
     0
370
    -2
100
AcDbBlockReference
  2
_DOT
 10
1215.712522050123
 20
7943.553097707801
 30
0.0
 41
8.0
 42
8.0
 43
8.0
 50
90.0
  0
MTEXT
  5
27A3
330
279C
100
AcDbEntity
  8
Dim
  6
Continuous
 62
     0
100
AcDbMText
 10
1183.712522050123
 20
7811.053097707801
 30
0.0
 40
24.0
 41
0.0
 46
0.0
 71
     5
 72
     1
  1
\A1;265
  7
ＭＳ ゴシック
 11
0.0
 21
1.0
 31
0.0
 73
     1
 44
1.0
  0
POINT
  5
27A4
330
279C
100
AcDbEntity
  8
Defpoints
 62
     0
100
AcDbPoint
 10
1550.064135537975
 20
7678.553097707801
 30
0.0
  0
POINT
  5
27A5
330
279C
100
AcDbEntity
  8
Defpoints
 62
     0
100
AcDbPoint
 10
1320.063208040488
 20
7943.553097707801
 30
0.0
  0
POINT
  5
27A6
330
279C
100
AcDbEntity
  8
Defpoints
 62
     0
100
AcDbPoint
 10
1215.712522050123
 20
7943.553097707801
 30
0.0
  0
ENDBLK
  5
27A7
330
279C
100
AcDbEntity
  8
0
100
AcDbBlockEnd
  0
BLOCK
  5
27AA
330
27A9
100
AcDbEntity
  8
0
100
AcDbBlockBegin
  2
*D49
 70
     1
 10
0.0
 20
0.0
 30
0.0
  3
*D49
  1
*D389
  0
LINE
  5
27AB
330
27A9
100
AcDbEntity
  8
Dim
  6
Continuous
 62
     0
370
    -2
100
AcDbLine
 10
1810.065063035461
 20
7943.553097707801
 30
0.0
 11
1903.389136773741
 21
7943.553097707801
 31
0.0
  0
LINE
  5
27AC
330
27A9
100
AcDbEntity
  8
Dim
  6
Continuous
 62
     0
370
    -2
100
AcDbLine
 10
1873.037503801857
 20
7958.553097707801
 30
0.0
 11
1903.389136773741
 21
7958.553097707801
 31
0.0
  0
LINE
  5
27AD
330
27A9
100
AcDbEntity
  8
Dim
  6
Continuous
 62
     0
370
    -2
100
AcDbLine
 10
1903.389136773741
 20
7958.553097707801
 30
0.0
 11
1903.389136773741
 21
8040.857097707802
 31
0.0
  0
LINE
  5
27AE
330
27A9
100
AcDbEntity
  8
Dim
  6
Continuous
 62
     0
370
    -2
100
AcDbLine
 10
1903.389136773741
 20
7951.553097707801
 30
0.0
 11
1903.389136773741
 21
7950.553097707801
 31
0.0
  0
INSERT
  5
27AF
330
27A9
100
AcDbEntity
  8
Dim
 62
     0
370
    -2
100
AcDbBlockReference
  2
_DOT
 10
1903.389136773741
 20
7943.553097707801
 30
0.0
 41
8.0
 42
8.0
 43
8.0
 50
270.0
  0
INSERT
  5
27B0
330
27A9
100
AcDbEntity
  8
Dim
 62
     0
370
    -2
100
AcDbBlockReference
  2
_DOT
 10
1903.389136773741
 20
7958.553097707801
 30
0.0
 41
8.0
 42
8.0
 43
8.0
 50
90.0
  0
MTEXT
  5
27B1
330
27A9
100
AcDbEntity
  8
Dim
  6
Continuous
 62
     0
100
AcDbMText
 10
1871.389136773741
 20
8007.705097707802
 30
0.0
 40
24.0
 41
0.0
 46
0.0
 71
     5
 72
     1
  1
\A1;15
  7
ＭＳ ゴシック
 11
0.0
 21
1.0
 31
0.0
 73
     1
 44
1.0
  0
POINT
  5
27B2
330
27A9
100
AcDbEntity
  8
Defpoints
 62
     0
100
AcDbPoint
 10
1780.065063035461
 20
7943.553097707801
 30
0.0
  0
POINT
  5
27B3
330
27A9
100
AcDbEntity
  8
Defpoints
 62
     0
100
AcDbPoint
 10
1843.037503801857
 20
7958.553097707801
 30
0.0
  0
POINT
  5
27B4
330
27A9
100
AcDbEntity
  8
Defpoints
 62
     0
100
AcDbPoint
 10
1903.389136773741
 20
7958.553097707801
 30
0.0
  0
ENDBLK
  5
27B5
330
27A9
100
AcDbEntity
  8
0
100
AcDbBlockEnd
  0
BLOCK
  5
27BD
330
27BC
100
AcDbEntity
  8
0
100
AcDbBlockBegin
  2
*D50
 70
     1
 10
0.0
 20
0.0
 30
0.0
  3
*D50
  1
*D436
  0
LINE
  5
27BE
330
27BC
100
AcDbEntity
  8
Dim
  6
Continuous
 62
     0
370
    -2
100
AcDbLine
 10
276.5234289253174
 20
7958.260220036543
 30
0.0
 11
185.699431900381
 21
7958.260220036543
 31
0.0
  0
LINE
  5
27BF
330
27BC
100
AcDbEntity
  8
Dim
  6
Continuous
 62
     0
370
    -2
100
AcDbLine
 10
259.6784072195153
 20
7867.426772550121
 30
0.0
 11
185.699431900381
 21
7867.426772550121
 31
0.0
  0
LINE
  5
27C0
330
27BC
100
AcDbEntity
  8
Dim
  6
Continuous
 62
     0
370
    -2
100
AcDbLine
 10
185.699431900381
 20
7950.260220036543
 30
0.0
 11
185.699431900381
 21
7875.426772550121
 31
0.0
  0
INSERT
  5
27C1
330
27BC
100
AcDbEntity
  8
Dim
 62
     0
370
    -2
100
AcDbBlockReference
  2
_DOT
 10
185.699431900381
 20
7958.260220036543
 30
0.0
 41
8.0
 42
8.0
 43
8.0
 50
90.0
  0
INSERT
  5
27C2
330
27BC
100
AcDbEntity
  8
Dim
 62
     0
370
    -2
100
AcDbBlockReference
  2
_DOT
 10
185.699431900381
 20
7867.426772550121
 30
0.0
 41
8.0
 42
8.0
 43
8.0
 50
270.0
  0
MTEXT
  5
27C3
330
27BC
100
AcDbEntity
  8
Dim
  6
Continuous
 62
     0
100
AcDbMText
 10
153.699431900381
 20
7912.843496293333
 30
0.0
 40
24.0
 41
0.0
 46
0.0
 71
     5
 72
     1
  1
\A1;90
  7
ＭＳ ゴシック
 11
0.0
 21
1.0
 31
0.0
 73
     1
 44
1.0
  0
POINT
  5
27C4
330
27BC
100
AcDbEntity
  8
Defpoints
 62
     0
100
AcDbPoint
 10
306.5234289253174
 20
7958.260220036543
 30
0.0
  0
POINT
  5
27C5
330
27BC
100
AcDbEntity
  8
Defpoints
 62
     0
100
AcDbPoint
 10
289.6784072195153
 20
7867.426772550121
 30
0.0
  0
POINT
  5
27C6
330
27BC
100
AcDbEntity
  8
Defpoints
 62
     0
100
AcDbPoint
 10
185.699431900381
 20
7867.426772550121
 30
0.0
  0
ENDBLK
  5
27C7
330
27BC
100
AcDbEntity
  8
0
100
AcDbBlockEnd
  0
BLOCK
  5
29AB
330
29AA
100
AcDbEntity
  8
0
100
AcDbBlockBegin
  2
*D51
 70
     1
 10
0.0
 20
0.0
 30
0.0
  3
*D51
  1
*D52
  0
LINE
  5
29AD
330
29AA
100
AcDbEntity
  8
Dim
  6
Continuous
 62
     0
370
    -2
100
AcDbLine
 10
2677.212293677357
 20
2432.234960543563
 30
0.0
 11
2677.212293677357
 21
2561.563526289916
 31
0.0
  0
LINE
  5
29AE
330
29AA
100
AcDbEntity
  8
Dim
  6
Continuous
 62
     0
370
    -2
100
AcDbLine
 10
3277.213964301722
 20
2432.234960543563
 30
0.0
 11
3277.213964301722
 21
2561.563526289916
 31
0.0
  0
LINE
  5
29AF
330
29AA
100
AcDbEntity
  8
Dim
  6
Continuous
 62
     0
370
    -2
100
AcDbLine
 10
2685.212293677357
 20
2561.563526289916
 30
0.0
 11
3269.213964301722
 21
2561.563526289916
 31
0.0
  0
INSERT
  5
29B0
330
29AA
100
AcDbEntity
  8
Dim
 62
     0
370
    -2
100
AcDbBlockReference
  2
_DOT
 10
2677.212293677357
 20
2561.563526289916
 30
0.0
 41
8.0
 42
8.0
 43
8.0
 50
180.0
  0
INSERT
  5
29B1
330
29AA
100
AcDbEntity
  8
Dim
 62
     0
370
    -2
100
AcDbBlockReference
  2
_DOT
 10
3277.213964301722
 20
2561.563526289916
 30
0.0
 41
8.0
 42
8.0
 43
8.0
  0
MTEXT
  5
29B2
330
29AA
100
AcDbEntity
  8
Dim
  6
Continuous
 62
     0
100
AcDbMText
 10
2977.21312898954
 20
2593.563526289916
 30
0.0
 40
24.0
 41
0.0
 46
0.0
 71
     5
 72
     1
  1
\A1;600
  7
ＭＳ ゴシック
 73
     1
 44
1.0
  0
POINT
  5
29B3
330
29AA
100
AcDbEntity
  8
Defpoints
 62
     0
100
AcDbPoint
 10
2677.212293677357
 20
2402.234960543563
 30
0.0
  0
POINT
  5
29B4
330
29AA
100
AcDbEntity
  8
Defpoints
 62
     0
100
AcDbPoint
 10
3277.213964301722
 20
2402.234960543563
 30
0.0
  0
POINT
  5
29B5
330
29AA
100
AcDbEntity
  8
Defpoints
 62
     0
100
AcDbPoint
 10
3277.213964301722
 20
2561.563526289916
 30
0.0
  0
ENDBLK
  5
29AC
330
29AA
100
AcDbEntity
  8
0
100
AcDbBlockEnd
  0
BLOCK
  5
29B7
330
29B6
100
AcDbEntity
  8
0
100
AcDbBlockBegin
  2
*D52
 70
     1
 10
0.0
 20
0.0
 30
0.0
  3
*D52
  1
*D53
  0
LINE
  5
29B9
330
29B6
100
AcDbEntity
  8
Dim
  6
Continuous
 62
     0
370
    -2
100
AcDbLine
 10
3304.213284154538
 20
2405.235640690748
 30
0.0
 11
3409.831662168462
 21
2405.235640690748
 31
0.0
  0
LINE
  5
29BA
330
29B6
100
AcDbEntity
  8
Dim
  6
Continuous
 62
     0
370
    -2
100
AcDbLine
 10
3304.213284154538
 20
1945.235852754429
 30
0.0
 11
3409.831662168462
 21
1945.235852754429
 31
0.0
  0
LINE
  5
29BB
330
29B6
100
AcDbEntity
  8
Dim
  6
Continuous
 62
     0
370
    -2
100
AcDbLine
 10
3409.831662168462
 20
2397.235640690748
 30
0.0
 11
3409.831662168462
 21
1953.235852754429
 31
0.0
  0
INSERT
  5
29BC
330
29B6
100
AcDbEntity
  8
Dim
 62
     0
370
    -2
100
AcDbBlockReference
  2
_DOT
 10
3409.831662168462
 20
2405.235640690748
 30
0.0
 41
8.0
 42
8.0
 43
8.0
 50
90.0
  0
INSERT
  5
29BD
330
29B6
100
AcDbEntity
  8
Dim
 62
     0
370
    -2
100
AcDbBlockReference
  2
_DOT
 10
3409.831662168462
 20
1945.235852754429
 30
0.0
 41
8.0
 42
8.0
 43
8.0
 50
270.0
  0
MTEXT
  5
29BE
330
29B6
100
AcDbEntity
  8
Dim
  6
Continuous
 62
     0
100
AcDbMText
 10
3377.831662168462
 20
2175.235746722589
 30
0.0
 40
24.0
 41
0.0
 46
0.0
 71
     5
 72
     1
  1
\A1;460
  7
ＭＳ ゴシック
 11
0.0
 21
1.0
 31
0.0
 73
     1
 44
1.0
  0
POINT
  5
29BF
330
29B6
100
AcDbEntity
  8
Defpoints
 62
     0
100
AcDbPoint
 10
3274.213284154538
 20
2405.235640690748
 30
0.0
  0
POINT
  5
29C0
330
29B6
100
AcDbEntity
  8
Defpoints
 62
     0
100
AcDbPoint
 10
3274.213284154538
 20
1945.235852754429
 30
0.0
  0
POINT
  5
29C1
330
29B6
100
AcDbEntity
  8
Defpoints
 62
     0
100
AcDbPoint
 10
3409.831662168462
 20
1945.235852754429
 30
0.0
  0
ENDBLK
  5
29B8
330
29B6
100
AcDbEntity
  8
0
100
AcDbBlockEnd
  0
BLOCK
  5
29C3
330
29C2
100
AcDbEntity
  8
0
100
AcDbBlockBegin
  2
*D53
 70
     1
 10
0.0
 20
0.0
 30
0.0
  3
*D53
  1
*D54
  0
LINE
  5
29C5
330
29C2
100
AcDbEntity
  8
Dim
  6
Continuous
 62
     0
370
    -2
100
AcDbLine
 10
2696.825235213433
 20
1926.80388403751
 30
0.0
 11
2696.825235213433
 21
1822.148166475416
 31
0.0
  0
LINE
  5
29C6
330
29C2
100
AcDbEntity
  8
Dim
  6
Continuous
 62
     0
370
    -2
100
AcDbLine
 10
3257.601022765646
 20
1926.80388403751
 30
0.0
 11
3257.601022765646
 21
1822.148166475416
 31
0.0
  0
LINE
  5
29C7
330
29C2
100
AcDbEntity
  8
Dim
  6
Continuous
 62
     0
370
    -2
100
AcDbLine
 10
2704.825235213433
 20
1822.148166475416
 30
0.0
 11
3249.601022765646
 21
1822.148166475416
 31
0.0
  0
INSERT
  5
29C8
330
29C2
100
AcDbEntity
  8
Dim
 62
     0
370
    -2
100
AcDbBlockReference
  2
_DOT
 10
2696.825235213433
 20
1822.148166475416
 30
0.0
 41
8.0
 42
8.0
 43
8.0
 50
180.0
  0
INSERT
  5
29C9
330
29C2
100
AcDbEntity
  8
Dim
 62
     0
370
    -2
100
AcDbBlockReference
  2
_DOT
 10
3257.601022765646
 20
1822.148166475416
 30
0.0
 41
8.0
 42
8.0
 43
8.0
  0
MTEXT
  5
29CA
330
29C2
100
AcDbEntity
  8
Dim
  6
Continuous
 62
     0
100
AcDbMText
 10
2977.21312898954
 20
1854.148166475416
 30
0.0
 40
24.0
 41
0.0
 46
0.0
 71
     5
 72
     1
  1
\A1;561
  7
ＭＳ ゴシック
 73
     1
 44
1.0
  0
POINT
  5
29CB
330
29C2
100
AcDbEntity
  8
Defpoints
 62
     0
100
AcDbPoint
 10
2696.825235213433
 20
1956.80388403751
 30
0.0
  0
POINT
  5
29CC
330
29C2
100
AcDbEntity
  8
Defpoints
 62
     0
100
AcDbPoint
 10
3257.601022765646
 20
1956.80388403751
 30
0.0
  0
POINT
  5
29CD
330
29C2
100
AcDbEntity
  8
Defpoints
 62
     0
100
AcDbPoint
 10
3257.601022765646
 20
1822.148166475416
 30
0.0
  0
ENDBLK
  5
29C4
330
29C2
100
AcDbEntity
  8
0
100
AcDbBlockEnd
  0
BLOCK
  5
29CF
330
29CE
100
AcDbEntity
  8
0
100
AcDbBlockBegin
  2
*D54
 70
     1
 10
0.0
 20
0.0
 30
0.0
  3
*D54
  1
*D55
  0
LINE
  5
29D1
330
29CE
100
AcDbEntity
  8
Dim
  6
Continuous
 62
     0
370
    -2
100
AcDbLine
 10
2634.780829265666
 20
2314.398748106571
 30
0.0
 11
2560.801853946532
 21
2314.398748106571
 31
0.0
  0
LINE
  5
29D2
330
29CE
100
AcDbEntity
  8
Dim
  6
Continuous
 62
     0
370
    -2
100
AcDbLine
 10
2634.780829265666
 20
1960.398748106571
 30
0.0
 11
2560.801853946532
 21
1960.398748106571
 31
0.0
  0
LINE
  5
29D3
330
29CE
100
AcDbEntity
  8
Dim
  6
Continuous
 62
     0
370
    -2
100
AcDbLine
 10
2560.801853946532
 20
2306.398748106571
 30
0.0
 11
2560.801853946532
 21
1968.398748106571
 31
0.0
  0
INSERT
  5
29D4
330
29CE
100
AcDbEntity
  8
Dim
 62
     0
370
    -2
100
AcDbBlockReference
  2
_DOT
 10
2560.801853946532
 20
2314.398748106571
 30
0.0
 41
8.0
 42
8.0
 43
8.0
 50
90.0
  0
INSERT
  5
29D5
330
29CE
100
AcDbEntity
  8
Dim
 62
     0
370
    -2
100
AcDbBlockReference
  2
_DOT
 10
2560.801853946532
 20
1960.398748106571
 30
0.0
 41
8.0
 42
8.0
 43
8.0
 50
270.0
  0
MTEXT
  5
29D6
330
29CE
100
AcDbEntity
  8
Dim
  6
Continuous
 62
     0
100
AcDbMText
 10
2528.801853946532
 20
2137.398748106571
 30
0.0
 40
24.0
 41
0.0
 46
0.0
 71
     5
 72
     1
  1
\A1;354
  7
ＭＳ ゴシック
 11
0.0
 21
1.0
 31
0.0
 73
     1
 44
1.0
  0
POINT
  5
29D7
330
29CE
100
AcDbEntity
  8
Defpoints
 62
     0
100
AcDbPoint
 10
2664.780829265666
 20
2314.398748106571
 30
0.0
  0
POINT
  5
29D8
330
29CE
100
AcDbEntity
  8
Defpoints
 62
     0
100
AcDbPoint
 10
2664.780829265666
 20
1960.398748106571
 30
0.0
  0
POINT
  5
29D9
330
29CE
100
AcDbEntity
  8
Defpoints
 62
     0
100
AcDbPoint
 10
2560.801853946532
 20
1960.398748106571
 30
0.0
  0
ENDBLK
  5
29D0
330
29CE
100
AcDbEntity
  8
0
100
AcDbBlockEnd
  0
BLOCK
  5
29DB
330
29DA
100
AcDbEntity
  8
0
100
AcDbBlockBegin
  2
*D55
 70
     1
 10
0.0
 20
0.0
 30
0.0
  3
*D55
  1
*D56
  0
LINE
  5
29DD
330
29DA
100
AcDbEntity
  8
Dim
  6
Continuous
 62
     0
370
    -2
100
AcDbLine
 10
3929.188713034692
 20
979.1832559281265
 30
0.0
 11
3929.188713034692
 21
1180.211806051846
 31
0.0
  0
LINE
  5
29DE
330
29DA
100
AcDbEntity
  8
Dim
  6
Continuous
 62
     0
370
    -2
100
AcDbLine
 10
3929.188713034692
 20
971.1832559281265
 30
0.0
 11
3929.188713034692
 21
877.0602599233753
 31
0.0
  0
INSERT
  5
29DF
330
29DA
100
AcDbEntity
  8
Dim
 62
     0
370
    -2
100
AcDbBlockReference
  2
_DOT
 10
3929.188713034692
 20
979.1832559281265
 30
0.0
 41
8.0
 42
8.0
 43
8.0
 50
90.0
  0
INSERT
  5
29E0
330
29DA
100
AcDbEntity
  8
Dim
 62
     0
370
    -2
100
AcDbBlockReference
  2
_DOT
 10
3929.188713034692
 20
869.0602599233753
 30
0.0
 41
8.0
 42
8.0
 43
8.0
 50
270.0
  0
MTEXT
  5
29E1
330
29DA
100
AcDbEntity
  8
Dim
  6
Continuous
 62
     0
100
AcDbMText
 10
3895.064713034692
 20
1095.195806051845
 30
0.0
 40
24.0
 41
0.0
 46
0.0
 71
     5
 72
     1
  1
\A1;110(深さ)
  7
ＭＳ ゴシック
 11
0.0
 21
1.0
 31
0.0
 73
     1
 44
1.0
  0
POINT
  5
29E2
330
29DA
100
AcDbEntity
  8
Defpoints
 62
     0
100
AcDbPoint
 10
3951.690413402655
 20
979.1832559281265
 30
0.0
  0
POINT
  5
29E3
330
29DA
100
AcDbEntity
  8
Defpoints
 62
     0
100
AcDbPoint
 10
3951.690413402655
 20
869.0602599233753
 30
0.0
  0
POINT
  5
29E4
330
29DA
100
AcDbEntity
  8
Defpoints
 62
     0
100
AcDbPoint
 10
3929.188713034692
 20
869.0602599233753
 30
0.0
  0
ENDBLK
  5
29DC
330
29DA
100
AcDbEntity
  8
0
100
AcDbBlockEnd
  0
BLOCK
  5
29E6
330
29E5
100
AcDbEntity
  8
0
100
AcDbBlockBegin
  2
*D56
 70
     1
 10
0.0
 20
0.0
 30
0.0
  3
*D56
  1
*D57
  0
LINE
  5
29E8
330
29E5
100
AcDbEntity
  8
Dim
  6
Continuous
 62
     0
370
    -2
100
AcDbLine
 10
3927.759448925131
 20
826.1836108228053
 30
0.0
 11
3927.759448925131
 21
739.3290848642155
 31
0.0
  0
LINE
  5
29E9
330
29E5
100
AcDbEntity
  8
Dim
  6
Continuous
 62
     0
370
    -2
100
AcDbLine
 10
4195.260954537584
 20
833.5127210565861
 30
0.0
 11
4195.260954537584
 21
739.3290848642155
 31
0.0
  0
LINE
  5
29EA
330
29E5
100
AcDbEntity
  8
Dim
  6
Continuous
 62
     0
370
    -2
100
AcDbLine
 10
3935.759448925131
 20
739.3290848642155
 30
0.0
 11
4187.260954537584
 21
739.3290848642155
 31
0.0
  0
INSERT
  5
29EB
330
29E5
100
AcDbEntity
  8
Dim
 62
     0
370
    -2
100
AcDbBlockReference
  2
_DOT
 10
3927.759448925131
 20
739.3290848642155
 30
0.0
 41
8.0
 42
8.0
 43
8.0
 50
180.0
  0
INSERT
  5
29EC
330
29E5
100
AcDbEntity
  8
Dim
 62
     0
370
    -2
100
AcDbBlockReference
  2
_DOT
 10
4195.260954537584
 20
739.3290848642155
 30
0.0
 41
8.0
 42
8.0
 43
8.0
  0
MTEXT
  5
29ED
330
29E5
100
AcDbEntity
  8
Dim
  6
Continuous
 62
     0
100
AcDbMText
 10
4061.510201731357
 20
771.3290848642155
 30
0.0
 40
24.0
 41
0.0
 46
0.0
 71
     5
 72
     1
  1
\A1;267
  7
ＭＳ ゴシック
 73
     1
 44
1.0
  0
POINT
  5
29EE
330
29E5
100
AcDbEntity
  8
Defpoints
 62
     0
100
AcDbPoint
 10
3927.759448925131
 20
856.1836108228053
 30
0.0
  0
POINT
  5
29EF
330
29E5
100
AcDbEntity
  8
Defpoints
 62
     0
100
AcDbPoint
 10
4195.260954537584
 20
863.5127210565861
 30
0.0
  0
POINT
  5
29F0
330
29E5
100
AcDbEntity
  8
Defpoints
 62
     0
100
AcDbPoint
 10
4195.260954537584
 20
739.3290848642155
 30
0.0
  0
ENDBLK
  5
29E7
330
29E5
100
AcDbEntity
  8
0
100
AcDbBlockEnd
  0
BLOCK
  5
29F2
330
29F1
100
AcDbEntity
  8
0
100
AcDbBlockBegin
  2
*D57
 70
     1
 10
0.0
 20
0.0
 30
0.0
  3
*D57
  1
*D58
  0
LINE
  5
29F4
330
29F1
100
AcDbEntity
  8
Dim
  6
Continuous
 62
     0
370
    -2
100
AcDbLine
 10
3708.261846748449
 20
979.1832559281265
 30
0.0
 11
3667.368299758798
 21
979.1832559281265
 31
0.0
  0
LINE
  5
29F5
330
29F1
100
AcDbEntity
  8
Dim
  6
Continuous
 62
     0
370
    -2
100
AcDbLine
 10
3708.261846748449
 20
859.1836108228053
 30
0.0
 11
3667.368299758798
 21
859.1836108228053
 31
0.0
  0
LINE
  5
29F6
330
29F1
100
AcDbEntity
  8
Dim
  6
Continuous
 62
     0
370
    -2
100
AcDbLine
 10
3667.368299758798
 20
971.1832559281265
 30
0.0
 11
3667.368299758798
 21
867.1836108228053
 31
0.0
  0
INSERT
  5
29F7
330
29F1
100
AcDbEntity
  8
Dim
 62
     0
370
    -2
100
AcDbBlockReference
  2
_DOT
 10
3667.368299758798
 20
979.1832559281265
 30
0.0
 41
8.0
 42
8.0
 43
8.0
 50
90.0
  0
INSERT
  5
29F8
330
29F1
100
AcDbEntity
  8
Dim
 62
     0
370
    -2
100
AcDbBlockReference
  2
_DOT
 10
3667.368299758798
 20
859.1836108228053
 30
0.0
 41
8.0
 42
8.0
 43
8.0
 50
270.0
  0
MTEXT
  5
29F9
330
29F1
100
AcDbEntity
  8
Dim
  6
Continuous
 62
     0
100
AcDbMText
 10
3635.368299758798
 20
919.1834333754659
 30
0.0
 40
24.0
 41
0.0
 46
0.0
 71
     5
 72
     1
  1
\A1;120
  7
ＭＳ ゴシック
 11
0.0
 21
1.0
 31
0.0
 73
     1
 44
1.0
  0
POINT
  5
29FA
330
29F1
100
AcDbEntity
  8
Defpoints
 62
     0
100
AcDbPoint
 10
3738.261846748449
 20
979.1832559281265
 30
0.0
  0
POINT
  5
29FB
330
29F1
100
AcDbEntity
  8
Defpoints
 62
     0
100
AcDbPoint
 10
3738.261846748449
 20
859.1836108228053
 30
0.0
  0
POINT
  5
29FC
330
29F1
100
AcDbEntity
  8
Defpoints
 62
     0
100
AcDbPoint
 10
3667.368299758798
 20
859.1836108228053
 30
0.0
  0
ENDBLK
  5
29F3
330
29F1
100
AcDbEntity
  8
0
100
AcDbBlockEnd
  0
BLOCK
  5
29FE
330
29FD
100
AcDbEntity
  8
0
100
AcDbBlockBegin
  2
*D58
 70
     1
 10
0.0
 20
0.0
 30
0.0
  3
*D58
  1
*D59
  0
LINE
  5
2A00
330
29FD
100
AcDbEntity
  8
Dim
  6
Continuous
 62
     0
370
    -2
100
AcDbLine
 10
3307.213964301722
 20
979.1832559281265
 30
0.0
 11
3379.767676223353
 21
979.1832559281265
 31
0.0
  0
LINE
  5
2A01
330
29FD
100
AcDbEntity
  8
Dim
  6
Continuous
 62
     0
370
    -2
100
AcDbLine
 10
3053.062160378664
 20
856.1832559281265
 30
0.0
 11
3379.767676223353
 21
856.1832559281265
 31
0.0
  0
LINE
  5
2A02
330
29FD
100
AcDbEntity
  8
Dim
  6
Continuous
 62
     0
370
    -2
100
AcDbLine
 10
3379.767676223353
 20
971.1832559281265
 30
0.0
 11
3379.767676223353
 21
864.1832559281265
 31
0.0
  0
INSERT
  5
2A03
330
29FD
100
AcDbEntity
  8
Dim
 62
     0
370
    -2
100
AcDbBlockReference
  2
_DOT
 10
3379.767676223353
 20
979.1832559281265
 30
0.0
 41
8.0
 42
8.0
 43
8.0
 50
90.0
  0
INSERT
  5
2A04
330
29FD
100
AcDbEntity
  8
Dim
 62
     0
370
    -2
100
AcDbBlockReference
  2
_DOT
 10
3379.767676223353
 20
856.1832559281265
 30
0.0
 41
8.0
 42
8.0
 43
8.0
 50
270.0
  0
MTEXT
  5
2A05
330
29FD
100
AcDbEntity
  8
Dim
  6
Continuous
 62
     0
100
AcDbMText
 10
3347.767676223353
 20
917.6832559281265
 30
0.0
 40
24.0
 41
0.0
 46
0.0
 71
     5
 72
     1
  1
\A1;123
  7
ＭＳ ゴシック
 11
0.0
 21
1.0
 31
0.0
 73
     1
 44
1.0
  0
POINT
  5
2A06
330
29FD
100
AcDbEntity
  8
Defpoints
 62
     0
100
AcDbPoint
 10
3277.213964301722
 20
979.1832559281265
 30
0.0
  0
POINT
  5
2A07
330
29FD
100
AcDbEntity
  8
Defpoints
 62
     0
100
AcDbPoint
 10
3023.062160378664
 20
856.1832559281265
 30
0.0
  0
POINT
  5
2A08
330
29FD
100
AcDbEntity
  8
Defpoints
 62
     0
100
AcDbPoint
 10
3379.767676223353
 20
856.1832559281265
 30
0.0
  0
ENDBLK
  5
29FF
330
29FD
100
AcDbEntity
  8
0
100
AcDbBlockEnd
  0
BLOCK
  5
2A0A
330
2A09
100
AcDbEntity
  8
0
100
AcDbBlockBegin
  2
*D59
 70
     1
 10
0.0
 20
0.0
 30
0.0
  3
*D59
  1
*D60
  0
LINE
  5
2A0C
330
2A09
100
AcDbEntity
  8
Dim
  6
Continuous
 62
     0
370
    -2
100
AcDbLine
 10
4195.260954537584
 20
1006.186020878706
 30
0.0
 11
4195.260954537584
 21
1042.981636721015
 31
0.0
  0
LINE
  5
2A0D
330
2A09
100
AcDbEntity
  8
Dim
  6
Continuous
 62
     0
370
    -2
100
AcDbLine
 10
4149.760954537584
 20
987.7427633392654
 30
0.0
 11
4149.760954537584
 21
1042.981636721015
 31
0.0
  0
LINE
  5
2A0E
330
2A09
100
AcDbEntity
  8
Dim
  6
Continuous
 62
     0
370
    -2
100
AcDbLine
 10
4187.260954537584
 20
1042.981636721015
 30
0.0
 11
4157.760954537584
 21
1042.981636721015
 31
0.0
  0
INSERT
  5
2A0F
330
2A09
100
AcDbEntity
  8
Dim
 62
     0
370
    -2
100
AcDbBlockReference
  2
_DOT
 10
4195.260954537584
 20
1042.981636721015
 30
0.0
 41
8.0
 42
8.0
 43
8.0
  0
INSERT
  5
2A10
330
2A09
100
AcDbEntity
  8
Dim
 62
     0
370
    -2
100
AcDbBlockReference
  2
_DOT
 10
4149.760954537584
 20
1042.981636721015
 30
0.0
 41
8.0
 42
8.0
 43
8.0
 50
180.0
  0
MTEXT
  5
2A11
330
2A09
100
AcDbEntity
  8
Dim
  6
Continuous
 62
     0
100
AcDbMText
 10
4172.510954537584
 20
1074.981636721015
 30
0.0
 40
24.0
 41
0.0
 46
0.0
 71
     5
 72
     1
  1
\A1;45
  7
ＭＳ ゴシック
 73
     1
 44
1.0
  0
POINT
  5
2A12
330
2A09
100
AcDbEntity
  8
Defpoints
 62
     0
100
AcDbPoint
 10
4195.260954537584
 20
976.1860208787057
 30
0.0
  0
POINT
  5
2A13
330
2A09
100
AcDbEntity
  8
Defpoints
 62
     0
100
AcDbPoint
 10
4149.760954537584
 20
957.7427633392654
 30
0.0
  0
POINT
  5
2A14
330
2A09
100
AcDbEntity
  8
Defpoints
 62
     0
100
AcDbPoint
 10
4149.760954537584
 20
1042.981636721015
 30
0.0
  0
ENDBLK
  5
2A0B
330
2A09
100
AcDbEntity
  8
0
100
AcDbBlockEnd
  0
BLOCK
  5
2A16
330
2A15
100
AcDbEntity
  8
0
100
AcDbBlockBegin
  2
*D60
 70
     1
 10
0.0
 20
0.0
 30
0.0
  3
*D60
  1
*D61
  0
LINE
  5
2A18
330
2A15
100
AcDbEntity
  8
Dim
  6
Continuous
 62
     0
370
    -2
100
AcDbLine
 10
3927.519214843037
 20
2113.00421681053
 30
0.0
 11
3927.519214843037
 21
2184.129406452127
 31
0.0
  0
ARC
  5
2A19
330
2A15
100
AcDbEntity
  8
Dim
  6
Continuous
 62
     0
370
    -2
100
AcDbCircle
 10
3927.519214843037
 20
2043.023777226981
 30
0.0
 40
141.1056292251459
100
AcDbArc
 50
48.2489274856594
 51
86.75117392459441
  0
INSERT
  5
2A1A
330
2A15
100
AcDbEntity
  8
Dim
 62
     0
370
    -2
100
AcDbBlockReference
  2
_DOT
 10
4027.295785532438
 20
2142.800701114657
 30
0.0
 41
8.0
 42
8.0
 43
8.0
 50
316.6245144479566
  0
INSERT
  5
2A1B
330
2A15
100
AcDbEntity
  8
Dim
 62
     0
370
    -2
100
AcDbBlockReference
  2
_DOT
 10
3927.519214843037
 20
2184.129406452127
 30
0.0
 41
8.0
 42
8.0
 43
8.0
 50
178.3755869622972
  0
MTEXT
  5
2A1C
330
2A15
100
AcDbEntity
  8
Dim
  6
Continuous
 62
     0
100
AcDbMText
 10
3993.924456362437
 20
2203.340613201038
 30
0.0
 40
24.0
 41
0.0
 46
0.0
 71
     5
 72
     1
  1
\A1;45%%d
  7
ＭＳ ゴシック
 11
0.9238798711748221
 21
-0.3826826147579662
 31
0.0
 73
     1
 44
1.0
  0
POINT
  5
2A1D
330
2A15
100
AcDbEntity
  8
Defpoints
 62
     0
100
AcDbPoint
 10
3998.071885262968
 20
2165.224920002492
 30
0.0
  0
POINT
  5
2A1E
330
2A15
100
AcDbEntity
  8
Defpoints
 62
     0
100
AcDbPoint
 10
4162.237514700502
 20
2277.742907961858
 30
0.0
  0
POINT
  5
2A1F
330
2A15
100
AcDbEntity
  8
Defpoints
 62
     0
100
AcDbPoint
 10
3927.519214843037
 20
2083.00421681053
 30
0.0
  0
POINT
  5
2A20
330
2A15
100
AcDbEntity
  8
Defpoints
 62
     0
100
AcDbPoint
 10
3927.519214843037
 20
2065.616697926669
 30
0.0
  0
POINT
  5
2A21
330
2A15
100
AcDbEntity
  8
Defpoints
 62
     0
100
AcDbPoint
 10
3967.5932809832
 20
2083.097985225007
 30
0.0
  0
ENDBLK
  5
2A17
330
2A15
100
AcDbEntity
  8
0
100
AcDbBlockEnd
  0
BLOCK
  5
2A23
330
2A22
100
AcDbEntity
  8
0
100
AcDbBlockBegin
  2
*D61
 70
     1
 10
0.0
 20
0.0
 30
0.0
  3
*D61
  1
*D62
  0
LINE
  5
2A25
330
2A22
100
AcDbEntity
  8
Dim
  6
Continuous
 62
     0
370
    -2
100
AcDbLine
 10
4185.167485081613
 20
2390.525073264252
 30
0.0
 11
4278.491558819892
 21
2390.525073264252
 31
0.0
  0
LINE
  5
2A26
330
2A22
100
AcDbEntity
  8
Dim
  6
Continuous
 62
     0
370
    -2
100
AcDbLine
 10
3955.165179545023
 20
2065.524197051866
 30
0.0
 11
4278.491558819892
 21
2065.524197051866
 31
0.0
  0
LINE
  5
2A27
330
2A22
100
AcDbEntity
  8
Dim
  6
Continuous
 62
     0
370
    -2
100
AcDbLine
 10
4278.491558819892
 20
2382.525073264252
 30
0.0
 11
4278.491558819892
 21
2073.524197051866
 31
0.0
  0
INSERT
  5
2A28
330
2A22
100
AcDbEntity
  8
Dim
 62
     0
370
    -2
100
AcDbBlockReference
  2
_DOT
 10
4278.491558819892
 20
2390.525073264252
 30
0.0
 41
8.0
 42
8.0
 43
8.0
 50
90.0
  0
INSERT
  5
2A29
330
2A22
100
AcDbEntity
  8
Dim
 62
     0
370
    -2
100
AcDbBlockReference
  2
_DOT
 10
4278.491558819892
 20
2065.524197051866
 30
0.0
 41
8.0
 42
8.0
 43
8.0
 50
270.0
  0
MTEXT
  5
2A2A
330
2A22
100
AcDbEntity
  8
Dim
  6
Continuous
 62
     0
100
AcDbMText
 10
4246.491558819892
 20
2228.024635158059
 30
0.0
 40
24.0
 41
0.0
 46
0.0
 71
     5
 72
     1
  1
\A1;325
  7
ＭＳ ゴシック
 11
0.0
 21
1.0
 31
0.0
 73
     1
 44
1.0
  0
POINT
  5
2A2B
330
2A22
100
AcDbEntity
  8
Defpoints
 62
     0
100
AcDbPoint
 10
4155.167485081613
 20
2390.525073264252
 30
0.0
  0
POINT
  5
2A2C
330
2A22
100
AcDbEntity
  8
Defpoints
 62
     0
100
AcDbPoint
 10
3925.165179545023
 20
2065.524197051866
 30
0.0
  0
POINT
  5
2A2D
330
2A22
100
AcDbEntity
  8
Defpoints
 62
     0
100
AcDbPoint
 10
4278.491558819892
 20
2065.524197051866
 30
0.0
  0
ENDBLK
  5
2A24
330
2A22
100
AcDbEntity
  8
0
100
AcDbBlockEnd
  0
BLOCK
  5
2A2F
330
2A2E
100
AcDbEntity
  8
0
100
AcDbBlockBegin
  2
*D62
 70
     1
 10
0.0
 20
0.0
 30
0.0
  3
*D62
  1
*D63
  0
LINE
  5
2A31
330
2A2E
100
AcDbEntity
  8
Dim
  6
Continuous
 62
     0
370
    -2
100
AcDbLine
 10
4164.974989378978
 20
2190.054072635939
 30
0.0
 11
4164.974989378978
 21
1819.691991632177
 31
0.0
  0
LINE
  5
2A32
330
2A2E
100
AcDbEntity
  8
Dim
  6
Continuous
 62
     0
370
    -2
100
AcDbLine
 10
3685.165372569715
 20
2188.103630540269
 30
0.0
 11
3685.165372569715
 21
1819.691991632177
 31
0.0
  0
LINE
  5
2A33
330
2A2E
100
AcDbEntity
  8
Dim
  6
Continuous
 62
     0
370
    -2
100
AcDbLine
 10
4156.974989378978
 20
1819.691991632177
 30
0.0
 11
3693.165372569715
 21
1819.691991632177
 31
0.0
  0
INSERT
  5
2A34
330
2A2E
100
AcDbEntity
  8
Dim
 62
     0
370
    -2
100
AcDbBlockReference
  2
_DOT
 10
4164.974989378978
 20
1819.691991632177
 30
0.0
 41
8.0
 42
8.0
 43
8.0
  0
INSERT
  5
2A35
330
2A2E
100
AcDbEntity
  8
Dim
 62
     0
370
    -2
100
AcDbBlockReference
  2
_DOT
 10
3685.165372569715
 20
1819.691991632177
 30
0.0
 41
8.0
 42
8.0
 43
8.0
 50
180.0
  0
MTEXT
  5
2A36
330
2A2E
100
AcDbEntity
  8
Dim
  6
Continuous
 62
     0
100
AcDbMText
 10
3925.070180974346
 20
1851.691991632177
 30
0.0
 40
24.0
 41
0.0
 46
0.0
 71
     5
 72
     1
  1
\A1;480
  7
ＭＳ ゴシック
 73
     1
 44
1.0
  0
POINT
  5
2A37
330
2A2E
100
AcDbEntity
  8
Defpoints
 62
     0
100
AcDbPoint
 10
4164.974989378978
 20
2220.054072635939
 30
0.0
  0
POINT
  5
2A38
330
2A2E
100
AcDbEntity
  8
Defpoints
 62
     0
100
AcDbPoint
 10
3685.165372569715
 20
2218.103630540269
 30
0.0
  0
POINT
  5
2A39
330
2A2E
100
AcDbEntity
  8
Defpoints
 62
     0
100
AcDbPoint
 10
3685.165372569715
 20
1819.691991632177
 30
0.0
  0
ENDBLK
  5
2A30
330
2A2E
100
AcDbEntity
  8
0
100
AcDbBlockEnd
  0
BLOCK
  5
2A3B
330
2A3A
100
AcDbEntity
  8
0
100
AcDbBlockBegin
  2
*D63
 70
     1
 10
0.0
 20
0.0
 30
0.0
  3
*D63
  1
*D64
  0
LINE
  5
2A3D
330
2A3A
100
AcDbEntity
  8
Dim
  6
Continuous
 62
     0
370
    -2
100
AcDbLine
 10
3895.166557584126
 20
2125.525073264252
 30
0.0
 11
3590.814944096274
 21
2125.525073264252
 31
0.0
  0
LINE
  5
2A3E
330
2A3A
100
AcDbEntity
  8
Dim
  6
Continuous
 62
     0
370
    -2
100
AcDbLine
 10
3665.165630086639
 20
2390.525073264252
 30
0.0
 11
3590.814944096274
 21
2390.525073264252
 31
0.0
  0
LINE
  5
2A3F
330
2A3A
100
AcDbEntity
  8
Dim
  6
Continuous
 62
     0
370
    -2
100
AcDbLine
 10
3590.814944096274
 20
2133.525073264252
 30
0.0
 11
3590.814944096274
 21
2382.525073264252
 31
0.0
  0
INSERT
  5
2A40
330
2A3A
100
AcDbEntity
  8
Dim
 62
     0
370
    -2
100
AcDbBlockReference
  2
_DOT
 10
3590.814944096274
 20
2125.525073264252
 30
0.0
 41
8.0
 42
8.0
 43
8.0
 50
270.0
  0
INSERT
  5
2A41
330
2A3A
100
AcDbEntity
  8
Dim
 62
     0
370
    -2
100
AcDbBlockReference
  2
_DOT
 10
3590.814944096274
 20
2390.525073264252
 30
0.0
 41
8.0
 42
8.0
 43
8.0
 50
90.0
  0
MTEXT
  5
2A42
330
2A3A
100
AcDbEntity
  8
Dim
  6
Continuous
 62
     0
100
AcDbMText
 10
3558.814944096274
 20
2258.025073264252
 30
0.0
 40
24.0
 41
0.0
 46
0.0
 71
     5
 72
     1
  1
\A1;265
  7
ＭＳ ゴシック
 11
0.0
 21
1.0
 31
0.0
 73
     1
 44
1.0
  0
POINT
  5
2A43
330
2A3A
100
AcDbEntity
  8
Defpoints
 62
     0
100
AcDbPoint
 10
3925.166557584126
 20
2125.525073264252
 30
0.0
  0
POINT
  5
2A44
330
2A3A
100
AcDbEntity
  8
Defpoints
 62
     0
100
AcDbPoint
 10
3695.165630086639
 20
2390.525073264252
 30
0.0
  0
POINT
  5
2A45
330
2A3A
100
AcDbEntity
  8
Defpoints
 62
     0
100
AcDbPoint
 10
3590.814944096274
 20
2390.525073264252
 30
0.0
  0
ENDBLK
  5
2A3C
330
2A3A
100
AcDbEntity
  8
0
100
AcDbBlockEnd
  0
BLOCK
  5
2A47
330
2A46
100
AcDbEntity
  8
0
100
AcDbBlockBegin
  2
*D64
 70
     1
 10
0.0
 20
0.0
 30
0.0
  3
*D64
  1
*D65
  0
LINE
  5
2A49
330
2A46
100
AcDbEntity
  8
Dim
  6
Continuous
 62
     0
370
    -2
100
AcDbLine
 10
4185.167485081613
 20
2390.525073264252
 30
0.0
 11
4278.491558819892
 21
2390.525073264252
 31
0.0
  0
LINE
  5
2A4A
330
2A46
100
AcDbEntity
  8
Dim
  6
Continuous
 62
     0
370
    -2
100
AcDbLine
 10
4248.139925848008
 20
2405.525073264252
 30
0.0
 11
4278.491558819892
 21
2405.525073264252
 31
0.0
  0
LINE
  5
2A4B
330
2A46
100
AcDbEntity
  8
Dim
  6
Continuous
 62
     0
370
    -2
100
AcDbLine
 10
4278.491558819892
 20
2405.525073264252
 30
0.0
 11
4278.491558819892
 21
2487.829073264252
 31
0.0
  0
LINE
  5
2A4C
330
2A46
100
AcDbEntity
  8
Dim
  6
Continuous
 62
     0
370
    -2
100
AcDbLine
 10
4278.491558819892
 20
2398.525073264252
 30
0.0
 11
4278.491558819892
 21
2397.525073264252
 31
0.0
  0
INSERT
  5
2A4D
330
2A46
100
AcDbEntity
  8
Dim
 62
     0
370
    -2
100
AcDbBlockReference
  2
_DOT
 10
4278.491558819892
 20
2390.525073264252
 30
0.0
 41
8.0
 42
8.0
 43
8.0
 50
270.0
  0
INSERT
  5
2A4E
330
2A46
100
AcDbEntity
  8
Dim
 62
     0
370
    -2
100
AcDbBlockReference
  2
_DOT
 10
4278.491558819892
 20
2405.525073264252
 30
0.0
 41
8.0
 42
8.0
 43
8.0
 50
90.0
  0
MTEXT
  5
2A4F
330
2A46
100
AcDbEntity
  8
Dim
  6
Continuous
 62
     0
100
AcDbMText
 10
4246.491558819892
 20
2454.677073264252
 30
0.0
 40
24.0
 41
0.0
 46
0.0
 71
     5
 72
     1
  1
\A1;15
  7
ＭＳ ゴシック
 11
0.0
 21
1.0
 31
0.0
 73
     1
 44
1.0
  0
POINT
  5
2A50
330
2A46
100
AcDbEntity
  8
Defpoints
 62
     0
100
AcDbPoint
 10
4155.167485081613
 20
2390.525073264252
 30
0.0
  0
POINT
  5
2A51
330
2A46
100
AcDbEntity
  8
Defpoints
 62
     0
100
AcDbPoint
 10
4218.139925848008
 20
2405.525073264252
 30
0.0
  0
POINT
  5
2A52
330
2A46
100
AcDbEntity
  8
Defpoints
 62
     0
100
AcDbPoint
 10
4278.491558819892
 20
2405.525073264252
 30
0.0
  0
ENDBLK
  5
2A48
330
2A46
100
AcDbEntity
  8
0
100
AcDbBlockEnd
  0
BLOCK
  5
2A54
330
2A53
100
AcDbEntity
  8
0
100
AcDbBlockBegin
  2
*D65
 70
     1
 10
0.0
 20
0.0
 30
0.0
  3
*D65
  1
*D66
  0
LINE
  5
2A56
330
2A53
100
AcDbEntity
  8
Dim
  6
Continuous
 62
     0
370
    -2
100
AcDbLine
 10
2651.625850971469
 20
2405.232195592993
 30
0.0
 11
2560.801853946532
 21
2405.232195592993
 31
0.0
  0
LINE
  5
2A57
330
2A53
100
AcDbEntity
  8
Dim
  6
Continuous
 62
     0
370
    -2
100
AcDbLine
 10
2634.780829265666
 20
2314.398748106571
 30
0.0
 11
2560.801853946532
 21
2314.398748106571
 31
0.0
  0
LINE
  5
2A58
330
2A53
100
AcDbEntity
  8
Dim
  6
Continuous
 62
     0
370
    -2
100
AcDbLine
 10
2560.801853946532
 20
2397.232195592993
 30
0.0
 11
2560.801853946532
 21
2322.398748106571
 31
0.0
  0
INSERT
  5
2A59
330
2A53
100
AcDbEntity
  8
Dim
 62
     0
370
    -2
100
AcDbBlockReference
  2
_DOT
 10
2560.801853946532
 20
2405.232195592993
 30
0.0
 41
8.0
 42
8.0
 43
8.0
 50
90.0
  0
INSERT
  5
2A5A
330
2A53
100
AcDbEntity
  8
Dim
 62
     0
370
    -2
100
AcDbBlockReference
  2
_DOT
 10
2560.801853946532
 20
2314.398748106571
 30
0.0
 41
8.0
 42
8.0
 43
8.0
 50
270.0
  0
MTEXT
  5
2A5B
330
2A53
100
AcDbEntity
  8
Dim
  6
Continuous
 62
     0
100
AcDbMText
 10
2528.801853946532
 20
2359.815471849784
 30
0.0
 40
24.0
 41
0.0
 46
0.0
 71
     5
 72
     1
  1
\A1;90
  7
ＭＳ ゴシック
 11
0.0
 21
1.0
 31
0.0
 73
     1
 44
1.0
  0
POINT
  5
2A5C
330
2A53
100
AcDbEntity
  8
Defpoints
 62
     0
100
AcDbPoint
 10
2681.625850971469
 20
2405.232195592993
 30
0.0
  0
POINT
  5
2A5D
330
2A53
100
AcDbEntity
  8
Defpoints
 62
     0
100
AcDbPoint
 10
2664.780829265666
 20
2314.398748106571
 30
0.0
  0
POINT
  5
2A5E
330
2A53
100
AcDbEntity
  8
Defpoints
 62
     0
100
AcDbPoint
 10
2560.801853946532
 20
2314.398748106571
 30
0.0
  0
ENDBLK
  5
2A55
330
2A53
100
AcDbEntity
  8
0
100
AcDbBlockEnd
  0
BLOCK
  5
2AB2
330
2AB1
100
AcDbEntity
  8
0
100
AcDbBlockBegin
  2
*D66
 70
     1
 10
0.0
 20
0.0
 30
0.0
  3
*D66
  1
*D67
  0
LINE
  5
2AB4
330
2AB1
100
AcDbEntity
  8
Dim
  6
Continuous
 62
     0
370
    -2
100
AcDbLine
 10
1470.549181370829
 20
2025.814017556007
 30
0.0
 11
1470.549181370829
 21
2096.939207197603
 31
0.0
  0
ARC
  5
2AB5
330
2AB1
100
AcDbEntity
  8
Dim
  6
Continuous
 62
     0
370
    -2
100
AcDbCircle
 10
1470.549181370829
 20
1955.833577972457
 30
0.0
 40
141.1056292251453
100
AcDbArc
 50
48.24892748565937
 51
86.75117392459441
  0
INSERT
  5
2AB6
330
2AB1
100
AcDbEntity
  8
Dim
 62
     0
370
    -2
100
AcDbBlockReference
  2
_DOT
 10
1570.325752060229
 20
2055.610501860134
 30
0.0
 41
8.0
 42
8.0
 43
8.0
 50
316.6245144479566
  0
INSERT
  5
2AB7
330
2AB1
100
AcDbEntity
  8
Dim
 62
     0
370
    -2
100
AcDbBlockReference
  2
_DOT
 10
1470.549181370829
 20
2096.939207197603
 30
0.0
 41
8.0
 42
8.0
 43
8.0
 50
178.3755869622972
  0
MTEXT
  5
2AB8
330
2AB1
100
AcDbEntity
  8
Dim
  6
Continuous
 62
     0
100
AcDbMText
 10
1536.954422890228
 20
2116.150413946515
 30
0.0
 40
24.0
 41
0.0
 46
0.0
 71
     5
 72
     1
  1
\A1;45%%d
  7
ＭＳ ゴシック
 11
0.9238798711748225
 21
-0.3826826147579654
 31
0.0
 73
     1
 44
1.0
  0
POINT
  5
2AB9
330
2AB1
100
AcDbEntity
  8
Defpoints
 62
     0
100
AcDbPoint
 10
1541.10185179076
 20
2078.034720747968
 30
0.0
  0
POINT
  5
2ABA
330
2AB1
100
AcDbEntity
  8
Defpoints
 62
     0
100
AcDbPoint
 10
1705.267481228294
 20
2190.552708707334
 30
0.0
  0
POINT
  5
2ABB
330
2AB1
100
AcDbEntity
  8
Defpoints
 62
     0
100
AcDbPoint
 10
1470.549181370829
 20
1995.814017556007
 30
0.0
  0
POINT
  5
2ABC
330
2AB1
100
AcDbEntity
  8
Defpoints
 62
     0
100
AcDbPoint
 10
1470.549181370829
 20
1978.426498672146
 30
0.0
  0
POINT
  5
2ABD
330
2AB1
100
AcDbEntity
  8
Defpoints
 62
     0
100
AcDbPoint
 10
1510.623247510992
 20
1995.907785970483
 30
0.0
  0
ENDBLK
  5
2AB3
330
2AB1
100
AcDbEntity
  8
0
100
AcDbBlockEnd
  0
BLOCK
  5
2ABF
330
2ABE
100
AcDbEntity
  8
0
100
AcDbBlockBegin
  2
*D67
 70
     1
 10
0.0
 20
0.0
 30
0.0
  3
*D67
  1
*D68
  0
LINE
  5
2AC1
330
2ABE
100
AcDbEntity
  8
Dim
  6
Continuous
 62
     0
370
    -2
100
AcDbLine
 10
1728.197451609404
 20
2303.334874009728
 30
0.0
 11
1821.521525347684
 21
2303.334874009728
 31
0.0
  0
LINE
  5
2AC2
330
2ABE
100
AcDbEntity
  8
Dim
  6
Continuous
 62
     0
370
    -2
100
AcDbLine
 10
1498.195146072815
 20
1978.333997797343
 30
0.0
 11
1821.521525347684
 21
1978.333997797343
 31
0.0
  0
LINE
  5
2AC3
330
2ABE
100
AcDbEntity
  8
Dim
  6
Continuous
 62
     0
370
    -2
100
AcDbLine
 10
1821.521525347684
 20
2295.334874009728
 30
0.0
 11
1821.521525347684
 21
1986.333997797343
 31
0.0
  0
INSERT
  5
2AC4
330
2ABE
100
AcDbEntity
  8
Dim
 62
     0
370
    -2
100
AcDbBlockReference
  2
_DOT
 10
1821.521525347684
 20
2303.334874009728
 30
0.0
 41
8.0
 42
8.0
 43
8.0
 50
90.0
  0
INSERT
  5
2AC5
330
2ABE
100
AcDbEntity
  8
Dim
 62
     0
370
    -2
100
AcDbBlockReference
  2
_DOT
 10
1821.521525347684
 20
1978.333997797343
 30
0.0
 41
8.0
 42
8.0
 43
8.0
 50
270.0
  0
MTEXT
  5
2AC6
330
2ABE
100
AcDbEntity
  8
Dim
  6
Continuous
 62
     0
100
AcDbMText
 10
1789.521525347684
 20
2140.834435903535
 30
0.0
 40
24.0
 41
0.0
 46
0.0
 71
     5
 72
     1
  1
\A1;325
  7
ＭＳ ゴシック
 11
0.0
 21
1.0
 31
0.0
 73
     1
 44
1.0
  0
POINT
  5
2AC7
330
2ABE
100
AcDbEntity
  8
Defpoints
 62
     0
100
AcDbPoint
 10
1698.197451609404
 20
2303.334874009728
 30
0.0
  0
POINT
  5
2AC8
330
2ABE
100
AcDbEntity
  8
Defpoints
 62
     0
100
AcDbPoint
 10
1468.195146072815
 20
1978.333997797343
 30
0.0
  0
POINT
  5
2AC9
330
2ABE
100
AcDbEntity
  8
Defpoints
 62
     0
100
AcDbPoint
 10
1821.521525347684
 20
1978.333997797343
 30
0.0
  0
ENDBLK
  5
2AC0
330
2ABE
100
AcDbEntity
  8
0
100
AcDbBlockEnd
  0
BLOCK
  5
2ACB
330
2ACA
100
AcDbEntity
  8
0
100
AcDbBlockBegin
  2
*D68
 70
     1
 10
0.0
 20
0.0
 30
0.0
  3
*D68
  1
*D69
  0
LINE
  5
2ACD
330
2ACA
100
AcDbEntity
  8
Dim
  6
Continuous
 62
     0
370
    -2
100
AcDbLine
 10
1708.004955906769
 20
2102.863873381415
 30
0.0
 11
1708.004955906769
 21
1732.501792377653
 31
0.0
  0
LINE
  5
2ACE
330
2ACA
100
AcDbEntity
  8
Dim
  6
Continuous
 62
     0
370
    -2
100
AcDbLine
 10
1228.195339097507
 20
2100.913431285746
 30
0.0
 11
1228.195339097507
 21
1732.501792377653
 31
0.0
  0
LINE
  5
2ACF
330
2ACA
100
AcDbEntity
  8
Dim
  6
Continuous
 62
     0
370
    -2
100
AcDbLine
 10
1700.004955906769
 20
1732.501792377653
 30
0.0
 11
1236.195339097507
 21
1732.501792377653
 31
0.0
  0
INSERT
  5
2AD0
330
2ACA
100
AcDbEntity
  8
Dim
 62
     0
370
    -2
100
AcDbBlockReference
  2
_DOT
 10
1708.004955906769
 20
1732.501792377653
 30
0.0
 41
8.0
 42
8.0
 43
8.0
  0
INSERT
  5
2AD1
330
2ACA
100
AcDbEntity
  8
Dim
 62
     0
370
    -2
100
AcDbBlockReference
  2
_DOT
 10
1228.195339097507
 20
1732.501792377653
 30
0.0
 41
8.0
 42
8.0
 43
8.0
 50
180.0
  0
MTEXT
  5
2AD2
330
2ACA
100
AcDbEntity
  8
Dim
  6
Continuous
 62
     0
100
AcDbMText
 10
1468.100147502138
 20
1764.501792377653
 30
0.0
 40
24.0
 41
0.0
 46
0.0
 71
     5
 72
     1
  1
\A1;480
  7
ＭＳ ゴシック
 73
     1
 44
1.0
  0
POINT
  5
2AD3
330
2ACA
100
AcDbEntity
  8
Defpoints
 62
     0
100
AcDbPoint
 10
1708.004955906769
 20
2132.863873381415
 30
0.0
  0
POINT
  5
2AD4
330
2ACA
100
AcDbEntity
  8
Defpoints
 62
     0
100
AcDbPoint
 10
1228.195339097507
 20
2130.913431285746
 30
0.0
  0
POINT
  5
2AD5
330
2ACA
100
AcDbEntity
  8
Defpoints
 62
     0
100
AcDbPoint
 10
1228.195339097507
 20
1732.501792377653
 30
0.0
  0
ENDBLK
  5
2ACC
330
2ACA
100
AcDbEntity
  8
0
100
AcDbBlockEnd
  0
BLOCK
  5
2AD7
330
2AD6
100
AcDbEntity
  8
0
100
AcDbBlockBegin
  2
*D69
 70
     1
 10
0.0
 20
0.0
 30
0.0
  3
*D69
  1
*D70
  0
LINE
  5
2AD9
330
2AD6
100
AcDbEntity
  8
Dim
  6
Continuous
 62
     0
370
    -2
100
AcDbLine
 10
1728.197451609404
 20
2303.334874009728
 30
0.0
 11
1821.521525347684
 21
2303.334874009728
 31
0.0
  0
LINE
  5
2ADA
330
2AD6
100
AcDbEntity
  8
Dim
  6
Continuous
 62
     0
370
    -2
100
AcDbLine
 10
1791.169892375799
 20
2318.334874009728
 30
0.0
 11
1821.521525347684
 21
2318.334874009728
 31
0.0
  0
LINE
  5
2ADB
330
2AD6
100
AcDbEntity
  8
Dim
  6
Continuous
 62
     0
370
    -2
100
AcDbLine
 10
1821.521525347684
 20
2318.334874009728
 30
0.0
 11
1821.521525347684
 21
2400.638874009728
 31
0.0
  0
LINE
  5
2ADC
330
2AD6
100
AcDbEntity
  8
Dim
  6
Continuous
 62
     0
370
    -2
100
AcDbLine
 10
1821.521525347684
 20
2311.334874009728
 30
0.0
 11
1821.521525347684
 21
2310.334874009728
 31
0.0
  0
INSERT
  5
2ADD
330
2AD6
100
AcDbEntity
  8
Dim
 62
     0
370
    -2
100
AcDbBlockReference
  2
_DOT
 10
1821.521525347684
 20
2303.334874009728
 30
0.0
 41
8.0
 42
8.0
 43
8.0
 50
270.0
  0
INSERT
  5
2ADE
330
2AD6
100
AcDbEntity
  8
Dim
 62
     0
370
    -2
100
AcDbBlockReference
  2
_DOT
 10
1821.521525347684
 20
2318.334874009728
 30
0.0
 41
8.0
 42
8.0
 43
8.0
 50
90.0
  0
MTEXT
  5
2ADF
330
2AD6
100
AcDbEntity
  8
Dim
  6
Continuous
 62
     0
100
AcDbMText
 10
1789.521525347684
 20
2367.486874009728
 30
0.0
 40
24.0
 41
0.0
 46
0.0
 71
     5
 72
     1
  1
\A1;15
  7
ＭＳ ゴシック
 11
0.0
 21
1.0
 31
0.0
 73
     1
 44
1.0
  0
POINT
  5
2AE0
330
2AD6
100
AcDbEntity
  8
Defpoints
 62
     0
100
AcDbPoint
 10
1698.197451609404
 20
2303.334874009728
 30
0.0
  0
POINT
  5
2AE1
330
2AD6
100
AcDbEntity
  8
Defpoints
 62
     0
100
AcDbPoint
 10
1761.169892375799
 20
2318.334874009728
 30
0.0
  0
POINT
  5
2AE2
330
2AD6
100
AcDbEntity
  8
Defpoints
 62
     0
100
AcDbPoint
 10
1821.521525347684
 20
2318.334874009728
 30
0.0
  0
ENDBLK
  5
2AD8
330
2AD6
100
AcDbEntity
  8
0
100
AcDbBlockEnd
  0
BLOCK
  5
2AE4
330
2AE3
100
AcDbEntity
  8
0
100
AcDbBlockBegin
  2
*D70
 70
     1
 10
0.0
 20
0.0
 30
0.0
  3
*D70
  1
*D71
  0
LINE
  5
2AE6
330
2AE3
100
AcDbEntity
  8
Dim
  6
Continuous
 62
     0
370
    -2
100
AcDbLine
 10
1438.196524111918
 20
2038.334874009728
 30
0.0
 11
1133.844910624066
 21
2038.334874009728
 31
0.0
  0
LINE
  5
2AE7
330
2AE3
100
AcDbEntity
  8
Dim
  6
Continuous
 62
     0
370
    -2
100
AcDbLine
 10
1208.195596614431
 20
2303.334874009728
 30
0.0
 11
1133.844910624066
 21
2303.334874009728
 31
0.0
  0
LINE
  5
2AE8
330
2AE3
100
AcDbEntity
  8
Dim
  6
Continuous
 62
     0
370
    -2
100
AcDbLine
 10
1133.844910624066
 20
2046.334874009728
 30
0.0
 11
1133.844910624066
 21
2295.334874009728
 31
0.0
  0
INSERT
  5
2AE9
330
2AE3
100
AcDbEntity
  8
Dim
 62
     0
370
    -2
100
AcDbBlockReference
  2
_DOT
 10
1133.844910624066
 20
2038.334874009728
 30
0.0
 41
8.0
 42
8.0
 43
8.0
 50
270.0
  0
INSERT
  5
2AEA
330
2AE3
100
AcDbEntity
  8
Dim
 62
     0
370
    -2
100
AcDbBlockReference
  2
_DOT
 10
1133.844910624066
 20
2303.334874009728
 30
0.0
 41
8.0
 42
8.0
 43
8.0
 50
90.0
  0
MTEXT
  5
2AEB
330
2AE3
100
AcDbEntity
  8
Dim
  6
Continuous
 62
     0
100
AcDbMText
 10
1101.844910624066
 20
2170.834874009728
 30
0.0
 40
24.0
 41
0.0
 46
0.0
 71
     5
 72
     1
  1
\A1;265
  7
ＭＳ ゴシック
 11
0.0
 21
1.0
 31
0.0
 73
     1
 44
1.0
  0
POINT
  5
2AEC
330
2AE3
100
AcDbEntity
  8
Defpoints
 62
     0
100
AcDbPoint
 10
1468.196524111918
 20
2038.334874009728
 30
0.0
  0
POINT
  5
2AED
330
2AE3
100
AcDbEntity
  8
Defpoints
 62
     0
100
AcDbPoint
 10
1238.195596614431
 20
2303.334874009728
 30
0.0
  0
POINT
  5
2AEE
330
2AE3
100
AcDbEntity
  8
Defpoints
 62
     0
100
AcDbPoint
 10
1133.844910624066
 20
2303.334874009728
 30
0.0
  0
ENDBLK
  5
2AE5
330
2AE3
100
AcDbEntity
  8
0
100
AcDbBlockEnd
  0
BLOCK
  5
2AF4
330
2AF3
100
AcDbEntity
  8
0
100
AcDbBlockBegin
  2
*D71
 70
     1
 10
0.0
 20
0.0
 30
0.0
  3
*D71
  1
*D72
  0
LINE
  5
2AF6
330
2AF3
100
AcDbEntity
  8
Dim
  6
Continuous
 62
     0
370
    -2
100
AcDbLine
 10
203.143151489871
 20
2227.232494671609
 30
0.0
 11
154.3466238880593
 21
2227.232494671609
 31
0.0
  0
LINE
  5
2AF7
330
2AF3
100
AcDbEntity
  8
Dim
  6
Continuous
 62
     0
370
    -2
100
AcDbLine
 10
203.143151489871
 20
2317.232494671609
 30
0.0
 11
154.3466238880593
 21
2317.232494671609
 31
0.0
  0
LINE
  5
2AF8
330
2AF3
100
AcDbEntity
  8
Dim
  6
Continuous
 62
     0
370
    -2
100
AcDbLine
 10
154.3466238880593
 20
2236.232494671609
 30
0.0
 11
154.3466238880593
 21
2308.232494671609
 31
0.0
  0
INSERT
  5
2AF9
330
2AF3
100
AcDbEntity
  8
Dim
 62
     0
370
    -2
100
AcDbBlockReference
  2
_DOT
 10
154.3466238880593
 20
2227.232494671609
 30
0.0
 41
9.0
 42
9.0
 43
9.0
 50
270.0
  0
INSERT
  5
2AFA
330
2AF3
100
AcDbEntity
  8
Dim
 62
     0
370
    -2
100
AcDbBlockReference
  2
_DOT
 10
154.3466238880593
 20
2317.232494671609
 30
0.0
 41
9.0
 42
9.0
 43
9.0
 50
90.0
  0
MTEXT
  5
2AFB
330
2AF3
100
AcDbEntity
  8
Dim
  6
Continuous
 62
     0
100
AcDbMText
 10
132.1303152943093
 20
2272.232494671609
 30
0.0
 40
24.4326171875
 41
0.0
 46
0.0
 71
     5
 72
     1
  1
\A1;90
  7
ＭＳ ゴシック
 11
0.0
 21
1.0
 31
0.0
 73
     1
 44
1.0
  0
POINT
  5
2AFC
330
2AF3
100
AcDbEntity
  8
Defpoints
 62
     0
100
AcDbPoint
 10
228.143151489871
 20
2227.232494671609
 30
0.0
  0
POINT
  5
2AFD
330
2AF3
100
AcDbEntity
  8
Defpoints
 62
     0
100
AcDbPoint
 10
228.143151489871
 20
2317.232494671609
 30
0.0
  0
POINT
  5
2AFE
330
2AF3
100
AcDbEntity
  8
Defpoints
 62
     0
100
AcDbPoint
 10
154.3466238880593
 20
2317.232494671609
 30
0.0
  0
ENDBLK
  5
2AF5
330
2AF3
100
AcDbEntity
  8
0
100
AcDbBlockEnd
  0
BLOCK
  5
2B04
330
2B03
100
AcDbEntity
  8
0
100
AcDbBlockBegin
  2
*D72
 70
     1
 10
0.0
 20
0.0
 30
0.0
  3
*D72
  1
*D73
  0
LINE
  5
2B06
330
2B03
100
AcDbEntity
  8
Dim
  6
Continuous
 62
     0
370
    -2
100
AcDbLine
 10
1248.999407903719
 20
902.506761241599
 30
0.0
 11
1218.069528638858
 21
902.506761241599
 31
0.0
  0
LINE
  5
2B07
330
2B03
100
AcDbEntity
  8
Dim
  6
Continuous
 62
     0
370
    -2
100
AcDbLine
 10
1418.243574062143
 20
899.506761241599
 30
0.0
 11
1218.069528638858
 21
899.506761241599
 31
0.0
  0
INSERT
  5
2B08
330
2B03
100
AcDbEntity
  8
Dim
 62
     0
370
    -2
100
AcDbBlockReference
  2
_DOT
 10
1218.069528638858
 20
902.506761241599
 30
0.0
 41
9.0
 42
9.0
 43
9.0
 50
90.0
  0
INSERT
  5
2B09
330
2B03
100
AcDbEntity
  8
Dim
 62
     0
370
    -2
100
AcDbBlockReference
  2
_DOT
 10
1218.069528638858
 20
899.506761241599
 30
0.0
 41
9.0
 42
9.0
 43
9.0
 50
270.0
  0
MTEXT
  5
2B0A
330
2B03
100
AcDbEntity
  8
Dim
  6
Continuous
 62
     0
100
AcDbMText
 10
1195.853220045108
 20
901.006761241599
 30
0.0
 40
24.4326171875
 41
0.0
 46
0.0
 71
     5
 72
     1
  1
\A1;3
  7
ＭＳ ゴシック
 11
0.0
 21
1.0
 31
0.0
 73
     1
 44
1.0
  0
POINT
  5
2B0B
330
2B03
100
AcDbEntity
  8
Defpoints
 62
     0
100
AcDbPoint
 10
1273.999407903719
 20
902.506761241599
 30
0.0
  0
POINT
  5
2B0C
330
2B03
100
AcDbEntity
  8
Defpoints
 62
     0
100
AcDbPoint
 10
1443.243574062143
 20
899.506761241599
 30
0.0
  0
POINT
  5
2B0D
330
2B03
100
AcDbEntity
  8
Defpoints
 62
     0
100
AcDbPoint
 10
1218.069528638858
 20
899.506761241599
 30
0.0
  0
ENDBLK
  5
2B05
330
2B03
100
AcDbEntity
  8
0
100
AcDbBlockEnd
  0
ENDSEC
  0
SECTION
  2
ENTITIES
  0
MTEXT
  5
177
330
A
100
AcDbEntity
  8
template
390
1D
100
AcDbMText
 10
82.00000000048226
 20
348.023957835319
 30
0.0
 40
16.28841145833333
 41
0.0
 46
0.0
 71
     1
 72
     1
  1
品名
  7
ＭＳ ゴシック
 73
     1
 44
0.7828267384257843
  0
MTEXT
  5
178
330
A
100
AcDbEntity
  8
template
390
1D
100
AcDbMText
 10
82.00000000048226
 20
263.0239578353188
 30
0.0
 40
16.28841145833333
 41
0.0
 46
0.0
 71
     1
 72
     1
  1
仕様
  7
ＭＳ ゴシック
 73
     1
 44
0.7828267384257843
  0
LINE
  5
179
330
A
100
AcDbEntity
  8
template
390
1D
100
AcDbLine
 10
2025.0
 20
271.4388797103189
 30
0.0
 11
75.00000000000023
 21
271.4388797103189
 31
0.0
  0
LWPOLYLINE
  5
17A
330
A
100
AcDbEntity
  8
template
390
1D
100
AcDbPolyline
 90
        5
 70
   128
 43
0.0
 10
2025.0
 20
2901.438879710319
 10
75.00000000000023
 20
2901.438879710319
 10
75.00000000000023
 20
101.4388797103188
 10
2025.0
 20
101.4388797103188
 10
2025.0
 20
2901.438879710319
  0
LINE
  5
17B
330
A
100
AcDbEntity
  8
template
390
1D
100
AcDbLine
 10
2025.0
 20
356.4388797103188
 30
0.0
 11
75.00000000000023
 21
356.4388797103188
 31
0.0
  0
LINE
  5
17C
330
A
100
AcDbEntity
  8
template
390
1D
100
AcDbLine
 10
2025.000000000482
 20
186.4388797103189
 30
0.0
 11
1272.000000000482
 21
186.4388797103189
 31
0.0
  0
MTEXT
  5
17E
330
A
100
AcDbEntity
  8
template
390
1D
100
AcDbMText
 10
1301.871406252743
 20
156.5284852370108
 30
0.0
 40
24.4326171875
 41
0.0
 46
0.0
 71
     1
 72
     1
  1
大洋金物株式会社 ティーフォルム事業部
  7
ＭＳ ゴシック
 73
     1
 44
0.7828267384257843
  0
MTEXT
  5
180
330
A
100
AcDbEntity
  8
template
390
1D
100
AcDbMText
 10
1834.000000000742
 20
234.4414968978188
 30
0.0
 40
24.4326171875
 41
0.0
 46
0.0
 71
     1
 72
     1
  1
1:10
  7
ＭＳ ゴシック
 73
     1
 44
0.7828267384257843
  0
MTEXT
  5
181
330
A
100
AcDbEntity
  8
template
390
1D
100
AcDbMText
 10
1781.000000000742
 20
263.0239578353188
 30
0.0
 40
16.28841145833333
 41
0.0
 46
0.0
 71
     1
 72
     1
  1
縮尺
  7
ＭＳ ゴシック
 73
     1
 44
0.7828267384257843
  0
LINE
  5
182
330
A
100
AcDbEntity
  8
template
390
1D
100
AcDbLine
 10
1774.000000000742
 20
186.4388797103189
 30
0.0
 11
1774.000000000742
 21
271.4388797103189
 31
0.0
  0
MTEXT
  5
183
330
A
100
AcDbEntity
  8
template
390
1D
100
AcDbMText
 10
1530.000000000742
 20
263.0239578353188
 30
0.0
 40
16.28841145833333
 41
0.0
 46
0.0
 71
     1
 72
     1
  1
容量
  7
ＭＳ ゴシック
 73
     1
 44
0.7828267384257843
  0
LINE
  5
184
330
A
100
AcDbEntity
  8
template
390
1D
100
AcDbLine
 10
1523.000000000742
 20
186.4388797103189
 30
0.0
 11
1523.000000000742
 21
271.4388797103189
 31
0.0
  0
MTEXT
  5
185
330
A
100
AcDbEntity
  8
template
390
1D
100
AcDbMText
 10
1279.000000000742
 20
348.023957835319
 30
0.0
 40
16.28841145833333
 41
0.0
 46
0.0
 71
     1
 72
     1
  1
品番
  7
ＭＳ ゴシック
 73
     1
 44
0.7828267384257843
  0
MTEXT
  5
186
330
A
100
AcDbEntity
  8
template
390
1D
100
AcDbMText
 10
1279.000000000742
 20
263.0239578353188
 30
0.0
 40
16.28841145833333
 41
0.0
 46
0.0
 71
     1
 72
     1
  1
重量
  7
ＭＳ ゴシック
 73
     1
 44
0.7828267384257843
  0
MTEXT
  5
187
330
A
100
AcDbEntity
  8
template
390
1D
100
AcDbMText
 10
1332.000000000742
 20
319.4414968978188
 30
0.0
 40
24.4326171875
 41
0.0
 46
24.4326171875
 71
     1
 72
     1
  1
{FLN70-6503}
  7
ＭＳ ゴシック
 73
     1
 44
0.7828267384257843
1001
ACAD
1000
ACAD_MTEXT_DEFINED_HEIGHT_BEGIN
1070
    46
1040
24.4326171875
1000
ACAD_MTEXT_DEFINED_HEIGHT_END
  0
LINE
  5
188
330
A
100
AcDbEntity
  8
template
390
1D
100
AcDbLine
 10
1272.000000000742
 20
101.4388797103188
 30
0.0
 11
1272.000000000742
 21
356.4388797103188
 31
0.0
  0
MTEXT
  5
189
330
A
100
AcDbEntity
  8
template
390
1D
100
AcDbMText
 10
135.0000000004822
 20
319.4414968978188
 30
0.0
 40
24.4326171875
 41
0.0
 46
27.5355595703125
 71
     1
 72
     1
  1
{洗面器 -KALDEWEI, Puro-}
  7
ＭＳ ゴシック
 73
     1
 44
0.7828267384257843
1001
ACAD
1000
ACAD_MTEXT_DEFINED_HEIGHT_BEGIN
1070
    46
1040
27.5355595703125
1000
ACAD_MTEXT_DEFINED_HEIGHT_END
  0
MTEXT
  5
18A
330
A
100
AcDbEntity
  8
template
390
1D
100
AcDbMText
 10
135.0000000004822
 20
234.4414968978188
 30
0.0
 40
24.4326171875
 41
0.0
 46
111.236517578125
 71
     1
 72
     1
  1
{カウンター置き/オーバーフロー付/型紙、オーバーフロー部品、\P水栓取付用スペーサー付属/\Pホーロー、背面ホーロー仕上げ/ホワイト}
  7
ＭＳ ゴシック
 73
     1
 44
0.9822934569727008
1001
ACAD
1000
ACAD_MTEXT_DEFINED_HEIGHT_BEGIN
1070
    46
1040
111.236517578125
1000
ACAD_MTEXT_DEFINED_HEIGHT_END
  0
MTEXT
  5
1A6
330
A
100
AcDbEntity
  8
template
390
1D
100
AcDbMText
 10
1332.000000000742
 20
234.4414968978188
 30
0.0
 40
24.4326171875
 41
0.0
 46
28.390701171875
 71
     1
 72
     1
  1
{12.7kg}
  7
ＭＳ ゴシック
 73
     1
 44
0.7828267384257843
1001
ACAD
1000
ACAD_MTEXT_DEFINED_HEIGHT_BEGIN
1070
    46
1040
28.390701171875
1000
ACAD_MTEXT_DEFINED_HEIGHT_END
  0
MTEXT
  5
374
330
A
100
AcDbEntity
  8
template
390
1D
100
AcDbMText
 10
1581.992122669024
 20
234.4414968978188
 30
0.0
 40
24.4326171875
 41
0.0
 46
24.4326171875
 71
     1
 72
     1
  1
{8.5L}
  7
ＭＳ ゴシック
 73
     1
 44
0.7828267384257843
1001
ACAD
1000
ACAD_MTEXT_DEFINED_HEIGHT_BEGIN
1070
    46
1040
24.4326171875
1000
ACAD_MTEXT_DEFINED_HEIGHT_END
  0
INSERT
  5
3D0
330
A
100
AcDbEntity
  8
template
100
AcDbBlockReference
  2
名称未設定-1
 10
1873.559250554905
 20
30.23897196054438
 30
0.0
 41
0.7619999999999999
 42
0.7619999999999999
 43
0.7619999999999999
  0
MTEXT
  5
BDB
102
{ACAD_XDICTIONARY
360
BDC
102
}
330
A
100
AcDbEntity
  8
template
  6
Continuous
100
AcDbMText
 10
78.95663872901252
 20
86.10730750352229
 30
0.0
 40
23.0
 41
0.0
 46
23.0
 71
     1
 72
     1
  1
{20180111N}
  7
ＭＳ ゴシック
 73
     1
 44
1.0
1001
ACAD
1000
ACAD_MTEXT_DEFINED_HEIGHT_BEGIN
1070
    46
1040
23.0
1000
ACAD_MTEXT_DEFINED_HEIGHT_END
  0
LWPOLYLINE
  5
BEE
330
A
100
AcDbEntity
  8
PRINT BORDER
100
AcDbPolyline
 90
        4
 70
     1
 43
0.0
 10
0.0
 20
0.0
 10
0.0
 20
2970.0
 10
2100.0
 20
2970.0
 10
2100.0
 20
0.0
  0
INSERT
  5
1273
330
A
100
AcDbEntity
  8
0
 62
     7
100
AcDbBlockReference
  2
BLOCK_2
 10
591.2037060744204
 20
943.564364962162
 30
0.0
  0
INSERT
  5
127B
330
A
100
AcDbEntity
  8
0
 62
     7
100
AcDbBlockReference
  2
BLOCK_2
 10
1291.863324028138
 20
1038.76992320659
 30
0.0
  0
INSERT
  5
127C
330
A
100
AcDbEntity
  8
0
 62
     7
100
AcDbBlockReference
  2
BLOCK_2
 10
652.1648429406905
 20
1595.641631888467
 30
0.0
  0
MTEXT
  5
13DA
330
A
100
AcDbEntity
  8
Dim
390
1D
100
AcDbMText
 10
1325.902731094456
 20
2537.113649804615
 30
34.99521132346015
 40
24.0
 41
0.0
 46
27.413396484375
 71
     1
 72
     1
  1
{カウンター切込寸法}
  7
ＭＳ ゴシック
 73
     1
 44
0.7828267384257843
1001
ACAD
1000
ACAD_MTEXT_DEFINED_HEIGHT_BEGIN
1070
    46
1040
27.413396484375
1000
ACAD_MTEXT_DEFINED_HEIGHT_END
  0
CIRCLE
  5
142C
330
A
100
AcDbEntity
  8
Dim
  6
Continuous
100
AcDbCircle
 10
1366.841726484681
 20
1758.85027442579
 30
0.0
 40
0.0
  0
SPLINE
  5
1D0E
330
A
100
AcDbEntity
  8
MODEL
100
AcDbSpline
210
0.0
220
0.0
230
1.0
 70
    11
 71
     3
 72
    29
 73
    25
 74
     0
 42
0.000000001
 43
0.0000000001
 40
0.0
 40
0.0
 40
0.0
 40
0.0
 40
1.0
 40
1.0
 40
1.0
 40
2.0
 40
2.0
 40
2.0
 40
3.0
 40
3.0
 40
3.0
 40
4.0
 40
4.0
 40
4.0
 40
5.0
 40
5.0
 40
5.0
 40
6.0
 40
6.0
 40
6.0
 40
7.0
 40
7.0
 40
7.0
 40
8.0
 40
8.0
 40
8.0
 40
8.0
 10
829.7346012547921
 20
1858.045653513134
 30
0.0
 10
829.7346012547921
 20
1858.045653513134
 30
0.0
 10
235.4424033277166
 20
1858.045653513134
 30
0.0
 10
235.4424033277166
 20
1858.045653513134
 30
0.0
 10
233.8645419186362
 20
1858.045653513134
 30
0.0
 10
232.5898503872834
 20
1859.320345044488
 30
0.0
 10
232.5898503872834
 20
1860.898206453569
 30
0.0
 10
232.5898503872834
 20
1860.898206453569
 30
0.0
 10
232.5898503872834
 20
2315.193100559472
 30
0.0
 10
232.5898503872834
 20
2315.193100559472
 30
0.0
 10
232.5898503872834
 20
2316.765794300182
 30
0.0
 10
233.8645419186362
 20
2318.043930943782
 30
0.0
 10
235.4424033277166
 20
2318.043930943782
 30
0.0
 10
235.4424033277166
 20
2318.043930943782
 30
0.0
 10
829.7346012547921
 20
2318.043930943782
 30
0.0
 10
829.7346012547921
 20
2318.043930943782
 30
0.0
 10
831.3124626638721
 20
2318.043930943782
 30
0.0
 10
832.5905993074723
 20
2316.765794300182
 30
0.0
 10
832.5905993074723
 20
2315.193100559472
 30
0.0
 10
832.5905993074723
 20
2315.193100559472
 30
0.0
 10
832.5905993074723
 20
1860.898206453569
 30
0.0
 10
832.5905993074723
 20
1860.898206453569
 30
0.0
 10
832.5905993074723
 20
1859.320345044488
 30
0.0
 10
831.3124626638721
 20
1858.045653513134
 30
0.0
 10
829.7346012547921
 20
1858.045653513134
 30
0.0
  0
SPLINE
  5
1D10
330
A
100
AcDbEntity
  8
MODEL
100
AcDbSpline
210
0.0
220
0.0
230
1.0
 70
    11
 71
     3
 72
    17
 73
    13
 74
     0
 42
0.000000001
 43
0.0000000001
 40
0.0
 40
0.0
 40
0.0
 40
0.0
 40
1.0
 40
1.0
 40
1.0
 40
2.0
 40
2.0
 40
2.0
 40
3.0
 40
3.0
 40
3.0
 40
4.0
 40
4.0
 40
4.0
 40
4.0
 10
515.0890546331232
 20
2272.520217713239
 30
0.0
 10
515.0890546331232
 20
2282.187202678042
 30
0.0
 10
522.923239882575
 20
2290.017942815247
 30
0.0
 10
532.5867797351309
 20
2290.017942815247
 30
0.0
 10
542.2572098121802
 20
2290.017942815247
 30
0.0
 10
550.0879499493851
 20
2282.187202678042
 30
0.0
 10
550.0879499493851
 20
2272.520217713239
 30
0.0
 10
550.0879499493851
 20
2262.854955304559
 30
0.0
 10
542.2572098121802
 20
2255.019047498985
 30
0.0
 10
532.5867797351309
 20
2255.019047498985
 30
0.0
 10
522.923239882575
 20
2255.019047498985
 30
0.0
 10
515.0890546331232
 20
2262.854955304559
 30
0.0
 10
515.0890546331232
 20
2272.520217713239
 30
0.0
  0
SPLINE
  5
1D12
330
A
100
AcDbEntity
  8
MODEL
100
AcDbSpline
210
0.0
220
0.0
230
1.0
 70
     8
 71
     3
 72
     8
 73
     4
 74
     0
 42
0.000000001
 43
0.0000000001
 40
0.0
 40
0.0
 40
0.0
 40
0.0
 40
1.0
 40
1.0
 40
1.0
 40
1.0
 10
832.5905993074723
 20
2315.044960732855
 30
0.0
 10
832.5905993074723
 20
2316.700337167491
 30
0.0
 10
831.2470055311812
 20
2318.043930943782
 30
0.0
 10
829.5864614281752
 20
2318.043930943782
 30
0.0
  0
SPLINE
  5
1D13
330
A
100
AcDbEntity
  8
MODEL
100
AcDbSpline
210
0.0
220
0.0
230
1.0
 70
     8
 71
     3
 72
     8
 73
     4
 74
     0
 42
0.000000001
 43
0.0000000001
 40
0.0
 40
0.0
 40
0.0
 40
0.0
 40
1.0
 40
1.0
 40
1.0
 40
1.0
 10
235.5870980420866
 20
2318.045653499906
 30
0.0
 10
233.9299990513275
 20
2318.045653499906
 30
0.0
 10
232.5864052750364
 20
2316.702059723614
 30
0.0
 10
232.5864052750364
 20
2315.043238176732
 30
0.0
  0
SPLINE
  5
1D14
330
A
100
AcDbEntity
  8
MODEL
100
AcDbSpline
210
0.0
220
0.0
230
1.0
 70
     8
 71
     3
 72
     8
 73
     4
 74
     0
 42
0.000000001
 43
0.0000000001
 40
0.0
 40
0.0
 40
0.0
 40
0.0
 40
1.0
 40
1.0
 40
1.0
 40
1.0
 10
829.5899065404221
 20
1858.045653513134
 30
0.0
 10
831.2435604189343
 20
1858.045653513134
 30
0.0
 10
832.5871541952254
 20
1859.382357064932
 30
0.0
 10
832.5871541952254
 20
1861.042901167938
 30
0.0
  0
SPLINE
  5
1D15
330
A
100
AcDbEntity
  8
MODEL
100
AcDbSpline
210
0.0
220
0.0
230
1.0
 70
     8
 71
     3
 72
     8
 73
     4
 74
     0
 42
0.000000001
 43
0.0000000001
 40
0.0
 40
0.0
 40
0.0
 40
0.0
 40
1.0
 40
1.0
 40
1.0
 40
1.0
 10
232.5864052750364
 20
1861.042901167938
 30
0.0
 10
232.5864052750364
 20
1859.389247289426
 30
0.0
 10
233.9265539390806
 20
1858.045653513134
 30
0.0
 10
235.5836529298397
 20
1858.045653513134
 30
0.0
  0
SPLINE
  5
1D16
330
A
100
AcDbEntity
  8
MODEL
100
AcDbSpline
210
0.0
220
0.0
230
1.0
 70
     8
 71
     3
 72
    11
 73
     7
 74
     0
 42
0.000000001
 43
0.0000000001
 40
0.0
 40
0.0
 40
0.0
 40
0.0
 40
1.0
 40
1.0
 40
1.0
 40
2.0
 40
2.0
 40
2.0
 40
2.0
 10
543.614584037459
 20
2030.359832766357
 30
0.0
 10
554.7629672684291
 20
2036.454236331124
 30
0.0
 10
558.8626508422406
 20
2050.420721380058
 30
0.0
 10
552.7716923897208
 20
2061.575994835521
 30
0.0
 10
546.6807339372006
 20
2072.717487841998
 30
0.0
 10
532.7073586637723
 20
2076.81717141581
 30
0.0
 10
521.5624205450492
 20
2070.72621296329
 30
0.0
  0
SPLINE
  5
1D17
330
A
100
AcDbEntity
  8
MODEL
100
AcDbSpline
210
0.0
220
0.0
230
1.0
 70
     8
 71
     3
 72
    11
 73
     7
 74
     0
 42
0.000000001
 43
0.0000000001
 40
0.0
 40
0.0
 40
0.0
 40
0.0
 40
1.0
 40
1.0
 40
1.0
 40
2.0
 40
2.0
 40
2.0
 40
2.0
 10
521.5624205450492
 20
2070.729658075536
 30
0.0
 10
510.4140373140792
 20
2064.635254510769
 30
0.0
 10
506.3143537402677
 20
2050.668769461835
 30
0.0
 10
512.4018670805406
 20
2039.520386230865
 30
0.0
 10
518.4928255330608
 20
2028.372002999895
 30
0.0
 10
532.469645918736
 20
2024.272319426083
 30
0.0
 10
543.614584037459
 20
2030.359832766357
 30
0.0
  0
SPLINE
  5
1D18
330
A
100
AcDbEntity
  8
MODEL
100
AcDbSpline
210
0.0
220
0.0
230
1.0
 70
     8
 71
     3
 72
    11
 73
     7
 74
     0
 42
0.000000001
 43
0.0000000001
 40
0.0
 40
0.0
 40
0.0
 40
0.0
 40
1.0
 40
1.0
 40
1.0
 40
2.0
 40
2.0
 40
2.0
 40
2.0
 10
514.8685674493215
 20
2082.959806552033
 30
0.0
 10
496.9677642144263
 20
2073.165352434095
 30
0.0
 10
490.3979351595874
 20
2050.720446145538
 30
0.0
 10
500.1889441652786
 20
2032.816197798396
 30
0.0
 10
509.9799531709698
 20
2014.929175012489
 30
0.0
 10
532.411079010539
 20
2008.355900845403
 30
0.0
 10
550.3084371331868
 20
2018.12968428986
 30
0.0
  0
SPLINE
  5
1D19
330
A
100
AcDbEntity
  8
MODEL
100
AcDbSpline
210
0.0
220
0.0
230
1.0
 70
     8
 71
     3
 72
    11
 73
     7
 74
     0
 42
0.000000001
 43
0.0000000001
 40
0.0
 40
0.0
 40
0.0
 40
0.0
 40
1.0
 40
1.0
 40
1.0
 40
2.0
 40
2.0
 40
2.0
 40
2.0
 10
550.3084371331868
 20
2018.126239177612
 30
0.0
 10
568.209240368082
 20
2027.920693295551
 30
0.0
 10
574.7790694229209
 20
2050.369044696354
 30
0.0
 10
564.9880604172297
 20
2068.273293043497
 30
0.0
 10
555.1970514115385
 20
2086.160315829404
 30
0.0
 10
532.7659255719693
 20
2092.73358999649
 30
0.0
 10
514.8685674493215
 20
2082.96325166428
 30
0.0
  0
SPLINE
  5
1D2B
330
A
100
AcDbEntity
  8
MODEL
100
AcDbSpline
210
0.0
220
0.0
230
1.0
 70
     8
 71
     3
 72
     8
 73
     4
 74
     0
 42
0.000000001
 43
0.0000000001
 40
0.0
 40
0.0
 40
0.0
 40
0.0
 40
1.0
 40
1.0
 40
1.0
 40
1.0
 10
1747.521296073797
 20
1022.506761241599
 30
0.0
 10
1749.178395064556
 20
1022.506761241599
 30
0.0
 10
1750.521988840847
 20
1021.166612577555
 30
0.0
 10
1750.521988840847
 20
1019.504345918426
 30
0.0
  0
SPLINE
  5
1D2C
330
A
100
AcDbEntity
  8
MODEL
100
AcDbSpline
210
0.0
220
0.0
230
1.0
 70
     8
 71
     3
 72
     8
 73
     4
 74
     0
 42
0.000000001
 43
0.0000000001
 40
0.0
 40
0.0
 40
0.0
 40
0.0
 40
1.0
 40
1.0
 40
1.0
 40
1.0
 10
1293.520959065003
 20
902.506611457562
 30
0.0
 10
1291.863860074244
 20
902.506611457562
 30
0.0
 10
1290.520266297953
 20
903.8467601216059
 30
0.0
 10
1290.520266297953
 20
905.509026780735
 30
0.0
  0
SPLINE
  5
1D2D
330
A
100
AcDbEntity
  8
MODEL
100
AcDbSpline
210
0.0
220
0.0
230
1.0
 70
     8
 71
     3
 72
     8
 73
     4
 74
     0
 42
0.000000001
 43
0.0000000001
 40
0.0
 40
0.0
 40
0.0
 40
0.0
 40
1.0
 40
1.0
 40
1.0
 40
1.0
 10
1290.520266297953
 20
1019.507791030672
 30
0.0
 10
1290.520266297953
 20
1021.161444909185
 30
0.0
 10
1291.860414961997
 20
1022.508483797723
 30
0.0
 10
1293.520959065003
 20
1022.508483797723
 30
0.0
  0
SPLINE
  5
1D2E
330
A
100
AcDbEntity
  8
MODEL
100
AcDbSpline
210
0.0
220
0.0
230
1.0
 70
     8
 71
     3
 72
     8
 73
     4
 74
     0
 42
0.000000001
 43
0.0000000001
 40
0.0
 40
0.0
 40
0.0
 40
0.0
 40
1.0
 40
1.0
 40
1.0
 40
1.0
 10
1750.521988840847
 20
905.505581668489
 30
0.0
 10
1750.521988840847
 20
903.851927789977
 30
0.0
 10
1749.178395064556
 20
902.508334013685
 30
0.0
 10
1747.524741186043
 20
902.508334013685
 30
0.0
  0
LINE
  5
1D36
330
A
100
AcDbEntity
  8
MODEL
100
AcDbLine
 10
829.5899065404221
 20
2318.045653499906
 30
0.0
 11
235.5870980420866
 21
2318.045653499906
 31
0.0
  0
LINE
  5
1D37
330
A
100
AcDbEntity
  8
MODEL
100
AcDbLine
 10
832.5905993074723
 20
1861.042901167938
 30
0.0
 11
832.5905993074723
 21
2315.046683288979
 31
0.0
  0
LINE
  5
1D38
330
A
100
AcDbEntity
  8
MODEL
100
AcDbLine
 10
232.5864052750364
 20
2315.044960732855
 30
0.0
 11
232.5864052750364
 21
1861.042901167938
 31
0.0
  0
LINE
  5
1D39
330
A
100
AcDbEntity
  8
MODEL
100
AcDbLine
 10
235.5870980420866
 20
1858.045653513134
 30
0.0
 11
829.5899065404221
 21
1858.045653513134
 31
0.0
  0
LINE
  5
1D3A
330
A
100
AcDbEntity
  8
MODEL
100
AcDbLine
 10
532.5867797351309
 20
2198.977406578654
 30
0.0
 11
535.1878394815405
 21
2199.068702053197
 31
0.0
  0
LINE
  5
1D3B
330
A
100
AcDbEntity
  8
MODEL
100
AcDbLine
 10
535.1878394815405
 20
2199.068702053197
 30
0.0
 11
537.7165518707654
 21
2199.340865920702
 31
0.0
  0
LINE
  5
1D3C
330
A
100
AcDbEntity
  8
MODEL
100
AcDbLine
 10
537.7165518707654
 20
2199.340865920702
 30
0.0
 11
540.1040146578678
 21
2199.781840288306
 31
0.0
  0
LINE
  5
1D3D
330
A
100
AcDbEntity
  8
MODEL
100
AcDbLine
 10
540.1040146578678
 20
2199.781840288306
 30
0.0
 11
542.270990261168
 21
2200.384734931513
 31
0.0
  0
LINE
  5
1D3E
330
A
100
AcDbEntity
  8
MODEL
100
AcDbLine
 10
542.270990261168
 20
2200.384734931513
 30
0.0
 11
544.1623568847165
 21
2201.125434064596
 31
0.0
  0
LINE
  5
1D3F
330
A
100
AcDbEntity
  8
MODEL
100
AcDbLine
 10
544.1623568847165
 20
2201.125434064596
 30
0.0
 11
545.7298829570561
 21
2201.983267014074
 31
0.0
  0
LINE
  5
1D40
330
A
100
AcDbEntity
  8
MODEL
100
AcDbLine
 10
545.7298829570561
 20
2201.983267014074
 30
0.0
 11
546.9253369067308
 21
2202.932395438096
 31
0.0
  0
LINE
  5
1D41
330
A
100
AcDbEntity
  8
MODEL
100
AcDbLine
 10
546.9253369067308
 20
2202.932395438096
 30
0.0
 11
547.7073773867771
 21
2203.945258438684
 31
0.0
  0
LINE
  5
1D42
330
A
100
AcDbEntity
  8
MODEL
100
AcDbLine
 10
547.7073773867771
 20
2203.945258438684
 30
0.0
 11
548.0656690604544
 21
2204.992572561742
 31
0.0
  0
LINE
  5
1D43
330
A
100
AcDbEntity
  8
MODEL
100
AcDbLine
 10
548.0656690604544
 20
2204.992572561742
 30
0.0
 11
547.9829863665288
 21
2206.0398866848
 31
0.0
  0
LINE
  5
1D44
330
A
100
AcDbEntity
  8
MODEL
100
AcDbLine
 10
547.9829863665288
 20
2206.0398866848
 30
0.0
 11
547.4627744172469
 21
2207.063085022129
 31
0.0
  0
LINE
  5
1D45
330
A
100
AcDbEntity
  8
MODEL
100
AcDbLine
 10
547.4627744172469
 20
2207.063085022129
 30
0.0
 11
546.5222587738433
 21
2208.029439007385
 31
0.0
  0
LINE
  5
1D46
330
A
100
AcDbEntity
  8
MODEL
100
AcDbLine
 10
546.5222587738433
 20
2208.029439007385
 30
0.0
 11
545.1821101097987
 21
2208.918277967085
 31
0.0
  0
LINE
  5
1D47
330
A
100
AcDbEntity
  8
MODEL
100
AcDbLine
 10
545.1821101097987
 20
2208.918277967085
 30
0.0
 11
543.4940051088176
 21
2209.698595891009
 31
0.0
  0
LINE
  5
1D48
330
A
100
AcDbEntity
  8
MODEL
100
AcDbLine
 10
543.4940051088176
 20
2209.698595891009
 30
0.0
 11
541.4855046688747
 21
2210.354889774043
 31
0.0
  0
LINE
  5
1D49
330
A
100
AcDbEntity
  8
MODEL
100
AcDbLine
 10
541.4855046688747
 20
2210.354889774043
 30
0.0
 11
539.232401259402
 21
2210.866488942708
 31
0.0
  0
LINE
  5
1D4A
330
A
100
AcDbEntity
  8
MODEL
100
AcDbLine
 10
539.232401259402
 20
2210.866488942708
 30
0.0
 11
536.7829264518557
 21
2211.223058060262
 31
0.0
  0
LINE
  5
1D4B
330
A
100
AcDbEntity
  8
MODEL
100
AcDbLine
 10
536.7829264518557
 20
2211.223058060262
 30
0.0
 11
534.2197629401614
 21
2211.415984346087
 31
0.0
  0
LINE
  5
1D4C
330
A
100
AcDbEntity
  8
MODEL
100
AcDbLine
 10
534.2197629401614
 20
2211.415984346087
 30
0.0
 11
531.608367857011
 21
2211.438377575693
 31
0.0
  0
LINE
  5
1D4D
330
A
100
AcDbEntity
  8
MODEL
100
AcDbLine
 10
531.608367857011
 20
2211.438377575693
 30
0.0
 11
529.0245336718356
 21
2211.290237749076
 31
0.0
  0
LINE
  5
1D4E
330
A
100
AcDbEntity
  8
MODEL
100
AcDbLine
 10
529.0245336718356
 20
2211.290237749076
 30
0.0
 11
526.5406077418204
 21
2210.971564866238
 31
0.0
  0
LINE
  5
1D4F
330
A
100
AcDbEntity
  8
MODEL
100
AcDbLine
 10
526.5406077418204
 20
2210.971564866238
 30
0.0
 11
524.2358276486441
 21
2210.499584488413
 31
0.0
  0
LINE
  5
1D50
330
A
100
AcDbEntity
  8
MODEL
100
AcDbLine
 10
524.2358276486441
 20
2210.499584488413
 30
0.0
 11
522.1584249637629
 21
2209.8742966156
 31
0.0
  0
LINE
  5
1D51
330
A
100
AcDbEntity
  8
MODEL
100
AcDbLine
 10
522.1584249637629
 20
2209.8742966156
 30
0.0
 11
520.3807470443624
 21
2209.123262145776
 31
0.0
  0
LINE
  5
1D52
330
A
100
AcDbEntity
  8
MODEL
100
AcDbLine
 10
520.3807470443624
 20
2209.123262145776
 30
0.0
 11
518.9544705741453
 21
2208.258538971804
 31
0.0
  0
LINE
  5
1D53
330
A
100
AcDbEntity
  8
MODEL
100
AcDbLine
 10
518.9544705741453
 20
2208.258538971804
 30
0.0
 11
517.9106015633345
 21
2207.309410547783
 31
0.0
  0
LINE
  5
1D54
330
A
100
AcDbEntity
  8
MODEL
100
AcDbLine
 10
517.9106015633345
 20
2207.309410547783
 30
0.0
 11
517.2801460221519
 21
2206.298270103318
 31
0.0
  0
LINE
  5
1D55
330
A
100
AcDbEntity
  8
MODEL
100
AcDbLine
 10
517.2801460221519
 20
2206.298270103318
 30
0.0
 11
517.0906648485723
 21
2205.252678536383
 31
0.0
  0
LINE
  5
1D56
330
A
100
AcDbEntity
  8
MODEL
100
AcDbLine
 10
517.0906648485723
 20
2205.252678536383
 30
0.0
 11
517.338712930349
 21
2204.205364413326
 31
0.0
  0
LINE
  5
1D57
330
A
100
AcDbEntity
  8
MODEL
100
AcDbLine
 10
517.338712930349
 20
2204.205364413326
 30
0.0
 11
518.0174000429886
 21
2203.178720963749
 31
0.0
  0
LINE
  5
1D58
330
A
100
AcDbEntity
  8
MODEL
100
AcDbLine
 10
518.0174000429886
 20
2203.178720963749
 30
0.0
 11
519.112945737503
 21
2202.212366978494
 31
0.0
  0
LINE
  5
1D59
330
A
100
AcDbEntity
  8
MODEL
100
AcDbLine
 10
519.112945737503
 20
2202.212366978494
 30
0.0
 11
520.5874537791763
 21
2201.330418243287
 31
0.0
  0
LINE
  5
1D5A
330
A
100
AcDbEntity
  8
MODEL
100
AcDbLine
 10
520.5874537791763
 20
2201.330418243287
 30
0.0
 11
522.4030279332931
 21
2200.558713099982
 31
0.0
  0
LINE
  5
1D5B
330
A
100
AcDbEntity
  8
MODEL
100
AcDbLine
 10
522.4030279332931
 20
2200.558713099982
 30
0.0
 11
524.5114366283958
 21
2199.919644778181
 31
0.0
  0
LINE
  5
1D5C
330
A
100
AcDbEntity
  8
MODEL
100
AcDbLine
 10
524.5114366283958
 20
2199.919644778181
 30
0.0
 11
526.8437776195476
 21
2199.435606507492
 31
0.0
  0
LINE
  5
1D5D
330
A
100
AcDbEntity
  8
MODEL
100
AcDbLine
 10
526.8437776195476
 20
2199.435606507492
 30
0.0
 11
529.3449291107975
 21
2199.118656180777
 31
0.0
  0
LINE
  5
1D5E
330
A
100
AcDbEntity
  8
MODEL
100
AcDbLine
 10
529.3449291107975
 20
2199.118656180777
 30
0.0
 11
532.5867797351309
 21
2198.977406578654
 31
0.0
  0
LINE
  5
1D5F
330
A
100
AcDbEntity
  8
MODEL
100
AcDbLine
 10
532.5867797351309
 20
2200.808483737882
 30
0.0
 11
535.1878394815405
 21
2200.899779212424
 31
0.0
  0
LINE
  5
1D60
330
A
100
AcDbEntity
  8
MODEL
100
AcDbLine
 10
535.1878394815405
 20
2200.899779212424
 30
0.0
 11
537.7165518707654
 21
2201.17194307993
 31
0.0
  0
LINE
  5
1D61
330
A
100
AcDbEntity
  8
MODEL
100
AcDbLine
 10
537.7165518707654
 20
2201.17194307993
 30
0.0
 11
540.1040146578678
 21
2201.612917447533
 31
0.0
  0
LINE
  5
1D62
330
A
100
AcDbEntity
  8
MODEL
100
AcDbLine
 10
540.1040146578678
 20
2201.612917447533
 30
0.0
 11
542.270990261168
 21
2202.21581209074
 31
0.0
  0
LINE
  5
1D63
330
A
100
AcDbEntity
  8
MODEL
100
AcDbLine
 10
542.270990261168
 20
2202.21581209074
 30
0.0
 11
544.1623568847165
 21
2202.956511223824
 31
0.0
  0
LINE
  5
1D64
330
A
100
AcDbEntity
  8
MODEL
100
AcDbLine
 10
544.1623568847165
 20
2202.956511223824
 30
0.0
 11
545.7298829570561
 21
2203.814344173303
 31
0.0
  0
LINE
  5
1D65
330
A
100
AcDbEntity
  8
MODEL
100
AcDbLine
 10
545.7298829570561
 20
2203.814344173303
 30
0.0
 11
546.9253369067308
 21
2204.763472597324
 31
0.0
  0
LINE
  5
1D66
330
A
100
AcDbEntity
  8
MODEL
100
AcDbLine
 10
546.9253369067308
 20
2204.763472597324
 30
0.0
 11
547.7073773867771
 21
2205.776335597912
 31
0.0
  0
LINE
  5
1D67
330
A
100
AcDbEntity
  8
MODEL
100
AcDbLine
 10
547.7073773867771
 20
2205.776335597912
 30
0.0
 11
547.8727427746283
 21
2206.255206200231
 31
0.0
  0
LINE
  5
1D68
330
A
100
AcDbEntity
  8
MODEL
100
AcDbLine
 10
517.2801460221519
 20
2206.281044542084
 30
0.0
 11
517.335267818102
 21
2206.03471901643
 31
0.0
  0
LINE
  5
1D69
330
A
100
AcDbEntity
  8
MODEL
100
AcDbLine
 10
517.335267818102
 20
2206.03471901643
 30
0.0
 11
518.0174000429886
 21
2205.014965791347
 31
0.0
  0
LINE
  5
1D6A
330
A
100
AcDbEntity
  8
MODEL
100
AcDbLine
 10
518.0174000429886
 20
2205.014965791347
 30
0.0
 11
519.112945737503
 21
2204.043444137721
 31
0.0
  0
LINE
  5
1D6B
330
A
100
AcDbEntity
  8
MODEL
100
AcDbLine
 10
519.112945737503
 20
2204.043444137721
 30
0.0
 11
520.5840086669293
 21
2203.158050290268
 31
0.0
  0
LINE
  5
1D6C
330
A
100
AcDbEntity
  8
MODEL
100
AcDbLine
 10
520.5840086669293
 20
2203.158050290268
 30
0.0
 11
522.4064730455395
 21
2202.389790259209
 31
0.0
  0
LINE
  5
1D6D
330
A
100
AcDbEntity
  8
MODEL
100
AcDbLine
 10
522.4064730455395
 20
2202.389790259209
 30
0.0
 11
524.5114366283958
 21
2201.750721937409
 31
0.0
  0
LINE
  5
1D6E
330
A
100
AcDbEntity
  8
MODEL
100
AcDbLine
 10
524.5114366283958
 20
2201.750721937409
 30
0.0
 11
526.8472227317945
 21
2201.268406222843
 31
0.0
  0
LINE
  5
1D6F
330
A
100
AcDbEntity
  8
MODEL
100
AcDbLine
 10
526.8472227317945
 20
2201.268406222843
 30
0.0
 11
529.3449291107975
 21
2200.953178452251
 31
0.0
  0
LINE
  5
1D70
330
A
100
AcDbEntity
  8
MODEL
100
AcDbLine
 10
529.3449291107975
 20
2200.953178452251
 30
0.0
 11
532.5867797351309
 21
2200.808483737882
 31
0.0
  0
LINE
  5
1D71
330
A
100
AcDbEntity
  8
MODEL
100
AcDbLine
 10
789.6128240273886
 20
1873.844938277421
 30
0.0
 11
792.5342792127606
 21
1873.858718726408
 31
0.0
  0
LINE
  5
1D72
330
A
100
AcDbEntity
  8
MODEL
100
AcDbLine
 10
792.5342792127606
 20
1873.858718726408
 30
0.0
 11
796.0620741535865
 21
1873.872499175395
 31
0.0
  0
LINE
  5
1D73
330
A
100
AcDbEntity
  8
MODEL
100
AcDbLine
 10
796.0620741535865
 20
1873.872499175395
 30
0.0
 11
800.0618494722378
 21
1873.879389399889
 31
0.0
  0
LINE
  5
1D74
330
A
100
AcDbEntity
  8
MODEL
100
AcDbLine
 10
800.0618494722378
 20
1873.879389399889
 30
0.0
 11
803.1383347087201
 21
1873.94484653258
 31
0.0
  0
LINE
  5
1D75
330
A
100
AcDbEntity
  8
MODEL
100
AcDbLine
 10
803.1383347087201
 20
1873.94484653258
 30
0.0
 11
806.4594229147322
 21
1874.354814889962
 31
0.0
  0
LINE
  5
1D76
330
A
100
AcDbEntity
  8
MODEL
100
AcDbLine
 10
806.4594229147322
 20
1874.354814889962
 30
0.0
 11
808.3714602117618
 21
1874.954264420922
 31
0.0
  0
LINE
  5
1D77
330
A
100
AcDbEntity
  8
MODEL
100
AcDbLine
 10
808.3714602117618
 20
1874.954264420922
 30
0.0
 11
810.0147787535336
 21
1875.898225176573
 31
0.0
  0
LINE
  5
1D78
330
A
100
AcDbEntity
  8
MODEL
100
AcDbLine
 10
810.0147787535336
 20
1875.898225176573
 30
0.0
 11
811.2929153971334
 21
1877.228038503877
 31
0.0
  0
LINE
  5
1D79
330
A
100
AcDbEntity
  8
MODEL
100
AcDbLine
 10
811.2929153971334
 20
1877.228038503877
 30
0.0
 11
812.143858122118
 21
1878.940259290586
 31
0.0
  0
LINE
  5
1D7A
330
A
100
AcDbEntity
  8
MODEL
100
AcDbLine
 10
812.143858122118
 20
1878.940259290586
 30
0.0
 11
812.5848324897213
 21
1880.996991301986
 31
0.0
  0
LINE
  5
1D7B
330
A
100
AcDbEntity
  8
MODEL
100
AcDbLine
 10
812.5848324897213
 20
1880.996991301986
 30
0.0
 11
812.7088565306096
 21
1883.291436058422
 31
0.0
  0
LINE
  5
1D7C
330
A
100
AcDbEntity
  8
MODEL
100
AcDbLine
 10
812.7088565306096
 20
1883.291436058422
 30
0.0
 11
812.7260820918443
 21
1885.647892835302
 31
0.0
  0
LINE
  5
1D7D
330
A
100
AcDbEntity
  8
MODEL
100
AcDbLine
 10
812.7260820918443
 20
1885.647892835302
 30
0.0
 11
812.7398625408316
 21
1888.03880073465
 31
0.0
  0
LINE
  5
1D7E
330
A
100
AcDbEntity
  8
MODEL
100
AcDbLine
 10
812.7398625408316
 20
1888.03880073465
 30
0.0
 11
812.7605332143132
 21
1890.788000307677
 31
0.0
  0
LINE
  5
1D7F
330
A
100
AcDbEntity
  8
MODEL
100
AcDbLine
 10
812.7605332143132
 20
1890.788000307677
 30
0.0
 11
812.7777587755479
 21
1893.440736737791
 31
0.0
  0
LINE
  5
1D80
330
A
100
AcDbEntity
  8
MODEL
100
AcDbLine
 10
812.7777587755479
 20
1893.440736737791
 30
0.0
 11
812.7915392245352
 21
1895.98667468825
 31
0.0
  0
LINE
  5
1D81
330
A
100
AcDbEntity
  8
MODEL
100
AcDbLine
 10
812.7915392245352
 20
1895.98667468825
 30
0.0
 11
812.805319673523
 21
1898.429259271303
 31
0.0
  0
LINE
  5
1D82
330
A
100
AcDbEntity
  8
MODEL
100
AcDbLine
 10
812.805319673523
 20
1898.429259271303
 30
0.0
 11
812.8225452347572
 21
1900.771935599195
 31
0.0
  0
LINE
  5
1D83
330
A
100
AcDbEntity
  8
MODEL
100
AcDbLine
 10
812.8225452347572
 20
1900.771935599195
 30
0.0
 11
812.832880571498
 21
1903.01125855968
 31
0.0
  0
LINE
  5
1D84
330
A
100
AcDbEntity
  8
MODEL
100
AcDbLine
 10
812.832880571498
 20
1903.01125855968
 30
0.0
 11
812.8466610204857
 21
1905.147228152759
 31
0.0
  0
LINE
  5
1D85
330
A
100
AcDbEntity
  8
MODEL
100
AcDbLine
 10
812.8466610204857
 20
1905.147228152759
 30
0.0
 11
812.8811121429546
 21
1910.487152135454
 31
0.0
  0
LINE
  5
1D86
330
A
100
AcDbEntity
  8
MODEL
100
AcDbLine
 10
812.8811121429546
 20
1910.487152135454
 30
0.0
 11
812.9121181531766
 21
1915.055370974844
 31
0.0
  0
LINE
  5
1D87
330
A
100
AcDbEntity
  8
MODEL
100
AcDbLine
 10
812.9121181531766
 20
1915.055370974844
 30
0.0
 11
812.9362339389052
 21
1919.299749263026
 31
0.0
  0
LINE
  5
1D88
330
A
100
AcDbEntity
  8
MODEL
100
AcDbLine
 10
812.9362339389052
 20
1919.299749263026
 30
0.0
 11
812.9569046123863
 21
1922.538154775112
 31
0.0
  0
LINE
  5
1D89
330
A
100
AcDbEntity
  8
MODEL
100
AcDbLine
 10
812.9569046123863
 20
1922.538154775112
 30
0.0
 11
812.9706850613741
 21
1924.774032623351
 31
0.0
  0
LINE
  5
1D8A
330
A
100
AcDbEntity
  8
MODEL
100
AcDbLine
 10
812.9706850613741
 20
1924.774032623351
 30
0.0
 11
812.9775752858679
 21
1926.003937695494
 31
0.0
  0
LINE
  5
1D8B
330
A
100
AcDbEntity
  8
MODEL
100
AcDbLine
 10
812.9775752858679
 20
2175.083830590276
 30
0.0
 11
812.9775752858679
 21
1926.003937695494
 31
0.0
  0
LINE
  5
1D8C
330
A
100
AcDbEntity
  8
MODEL
100
AcDbLine
 10
789.6128240273886
 20
2227.242830008349
 30
0.0
 11
791.9899514777501
 21
2227.232494671609
 31
0.0
  0
LINE
  5
1D8D
330
A
100
AcDbEntity
  8
MODEL
100
AcDbLine
 10
791.9899514777501
 20
2227.232494671609
 30
0.0
 11
794.804608183468
 21
2227.225604447115
 31
0.0
  0
LINE
  5
1D8E
330
A
100
AcDbEntity
  8
MODEL
100
AcDbLine
 10
794.804608183468
 20
2227.225604447115
 30
0.0
 11
798.0533490322948
 21
2227.211823998127
 31
0.0
  0
LINE
  5
1D8F
330
A
100
AcDbEntity
  8
MODEL
100
AcDbLine
 10
798.0533490322948
 20
2227.211823998127
 30
0.0
 11
800.9265726462102
 21
2227.199766105263
 31
0.0
  0
LINE
  5
1D90
330
A
100
AcDbEntity
  8
MODEL
100
AcDbLine
 10
800.9265726462102
 20
2227.199766105263
 30
0.0
 11
803.7033331172117
 21
2227.111915742967
 31
0.0
  0
LINE
  5
1D91
330
A
100
AcDbEntity
  8
MODEL
100
AcDbLine
 10
803.7033331172117
 20
2227.111915742967
 30
0.0
 11
806.4594229147322
 21
2226.734675951931
 31
0.0
  0
LINE
  5
1D92
330
A
100
AcDbEntity
  8
MODEL
100
AcDbLine
 10
806.4594229147322
 20
2226.734675951931
 30
0.0
 11
808.3714602117618
 21
2226.138671533217
 31
0.0
  0
LINE
  5
1D93
330
A
100
AcDbEntity
  8
MODEL
100
AcDbLine
 10
808.3714602117618
 20
2226.138671533217
 30
0.0
 11
810.0147787535336
 21
2225.192988221443
 31
0.0
  0
LINE
  5
1D94
330
A
100
AcDbEntity
  8
MODEL
100
AcDbLine
 10
810.0147787535336
 20
2225.192988221443
 30
0.0
 11
811.2929153971334
 21
2223.86317489414
 31
0.0
  0
LINE
  5
1D95
330
A
100
AcDbEntity
  8
MODEL
100
AcDbLine
 10
811.2929153971334
 20
2223.86317489414
 30
0.0
 11
812.143858122118
 21
2222.149231551307
 31
0.0
  0
LINE
  5
1D96
330
A
100
AcDbEntity
  8
MODEL
100
AcDbLine
 10
812.143858122118
 20
2222.149231551307
 30
0.0
 11
812.4125768773763
 21
2221.157039224199
 31
0.0
  0
LINE
  5
1D97
330
A
100
AcDbEntity
  8
MODEL
100
AcDbLine
 10
812.4125768773763
 20
2221.157039224199
 30
0.0
 11
812.5848324897213
 21
2220.089054427661
 31
0.0
  0
LINE
  5
1D98
330
A
100
AcDbEntity
  8
MODEL
100
AcDbLine
 10
812.5848324897213
 20
2220.089054427661
 30
0.0
 11
812.6744054081407
 21
2218.965947835171
 31
0.0
  0
LINE
  5
1D99
330
A
100
AcDbEntity
  8
MODEL
100
AcDbLine
 10
812.6744054081407
 20
2218.965947835171
 30
0.0
 11
812.7088565306096
 21
2217.799777339595
 31
0.0
  0
LINE
  5
1D9A
330
A
100
AcDbEntity
  8
MODEL
100
AcDbLine
 10
812.7088565306096
 20
2217.799777339595
 30
0.0
 11
812.7191918673504
 21
2216.726624874685
 31
0.0
  0
LINE
  5
1D9B
330
A
100
AcDbEntity
  8
MODEL
100
AcDbLine
 10
812.7191918673504
 20
2216.726624874685
 30
0.0
 11
812.7260820918443
 21
2215.457101011702
 31
0.0
  0
LINE
  5
1D9C
330
A
100
AcDbEntity
  8
MODEL
100
AcDbLine
 10
812.7260820918443
 20
2215.457101011702
 30
0.0
 11
812.7329723163382
 21
2214.271982398769
 31
0.0
  0
LINE
  5
1D9D
330
A
100
AcDbEntity
  8
MODEL
100
AcDbLine
 10
812.7329723163382
 20
2214.271982398769
 30
0.0
 11
812.7398625408316
 21
2213.050690107243
 31
0.0
  0
LINE
  5
1D9E
330
A
100
AcDbEntity
  8
MODEL
100
AcDbLine
 10
812.7398625408316
 20
2213.050690107243
 30
0.0
 11
812.7915392245352
 21
2204.996017673989
 31
0.0
  0
LINE
  5
1D9F
330
A
100
AcDbEntity
  8
MODEL
100
AcDbLine
 10
812.7915392245352
 20
2204.996017673989
 30
0.0
 11
812.8363256837449
 21
2197.883583440263
 31
0.0
  0
LINE
  5
1DA0
330
A
100
AcDbEntity
  8
MODEL
100
AcDbLine
 10
812.8363256837449
 20
2197.883583440263
 30
0.0
 11
812.8742219184608
 21
2191.722000186682
 31
0.0
  0
LINE
  5
1DA1
330
A
100
AcDbEntity
  8
MODEL
100
AcDbLine
 10
812.8742219184608
 20
2191.722000186682
 30
0.0
 11
812.9086730409301
 21
2186.500932576504
 31
0.0
  0
LINE
  5
1DA2
330
A
100
AcDbEntity
  8
MODEL
100
AcDbLine
 10
812.9086730409301
 20
2186.500932576504
 30
0.0
 11
812.9327888266582
 21
2182.228993390347
 31
0.0
  0
LINE
  5
1DA3
330
A
100
AcDbEntity
  8
MODEL
100
AcDbLine
 10
812.9327888266582
 20
2182.228993390347
 30
0.0
 11
812.9534595001394
 21
2178.901014959841
 31
0.0
  0
LINE
  5
1DA4
330
A
100
AcDbEntity
  8
MODEL
100
AcDbLine
 10
812.9534595001394
 20
2178.901014959841
 30
0.0
 11
812.9672399491271
 21
2176.520442397233
 31
0.0
  0
LINE
  5
1DA5
330
A
100
AcDbEntity
  8
MODEL
100
AcDbLine
 10
812.9672399491271
 20
2176.520442397233
 30
0.0
 11
812.9775752858679
 21
2175.083830590276
 31
0.0
  0
LINE
  5
1DA6
330
A
100
AcDbEntity
  8
MODEL
100
AcDbLine
 10
749.6047355041335
 20
2227.385802166595
 30
0.0
 11
789.6128240273886
 21
2227.241107452226
 31
0.0
  0
LINE
  5
1DA7
330
A
100
AcDbEntity
  8
MODEL
100
AcDbLine
 10
749.6047355041335
 20
2227.385802166595
 30
0.0
 11
315.5722690783753
 21
2227.385802166595
 31
0.0
  0
LINE
  5
1DA8
330
A
100
AcDbEntity
  8
MODEL
100
AcDbLine
 10
315.5722690783753
 20
2227.385802166595
 30
0.0
 11
275.5641805551197
 21
2227.241107452226
 31
0.0
  0
LINE
  5
1DA9
330
A
100
AcDbEntity
  8
MODEL
100
AcDbLine
 10
275.5641805551197
 20
2227.242830008349
 30
0.0
 11
272.6289449207609
 21
2227.232494671609
 31
0.0
  0
LINE
  5
1DAA
330
A
100
AcDbEntity
  8
MODEL
100
AcDbLine
 10
272.6289449207609
 20
2227.232494671609
 30
0.0
 11
269.1045950921814
 21
2227.222159334868
 31
0.0
  0
LINE
  5
1DAB
330
A
100
AcDbEntity
  8
MODEL
100
AcDbLine
 10
269.1045950921814
 20
2227.222159334868
 30
0.0
 11
265.115155110271
 21
2227.20837888588
 31
0.0
  0
LINE
  5
1DAC
330
A
100
AcDbEntity
  8
MODEL
100
AcDbLine
 10
265.115155110271
 20
2227.20837888588
 30
0.0
 11
262.0386698737886
 21
2227.144644309313
 31
0.0
  0
LINE
  5
1DAD
330
A
100
AcDbEntity
  8
MODEL
100
AcDbLine
 10
262.0386698737886
 20
2227.144644309313
 30
0.0
 11
258.7141365555296
 21
2226.734675951931
 31
0.0
  0
LINE
  5
1DAE
330
A
100
AcDbEntity
  8
MODEL
100
AcDbLine
 10
258.7141365555296
 20
2226.734675951931
 30
0.0
 11
256.8055443707469
 21
2226.138671533217
 31
0.0
  0
LINE
  5
1DAF
330
A
100
AcDbEntity
  8
MODEL
100
AcDbLine
 10
256.8055443707469
 20
2226.138671533217
 30
0.0
 11
255.1622258289751
 21
2225.192988221443
 31
0.0
  0
LINE
  5
1DB0
330
A
100
AcDbEntity
  8
MODEL
100
AcDbLine
 10
255.1622258289751
 20
2225.192988221443
 30
0.0
 11
253.8840891853749
 21
2223.86317489414
 31
0.0
  0
LINE
  5
1DB1
330
A
100
AcDbEntity
  8
MODEL
100
AcDbLine
 10
253.8840891853749
 20
2223.86317489414
 30
0.0
 11
253.0262562358969
 21
2222.149231551307
 31
0.0
  0
LINE
  5
1DB2
330
A
100
AcDbEntity
  8
MODEL
100
AcDbLine
 10
253.0262562358969
 20
2222.149231551307
 30
0.0
 11
252.5232698478496
 21
2219.362135743564
 31
0.0
  0
LINE
  5
1DB3
330
A
100
AcDbEntity
  8
MODEL
100
AcDbLine
 10
252.5232698478496
 20
2219.362135743564
 30
0.0
 11
252.4509224906644
 21
2216.235696379503
 31
0.0
  0
LINE
  5
1DB4
330
A
100
AcDbEntity
  8
MODEL
100
AcDbLine
 10
252.4509224906644
 20
2216.235696379503
 30
0.0
 11
252.4302518171833
 21
2213.050690107243
 31
0.0
  0
LINE
  5
1DB5
330
A
100
AcDbEntity
  8
MODEL
100
AcDbLine
 10
252.4302518171833
 20
2213.050690107243
 30
0.0
 11
252.4164713681955
 21
2210.337664212809
 31
0.0
  0
LINE
  5
1DB6
330
A
100
AcDbEntity
  8
MODEL
100
AcDbLine
 10
252.4164713681955
 20
2210.337664212809
 30
0.0
 11
252.3992458069608
 21
2207.719378905164
 31
0.0
  0
LINE
  5
1DB7
330
A
100
AcDbEntity
  8
MODEL
100
AcDbLine
 10
252.3992458069608
 20
2207.719378905164
 30
0.0
 11
252.3854653579735
 21
2205.204446964927
 31
0.0
  0
LINE
  5
1DB8
330
A
100
AcDbEntity
  8
MODEL
100
AcDbLine
 10
252.3854653579735
 20
2205.204446964927
 30
0.0
 11
252.3716849089858
 21
2202.787700723726
 31
0.0
  0
LINE
  5
1DB9
330
A
100
AcDbEntity
  8
MODEL
100
AcDbLine
 10
252.3716849089858
 20
2202.787700723726
 30
0.0
 11
252.3544593477511
 21
2200.470862737686
 31
0.0
  0
LINE
  5
1DBA
330
A
100
AcDbEntity
  8
MODEL
100
AcDbLine
 10
252.3544593477511
 20
2200.470862737686
 30
0.0
 11
252.3441240110108
 21
2198.252210450681
 31
0.0
  0
LINE
  5
1DBB
330
A
100
AcDbEntity
  8
MODEL
100
AcDbLine
 10
252.3441240110108
 20
2198.252210450681
 30
0.0
 11
252.330343562023
 21
2196.135188974961
 31
0.0
  0
LINE
  5
1DBC
330
A
100
AcDbEntity
  8
MODEL
100
AcDbLine
 10
252.330343562023
 20
2196.135188974961
 30
0.0
 11
252.2958924395541
 21
2190.824548446364
 31
0.0
  0
LINE
  5
1DBD
330
A
100
AcDbEntity
  8
MODEL
100
AcDbLine
 10
252.2958924395541
 20
2190.824548446364
 30
0.0
 11
252.2648864293321
 21
2186.270110055961
 31
0.0
  0
LINE
  5
1DBE
330
A
100
AcDbEntity
  8
MODEL
100
AcDbLine
 10
252.2648864293321
 20
2186.270110055961
 30
0.0
 11
252.2407706436036
 21
2182.011951318793
 31
0.0
  0
LINE
  5
1DBF
330
A
100
AcDbEntity
  8
MODEL
100
AcDbLine
 10
252.2407706436036
 20
2182.011951318793
 30
0.0
 11
252.2200999701224
 21
2178.728759347496
 31
0.0
  0
LINE
  5
1DC0
330
A
100
AcDbEntity
  8
MODEL
100
AcDbLine
 10
252.2200999701224
 20
2178.728759347496
 30
0.0
 11
252.2063195211347
 21
2176.420534142073
 31
0.0
  0
LINE
  5
1DC1
330
A
100
AcDbEntity
  8
MODEL
100
AcDbLine
 10
252.2063195211347
 20
2176.420534142073
 30
0.0
 11
252.1994292966408
 21
2175.083830590276
 31
0.0
  0
LINE
  5
1DC2
330
A
100
AcDbEntity
  8
MODEL
100
AcDbLine
 10
252.1994292966408
 20
2175.083830590276
 30
0.0
 11
252.1994292966408
 21
1926.003937695494
 31
0.0
  0
LINE
  5
1DC3
330
A
100
AcDbEntity
  8
MODEL
100
AcDbLine
 10
275.5641805551197
 20
1873.844938277421
 30
0.0
 11
272.6461704819951
 21
1873.858718726408
 31
0.0
  0
LINE
  5
1DC4
330
A
100
AcDbEntity
  8
MODEL
100
AcDbLine
 10
272.6461704819951
 20
1873.858718726408
 30
0.0
 11
269.1183755411691
 21
1873.872499175395
 31
0.0
  0
LINE
  5
1DC5
330
A
100
AcDbEntity
  8
MODEL
100
AcDbLine
 10
269.1183755411691
 20
1873.872499175395
 30
0.0
 11
265.115155110271
 21
1873.879389399889
 31
0.0
  0
LINE
  5
1DC6
330
A
100
AcDbEntity
  8
MODEL
100
AcDbLine
 10
265.115155110271
 20
1873.879389399889
 30
0.0
 11
262.0421149860356
 21
1873.94484653258
 31
0.0
  0
LINE
  5
1DC7
330
A
100
AcDbEntity
  8
MODEL
100
AcDbLine
 10
262.0421149860356
 20
1873.94484653258
 30
0.0
 11
258.7141365555296
 21
1874.354814889962
 31
0.0
  0
LINE
  5
1DC8
330
A
100
AcDbEntity
  8
MODEL
100
AcDbLine
 10
258.7141365555296
 20
1874.354814889962
 30
0.0
 11
256.8055443707469
 21
1874.954264420922
 31
0.0
  0
LINE
  5
1DC9
330
A
100
AcDbEntity
  8
MODEL
100
AcDbLine
 10
256.8055443707469
 20
1874.954264420922
 30
0.0
 11
255.1622258289751
 21
1875.898225176573
 31
0.0
  0
LINE
  5
1DCA
330
A
100
AcDbEntity
  8
MODEL
100
AcDbLine
 10
255.1622258289751
 20
1875.898225176573
 30
0.0
 11
253.8840891853749
 21
1877.228038503877
 31
0.0
  0
LINE
  5
1DCB
330
A
100
AcDbEntity
  8
MODEL
100
AcDbLine
 10
253.8840891853749
 20
1877.228038503877
 30
0.0
 11
253.0262562358969
 21
1878.940259290586
 31
0.0
  0
LINE
  5
1DCC
330
A
100
AcDbEntity
  8
MODEL
100
AcDbLine
 10
253.0262562358969
 20
1878.940259290586
 30
0.0
 11
252.7609825928855
 21
1879.929006505447
 31
0.0
  0
LINE
  5
1DCD
330
A
100
AcDbEntity
  8
MODEL
100
AcDbLine
 10
252.7609825928855
 20
1879.929006505447
 30
0.0
 11
252.5887269805405
 21
1880.996991301986
 31
0.0
  0
LINE
  5
1DCE
330
A
100
AcDbEntity
  8
MODEL
100
AcDbLine
 10
252.5887269805405
 20
1880.996991301986
 30
0.0
 11
252.4991540621211
 21
1882.120097894475
 31
0.0
  0
LINE
  5
1DCF
330
A
100
AcDbEntity
  8
MODEL
100
AcDbLine
 10
252.4991540621211
 20
1882.120097894475
 30
0.0
 11
252.4647029396522
 21
1883.291436058422
 31
0.0
  0
LINE
  5
1DD0
330
A
100
AcDbEntity
  8
MODEL
100
AcDbLine
 10
252.4647029396522
 20
1883.291436058422
 30
0.0
 11
252.4578127151583
 21
1884.362865967208
 31
0.0
  0
LINE
  5
1DD1
330
A
100
AcDbEntity
  8
MODEL
100
AcDbLine
 10
252.4578127151583
 20
1884.362865967208
 30
0.0
 11
252.4509224906644
 21
1885.647892835302
 31
0.0
  0
LINE
  5
1DD2
330
A
100
AcDbEntity
  8
MODEL
100
AcDbLine
 10
252.4509224906644
 20
1885.647892835302
 30
0.0
 11
252.4371420416771
 21
1886.826121223741
 31
0.0
  0
LINE
  5
1DD3
330
A
100
AcDbEntity
  8
MODEL
100
AcDbLine
 10
252.4371420416771
 20
1886.826121223741
 30
0.0
 11
252.4302518171833
 21
1888.03880073465
 31
0.0
  0
LINE
  5
1DD4
330
A
100
AcDbEntity
  8
MODEL
100
AcDbLine
 10
252.4302518171833
 20
1888.03880073465
 30
0.0
 11
252.3854653579735
 21
1896.093473167904
 31
0.0
  0
LINE
  5
1DD5
330
A
100
AcDbEntity
  8
MODEL
100
AcDbLine
 10
252.3854653579735
 20
1896.093473167904
 30
0.0
 11
252.3406788987638
 21
1903.214520182247
 31
0.0
  0
LINE
  5
1DD6
330
A
100
AcDbEntity
  8
MODEL
100
AcDbLine
 10
252.3406788987638
 20
1903.214520182247
 30
0.0
 11
252.299337551801
 21
1909.381271104199
 31
0.0
  0
LINE
  5
1DD7
330
A
100
AcDbEntity
  8
MODEL
100
AcDbLine
 10
252.299337551801
 20
1909.381271104199
 30
0.0
 11
252.2683315415786
 21
1914.600616158254
 31
0.0
  0
LINE
  5
1DD8
330
A
100
AcDbEntity
  8
MODEL
100
AcDbLine
 10
252.2683315415786
 20
1914.600616158254
 30
0.0
 11
252.2407706436036
 21
1918.87255534441
 31
0.0
  0
LINE
  5
1DD9
330
A
100
AcDbEntity
  8
MODEL
100
AcDbLine
 10
252.2407706436036
 20
1918.87255534441
 30
0.0
 11
252.2200999701224
 21
1922.200533774916
 31
0.0
  0
LINE
  5
1DDA
330
A
100
AcDbEntity
  8
MODEL
100
AcDbLine
 10
252.2200999701224
 20
1922.200533774916
 30
0.0
 11
252.2063195211347
 21
1924.577661225277
 31
0.0
  0
LINE
  5
1DDB
330
A
100
AcDbEntity
  8
MODEL
100
AcDbLine
 10
252.2063195211347
 20
1924.577661225277
 30
0.0
 11
252.1994292966408
 21
1926.003937695494
 31
0.0
  0
LINE
  5
1DDC
330
A
100
AcDbEntity
  8
MODEL
100
AcDbLine
 10
315.5722690783753
 20
1873.703688675298
 30
0.0
 11
275.5641805551197
 21
1873.844938277421
 31
0.0
  0
LINE
  5
1DDD
330
A
100
AcDbEntity
  8
MODEL
100
AcDbLine
 10
749.6047355041335
 20
1873.703688675298
 30
0.0
 11
315.5722690783753
 21
1873.703688675298
 31
0.0
  0
LINE
  5
1DDE
330
A
100
AcDbEntity
  8
MODEL
100
AcDbLine
 10
749.6047355041335
 20
1873.703688675298
 30
0.0
 11
789.6128240273886
 21
1873.844938277421
 31
0.0
  0
LINE
  5
1DDF
330
A
100
AcDbEntity
  8
MODEL
100
AcDbLine
 10
235.5870980420866
 20
1861.042901167938
 30
0.0
 11
829.5899065404221
 21
1861.042901167938
 31
0.0
  0
LINE
  5
1DE0
330
A
100
AcDbEntity
  8
MODEL
100
AcDbLine
 10
235.5870980420866
 20
2315.044960732855
 30
0.0
 11
235.5870980420866
 21
1861.042901167938
 31
0.0
  0
LINE
  5
1DE1
330
A
100
AcDbEntity
  8
MODEL
100
AcDbLine
 10
829.5899065404221
 20
2315.044960732855
 30
0.0
 11
235.5870980420866
 21
2315.044960732855
 31
0.0
  0
LINE
  5
1DE2
330
A
100
AcDbEntity
  8
MODEL
100
AcDbLine
 10
829.5899065404221
 20
1861.042901167938
 30
0.0
 11
829.5899065404221
 21
2315.046683288979
 31
0.0
  0
LINE
  5
1DE3
330
A
100
AcDbEntity
  8
MODEL
100
AcDbLine
 10
687.1310700188399
 20
2128.865927241983
 30
0.0
 11
691.6786181847485
 21
2128.845256568501
 31
0.0
  0
LINE
  5
1DE4
330
A
100
AcDbEntity
  8
MODEL
100
AcDbLine
 10
691.6786181847485
 20
2128.845256568501
 30
0.0
 11
696.3639708405333
 21
2128.39050175191
 31
0.0
  0
LINE
  5
1DE5
330
A
100
AcDbEntity
  8
MODEL
100
AcDbLine
 10
696.3639708405333
 20
2128.39050175191
 30
0.0
 11
698.761768964376
 21
2127.839283792406
 31
0.0
  0
LINE
  5
1DE6
330
A
100
AcDbEntity
  8
MODEL
100
AcDbLine
 10
698.761768964376
 20
2127.839283792406
 30
0.0
 11
701.1699024249594
 21
2126.950444832706
 31
0.0
  0
LINE
  5
1DE7
330
A
100
AcDbEntity
  8
MODEL
100
AcDbLine
 10
701.1699024249594
 20
2126.950444832706
 30
0.0
 11
703.4953531916174
 21
2125.63441195439
 31
0.0
  0
LINE
  5
1DE8
330
A
100
AcDbEntity
  8
MODEL
100
AcDbLine
 10
703.4953531916174
 20
2125.63441195439
 30
0.0
 11
705.6072069989671
 21
2123.856734034989
 31
0.0
  0
LINE
  5
1DE9
330
A
100
AcDbEntity
  8
MODEL
100
AcDbLine
 10
705.6072069989671
 20
2123.856734034989
 30
0.0
 11
707.3435435714052
 21
2121.693203543936
 31
0.0
  0
LINE
  5
1DEA
330
A
100
AcDbEntity
  8
MODEL
100
AcDbLine
 10
707.3435435714052
 20
2121.693203543936
 30
0.0
 11
708.6285704394988
 21
2119.291960307846
 31
0.0
  0
LINE
  5
1DEB
330
A
100
AcDbEntity
  8
MODEL
100
AcDbLine
 10
708.6285704394988
 20
2119.291960307846
 30
0.0
 11
709.5001838379646
 21
2116.808034377831
 31
0.0
  0
LINE
  5
1DEC
330
A
100
AcDbEntity
  8
MODEL
100
AcDbLine
 10
709.5001838379646
 20
2116.808034377831
 30
0.0
 11
710.0479566852221
 21
2114.320663335568
 31
0.0
  0
LINE
  5
1DED
330
A
100
AcDbEntity
  8
MODEL
100
AcDbLine
 10
710.0479566852221
 20
2114.320663335568
 30
0.0
 11
710.4958212773188
 21
2109.425158832723
 31
0.0
  0
LINE
  5
1DEE
330
A
100
AcDbEntity
  8
MODEL
100
AcDbLine
 10
710.4958212773188
 20
2109.425158832723
 30
0.0
 11
710.5027115018127
 21
2104.639897921778
 31
0.0
  0
LINE
  5
1DEF
330
A
100
AcDbEntity
  8
MODEL
100
AcDbLine
 10
354.6708479684492
 20
2104.639897921778
 30
0.0
 11
354.6811833051895
 21
2109.42860394497
 31
0.0
  0
LINE
  5
1DF0
330
A
100
AcDbEntity
  8
MODEL
100
AcDbLine
 10
354.6811833051895
 20
2109.42860394497
 30
0.0
 11
355.1256027850397
 21
2114.320663335568
 31
0.0
  0
LINE
  5
1DF1
330
A
100
AcDbEntity
  8
MODEL
100
AcDbLine
 10
355.1256027850397
 20
2114.320663335568
 30
0.0
 11
355.6768207445441
 21
2116.808034377831
 31
0.0
  0
LINE
  5
1DF2
330
A
100
AcDbEntity
  8
MODEL
100
AcDbLine
 10
355.6768207445441
 20
2116.808034377831
 30
0.0
 11
356.5484341430099
 21
2119.295405420093
 31
0.0
  0
LINE
  5
1DF3
330
A
100
AcDbEntity
  8
MODEL
100
AcDbLine
 10
356.5484341430099
 20
2119.295405420093
 30
0.0
 11
357.8369061233504
 21
2121.686313319442
 31
0.0
  0
LINE
  5
1DF4
330
A
100
AcDbEntity
  8
MODEL
100
AcDbLine
 10
357.8369061233504
 20
2121.686313319442
 30
0.0
 11
359.5663524712947
 21
2123.856734034989
 31
0.0
  0
LINE
  5
1DF5
330
A
100
AcDbEntity
  8
MODEL
100
AcDbLine
 10
359.5663524712947
 20
2123.856734034989
 30
0.0
 11
361.6782062786444
 21
2125.63441195439
 31
0.0
  0
LINE
  5
1DF6
330
A
100
AcDbEntity
  8
MODEL
100
AcDbLine
 10
361.6782062786444
 20
2125.63441195439
 30
0.0
 11
364.0105472697962
 21
2126.950444832706
 31
0.0
  0
LINE
  5
1DF7
330
A
100
AcDbEntity
  8
MODEL
100
AcDbLine
 10
364.0105472697962
 20
2126.950444832706
 30
0.0
 11
366.4117905058858
 21
2127.839283792406
 31
0.0
  0
LINE
  5
1DF8
330
A
100
AcDbEntity
  8
MODEL
100
AcDbLine
 10
366.4117905058858
 20
2127.839283792406
 30
0.0
 11
368.8095886297285
 21
2128.39050175191
 31
0.0
  0
LINE
  5
1DF9
330
A
100
AcDbEntity
  8
MODEL
100
AcDbLine
 10
368.8095886297285
 20
2128.39050175191
 30
0.0
 11
373.4949412855128
 21
2128.845256568501
 31
0.0
  0
LINE
  5
1DFA
330
A
100
AcDbEntity
  8
MODEL
100
AcDbLine
 10
373.4949412855128
 20
2128.845256568501
 30
0.0
 11
378.0424894514215
 21
2128.865927241983
 31
0.0
  0
LINE
  5
1DFB
330
A
100
AcDbEntity
  8
MODEL
100
AcDbLine
 10
687.1310700188399
 20
1972.22356359991
 30
0.0
 11
687.1310700188399
 21
1972.22356359991
 31
0.0
  0
LINE
  5
1DFC
330
A
100
AcDbEntity
  8
MODEL
100
AcDbLine
 10
710.5061566140596
 20
1996.449592920115
 30
0.0
 11
710.4958212773188
 21
1991.660886896923
 31
0.0
  0
LINE
  5
1DFD
330
A
100
AcDbEntity
  8
MODEL
100
AcDbLine
 10
710.4958212773188
 20
1991.660886896923
 30
0.0
 11
710.0479566852221
 21
1986.768827506324
 31
0.0
  0
LINE
  5
1DFE
330
A
100
AcDbEntity
  8
MODEL
100
AcDbLine
 10
710.0479566852221
 20
1986.768827506324
 30
0.0
 11
709.5001838379646
 21
1984.278011351815
 31
0.0
  0
LINE
  5
1DFF
330
A
100
AcDbEntity
  8
MODEL
100
AcDbLine
 10
709.5001838379646
 20
1984.278011351815
 30
0.0
 11
708.6285704394988
 21
1981.7940854218
 31
0.0
  0
LINE
  5
1E00
330
A
100
AcDbEntity
  8
MODEL
100
AcDbLine
 10
708.6285704394988
 20
1981.7940854218
 30
0.0
 11
707.3400984591583
 21
1979.399732410205
 31
0.0
  0
LINE
  5
1E01
330
A
100
AcDbEntity
  8
MODEL
100
AcDbLine
 10
707.3400984591583
 20
1979.399732410205
 30
0.0
 11
705.6072069989671
 21
1977.229311694657
 31
0.0
  0
LINE
  5
1E02
330
A
100
AcDbEntity
  8
MODEL
100
AcDbLine
 10
705.6072069989671
 20
1977.229311694657
 30
0.0
 11
703.4953531916174
 21
1975.451633775256
 31
0.0
  0
LINE
  5
1E03
330
A
100
AcDbEntity
  8
MODEL
100
AcDbLine
 10
703.4953531916174
 20
1975.451633775256
 30
0.0
 11
701.1664573127125
 21
1974.142491121434
 31
0.0
  0
LINE
  5
1E04
330
A
100
AcDbEntity
  8
MODEL
100
AcDbLine
 10
701.1664573127125
 20
1974.142491121434
 30
0.0
 11
698.7652140766229
 21
1973.250207049487
 31
0.0
  0
LINE
  5
1E05
330
A
100
AcDbEntity
  8
MODEL
100
AcDbLine
 10
698.7652140766229
 20
1973.250207049487
 30
0.0
 11
696.3674159527802
 21
1972.698989089983
 31
0.0
  0
LINE
  5
1E06
330
A
100
AcDbEntity
  8
MODEL
100
AcDbLine
 10
696.3674159527802
 20
1972.698989089983
 30
0.0
 11
691.6820632969955
 21
1972.240789161145
 31
0.0
  0
LINE
  5
1E07
330
A
100
AcDbEntity
  8
MODEL
100
AcDbLine
 10
691.6820632969955
 20
1972.240789161145
 30
0.0
 11
687.1310700188399
 21
1972.22356359991
 31
0.0
  0
LINE
  5
1E08
330
A
100
AcDbEntity
  8
MODEL
100
AcDbLine
 10
378.0424894514215
 20
1972.22356359991
 30
0.0
 11
373.4983863977598
 21
1972.244234273392
 31
0.0
  0
LINE
  5
1E09
330
A
100
AcDbEntity
  8
MODEL
100
AcDbLine
 10
373.4983863977598
 20
1972.244234273392
 30
0.0
 11
368.8130337419755
 21
1972.698989089983
 31
0.0
  0
LINE
  5
1E0A
330
A
100
AcDbEntity
  8
MODEL
100
AcDbLine
 10
368.8130337419755
 20
1972.698989089983
 30
0.0
 11
366.4117905058858
 21
1973.250207049487
 31
0.0
  0
LINE
  5
1E0B
330
A
100
AcDbEntity
  8
MODEL
100
AcDbLine
 10
366.4117905058858
 20
1973.250207049487
 30
0.0
 11
364.0105472697962
 21
1974.139046009188
 31
0.0
  0
LINE
  5
1E0C
330
A
100
AcDbEntity
  8
MODEL
100
AcDbLine
 10
364.0105472697962
 20
1974.139046009188
 30
0.0
 11
361.6816513908914
 21
1975.455078887503
 31
0.0
  0
LINE
  5
1E0D
330
A
100
AcDbEntity
  8
MODEL
100
AcDbLine
 10
361.6816513908914
 20
1975.455078887503
 30
0.0
 11
359.5697975835417
 21
1977.232756806904
 31
0.0
  0
LINE
  5
1E0E
330
A
100
AcDbEntity
  8
MODEL
100
AcDbLine
 10
359.5697975835417
 20
1977.232756806904
 30
0.0
 11
357.8334610111035
 21
1979.396287297957
 31
0.0
  0
LINE
  5
1E0F
330
A
100
AcDbEntity
  8
MODEL
100
AcDbLine
 10
357.8334610111035
 20
1979.396287297957
 30
0.0
 11
356.5484341430099
 21
1981.7940854218
 31
0.0
  0
LINE
  5
1E10
330
A
100
AcDbEntity
  8
MODEL
100
AcDbLine
 10
356.5484341430099
 20
1981.7940854218
 30
0.0
 11
355.6768207445441
 21
1984.281456464063
 31
0.0
  0
LINE
  5
1E11
330
A
100
AcDbEntity
  8
MODEL
100
AcDbLine
 10
355.6768207445441
 20
1984.281456464063
 30
0.0
 11
355.1290478972867
 21
1986.768827506324
 31
0.0
  0
LINE
  5
1E12
330
A
100
AcDbEntity
  8
MODEL
100
AcDbLine
 10
355.1290478972867
 20
1986.768827506324
 30
0.0
 11
354.6811833051895
 21
1991.660886896923
 31
0.0
  0
LINE
  5
1E13
330
A
100
AcDbEntity
  8
MODEL
100
AcDbLine
 10
354.6811833051895
 20
1991.660886896923
 30
0.0
 11
354.6708479684492
 21
1996.449592920115
 31
0.0
  0
LINE
  5
1E14
330
A
100
AcDbEntity
  8
MODEL
100
AcDbLine
 10
378.0424894514215
 20
1972.22356359991
 30
0.0
 11
378.0459345636684
 21
1972.22356359991
 31
0.0
  0
LINE
  5
1E15
330
A
100
AcDbEntity
  8
MODEL
100
AcDbLine
 10
532.5867797351309
 20
2127.515443241197
 30
0.0
 11
544.0279975070873
 21
2127.529223690185
 31
0.0
  0
LINE
  5
1E16
330
A
100
AcDbEntity
  8
MODEL
100
AcDbLine
 10
544.0279975070873
 20
2127.529223690185
 30
0.0
 11
556.2615910958309
 21
2127.580900373888
 31
0.0
  0
LINE
  5
1E17
330
A
100
AcDbEntity
  8
MODEL
100
AcDbLine
 10
556.2615910958309
 20
2127.580900373888
 30
0.0
 11
569.5907303790889
 21
2127.660137955567
 31
0.0
  0
LINE
  5
1E18
330
A
100
AcDbEntity
  8
MODEL
100
AcDbLine
 10
569.5907303790889
 20
2127.660137955567
 30
0.0
 11
584.0119702446143
 21
2127.763491322974
 31
0.0
  0
LINE
  5
1E19
330
A
100
AcDbEntity
  8
MODEL
100
AcDbLine
 10
584.0119702446143
 20
2127.763491322974
 30
0.0
 11
599.4047317637658
 21
2127.90129581285
 31
0.0
  0
LINE
  5
1E1A
330
A
100
AcDbEntity
  8
MODEL
100
AcDbLine
 10
599.4047317637658
 20
2127.90129581285
 30
0.0
 11
619.7963511531696
 21
2128.094222098676
 31
0.0
  0
LINE
  5
1E1B
330
A
100
AcDbEntity
  8
MODEL
100
AcDbLine
 10
619.7963511531696
 20
2128.094222098676
 30
0.0
 11
641.2800711248412
 21
2128.321599506972
 31
0.0
  0
LINE
  5
1E1C
330
A
100
AcDbEntity
  8
MODEL
100
AcDbLine
 10
641.2800711248412
 20
2128.321599506972
 30
0.0
 11
663.7422029746324
 21
2128.579982925489
 31
0.0
  0
LINE
  5
1E1D
330
A
100
AcDbEntity
  8
MODEL
100
AcDbLine
 10
663.7422029746324
 20
2128.579982925489
 30
0.0
 11
687.1310700188399
 21
2128.865927241983
 31
0.0
  0
LINE
  5
1E1E
330
A
100
AcDbEntity
  8
MODEL
100
AcDbLine
 10
378.0459345636684
 20
2128.865927241983
 30
0.0
 11
401.4348016078759
 21
2128.576537813243
 31
0.0
  0
LINE
  5
1E1F
330
A
100
AcDbEntity
  8
MODEL
100
AcDbLine
 10
401.4348016078759
 20
2128.576537813243
 30
0.0
 11
423.900378569914
 21
2128.321599506972
 31
0.0
  0
LINE
  5
1E20
330
A
100
AcDbEntity
  8
MODEL
100
AcDbLine
 10
423.900378569914
 20
2128.321599506972
 30
0.0
 11
445.3806534293387
 21
2128.09077698643
 31
0.0
  0
LINE
  5
1E21
330
A
100
AcDbEntity
  8
MODEL
100
AcDbLine
 10
445.3806534293387
 20
2128.09077698643
 30
0.0
 11
465.7722728187425
 21
2127.894405588356
 31
0.0
  0
LINE
  5
1E22
330
A
100
AcDbEntity
  8
MODEL
100
AcDbLine
 10
465.7722728187425
 20
2127.894405588356
 30
0.0
 11
481.161589225647
 21
2127.766936435221
 31
0.0
  0
LINE
  5
1E23
330
A
100
AcDbEntity
  8
MODEL
100
AcDbLine
 10
481.161589225647
 20
2127.766936435221
 30
0.0
 11
495.5862742034194
 21
2127.660137955567
 31
0.0
  0
LINE
  5
1E24
330
A
100
AcDbEntity
  8
MODEL
100
AcDbLine
 10
495.5862742034194
 20
2127.660137955567
 30
0.0
 11
508.9119683744304
 21
2127.577455261641
 31
0.0
  0
LINE
  5
1E25
330
A
100
AcDbEntity
  8
MODEL
100
AcDbLine
 10
508.9119683744304
 20
2127.577455261641
 30
0.0
 11
521.145561963174
 21
2127.529223690185
 31
0.0
  0
LINE
  5
1E26
330
A
100
AcDbEntity
  8
MODEL
100
AcDbLine
 10
521.145561963174
 20
2127.529223690185
 30
0.0
 11
532.5867797351309
 21
2127.511998128951
 31
0.0
  0
LINE
  5
1E27
330
A
100
AcDbEntity
  8
MODEL
100
AcDbLine
 10
710.5061566140596
 20
2104.639897921778
 30
0.0
 11
710.1892062873446
 21
2068.576462921223
 31
0.0
  0
LINE
  5
1E28
330
A
100
AcDbEntity
  8
MODEL
100
AcDbLine
 10
710.1892062873446
 20
2068.576462921223
 30
0.0
 11
710.1892062873446
 21
2032.513027920669
 31
0.0
  0
LINE
  5
1E29
330
A
100
AcDbEntity
  8
MODEL
100
AcDbLine
 10
710.1892062873446
 20
2032.513027920669
 30
0.0
 11
710.5061566140596
 21
1996.449592920115
 31
0.0
  0
LINE
  5
1E2A
330
A
100
AcDbEntity
  8
MODEL
100
AcDbLine
 10
354.6708479684492
 20
1996.449592920115
 30
0.0
 11
354.9877982951637
 21
2032.513027920669
 31
0.0
  0
LINE
  5
1E2B
330
A
100
AcDbEntity
  8
MODEL
100
AcDbLine
 10
354.9877982951637
 20
2032.513027920669
 30
0.0
 11
354.9877982951637
 21
2068.576462921223
 31
0.0
  0
LINE
  5
1E2C
330
A
100
AcDbEntity
  8
MODEL
100
AcDbLine
 10
354.9877982951637
 20
2068.576462921223
 30
0.0
 11
354.6708479684492
 21
2104.639897921778
 31
0.0
  0
LINE
  5
1E2D
330
A
100
AcDbEntity
  8
MODEL
100
AcDbLine
 10
687.1310700188399
 20
1972.22356359991
 30
0.0
 11
663.7422029746324
 21
1972.51295302865
 31
0.0
  0
LINE
  5
1E2E
330
A
100
AcDbEntity
  8
MODEL
100
AcDbLine
 10
663.7422029746324
 20
1972.51295302865
 30
0.0
 11
641.2766260125943
 21
1972.767891334921
 31
0.0
  0
LINE
  5
1E2F
330
A
100
AcDbEntity
  8
MODEL
100
AcDbLine
 10
641.2766260125943
 20
1972.767891334921
 30
0.0
 11
619.7929060409231
 21
1972.995268743217
 31
0.0
  0
LINE
  5
1E30
330
A
100
AcDbEntity
  8
MODEL
100
AcDbLine
 10
619.7929060409231
 20
1972.995268743217
 30
0.0
 11
599.4047317637658
 21
1973.19164014129
 31
0.0
  0
LINE
  5
1E31
330
A
100
AcDbEntity
  8
MODEL
100
AcDbLine
 10
599.4047317637658
 20
1973.19164014129
 30
0.0
 11
584.0154153568612
 21
1973.322554406672
 31
0.0
  0
LINE
  5
1E32
330
A
100
AcDbEntity
  8
MODEL
100
AcDbLine
 10
584.0154153568612
 20
1973.322554406672
 30
0.0
 11
569.5907303790889
 21
1973.429352886326
 31
0.0
  0
LINE
  5
1E33
330
A
100
AcDbEntity
  8
MODEL
100
AcDbLine
 10
569.5907303790889
 20
1973.429352886326
 30
0.0
 11
556.2615910958309
 21
1973.508590468004
 31
0.0
  0
LINE
  5
1E34
330
A
100
AcDbEntity
  8
MODEL
100
AcDbLine
 10
556.2615910958309
 20
1973.508590468004
 30
0.0
 11
544.0314426193343
 21
1973.560267151708
 31
0.0
  0
LINE
  5
1E35
330
A
100
AcDbEntity
  8
MODEL
100
AcDbLine
 10
544.0314426193343
 20
1973.560267151708
 30
0.0
 11
532.5902248473774
 21
1973.574047600696
 31
0.0
  0
LINE
  5
1E36
330
A
100
AcDbEntity
  8
MODEL
100
AcDbLine
 10
532.5867797351309
 20
1973.574047600696
 30
0.0
 11
521.149007075421
 21
1973.556822039461
 31
0.0
  0
LINE
  5
1E37
330
A
100
AcDbEntity
  8
MODEL
100
AcDbLine
 10
521.149007075421
 20
1973.556822039461
 30
0.0
 11
508.9119683744304
 21
1973.512035580252
 31
0.0
  0
LINE
  5
1E38
330
A
100
AcDbEntity
  8
MODEL
100
AcDbLine
 10
508.9119683744304
 20
1973.512035580252
 30
0.0
 11
495.5862742034194
 21
1973.429352886326
 31
0.0
  0
LINE
  5
1E39
330
A
100
AcDbEntity
  8
MODEL
100
AcDbLine
 10
495.5862742034194
 20
1973.429352886326
 30
0.0
 11
481.165034337894
 21
1973.325999518919
 31
0.0
  0
LINE
  5
1E3A
330
A
100
AcDbEntity
  8
MODEL
100
AcDbLine
 10
481.165034337894
 20
1973.325999518919
 30
0.0
 11
465.7722728187425
 21
1973.188195029042
 31
0.0
  0
LINE
  5
1E3B
330
A
100
AcDbEntity
  8
MODEL
100
AcDbLine
 10
465.7722728187425
 20
1973.188195029042
 30
0.0
 11
445.3806534293387
 21
1972.995268743217
 31
0.0
  0
LINE
  5
1E3C
330
A
100
AcDbEntity
  8
MODEL
100
AcDbLine
 10
445.3806534293387
 20
1972.995268743217
 30
0.0
 11
423.900378569914
 21
1972.767891334921
 31
0.0
  0
LINE
  5
1E3D
330
A
100
AcDbEntity
  8
MODEL
100
AcDbLine
 10
423.900378569914
 20
1972.767891334921
 30
0.0
 11
401.4348016078759
 21
1972.509507916404
 31
0.0
  0
LINE
  5
1E3E
330
A
100
AcDbEntity
  8
MODEL
100
AcDbLine
 10
401.4348016078759
 20
1972.509507916404
 30
0.0
 11
378.0459345636684
 21
1972.22356359991
 31
0.0
  0
LINE
  5
1EB7
330
A
100
AcDbEntity
  8
MODEL
100
AcDbLine
 10
1747.521296073797
 20
902.506611457562
 30
0.0
 11
1293.520959065003
 21
902.506611457562
 31
0.0
  0
LINE
  5
1EB8
102
{ACAD_REACTORS
330
22A8
102
}
330
A
100
AcDbEntity
  8
MODEL
100
AcDbLine
 10
1747.521296073797
 20
1022.506761241599
 30
0.0
 11
1293.520959065003
 21
1022.506761241599
 31
0.0
  0
LINE
  5
1EB9
330
A
100
AcDbEntity
  8
MODEL
100
AcDbLine
 10
1290.520266297953
 20
1019.507791030672
 30
0.0
 11
1290.520266297953
 21
905.505581668489
 31
0.0
  0
LINE
  5
1EBA
330
A
100
AcDbEntity
  8
MODEL
100
AcDbLine
 10
1750.521988840847
 20
905.505581668489
 30
0.0
 11
1750.521988840847
 21
1019.507791030672
 31
0.0
  0
LINE
  5
1EBE
330
A
100
AcDbEntity
  8
MODEL
100
AcDbLine
 10
1747.521296073797
 20
905.505581668489
 30
0.0
 11
1747.521296073797
 21
902.508334013685
 31
0.0
  0
LINE
  5
1EBF
330
A
100
AcDbEntity
  8
MODEL
100
AcDbLine
 10
1747.521296073797
 20
905.505581668489
 30
0.0
 11
1293.520959065003
 21
905.505581668489
 31
0.0
  0
LINE
  5
1EC0
330
A
100
AcDbEntity
  8
MODEL
100
AcDbLine
 10
1293.520959065003
 20
902.506611457562
 30
0.0
 11
1293.520959065003
 21
905.509026780735
 31
0.0
  0
LINE
  5
1EC1
330
A
100
AcDbEntity
  8
MODEL
100
AcDbLine
 10
1747.521296073797
 20
1019.507791030672
 30
0.0
 11
1293.520959065003
 21
1019.507791030672
 31
0.0
  0
LINE
  5
1EC2
330
A
100
AcDbEntity
  8
MODEL
100
AcDbLine
 10
1747.521296073797
 20
1022.506761241599
 30
0.0
 11
1747.521296073797
 21
1019.504345918426
 31
0.0
  0
LINE
  5
1EC3
330
A
100
AcDbEntity
  8
MODEL
100
AcDbLine
 10
1293.520959065003
 20
1019.507791030672
 30
0.0
 11
1293.520959065003
 21
1022.508483797723
 31
0.0
  0
LINE
  5
1EC4
330
A
100
AcDbEntity
  8
MODEL
100
AcDbLine
 10
1293.520959065003
 20
905.505581668489
 30
0.0
 11
1290.520266297953
 21
905.505581668489
 31
0.0
  0
LINE
  5
1EC5
330
A
100
AcDbEntity
  8
MODEL
100
AcDbLine
 10
1293.520959065003
 20
905.505581668489
 30
0.0
 11
1293.520959065003
 21
1019.507791030672
 31
0.0
  0
LINE
  5
1EC6
330
A
100
AcDbEntity
  8
MODEL
100
AcDbLine
 10
1293.520959065003
 20
1019.507791030672
 30
0.0
 11
1290.520266297953
 21
1019.507791030672
 31
0.0
  0
LINE
  5
1EC7
330
A
100
AcDbEntity
  8
MODEL
100
AcDbLine
 10
1750.521988840847
 20
1019.507791030672
 30
0.0
 11
1747.524741186043
 21
1019.507791030672
 31
0.0
  0
LINE
  5
1EC8
330
A
100
AcDbEntity
  8
MODEL
100
AcDbLine
 10
1747.521296073797
 20
1019.507791030672
 30
0.0
 11
1747.521296073797
 21
905.505581668489
 31
0.0
  0
LINE
  5
1EC9
330
A
100
AcDbEntity
  8
MODEL
100
AcDbLine
 10
1750.521988840847
 20
905.505581668489
 30
0.0
 11
1747.524741186043
 21
905.505581668489
 31
0.0
  0
DIMENSION
  5
1F2C
330
A
100
AcDbEntity
  8
Dim
  6
Continuous
100
AcDbDimension
  2
*D19
 10
832.5864052750364
 20
2411.918379600744
 30
0.0
 11
532.1003989163187
 21
2411.918379600744
 31
0.0
 70
   160
 71
     5
 42
600.0
 73
     0
 74
     0
 75
     0
  3
JIS
100
AcDbAlignedDimension
 13
232.5864052750364
 23
2315.043238176732
 33
0.0
 14
832.5864052750364
 24
2315.043238176732
 34
0.0
100
AcDbRotatedDimension
1001
ACAD
1000
DSTYLE
1002
{
1070
   179
1070
     0
1070
   271
1070
     0
1070
    43
1040
25.0
1070
    44
1040
0.0
1070
    42
1040
25.0
1002
}
  0
DIMENSION
  5
1F39
330
A
100
AcDbEntity
  8
Dim
  6
Continuous
100
AcDbDimension
  2
*D20
 10
955.032373464498
 20
1858.043930943782
 30
0.0
 11
932.816064870748
 21
2088.043930943782
 31
0.0
 70
    32
 71
     5
 42
459.9999999999998
 73
     0
 74
     0
 75
     0
  3
JIS
100
AcDbAlignedDimension
 13
829.5864614281752
 23
2318.043930943782
 33
0.0
 14
829.5864614281752
 24
1858.043930943782
 34
0.0
 50
90.0
100
AcDbRotatedDimension
1001
ACAD
1000
DSTYLE
1002
{
1070
   179
1070
     0
1070
   271
1070
     0
1070
    43
1040
25.0
1070
    44
1040
0.0
1070
    42
1040
25.0
1002
}
  0
LINE
  5
1F70
330
A
100
AcDbEntity
  8
MODEL
  6
Continuous
100
AcDbLine
 10
232.5898503872834
 20
1022.506761241599
 30
0.0
 11
232.5898503872834
 21
902.506611457562
 31
0.0
  0
LINE
  5
1F71
330
A
100
AcDbEntity
  8
MODEL
  6
Continuous
100
AcDbLine
 10
832.5905993074723
 20
1022.506761241599
 30
0.0
 11
832.5905993074723
 21
902.506611457562
 31
0.0
  0
LINE
  5
1F72
330
A
100
AcDbEntity
  8
MODEL
  6
Continuous
100
AcDbLine
 10
832.5905993074723
 20
1022.506761241599
 30
0.0
 11
232.5898503872834
 21
1022.506761241599
 31
0.0
  0
LINE
  5
1F73
102
{ACAD_REACTORS
330
1FF5
102
}
330
A
100
AcDbEntity
  8
Dim
  6
Continuous
100
AcDbLine
 10
560.2360056350718
 20
902.506611457562
 30
0.0
 11
504.9409989474364
 21
902.506611457562
 31
0.0
  0
SPLINE
  5
1F99
102
{ACAD_REACTORS
330
1FF5
102
}
330
A
100
AcDbEntity
  8
HIDDEN
 48
0.5
100
AcDbSpline
210
0.0
220
0.0
230
1.0
 70
  1064
 71
     3
 72
    26
 73
    22
 74
    20
 42
0.000000001
 43
0.0000000001
 44
0.0
 40
0.0
 40
0.0
 40
0.0
 40
0.0
 40
59.98404002609966
 40
82.26988042645749
 40
104.9766501171246
 40
117.4680655965586
 40
142.3176866814098
 40
194.3460205881312
 40
237.4168961092528
 40
268.8220885458498
 40
305.1205764198214
 40
311.0411043236432
 40
313.5986406117061
 40
316.6814366601387
 40
319.894822167113
 40
322.5140330148644
 40
325.015238096162
 40
331.0582628225611
 40
334.5887949272691
 40
338.9869039445384
 40
351.1299595340228
 40
351.1299595340228
 40
351.1299595340228
 40
351.1299595340228
 10
252.1994292966408
 20
1022.506761241599
 30
0.0
 10
257.8071301970388
 20
1003.221432602794
 30
0.0
 10
265.4982574092497
 20
976.7710354570033
 30
0.0
 10
281.6241185775293
 20
945.6936946392558
 30
0.0
 10
291.5583877299125
 20
929.1463618441344
 30
0.0
 10
307.1963573566105
 20
915.8455970678227
 30
0.0
 10
338.0141716331364
 20
912.164107180929
 30
0.0
 10
377.3775518962096
 20
911.8796169473208
 30
0.0
 10
419.7295959045139
 20
911.3319552736361
 30
0.0
 10
456.5376304670809
 20
910.643014263708
 30
0.0
 10
481.3099710957661
 20
910.1652374623454
 30
0.0
 10
496.0012957716886
 20
910.4736520854274
 30
0.0
 10
500.0276877652576
 20
909.7575808247578
 30
0.0
 10
501.5817028903855
 20
906.9925442370741
 30
0.0
 10
503.2752305184484
 20
904.6069675921773
 30
0.0
 10
505.0301765517148
 20
902.4770411099757
 30
0.0
 10
507.1102815372006
 20
899.182629224027
 30
0.0
 10
511.7876983009372
 20
899.297259186354
 30
0.0
 10
516.3086772313098
 20
899.1264980103806
 30
0.0
 10
523.0511102671869
 20
899.1915064742576
 30
0.0
 10
528.550983378952
 20
899.1741494518378
 30
0.0
 10
532.5885022912544
 20
899.1614074658219
 30
0.0
 11
252.1994292966408
 21
1022.506761241599
 31
0.0
 11
271.6522055662673
 21
965.7645851002437
 31
0.0
 11
281.7714460130038
 21
945.9086123179459
 31
0.0
 11
294.6070931257829
 21
927.1777940501497
 31
0.0
 11
304.3306928097251
 21
919.3364249180222
 31
0.0
 11
328.5080771666372
 21
913.5955405158743
 31
0.0
 11
380.5055106624922
 21
911.8026548660268
 31
0.0
 11
423.5726370205547
 21
911.2343720010483
 31
0.0
 11
454.9727492147275
 21
910.6695125733584
 31
0.0
 11
491.270126613496
 21
910.3855831662236
 31
0.0
 11
497.1881166482772
 21
910.2122493606244
 31
0.0
 11
499.6444085763706
 21
909.4997735163031
 31
0.0
 11
501.5805691830697
 21
907.1008334209071
 31
0.0
 11
503.4246132601033
 21
904.4692278542634
 31
0.0
 11
505.022536836927
 21
902.3939192729654
 31
0.0
 11
506.5975273122704
 21
900.4508722171054
 31
0.0
 11
512.5176425441059
 21
899.2382785152988
 31
0.0
 11
516.0473376845007
 21
899.1614074658219
 31
0.0
 11
520.4454467017699
 21
899.1614074658219
 31
0.0
 11
532.5885022912544
 21
899.1614074658219
 31
0.0
  0
SPLINE
  5
1FB9
102
{ACAD_REACTORS
330
1FF5
102
}
330
A
100
AcDbEntity
  8
HIDDEN
 48
0.5
100
AcDbSpline
210
0.0
220
0.0
230
1.0
 70
  1064
 71
     3
 72
    26
 73
    22
 74
    20
 42
0.000000001
 43
0.0000000001
 44
0.0
 40
0.0
 40
0.0
 40
0.0
 40
0.0
 40
59.98404002609966
 40
82.26988042645749
 40
104.9766501171246
 40
117.4680655965586
 40
142.3176866814099
 40
194.3460205881312
 40
237.4168961092529
 40
268.8220885458499
 40
305.1205764198215
 40
311.0411043236433
 40
313.5986406117061
 40
316.6814366601387
 40
319.8948221671131
 40
322.5140330148644
 40
325.0152380961619
 40
331.0582628225611
 40
334.5887949272691
 40
338.9869039445384
 40
351.1299595340228
 40
351.1299595340228
 40
351.1299595340228
 40
351.1299595340228
 10
812.9775752858679
 20
1022.506761241599
 30
0.0
 10
807.3698743854698
 20
1003.221432602795
 30
0.0
 10
799.6787471732588
 20
976.7710354570037
 30
0.0
 10
783.5528860049795
 20
945.6936946392555
 30
0.0
 10
773.6186168525961
 20
929.1463618441346
 30
0.0
 10
757.9806472258983
 20
915.8455970678224
 30
0.0
 10
727.1628329493724
 20
912.1641071809291
 30
0.0
 10
687.7994526862993
 20
911.8796169473208
 30
0.0
 10
645.4474086779946
 20
911.3319552736363
 30
0.0
 10
608.6393741154279
 20
910.6430142637076
 30
0.0
 10
583.8670334867418
 20
910.1652374623459
 30
0.0
 10
569.1757088108204
 20
910.4736520854271
 30
0.0
 10
565.1493168172511
 20
909.757580824758
 30
0.0
 10
563.5953016921233
 20
906.9925442370741
 30
0.0
 10
561.9017740640602
 20
904.6069675921776
 30
0.0
 10
560.1468280307939
 20
902.4770411099753
 30
0.0
 10
558.0667230453083
 20
899.1826292240272
 30
0.0
 10
553.3893062815715
 20
899.2972591863543
 30
0.0
 10
548.8683273511989
 20
899.1264980103806
 30
0.0
 10
542.125894315322
 20
899.1915064742576
 30
0.0
 10
536.6260212035567
 20
899.1741494518378
 30
0.0
 10
532.5885022912544
 20
899.1614074658219
 30
0.0
 11
812.9775752858679
 21
1022.506761241599
 31
0.0
 11
793.5247990162414
 21
965.7645851002437
 31
0.0
 11
783.4055585695049
 21
945.9086123179459
 31
0.0
 11
770.5699114567259
 21
927.1777940501497
 31
0.0
 11
760.8463117727837
 21
919.3364249180222
 31
0.0
 11
736.6689274158715
 21
913.5955405158743
 31
0.0
 11
684.6714939200166
 21
911.8026548660268
 31
0.0
 11
641.604367561954
 21
911.2343720010483
 31
0.0
 11
610.2042553677812
 21
910.6695125733584
 31
0.0
 11
573.9068779690127
 21
910.3855831662236
 31
0.0
 11
567.9888879342316
 21
910.2122493606244
 31
0.0
 11
565.5325960061382
 21
909.4997735163031
 31
0.0
 11
563.5964353994391
 21
907.1008334209071
 31
0.0
 11
561.7523913224054
 21
904.4692278542634
 31
0.0
 11
560.1544677455818
 21
902.3939192729654
 31
0.0
 11
558.5794772702384
 21
900.4508722171054
 31
0.0
 11
552.6593620384028
 21
899.2382785152988
 31
0.0
 11
549.129666898008
 21
899.1614074658219
 31
0.0
 11
544.7315578807388
 21
899.1614074658219
 31
0.0
 11
532.5885022912544
 21
899.1614074658219
 31
0.0
  0
LINE
  5
1FC6
330
A
100
AcDbEntity
  8
MODEL
  6
Continuous
100
AcDbLine
 10
832.5905993074723
 20
902.506611457562
 30
0.0
 11
232.5898503872833
 21
902.506611457562
 31
0.0
  0
DIMENSION
  5
1FD9
330
A
100
AcDbEntity
  8
Dim
  6
Continuous
100
AcDbDimension
  2
*D21
 10
1483.021988840847
 20
767.7062457407194
 30
0.0
 11
1616.771988840847
 21
789.9225543344694
 31
0.0
 70
    32
 71
     5
 42
267.5
 73
     0
 74
     0
 75
     0
  3
JIS
100
AcDbAlignedDimension
 13
1750.521988840847
 23
908.917043845074
 33
0.0
 14
1483.021988840847
 24
896.2764795813009
 34
0.0
100
AcDbRotatedDimension
1001
ACAD
1000
DSTYLE
1002
{
1070
   179
1070
     0
1070
   271
1070
     1
1070
    43
1040
25.0
1070
    44
1040
0.0
1070
    42
1040
25.0
1002
}
  0
SPLINE
  5
2002
330
A
100
AcDbEntity
  8
HIDDEN
 48
0.5
100
AcDbSpline
210
0.0
220
0.0
230
1.0
 70
  1064
 71
     3
 72
    18
 73
    14
 74
    12
 42
0.000000001
 43
0.0000000001
 44
0.0
 40
0.0
 40
0.0
 40
0.0
 40
0.0
 40
24.94346936287191
 40
55.83132431899566
 40
84.01516715509563
 40
108.0149000160672
 40
120.5379914692566
 40
136.341399586762
 40
146.0232027636559
 40
159.5584595197976
 40
181.1007752919026
 40
190.972383493222
 40
198.4797210917031
 40
198.4797210917031
 40
198.4797210917031
 40
198.4797210917031
 10
1311.205947802054
 20
1022.506761241599
 30
0.0
 10
1314.55321844712
 20
1014.89501067794
 30
0.0
 10
1322.045462218401
 20
997.857520496741
 30
0.0
 10
1335.058988419512
 20
973.0130282326036
 30
0.0
 10
1346.689218287696
 20
947.9804991799845
 30
0.0
 10
1357.935387316285
 20
929.1986409194976
 30
0.0
 10
1371.628285680082
 20
917.9789275440233
 30
0.0
 10
1383.789513886067
 20
913.640604261767
 30
0.0
 10
1396.663873203771
 20
911.7004246609788
 30
0.0
 10
1411.599040955228
 20
911.2515121021702
 30
0.0
 10
1426.560481320291
 20
910.6939323203594
 30
0.0
 10
1439.543590052922
 20
910.5532947582666
 30
0.0
 10
1445.312101815882
 20
909.997178335766
 30
0.0
 10
1447.803977085201
 20
909.7569477846228
 30
0.0
 11
1311.205947802054
 21
1022.506761241599
 31
0.0
 11
1321.478445443702
 21
999.7767710071341
 31
0.0
 11
1335.237304232876
 21
972.122596121412
 31
0.0
 11
1347.789496048728
 21
946.8882647922874
 31
0.0
 11
1361.315989923136
 21
927.0635039901085
 31
0.0
 11
1371.092540569216
 21
919.237465591942
 31
0.0
 11
1385.845961310425
 21
913.5731664683701
 31
0.0
 11
1395.407562934922
 21
912.0522828007181
 31
0.0
 11
1408.922964441112
 21
911.3194133845504
 31
0.0
 11
1430.455759930678
 21
910.6790328495445
 31
0.0
 11
1440.32300553235
 21
910.3855831662236
 31
0.0
 11
1447.803977085201
 21
909.7569477846228
 31
0.0
  0
LINE
  5
2009
330
A
100
AcDbEntity
  8
HIDDEN
 48
0.5
100
AcDbLine
 10
1447.803977085201
 20
909.7569477846228
 30
0.0
 11
1517.99851802727
 21
909.7569477846228
 31
0.0
  0
SPLINE
  5
2012
330
A
100
AcDbEntity
  8
HIDDEN
 48
0.5
100
AcDbSpline
210
0.0
220
0.0
230
1.0
 70
  1064
 71
     3
 72
    11
 73
     7
 74
     5
 42
0.000000001
 43
0.0000000001
 44
0.0
 40
0.0
 40
0.0
 40
0.0
 40
0.0
 40
3.538865291584958
 40
8.129439971322045
 40
12.11958410897121
 40
14.99919685585481
 40
14.99919685585481
 40
14.99919685585481
 40
14.99919685585481
 10
1447.803977085201
 20
909.7569477846228
 30
0.0
 10
1448.778995231629
 20
909.06077407117
 30
0.0
 10
1451.018795517665
 20
907.4615319563086
 30
0.0
 10
1452.814137809718
 20
903.7814364876631
 30
0.0
 10
1455.064399790221
 20
900.5215941682264
 30
0.0
 10
1457.212266779192
 20
899.6212067425397
 30
0.0
 10
1458.112593423062
 20
899.2437891494978
 30
0.0
 11
1447.803977085201
 21
909.7569477846228
 31
0.0
 11
1450.532797682223
 21
907.5037044108938
 31
0.0
 11
1453.02149810887
 21
903.646277019918
 31
0.0
 11
1455.551997769494
 21
900.5611803104455
 31
0.0
 11
1458.112593423062
 21
899.2437891494978
 31
0.0
  0
SPLINE
  5
2014
330
A
100
AcDbEntity
  8
HIDDEN
 48
0.5
100
AcDbSpline
210
0.0
220
0.0
230
1.0
 70
  1064
 71
     3
 72
    18
 73
    14
 74
    12
 42
0.000000001
 43
0.0000000001
 44
0.0
 40
0.0
 40
0.0
 40
0.0
 40
0.0
 40
24.94346936287191
 40
55.83132431899556
 40
84.01516715509553
 40
108.0149000160667
 40
120.5379914692568
 40
136.3413995867622
 40
146.0232027636561
 40
159.5584595197967
 40
181.1007752919028
 40
190.9723834932222
 40
198.4797210917033
 40
198.4797210917033
 40
198.4797210917033
 40
198.4797210917033
 10
1654.596547310417
 20
1022.506761241599
 30
0.0
 10
1651.249276665351
 20
1014.89501067794
 30
0.0
 10
1643.75703289407
 20
997.8575204967407
 30
0.0
 10
1630.743506692959
 20
973.0130282326041
 30
0.0
 10
1619.113276824775
 20
947.9804991799845
 30
0.0
 10
1607.867107796186
 20
929.198640919497
 30
0.0
 10
1594.174209432389
 20
917.9789275440231
 30
0.0
 10
1582.012981226403
 20
913.6406042617671
 30
0.0
 10
1569.138621908701
 20
911.7004246609788
 30
0.0
 10
1554.203454157243
 20
911.2515121021702
 30
0.0
 10
1539.242013792182
 20
910.6939323203591
 30
0.0
 10
1526.258905059548
 20
910.5532947582667
 30
0.0
 10
1520.490393296588
 20
909.9971783357657
 30
0.0
 10
1517.99851802727
 20
909.7569477846228
 30
0.0
 11
1654.596547310417
 21
1022.506761241599
 31
0.0
 11
1644.324049668769
 21
999.7767710071341
 31
0.0
 11
1630.565190879595
 21
972.122596121412
 31
0.0
 11
1618.012999063743
 21
946.8882647922874
 31
0.0
 11
1604.486505189336
 21
927.0635039901085
 31
0.0
 11
1594.709954543255
 21
919.237465591942
 31
0.0
 11
1579.956533802046
 21
913.5731664683701
 31
0.0
 11
1570.394932177549
 21
912.0522828007181
 31
0.0
 11
1556.87953067136
 21
911.3194133845504
 31
0.0
 11
1535.346735181793
 21
910.6790328495445
 31
0.0
 11
1525.479489580121
 21
910.3855831662236
 31
0.0
 11
1517.99851802727
 21
909.7569477846228
 31
0.0
  0
SPLINE
  5
2015
330
A
100
AcDbEntity
  8
HIDDEN
 48
0.5
100
AcDbSpline
210
0.0
220
0.0
230
1.0
 70
  1064
 71
     3
 72
    11
 73
     7
 74
     5
 42
0.000000001
 43
0.0000000001
 44
0.0
 40
0.0
 40
0.0
 40
0.0
 40
0.0
 40
3.538865291584257
 40
8.129439971321343
 40
12.11958410897123
 40
14.99919685585463
 40
14.99919685585463
 40
14.99919685585463
 40
14.99919685585463
 10
1518.240000596493
 20
909.7569477846228
 30
0.0
 10
1517.264982450065
 20
909.0607740711698
 30
0.0
 10
1515.02518216403
 20
907.4615319563078
 30
0.0
 10
1513.229839871977
 20
903.7814364876631
 30
0.0
 10
1510.979577891472
 20
900.5215941682268
 30
0.0
 10
1508.831710902502
 20
899.6212067425399
 30
0.0
 10
1507.931384258632
 20
899.2437891494978
 30
0.0
 11
1518.240000596493
 21
909.7569477846228
 31
0.0
 11
1515.511179999472
 21
907.5037044108938
 31
0.0
 11
1513.022479572825
 21
903.646277019918
 31
0.0
 11
1510.4919799122
 21
900.5611803104455
 31
0.0
 11
1507.931384258632
 21
899.2437891494978
 31
0.0
  0
LINE
  5
2016
330
A
100
AcDbEntity
  8
HIDDEN
 48
0.5
100
AcDbLine
 10
1458.112593423062
 20
899.2437891494978
 30
0.0
 11
1507.931384258632
 21
899.2437891494978
 31
0.0
  0
LINE
  5
21CD
330
A
100
AcDbEntity
  8
HIDDEN
100
AcDbLine
 10
1169.916093154419
 20
1858.045653499906
 30
0.0
 11
1765.916093154419
 21
1858.045653499906
 31
0.0
  0
LINE
  5
21CE
330
A
100
AcDbEntity
  8
HIDDEN
100
AcDbLine
 10
1767.916093154419
 20
1860.045653499906
 30
0.0
 11
1767.916093154419
 21
2316.045653499906
 31
0.0
  0
LINE
  5
21CF
330
A
100
AcDbEntity
  8
HIDDEN
100
AcDbLine
 10
1765.916093154419
 20
2318.045653499906
 30
0.0
 11
1169.916093154419
 21
2318.045653499906
 31
0.0
  0
LINE
  5
21D0
330
A
100
AcDbEntity
  8
HIDDEN
100
AcDbLine
 10
1167.916093154419
 20
2316.045653499906
 30
0.0
 11
1167.916093154419
 21
1860.045653499906
 31
0.0
  0
ARC
  5
21D1
330
A
100
AcDbEntity
  8
HIDDEN
100
AcDbCircle
 10
1169.916093154419
 20
1860.045653499906
 30
0.0
 40
2.000000000000001
100
AcDbArc
 50
180.0
 51
270.0
  0
ARC
  5
21D2
330
A
100
AcDbEntity
  8
HIDDEN
100
AcDbCircle
 10
1765.916093154419
 20
1860.045653499906
 30
0.0
 40
2.000000000000001
100
AcDbArc
 50
270.0
 51
0.0
  0
ARC
  5
21D3
330
A
100
AcDbEntity
  8
HIDDEN
100
AcDbCircle
 10
1765.916093154419
 20
2316.045653499906
 30
0.0
 40
2.000000000000001
100
AcDbArc
 50
0.0
 51
90.0
  0
ARC
  5
21D4
330
A
100
AcDbEntity
  8
HIDDEN
100
AcDbCircle
 10
1169.916093154419
 20
2316.045653499906
 30
0.0
 40
2.000000000000001
100
AcDbArc
 50
90.0
 51
180.0
  0
SPLINE
  5
21E2
330
A
100
AcDbEntity
  8
HIDDEN
 48
0.5
100
AcDbSpline
210
0.0
220
0.0
230
1.0
 70
    11
 71
     3
 72
    17
 73
    13
 74
     0
 42
0.000000001
 43
0.0000000001
 40
0.0
 40
0.0
 40
0.0
 40
0.0
 40
1.0
 40
1.0
 40
1.0
 40
2.0
 40
2.0
 40
2.0
 40
3.0
 40
3.0
 40
3.0
 40
4.0
 40
4.0
 40
4.0
 40
4.0
 10
1450.416645496288
 20
2272.520217713239
 30
0.0
 10
1450.416645496288
 20
2282.187202678042
 30
0.0
 10
1458.250830745739
 20
2290.017942815247
 30
0.0
 10
1467.914370598295
 20
2290.017942815247
 30
0.0
 10
1477.584800675345
 20
2290.017942815247
 30
0.0
 10
1485.41554081255
 20
2282.187202678042
 30
0.0
 10
1485.41554081255
 20
2272.520217713239
 30
0.0
 10
1485.41554081255
 20
2262.854955304559
 30
0.0
 10
1477.584800675345
 20
2255.019047498985
 30
0.0
 10
1467.914370598295
 20
2255.019047498985
 30
0.0
 10
1458.250830745739
 20
2255.019047498985
 30
0.0
 10
1450.416645496288
 20
2262.854955304559
 30
0.0
 10
1450.416645496288
 20
2272.520217713239
 30
0.0
  0
LINE
  5
21EF
330
A
100
AcDbEntity
  8
HIDDEN
100
AcDbLine
 10
1187.416093154419
 20
2227.703688675298
 30
0.0
 11
1187.416093154419
 21
1873.703688675298
 31
0.0
  0
LINE
  5
21F0
330
A
100
AcDbEntity
  8
HIDDEN
100
AcDbLine
 10
1187.416093154419
 20
1873.703688675298
 30
0.0
 11
1748.416093154419
 21
1873.703688675298
 31
0.0
  0
LINE
  5
21F1
330
A
100
AcDbEntity
  8
HIDDEN
100
AcDbLine
 10
1748.416093154419
 20
2227.703688675298
 30
0.0
 11
1748.416093154419
 21
1873.703688675298
 31
0.0
  0
LINE
  5
21F2
330
A
100
AcDbEntity
  8
HIDDEN
100
AcDbLine
 10
1187.416093154419
 20
2227.703688675298
 30
0.0
 11
1748.416093154419
 21
2227.703688675298
 31
0.0
  0
DIMENSION
  5
2224
330
A
100
AcDbEntity
  8
Dim
  6
Continuous
100
AcDbDimension
  2
*D22
 10
154.3466238880593
 20
1873.232494671609
 30
0.0
 11
154.3466238880593
 21
2050.232494671609
 31
0.0
 70
   160
 71
     5
 42
354.0
 73
     0
 74
     0
 75
     0
  3
JIS
100
AcDbAlignedDimension
 13
253.143151489871
 23
2227.232494671609
 33
0.0
 14
253.143151489871
 24
1873.232494671609
 34
0.0
 50
90.0
100
AcDbRotatedDimension
1001
ACAD
1000
DSTYLE
1002
{
1070
   179
1070
     0
1070
   271
1070
     0
1070
    43
1040
25.0
1070
    44
1040
0.0
1070
    42
1040
25.0
1002
}
  0
DIMENSION
  5
2231
330
A
100
AcDbEntity
  8
Dim
  6
Continuous
100
AcDbDimension
  2
*D23
 10
813.3854653579735
 20
1749.767444817948
 30
0.0
 11
532.8854653579735
 21
1771.983753411698
 31
0.0
 70
    32
 71
     5
 42
561.0
 73
     0
 74
     0
 75
     0
  3
JIS
100
AcDbAlignedDimension
 13
252.3854653579735
 23
1876.724228445952
 33
0.0
 14
813.3854653579735
 24
1876.724228445952
 34
0.0
100
AcDbRotatedDimension
1001
ACAD
1000
DSTYLE
1002
{
1070
   179
1070
     0
1070
   271
1070
     0
1070
    43
1040
25.0
1070
    44
1040
0.0
1070
    42
1040
25.0
1002
}
  0
DIMENSION
  5
2287
330
A
100
AcDbEntity
  8
Dim
  6
Continuous
100
AcDbDimension
  2
*D26
 10
955.0323734644979
 20
864.506761241599
 30
0.0
 11
932.8160648707479
 21
943.506761241599
 31
0.0
 70
    32
 71
     5
 42
158.0
 73
     0
 74
     0
 75
     0
  3
JIS
100
AcDbAlignedDimension
 13
832.5905993074723
 23
1022.506761241599
 33
0.0
 14
570.7053684875867
 24
864.506761241599
 34
0.0
 50
90.0
100
AcDbRotatedDimension
1001
ACAD
1000
DSTYLE
1002
{
1070
   179
1070
     0
1070
   271
1070
     0
1070
    43
1040
25.0
1070
    44
1040
0.0
1070
    42
1040
25.0
1002
}
  0
DIMENSION
  5
22A6
102
{ACAD_REACTORS
330
22A8
102
}
102
{ACAD_XDICTIONARY
360
22A7
102
}
330
A
100
AcDbEntity
  8
Dim
  6
Continuous
100
AcDbDimension
  2
*D27
 10
1218.069528638858
 20
902.506761241599
 30
0.0
 11
1195.853220045108
 21
962.506761241599
 31
0.0
 70
    32
 71
     5
 42
120.0
 73
     0
 74
     0
 75
     0
  3
JIS
100
AcDbAlignedDimension
 13
1298.999407903719
 23
1022.506761241599
 33
0.0
 14
1298.999407903719
 24
902.506761241599
 34
0.0
 50
90.0
100
AcDbRotatedDimension
1001
ACAD
1000
DSTYLE
1002
{
1070
   179
1070
     0
1070
   271
1070
     0
1070
    43
1040
25.0
1070
    44
1040
0.0
1070
    42
1040
25.0
1002
}
  0
DIMENSION
  5
22B8
330
A
100
AcDbEntity
  8
Dim
  6
Continuous
100
AcDbDimension
  2
*D28
 10
1705.021988840847
 20
1086.432246484251
 30
0.0
 11
1727.771988840847
 21
1086.432246484251
 31
0.0
 70
   160
 71
     5
 42
45.5
 73
     0
 74
     0
 75
     0
  3
JIS
100
AcDbAlignedDimension
 13
1750.521988840847
 23
1022.963105379361
 33
0.0
 14
1705.021988840847
 24
1022.963105379361
 34
0.0
100
AcDbRotatedDimension
1001
ACAD
1000
DSTYLE
1002
{
1070
   179
1070
     0
1070
   271
1070
     1
1070
    43
1040
25.0
1070
    44
1040
0.0
1070
    42
1040
25.0
1002
}
  0
LINE
  5
235A
330
A
100
AcDbEntity
  8
MODEL
  6
Continuous
100
AcDbLine
 10
1509.364894059761
 20
891.150022333187
 30
0.0
 11
1520.043497868616
 21
891.150022333187
 31
0.0
  0
LINE
  5
235B
330
A
100
AcDbEntity
  8
MODEL
  6
Continuous
100
AcDbLine
 10
1509.364894059761
 20
870.5168615470418
 30
0.0
 11
1520.043497868616
 21
870.5168615470418
 31
0.0
  0
LINE
  5
235C
330
A
100
AcDbEntity
  8
MODEL
  6
Continuous
100
AcDbLine
 10
1520.043497868616
 20
891.150022333187
 30
0.0
 11
1520.043497868616
 21
870.5168615470418
 31
0.0
  0
LINE
  5
235D
330
A
100
AcDbEntity
  8
MODEL
  6
Continuous
100
AcDbLine
 10
1520.043497868616
 20
894.1072441416045
 30
0.0
 11
1520.043497868616
 21
867.5596397386244
 31
0.0
  0
LINE
  5
235E
330
A
100
AcDbEntity
  8
MODEL
  6
Continuous
100
AcDbLine
 10
1520.043497868616
 20
894.1072441416045
 30
0.0
 11
1530.717183700641
 21
894.1072441416045
 31
0.0
  0
LINE
  5
235F
330
A
100
AcDbEntity
  8
MODEL
  6
Continuous
100
AcDbLine
 10
1530.717183700641
 20
894.1072441416045
 30
0.0
 11
1530.717183700641
 21
867.5596397386244
 31
0.0
  0
LINE
  5
2360
330
A
100
AcDbEntity
  8
MODEL
  6
Continuous
100
AcDbLine
 10
1520.043497868616
 20
867.5596397386244
 30
0.0
 11
1530.717183700641
 21
867.5596397386244
 31
0.0
  0
LINE
  5
2361
330
A
100
AcDbEntity
  8
MODEL
  6
Continuous
100
AcDbLine
 10
1520.043497868616
 20
873.010251562743
 30
0.0
 11
1530.717183700641
 21
873.010251562743
 31
0.0
  0
LINE
  5
2362
330
A
100
AcDbEntity
  8
MODEL
  6
Continuous
100
AcDbLine
 10
1520.043497868616
 20
888.6566323174859
 30
0.0
 11
1530.717183700641
 21
888.6566323174859
 31
0.0
  0
SPLINE
  5
236C
330
A
100
AcDbEntity
  8
MODEL
  6
Continuous
100
AcDbSpline
210
0.0
220
0.0
230
1.0
 70
     8
 71
     3
 72
    10
 73
     6
 74
     0
 42
0.000000001
 43
0.0000000001
 40
0.0
 40
0.0
 40
0.0
 40
0.0
 40
28.26457167667983
 40
59.75084139836831
 40
60.89580146925439
 40
60.89580146925439
 40
60.89580146925439
 40
60.89580146925439
 10
1530.717183700641
 20
890.9166880391934
 30
0.0
 10
1540.181244551806
 20
890.6658573622983
 30
0.0
 10
1560.188114118806
 20
890.1356054213014
 30
0.0
 10
1579.939747120463
 20
896.8663680357845
 30
0.0
 10
1589.434492135468
 20
902.3132580516703
 30
0.0
 10
1589.76629018503
 20
902.5066114575621
 30
0.0
  0
SPLINE
  5
236D
330
A
100
AcDbEntity
  8
MODEL
  6
Continuous
100
AcDbSpline
210
0.0
220
0.0
230
1.0
 70
     8
 71
     3
 72
    25
 73
    21
 74
     0
 42
0.000000001
 43
0.0000000001
 40
0.0
 40
0.0
 40
0.0
 40
0.0
 40
8.636155543889636
 40
17.80844760705519
 40
22.59662210295897
 40
27.52279371621348
 40
32.58796078924063
 40
37.69713199520453
 40
42.80562312308917
 40
47.91501192653631
 40
53.02673821686997
 40
58.14218332369721
 40
63.26275053468186
 40
68.38994414142451
 40
73.51720453653647
 40
78.61766945329502
 40
83.69153529518832
 40
88.74119547244176
 40
93.76863335476773
 40
98.72791158884588
 40
98.72791158884588
 40
98.72791158884588
 40
98.72791158884588
 10
1530.213794089092
 20
871.9233576598475
 30
0.0
 10
1533.091502079487
 20
871.8470883443297
 30
0.0
 10
1539.025570241478
 20
871.6911173205519
 30
0.0
 10
1546.560654484511
 20
871.716587630989
 30
0.0
 10
1552.850349932542
 20
872.0133540596612
 30
0.0
 10
1557.760815119369
 20
872.426989012605
 30
0.0
 10
1562.754683421431
 20
873.0729365217961
 30
0.0
 10
1567.769914812344
 20
873.9789753700287
 30
0.0
 10
1572.748881282086
 20
875.1333555900355
 30
0.0
 10
1577.66639721669
 20
876.5295917853596
 30
0.0
 10
1582.512538717383
 20
878.1635543042441
 30
0.0
 10
1587.277216550462
 20
880.0319812957382
 30
0.0
 10
1591.950040882763
 20
882.1321802829186
 30
0.0
 10
1596.517989917047
 20
884.460467271551
 30
0.0
 10
1600.958903767455
 20
887.0093622380516
 30
0.0
 10
1605.254580809675
 20
889.7630436594903
 30
0.0
 10
1609.393545069934
 20
892.7024272705427
 30
0.0
 10
1613.373206959169
 20
895.8146050421708
 30
0.0
 10
1617.180175870086
 20
899.0772410447765
 30
0.0
 10
1619.61202744098
 20
901.3519896174896
 30
0.0
 10
1620.79523432754
 20
902.5066114575803
 30
0.0
  0
DIMENSION
  5
23CD
330
A
100
AcDbEntity
  8
Dim
  6
Continuous
100
AcDbDimension
  2
*D33
 10
1484.416767432871
 20
1021.840502075404
 30
0.0
 11
1484.416767432871
 21
1116.028462036341
 31
0.0
 70
   160
  1
110(深さ)
 71
     5
 42
112.0835542907809
 73
     0
 74
     1
 75
     1
  3
JIS
100
AcDbAlignedDimension
 13
1484.416754161721
 23
909.7569477846228
 33
0.0
 14
1484.416767432871
 24
1021.840502075404
 34
0.0
 50
90.0
100
AcDbRotatedDimension
1001
ACAD
1000
DSTYLE
1002
{
1070
   172
1070
     1
1070
    76
1070
     1
1070
    75
1070
     1
1070
   175
1070
     0
1070
   179
1070
     0
1070
   271
1070
     0
1070
    43
1040
25.0
1070
    44
1040
0.0
1070
    42
1040
25.0
1002
}
  0
SPLINE
  5
23DD
102
{ACAD_REACTORS
330
23ED
102
}
330
A
100
AcDbEntity
  8
HIDDEN
 48
0.5
100
AcDbSpline
210
0.0
220
0.0
230
1.0
 70
     8
 71
     3
 72
    19
 73
    15
 74
     0
 42
0.000000001
 43
0.0000000001
 40
98.72791158881991
 40
98.72791158881991
 40
98.72791158881991
 40
98.72791158881991
 40
98.77542673049834
 40
103.7627614902627
 40
108.7314542237962
 40
113.6819947977643
 40
118.6156411310903
 40
123.5342135669684
 40
128.439127042166
 40
133.3316273135808
 40
138.2128033462619
 40
143.0828840546065
 40
147.8162027109986
 40
156.2368052394255
 40
156.2368052394255
 40
156.2368052394255
 40
156.2368052394255
 10
1620.795234327521
 20
902.506611457562
 30
0.0
 10
1620.806570703542
 20
902.5176739585406
 30
0.0
 10
1622.007570281655
 20
903.6901337105087
 30
0.0
 10
1624.343767410144
 20
906.0708340859071
 30
0.0
 10
1627.674343666405
 20
909.7601080504851
 30
0.0
 10
1630.840344023854
 20
913.5682268256826
 30
0.0
 10
1633.841162762964
 20
917.4867414933553
 30
0.0
 10
1636.676316608277
 20
921.5080928377038
 30
0.0
 10
1639.345550241253
 20
925.625057671071
 30
0.0
 10
1641.848525243475
 20
929.8306289268189
 30
0.0
 10
1644.185000597277
 20
934.1176657776573
 30
0.0
 10
1646.335170820478
 20
938.4419552424151
 30
0.0
 10
1648.814277458844
 20
943.9157290342549
 30
0.0
 10
1650.483655619261
 20
947.970875046867
 30
0.0
 10
1651.547572283818
 20
950.5682942557409
 30
0.0
  0
LINE
  5
23DE
102
{ACAD_REACTORS
330
23ED
102
}
330
A
100
AcDbEntity
  8
HIDDEN
 48
0.5
100
AcDbLine
 10
1644.167754894513
 20
999.0259478372818
 30
0.0
 11
1634.252693667811
 21
976.0761861637753
 31
0.0
  0
LINE
  5
23DF
102
{ACAD_REACTORS
330
23ED
102
}
330
A
100
AcDbEntity
  8
HIDDEN
 48
0.5
100
AcDbLine
 10
1644.167754894513
 20
999.0259478372818
 30
0.0
 11
1649.85574501693
 21
996.5685467050629
 31
0.0
  0
LINE
  5
23E0
102
{ACAD_REACTORS
330
23ED
102
}
330
A
100
AcDbEntity
  8
HIDDEN
 48
0.5
100
AcDbLine
 10
1649.85574501693
 20
996.5685467050629
 30
0.0
 11
1633.29157174951
 21
958.4554943769222
 31
0.0
  0
LINE
  5
23E1
102
{ACAD_REACTORS
330
23ED
102
}
330
A
100
AcDbEntity
  8
HIDDEN
 48
0.5
100
AcDbLine
 10
1639.940683790228
 20
973.618785031556
 30
0.0
 11
1634.252693667811
 21
976.0761861637753
 31
0.0
  0
LINE
  5
23E2
102
{ACAD_REACTORS
330
23ED
102
}
330
A
100
AcDbEntity
  8
HIDDEN
 48
0.5
100
AcDbLine
 10
1649.85574501693
 20
996.5685467050629
 30
0.0
 11
1668.029105059107
 21
988.7170500282539
 31
0.0
  0
LINE
  5
23E3
102
{ACAD_REACTORS
330
23ED
102
}
330
A
100
AcDbEntity
  8
HIDDEN
 48
0.5
100
AcDbLine
 10
1668.029105059107
 20
988.7170500282539
 30
0.0
 11
1655.260730498586
 21
959.162905437309
 31
0.0
  0
LINE
  5
23E4
102
{ACAD_REACTORS
330
23ED
102
}
330
A
100
AcDbEntity
  8
HIDDEN
 48
0.5
100
AcDbLine
 10
1655.260730498586
 20
959.162905437309
 30
0.0
 11
1637.087370456409
 21
967.0144021141173
 31
0.0
  0
LINE
  5
23E5
102
{ACAD_REACTORS
330
23ED
102
}
330
A
100
AcDbEntity
  8
HIDDEN
 48
0.5
100
AcDbLine
 10
1655.260730498586
 20
959.162905437309
 30
0.0
 11
1651.547572283818
 21
950.5682942557409
 31
0.0
  0
LINE
  5
23E6
102
{ACAD_REACTORS
330
23ED
102
}
330
A
100
AcDbEntity
  8
HIDDEN
 48
0.5
100
AcDbLine
 10
1651.547572283818
 20
950.5682942557409
 30
0.0
 11
1633.29157174951
 21
958.4554943769222
 31
0.0
  0
SPLINE
  5
23E7
102
{ACAD_REACTORS
330
23ED
102
}
330
A
100
AcDbEntity
  8
HIDDEN
 48
0.5
100
AcDbSpline
210
0.0
220
0.0
230
1.0
 70
     8
 71
     3
 72
    10
 73
     6
 74
     0
 42
0.000000001
 43
0.0000000001
 40
60.89580146925395
 40
60.89580146925395
 40
60.89580146925395
 40
60.89580146925395
 40
95.11749522657652
 40
120.3442268025031
 40
133.1633651210827
 40
133.1633651210827
 40
133.1633651210827
 40
133.1633651210827
 10
1589.76629018503
 20
902.5066114575618
 30
0.0
 10
1599.683396929722
 20
908.285748400074
 30
0.0
 10
1614.812417986413
 20
921.7914446246184
 30
0.0
 10
1627.672648556834
 20
942.40717919974
 30
0.0
 10
1632.482106933037
 20
954.148869114732
 30
0.0
 10
1634.102601150489
 20
958.1051026699512
 30
0.0
  0
MTEXT
  5
2469
330
A
100
AcDbEntity
  8
Dim
390
1D
100
AcDbMText
 10
649.8363030761967
 20
2384.898432039662
 30
0.0
 40
24.0
 41
1169.771715461011
 46
24.72
 71
     1
 72
     1
  1
{%%c35}
  7
ＭＳ ゴシック
 73
     1
 44
1.174240107638677
1001
ACAD
1000
ACAD_MTEXT_DEFINED_HEIGHT_BEGIN
1070
    46
1040
24.72
1000
ACAD_MTEXT_DEFINED_HEIGHT_END
  0
LINE
  5
246A
330
A
100
AcDbEntity
  8
Dim
100
AcDbLine
 10
643.4343754387635
 20
2356.332829378839
 30
0.0
 11
547.3162660631883
 21
2281.97723280861
 31
0.0
  0
LINE
  5
24A6
330
A
100
AcDbEntity
  8
Dim
  6
CENTER
 48
0.1
100
AcDbLine
 10
1687.521988840847
 20
1004.886049266965
 30
0.0
 11
1687.521988840847
 21
1040.051384203458
 31
0.0
  0
LINE
  5
24A7
330
A
100
AcDbEntity
  8
Dim
  6
CENTER
 48
0.1
100
AcDbLine
 10
1722.521988840847
 20
1004.886049266965
 30
0.0
 11
1722.521988840847
 21
1040.051384203458
 31
0.0
  0
HATCH
  5
282A
330
A
100
AcDbEntity
  8
Dim
  6
Continuous
100
AcDbHatch
 10
0.0
 20
0.0
 30
0.0
210
0.0
220
0.0
230
1.0
  2
SOLID
 70
     1
 71
     0
 91
        2
 92
        1
 93
        1
 72
     2
 10
3743.459739229794
 20
-5372.647918778261
 40
113.8561191788032
 50
0.0
 51
360.0
 73
     1
 97
        0
 92
       16
 93
        1
 72
     2
 10
3743.459739229794
 20
-5372.647918778261
 40
113.8561191788032
 50
0.0
 51
360.0
 73
     1
 97
        0
 75
     0
 76
     1
 98
        1
 10
2948.232151775882
 20
60.53041391713214
450
        1
451
        0
460
0.0
461
0.0
452
        1
462
0.0
453
        2
463
0.0
 63
   252
421
  9868950
463
1.0
 63
     7
421
 16777215
470
LINEAR
1001
ACAD
1010
0.0
1020
0.0
1030
0.0
  0
MTEXT
  5
294F
330
A
100
AcDbEntity
  8
レイヤー 1
100
AcDbMText
 10
8650.795797257306
 20
-6472.138404742315
 30
0.0
 40
0.158758563512107
 41
0.0
 46
0.0
 71
     7
 72
     1
  1
\fMyriad Pro|b0|i0|c0|p34;\W1; 
 73
     1
 44
1.0
  0
MTEXT
  5
2A5F
330
A
100
AcDbEntity
  8
Dim
390
1D
100
AcDbMText
 10
1228.715891070109
 20
1648.212682942351
 30
0.0
 40
24.0
 41
790.0
 46
151.9402781481255
 71
     1
 72
     1
  1
{\pxr0.447879;\fＭＳ ゴシック|b0|i0|c1|p0;※こちらの切込寸法は参考寸法です。\P\pr0;　製品に付属している型紙とは\P　一部寸法が異なりますので\P　加工を行う際はご注意ください。}
  7
ＭＳ ゴシック
 73
     1
 44
1.043768984567712
1001
ACAD
1000
ACAD_MTEXT_DEFINED_HEIGHT_BEGIN
1070
    46
1040
151.9402781481255
1000
ACAD_MTEXT_DEFINED_HEIGHT_END
  0
LINE
  5
2A61
102
{ACAD_REACTORS
330
2AA9
102
}
330
A
100
AcDbEntity
  8
MODEL
100
AcDbLine
 10
1708.188235107493
 20
2270.579401291691
 30
0.0
 11
1708.188235107493
 21
2213.575780259129
 31
0.0
  0
LINE
  5
2A62
102
{ACAD_REACTORS
330
2AA9
102
}
330
A
100
AcDbEntity
  8
MODEL
100
AcDbLine
 10
1228.195339097507
 20
2293.335305512354
 30
0.0
 11
1228.38688653285
 21
2295.285747608025
 31
0.0
  0
LINE
  5
2A63
102
{ACAD_REACTORS
330
2AA9
102
}
330
A
100
AcDbEntity
  8
MODEL
100
AcDbLine
 10
1228.38688653285
 20
2295.285747608025
 30
0.0
 11
1228.956016682466
 21
2297.161947847013
 31
0.0
  0
LINE
  5
2A64
102
{ACAD_REACTORS
330
2AA9
102
}
330
A
100
AcDbEntity
  8
MODEL
100
AcDbLine
 10
1228.956016682466
 20
2297.161947847013
 30
0.0
 11
1229.880508665815
 21
2298.890525647068
 31
0.0
  0
LINE
  5
2A65
102
{ACAD_REACTORS
330
2AA9
102
}
330
A
100
AcDbEntity
  8
MODEL
100
AcDbLine
 10
1229.880508665815
 20
2298.890525647068
 30
0.0
 11
1231.123499936887
 21
2300.40567964102
 31
0.0
  0
LINE
  5
2A66
102
{ACAD_REACTORS
330
2AA9
102
}
330
A
100
AcDbEntity
  8
MODEL
100
AcDbLine
 10
1231.123499936887
 20
2300.40567964102
 30
0.0
 11
1232.639687460166
 21
2301.649532186532
 31
0.0
  0
LINE
  5
2A67
102
{ACAD_REACTORS
330
2AA9
102
}
330
A
100
AcDbEntity
  8
MODEL
100
AcDbLine
 10
1232.639687460166
 20
2301.649532186532
 30
0.0
 11
1234.368954279775
 21
2302.57316289544
 31
0.0
  0
LINE
  5
2A68
102
{ACAD_REACTORS
330
2AA9
102
}
330
A
100
AcDbEntity
  8
MODEL
100
AcDbLine
 10
1234.368954279775
 20
2302.57316289544
 30
0.0
 11
1236.244637754097
 21
2303.142637554831
 31
0.0
  0
LINE
  5
2A69
102
{ACAD_REACTORS
330
2AA9
102
}
330
A
100
AcDbEntity
  8
MODEL
100
AcDbLine
 10
1236.244637754097
 20
2303.142637554831
 30
0.0
 11
1238.195596614431
 21
2303.334874009728
 31
0.0
  0
LINE
  5
2A6A
102
{ACAD_REACTORS
330
2AA9
102
}
330
A
100
AcDbEntity
  8
MODEL
100
AcDbLine
 10
1708.195469812785
 20
2293.335650022129
 30
0.0
 11
1708.195469812785
 21
2197.623771855553
 31
0.0
  0
LINE
  5
2A6B
102
{ACAD_REACTORS
330
2AA9
102
}
330
A
100
AcDbEntity
  8
MODEL
100
AcDbLine
 10
1231.123499936887
 20
2190.552708707334
 30
0.0
 11
1230.464797245565
 21
2191.279796589155
 31
0.0
  0
LINE
  5
2A6C
102
{ACAD_REACTORS
330
2AA9
102
}
330
A
100
AcDbEntity
  8
MODEL
100
AcDbLine
 10
1230.464797245565
 20
2191.279796589155
 30
0.0
 11
1229.880508665815
 21
2192.068551720839
 31
0.0
  0
LINE
  5
2A6D
102
{ACAD_REACTORS
330
2AA9
102
}
330
A
100
AcDbEntity
  8
MODEL
100
AcDbLine
 10
1229.880508665815
 20
2192.068551720839
 30
0.0
 11
1229.376146354049
 21
2192.909672338445
 31
0.0
  0
LINE
  5
2A6E
102
{ACAD_REACTORS
330
2AA9
102
}
330
A
100
AcDbEntity
  8
MODEL
100
AcDbLine
 10
1229.376146354049
 20
2192.909672338445
 30
0.0
 11
1228.956016682466
 21
2193.797301775782
 31
0.0
  0
LINE
  5
2A6F
102
{ACAD_REACTORS
330
2AA9
102
}
330
A
100
AcDbEntity
  8
MODEL
100
AcDbLine
 10
1228.956016682466
 20
2193.797301775782
 30
0.0
 11
1228.62545955259
 21
2194.721621504245
 31
0.0
  0
LINE
  5
2A70
102
{ACAD_REACTORS
330
2AA9
102
}
330
A
100
AcDbEntity
  8
MODEL
100
AcDbLine
 10
1228.62545955259
 20
2194.721621504245
 30
0.0
 11
1228.38688653285
 21
2195.67264074033
 31
0.0
  0
LINE
  5
2A71
102
{ACAD_REACTORS
330
2AA9
102
}
330
A
100
AcDbEntity
  8
MODEL
100
AcDbLine
 10
1228.38688653285
 20
2195.67264074033
 30
0.0
 11
1228.244087230783
 21
2196.644158308076
 31
0.0
  0
LINE
  5
2A72
102
{ACAD_REACTORS
330
2AA9
102
}
330
A
100
AcDbEntity
  8
MODEL
100
AcDbLine
 10
1228.244087230783
 20
2196.644158308076
 30
0.0
 11
1228.195339097507
 21
2197.623771855553
 31
0.0
  0
LINE
  5
2A73
102
{ACAD_REACTORS
330
2AA9
102
}
330
A
100
AcDbEntity
  8
MODEL
100
AcDbLine
 10
1231.123499936887
 20
2190.552708707334
 30
0.0
 11
1425.769800712844
 21
1995.907785970483
 31
0.0
  0
LINE
  5
2A74
102
{ACAD_REACTORS
330
2AA9
102
}
330
A
100
AcDbEntity
  8
MODEL
100
AcDbLine
 10
1228.195339097507
 20
2293.335305512354
 30
0.0
 11
1228.195339097507
 21
2197.623771855553
 31
0.0
  0
LINE
  5
2A75
102
{ACAD_REACTORS
330
2AA9
102
}
330
A
100
AcDbEntity
  8
MODEL
100
AcDbLine
 10
1238.195596614431
 20
2303.334874009728
 30
0.0
 11
1698.197451609404
 21
2303.334874009728
 31
0.0
  0
LINE
  5
2A76
102
{ACAD_REACTORS
330
2AA9
102
}
330
A
100
AcDbEntity
  8
MODEL
100
AcDbLine
 10
1708.195469812785
 20
2293.335650022129
 30
0.0
 11
1708.004955906769
 21
2295.285747608025
 31
0.0
  0
LINE
  5
2A77
102
{ACAD_REACTORS
330
2AA9
102
}
330
A
100
AcDbEntity
  8
MODEL
100
AcDbLine
 10
1708.004955906769
 20
2295.285747608025
 30
0.0
 11
1707.436859286482
 21
2297.161947847013
 31
0.0
  0
LINE
  5
2A78
102
{ACAD_REACTORS
330
2AA9
102
}
330
A
100
AcDbEntity
  8
MODEL
100
AcDbLine
 10
1707.436859286482
 20
2297.161947847013
 30
0.0
 11
1706.509094460262
 21
2298.890525647068
 31
0.0
  0
LINE
  5
2A79
102
{ACAD_REACTORS
330
2AA9
102
}
330
A
100
AcDbEntity
  8
MODEL
100
AcDbLine
 10
1706.509094460262
 20
2298.890525647068
 30
0.0
 11
1705.267481228294
 21
2300.406024150796
 31
0.0
  0
LINE
  5
2A7A
102
{ACAD_REACTORS
330
2AA9
102
}
330
A
100
AcDbEntity
  8
MODEL
100
AcDbLine
 10
1705.267481228294
 20
2300.406024150796
 30
0.0
 11
1703.753705273445
 21
2301.649876696307
 31
0.0
  0
LINE
  5
2A7B
102
{ACAD_REACTORS
330
2AA9
102
}
330
A
100
AcDbEntity
  8
MODEL
100
AcDbLine
 10
1703.753705273445
 20
2301.649876696307
 30
0.0
 11
1702.025299728276
 21
2302.573507405216
 31
0.0
  0
LINE
  5
2A7C
102
{ACAD_REACTORS
330
2AA9
102
}
330
A
100
AcDbEntity
  8
MODEL
100
AcDbLine
 10
1702.025299728276
 20
2302.573507405216
 30
0.0
 11
1700.148410469737
 21
2303.142637554831
 31
0.0
  0
LINE
  5
2A7D
102
{ACAD_REACTORS
330
2AA4
330
2AA9
102
}
330
A
100
AcDbEntity
  8
MODEL
100
AcDbLine
 10
1700.148410469737
 20
2303.142637554831
 30
0.0
 11
1698.197451609404
 21
2303.334874009728
 31
0.0
  0
LINE
  5
2A7E
102
{ACAD_REACTORS
330
2AA9
102
}
330
A
100
AcDbEntity
  8
MODEL
100
AcDbLine
 10
1705.267481228294
 20
2190.552708707334
 30
0.0
 11
1705.926872939167
 21
2191.28014109893
 31
0.0
  0
LINE
  5
2A7F
102
{ACAD_REACTORS
330
2AA9
102
}
330
A
100
AcDbEntity
  8
MODEL
100
AcDbLine
 10
1705.926872939167
 20
2191.28014109893
 30
0.0
 11
1706.509094460262
 21
2192.068896230614
 31
0.0
  0
LINE
  5
2A80
102
{ACAD_REACTORS
330
2AA9
102
}
330
A
100
AcDbEntity
  8
MODEL
100
AcDbLine
 10
1706.509094460262
 20
2192.068896230614
 30
0.0
 11
1707.013456772028
 21
2192.909672338445
 31
0.0
  0
LINE
  5
2A81
102
{ACAD_REACTORS
330
2AA9
102
}
330
A
100
AcDbEntity
  8
MODEL
100
AcDbLine
 10
1707.013456772028
 20
2192.909672338445
 30
0.0
 11
1707.436859286482
 21
2193.797301775782
 31
0.0
  0
LINE
  5
2A82
102
{ACAD_REACTORS
330
2AA9
102
}
330
A
100
AcDbEntity
  8
MODEL
100
AcDbLine
 10
1707.436859286482
 20
2193.797301775782
 30
0.0
 11
1707.764832593039
 21
2194.721621504245
 31
0.0
  0
LINE
  5
2A83
102
{ACAD_REACTORS
330
2AA9
102
}
330
A
100
AcDbEntity
  8
MODEL
100
AcDbLine
 10
1707.764832593039
 20
2194.721621504245
 30
0.0
 11
1708.004955906769
 21
2195.672985250105
 31
0.0
  0
LINE
  5
2A84
102
{ACAD_REACTORS
330
2AA9
102
}
330
A
100
AcDbEntity
  8
MODEL
100
AcDbLine
 10
1708.004955906769
 20
2195.672985250105
 30
0.0
 11
1708.149650012604
 21
2196.644158308076
 31
0.0
  0
LINE
  5
2A85
102
{ACAD_REACTORS
330
2AA9
102
}
330
A
100
AcDbEntity
  8
MODEL
100
AcDbLine
 10
1708.149650012604
 20
2196.644158308076
 30
0.0
 11
1708.195469812785
 21
2197.623771855553
 31
0.0
  0
LINE
  5
2A86
102
{ACAD_REACTORS
330
2AA1
330
2AA9
102
}
330
A
100
AcDbEntity
  8
MODEL
100
AcDbLine
 10
1705.267481228294
 20
2190.552708707334
 30
0.0
 11
1510.623247510992
 21
1995.907785970483
 31
0.0
  0
LINE
  5
2A87
102
{ACAD_REACTORS
330
2AA9
102
}
330
A
100
AcDbEntity
  8
MODEL
100
AcDbLine
 10
1425.769800712844
 20
1995.907785970483
 30
0.0
 11
1429.228678861837
 21
1992.709357211992
 31
0.0
  0
LINE
  5
2A88
102
{ACAD_REACTORS
330
2AA9
102
}
330
A
100
AcDbEntity
  8
MODEL
100
AcDbLine
 10
1429.228678861837
 20
1992.709357211992
 30
0.0
 11
1432.928713853888
 21
1989.793426469652
 31
0.0
  0
LINE
  5
2A89
102
{ACAD_REACTORS
330
2AA9
102
}
330
A
100
AcDbEntity
  8
MODEL
100
AcDbLine
 10
1432.928713853888
 20
1989.793426469652
 30
0.0
 11
1436.846306769354
 21
1987.176185702927
 31
0.0
  0
LINE
  5
2A8A
102
{ACAD_REACTORS
330
2AA9
102
}
330
A
100
AcDbEntity
  8
MODEL
100
AcDbLine
 10
1436.846306769354
 20
1987.176185702927
 30
0.0
 11
1440.956480649491
 21
1984.873482361507
 31
0.0
  0
LINE
  5
2A8B
102
{ACAD_REACTORS
330
2AA9
102
}
330
A
100
AcDbEntity
  8
MODEL
100
AcDbLine
 10
1440.956480649491
 20
1984.873482361507
 30
0.0
 11
1445.234947555103
 21
1982.900819385297
 31
0.0
  0
LINE
  5
2A8C
102
{ACAD_REACTORS
330
2AA9
102
}
330
A
100
AcDbEntity
  8
MODEL
100
AcDbLine
 10
1445.234947555103
 20
1982.900819385297
 30
0.0
 11
1449.655007978568
 21
1981.270943636005
 31
0.0
  0
LINE
  5
2A8D
102
{ACAD_REACTORS
330
2AA9
102
}
330
A
100
AcDbEntity
  8
MODEL
100
AcDbLine
 10
1449.655007978568
 20
1981.270943636005
 30
0.0
 11
1454.189790157373
 21
1979.990745309147
 31
0.0
  0
LINE
  5
2A8E
102
{ACAD_REACTORS
330
2AA9
102
}
330
A
100
AcDbEntity
  8
MODEL
100
AcDbLine
 10
1454.189790157373
 20
1979.990745309147
 30
0.0
 11
1458.810010760575
 21
1979.073660285978
 31
0.0
  0
LINE
  5
2A8F
102
{ACAD_REACTORS
330
2AA9
102
}
330
A
100
AcDbEntity
  8
MODEL
100
AcDbLine
 10
1458.810010760575
 20
1979.073660285978
 30
0.0
 11
1463.488453515887
 21
1978.518999546947
 31
0.0
  0
LINE
  5
2A90
102
{ACAD_REACTORS
330
2AA4
330
2AA9
102
}
330
A
100
AcDbEntity
  8
MODEL
100
AcDbLine
 10
1463.488453515887
 20
1978.518999546947
 30
0.0
 11
1468.195146072815
 21
1978.333997797343
 31
0.0
  0
LINE
  5
2A91
102
{ACAD_REACTORS
330
2AA9
102
}
330
A
100
AcDbEntity
  8
MODEL
100
AcDbLine
 10
1468.195146072815
 20
1978.333997797343
 30
0.0
 11
1472.903216668845
 21
1978.518999546947
 31
0.0
  0
LINE
  5
2A92
102
{ACAD_REACTORS
330
2AA9
102
}
330
A
100
AcDbEntity
  8
MODEL
100
AcDbLine
 10
1472.903216668845
 20
1978.518999546947
 30
0.0
 11
1477.582692953484
 21
1979.073660285978
 31
0.0
  0
LINE
  5
2A93
102
{ACAD_REACTORS
330
2AA9
102
}
330
A
100
AcDbEntity
  8
MODEL
100
AcDbLine
 10
1477.582692953484
 20
1979.073660285978
 30
0.0
 11
1482.203602576238
 21
1979.990745309147
 31
0.0
  0
LINE
  5
2A94
102
{ACAD_REACTORS
330
2AA9
102
}
330
A
100
AcDbEntity
  8
MODEL
100
AcDbLine
 10
1482.203602576238
 20
1979.990745309147
 30
0.0
 11
1486.737695735492
 21
1981.270943636005
 31
0.0
  0
LINE
  5
2A95
102
{ACAD_REACTORS
330
2AA9
102
}
330
A
100
AcDbEntity
  8
MODEL
100
AcDbLine
 10
1486.737695735492
 20
1981.270943636005
 30
0.0
 11
1491.157067139404
 21
1982.900819385297
 31
0.0
  0
LINE
  5
2A96
102
{ACAD_REACTORS
330
2AA9
102
}
330
A
100
AcDbEntity
  8
MODEL
100
AcDbLine
 10
1491.157067139404
 20
1982.900819385297
 30
0.0
 11
1495.436223064569
 21
1984.873482361507
 31
0.0
  0
LINE
  5
2A97
102
{ACAD_REACTORS
330
2AA9
102
}
330
A
100
AcDbEntity
  8
MODEL
100
AcDbLine
 10
1495.436223064569
 20
1984.873482361507
 30
0.0
 11
1499.546913709369
 21
1987.176185702927
 31
0.0
  0
LINE
  5
2A98
102
{ACAD_REACTORS
330
2AA9
102
}
330
A
100
AcDbEntity
  8
MODEL
100
AcDbLine
 10
1499.546913709369
 20
1987.176185702927
 30
0.0
 11
1503.462267311292
 21
1989.793426469652
 31
0.0
  0
LINE
  5
2A99
102
{ACAD_REACTORS
330
2AA9
102
}
330
A
100
AcDbEntity
  8
MODEL
100
AcDbLine
 10
1503.462267311292
 20
1989.793426469652
 30
0.0
 11
1507.163335832671
 21
1992.709357211992
 31
0.0
  0
LINE
  5
2A9A
102
{ACAD_REACTORS
330
2AA9
102
}
330
A
100
AcDbEntity
  8
MODEL
100
AcDbLine
 10
1507.163335832671
 20
1992.709357211992
 30
0.0
 11
1510.623247510992
 21
1995.907785970483
 31
0.0
  0
MTEXT
  5
2A9B
102
{ACAD_REACTORS
330
2A9C
102
}
330
A
100
AcDbEntity
  8
Dim
  6
Continuous
100
AcDbMText
 10
1549.836663632571
 20
1941.407219893045
 30
0.0
 40
24.0
 41
0.0
 46
24.0
 71
     7
 72
     1
  1
{R60}
  7
ＭＳ ゴシック
 73
     1
 44
0.25
1001
ACAD
1000
ACAD_MTEXT_DEFINED_HEIGHT_BEGIN
1070
    46
1040
24.0
1000
ACAD_MTEXT_DEFINED_HEIGHT_END
  0
LEADER
  5
2A9C
102
{ACAD_XDICTIONARY
360
2A9D
102
}
330
A
100
AcDbEntity
  8
Dim
  6
Continuous
100
AcDbLeader
  3
tfrom線あり
 73
     0
 74
     0
 40
24.0
 41
44.112
 76
     3
 10
1474.487947442559
 20
1978.380766199145
 30
0.0
 10
1529.341423171001
 20
1921.407219893045
 30
0.0
 10
1529.836663632571
 20
1921.407219893045
 30
0.0
340
2A9B
  0
MTEXT
  5
2A9E
330
A
100
AcDbEntity
  8
Dim
  6
Continuous
100
AcDbMText
 10
1071.453251741001
 20
2053.755053510993
 30
0.0
 40
24.0
 41
0.0
 46
0.0
 71
     9
 72
     1
  1
R10
  7
ＭＳ ゴシック
 73
     1
 44
0.25
  0
DIMENSION
  5
2A9F
102
{ACAD_REACTORS
330
2AA1
102
}
102
{ACAD_XDICTIONARY
360
2AA0
102
}
330
A
100
AcDbEntity
  8
Dim
  6
Continuous
100
AcDbDimension
  2
*D66
 10
1510.623247510992
 20
1995.907785970483
 30
0.0
 11
1536.954422890228
 21
2116.150413946515
 31
0.0
 70
    34
  1
<>
 71
     5
 42
0.7853963934546244
 73
     0
 74
     0
 75
     0
  3
tfrom線あり
100
AcDb2LineAngularDimension
 13
1470.549181370829
 23
1995.814017556007
 33
0.0
 14
1470.549181370829
 24
1978.426498672146
 34
0.0
 15
1705.267481228294
 25
2190.552708707334
 35
0.0
 16
1541.10185179076
 26
2078.034720747968
 36
0.0
1001
ACAD
1000
DSTYLE
1002
{
1070
   179
1070
     0
1002
}
  0
DIMENSION
  5
2AA2
102
{ACAD_REACTORS
330
2AA4
102
}
102
{ACAD_XDICTIONARY
360
2AA3
102
}
330
A
100
AcDbEntity
  8
Dim
  6
Continuous
100
AcDbDimension
  2
*D67
 10
1821.521525347684
 20
1978.333997797343
 30
0.0
 11
1789.521525347684
 21
2140.834435903535
 31
0.0
 70
    32
 71
     5
 42
325.000876212385
 73
     0
 74
     0
 75
     0
  3
tfrom線あり
100
AcDbAlignedDimension
 13
1698.197451609404
 23
2303.334874009728
 33
0.0
 14
1468.195146072815
 24
1978.333997797343
 34
0.0
 50
90.0
100
AcDbRotatedDimension
  0
DIMENSION
  5
2AA5
330
A
100
AcDbEntity
  8
Dim
  6
Continuous
100
AcDbDimension
  2
*D68
 10
1228.195339097507
 20
1732.501792377653
 30
0.0
 11
1468.100147502138
 21
1764.501792377653
 31
0.0
 70
    32
 71
     5
 42
479.8096168092625
 73
     0
 74
     0
 75
     0
  3
tfrom線あり
100
AcDbAlignedDimension
 13
1708.004955906769
 23
2132.863873381415
 33
0.0
 14
1228.195339097507
 24
2130.913431285746
 34
0.0
100
AcDbRotatedDimension
  0
LINE
  5
2AA6
330
A
100
AcDbEntity
  8
Dim
  6
Continuous
100
AcDbLine
 10
1468.196524111918
 20
2038.334874009728
 30
0.0
 11
1339.01339160415
 21
2038.334874009728
 31
0.0
  0
DIMENSION
  5
2AA7
330
A
100
AcDbEntity
  8
Dim
  6
Continuous
100
AcDbDimension
  2
*D69
 10
1821.521525347684
 20
2318.334874009728
 30
0.0
 11
1821.521525347684
 21
2367.486874009728
 31
0.0
 70
   160
 71
     5
 42
15.0
 73
     0
 74
     1
 75
     1
  3
tfrom線あり
100
AcDbAlignedDimension
 13
1698.197451609404
 23
2303.334874009728
 33
0.0
 14
1761.169892375799
 24
2318.334874009728
 34
0.0
 50
90.0
100
AcDbRotatedDimension
1001
ACAD
1000
DSTYLE
1002
{
1070
   172
1070
     1
1002
}
  0
CIRCLE
  5
2AA8
330
A
100
AcDbEntity
  8
MODEL
  6
HIDDEN
 48
0.05
100
AcDbCircle
 10
1467.916093154417
 20
2044.618367680081
 30
0.0
 40
22.99933001054539
  0
HATCH
  5
2AA9
330
A
100
AcDbEntity
  8
Dim
  6
Continuous
100
AcDbHatch
 10
0.0
 20
0.0
 30
0.0
210
0.0
220
0.0
230
1.0
  2
ANSI31
 70
     0
 71
     1
 91
        2
 92
        1
 93
        1
 72
     1
 10
1708.188235107493
 20
2270.579401291691
 11
1708.188235107493
 21
2213.575780259129
 97
        1
330
2A61
 92
        1
 93
       57
 72
     1
 10
1228.195339097507
 20
2293.335305512354
 11
1228.38688653285
 21
2295.285747608025
 72
     1
 10
1228.38688653285
 20
2295.285747608025
 11
1228.956016682466
 21
2297.161947847013
 72
     1
 10
1228.956016682466
 20
2297.161947847013
 11
1229.880508665815
 21
2298.890525647068
 72
     1
 10
1229.880508665815
 20
2298.890525647068
 11
1231.123499936887
 21
2300.40567964102
 72
     1
 10
1231.123499936887
 20
2300.40567964102
 11
1232.639687460166
 21
2301.649532186532
 72
     1
 10
1232.639687460166
 20
2301.649532186532
 11
1234.368954279775
 21
2302.57316289544
 72
     1
 10
1234.368954279775
 20
2302.57316289544
 11
1236.244637754097
 21
2303.142637554831
 72
     1
 10
1236.244637754097
 20
2303.142637554831
 11
1238.195596614431
 21
2303.334874009728
 72
     1
 10
1228.195339097507
 20
2293.335305512354
 11
1228.195339097507
 21
2197.623771855553
 72
     1
 10
1228.244087230783
 20
2196.644158308076
 11
1228.195339097507
 21
2197.623771855553
 72
     1
 10
1228.38688653285
 20
2195.67264074033
 11
1228.244087230783
 21
2196.644158308076
 72
     1
 10
1228.62545955259
 20
2194.721621504245
 11
1228.38688653285
 21
2195.67264074033
 72
     1
 10
1228.956016682466
 20
2193.797301775782
 11
1228.62545955259
 21
2194.721621504245
 72
     1
 10
1229.376146354049
 20
2192.909672338445
 11
1228.956016682466
 21
2193.797301775782
 72
     1
 10
1229.880508665815
 20
2192.068551720839
 11
1229.376146354049
 21
2192.909672338445
 72
     1
 10
1230.464797245565
 20
2191.279796589155
 11
1229.880508665815
 21
2192.068551720839
 72
     1
 10
1231.123499936887
 20
2190.552708707334
 11
1230.464797245565
 21
2191.279796589155
 72
     1
 10
1231.123499936887
 20
2190.552708707334
 11
1425.769800712844
 21
1995.907785970483
 72
     1
 10
1238.195596614431
 20
2303.334874009728
 11
1698.197451609404
 21
2303.334874009728
 72
     1
 10
1700.148410469737
 20
2303.142637554831
 11
1698.197451609404
 21
2303.334874009728
 72
     1
 10
1702.025299728276
 20
2302.573507405216
 11
1700.148410469737
 21
2303.142637554831
 72
     1
 10
1703.753705273445
 20
2301.649876696307
 11
1702.025299728276
 21
2302.573507405216
 72
     1
 10
1705.267481228294
 20
2300.406024150796
 11
1703.753705273445
 21
2301.649876696307
 72
     1
 10
1706.509094460262
 20
2298.890525647068
 11
1705.267481228294
 21
2300.406024150796
 72
     1
 10
1707.436859286482
 20
2297.161947847013
 11
1706.509094460262
 21
2298.890525647068
 72
     1
 10
1708.004955906769
 20
2295.285747608025
 11
1707.436859286482
 21
2297.161947847013
 72
     1
 10
1708.195469812785
 20
2293.335650022129
 11
1708.004955906769
 21
2295.285747608025
 72
     1
 10
1708.195469812785
 20
2293.335650022129
 11
1708.195469812785
 21
2197.623771855553
 72
     1
 10
1708.149650012604
 20
2196.644158308076
 11
1708.195469812785
 21
2197.623771855553
 72
     1
 10
1708.004955906769
 20
2195.672985250105
 11
1708.149650012604
 21
2196.644158308076
 72
     1
 10
1707.764832593039
 20
2194.721621504245
 11
1708.004955906769
 21
2195.672985250105
 72
     1
 10
1707.436859286482
 20
2193.797301775782
 11
1707.764832593039
 21
2194.721621504245
 72
     1
 10
1707.013456772028
 20
2192.909672338445
 11
1707.436859286482
 21
2193.797301775782
 72
     1
 10
1706.509094460262
 20
2192.068896230614
 11
1707.013456772028
 21
2192.909672338445
 72
     1
 10
1705.926872939167
 20
2191.28014109893
 11
1706.509094460262
 21
2192.068896230614
 72
     1
 10
1705.267481228294
 20
2190.552708707334
 11
1705.926872939167
 21
2191.28014109893
 72
     1
 10
1705.267481228294
 20
2190.552708707334
 11
1510.623247510992
 21
1995.907785970483
 72
     1
 10
1425.769800712844
 20
1995.907785970483
 11
1429.228678861837
 21
1992.709357211992
 72
     1
 10
1429.228678861837
 20
1992.709357211992
 11
1432.928713853888
 21
1989.793426469652
 72
     1
 10
1432.928713853888
 20
1989.793426469652
 11
1436.846306769354
 21
1987.176185702927
 72
     1
 10
1436.846306769354
 20
1987.176185702927
 11
1440.956480649491
 21
1984.873482361507
 72
     1
 10
1440.956480649491
 20
1984.873482361507
 11
1445.234947555103
 21
1982.900819385297
 72
     1
 10
1445.234947555103
 20
1982.900819385297
 11
1449.655007978568
 21
1981.270943636005
 72
     1
 10
1449.655007978568
 20
1981.270943636005
 11
1454.189790157373
 21
1979.990745309147
 72
     1
 10
1454.189790157373
 20
1979.990745309147
 11
1458.810010760575
 21
1979.073660285978
 72
     1
 10
1458.810010760575
 20
1979.073660285978
 11
1463.488453515887
 21
1978.518999546947
 72
     1
 10
1463.488453515887
 20
1978.518999546947
 11
1468.195146072815
 21
1978.333997797343
 72
     1
 10
1468.195146072815
 20
1978.333997797343
 11
1472.903216668845
 21
1978.518999546947
 72
     1
 10
1472.903216668845
 20
1978.518999546947
 11
1477.582692953484
 21
1979.073660285978
 72
     1
 10
1477.582692953484
 20
1979.073660285978
 11
1482.203602576238
 21
1979.990745309147
 72
     1
 10
1482.203602576238
 20
1979.990745309147
 11
1486.737695735492
 21
1981.270943636005
 72
     1
 10
1486.737695735492
 20
1981.270943636005
 11
1491.157067139404
 21
1982.900819385297
 72
     1
 10
1491.157067139404
 20
1982.900819385297
 11
1495.436223064569
 21
1984.873482361507
 72
     1
 10
1495.436223064569
 20
1984.873482361507
 11
1499.546913709369
 21
1987.176185702927
 72
     1
 10
1499.546913709369
 20
1987.176185702927
 11
1503.462267311292
 21
1989.793426469652
 72
     1
 10
1503.462267311292
 20
1989.793426469652
 11
1507.163335832671
 21
1992.709357211992
 72
     1
 10
1507.163335832671
 20
1992.709357211992
 11
1510.623247510992
 21
1995.907785970483
 97
       57
330
2A62
330
2A63
330
2A64
330
2A65
330
2A66
330
2A67
330
2A68
330
2A69
330
2A74
330
2A72
330
2A71
330
2A70
330
2A6F
330
2A6E
330
2A6D
330
2A6C
330
2A6B
330
2A73
330
2A75
330
2A7D
330
2A7C
330
2A7B
330
2A7A
330
2A79
330
2A78
330
2A77
330
2A76
330
2A6A
330
2A85
330
2A84
330
2A83
330
2A82
330
2A81
330
2A80
330
2A7F
330
2A7E
330
2A86
330
2A87
330
2A88
330
2A89
330
2A8A
330
2A8B
330
2A8C
330
2A8D
330
2A8E
330
2A8F
330
2A90
330
2A91
330
2A92
330
2A93
330
2A94
330
2A95
330
2A96
330
2A97
330
2A98
330
2A99
330
2A9A
 75
     0
 76
     1
 52
0.0
 41
5.0
 77
     0
 78
     1
 53
45.0
 43
-81.86761142605701
 44
11786.81622817612
 45
-11.22532015133644
 46
11.22532015133644
 79
     0
 98
        1
 10
-81.86761142605701
 20
11786.81622817612
1001
ACAD
1010
0.0
1020
0.0
1030
0.0
  0
SPLINE
  5
2AAA
330
A
100
AcDbEntity
  8
MODEL
  6
HIDDEN
 48
0.05
100
AcDbSpline
210
0.0
220
0.0
230
1.0
 70
    11
 71
     3
 72
    17
 73
    13
 74
     0
 42
0.000000001
 43
0.0000000001
 40
0.0
 40
0.0
 40
0.0
 40
0.0
 40
1.0
 40
1.0
 40
1.0
 40
2.0
 40
2.0
 40
2.0
 40
3.0
 40
3.0
 40
3.0
 40
4.0
 40
4.0
 40
4.0
 40
4.0
 10
1450.416719092853
 20
2272.518474564762
 30
0.0
 10
1450.416719092853
 20
2282.185418873602
 30
0.0
 10
1458.250871394458
 20
2290.019571175206
 30
0.0
 10
1467.91437060554
 20
2290.019571175206
 30
0.0
 10
1477.584760012139
 20
2290.019571175206
 30
0.0
 10
1485.415467215986
 20
2282.185418873602
 30
0.0
 10
1485.415467215986
 20
2272.518474564762
 30
0.0
 10
1485.415467215986
 20
2262.854975353679
 30
0.0
 10
1477.584760012139
 20
2255.017377954316
 30
0.0
 10
1467.91437060554
 20
2255.017377954316
 30
0.0
 10
1458.250871394458
 20
2255.017377954316
 30
0.0
 10
1450.416719092853
 20
2262.854975353679
 30
0.0
 10
1450.416719092853
 20
2272.518474564762
 30
0.0
  0
MTEXT
  5
2AAB
330
A
100
AcDbEntity
  8
Dim
  6
Continuous
100
AcDbMText
 10
1071.453251741001
 20
2387.536197545926
 30
0.0
 40
24.0
 41
0.0
 46
0.0
 71
     9
 72
     1
  1
R10
  7
ＭＳ ゴシック
 73
     1
 44
0.25
  0
LINE
  5
2AAC
330
A
100
AcDbEntity
  8
Dim
  6
Continuous
100
AcDbLine
 10
1018.308342714169
 20
2374.273730951798
 30
0.0
 11
1093.445223622466
 21
2374.273730951798
 31
0.0
  0
LINE
  5
2AAD
330
A
100
AcDbEntity
  8
Dim
  6
Continuous
100
AcDbLine
 10
1093.445223622466
 20
2374.273730951798
 30
0.0
 11
1232.639687460166
 21
2301.649532186532
 31
0.0
  0
LINE
  5
2AAE
330
A
100
AcDbEntity
  8
Dim
  6
Continuous
100
AcDbLine
 10
1021.857115397068
 20
2039.72965858764
 30
0.0
 11
1083.261286379357
 21
2039.72965858764
 31
0.0
  0
LINE
  5
2AAF
330
A
100
AcDbEntity
  8
Dim
  6
Continuous
100
AcDbLine
 10
1083.261286379357
 20
2039.72965858764
 30
0.0
 11
1228.38688653285
 21
2195.67264074033
 31
0.0
  0
DIMENSION
  5
2AB0
330
A
100
AcDbEntity
  8
Dim
  6
Continuous
100
AcDbDimension
  2
*D70
 10
1133.844910624066
 20
2303.334874009728
 30
0.0
 11
1101.844910624066
 21
2170.834874009728
 31
0.0
 70
    32
 71
     5
 42
264.9999999999998
 73
     0
 74
     0
 75
     0
  3
tfrom線あり
100
AcDbAlignedDimension
 13
1468.196524111918
 23
2038.334874009728
 33
0.0
 14
1238.195596614431
 24
2303.334874009728
 34
0.0
 50
90.0
100
AcDbRotatedDimension
  0
DIMENSION
  5
2AF2
330
A
100
AcDbEntity
  8
Dim
  6
Continuous
100
AcDbDimension
  2
*D71
 10
154.3466238880593
 20
2317.232494671609
 30
0.0
 11
132.1303152943093
 21
2272.232494671609
 31
0.0
 70
    32
 71
     5
 42
90.0
 73
     0
 74
     0
 75
     0
  3
JIS
100
AcDbAlignedDimension
 13
228.143151489871
 23
2227.232494671609
 33
0.0
 14
228.143151489871
 24
2317.232494671609
 34
0.0
 50
90.0
100
AcDbRotatedDimension
1001
ACAD
1000
DSTYLE
1002
{
1070
   179
1070
     0
1070
   271
1070
     0
1070
    43
1040
25.0
1070
    44
1040
0.0
1070
    42
1040
25.0
1002
}
  0
DIMENSION
  5
2B02
330
A
100
AcDbEntity
  8
Dim
  6
Continuous
100
AcDbDimension
  2
*D72
 10
1218.069528638858
 20
899.506761241599
 30
0.0
 11
1195.853220045108
 21
901.006761241599
 31
0.0
 70
    32
 71
     5
 42
2.99999999999999
 73
     0
 74
     1
 75
     1
  3
JIS
100
AcDbAlignedDimension
 13
1273.999407903719
 23
902.506761241599
 33
0.0
 14
1443.243574062143
 24
899.506761241599
 34
0.0
 50
90.0
100
AcDbRotatedDimension
1001
ACAD
1000
DSTYLE
1002
{
1070
   179
1070
     0
1070
   271
1070
     0
1070
    43
1040
25.0
1070
    44
1040
0.0
1070
    42
1040
25.0
1002
}
  0
LINE
  5
2B54
102
{ACAD_REACTORS
330
2B5E
102
}
330
A
100
AcDbEntity
  8
MODEL
100
AcDbLine
 10
505.933065652124
 20
895.9947793177903
 30
0.0
 11
559.2439389303847
 21
895.9947793177903
 31
0.0
  0
LINE
  5
2B55
102
{ACAD_REACTORS
330
2B5E
102
}
330
A
100
AcDbEntity
  8
MODEL
100
AcDbLine
 10
559.2439389303847
 20
899.1614074658219
 30
0.0
 11
559.2439389303847
 21
895.9947793177903
 31
0.0
  0
LINE
  5
2B56
102
{ACAD_REACTORS
330
2B5E
102
}
330
A
100
AcDbEntity
  8
MODEL
100
AcDbLine
 10
505.933065652124
 20
899.1614074658219
 30
0.0
 11
559.2439389303847
 21
899.1614074658219
 31
0.0
  0
LINE
  5
2B57
102
{ACAD_REACTORS
330
2B5E
102
}
330
A
100
AcDbEntity
  8
MODEL
100
AcDbLine
 10
505.933065652124
 20
899.1614074658219
 30
0.0
 11
505.933065652124
 21
895.9947793177903
 31
0.0
  0
LINE
  5
2B58
102
{ACAD_REACTORS
330
2B5E
102
}
330
A
100
AcDbEntity
  8
MODEL
100
AcDbLine
 10
508.1498394015896
 20
895.9947793177903
 30
0.0
 11
508.1498394015896
 21
867.3280356138534
 31
0.0
  0
LINE
  5
2B59
102
{ACAD_REACTORS
330
2B5E
102
}
330
A
100
AcDbEntity
  8
MODEL
100
AcDbLine
 10
557.0271651809192
 20
895.9947793177903
 30
0.0
 11
557.0271651809192
 21
867.3280356138534
 31
0.0
  0
LINE
  5
2B5A
102
{ACAD_REACTORS
330
2B5E
102
}
330
A
100
AcDbEntity
  8
MODEL
100
AcDbLine
 10
559.2439389303847
 20
864.1614074658219
 30
0.0
 11
505.933065652124
 21
864.1614074658219
 31
0.0
  0
LINE
  5
2B5B
102
{ACAD_REACTORS
330
2B5E
102
}
330
A
100
AcDbEntity
  8
MODEL
100
AcDbLine
 10
505.933065652124
 20
867.3280356138534
 30
0.0
 11
559.2439389303847
 21
867.3280356138534
 31
0.0
  0
LINE
  5
2B5C
102
{ACAD_REACTORS
330
2B5E
102
}
330
A
100
AcDbEntity
  8
MODEL
100
AcDbLine
 10
559.2439389303847
 20
867.3280356138534
 30
0.0
 11
559.2439389303847
 21
864.1614074658219
 31
0.0
  0
LINE
  5
2B5D
102
{ACAD_REACTORS
330
2B5E
102
}
330
A
100
AcDbEntity
  8
MODEL
100
AcDbLine
 10
505.933065652124
 20
867.3280356138534
 30
0.0
 11
505.933065652124
 21
864.1614074658219
 31
0.0
  0
LINE
  5
2BB8
330
A
100
AcDbEntity
  8
MODEL
100
AcDbLine
 10
1509.364894059761
 20
863.3334419401144
 30
0.0
 11
1456.054020781499
 21
863.3334419401144
 31
0.0
  0
LINE
  5
2BB9
330
A
100
AcDbEntity
  8
MODEL
100
AcDbLine
 10
1456.054020781499
 20
866.500070088146
 30
0.0
 11
1509.364894059761
 21
866.500070088146
 31
0.0
  0
LINE
  5
2BBA
330
A
100
AcDbEntity
  8
MODEL
100
AcDbLine
 10
1507.148120310295
 20
895.1668137920828
 30
0.0
 11
1507.148120310295
 21
866.500070088146
 31
0.0
  0
LINE
  5
2BBB
330
A
100
AcDbEntity
  8
MODEL
100
AcDbLine
 10
1509.364894059761
 20
866.500070088146
 30
0.0
 11
1509.364894059761
 21
863.3334419401144
 31
0.0
  0
LINE
  5
2BBD
330
A
100
AcDbEntity
  8
MODEL
100
AcDbLine
 10
1509.364894059761
 20
898.3334419401144
 30
0.0
 11
1509.364894059761
 21
895.1668137920828
 31
0.0
  0
LINE
  5
2BBE
330
A
100
AcDbEntity
  8
MODEL
100
AcDbLine
 10
1456.054020781499
 20
898.3334419401144
 30
0.0
 11
1456.054020781499
 21
895.1668137920828
 31
0.0
  0
LINE
  5
2BBF
330
A
100
AcDbEntity
  8
MODEL
100
AcDbLine
 10
1456.054020781499
 20
895.1668137920828
 30
0.0
 11
1509.364894059761
 21
895.1668137920828
 31
0.0
  0
LINE
  5
2BC0
330
A
100
AcDbEntity
  8
MODEL
100
AcDbLine
 10
1458.270794530965
 20
895.1668137920828
 30
0.0
 11
1458.270794530965
 21
866.500070088146
 31
0.0
  0
LINE
  5
2BC1
330
A
100
AcDbEntity
  8
MODEL
100
AcDbLine
 10
1456.054020781499
 20
866.500070088146
 30
0.0
 11
1456.054020781499
 21
863.3334419401144
 31
0.0
  0
LINE
  5
2BD2
330
A
100
AcDbEntity
  8
MODEL
100
AcDbLine
 10
1456.054020781499
 20
898.3334419401144
 30
0.0
 11
1509.364894059761
 21
898.3334419401144
 31
0.0
  0
VIEWPORT
  5
349
330
B
100
AcDbEntity
 67
     1
  8
0
100
AcDbViewport
 10
202.5
 20
128.5
 30
0.0
 40
486.0
 41
308.4
 68
     1
 69
     1
 12
202.5
 22
128.5
 13
0.0
 23
0.0
 14
0.5
 24
0.5
 15
0.0
 25
0.0
 16
0.0
 26
0.0
 36
1.0
 17
0.0
 27
0.0
 37
0.0
 42
50.0
 43
0.0
 44
0.0
 45
308.4
 50
0.0
 51
0.0
 72
   100
 90
   557152
  1

281
     0
 71
     1
 74
     0
110
0.0
120
0.0
130
0.0
111
1.0
121
0.0
131
0.0
112
0.0
122
1.0
132
0.0
 79
     0
146
0.0
170
     0
 61
     5
348
26C
292
     1
282
     1
141
0.0
142
0.0
 63
   256
  0
VIEWPORT
  5
34A
330
B
100
AcDbEntity
 67
     1
  8
0
100
AcDbViewport
 10
202.5
 20
128.5
 30
0.0
 40
324.0
 41
205.6
 68
     2
 69
     2
 12
986.6781359294573
 22
1427.077061889956
 13
0.0
 23
0.0
 14
0.5
 24
0.5
 15
0.0
 25
0.0
 16
0.0
 26
0.0
 36
1.0
 17
0.0
 27
0.0
 37
0.0
 42
50.0
 43
0.0
 44
0.0
 45
2890.021615685494
 50
0.0
 51
0.0
 72
   100
 90
   557152
  1

281
     0
 71
     1
 74
     0
110
0.0
120
0.0
130
0.0
111
1.0
121
0.0
131
0.0
112
0.0
122
1.0
132
0.0
 79
     0
146
0.0
170
     0
 61
     5
348
26C
292
     1
282
     1
141
0.0
142
0.0
 63
   256
  0
ENDSEC
  0
SECTION
  2
OBJECTS
  0
DICTIONARY
  5
19
330
0
100
AcDbDictionary
281
     1
  3
ACAD_COLOR
350
38F
  3
ACAD_DETAILVIEWSTYLE
350
8CF
  3
ACAD_FIELDLIST
350
BA6
  3
ACAD_GROUP
350
1A
  3
ACAD_IMAGE_VARS
350
27B
  3
ACAD_LAYOUT
350
1E
  3
ACAD_MATERIAL
350
263
  3
ACAD_MLEADERSTYLE
350
336
  3
ACAD_MLINESTYLE
350
1B
  3
ACAD_PLOTSETTINGS
350
22
  3
ACAD_PLOTSTYLENAME
350
1F
  3
ACAD_SCALELIST
350
241
  3
ACAD_SECTIONVIEWSTYLE
350
8D0
  3
ACAD_TABLESTYLE
350
278
  3
ACAD_VISUALSTYLE
350
267
  3
ACDB_RECOMPOSE_DATA
350
2C0F
  3
AcDbVariableDictionary
350
330
  3
APPDATA
350
27A
  3
DimOffsetDictionary
350
C08
  0
SUN
  5
8C2
330
15
100
AcDbSun
 90
        1
290
     0
 63
     7
421
 16777215
 40
1.0
291
     1
 91
  2455826
 92
 54000000
292
     0
 70
     2
 71
   256
280
     1
  0
DICTIONARY
  5
2E1
330
2
100
AcDbDictionary
280
     1
281
     1
  3
ACAD_LAYERSTATES
360
2E2
  3
ACLYDICTIONARY
360
BFE
  0
DICTIONARY
  5
BDC
330
BDB
100
AcDbDictionary
280
     1
281
     1
  3
ACAD_FIELD
360
BE4
  0
DICTIONARY
  5
22A7
330
22A6
100
AcDbDictionary
280
     1
281
     1
  3
ACAD_DIMASSOC
360
22A8
  0
DICTIONARY
  5
2A9D
330
2A9C
100
AcDbDictionary
280
     1
281
     1
  0
DICTIONARY
  5
2AA0
330
2A9F
100
AcDbDictionary
280
     1
281
     1
  3
ACAD_DIMASSOC
360
2AA1
  0
DICTIONARY
  5
2AA3
330
2AA2
100
AcDbDictionary
280
     1
281
     1
  3
ACAD_DIMASSOC
360
2AA4
  0
DICTIONARY
  5
38F
102
{ACAD_REACTORS
330
19
102
}
330
19
100
AcDbDictionary
281
     1
  0
DICTIONARY
  5
8CF
102
{ACAD_REACTORS
330
19
102
}
330
19
100
AcDbDictionary
281
     1
  0
FIELDLIST
  5
BA6
102
{ACAD_REACTORS
330
19
102
}
330
19
100
AcDbIdSet
 90
        2
330
BDF
330
BDE
100
AcDbFieldList
  0
DICTIONARY
  5
1A
102
{ACAD_REACTORS
330
19
102
}
330
19
100
AcDbDictionary
281
     1
  3
*A1
350
1FF5
  3
*A2
350
23ED
  3
*A3
350
2B5E
  0
RASTERVARIABLES
  5
27B
102
{ACAD_REACTORS
330
19
102
}
330
19
100
AcDbRasterVariables
 90
        0
 70
     1
 71
     1
 72
     1
  0
DICTIONARY
  5
1E
102
{ACAD_REACTORS
330
19
102
}
330
19
100
AcDbDictionary
281
     1
  3
Layout1
350
21
  3
Model
350
20
  0
DICTIONARY
  5
263
102
{ACAD_REACTORS
330
19
102
}
330
19
100
AcDbDictionary
281
     1
  3
ByBlock
350
1AFC
  3
ByLayer
350
264
  3
Global
350
266
  0
DICTIONARY
  5
336
102
{ACAD_REACTORS
330
19
102
}
330
19
100
AcDbDictionary
281
     1
  3
Standard
350
8D1
  0
DICTIONARY
  5
1B
102
{ACAD_REACTORS
330
19
102
}
330
19
100
AcDbDictionary
281
     1
  3
Standard
350
1C
  0
DICTIONARY
  5
22
102
{ACAD_REACTORS
330
19
102
}
330
19
100
AcDbDictionary
281
     1
  0
ACDBDICTIONARYWDFLT
  5
1F
102
{ACAD_REACTORS
330
19
102
}
330
19
100
AcDbDictionary
281
     1
  3
Normal
350
1D
100
AcDbDictionaryWithDefault
340
1D
  0
DICTIONARY
  5
241
102
{ACAD_REACTORS
330
19
102
}
330
19
100
AcDbDictionary
281
     1
  3
A0
350
242
  3
A1
350
243
  3
A2
350
244
  3
A3
350
245
  3
A4
350
246
  3
A5
350
247
  3
A6
350
248
  3
A7
350
249
  3
A8
350
24A
  3
A9
350
24B
  3
B0
350
24C
  3
B1
350
24D
  3
B2
350
24E
  3
B3
350
24F
  3
B4
350
250
  3
B5
350
251
  3
B6
350
252
  3
B7
350
253
  3
B8
350
254
  3
B9
350
255
  3
C0
350
256
  3
C1
350
257
  3
C2
350
258
  3
C3
350
259
  3
C4
350
25A
  3
C5
350
25B
  3
C6
350
25C
  3
C7
350
25D
  3
C8
350
25E
  3
C9
350
25F
  3
D0
350
260
  3
D1
350
261
  3
D2
350
262
  0
DICTIONARY
  5
8D0
102
{ACAD_REACTORS
330
19
102
}
330
19
100
AcDbDictionary
281
     1
  0
DICTIONARY
  5
278
102
{ACAD_REACTORS
330
19
102
}
330
19
100
AcDbDictionary
281
     1
  3
Standard
350
279
  0
DICTIONARY
  5
267
102
{ACAD_REACTORS
330
19
102
}
330
19
100
AcDbDictionary
281
     1
  3
2dWireframe
350
26C
  3
3D Hidden
350
26E
  3
3dWireframe
350
26D
  3
Basic
350
26F
  3
Brighten
350
273
  3
ColorChange
350
277
  3
Conceptual
350
271
  3
Dim
350
272
  3
EdgeColorOff
350
8BC
  3
Facepattern
350
276
  3
Flat
350
268
  3
FlatWithEdges
350
269
  3
Gouraud
350
26A
  3
GouraudWithEdges
350
26B
  3
Hidden
350
8B9
  3
JitterOff
350
8BA
  3
Linepattern
350
275
  3
OverhangOff
350
8BB
  3
Realistic
350
270
  3
Shaded
350
8C1
  3
Shaded with edges
350
8C0
  3
Shades of Gray
350
8BD
  3
Sketchy
350
8BE
  3
Thicken
350
274
  3
Wireframe
350
8B8
  3
X-Ray
350
8BF
  0
XRECORD
  5
2C0F
102
{ACAD_REACTORS
330
19
102
}
330
19
100
AcDbXrecord
280
     1
 90
        1
330
279
  0
DICTIONARY
  5
330
102
{ACAD_REACTORS
330
19
102
}
330
19
100
AcDbDictionary
281
     1
  3
CANNOSCALE
350
331
  3
CMLEADERSTYLE
350
8DA
  3
CTABLESTYLE
350
335
  3
HPTRANSPARENCY
350
C07
  3
XCLIPFRAME
350
64A
  0
DICTIONARY
  5
27A
102
{ACAD_REACTORS
330
19
102
}
330
19
100
AcDbDictionary
281
     1
  0
DICTIONARY
  5
C08
102
{ACAD_REACTORS
330
19
102
}
330
19
100
AcDbDictionary
281
     1
  3
DIMRAILANGLE
350
C0B
  3
DIMRAILFIRSTOFFSET
350
C09
  3
DIMRAILOFFSET
350
C0A
  3
DIMRAILSENABLED
350
C0C
  0
DICTIONARY
  5
2E2
102
{ACAD_REACTORS
330
2E1
102
}
330
2E1
100
AcDbDictionary
281
     1
  0
DICTIONARY
  5
BFE
102
{ACAD_REACTORS
330
2E1
102
}
330
2E1
100
AcDbDictionary
281
     1
1001
ACAD
1000
<All
  0
DICTIONARY
  5
BE4
102
{ACAD_REACTORS
330
BDC
102
}
330
BDC
100
AcDbDictionary
280
     1
281
     1
  3
TEXT
360
BDE
  0
DIMASSOC
  5
22A8
102
{ACAD_REACTORS
330
22A7
102
}
330
22A7
100
AcDbDimAssoc
330
22A6
 90
        1
 70
     0
 71
     1
  1
AcDbOsnapPointRef
 72
    10
331
1EB8
 73
     0
 91
        0
 40
0.9879329410308131
 10
0.0
 20
0.0
 30
0.0
 75
     0
  0
DIMASSOC
  5
2AA1
102
{ACAD_REACTORS
330
2AA0
102
}
330
2AA0
100
AcDbDimAssoc
330
2A9F
 90
       12
 70
     0
 71
     1
  1
AcDbOsnapPointRef
 72
    13
331
2A86
 73
     0
 91
        0
 40
0.0
 10
0.0
 20
0.0
 30
0.0
 75
     0
  1
AcDbOsnapPointRef
 72
     1
331
2A86
 73
     0
 91
        0
 40
0.0
 10
0.0
 20
0.0
 30
0.0
 75
     0
  0
DIMASSOC
  5
2AA4
102
{ACAD_REACTORS
330
2AA3
102
}
330
2AA3
100
AcDbDimAssoc
330
2AA2
 90
        3
 70
     0
 71
     1
  1
AcDbOsnapPointRef
 72
     1
331
2A7D
 73
     0
 91
        0
 40
0.0
 10
0.0
 20
0.0
 30
0.0
 75
     0
  1
AcDbOsnapPointRef
 72
     1
331
2A90
 73
     0
 91
        0
 40
0.0
 10
0.0
 20
0.0
 30
0.0
 75
     0
  0
GROUP
  5
1FF5
102
{ACAD_REACTORS
330
1A
102
}
330
1A
100
AcDbGroup
300

 70
     1
 71
     1
340
1FB9
340
1F99
340
1F73
  0
GROUP
  5
23ED
102
{ACAD_REACTORS
330
1A
102
}
330
1A
100
AcDbGroup
300

 70
     1
 71
     1
340
23DE
340
23DF
340
23E0
340
23E1
340
23E2
340
23E3
340
23E4
340
23E5
340
23E6
340
23DD
340
23E7
  0
GROUP
  5
2B5E
102
{ACAD_REACTORS
330
1A
102
}
330
1A
100
AcDbGroup
300

 70
     1
 71
     1
340
2B54
340
2B55
340
2B56
340
2B57
340
2B58
340
2B59
340
2B5A
340
2B5B
340
2B5C
340
2B5D
  0
LAYOUT
  5
21
102
{ACAD_REACTORS
330
1E
102
}
330
1E
100
AcDbPlotSettings
  1

  2
none_device
  4
ISO_A3_(420.00_x_297.00_MM)
  6

 40
7.5
 41
20.0
 42
7.5
 43
20.0
 44
420.0
 45
297.0
 46
0.0
 47
0.0
 48
0.0
 49
0.0
140
0.0
141
0.0
142
1.0
143
1.0
 70
     0
 72
     1
 73
     0
 74
     0
  7

 75
     0
 76
     0
 77
     2
 78
   300
147
1.0
148
0.0
149
0.0
100
AcDbLayout
  1
Layout1
 70
     0
 71
     0
 10
0.0
 20
0.0
 11
0.0
 21
0.0
 12
0.0
 22
0.0
 32
0.0
 14
0.0
 24
0.0
 34
0.0
 15
0.0
 25
0.0
 35
0.0
146
0.0
 13
0.0
 23
0.0
 33
0.0
 16
0.0
 26
0.0
 36
0.0
 17
0.0
 27
0.0
 37
0.0
 76
     0
330
B
331
349
  0
LAYOUT
  5
20
102
{ACAD_REACTORS
330
1E
102
}
330
1E
100
AcDbPlotSettings
  1

  2
none_device
  4
ISO_A3_(420.00_x_297.00_MM)
  6

 40
7.5
 41
20.0
 42
7.5
 43
20.0
 44
420.0
 45
297.0
 46
0.0
 47
0.0
 48
0.0
 49
0.0
140
0.0
141
0.0
142
1.0
143
1.0
 70
  1024
 72
     1
 73
     0
 74
     0
  7

 75
     0
 76
     0
 77
     2
 78
   300
147
1.0
148
0.0
149
0.0
100
AcDbLayout
  1
Model
 70
     0
 71
     1
 10
0.0
 20
0.0
 11
2100.0
 21
2970.0
 12
0.0
 22
0.0
 32
0.0
 14
0.0
 24
-5486.504037957064
 34
0.0
 15
3857.315858408597
 25
2970.0
 35
34.99521132346015
146
0.0
 13
0.0
 23
0.0
 33
0.0
 16
0.0
 26
0.0
 36
0.0
 17
0.0
 27
0.0
 37
0.0
 76
     0
330
A
331
15
  0
MATERIAL
  5
1AFC
102
{ACAD_REACTORS
330
263
102
}
330
263
100
AcDbMaterial
  1
ByBlock
 72
     1
 94
      127
  0
MATERIAL
  5
264
102
{ACAD_REACTORS
330
263
102
}
330
263
100
AcDbMaterial
  1
ByLayer
 72
     1
 94
      127
  0
MATERIAL
  5
266
102
{ACAD_REACTORS
330
263
102
}
330
263
100
AcDbMaterial
  1
Global
 72
     1
 94
      127
  0
MLEADERSTYLE
  5
8D1
102
{ACAD_REACTORS
330
336
102
}
330
336
100
AcDbMLeaderStyle
170
     2
171
     1
172
     0
 90
        2
 40
0.0
 41
0.0
173
     1
 91
-1056964608
340
11
 92
       -2
290
     1
 42
2.0
291
     1
 43
8.0
  3
Standard
341
0
 44
4.0
300

342
17
174
     1
178
     6
175
     1
176
     0
 93
-1056964608
 45
4.0
292
     0
297
     0
 46
4.0
343
0
 94
-1056964608
 47
1.0
 49
1.0
140
1.0
293
     1
141
0.0
294
     1
177
     0
142
1.0
295
     0
296
     0
143
3.75
1001
ACAD_MLEADERVER
1070
     2
  0
MLINESTYLE
  5
1C
102
{ACAD_REACTORS
330
1B
102
}
330
1B
100
AcDbMlineStyle
  2
Standard
 70
     0
  3

 62
     0
 51
90.0
 52
90.0
 71
     2
 49
0.5
 62
   256
  6
BYLAYER
 49
-0.5
 62
   256
  6
BYLAYER
  0
ACDBPLACEHOLDER
  5
1D
102
{ACAD_REACTORS
330
1F
102
}
330
1F
  0
SCALE
  5
242
102
{ACAD_REACTORS
330
241
102
}
330
241
100
AcDbScale
 70
     0
300
1:1
140
1.0
141
1.0
290
     1
  0
SCALE
  5
243
102
{ACAD_REACTORS
330
241
102
}
330
241
100
AcDbScale
 70
     0
300
1:2
140
1.0
141
2.0
290
     0
  0
SCALE
  5
244
102
{ACAD_REACTORS
330
241
102
}
330
241
100
AcDbScale
 70
     0
300
1:4
140
1.0
141
4.0
290
     0
  0
SCALE
  5
245
102
{ACAD_REACTORS
330
241
102
}
330
241
100
AcDbScale
 70
     0
300
1:5
140
1.0
141
5.0
290
     0
  0
SCALE
  5
246
102
{ACAD_REACTORS
330
241
102
}
330
241
100
AcDbScale
 70
     0
300
1:8
140
1.0
141
8.0
290
     0
  0
SCALE
  5
247
102
{ACAD_REACTORS
330
241
102
}
330
241
100
AcDbScale
 70
     0
300
1:10
140
1.0
141
10.0
290
     0
  0
SCALE
  5
248
102
{ACAD_REACTORS
330
241
102
}
330
241
100
AcDbScale
 70
     0
300
1:16
140
1.0
141
16.0
290
     0
  0
SCALE
  5
249
102
{ACAD_REACTORS
330
241
102
}
330
241
100
AcDbScale
 70
     0
300
1:20
140
1.0
141
20.0
290
     0
  0
SCALE
  5
24A
102
{ACAD_REACTORS
330
241
102
}
330
241
100
AcDbScale
 70
     0
300
1:30
140
1.0
141
30.0
290
     0
  0
SCALE
  5
24B
102
{ACAD_REACTORS
330
241
102
}
330
241
100
AcDbScale
 70
     0
300
1:40
140
1.0
141
40.0
290
     0
  0
SCALE
  5
24C
102
{ACAD_REACTORS
330
241
102
}
330
241
100
AcDbScale
 70
     0
300
1:50
140
1.0
141
50.0
290
     0
  0
SCALE
  5
24D
102
{ACAD_REACTORS
330
241
102
}
330
241
100
AcDbScale
 70
     0
300
1:100
140
1.0
141
100.0
290
     0
  0
SCALE
  5
24E
102
{ACAD_REACTORS
330
241
102
}
330
241
100
AcDbScale
 70
     0
300
2:1
140
2.0
141
1.0
290
     0
  0
SCALE
  5
24F
102
{ACAD_REACTORS
330
241
102
}
330
241
100
AcDbScale
 70
     0
300
4:1
140
4.0
141
1.0
290
     0
  0
SCALE
  5
250
102
{ACAD_REACTORS
330
241
102
}
330
241
100
AcDbScale
 70
     0
300
8:1
140
8.0
141
1.0
290
     0
  0
SCALE
  5
251
102
{ACAD_REACTORS
330
241
102
}
330
241
100
AcDbScale
 70
     0
300
10:1
140
10.0
141
1.0
290
     0
  0
SCALE
  5
252
102
{ACAD_REACTORS
330
241
102
}
330
241
100
AcDbScale
 70
     0
300
100:1
140
100.0
141
1.0
290
     0
  0
SCALE
  5
253
102
{ACAD_REACTORS
330
241
102
}
330
241
100
AcDbScale
 70
     0
300
1/128" = 1'-0"
140
0.0078125
141
12.0
290
     0
  0
SCALE
  5
254
102
{ACAD_REACTORS
330
241
102
}
330
241
100
AcDbScale
 70
     0
300
1/64" = 1'-0"
140
0.015625
141
12.0
290
     0
  0
SCALE
  5
255
102
{ACAD_REACTORS
330
241
102
}
330
241
100
AcDbScale
 70
     0
300
1/32" = 1'-0"
140
0.03125
141
12.0
290
     0
  0
SCALE
  5
256
102
{ACAD_REACTORS
330
241
102
}
330
241
100
AcDbScale
 70
     0
300
1/16" = 1'-0"
140
0.0625
141
12.0
290
     0
  0
SCALE
  5
257
102
{ACAD_REACTORS
330
241
102
}
330
241
100
AcDbScale
 70
     0
300
3/32" = 1'-0"
140
0.09375
141
12.0
290
     0
  0
SCALE
  5
258
102
{ACAD_REACTORS
330
241
102
}
330
241
100
AcDbScale
 70
     0
300
1/8" = 1'-0"
140
0.125
141
12.0
290
     0
  0
SCALE
  5
259
102
{ACAD_REACTORS
330
241
102
}
330
241
100
AcDbScale
 70
     0
300
3/16" = 1'-0"
140
0.1875
141
12.0
290
     0
  0
SCALE
  5
25A
102
{ACAD_REACTORS
330
241
102
}
330
241
100
AcDbScale
 70
     0
300
1/4" = 1'-0"
140
0.25
141
12.0
290
     0
  0
SCALE
  5
25B
102
{ACAD_REACTORS
330
241
102
}
330
241
100
AcDbScale
 70
     0
300
3/8" = 1'-0"
140
0.375
141
12.0
290
     0
  0
SCALE
  5
25C
102
{ACAD_REACTORS
330
241
102
}
330
241
100
AcDbScale
 70
     0
300
1/2" = 1'-0"
140
0.5
141
12.0
290
     0
  0
SCALE
  5
25D
102
{ACAD_REACTORS
330
241
102
}
330
241
100
AcDbScale
 70
     0
300
3/4" = 1'-0"
140
0.75
141
12.0
290
     0
  0
SCALE
  5
25E
102
{ACAD_REACTORS
330
241
102
}
330
241
100
AcDbScale
 70
     0
300
1" = 1'-0"
140
1.0
141
12.0
290
     0
  0
SCALE
  5
25F
102
{ACAD_REACTORS
330
241
102
}
330
241
100
AcDbScale
 70
     0
300
1-1/2" = 1'-0"
140
1.5
141
12.0
290
     0
  0
SCALE
  5
260
102
{ACAD_REACTORS
330
241
102
}
330
241
100
AcDbScale
 70
     0
300
3" = 1'-0"
140
3.0
141
12.0
290
     0
  0
SCALE
  5
261
102
{ACAD_REACTORS
330
241
102
}
330
241
100
AcDbScale
 70
     0
300
6" = 1'-0"
140
6.0
141
12.0
290
     0
  0
SCALE
  5
262
102
{ACAD_REACTORS
330
241
102
}
330
241
100
AcDbScale
 70
     0
300
1'-0" = 1'-0"
140
12.0
141
12.0
290
     0
  0
TABLESTYLE
  5
279
102
{ACAD_REACTORS
330
278
102
}
102
{ACAD_XDICTIONARY
360
2C0D
102
}
330
278
100
AcDbTableStyle
  3
Standard
 70
     0
 71
     0
 40
0.06
 41
0.06
280
     0
281
     0
  7
Standard
140
4.5
170
     2
 62
     0
 63
   257
283
     0
 90
        4
 91
        0
  1

274
    -2
284
     1
 64
     0
275
    -2
285
     1
 65
     0
276
    -2
286
     1
 66
     0
277
    -2
287
     1
 67
     0
278
    -2
288
     1
 68
     0
279
    -2
289
     1
 69
     0
  7
Standard
140
6.0
170
     5
 62
     0
 63
   257
283
     0
 90
        4
 91
        0
  1

274
    -2
284
     1
 64
     0
275
    -2
285
     1
 65
     0
276
    -2
286
     1
 66
     0
277
    -2
287
     1
 67
     0
278
    -2
288
     1
 68
     0
279
    -2
289
     1
 69
     0
  7
Standard
140
4.5
170
     5
 62
     0
 63
   257
283
     0
 90
        4
 91
        0
  1

274
    -2
284
     1
 64
     0
275
    -2
285
     1
 65
     0
276
    -2
286
     1
 66
     0
277
    -2
287
     1
 67
     0
278
    -2
288
     1
 68
     0
279
    -2
289
     1
 69
     0
  0
VISUALSTYLE
  5
26C
102
{ACAD_REACTORS
330
267
102
}
330
267
100
AcDbVisualStyle
  2
2dWireframe
 70
     4
 71
     0
 72
     2
 73
     0
 90
        0
 40
-0.6
 41
-30.0
 62
     5
 63
     7
421
 16777215
 74
     1
 91
        4
 64
     7
 65
   257
 75
     1
175
     1
 42
1.0
 92
        0
 66
   257
 43
1.0
 76
     1
 77
     6
 78
     2
 67
     7
 79
     5
170
     0
171
     0
290
     0
174
     0
 93
        1
 44
0.0
173
     0
291
     0
 45
0.0
  0
VISUALSTYLE
  5
26E
102
{ACAD_REACTORS
330
267
102
}
330
267
100
AcDbVisualStyle
  2
3D Hidden
 70
     6
 71
     1
 72
     2
 73
     2
 90
        0
 40
-0.6
 41
-30.0
 62
     5
 63
     7
421
 16777215
 74
     2
 91
        2
 64
     7
 65
   257
 75
     2
175
     1
 42
40.0
 92
        0
 66
   257
 43
1.0
 76
     1
 77
     6
 78
     2
 67
     7
 79
     3
170
     0
171
     0
290
     0
174
     0
 93
        1
 44
0.0
173
     0
291
     0
 45
0.0
  0
VISUALSTYLE
  5
26D
102
{ACAD_REACTORS
330
267
102
}
330
267
100
AcDbVisualStyle
  2
3dWireframe
 70
     5
 71
     0
 72
     2
 73
     0
 90
        0
 40
-0.6
 41
-30.0
 62
     5
 63
     7
421
 16777215
 74
     1
 91
        4
 64
     7
 65
   257
 75
     1
175
     1
 42
1.0
 92
        0
 66
   257
 43
1.0
 76
     1
 77
     6
 78
     2
 67
     7
 79
     5
170
     0
171
     0
290
     0
174
     0
 93
        1
 44
0.0
173
     0
291
     0
 45
0.0
  0
VISUALSTYLE
  5
26F
102
{ACAD_REACTORS
330
267
102
}
330
267
100
AcDbVisualStyle
  2
Basic
 70
     7
 71
     1
 72
     0
 73
     1
 90
        0
 40
-0.6
 41
-30.0
 62
     5
 63
     7
421
 16777215
 74
     0
 91
        4
 64
     7
 65
   257
 75
     1
175
     1
 42
1.0
 92
        8
 66
     7
 43
1.0
 76
     1
 77
     6
 78
     2
 67
     7
 79
     5
170
     0
171
     0
290
     0
174
     0
 93
        1
 44
0.0
173
     0
291
     1
 45
0.0
  0
VISUALSTYLE
  5
273
102
{ACAD_REACTORS
330
267
102
}
330
267
100
AcDbVisualStyle
  2
Brighten
 70
    12
 71
     2
 72
     2
 73
     0
 90
        0
 40
-0.6
 41
-30.0
 62
     5
 63
     7
421
 16777215
 74
     1
 91
        4
 64
     7
 65
   257
 75
     1
175
     1
 42
1.0
 92
        8
 66
     7
 43
1.0
 76
     1
 77
     6
 78
     2
 67
     7
 79
     5
170
     0
171
     0
290
     0
174
     0
 93
        1
 44
50.0
173
     0
291
     1
 45
0.0
  0
VISUALSTYLE
  5
277
102
{ACAD_REACTORS
330
267
102
}
330
267
100
AcDbVisualStyle
  2
ColorChange
 70
    16
 71
     2
 72
     2
 73
     3
 90
        0
 40
-0.6
 41
-30.0
 62
     5
 63
     8
421
  8421504
 74
     1
 91
        4
 64
     7
 65
   257
 75
     1
175
     1
 42
1.0
 92
        8
 66
     8
424
  8421504
 43
1.0
 76
     1
 77
     6
 78
     2
 67
     7
 79
     5
170
     0
171
     0
290
     0
174
     0
 93
        1
 44
0.0
173
     0
291
     1
 45
0.0
  0
VISUALSTYLE
  5
271
102
{ACAD_REACTORS
330
267
102
}
330
267
100
AcDbVisualStyle
  2
Conceptual
 70
     9
 71
     3
 72
     2
 73
     0
 90
        0
 40
-0.6
 41
-30.0
 62
     5
 63
     7
421
 16777215
 74
     2
 91
        2
 64
     7
 65
   257
 75
     1
175
     1
 42
40.0
 92
        8
 66
     7
 43
1.0
 76
     1
 77
     6
 78
     2
 67
     7
 79
     3
170
     0
171
     0
290
     0
174
     0
 93
        1
 44
0.0
173
     0
291
     0
 45
0.0
  0
VISUALSTYLE
  5
272
102
{ACAD_REACTORS
330
267
102
}
330
267
100
AcDbVisualStyle
  2
Dim
 70
    11
 71
     2
 72
     2
 73
     0
 90
        0
 40
-0.6
 41
-30.0
 62
     5
 63
     7
421
 16777215
 74
     1
 91
        4
 64
     7
 65
   257
 75
     1
175
     1
 42
1.0
 92
        8
 66
     7
 43
1.0
 76
     1
 77
     6
 78
     2
 67
     7
 79
     5
170
     0
171
     0
290
     0
174
     0
 93
        1
 44
-50.0
173
     0
291
     1
 45
0.0
  0
VISUALSTYLE
  5
8BC
102
{ACAD_REACTORS
330
267
102
}
330
267
100
AcDbVisualStyle
  2
EdgeColorOff
 70
    22
 71
     2
 72
     2
 73
     0
 90
        0
 40
0.6
 41
30.0
 62
     5
 63
     7
421
 16777215
 74
     1
 91
        4
 64
     7
 65
   257
 75
     1
175
     1
 42
1.0
 92
        8
 66
     7
 43
1.0
 76
     1
 77
     6
 78
     2
 67
     7
 79
     5
170
     0
171
     0
290
     0
174
     0
 93
        1
 44
0.0
173
     0
291
     1
 45
0.0
  0
VISUALSTYLE
  5
276
102
{ACAD_REACTORS
330
267
102
}
330
267
100
AcDbVisualStyle
  2
Facepattern
 70
    15
 71
     2
 72
     2
 73
     0
 90
        0
 40
-0.6
 41
-30.0
 62
     5
 63
     7
421
 16777215
 74
     1
 91
        4
 64
     7
 65
   257
 75
     1
175
     1
 42
1.0
 92
        8
 66
     7
 43
1.0
 76
     1
 77
     6
 78
     2
 67
     7
 79
     5
170
     0
171
     0
290
     0
174
     0
 93
        1
 44
0.0
173
     0
291
     1
 45
0.0
  0
VISUALSTYLE
  5
268
102
{ACAD_REACTORS
330
267
102
}
330
267
100
AcDbVisualStyle
  2
Flat
 70
     0
 71
     2
 72
     1
 73
     1
 90
        2
 40
-0.6
 41
30.0
 62
     5
 63
     7
421
 16777215
 74
     0
 91
        4
 64
     7
 65
   257
 75
     1
175
     1
 42
1.0
 92
        8
 66
     7
 43
1.0
 76
     1
 77
     6
 78
     2
 67
     7
 79
     5
170
     0
171
     0
290
     0
174
     0
 93
       13
 44
0.0
173
     0
291
     1
 45
0.0
  0
VISUALSTYLE
  5
269
102
{ACAD_REACTORS
330
267
102
}
330
267
100
AcDbVisualStyle
  2
FlatWithEdges
 70
     1
 71
     2
 72
     1
 73
     1
 90
        2
 40
-0.6
 41
30.0
 62
     5
 63
     7
421
 16777215
 74
     1
 91
        4
 64
     7
 65
   257
 75
     1
175
     1
 42
1.0
 92
        0
 66
   257
 43
1.0
 76
     1
 77
     6
 78
     2
 67
     7
 79
     5
170
     0
171
     0
290
     0
174
     0
 93
       13
 44
0.0
173
     0
291
     1
 45
0.0
  0
VISUALSTYLE
  5
26A
102
{ACAD_REACTORS
330
267
102
}
330
267
100
AcDbVisualStyle
  2
Gouraud
 70
     2
 71
     2
 72
     2
 73
     1
 90
        2
 40
-0.6
 41
30.0
 62
     5
 63
     7
421
 16777215
 74
     0
 91
        4
 64
     7
 65
   257
 75
     1
175
     1
 42
1.0
 92
        0
 66
     7
 43
1.0
 76
     1
 77
     6
 78
     2
 67
     7
 79
     5
170
     0
171
     0
290
     0
174
     0
 93
       13
 44
0.0
173
     0
291
     1
 45
0.0
  0
VISUALSTYLE
  5
26B
102
{ACAD_REACTORS
330
267
102
}
330
267
100
AcDbVisualStyle
  2
GouraudWithEdges
 70
     3
 71
     2
 72
     2
 73
     1
 90
        2
 40
-0.6
 41
30.0
 62
     5
 63
     7
421
 16777215
 74
     1
 91
        4
 64
     7
 65
   257
 75
     1
175
     1
 42
1.0
 92
        0
 66
   257
 43
1.0
 76
     1
 77
     6
 78
     2
 67
     7
 79
     5
170
     0
171
     0
290
     0
174
     0
 93
       13
 44
0.0
173
     0
291
     1
 45
0.0
  0
VISUALSTYLE
  5
8B9
102
{ACAD_REACTORS
330
267
102
}
330
267
100
AcDbVisualStyle
  2
Hidden
 70
     6
 71
     1
 72
     2
 73
     2
 90
        0
 40
0.6
 41
30.0
 62
     5
 63
     7
421
 16777215
 74
     2
 91
        2
 64
     7
 65
   257
 75
     2
175
     1
 42
40.0
 92
        0
 66
   257
 43
1.0
 76
     1
 77
     6
 78
     2
 67
     7
 79
     3
170
     0
171
     0
290
     0
174
     0
 93
        1
 44
0.0
173
     0
291
     0
 45
0.0
  0
VISUALSTYLE
  5
8BA
102
{ACAD_REACTORS
330
267
102
}
330
267
100
AcDbVisualStyle
  2
JitterOff
 70
    20
 71
     2
 72
     2
 73
     0
 90
        0
 40
0.6
 41
30.0
 62
     5
 63
     7
421
 16777215
 74
     1
 91
        4
 64
     7
 65
   257
 75
     1
175
     1
 42
1.0
 92
       10
 66
     7
 43
1.0
 76
     1
 77
     6
 78
     2
 67
     7
 79
     5
170
     0
171
     0
290
     0
174
     0
 93
        1
 44
0.0
173
     0
291
     1
 45
0.0
  0
VISUALSTYLE
  5
275
102
{ACAD_REACTORS
330
267
102
}
330
267
100
AcDbVisualStyle
  2
Linepattern
 70
    14
 71
     2
 72
     2
 73
     0
 90
        0
 40
-0.6
 41
-30.0
 62
     5
 63
     7
421
 16777215
 74
     1
 91
        4
 64
     7
 65
   257
 75
     7
175
     7
 42
1.0
 92
        8
 66
     7
 43
1.0
 76
     1
 77
     6
 78
     2
 67
     7
 79
     5
170
     0
171
     0
290
     0
174
     0
 93
        1
 44
0.0
173
     0
291
     1
 45
0.0
  0
VISUALSTYLE
  5
8BB
102
{ACAD_REACTORS
330
267
102
}
330
267
100
AcDbVisualStyle
  2
OverhangOff
 70
    21
 71
     2
 72
     2
 73
     0
 90
        0
 40
0.6
 41
30.0
 62
     5
 63
     7
421
 16777215
 74
     1
 91
        4
 64
     7
 65
   257
 75
     1
175
     1
 42
1.0
 92
        9
 66
     7
 43
1.0
 76
     1
 77
     6
 78
     2
 67
     7
 79
     5
170
     0
171
     0
290
     0
174
     0
 93
        1
 44
0.0
173
     0
291
     1
 45
0.0
  0
VISUALSTYLE
  5
270
102
{ACAD_REACTORS
330
267
102
}
330
267
100
AcDbVisualStyle
  2
Realistic
 70
     8
 71
     2
 72
     2
 73
     0
 90
        0
 40
-0.6
 41
-30.0
 62
     5
 63
     7
421
 16777215
 74
     1
 91
        0
 64
     7
 65
   257
 75
     1
175
     1
 42
1.0
 92
        8
 66
     8
424
  7895160
 43
1.0
 76
     1
 77
     6
 78
     2
 67
     7
 79
     5
170
     0
171
     0
290
     0
174
     0
 93
       13
 44
0.0
173
     0
291
     0
 45
0.0
  0
VISUALSTYLE
  5
8C1
102
{ACAD_REACTORS
330
267
102
}
330
267
100
AcDbVisualStyle
  2
Shaded
 70
    27
 71
     2
 72
     2
 73
     1
 90
        2
 40
0.6
 41
30.0
 62
     5
 63
     7
421
 16777215
 74
     0
 91
        4
 64
     7
 65
   257
 75
     1
175
     1
 42
1.0
 92
        8
 66
   257
 43
1.0
 76
     1
 77
     6
 78
     2
 67
     8
425
  7895160
 79
     3
170
     0
171
     0
290
     0
174
     0
 93
        5
 44
0.0
173
     0
291
     0
 45
0.0
  0
VISUALSTYLE
  5
8C0
102
{ACAD_REACTORS
330
267
102
}
330
267
100
AcDbVisualStyle
  2
Shaded with edges
 70
    26
 71
     2
 72
     2
 73
     1
 90
        2
 40
0.6
 41
30.0
 62
     5
 63
     7
421
 16777215
 74
     1
 91
       10
 64
     7
 65
   257
 75
     2
175
     1
 42
1.0
 92
        8
 66
   257
 43
1.0
 76
     1
 77
     6
 78
     2
 67
     7
 79
     3
170
     0
171
     0
290
     0
174
     0
 93
        5
 44
0.0
173
     0
291
     0
 45
0.0
  0
VISUALSTYLE
  5
8BD
102
{ACAD_REACTORS
330
267
102
}
330
267
100
AcDbVisualStyle
  2
Shades of Gray
 70
    23
 71
     2
 72
     2
 73
     3
 90
        0
 40
0.6
 41
30.0
 62
     5
 63
     7
421
 16777215
 74
     2
 91
        2
 64
     7
 65
     7
 75
     1
175
     1
 42
40.0
 92
        8
 66
     7
 43
1.0
 76
     1
 77
     6
 78
     2
 67
     7
 79
     3
170
     0
171
     0
290
     0
174
     0
 93
        1
 44
0.0
173
     0
291
     0
 45
0.0
  0
VISUALSTYLE
  5
8BE
102
{ACAD_REACTORS
330
267
102
}
330
267
100
AcDbVisualStyle
  2
Sketchy
 70
    24
 71
     1
 72
     2
 73
     2
 90
        0
 40
0.6
 41
30.0
 62
     5
 63
     7
421
 16777215
 74
     2
 91
        2
 64
     7
 65
     7
 75
     1
175
     1
 42
40.0
 92
       11
 66
     7
 43
1.0
 76
     1
 77
     6
 78
     2
 67
     7
 79
     6
170
     0
171
     0
290
     0
174
     0
 93
        1
 44
0.0
173
     0
291
     0
 45
0.0
  0
VISUALSTYLE
  5
274
102
{ACAD_REACTORS
330
267
102
}
330
267
100
AcDbVisualStyle
  2
Thicken
 70
    13
 71
     2
 72
     2
 73
     0
 90
        0
 40
-0.6
 41
-30.0
 62
     5
 63
     7
421
 16777215
 74
     1
 91
        4
 64
     7
 65
   257
 75
     1
175
     1
 42
1.0
 92
       12
 66
     7
 43
1.0
 76
     1
 77
     6
 78
     2
 67
     7
 79
     5
170
     0
171
     0
290
     0
174
     0
 93
        1
 44
0.0
173
     0
291
     1
 45
0.0
  0
VISUALSTYLE
  5
8B8
102
{ACAD_REACTORS
330
267
102
}
330
267
100
AcDbVisualStyle
  2
Wireframe
 70
     5
 71
     0
 72
     2
 73
     0
 90
        0
 40
0.6
 41
30.0
 62
     5
 63
     7
421
 16777215
 74
     1
 91
        4
 64
     7
 65
   257
 75
     1
175
     1
 42
1.0
 92
        0
 66
   257
 43
1.0
 76
     1
 77
     6
 78
     2
 67
     7
 79
     3
170
     0
171
     0
290
     0
174
     0
 93
        1
 44
0.0
173
     0
291
     0
 45
0.0
  0
VISUALSTYLE
  5
8BF
102
{ACAD_REACTORS
330
267
102
}
330
267
100
AcDbVisualStyle
  2
X-Ray
 70
    25
 71
     2
 72
     2
 73
     1
 90
        1
 40
0.5
 41
30.0
 62
     5
 63
     7
421
 16777215
 74
     1
 91
        0
 64
     7
 65
   257
 75
     1
175
     1
 42
1.0
 92
        8
 66
     7
 43
1.0
 76
     1
 77
     6
 78
     2
 67
     7
 79
     3
170
     0
171
     0
290
     0
174
     0
 93
       13
 44
0.0
173
     0
291
     0
 45
0.0
  0
DICTIONARYVAR
  5
331
102
{ACAD_REACTORS
330
330
102
}
330
330
100
DictionaryVariables
280
     0
  1
1:1
  0
DICTIONARYVAR
  5
8DA
102
{ACAD_REACTORS
330
330
102
}
330
330
100
DictionaryVariables
280
     0
  1
Standard
  0
DICTIONARYVAR
  5
335
102
{ACAD_REACTORS
330
330
102
}
330
330
100
DictionaryVariables
280
     0
  1
Standard
  0
DICTIONARYVAR
  5
C07
102
{ACAD_REACTORS
330
330
102
}
330
330
100
DictionaryVariables
280
     0
  1
ByLayer
  0
DICTIONARYVAR
  5
64A
102
{ACAD_REACTORS
330
330
102
}
330
330
100
DictionaryVariables
280
     0
  1
0
  0
DICTIONARYVAR
  5
C0B
102
{ACAD_REACTORS
330
C08
102
}
330
C08
100
DictionaryVariables
280
     0
  1
0.261799
  0
DICTIONARYVAR
  5
C09
102
{ACAD_REACTORS
330
C08
102
}
330
C08
100
DictionaryVariables
280
     0
  1
0.400000
  0
DICTIONARYVAR
  5
C0A
102
{ACAD_REACTORS
330
C08
102
}
330
C08
100
DictionaryVariables
280
     0
  1
0.250000
  0
DICTIONARYVAR
  5
C0C
102
{ACAD_REACTORS
330
C08
102
}
330
C08
100
DictionaryVariables
280
     0
  1
1
  0
FIELD
  5
BDE
102
{ACAD_REACTORS
330
BE4
102
}
330
BE4
100
AcDbField
  1
_text
  2
{%<\_FldIdx 0>%N}
 90
        1
360
BDF
 97
        0
 91
       63
 92
        0
 94
        8
 95
        2
 96
        0
300

 93
        1
  6
ACFD_FIELDTEXT_CHECKSUM
 93
        2
 90
        2
140
4462.0
 94
        0
300

302

304
ACVALUE_END
  7
ACFD_FIELD_VALUE
 93
        6
 90
        4
  1
{20180111N}
 94
        0
300

302

304
ACVALUE_END
301
{20180111N}
 98
       11
  0
DICTIONARY
  5
2C0D
330
279
100
AcDbDictionary
280
     1
281
     1
  3
ACAD_ROUNDTRIP_2008_TABLESTYLE_CELLSTYLEMAP
360
2C0E
  0
FIELD
  5
BDF
330
BDE
100
AcDbField
  1
AcVar
  2
\AcVar Date \f "yyyyMMdd"
 90
        0
 97
        0
 91
       63
 92
        0
 94
        8
 95
        2
 96
        0
300

 93
        1
  6
Variable
 93
        2
 90
        4
  1
Date
 94
        0
300

302

304
ACVALUE_END
  7
ACFD_FIELD_VALUE
 93
        6
 90
        8
 92
       16
310
E207010000000B0006002F0014000000
 94
        0
300
yyyyMMdd
302

304
ACVALUE_END
301
20180111
 98
        8
  0
CELLSTYLEMAP
  5
2C0E
102
{ACAD_REACTORS
330
2C0D
102
}
330
2C0D
100
AcDbCellStyleMap
 90
        3
300
CELLSTYLE
  1
TABLEFORMAT_BEGIN
 90
        5
170
     1
 91
        0
 92
    32768
 62
   257
 93
        1
300
CONTENTFORMAT
  1
CONTENTFORMAT_BEGIN
 90
        0
 91
        0
 92
        4
 93
        0
300

 40
0.0
140
1.0
 94
        5
 62
     0
340
17
144
6.0
309
CONTENTFORMAT_END
171
     1
301
MARGIN
  1
CELLMARGIN_BEGIN
 40
0.06
 40
0.06
 40
0.06
 40
0.06
 40
0.18
 40
0.18
309
CELLMARGIN_END
 94
        6
 95
        1
302
GRIDFORMAT
  1
GRIDFORMAT_BEGIN
 90
        0
 91
        1
 62
     0
 92
       -2
340
0
 93
        0
 40
0.045
309
GRIDFORMAT_END
 95
        2
302
GRIDFORMAT
  1
GRIDFORMAT_BEGIN
 90
        0
 91
        1
 62
     0
 92
       -2
340
0
 93
        0
 40
0.045
309
GRIDFORMAT_END
 95
        4
302
GRIDFORMAT
  1
GRIDFORMAT_BEGIN
 90
        0
 91
        1
 62
     0
 92
       -2
340
0
 93
        0
 40
0.045
309
GRIDFORMAT_END
 95
        8
302
GRIDFORMAT
  1
GRIDFORMAT_BEGIN
 90
        0
 91
        1
 62
     0
 92
       -2
340
0
 93
        0
 40
0.045
309
GRIDFORMAT_END
 95
       16
302
GRIDFORMAT
  1
GRIDFORMAT_BEGIN
 90
        0
 91
        1
 62
     0
 92
       -2
340
0
 93
        0
 40
0.045
309
GRIDFORMAT_END
 95
       32
302
GRIDFORMAT
  1
GRIDFORMAT_BEGIN
 90
        0
 91
        1
 62
     0
 92
       -2
340
0
 93
        0
 40
0.045
309
GRIDFORMAT_END
309
TABLEFORMAT_END
  1
CELLSTYLE_BEGIN
 90
        1
 91
        1
300
_TITLE
309
CELLSTYLE_END
300
CELLSTYLE
  1
TABLEFORMAT_BEGIN
 90
        5
170
     1
 91
        0
 92
        0
 62
   257
 93
        1
300
CONTENTFORMAT
  1
CONTENTFORMAT_BEGIN
 90
        0
 91
        0
 92
        4
 93
        0
300

 40
0.0
140
1.0
 94
        5
 62
     0
340
17
144
4.5
309
CONTENTFORMAT_END
171
     1
301
MARGIN
  1
CELLMARGIN_BEGIN
 40
0.06
 40
0.06
 40
0.06
 40
0.06
 40
0.18
 40
0.18
309
CELLMARGIN_END
 94
        6
 95
        1
302
GRIDFORMAT
  1
GRIDFORMAT_BEGIN
 90
        0
 91
        1
 62
     0
 92
       -2
340
0
 93
        0
 40
0.045
309
GRIDFORMAT_END
 95
        2
302
GRIDFORMAT
  1
GRIDFORMAT_BEGIN
 90
        0
 91
        1
 62
     0
 92
       -2
340
0
 93
        0
 40
0.045
309
GRIDFORMAT_END
 95
        4
302
GRIDFORMAT
  1
GRIDFORMAT_BEGIN
 90
        0
 91
        1
 62
     0
 92
       -2
340
0
 93
        0
 40
0.045
309
GRIDFORMAT_END
 95
        8
302
GRIDFORMAT
  1
GRIDFORMAT_BEGIN
 90
        0
 91
        1
 62
     0
 92
       -2
340
0
 93
        0
 40
0.045
309
GRIDFORMAT_END
 95
       16
302
GRIDFORMAT
  1
GRIDFORMAT_BEGIN
 90
        0
 91
        1
 62
     0
 92
       -2
340
0
 93
        0
 40
0.045
309
GRIDFORMAT_END
 95
       32
302
GRIDFORMAT
  1
GRIDFORMAT_BEGIN
 90
        0
 91
        1
 62
     0
 92
       -2
340
0
 93
        0
 40
0.045
309
GRIDFORMAT_END
309
TABLEFORMAT_END
  1
CELLSTYLE_BEGIN
 90
        2
 91
        1
300
_HEADER
309
CELLSTYLE_END
300
CELLSTYLE
  1
TABLEFORMAT_BEGIN
 90
        5
170
     1
 91
        0
 92
        0
 62
   257
 93
        1
300
CONTENTFORMAT
  1
CONTENTFORMAT_BEGIN
 90
        0
 91
        0
 92
        4
 93
        0
300

 40
0.0
140
1.0
 94
        2
 62
     0
340
17
144
4.5
309
CONTENTFORMAT_END
171
     1
301
MARGIN
  1
CELLMARGIN_BEGIN
 40
0.06
 40
0.06
 40
0.06
 40
0.06
 40
0.18
 40
0.18
309
CELLMARGIN_END
 94
        6
 95
        1
302
GRIDFORMAT
  1
GRIDFORMAT_BEGIN
 90
        0
 91
        1
 62
     0
 92
       -2
340
0
 93
        0
 40
0.045
309
GRIDFORMAT_END
 95
        2
302
GRIDFORMAT
  1
GRIDFORMAT_BEGIN
 90
        0
 91
        1
 62
     0
 92
       -2
340
0
 93
        0
 40
0.045
309
GRIDFORMAT_END
 95
        4
302
GRIDFORMAT
  1
GRIDFORMAT_BEGIN
 90
        0
 91
        1
 62
     0
 92
       -2
340
0
 93
        0
 40
0.045
309
GRIDFORMAT_END
 95
        8
302
GRIDFORMAT
  1
GRIDFORMAT_BEGIN
 90
        0
 91
        1
 62
     0
 92
       -2
340
0
 93
        0
 40
0.045
309
GRIDFORMAT_END
 95
       16
302
GRIDFORMAT
  1
GRIDFORMAT_BEGIN
 90
        0
 91
        1
 62
     0
 92
       -2
340
0
 93
        0
 40
0.045
309
GRIDFORMAT_END
 95
       32
302
GRIDFORMAT
  1
GRIDFORMAT_BEGIN
 90
        0
 91
        1
 62
     0
 92
       -2
340
0
 93
        0
 40
0.045
309
GRIDFORMAT_END
309
TABLEFORMAT_END
  1
CELLSTYLE_BEGIN
 90
        3
 91
        2
300
_DATA
309
CELLSTYLE_END
  0
ENDSEC
  0
EOF
