  0
SECTION
  2
HEADER
  9
$ACADVER
  1
AC1021
  9
$ACADMAINTVER
 70
    25
  9
$DWGCODEPAGE
  3
ANSI_932
  9
$LASTSAVEDBY
  1
howeNelson
  9
$INSBASE
 10
0.0
 20
0.0
 30
0.0
  9
$EXTMIN
 10
0.0
 20
0.0
 30
-0.0000000000000071
  9
$EXTMAX
 10
2100.0
 20
2970.0
 30
0.0000000000000142
  9
$LIMMIN
 10
0.0
 20
0.0
  9
$LIMMAX
 10
2100.0
 20
2970.0
  9
$ORTHOMODE
 70
     0
  9
$REGENMODE
 70
     1
  9
$FILLMODE
 70
     1
  9
$QTEXTMODE
 70
     0
  9
$MIRRTEXT
 70
     1
  9
$LTSCALE
 40
5.0
  9
$ATTMODE
 70
     1
  9
$TEXTSIZE
 40
2.5
  9
$TRACEWID
 40
1.0
  9
$TEXTSTYLE
  7
ＭＳ ゴシック
  9
$CLAYER
  8
DIM
  9
$CELTYPE
  6
ByLayer
  9
$CECOLOR
 62
   256
  9
$CELTSCALE
 40
1.0
  9
$DISPSILH
 70
     0
  9
$DIMSCALE
 40
1.0
  9
$DIMASZ
 40
10.0
  9
$DIMEXO
 40
30.0
  9
$DIMDLI
 40
0.9999999999999999
  9
$DIMRND
 40
0.0
  9
$DIMDLE
 40
0.0
  9
$DIMEXE
 40
0.0
  9
$DIMTP
 40
0.0
  9
$DIMTM
 40
0.0
  9
$DIMTXT
 40
24.0
  9
$DIMCEN
 40
0.0
  9
$DIMTSZ
 40
0.0
  9
$DIMTOL
 70
     0
  9
$DIMLIM
 70
     0
  9
$DIMTIH
 70
     0
  9
$DIMTOH
 70
     0
  9
$DIMSE1
 70
     0
  9
$DIMSE2
 70
     0
  9
$DIMTAD
 70
     1
  9
$DIMZIN
 70
    11
  9
$DIMBLK
  1
DOT
  9
$DIMASO
 70
     1
  9
$DIMSHO
 70
     1
  9
$DIMPOST
  1
<>
  9
$DIMAPOST
  1
[]
  9
$DIMALT
 70
     0
  9
$DIMALTD
 70
     1
  9
$DIMALTF
 40
1.0
  9
$DIMLFAC
 40
1.0
  9
$DIMTOFL
 70
     0
  9
$DIMTVP
 40
0.0
  9
$DIMTIX
 70
     1
  9
$DIMSOXD
 70
     0
  9
$DIMSAH
 70
     0
  9
$DIMBLK1
  1

  9
$DIMBLK2
  1

  9
$DIMSTYLE
  2
tfrom線あり
  9
$DIMCLRD
 70
     0
  9
$DIMCLRE
 70
     0
  9
$DIMCLRT
 70
     0
  9
$DIMTFAC
 40
1.0
  9
$DIMGAP
 40
20.0
  9
$DIMJUST
 70
     0
  9
$DIMSD1
 70
     0
  9
$DIMSD2
 70
     0
  9
$DIMTOLJ
 70
     1
  9
$DIMTZIN
 70
    11
  9
$DIMALTZ
 70
    11
  9
$DIMALTTZ
 70
    11
  9
$DIMUPT
 70
     0
  9
$DIMDEC
 70
     0
  9
$DIMTDEC
 70
     1
  9
$DIMALTU
 70
     2
  9
$DIMALTTD
 70
     2
  9
$DIMTXSTY
  7
ＭＳ ゴシック
  9
$DIMAUNIT
 70
     0
  9
$DIMADEC
 70
     2
  9
$DIMALTRND
 40
0.0
  9
$DIMAZIN
 70
     0
  9
$DIMDSEP
 70
    46
  9
$DIMATFIT
 70
     0
  9
$DIMFRAC
 70
     2
  9
$DIMLDRBLK
  1
DOT
  9
$DIMLUNIT
 70
     2
  9
$DIMLWD
 70
    -2
  9
$DIMLWE
 70
    -2
  9
$DIMTMOVE
 70
     0
  9
$DIMFXL
 40
1.0
  9
$DIMFXLON
 70
     0
  9
$DIMJOGANG
 40
0.7853981633974483
  9
$DIMTFILL
 70
     0
  9
$DIMTFILLCLR
 70
     0
  9
$DIMARCSYM
 70
     0
  9
$DIMLTYPE
  6

  9
$DIMLTEX1
  6

  9
$DIMLTEX2
  6

  9
$LUNITS
 70
     2
  9
$LUPREC
 70
     0
  9
$SKETCHINC
 40
0.1
  9
$FILLETRAD
 40
12.0
  9
$AUNITS
 70
     0
  9
$AUPREC
 70
     0
  9
$MENU
  1
acad
  9
$ELEVATION
 40
0.0
  9
$PELEVATION
 40
0.0
  9
$THICKNESS
 40
0.0
  9
$LIMCHECK
 70
     0
  9
$CHAMFERA
 40
0.0
  9
$CHAMFERB
 40
0.0
  9
$CHAMFERC
 40
0.0
  9
$CHAMFERD
 40
0.0
  9
$SKPOLY
 70
     0
  9
$TDCREATE
 40
2447893.375
  9
$TDUCREATE
 40
0.0
  9
$TDUPDATE
 40
2458255.623021505
  9
$TDUUPDATE
 40
2458255.248021505
  9
$TDINDWG
 40
0.1887186111
  9
$TDUSRTIMER
 40
0.0013398611
  9
$USRTIMER
 70
     1
  9
$ANGBASE
 50
0.0
  9
$ANGDIR
 70
     0
  9
$PDMODE
 70
     1
  9
$PDSIZE
 40
-2.0
  9
$PLINEWID
 40
0.0
  9
$SPLFRAME
 70
     0
  9
$SPLINETYPE
 70
     6
  9
$SPLINESEGS
 70
     8
  9
$HANDSEED
  5
4303
  9
$SURFTAB1
 70
     6
  9
$SURFTAB2
 70
     6
  9
$SURFTYPE
 70
     6
  9
$SURFU
 70
     6
  9
$SURFV
 70
     6
  9
$UCSBASE
  2

  9
$UCSNAME
  2

  9
$UCSORG
 10
0.0
 20
0.0
 30
0.0
  9
$UCSXDIR
 10
1.0
 20
0.0
 30
0.0
  9
$UCSYDIR
 10
0.0
 20
1.0
 30
0.0
  9
$UCSORTHOREF
  2

  9
$UCSORTHOVIEW
 70
     0
  9
$UCSORGTOP
 10
0.0
 20
0.0
 30
0.0
  9
$UCSORGBOTTOM
 10
0.0
 20
0.0
 30
0.0
  9
$UCSORGLEFT
 10
0.0
 20
0.0
 30
0.0
  9
$UCSORGRIGHT
 10
0.0
 20
0.0
 30
0.0
  9
$UCSORGFRONT
 10
0.0
 20
0.0
 30
0.0
  9
$UCSORGBACK
 10
0.0
 20
0.0
 30
0.0
  9
$PUCSBASE
  2

  9
$PUCSNAME
  2

  9
$PUCSORG
 10
0.0
 20
0.0
 30
0.0
  9
$PUCSXDIR
 10
1.0
 20
0.0
 30
0.0
  9
$PUCSYDIR
 10
0.0
 20
1.0
 30
0.0
  9
$PUCSORTHOREF
  2

  9
$PUCSORTHOVIEW
 70
     0
  9
$PUCSORGTOP
 10
0.0
 20
0.0
 30
0.0
  9
$PUCSORGBOTTOM
 10
0.0
 20
0.0
 30
0.0
  9
$PUCSORGLEFT
 10
0.0
 20
0.0
 30
0.0
  9
$PUCSORGRIGHT
 10
0.0
 20
0.0
 30
0.0
  9
$PUCSORGFRONT
 10
0.0
 20
0.0
 30
0.0
  9
$PUCSORGBACK
 10
0.0
 20
0.0
 30
0.0
  9
$USERI1
 70
     0
  9
$USERI2
 70
     0
  9
$USERI3
 70
     0
  9
$USERI4
 70
     0
  9
$USERI5
 70
     0
  9
$USERR1
 40
0.0
  9
$USERR2
 40
0.0
  9
$USERR3
 40
0.0
  9
$USERR4
 40
0.0
  9
$USERR5
 40
0.0
  9
$WORLDVIEW
 70
     1
  9
$SHADEDGE
 70
     3
  9
$SHADEDIF
 70
    70
  9
$TILEMODE
 70
     1
  9
$MAXACTVP
 70
    64
  9
$PINSBASE
 10
0.0
 20
0.0
 30
0.0
  9
$PLIMCHECK
 70
     0
  9
$PEXTMIN
 10
0.0
 20
0.0
 30
0.0
  9
$PEXTMAX
 10
0.0
 20
0.0
 30
0.0
  9
$PLIMMIN
 10
-7.5
 20
-20.0
  9
$PLIMMAX
 10
412.5
 20
277.0
  9
$UNITMODE
 70
     0
  9
$VISRETAIN
 70
     0
  9
$PLINEGEN
 70
     1
  9
$PSLTSCALE
 70
     0
  9
$TREEDEPTH
 70
  3020
  9
$CMLSTYLE
  2
Standard
  9
$CMLJUST
 70
     0
  9
$CMLSCALE
 40
1.0
  9
$PROXYGRAPHICS
 70
     0
  9
$MEASUREMENT
 70
     1
  9
$CELWEIGHT
370
    -1
  9
$ENDCAPS
280
     0
  9
$JOINSTYLE
280
     0
  9
$LWDISPLAY
290
     1
  9
$INSUNITS
 70
     4
  9
$HYPERLINKBASE
  1

  9
$STYLESHEET
  1

  9
$XEDIT
290
     1
  9
$CEPSNTYPE
380
     0
  9
$PSTYLEMODE
290
     1
  9
$FINGERPRINTGUID
  2

  9
$VERSIONGUID
  2

  9
$EXTNAMES
290
     1
  9
$PSVPSCALE
 40
0.0
  9
$OLESTARTUP
290
     0
  9
$SORTENTS
280
   127
  9
$INDEXCTL
280
     0
  9
$HIDETEXT
280
     1
  9
$XCLIPFRAME
290
     0
  9
$HALOGAP
280
     0
  9
$OBSCOLOR
 70
   257
  9
$OBSLTYPE
280
     0
  9
$INTERSECTIONDISPLAY
280
     0
  9
$INTERSECTIONCOLOR
 70
   257
  9
$DIMASSOC
280
     2
  9
$PROJECTNAME
  1

  9
$CAMERADISPLAY
290
     0
  9
$LENSLENGTH
 40
50.0
  9
$CAMERAHEIGHT
 40
0.0
  9
$STEPSPERSEC
 40
2.0
  9
$STEPSIZE
 40
6.0
  9
$3DDWFPREC
 40
2.0
  9
$PSOLWIDTH
 40
0.25
  9
$PSOLHEIGHT
 40
4.0
  9
$LOFTANG1
 40
1.570796326794897
  9
$LOFTANG2
 40
1.570796326794897
  9
$LOFTMAG1
 40
0.0
  9
$LOFTMAG2
 40
0.0
  9
$LOFTPARAM
 70
     7
  9
$LOFTNORMALS
280
     1
  9
$LATITUDE
 40
37.795
  9
$LONGITUDE
 40
-122.394
  9
$NORTHDIRECTION
 40
0.0
  9
$TIMEZONE
 70
 -8000
  9
$LIGHTGLYPHDISPLAY
280
     1
  9
$TILEMODELIGHTSYNCH
280
     1
  9
$SOLIDHIST
280
     1
  9
$SHOWHIST
280
     1
  9
$DWFFRAME
280
     2
  9
$DGNFRAME
280
     2
  9
$REALWORLDSCALE
290
     1
  9
$INTERFERECOLOR
 62
   256
  9
$CSHADOW
280
     0
  9
$SHADOWPLANELOCATION
 40
0.0
  0
ENDSEC
  0
SECTION
  2
CLASSES
  0
CLASS
  1
LWPOLYLINE
  2
AcDbPolyline
  3
ObjectDBX Classes
 90
        0
 91
        1
280
     0
281
     1
  0
CLASS
  1
IMAGE
  2
AcDbRasterImage
  3
ISM
 90
      127
 91
        5
280
     0
281
     1
  0
CLASS
  1
OLE2FRAME
  2
AcDbOle2Frame
  3
ObjectDBX Classes
 90
        0
 91
        1
280
     0
281
     1
  0
CLASS
  1
HATCH
  2
AcDbHatch
  3
ObjectDBX Classes
 90
        0
 91
        1
280
     0
281
     1
  0
CLASS
  1
DICTIONARYVAR
  2
AcDbDictionaryVar
  3
ObjectDBX Classes
 90
        0
 91
        4
280
     0
281
     0
  0
CLASS
  1
RASTERVARIABLES
  2
AcDbRasterVariables
  3
ISM
 90
        0
 91
        4
280
     0
281
     0
  0
CLASS
  1
IMAGEDEF
  2
AcDbRasterImageDef
  3
ISM
 90
        0
 91
        4
280
     0
281
     0
  0
CLASS
  1
IMAGEDEF_REACTOR
  2
AcDbRasterImageDefReactor
  3
ISM
 90
        1
 91
        4
280
     0
281
     0
  0
CLASS
  1
IDBUFFER
  2
AcDbIdBuffer
  3
ObjectDBX Classes
 90
        0
 91
        4
280
     0
281
     0
  0
CLASS
  1
SPATIAL_FILTER
  2
AcDbSpatialFilter
  3
ObjectDBX Classes
 90
        0
 91
        4
280
     0
281
     0
  0
CLASS
  1
XRECORD
  2
AcDbXrecord
  3
ObjectDBX Classes
 90
        0
 91
        1
280
     0
281
     0
  0
CLASS
  1
SORTENTSTABLE
  2
AcDbSortentsTable
  3
ObjectDBX Classes
 90
        0
 91
        4
280
     0
281
     0
  0
CLASS
  1
LAYER_INDEX
  2
AcDbLayerIndex
  3
ObjectDBX Classes
 90
        0
 91
        4
280
     0
281
     0
  0
CLASS
  1
SPATIAL_INDEX
  2
AcDbSpatialIndex
  3
AutoCAD 2000
 90
        0
 91
        4
280
     0
281
     0
  0
CLASS
  1
OBJECT_PTR
  2
CAseDLPNTableRecord
  3
ASE-LPNTableRecord
 90
        1
 91
        4
280
     0
281
     0
  0
CLASS
  1
LAYOUT
  2
AcDbLayout
  3
ObjectDBX Classes
 90
        0
 91
        1
280
     0
281
     0
  0
CLASS
  1
PLOTSETTINGS
  2
AcDbPlotSettings
  3
ObjectDBX Classes
 90
        0
 91
        4
280
     0
281
     0
  0
CLASS
  1
ACDBDICTIONARYWDFLT
  2
AcDbDictionaryWithDefault
  3
ObjectDBX Classes
 90
        0
 91
        4
280
     0
281
     0
  0
CLASS
  1
ACDBPLACEHOLDER
  2
AcDbPlaceHolder
  3
ObjectDBX Classes
 90
        0
 91
        1
280
     0
281
     0
  0
CLASS
  1
SCALE
  2
AcDbScale
  3
ObjectDBX Classes
 90
     1153
 91
        4
280
     0
281
     0
  0
CLASS
  1
MATERIAL
  2
AcDbMaterial
  3
ObjectDBX Classes
 90
     1153
 91
        4
280
     0
281
     0
  0
CLASS
  1
VISUALSTYLE
  2
AcDbVisualStyle
  3
ObjectDBX Classes
 90
     4095
 91
        4
280
     0
281
     0
  0
CLASS
  1
TABLESTYLE
  2
AcDbTableStyle
  3
ObjectDBX Classes
 90
     4095
 91
        4
280
     0
281
     0
  0
CLASS
  1
DIMASSOC
  2
AcDbDimAssoc
  3
"AcDbDimAssoc|Product Desc:     AcDim ARX App For Dimension|Company:          Autodesk, Inc.|WEB Address:      www.autodesk.com"
 90
        0
 91
        4
280
     0
281
     0
  0
CLASS
  1
CELLSTYLEMAP
  2
AcDbCellStyleMap
  3
ObjectDBX Classes
 90
     1152
 91
        4
280
     0
281
     0
  0
CLASS
  1
SUN
  2
AcDbSun
  3
SCENEOE
 90
     1153
 91
        4
280
     0
281
     0
  0
CLASS
  1
MLEADERSTYLE
  2
AcDbMLeaderStyle
  3
ACDB_MLEADERSTYLE_CLASS
 90
     4095
 91
        4
280
     0
281
     0
  0
CLASS
  1
FIELD
  2
AcDbField
  3
ObjectDBX Classes
 90
     1152
 91
        4
280
     0
281
     0
  0
CLASS
  1
FIELDLIST
  2
AcDbFieldList
  3
ObjectDBX Classes
 90
     1152
 91
        4
280
     0
281
     0
  0
CLASS
  1
MULTILEADER
  2
AcDbMLeader
  3
ACDB_MLEADER_CLASS
 90
     1025
 91
        4
280
     0
281
     1
  0
ENDSEC
  0
SECTION
  2
TABLES
  0
TABLE
  2
VPORT
  5
7
330
0
100
AcDbSymbolTable
 70
     1
  0
VPORT
  5
15
330
7
100
AcDbSymbolTableRecord
100
AcDbViewportTableRecord
  2
*ACTIVE
 70
     0
 10
0.0
 20
0.0
 11
1.0
 21
1.0
 12
1141.020135670902
 22
1411.401285469834
 13
0.0
 23
0.0
 14
1.0
 24
1.0
 15
0.0
 25
0.0
 16
0.0
 26
0.0
 36
1.0
 17
-91.02013567090216
 27
73.59871453016603
 37
-46.86809886248109
 40
3029.4
 41
2.293948126801153
 42
50.0
 43
0.0
 44
0.0
 50
0.0
 51
0.0
 71
    16
 72
  2000
 73
     1
 74
     1
 75
     0
 76
     0
 77
     0
 78
     0
281
     0
 65
     1
110
0.0
120
0.0
130
0.0
111
1.0
121
0.0
131
0.0
112
0.0
122
1.0
132
0.0
 79
     0
146
0.0
348
26C
 60
     3
 61
     5
292
     1
282
     1
141
0.0
142
0.0
 63
   256
361
904
  0
ENDTAB
  0
TABLE
  2
LTYPE
  5
4
330
0
100
AcDbSymbolTable
 70
     3
  0
LTYPE
  5
11
330
4
100
AcDbSymbolTableRecord
100
AcDbLinetypeTableRecord
  2
ByBlock
 70
     0
  3

 72
    65
 73
     0
 40
0.0
  0
LTYPE
  5
12
330
4
100
AcDbSymbolTableRecord
100
AcDbLinetypeTableRecord
  2
ByLayer
 70
     0
  3

 72
    65
 73
     0
 40
0.0
  0
LTYPE
  5
13
330
4
100
AcDbSymbolTableRecord
100
AcDbLinetypeTableRecord
  2
Continuous
 70
     0
  3
Solid line
 72
    65
 73
     0
 40
0.0
  0
LTYPE
  5
DAF
330
4
100
AcDbSymbolTableRecord
100
AcDbLinetypeTableRecord
  2
BORDER
 70
     0
  3
Border __  __  . __  __  . __  __  . __  __  . 
 72
    65
 73
     6
 40
44.45
 49
12.7
 74
     0
 49
-6.35
 74
     0
 49
12.7
 74
     0
 49
-6.35
 74
     0
 49
0.0
 74
     0
 49
-6.35
 74
     0
  0
LTYPE
  5
33DD
330
4
100
AcDbSymbolTableRecord
100
AcDbLinetypeTableRecord
  2
HIDDEN
 70
     0
  3
Hidden _ _ _ _ _ _ _ _ _ _ _ _ _ _ _ _ _ _ _ _ 
 72
    65
 73
     2
 40
9.524999999999999
 49
6.35
 74
     0
 49
-3.175
 74
     0
  0
ENDTAB
  0
TABLE
  2
LAYER
  5
2
102
{ACAD_XDICTIONARY
360
2E1
102
}
330
0
100
AcDbSymbolTable
 70
    12
  0
LAYER
  5
14
330
2
100
AcDbSymbolTableRecord
100
AcDbLayerTableRecord
  2
0
 70
     0
 62
     7
  6
Continuous
370
    -3
390
1D
347
266
  0
LAYER
  5
4B
330
2
100
AcDbSymbolTableRecord
100
AcDbLayerTableRecord
  2
TEMPLATE
 70
     0
 62
     7
  6
Continuous
370
    20
390
1D
347
266
  0
LAYER
  5
4C
330
2
100
AcDbSymbolTableRecord
100
AcDbLayerTableRecord
  2
DIM
 70
     0
 62
     3
  6
Continuous
370
    13
390
1D
347
266
  0
LAYER
  5
4D
330
2
100
AcDbSymbolTableRecord
100
AcDbLayerTableRecord
  2
MODEL
 70
     0
 62
     7
  6
Continuous
370
    20
390
1D
347
266
  0
LAYER
  5
667
330
2
100
AcDbSymbolTableRecord
100
AcDbLayerTableRecord
  2
LOGO
 70
     0
 62
     7
  6
Continuous
370
    -3
390
1D
347
266
  0
LAYER
  5
D5D
330
2
100
AcDbSymbolTableRecord
100
AcDbLayerTableRecord
  2
Defpoints
 70
     0
 62
     7
  6
Continuous
290
     0
370
    -3
390
1D
347
266
  0
LAYER
  5
DAE
330
2
100
AcDbSymbolTableRecord
100
AcDbLayerTableRecord
  2
BORDER
 70
     0
 62
     4
  6
BORDER
290
     0
370
    20
390
1D
347
266
1001
AcAecLayerStandard
1000

1000

  0
LAYER
  5
157B
330
2
100
AcDbSymbolTableRecord
100
AcDbLayerTableRecord
  2
Layer3
 70
     0
 62
     7
  6
Continuous
370
    -3
390
1D
347
266
  0
LAYER
  5
157F
330
2
100
AcDbSymbolTableRecord
100
AcDbLayerTableRecord
  2
Layer9
 70
     0
 62
     7
  6
Continuous
370
    -3
390
1D
347
266
  0
LAYER
  5
1582
330
2
100
AcDbSymbolTableRecord
100
AcDbLayerTableRecord
  2
Standard
 70
     0
 62
     7
  6
Continuous
370
    -3
390
1D
347
266
  0
LAYER
  5
33DC
330
2
100
AcDbSymbolTableRecord
100
AcDbLayerTableRecord
  2
HIDDEN
 70
     0
 62
     8
  6
HIDDEN
370
    20
390
1D
347
266
1001
AcAecLayerStandard
1000

1000

  0
LAYER
  5
365B
330
2
100
AcDbSymbolTableRecord
100
AcDbLayerTableRecord
  2
レイヤー 1
 70
     0
 62
     7
  6
Continuous
370
    -3
390
1D
347
266
  0
ENDTAB
  0
TABLE
  2
STYLE
  5
3
330
0
100
AcDbSymbolTable
 70
     6
  0
STYLE
  5
17
330
3
100
AcDbSymbolTableRecord
100
AcDbTextStyleTableRecord
  2
Standard
 70
     0
 40
0.0
 41
1.0
 50
0.0
 71
     0
 42
2.5
  3
txt
  4
BIGFONT.SHX
  0
STYLE
  5
39
330
3
100
AcDbSymbolTableRecord
100
AcDbTextStyleTableRecord
  2
ＭＳ ゴシック
 70
     0
 40
0.0
 41
1.0
 50
0.0
 71
     0
 42
2.5
  3
msgothic.ttc
  4
ＭＳ ゴシック
1001
ACAD
1000
ＭＳ ゴシック
1071
        0
  0
STYLE
  5
384
330
3
100
AcDbSymbolTableRecord
100
AcDbTextStyleTableRecord
  2
ARIAL
 70
     0
 40
0.0
 41
1.0
 50
0.0
 71
     0
 42
12.0
  3
ARIAL.TTF
  4

1001
ACAD
1000
Arial
1071
       34
  0
STYLE
  5
385
330
3
100
AcDbSymbolTableRecord
100
AcDbTextStyleTableRecord
  2
ROMANS
 70
     0
 40
0.0
 41
1.0
 50
0.0
 71
     0
 42
5.0
  3
romans.shx
  4

  0
STYLE
  5
158C
330
3
100
AcDbSymbolTableRecord
100
AcDbTextStyleTableRecord
  2
SEACAD_Arial
 70
     0
 40
0.0
 41
1.0
 50
0.0
 71
     0
 42
2.5
  3
arial.ttf
  4

1001
ACAD
1000
Arial
1071
        0
  0
STYLE
  5
158D
330
3
100
AcDbSymbolTableRecord
100
AcDbTextStyleTableRecord
  2
SEACAD_Solid_Edge_ANSI1_Symbols
 70
     0
 40
0.0
 41
1.0
 50
0.0
 71
     0
 42
2.5
  3
semeca1.ttf
  4

1001
ACAD
1000
Solid Edge ANSI1 Symbols
1071
        0
  0
ENDTAB
  0
TABLE
  2
VIEW
  5
5
330
0
100
AcDbSymbolTable
 70
     0
  0
ENDTAB
  0
TABLE
  2
UCS
  5
6
330
0
100
AcDbSymbolTable
 70
     0
  0
ENDTAB
  0
TABLE
  2
APPID
  5
8
330
0
100
AcDbSymbolTable
 70
     3
  0
APPID
  5
16
330
8
100
AcDbSymbolTableRecord
100
AcDbRegAppTableRecord
  2
ACAD
 70
     0
  0
APPID
  5
7AC
330
8
100
AcDbSymbolTableRecord
100
AcDbRegAppTableRecord
  2
AcAecLayerStandard
 70
     0
  0
APPID
  5
F3A
330
8
100
AcDbSymbolTableRecord
100
AcDbRegAppTableRecord
  2
ACAD_MLEADERVER
 70
     0
  0
ENDTAB
  0
TABLE
  2
DIMSTYLE
  5
9
330
0
100
AcDbSymbolTable
 70
     2
100
AcDbDimStyleTable
  0
DIMSTYLE
105
18
330
9
100
AcDbSymbolTableRecord
100
AcDbDimStyleTableRecord
  2
Standard
 70
     0
178
     0
340
17
  0
DIMSTYLE
105
57
102
{ACAD_REACTORS
330
3D3D
330
3D4C
330
3D5B
330
3D7B
330
3D99
330
3DA8
330
3DF4
330
4038
330
4045
330
4052
330
4078
330
42AF
330
42BE
102
}
330
9
100
AcDbSymbolTableRecord
100
AcDbDimStyleTableRecord
  2
tfrom線あり
 70
     0
  3
<>
  4
[]
 41
10.0
 42
30.0
 43
0.9999999999999999
 44
0.0
 73
     0
 74
     0
 77
     1
 78
    11
140
24.0
141
0.0
143
1.0
147
20.0
171
     1
174
     1
178
     0
179
     2
271
     0
272
     1
276
     2
284
    11
285
    11
286
    11
289
     0
340
39
341
4E
342
4E
  0
ENDTAB
  0
TABLE
  2
BLOCK_RECORD
  5
1
330
0
100
AcDbSymbolTable
 70
    56
  0
BLOCK_RECORD
  5
A
102
{ACAD_XDICTIONARY
360
4205
102
}
330
1
100
AcDbSymbolTableRecord
100
AcDbBlockTableRecord
  2
*MODEL_SPACE
340
20
 70
     0
280
     1
281
     0
  0
BLOCK_RECORD
  5
B
330
1
100
AcDbSymbolTableRecord
100
AcDbBlockTableRecord
  2
*PAPER_SPACE
340
21
 70
     0
280
     1
281
     0
  0
BLOCK_RECORD
  5
4E
330
1
100
AcDbSymbolTableRecord
100
AcDbBlockTableRecord
  2
_DOT
340
0
102
{BLKREFS
331
35B5
331
35B6
331
35C1
331
35C2
331
35CD
331
35CE
331
35D9
331
35DA
331
35E5
331
35E6
331
35F1
331
35F2
331
35FD
331
35FE
331
3609
331
360A
331
3615
331
3616
331
3621
331
3622
331
362D
331
362E
331
3639
331
363A
331
3645
331
3646
331
3651
331
3652
331
3D27
331
3D28
331
3D37
331
3D38
331
3D46
331
3D47
331
3D55
331
3D56
331
3D64
331
3D65
331
3D74
331
3D75
331
3D84
331
3D85
331
3D93
331
3D94
331
3DA2
331
3DA3
331
3DB1
331
3DB2
331
3DDF
331
3DE0
331
3DEE
331
3DEF
331
3DFD
331
3DFE
331
3E22
331
3E23
331
3E32
331
3E33
331
3EC2
331
3EC3
331
3ECE
331
3ECF
331
3F2B
331
3F2C
331
4013
331
4014
331
4022
331
4023
331
402F
331
4030
331
403F
331
4040
331
404C
331
404D
331
405D
331
405E
331
407F
331
4080
331
42B8
331
42B9
331
42C7
331
42C8
102
}
 70
     0
280
     1
281
     0
  0
BLOCK_RECORD
  5
68A
330
1
100
AcDbSymbolTableRecord
100
AcDbBlockTableRecord
  2
名称未設定-1
340
0
102
{BLKREFS
331
6B5
102
}
 70
     1
280
     1
281
     0
  0
BLOCK_RECORD
  5
68D
330
1
100
AcDbSymbolTableRecord
100
AcDbBlockTableRecord
  2
block 2
340
0
102
{BLKREFS
331
68C
102
}
 70
     0
280
     1
281
     0
  0
BLOCK_RECORD
  5
690
330
1
100
AcDbSymbolTableRecord
100
AcDbBlockTableRecord
  2
block 3
340
0
102
{BLKREFS
331
68F
102
}
 70
     0
280
     1
281
     0
  0
BLOCK_RECORD
  5
693
330
1
100
AcDbSymbolTableRecord
100
AcDbBlockTableRecord
  2
block 4
340
0
102
{BLKREFS
331
692
102
}
 70
     0
280
     1
281
     0
  0
BLOCK_RECORD
  5
6A2
330
1
100
AcDbSymbolTableRecord
100
AcDbBlockTableRecord
  2
block 5
340
0
102
{BLKREFS
331
6A1
102
}
 70
     0
280
     1
281
     0
  0
BLOCK_RECORD
  5
199A
330
1
100
AcDbSymbolTableRecord
100
AcDbBlockTableRecord
  2
SEANNOT_GROUP
340
0
102
{BLKREFS
331
28CA
102
}
 70
     0
280
     1
281
     0
  0
BLOCK_RECORD
  5
1F2F
330
1
100
AcDbSymbolTableRecord
100
AcDbBlockTableRecord
  2
SEANNOT_GROUP1
340
0
102
{BLKREFS
331
2B9B
102
}
 70
     0
280
     1
281
     0
  0
BLOCK_RECORD
  5
35AF
330
1
100
AcDbSymbolTableRecord
100
AcDbBlockTableRecord
  2
*D8
340
0
 70
     0
280
     1
281
     0
  0
BLOCK_RECORD
  5
35BB
330
1
100
AcDbSymbolTableRecord
100
AcDbBlockTableRecord
  2
*D9
340
0
 70
     0
280
     1
281
     0
  0
BLOCK_RECORD
  5
35C7
330
1
100
AcDbSymbolTableRecord
100
AcDbBlockTableRecord
  2
*D10
340
0
 70
     0
280
     1
281
     0
  0
BLOCK_RECORD
  5
35D3
330
1
100
AcDbSymbolTableRecord
100
AcDbBlockTableRecord
  2
*D11
340
0
 70
     0
280
     1
281
     0
  0
BLOCK_RECORD
  5
35DF
330
1
100
AcDbSymbolTableRecord
100
AcDbBlockTableRecord
  2
*D12
340
0
 70
     0
280
     1
281
     0
  0
BLOCK_RECORD
  5
35EB
330
1
100
AcDbSymbolTableRecord
100
AcDbBlockTableRecord
  2
*D13
340
0
 70
     0
280
     1
281
     0
  0
BLOCK_RECORD
  5
35F7
330
1
100
AcDbSymbolTableRecord
100
AcDbBlockTableRecord
  2
*D14
340
0
 70
     0
280
     1
281
     0
  0
BLOCK_RECORD
  5
3603
330
1
100
AcDbSymbolTableRecord
100
AcDbBlockTableRecord
  2
*D15
340
0
 70
     0
280
     1
281
     0
  0
BLOCK_RECORD
  5
360F
330
1
100
AcDbSymbolTableRecord
100
AcDbBlockTableRecord
  2
*D16
340
0
 70
     0
280
     1
281
     0
  0
BLOCK_RECORD
  5
361B
330
1
100
AcDbSymbolTableRecord
100
AcDbBlockTableRecord
  2
*D17
340
0
 70
     0
280
     1
281
     0
  0
BLOCK_RECORD
  5
3627
330
1
100
AcDbSymbolTableRecord
100
AcDbBlockTableRecord
  2
*D18
340
0
 70
     0
280
     1
281
     0
  0
BLOCK_RECORD
  5
3633
330
1
100
AcDbSymbolTableRecord
100
AcDbBlockTableRecord
  2
*D19
340
0
 70
     0
280
     1
281
     0
  0
BLOCK_RECORD
  5
363F
330
1
100
AcDbSymbolTableRecord
100
AcDbBlockTableRecord
  2
*D20
340
0
 70
     0
280
     1
281
     0
  0
BLOCK_RECORD
  5
364B
330
1
100
AcDbSymbolTableRecord
100
AcDbBlockTableRecord
  2
*D21
340
0
 70
     0
280
     1
281
     0
  0
BLOCK_RECORD
  5
369D
330
1
100
AcDbSymbolTableRecord
100
AcDbBlockTableRecord
  2
block 6
340
0
 70
     0
280
     1
281
     0
  0
BLOCK_RECORD
  5
37AC
330
1
100
AcDbSymbolTableRecord
100
AcDbBlockTableRecord
  2
block 7
340
0
 70
     0
280
     1
281
     0
  0
BLOCK_RECORD
  5
37EA
330
1
100
AcDbSymbolTableRecord
100
AcDbBlockTableRecord
  2
block 8
340
0
 70
     0
280
     1
281
     0
  0
BLOCK_RECORD
  5
38E9
330
1
100
AcDbSymbolTableRecord
100
AcDbBlockTableRecord
  2
block 9
340
0
 70
     0
280
     1
281
     0
  0
BLOCK_RECORD
  5
392C
330
1
100
AcDbSymbolTableRecord
100
AcDbBlockTableRecord
  2
block 10
340
0
 70
     0
280
     1
281
     0
  0
BLOCK_RECORD
  5
3936
330
1
100
AcDbSymbolTableRecord
100
AcDbBlockTableRecord
  2
block 11
340
0
 70
     0
280
     1
281
     0
  0
BLOCK_RECORD
  5
3943
330
1
100
AcDbSymbolTableRecord
100
AcDbBlockTableRecord
  2
block 12
340
0
 70
     0
280
     1
281
     0
  0
BLOCK_RECORD
  5
3D21
330
1
100
AcDbSymbolTableRecord
100
AcDbBlockTableRecord
  2
*D29
340
0
 70
     0
280
     1
281
     0
  0
BLOCK_RECORD
  5
3D31
330
1
100
AcDbSymbolTableRecord
100
AcDbBlockTableRecord
  2
*D30
340
0
 70
     0
280
     1
281
     0
  0
BLOCK_RECORD
  5
3D40
330
1
100
AcDbSymbolTableRecord
100
AcDbBlockTableRecord
  2
*D31
340
0
 70
     0
280
     1
281
     0
  0
BLOCK_RECORD
  5
3D4F
330
1
100
AcDbSymbolTableRecord
100
AcDbBlockTableRecord
  2
*D32
340
0
 70
     0
280
     1
281
     0
  0
BLOCK_RECORD
  5
3D5E
330
1
100
AcDbSymbolTableRecord
100
AcDbBlockTableRecord
  2
*D33
340
0
 70
     0
280
     1
281
     0
  0
BLOCK_RECORD
  5
3D6E
330
1
100
AcDbSymbolTableRecord
100
AcDbBlockTableRecord
  2
*D34
340
0
 70
     0
280
     1
281
     0
  0
BLOCK_RECORD
  5
3D7E
330
1
100
AcDbSymbolTableRecord
100
AcDbBlockTableRecord
  2
*D35
340
0
 70
     0
280
     1
281
     0
  0
BLOCK_RECORD
  5
3D8D
330
1
100
AcDbSymbolTableRecord
100
AcDbBlockTableRecord
  2
*D36
340
0
 70
     0
280
     1
281
     0
  0
BLOCK_RECORD
  5
3D9C
330
1
100
AcDbSymbolTableRecord
100
AcDbBlockTableRecord
  2
*D37
340
0
 70
     0
280
     1
281
     0
  0
BLOCK_RECORD
  5
3DAB
330
1
100
AcDbSymbolTableRecord
100
AcDbBlockTableRecord
  2
*D38
340
0
 70
     0
280
     1
281
     0
  0
BLOCK_RECORD
  5
3DD9
330
1
100
AcDbSymbolTableRecord
100
AcDbBlockTableRecord
  2
*D39
340
0
 70
     0
280
     1
281
     0
  0
BLOCK_RECORD
  5
3DE8
330
1
100
AcDbSymbolTableRecord
100
AcDbBlockTableRecord
  2
*D40
340
0
 70
     0
280
     1
281
     0
  0
BLOCK_RECORD
  5
3DF7
330
1
100
AcDbSymbolTableRecord
100
AcDbBlockTableRecord
  2
*D41
340
0
 70
     0
280
     1
281
     0
  0
BLOCK_RECORD
  5
3E1B
330
1
100
AcDbSymbolTableRecord
100
AcDbBlockTableRecord
  2
*D42
340
0
 70
     0
280
     1
281
     0
  0
BLOCK_RECORD
  5
3E2C
330
1
100
AcDbSymbolTableRecord
100
AcDbBlockTableRecord
  2
*D43
340
0
 70
     0
280
     1
281
     0
  0
BLOCK_RECORD
  5
3EBC
330
1
100
AcDbSymbolTableRecord
100
AcDbBlockTableRecord
  2
*D44
340
0
 70
     0
280
     1
281
     0
  0
BLOCK_RECORD
  5
3EC8
330
1
100
AcDbSymbolTableRecord
100
AcDbBlockTableRecord
  2
*D45
340
0
 70
     0
280
     1
281
     0
  0
BLOCK_RECORD
  5
3F25
330
1
100
AcDbSymbolTableRecord
100
AcDbBlockTableRecord
  2
*D46
340
0
 70
     0
280
     1
281
     0
  0
BLOCK_RECORD
  5
400D
330
1
100
AcDbSymbolTableRecord
100
AcDbBlockTableRecord
  2
*D47
340
0
 70
     0
280
     1
281
     0
  0
BLOCK_RECORD
  5
401C
330
1
100
AcDbSymbolTableRecord
100
AcDbBlockTableRecord
  2
*D48
340
0
 70
     0
280
     1
281
     0
  0
BLOCK_RECORD
  5
4029
330
1
100
AcDbSymbolTableRecord
100
AcDbBlockTableRecord
  2
*D49
340
0
 70
     0
280
     1
281
     0
  0
BLOCK_RECORD
  5
4039
330
1
100
AcDbSymbolTableRecord
100
AcDbBlockTableRecord
  2
*D50
340
0
 70
     0
280
     1
281
     0
  0
BLOCK_RECORD
  5
4046
330
1
100
AcDbSymbolTableRecord
100
AcDbBlockTableRecord
  2
*D51
340
0
 70
     0
280
     1
281
     0
  0
BLOCK_RECORD
  5
4055
330
1
100
AcDbSymbolTableRecord
100
AcDbBlockTableRecord
  2
*D52
340
0
 70
     0
280
     1
281
     0
  0
BLOCK_RECORD
  5
4079
330
1
100
AcDbSymbolTableRecord
100
AcDbBlockTableRecord
  2
*D53
340
0
 70
     0
280
     1
281
     0
  0
BLOCK_RECORD
  5
42B2
330
1
100
AcDbSymbolTableRecord
100
AcDbBlockTableRecord
  2
*D54
340
0
 70
     0
280
     1
281
     0
  0
BLOCK_RECORD
  5
42C1
330
1
100
AcDbSymbolTableRecord
100
AcDbBlockTableRecord
  2
*D55
340
0
 70
     0
280
     1
281
     0
  0
ENDTAB
  0
ENDSEC
  0
SECTION
  2
BLOCKS
  0
BLOCK
  5
D
330
A
100
AcDbEntity
  8
0
390
1D
100
AcDbBlockBegin
  2
*MODEL_SPACE
 70
     0
 10
0.0
 20
0.0
 30
0.0
  3
*MODEL_SPACE
  1
*MODEL_SPACE
  0
ENDBLK
  5
E
330
A
100
AcDbEntity
  8
0
390
1D
100
AcDbBlockEnd
  0
BLOCK
  5
F
330
B
100
AcDbEntity
 67
     1
  8
0
390
1D
100
AcDbBlockBegin
  2
*PAPER_SPACE
 70
     0
 10
0.0
 20
0.0
 30
0.0
  3
*PAPER_SPACE
  1
*PAPER_SPACE
  0
ENDBLK
  5
10
330
B
100
AcDbEntity
 67
     1
  8
0
390
1D
100
AcDbBlockEnd
  0
BLOCK
  5
EC4
330
4E
100
AcDbEntity
  8
0
390
1D
100
AcDbBlockBegin
  2
_DOT
 70
     0
 10
0.0
 20
0.0
 30
0.0
  3
_DOT
  1
_DOT
  0
POLYLINE
  5
EC6
330
4E
100
AcDbEntity
  8
0
  6
ByBlock
 62
     0
370
    -2
390
1D
100
AcDb2dPolyline
 66
     1
 10
0.0
 20
0.0
 30
0.0
 70
     1
 40
0.5
 41
0.5
  0
VERTEX
  5
EC7
330
EC6
100
AcDbEntity
  8
0
  6
ByBlock
 62
     0
370
    -2
390
1D
100
AcDbVertex
100
AcDb2dVertex
 10
-0.25
 20
0.0
 30
0.0
 42
1.0
  0
VERTEX
  5
EC8
330
EC6
100
AcDbEntity
  8
0
  6
ByBlock
 62
     0
370
    -2
390
1D
100
AcDbVertex
100
AcDb2dVertex
 10
0.25
 20
0.0
 30
0.0
 42
1.0
  0
SEQEND
  5
EC9
330
EC6
100
AcDbEntity
  8
0
390
1D
  0
LINE
  5
ECA
330
4E
100
AcDbEntity
  8
0
  6
ByBlock
 62
     0
370
    -2
390
1D
100
AcDbLine
 10
-0.5
 20
0.0
 30
0.0
 11
-1.0
 21
0.0
 31
0.0
  0
ENDBLK
  5
ECB
330
4E
100
AcDbEntity
  8
0
390
1D
100
AcDbBlockEnd
  0
BLOCK
  5
68B
330
68A
100
AcDbEntity
  8
0
100
AcDbBlockBegin
  2
名称未設定-1
 70
     0
 10
0.0
 20
0.0
 30
0.0
  3
名称未設定-1
  1
名称未設定-1
  0
INSERT
  5
68F
330
68A
100
AcDbEntity
  8
LOGO
100
AcDbBlockReference
  2
block 3
 10
0.0
 20
0.0
 30
0.0
  0
ENDBLK
  5
6B1
330
68A
100
AcDbEntity
  8
0
100
AcDbBlockEnd
  0
BLOCK
  5
68E
330
68D
100
AcDbEntity
  8
0
100
AcDbBlockBegin
  2
block 2
 70
     0
 10
0.0
 20
0.0
 30
0.0
  3
block 2
  1
block 2
  0
ENDBLK
  5
6B0
330
68D
100
AcDbEntity
  8
0
100
AcDbBlockEnd
  0
BLOCK
  5
691
330
690
100
AcDbEntity
  8
0
100
AcDbBlockBegin
  2
block 3
 70
     0
 10
0.0
 20
0.0
 30
0.0
  3
block 3
  1
block 3
  0
INSERT
  5
692
330
690
100
AcDbEntity
  8
LOGO
100
AcDbBlockReference
  2
block 4
 10
0.0
 20
0.0
 30
0.0
  0
INSERT
  5
6A1
330
690
100
AcDbEntity
  8
LOGO
100
AcDbBlockReference
  2
block 5
 10
0.0
 20
0.0
 30
0.0
  0
ENDBLK
  5
6AF
330
690
100
AcDbEntity
  8
0
100
AcDbBlockEnd
  0
BLOCK
  5
694
330
693
100
AcDbEntity
  8
0
100
AcDbBlockBegin
  2
block 4
 70
     0
 10
0.0
 20
0.0
 30
0.0
  3
block 4
  1
block 4
  0
POLYLINE
  5
695
330
693
100
AcDbEntity
  8
LOGO
370
     0
100
AcDb2dPolyline
 66
     1
 10
0.0
 20
0.0
 30
0.0
  0
VERTEX
  5
696
330
695
100
AcDbEntity
  8
LOGO
370
     0
100
AcDbVertex
100
AcDb2dVertex
 10
83.79545727667795
 20
167.6444858234922
 30
0.0
  0
VERTEX
  5
697
330
695
100
AcDbEntity
  8
LOGO
370
     0
100
AcDbVertex
100
AcDb2dVertex
 10
83.79545727667795
 20
159.7968976406313
 30
0.0
  0
VERTEX
  5
698
330
695
100
AcDbEntity
  8
LOGO
370
     0
100
AcDbVertex
100
AcDb2dVertex
 10
71.3631329975216
 20
159.7968976406313
 30
0.0
  0
VERTEX
  5
699
330
695
100
AcDbEntity
  8
LOGO
370
     0
100
AcDbVertex
100
AcDb2dVertex
 10
71.3631329975216
 20
127.8027915271048
 30
0.0
  0
VERTEX
  5
69A
330
695
100
AcDbEntity
  8
LOGO
370
     0
100
AcDbVertex
100
AcDb2dVertex
 10
60.43011526263018
 20
127.8027915271048
 30
0.0
  0
VERTEX
  5
69B
330
695
100
AcDbEntity
  8
LOGO
370
     0
100
AcDbVertex
100
AcDb2dVertex
 10
60.43011526263018
 20
159.7968976406313
 30
0.0
  0
VERTEX
  5
69C
330
695
100
AcDbEntity
  8
LOGO
370
     0
100
AcDbVertex
100
AcDb2dVertex
 10
48.21793273020759
 20
159.7968976406313
 30
0.0
  0
VERTEX
  5
69D
330
695
100
AcDbEntity
  8
LOGO
370
     0
100
AcDbVertex
100
AcDb2dVertex
 10
48.21793273020759
 20
167.6444858234922
 30
0.0
  0
VERTEX
  5
69E
330
695
100
AcDbEntity
  8
LOGO
370
     0
100
AcDbVertex
100
AcDb2dVertex
 10
83.79545727667795
 20
167.6444858234922
 30
0.0
  0
SEQEND
  5
69F
330
695
100
AcDbEntity
  8
LOGO
370
     0
  0
HATCH
  5
6A0
330
693
100
AcDbEntity
  8
LOGO
 62
   250
420
  2234388
100
AcDbHatch
 10
0.0
 20
0.0
 30
0.0
210
0.0
220
0.0
230
1.0
  2
SOLID
 70
     1
 71
     0
 91
        1
 92
        1
 93
        8
 72
     1
 10
83.79545727667795
 20
167.6444858234922
 11
83.79545727667795
 21
159.7968976406313
 72
     1
 10
83.79545727667795
 20
159.7968976406313
 11
71.3631329975216
 21
159.7968976406313
 72
     1
 10
71.3631329975216
 20
159.7968976406313
 11
71.3631329975216
 21
127.8027915271048
 72
     1
 10
71.3631329975216
 20
127.8027915271048
 11
60.43011526263018
 21
127.8027915271048
 72
     1
 10
60.43011526263018
 20
127.8027915271048
 11
60.43011526263018
 21
159.7968976406313
 72
     1
 10
60.43011526263018
 20
159.7968976406313
 11
48.21793273020759
 21
159.7968976406313
 72
     1
 10
48.21793273020759
 20
159.7968976406313
 11
48.21793273020759
 21
167.6444858234922
 72
     1
 10
48.21793273020759
 20
167.6444858234922
 11
83.79545727667795
 21
167.6444858234922
 97
        0
 75
     2
 76
     1
 98
        0
  0
ENDBLK
  5
6AE
330
693
100
AcDbEntity
  8
0
100
AcDbBlockEnd
  0
BLOCK
  5
6A3
330
6A2
100
AcDbEntity
  8
0
100
AcDbBlockBegin
  2
block 5
 70
     0
 10
0.0
 20
0.0
 30
0.0
  3
block 5
  1
block 5
  0
SPLINE
  5
6A4
330
6A2
100
AcDbEntity
  8
LOGO
370
     0
100
AcDbSpline
210
0.0
220
0.0
230
1.0
 70
    11
 71
     3
 72
    56
 73
    52
 74
     0
 42
0.000000001
 43
0.0000000001
 40
0.0
 40
0.0
 40
0.0
 40
0.0
 40
1.0
 40
1.0
 40
1.0
 40
2.0
 40
2.0
 40
2.0
 40
3.0
 40
3.0
 40
3.0
 40
4.0
 40
4.0
 40
4.0
 40
5.0
 40
5.0
 40
5.0
 40
6.0
 40
6.0
 40
6.0
 40
7.0
 40
7.0
 40
7.0
 40
8.0
 40
8.0
 40
8.0
 40
9.0
 40
9.0
 40
9.0
 40
10.0
 40
10.0
 40
10.0
 40
11.0
 40
11.0
 40
11.0
 40
12.0
 40
12.0
 40
12.0
 40
13.0
 40
13.0
 40
13.0
 40
14.0
 40
14.0
 40
14.0
 40
15.0
 40
15.0
 40
15.0
 40
16.0
 40
16.0
 40
16.0
 40
17.0
 40
17.0
 40
17.0
 40
17.0
 10
100.4504378777679
 20
166.69157178364
 30
0.0
 10
101.9848844191641
 20
167.1313385124438
 30
0.0
 10
103.9637485713373
 20
166.7649523658846
 30
0.0
 10
103.9637485713373
 20
166.7649523658846
 30
0.0
 10
103.9637485713373
 20
166.7649523658846
 30
0.0
 10
103.0132460999156
 20
163.911205638077
 30
0.0
 10
103.0132460999156
 20
163.911205638077
 30
0.0
 10
103.0132460999156
 20
163.911205638077
 30
0.0
 10
101.0674548862189
 20
164.3601018759394
 30
0.0
 10
99.57090442016032
 20
163.1805004036133
 30
0.0
 10
98.40508333886608
 20
162.258247733807
 30
0.0
 10
97.65301849830304
 20
159.804132345923
 30
0.0
 10
97.3598406791005
 20
158.8699940888517
 30
0.0
 10
97.3598406791005
 20
158.8699940888517
 30
0.0
 10
96.07137411762282
 20
154.9119212747295
 30
0.0
 10
96.07137411762282
 20
154.9119212747295
 30
0.0
 10
96.07137411762282
 20
154.9119212747295
 30
0.0
 10
100.3012651448482
 20
154.9119212747295
 30
0.0
 10
100.3012651448482
 20
154.9119212747295
 30
0.0
 10
100.3012651448482
 20
154.9119212747295
 30
0.0
 10
99.64152892419852
 20
152.4199098115079
 30
0.0
 10
99.64152892419852
 20
152.4199098115079
 30
0.0
 10
99.64152892419852
 20
152.4199098115079
 30
0.0
 10
95.38097652692731
 20
152.4199098115079
 30
0.0
 10
95.38097652692731
 20
152.4199098115079
 30
0.0
 10
95.38097652692731
 20
152.4199098115079
 30
0.0
 10
87.75353009080013
 20
127.8027915271048
 30
0.0
 10
87.75353009080013
 20
127.8027915271048
 30
0.0
 10
87.75353009080013
 20
127.8027915271048
 30
0.0
 10
85.36538832498108
 20
127.8027915271048
 30
0.0
 10
85.36538832498108
 20
127.8027915271048
 30
0.0
 10
85.36538832498108
 20
127.8027915271048
 30
0.0
 10
93.00006946639998
 20
152.4199098115079
 30
0.0
 10
93.00006946639998
 20
152.4199098115079
 30
0.0
 10
93.00006946639998
 20
152.4199098115079
 30
0.0
 10
89.85297266450198
 20
152.4199098115079
 30
0.0
 10
89.85297266450198
 20
152.4199098115079
 30
0.0
 10
89.85297266450198
 20
152.4199098115079
 30
0.0
 10
90.51270888515164
 20
154.9119212747295
 30
0.0
 10
90.51270888515164
 20
154.9119212747295
 30
0.0
 10
90.51270888515164
 20
154.9119212747295
 30
0.0
 10
93.6904670570955
 20
154.9119212747295
 30
0.0
 10
93.6904670570955
 20
154.9119212747295
 30
0.0
 10
93.6904670570955
 20
154.9119212747295
 30
0.0
 10
94.81598049462158
 20
158.3616699146644
 30
0.0
 10
94.81598049462158
 20
158.3616699146644
 30
0.0
 10
95.7237637538445
 20
161.2605474231013
 30
0.0
 10
96.4968436907311
 20
162.8139420021662
 30
0.0
 10
97.15657991138076
 20
163.9844139654337
 30
0.0
 10
97.81183750494507
 20
165.1523021053827
 30
0.0
 10
99.1047826935081
 20
166.3084769129547
 30
0.0
 10
100.4504378777679
 20
166.69157178364
 30
0.0
  0
HATCH
  5
6A5
330
6A2
100
AcDbEntity
  8
LOGO
 62
   250
420
  2234388
100
AcDbHatch
 10
0.0
 20
0.0
 30
0.0
210
0.0
220
0.0
230
1.0
  2
SOLID
 70
     1
 71
     0
 91
        1
 92
        1
 93
        1
 72
     4
 94
        3
 73
     0
 74
     1
 95
       56
 96
       52
 40
0.0
 40
0.0
 40
0.0
 40
0.0
 40
1.0
 40
1.0
 40
1.0
 40
2.0
 40
2.0
 40
2.0
 40
3.0
 40
3.0
 40
3.0
 40
4.0
 40
4.0
 40
4.0
 40
5.0
 40
5.0
 40
5.0
 40
6.0
 40
6.0
 40
6.0
 40
7.0
 40
7.0
 40
7.0
 40
8.0
 40
8.0
 40
8.0
 40
9.0
 40
9.0
 40
9.0
 40
10.0
 40
10.0
 40
10.0
 40
11.0
 40
11.0
 40
11.0
 40
12.0
 40
12.0
 40
12.0
 40
13.0
 40
13.0
 40
13.0
 40
14.0
 40
14.0
 40
14.0
 40
15.0
 40
15.0
 40
15.0
 40
16.0
 40
16.0
 40
16.0
 40
17.0
 40
17.0
 40
17.0
 40
17.0
 10
100.4504378777679
 20
166.69157178364
 10
101.9848844191641
 20
167.1313385124438
 10
103.9637485713373
 20
166.7649523658846
 10
103.9637485713373
 20
166.7649523658846
 10
103.9637485713373
 20
166.7649523658846
 10
103.0132460999156
 20
163.911205638077
 10
103.0132460999156
 20
163.911205638077
 10
103.0132460999156
 20
163.911205638077
 10
101.0674548862189
 20
164.3601018759394
 10
99.57090442016032
 20
163.1805004036133
 10
98.40508333886608
 20
162.258247733807
 10
97.65301849830304
 20
159.804132345923
 10
97.3598406791005
 20
158.8699940888517
 10
97.3598406791005
 20
158.8699940888517
 10
96.07137411762282
 20
154.9119212747295
 10
96.07137411762282
 20
154.9119212747295
 10
96.07137411762282
 20
154.9119212747295
 10
100.3012651448482
 20
154.9119212747295
 10
100.3012651448482
 20
154.9119212747295
 10
100.3012651448482
 20
154.9119212747295
 10
99.64152892419852
 20
152.4199098115079
 10
99.64152892419852
 20
152.4199098115079
 10
99.64152892419852
 20
152.4199098115079
 10
95.38097652692731
 20
152.4199098115079
 10
95.38097652692731
 20
152.4199098115079
 10
95.38097652692731
 20
152.4199098115079
 10
87.75353009080013
 20
127.8027915271048
 10
87.75353009080013
 20
127.8027915271048
 10
87.75353009080013
 20
127.8027915271048
 10
85.36538832498108
 20
127.8027915271048
 10
85.36538832498108
 20
127.8027915271048
 10
85.36538832498108
 20
127.8027915271048
 10
93.00006946639998
 20
152.4199098115079
 10
93.00006946639998
 20
152.4199098115079
 10
93.00006946639998
 20
152.4199098115079
 10
89.85297266450198
 20
152.4199098115079
 10
89.85297266450198
 20
152.4199098115079
 10
89.85297266450198
 20
152.4199098115079
 10
90.51270888515164
 20
154.9119212747295
 10
90.51270888515164
 20
154.9119212747295
 10
90.51270888515164
 20
154.9119212747295
 10
93.6904670570955
 20
154.9119212747295
 10
93.6904670570955
 20
154.9119212747295
 10
93.6904670570955
 20
154.9119212747295
 10
94.81598049462158
 20
158.3616699146644
 10
94.81598049462158
 20
158.3616699146644
 10
95.7237637538445
 20
161.2605474231013
 10
96.4968436907311
 20
162.8139420021662
 10
97.15657991138076
 20
163.9844139654337
 10
97.81183750494507
 20
165.1523021053827
 10
99.1047826935081
 20
166.3084769129547
 10
100.4504378777679
 20
166.69157178364
 97
        0
 75
     2
 76
     1
 98
        0
  0
SPLINE
  5
6A6
330
6A2
100
AcDbEntity
  8
LOGO
370
     0
100
AcDbSpline
210
0.0
220
0.0
230
1.0
 70
    11
 71
     3
 72
    38
 73
    34
 74
     0
 42
0.000000001
 43
0.0000000001
 40
0.0
 40
0.0
 40
0.0
 40
0.0
 40
1.0
 40
1.0
 40
1.0
 40
2.0
 40
2.0
 40
2.0
 40
3.0
 40
3.0
 40
3.0
 40
4.0
 40
4.0
 40
4.0
 40
5.0
 40
5.0
 40
5.0
 40
6.0
 40
6.0
 40
6.0
 40
7.0
 40
7.0
 40
7.0
 40
8.0
 40
8.0
 40
8.0
 40
9.0
 40
9.0
 40
9.0
 40
10.0
 40
10.0
 40
10.0
 40
11.0
 40
11.0
 40
11.0
 40
11.0
 10
126.377554584636
 20
154.8151140277308
 30
0.0
 10
126.377554584636
 20
154.8151140277308
 30
0.0
 10
128.8311532078563
 20
154.8151140277308
 30
0.0
 10
128.8311532078563
 20
154.8151140277308
 30
0.0
 10
128.8311532078563
 20
154.8151140277308
 30
0.0
 10
127.7345785914971
 20
151.3062819612468
 30
0.0
 10
127.7345785914971
 20
151.3062819612468
 30
0.0
 10
128.571392836906
 20
152.2922689395754
 30
0.0
 10
129.8860421413442
 20
153.604506675583
 30
0.0
 10
131.0163787157314
 20
154.2664822097754
 30
0.0
 10
132.7044766171327
 20
155.2500576196734
 30
0.0
 10
133.6642808525008
 20
155.3847609420097
 30
0.0
 10
134.7284715499351
 20
155.3565111403944
 30
0.0
 10
134.7284715499351
 20
155.3565111403944
 30
0.0
 10
133.6877075172549
 20
152.0345756272799
 30
0.0
 10
133.6877075172549
 20
152.0345756272799
 30
0.0
 10
133.011434827367
 20
152.3184516825359
 30
0.0
 10
130.930940291334
 20
151.7768823149844
 30
0.0
 10
129.739280976855
 20
150.9162968950455
 30
0.0
 10
128.66613302525
 20
150.1454562717016
 30
0.0
 10
127.9192358313239
 20
149.4857200510519
 30
0.0
 10
127.0393578639405
 20
147.8282835196966
 30
0.0
 10
126.164647543194
 20
146.1699857139017
 30
0.0
 10
125.4742499524985
 20
143.5262176944419
 30
0.0
 10
124.2822461282437
 20
139.6959580071401
 30
0.0
 10
124.2822461282437
 20
139.6959580071401
 30
0.0
 10
120.5753209406769
 20
127.8027915271048
 30
0.0
 10
120.5753209406769
 20
127.8027915271048
 30
0.0
 10
120.5753209406769
 20
127.8027915271048
 30
0.0
 10
118.1964809388044
 20
127.8027915271048
 30
0.0
 10
118.1964809388044
 20
127.8027915271048
 30
0.0
 10
118.1964809388044
 20
127.8027915271048
 30
0.0
 10
126.377554584636
 20
154.8151140277308
 30
0.0
 10
126.377554584636
 20
154.8151140277308
 30
0.0
  0
HATCH
  5
6A7
330
6A2
100
AcDbEntity
  8
LOGO
 62
   250
420
  2234388
100
AcDbHatch
 10
0.0
 20
0.0
 30
0.0
210
0.0
220
0.0
230
1.0
  2
SOLID
 70
     1
 71
     0
 91
        1
 92
        1
 93
        1
 72
     4
 94
        3
 73
     0
 74
     1
 95
       38
 96
       34
 40
0.0
 40
0.0
 40
0.0
 40
0.0
 40
1.0
 40
1.0
 40
1.0
 40
2.0
 40
2.0
 40
2.0
 40
3.0
 40
3.0
 40
3.0
 40
4.0
 40
4.0
 40
4.0
 40
5.0
 40
5.0
 40
5.0
 40
6.0
 40
6.0
 40
6.0
 40
7.0
 40
7.0
 40
7.0
 40
8.0
 40
8.0
 40
8.0
 40
9.0
 40
9.0
 40
9.0
 40
10.0
 40
10.0
 40
10.0
 40
11.0
 40
11.0
 40
11.0
 40
11.0
 10
126.377554584636
 20
154.8151140277308
 10
126.377554584636
 20
154.8151140277308
 10
128.8311532078563
 20
154.8151140277308
 10
128.8311532078563
 20
154.8151140277308
 10
128.8311532078563
 20
154.8151140277308
 10
127.7345785914971
 20
151.3062819612468
 10
127.7345785914971
 20
151.3062819612468
 10
128.571392836906
 20
152.2922689395754
 10
129.8860421413442
 20
153.604506675583
 10
131.0163787157314
 20
154.2664822097754
 10
132.7044766171327
 20
155.2500576196734
 10
133.6642808525008
 20
155.3847609420097
 10
134.7284715499351
 20
155.3565111403944
 10
134.7284715499351
 20
155.3565111403944
 10
133.6877075172549
 20
152.0345756272799
 10
133.6877075172549
 20
152.0345756272799
 10
133.011434827367
 20
152.3184516825359
 10
130.930940291334
 20
151.7768823149844
 10
129.739280976855
 20
150.9162968950455
 10
128.66613302525
 20
150.1454562717016
 10
127.9192358313239
 20
149.4857200510519
 10
127.0393578639405
 20
147.8282835196966
 10
126.164647543194
 20
146.1699857139017
 10
125.4742499524985
 20
143.5262176944419
 10
124.2822461282437
 20
139.6959580071401
 10
124.2822461282437
 20
139.6959580071401
 10
120.5753209406769
 20
127.8027915271048
 10
120.5753209406769
 20
127.8027915271048
 10
120.5753209406769
 20
127.8027915271048
 10
118.1964809388044
 20
127.8027915271048
 10
118.1964809388044
 20
127.8027915271048
 10
118.1964809388044
 20
127.8027915271048
 10
126.377554584636
 20
154.8151140277308
 10
126.377554584636
 20
154.8151140277308
 97
        0
 75
     2
 76
     1
 98
        0
  0
SPLINE
  5
6A8
330
6A2
100
AcDbEntity
  8
LOGO
370
     0
100
AcDbSpline
210
0.0
220
0.0
230
1.0
 70
    11
 71
     3
 72
   104
 73
   100
 74
     0
 42
0.000000001
 43
0.0000000001
 40
0.0
 40
0.0
 40
0.0
 40
0.0
 40
1.0
 40
1.0
 40
1.0
 40
2.0
 40
2.0
 40
2.0
 40
3.0
 40
3.0
 40
3.0
 40
4.0
 40
4.0
 40
4.0
 40
5.0
 40
5.0
 40
5.0
 40
6.0
 40
6.0
 40
6.0
 40
7.0
 40
7.0
 40
7.0
 40
8.0
 40
8.0
 40
8.0
 40
9.0
 40
9.0
 40
9.0
 40
10.0
 40
10.0
 40
10.0
 40
11.0
 40
11.0
 40
11.0
 40
12.0
 40
12.0
 40
12.0
 40
13.0
 40
13.0
 40
13.0
 40
14.0
 40
14.0
 40
14.0
 40
15.0
 40
15.0
 40
15.0
 40
16.0
 40
16.0
 40
16.0
 40
17.0
 40
17.0
 40
17.0
 40
18.0
 40
18.0
 40
18.0
 40
19.0
 40
19.0
 40
19.0
 40
20.0
 40
20.0
 40
20.0
 40
21.0
 40
21.0
 40
21.0
 40
22.0
 40
22.0
 40
22.0
 40
23.0
 40
23.0
 40
23.0
 40
24.0
 40
24.0
 40
24.0
 40
25.0
 40
25.0
 40
25.0
 40
26.0
 40
26.0
 40
26.0
 40
27.0
 40
27.0
 40
27.0
 40
28.0
 40
28.0
 40
28.0
 40
29.0
 40
29.0
 40
29.0
 40
30.0
 40
30.0
 40
30.0
 40
31.0
 40
31.0
 40
31.0
 40
32.0
 40
32.0
 40
32.0
 40
33.0
 40
33.0
 40
33.0
 40
33.0
 10
139.8926730891197
 20
154.8294111834263
 30
0.0
 10
139.8926730891197
 20
154.8294111834263
 30
0.0
 10
142.0344903652445
 20
154.8294111834263
 30
0.0
 10
142.0344903652445
 20
154.8294111834263
 30
0.0
 10
142.0344903652445
 20
154.8294111834263
 30
0.0
 10
140.9516961399171
 20
151.3157559800812
 30
0.0
 10
140.9516961399171
 20
151.3157559800812
 30
0.0
 10
141.8928968473923
 20
152.7887075264977
 30
0.0
 10
142.7341897198865
 20
153.4484437471474
 30
0.0
 10
143.8552245303272
 20
154.2926649527359
 30
0.0
 10
144.9803934580775
 20
155.1296514530327
 30
0.0
 10
146.3139908001845
 20
155.3044901642492
 30
0.0
 10
147.241066606852
 20
155.3044901642492
 30
0.0
 10
148.3855280820469
 20
155.3044901642492
 30
0.0
 10
149.4969166187653
 20
155.0752189084569
 30
0.0
 10
150.0784491203092
 20
153.8172414621372
 30
0.0
 10
150.5228667310863
 20
152.833838307127
 30
0.0
 10
150.5414702589793
 20
152.7201500811143
 30
0.0
 10
150.4140016419347
 20
150.7765981809602
 30
0.0
 10
151.5818897818837
 20
152.7699317437168
 30
0.0
 10
152.4424752018226
 20
153.6256940267945
 30
0.0
 10
153.9038856707499
 20
154.4507949398263
 30
0.0
 10
155.4455669174378
 20
155.3044901642492
 30
0.0
 10
156.339225275853
 20
155.3659851592288
 30
0.0
 10
157.3748216618963
 20
155.2147453676543
 30
0.0
 10
158.911679771723
 20
154.9877134254046
 30
0.0
 10
159.8859534176746
 20
154.4390816074493
 30
0.0
 10
160.3965169054045
 20
152.7816450760939
 30
0.0
 10
160.9070803931344
 20
151.1219692311958
 30
0.0
 10
160.6328506116007
 20
150.2303779314354
 30
0.0
 10
159.9992971339115
 20
147.597634224801
 30
0.0
 10
159.7105979417943
 20
146.4014962832367
 30
0.0
 10
159.2947746424084
 20
144.9400858143094
 30
0.0
 10
158.7463150793409
 20
143.2092687007094
 30
0.0
 10
158.7463150793409
 20
143.2092687007094
 30
0.0
 10
153.9038856707499
 20
127.8027915271048
 30
0.0
 10
153.9038856707499
 20
127.8027915271048
 30
0.0
 10
153.9038856707499
 20
127.8027915271048
 30
0.0
 10
151.3882752878863
 20
127.8027915271048
 30
0.0
 10
151.3882752878863
 20
127.8027915271048
 30
0.0
 10
151.3882752878863
 20
127.8027915271048
 30
0.0
 10
155.6250565106276
 20
141.2751908193897
 30
0.0
 10
155.6250565106276
 20
141.2751908193897
 30
0.0
 10
156.5094131050963
 20
144.0936252951782
 30
0.0
 10
157.109893644309
 20
146.1506931664571
 30
0.0
 10
157.4220195011804
 20
147.4415712963654
 30
0.0
 10
157.8095929989511
 20
149.0530157726519
 30
0.0
 10
157.9656559273867
 20
149.5826995529385
 30
0.0
 10
157.7816877071116
 20
150.7529992613181
 30
0.0
 10
157.6111553680925
 20
151.8430281919372
 30
0.0
 10
157.0582171779396
 20
152.5547853887321
 30
0.0
 10
156.1170164704645
 20
152.5547853887321
 30
0.0
 10
155.1096698860365
 20
152.5547853887321
 30
0.0
 10
154.2962823053817
 20
152.4412694176073
 30
0.0
 10
153.156643967048
 20
151.2945686288697
 30
0.0
 10
152.0170056287143
 20
150.1476955852443
 30
0.0
 10
151.076149431015
 20
148.7930831468137
 30
0.0
 10
150.3337308641742
 20
147.2290087646991
 30
0.0
 10
149.5957909244188
 20
145.6683794803425
 30
0.0
 10
148.8530278478023
 20
143.6822806228776
 30
0.0
 10
148.0964843801539
 20
141.2751908193897
 30
0.0
 10
148.0964843801539
 20
141.2751908193897
 30
0.0
 10
143.8552245303272
 20
127.8027915271048
 30
0.0
 10
143.8552245303272
 20
127.8027915271048
 30
0.0
 10
143.8552245303272
 20
127.8027915271048
 30
0.0
 10
141.486030802177
 20
127.8027915271048
 30
0.0
 10
141.486030802177
 20
127.8027915271048
 30
0.0
 10
141.486030802177
 20
127.8027915271048
 30
0.0
 10
146.3329388378533
 20
143.2092687007094
 30
0.0
 10
146.3329388378533
 20
143.2092687007094
 30
0.0
 10
146.8483254624444
 20
144.8408669988801
 30
0.0
 10
147.2314203331297
 20
146.1837661049335
 30
0.0
 10
147.4867020769946
 20
147.224185627838
 30
0.0
 10
147.9169947869641
 20
149.0197705792876
 30
0.0
 10
148.0306830129768
 20
150.2400242051577
 30
0.0
 10
147.709255392159
 20
151.3157559800812
 30
0.0
 10
147.3874832615654
 20
152.3916600098926
 30
0.0
 10
146.8245542879144
 20
152.6683013598569
 30
0.0
 10
145.8840425999909
 20
152.6683013598569
 30
0.0
 10
145.0989048209514
 20
152.6683013598569
 30
0.0
 10
144.3282364524954
 20
152.3275811915945
 30
0.0
 10
143.4531816219731
 20
151.6538923250251
 30
0.0
 10
142.34627171234
 20
150.8074318058939
 30
0.0
 10
141.901854101563
 20
150.1097995099067
 30
0.0
 10
141.3578731655808
 20
149.289521733736
 30
0.0
 10
140.6299240093235
 20
148.192602607601
 30
0.0
 10
140.2850697237515
 20
147.455696197173
 30
0.0
 10
139.6652966370942
 20
145.8385673095858
 30
0.0
 10
139.0506911970739
 20
144.2214384219986
 30
0.0
 10
138.463991048893
 20
142.3252566160164
 30
0.0
 10
138.0571250036777
 20
141.0154304484394
 30
0.0
 10
138.0571250036777
 20
141.0154304484394
 30
0.0
 10
133.9009590684727
 20
127.8027915271048
 30
0.0
 10
133.9009590684727
 20
127.8027915271048
 30
0.0
 10
133.9009590684727
 20
127.8027915271048
 30
0.0
 10
131.4180771143097
 20
127.8027915271048
 30
0.0
 10
131.4180771143097
 20
127.8027915271048
 30
0.0
 10
131.4180771143097
 20
127.8027915271048
 30
0.0
 10
139.8926730891197
 20
154.8294111834263
 30
0.0
 10
139.8926730891197
 20
154.8294111834263
 30
0.0
  0
HATCH
  5
6A9
330
6A2
100
AcDbEntity
  8
LOGO
 62
   250
420
  2234388
100
AcDbHatch
 10
0.0
 20
0.0
 30
0.0
210
0.0
220
0.0
230
1.0
  2
SOLID
 70
     1
 71
     0
 91
        1
 92
        1
 93
        1
 72
     4
 94
        3
 73
     0
 74
     1
 95
      104
 96
      100
 40
0.0
 40
0.0
 40
0.0
 40
0.0
 40
1.0
 40
1.0
 40
1.0
 40
2.0
 40
2.0
 40
2.0
 40
3.0
 40
3.0
 40
3.0
 40
4.0
 40
4.0
 40
4.0
 40
5.0
 40
5.0
 40
5.0
 40
6.0
 40
6.0
 40
6.0
 40
7.0
 40
7.0
 40
7.0
 40
8.0
 40
8.0
 40
8.0
 40
9.0
 40
9.0
 40
9.0
 40
10.0
 40
10.0
 40
10.0
 40
11.0
 40
11.0
 40
11.0
 40
12.0
 40
12.0
 40
12.0
 40
13.0
 40
13.0
 40
13.0
 40
14.0
 40
14.0
 40
14.0
 40
15.0
 40
15.0
 40
15.0
 40
16.0
 40
16.0
 40
16.0
 40
17.0
 40
17.0
 40
17.0
 40
18.0
 40
18.0
 40
18.0
 40
19.0
 40
19.0
 40
19.0
 40
20.0
 40
20.0
 40
20.0
 40
21.0
 40
21.0
 40
21.0
 40
22.0
 40
22.0
 40
22.0
 40
23.0
 40
23.0
 40
23.0
 40
24.0
 40
24.0
 40
24.0
 40
25.0
 40
25.0
 40
25.0
 40
26.0
 40
26.0
 40
26.0
 40
27.0
 40
27.0
 40
27.0
 40
28.0
 40
28.0
 40
28.0
 40
29.0
 40
29.0
 40
29.0
 40
30.0
 40
30.0
 40
30.0
 40
31.0
 40
31.0
 40
31.0
 40
32.0
 40
32.0
 40
32.0
 40
33.0
 40
33.0
 40
33.0
 40
33.0
 10
139.8926730891197
 20
154.8294111834263
 10
139.8926730891197
 20
154.8294111834263
 10
142.0344903652445
 20
154.8294111834263
 10
142.0344903652445
 20
154.8294111834263
 10
142.0344903652445
 20
154.8294111834263
 10
140.9516961399171
 20
151.3157559800812
 10
140.9516961399171
 20
151.3157559800812
 10
141.8928968473923
 20
152.7887075264977
 10
142.7341897198865
 20
153.4484437471474
 10
143.8552245303272
 20
154.2926649527359
 10
144.9803934580775
 20
155.1296514530327
 10
146.3139908001845
 20
155.3044901642492
 10
147.241066606852
 20
155.3044901642492
 10
148.3855280820469
 20
155.3044901642492
 10
149.4969166187653
 20
155.0752189084569
 10
150.0784491203092
 20
153.8172414621372
 10
150.5228667310863
 20
152.833838307127
 10
150.5414702589793
 20
152.7201500811143
 10
150.4140016419347
 20
150.7765981809602
 10
151.5818897818837
 20
152.7699317437168
 10
152.4424752018226
 20
153.6256940267945
 10
153.9038856707499
 20
154.4507949398263
 10
155.4455669174378
 20
155.3044901642492
 10
156.339225275853
 20
155.3659851592288
 10
157.3748216618963
 20
155.2147453676543
 10
158.911679771723
 20
154.9877134254046
 10
159.8859534176746
 20
154.4390816074493
 10
160.3965169054045
 20
152.7816450760939
 10
160.9070803931344
 20
151.1219692311958
 10
160.6328506116007
 20
150.2303779314354
 10
159.9992971339115
 20
147.597634224801
 10
159.7105979417943
 20
146.4014962832367
 10
159.2947746424084
 20
144.9400858143094
 10
158.7463150793409
 20
143.2092687007094
 10
158.7463150793409
 20
143.2092687007094
 10
153.9038856707499
 20
127.8027915271048
 10
153.9038856707499
 20
127.8027915271048
 10
153.9038856707499
 20
127.8027915271048
 10
151.3882752878863
 20
127.8027915271048
 10
151.3882752878863
 20
127.8027915271048
 10
151.3882752878863
 20
127.8027915271048
 10
155.6250565106276
 20
141.2751908193897
 10
155.6250565106276
 20
141.2751908193897
 10
156.5094131050963
 20
144.0936252951782
 10
157.109893644309
 20
146.1506931664571
 10
157.4220195011804
 20
147.4415712963654
 10
157.8095929989511
 20
149.0530157726519
 10
157.9656559273867
 20
149.5826995529385
 10
157.7816877071116
 20
150.7529992613181
 10
157.6111553680925
 20
151.8430281919372
 10
157.0582171779396
 20
152.5547853887321
 10
156.1170164704645
 20
152.5547853887321
 10
155.1096698860365
 20
152.5547853887321
 10
154.2962823053817
 20
152.4412694176073
 10
153.156643967048
 20
151.2945686288697
 10
152.0170056287143
 20
150.1476955852443
 10
151.076149431015
 20
148.7930831468137
 10
150.3337308641742
 20
147.2290087646991
 10
149.5957909244188
 20
145.6683794803425
 10
148.8530278478023
 20
143.6822806228776
 10
148.0964843801539
 20
141.2751908193897
 10
148.0964843801539
 20
141.2751908193897
 10
143.8552245303272
 20
127.8027915271048
 10
143.8552245303272
 20
127.8027915271048
 10
143.8552245303272
 20
127.8027915271048
 10
141.486030802177
 20
127.8027915271048
 10
141.486030802177
 20
127.8027915271048
 10
141.486030802177
 20
127.8027915271048
 10
146.3329388378533
 20
143.2092687007094
 10
146.3329388378533
 20
143.2092687007094
 10
146.8483254624444
 20
144.8408669988801
 10
147.2314203331297
 20
146.1837661049335
 10
147.4867020769946
 20
147.224185627838
 10
147.9169947869641
 20
149.0197705792876
 10
148.0306830129768
 20
150.2400242051577
 10
147.709255392159
 20
151.3157559800812
 10
147.3874832615654
 20
152.3916600098926
 10
146.8245542879144
 20
152.6683013598569
 10
145.8840425999909
 20
152.6683013598569
 10
145.0989048209514
 20
152.6683013598569
 10
144.3282364524954
 20
152.3275811915945
 10
143.4531816219731
 20
151.6538923250251
 10
142.34627171234
 20
150.8074318058939
 10
141.901854101563
 20
150.1097995099067
 10
141.3578731655808
 20
149.289521733736
 10
140.6299240093235
 20
148.192602607601
 10
140.2850697237515
 20
147.455696197173
 10
139.6652966370942
 20
145.8385673095858
 10
139.0506911970739
 20
144.2214384219986
 10
138.463991048893
 20
142.3252566160164
 10
138.0571250036777
 20
141.0154304484394
 10
138.0571250036777
 20
141.0154304484394
 10
133.9009590684727
 20
127.8027915271048
 10
133.9009590684727
 20
127.8027915271048
 10
133.9009590684727
 20
127.8027915271048
 10
131.4180771143097
 20
127.8027915271048
 10
131.4180771143097
 20
127.8027915271048
 10
131.4180771143097
 20
127.8027915271048
 10
139.8926730891197
 20
154.8294111834263
 10
139.8926730891197
 20
154.8294111834263
 97
        0
 75
     2
 76
     1
 98
        0
  0
SPLINE
  5
6AA
330
6A2
100
AcDbEntity
  8
LOGO
370
     0
100
AcDbSpline
210
0.0
220
0.0
230
1.0
 70
    11
 71
     3
 72
    29
 73
    25
 74
     0
 42
0.000000001
 43
0.0000000001
 40
0.0
 40
0.0
 40
0.0
 40
0.0
 40
1.0
 40
1.0
 40
1.0
 40
2.0
 40
2.0
 40
2.0
 40
3.0
 40
3.0
 40
3.0
 40
4.0
 40
4.0
 40
4.0
 40
5.0
 40
5.0
 40
5.0
 40
6.0
 40
6.0
 40
6.0
 40
7.0
 40
7.0
 40
7.0
 40
8.0
 40
8.0
 40
8.0
 40
8.0
 10
101.6420971922469
 20
132.8388354296931
 30
0.0
 10
101.630039350094
 20
134.7164137077823
 30
0.0
 10
102.2236296937908
 20
138.0598810818841
 30
0.0
 10
103.7487744712405
 20
142.5378191476827
 30
0.0
 10
105.819967243327
 20
148.5896501242061
 30
0.0
 10
107.0602024361932
 20
150.8074318058939
 30
0.0
 10
108.1522984254671
 20
151.8833358357054
 30
0.0
 10
109.741177511439
 20
153.4532668840085
 30
0.0
 10
111.8740375333931
 20
153.5290590346837
 30
0.0
 10
112.5075910110823
 20
153.4532668840085
 30
0.0
 10
113.4012493694975
 20
153.3490526768302
 30
0.0
 10
114.6683563248758
 20
152.7580461564518
 30
0.0
 10
114.7493161221879
 20
150.7838328862519
 30
0.0
 10
114.8106388622796
 20
149.0909118479895
 30
0.0
 10
114.3186789024427
 20
145.9191825971221
 30
0.0
 10
112.6164561002338
 20
140.9489400617108
 30
0.0
 10
110.6444821435766
 20
135.1746117095912
 30
0.0
 10
109.4669477299053
 20
132.8960240524753
 30
0.0
 10
108.5212683953448
 20
131.9072809959403
 30
0.0
 10
106.7346406980658
 20
130.0538184021569
 30
0.0
 10
104.8222669326213
 20
130.2336525051225
 30
0.0
 10
104.5408024457958
 20
130.2336525051225
 30
0.0
 10
104.1721769856939
 20
130.2336525051225
 30
0.0
 10
101.6465758193322
 20
130.6305277668397
 30
0.0
 10
101.6420971922469
 20
132.8388354296931
 30
0.0
  0
SPLINE
  5
6AB
330
6A2
100
AcDbEntity
  8
LOGO
370
     0
100
AcDbSpline
210
0.0
220
0.0
230
1.0
 70
    11
 71
     3
 72
    32
 73
    28
 74
     0
 42
0.000000001
 43
0.0000000001
 40
0.0
 40
0.0
 40
0.0
 40
0.0
 40
1.0
 40
1.0
 40
1.0
 40
2.0
 40
2.0
 40
2.0
 40
3.0
 40
3.0
 40
3.0
 40
4.0
 40
4.0
 40
4.0
 40
5.0
 40
5.0
 40
5.0
 40
6.0
 40
6.0
 40
6.0
 40
7.0
 40
7.0
 40
7.0
 40
8.0
 40
8.0
 40
8.0
 40
9.0
 40
9.0
 40
9.0
 40
9.0
 10
106.2595617172429
 20
153.4105476718098
 30
0.0
 10
104.8222669326213
 20
151.5474388043041
 30
0.0
 10
103.7177685914188
 20
149.8758773721411
 30
0.0
 10
101.9232171692965
 20
144.6141795664062
 30
0.0
 10
100.2754269116635
 20
139.7999999594306
 30
0.0
 10
99.22777268346732
 20
136.3052927937542
 30
0.0
 10
99.06964269637689
 20
132.039572749846
 30
0.0
 10
98.94665270641765
 20
128.8673267343149
 30
0.0
 10
100.8807305877373
 20
127.8027915271048
 30
0.0
 10
103.7129454545577
 20
127.8027915271048
 30
0.0
 10
104.9352661390825
 20
127.8027915271048
 30
0.0
 10
108.0151835347002
 20
127.8827177950895
 30
0.0
 10
110.2045431598849
 20
130.5926316915021
 30
0.0
 10
111.7417457794874
 20
132.4984597712065
 30
0.0
 10
113.155269389579
 20
134.475256864725
 30
0.0
 10
115.0562743324223
 20
140.9489400617108
 30
0.0
 10
116.6361961642235
 20
146.3680788349845
 30
0.0
 10
117.7282921534974
 20
149.8639917848761
 30
0.0
 10
117.6480213757369
 20
151.8595646611754
 30
0.0
 10
117.6480213757369
 20
151.8595646611754
 30
0.0
 10
117.6480213757369
 20
151.8595646611754
 30
0.0
 10
117.6480213757369
 20
151.8595646611754
 30
0.0
 10
117.13229024137
 20
155.18150017429
 30
0.0
 10
114.7162431837115
 20
155.886194920681
 30
0.0
 10
113.3351034925446
 20
155.886194920681
 30
0.0
 10
111.9829026225447
 20
155.886194920681
 30
0.0
 10
108.3414342923792
 20
156.1251124501957
 30
0.0
 10
106.2595617172429
 20
153.4105476718098
 30
0.0
  0
HATCH
  5
6AC
330
6A2
100
AcDbEntity
  8
LOGO
 62
   250
420
  2234388
100
AcDbHatch
 10
0.0
 20
0.0
 30
0.0
210
0.0
220
0.0
230
1.0
  2
SOLID
 70
     1
 71
     0
 91
        2
 92
        1
 93
        1
 72
     4
 94
        3
 73
     0
 74
     1
 95
       29
 96
       25
 40
0.0
 40
0.0
 40
0.0
 40
0.0
 40
1.0
 40
1.0
 40
1.0
 40
2.0
 40
2.0
 40
2.0
 40
3.0
 40
3.0
 40
3.0
 40
4.0
 40
4.0
 40
4.0
 40
5.0
 40
5.0
 40
5.0
 40
6.0
 40
6.0
 40
6.0
 40
7.0
 40
7.0
 40
7.0
 40
8.0
 40
8.0
 40
8.0
 40
8.0
 10
101.6420971922469
 20
132.8388354296931
 10
101.630039350094
 20
134.7164137077823
 10
102.2236296937908
 20
138.0598810818841
 10
103.7487744712405
 20
142.5378191476827
 10
105.819967243327
 20
148.5896501242061
 10
107.0602024361932
 20
150.8074318058939
 10
108.1522984254671
 20
151.8833358357054
 10
109.741177511439
 20
153.4532668840085
 10
111.8740375333931
 20
153.5290590346837
 10
112.5075910110823
 20
153.4532668840085
 10
113.4012493694975
 20
153.3490526768302
 10
114.6683563248758
 20
152.7580461564518
 10
114.7493161221879
 20
150.7838328862519
 10
114.8106388622796
 20
149.0909118479895
 10
114.3186789024427
 20
145.9191825971221
 10
112.6164561002338
 20
140.9489400617108
 10
110.6444821435766
 20
135.1746117095912
 10
109.4669477299053
 20
132.8960240524753
 10
108.5212683953448
 20
131.9072809959403
 10
106.7346406980658
 20
130.0538184021569
 10
104.8222669326213
 20
130.2336525051225
 10
104.5408024457958
 20
130.2336525051225
 10
104.1721769856939
 20
130.2336525051225
 10
101.6465758193322
 20
130.6305277668397
 10
101.6420971922469
 20
132.8388354296931
 97
        0
 92
        1
 93
        1
 72
     4
 94
        3
 73
     0
 74
     1
 95
       32
 96
       28
 40
0.0
 40
0.0
 40
0.0
 40
0.0
 40
1.0
 40
1.0
 40
1.0
 40
2.0
 40
2.0
 40
2.0
 40
3.0
 40
3.0
 40
3.0
 40
4.0
 40
4.0
 40
4.0
 40
5.0
 40
5.0
 40
5.0
 40
6.0
 40
6.0
 40
6.0
 40
7.0
 40
7.0
 40
7.0
 40
8.0
 40
8.0
 40
8.0
 40
9.0
 40
9.0
 40
9.0
 40
9.0
 10
106.2595617172429
 20
153.4105476718098
 10
104.8222669326213
 20
151.5474388043041
 10
103.7177685914188
 20
149.8758773721411
 10
101.9232171692965
 20
144.6141795664062
 10
100.2754269116635
 20
139.7999999594306
 10
99.22777268346732
 20
136.3052927937542
 10
99.06964269637689
 20
132.039572749846
 10
98.94665270641765
 20
128.8673267343149
 10
100.8807305877373
 20
127.8027915271048
 10
103.7129454545577
 20
127.8027915271048
 10
104.9352661390825
 20
127.8027915271048
 10
108.0151835347002
 20
127.8827177950895
 10
110.2045431598849
 20
130.5926316915021
 10
111.7417457794874
 20
132.4984597712065
 10
113.155269389579
 20
134.475256864725
 10
115.0562743324223
 20
140.9489400617108
 10
116.6361961642235
 20
146.3680788349845
 10
117.7282921534974
 20
149.8639917848761
 10
117.6480213757369
 20
151.8595646611754
 10
117.6480213757369
 20
151.8595646611754
 10
117.6480213757369
 20
151.8595646611754
 10
117.6480213757369
 20
151.8595646611754
 10
117.13229024137
 20
155.18150017429
 10
114.7162431837115
 20
155.886194920681
 10
113.3351034925446
 20
155.886194920681
 10
111.9829026225447
 20
155.886194920681
 10
108.3414342923792
 20
156.1251124501957
 10
106.2595617172429
 20
153.4105476718098
 97
        0
 75
     2
 76
     1
 98
        0
  0
ENDBLK
  5
6AD
330
6A2
100
AcDbEntity
  8
0
100
AcDbBlockEnd
  0
BLOCK
  5
199B
330
199A
100
AcDbEntity
  8
0
100
AcDbBlockBegin
  2
SEANNOT_GROUP
 70
     0
 10
0.0
 20
0.0
 30
0.0
  3
SEANNOT_GROUP
  1
SEANNOT_GROUP
  0
ENDBLK
  5
199C
330
199A
100
AcDbEntity
  8
0
100
AcDbBlockEnd
  0
BLOCK
  5
1F30
330
1F2F
100
AcDbEntity
  8
0
100
AcDbBlockBegin
  2
SEANNOT_GROUP1
 70
     0
 10
0.0
 20
0.0
 30
0.0
  3
SEANNOT_GROUP1
  1
SEANNOT_GROUP1
  0
ENDBLK
  5
1F31
330
1F2F
100
AcDbEntity
  8
0
100
AcDbBlockEnd
  0
BLOCK
  5
35B0
330
35AF
100
AcDbEntity
  8
0
100
AcDbBlockBegin
  2
*D8
 70
     1
 10
0.0
 20
0.0
 30
0.0
  3
*D8
  1

  0
LINE
  5
35B2
330
35AF
100
AcDbEntity
  8
DIM
  6
Continuous
 62
     0
370
    -2
100
AcDbLine
 10
-1253.63333508835
 20
1534.490644404527
 30
0.0
 11
-1420.369913348774
 21
1534.490644404527
 31
0.0
  0
LINE
  5
35B3
330
35AF
100
AcDbEntity
  8
DIM
  6
Continuous
 62
     0
370
    -2
100
AcDbLine
 10
-1253.63333508835
 20
694.5100719424458
 30
0.0
 11
-1420.369913348774
 21
694.5100719424458
 31
0.0
  0
LINE
  5
35B4
330
35AF
100
AcDbEntity
  8
DIM
  6
Continuous
 62
     0
370
    -2
100
AcDbLine
 10
-1420.369913348774
 20
1524.490644404527
 30
0.0
 11
-1420.369913348774
 21
704.5100719424458
 31
0.0
  0
INSERT
  5
35B5
330
35AF
100
AcDbEntity
  8
DIM
 62
     0
370
    -2
100
AcDbBlockReference
  2
_DOT
 10
-1420.369913348774
 20
1534.490644404527
 30
0.0
 41
10.0
 42
10.0
 43
10.0
 50
90.0
  0
INSERT
  5
35B6
330
35AF
100
AcDbEntity
  8
DIM
 62
     0
370
    -2
100
AcDbBlockReference
  2
_DOT
 10
-1420.369913348774
 20
694.5100719424458
 30
0.0
 41
10.0
 42
10.0
 43
10.0
 50
270.0
  0
MTEXT
  5
35B7
330
35AF
100
AcDbEntity
  8
DIM
 62
     0
100
AcDbMText
 10
-1452.369913348774
 20
1114.500358173486
 30
0.0
 40
24.0
 41
0.0
 46
0.0
 71
     5
 72
     1
  1
\A1;840
  7
ＭＳ ゴシック
 11
0.0
 21
1.0
 31
0.0
 73
     1
 44
1.0
  0
POINT
  5
35B8
330
35AF
100
AcDbEntity
  8
Defpoints
 62
     0
100
AcDbPoint
 10
-1223.63333508835
 20
1534.490644404527
 30
0.0
  0
POINT
  5
35B9
330
35AF
100
AcDbEntity
  8
Defpoints
 62
     0
100
AcDbPoint
 10
-1223.63333508835
 20
694.5100719424458
 30
0.0
  0
POINT
  5
35BA
330
35AF
100
AcDbEntity
  8
Defpoints
 62
     0
100
AcDbPoint
 10
-1420.369913348774
 20
694.5100719424458
 30
0.0
  0
ENDBLK
  5
35B1
330
35AF
100
AcDbEntity
  8
0
100
AcDbBlockEnd
  0
BLOCK
  5
35BC
330
35BB
100
AcDbEntity
  8
0
100
AcDbBlockBegin
  2
*D9
 70
     1
 10
0.0
 20
0.0
 30
0.0
  3
*D9
  1

  0
LINE
  5
35BE
330
35BB
100
AcDbEntity
  8
DIM
  6
Continuous
 62
     0
370
    -2
100
AcDbLine
 10
-1330.218860000053
 20
1566.177280876448
 30
0.0
 11
-1330.218860000053
 21
1682.793179170035
 31
0.0
  0
LINE
  5
35BF
330
35BB
100
AcDbEntity
  8
DIM
  6
Continuous
 62
     0
370
    -2
100
AcDbLine
 10
-950.2188600000525
 20
1566.177280876448
 30
0.0
 11
-950.2188600000525
 21
1682.793179170035
 31
0.0
  0
LINE
  5
35C0
330
35BB
100
AcDbEntity
  8
DIM
  6
Continuous
 62
     0
370
    -2
100
AcDbLine
 10
-1320.218860000053
 20
1682.793179170035
 30
0.0
 11
-960.2188600000525
 21
1682.793179170035
 31
0.0
  0
INSERT
  5
35C1
330
35BB
100
AcDbEntity
  8
DIM
 62
     0
370
    -2
100
AcDbBlockReference
  2
_DOT
 10
-1330.218860000053
 20
1682.793179170035
 30
0.0
 41
10.0
 42
10.0
 43
10.0
 50
180.0
  0
INSERT
  5
35C2
330
35BB
100
AcDbEntity
  8
DIM
 62
     0
370
    -2
100
AcDbBlockReference
  2
_DOT
 10
-950.2188600000525
 20
1682.793179170035
 30
0.0
 41
10.0
 42
10.0
 43
10.0
  0
MTEXT
  5
35C3
330
35BB
100
AcDbEntity
  8
DIM
 62
     0
100
AcDbMText
 10
-1140.218860000053
 20
1714.793179170035
 30
0.0
 40
24.0
 41
0.0
 46
0.0
 71
     5
 72
     1
  1
\A1;380
  7
ＭＳ ゴシック
 73
     1
 44
1.0
  0
POINT
  5
35C4
330
35BB
100
AcDbEntity
  8
Defpoints
 62
     0
100
AcDbPoint
 10
-1330.218860000053
 20
1536.177280876448
 30
0.0
  0
POINT
  5
35C5
330
35BB
100
AcDbEntity
  8
Defpoints
 62
     0
100
AcDbPoint
 10
-950.2188600000525
 20
1536.177280876448
 30
0.0
  0
POINT
  5
35C6
330
35BB
100
AcDbEntity
  8
Defpoints
 62
     0
100
AcDbPoint
 10
-950.2188600000525
 20
1682.793179170035
 30
0.0
  0
ENDBLK
  5
35BD
330
35BB
100
AcDbEntity
  8
0
100
AcDbBlockEnd
  0
BLOCK
  5
35C8
330
35C7
100
AcDbEntity
  8
0
100
AcDbBlockBegin
  2
*D10
 70
     1
 10
0.0
 20
0.0
 30
0.0
  3
*D10
  1

  0
LINE
  5
35CA
330
35C7
100
AcDbEntity
  8
DIM
  6
Continuous
 62
     0
370
    -2
100
AcDbLine
 10
-392.4460434951955
 20
694.5965880843369
 30
0.0
 11
-101.0295298094463
 21
694.5965880843369
 31
0.0
  0
LINE
  5
35CB
330
35C7
100
AcDbEntity
  8
DIM
  6
Continuous
 62
     0
370
    -2
100
AcDbLine
 10
-133.3191302345583
 20
974.5965880843369
 30
0.0
 11
-101.0295298094463
 21
974.5965880843369
 31
0.0
  0
LINE
  5
35CC
330
35C7
100
AcDbEntity
  8
DIM
  6
Continuous
 62
     0
370
    -2
100
AcDbLine
 10
-101.0295298094463
 20
704.5965880843369
 30
0.0
 11
-101.0295298094463
 21
964.5965880843369
 31
0.0
  0
INSERT
  5
35CD
330
35C7
100
AcDbEntity
  8
DIM
 62
     0
370
    -2
100
AcDbBlockReference
  2
_DOT
 10
-101.0295298094463
 20
694.5965880843369
 30
0.0
 41
10.0
 42
10.0
 43
10.0
 50
270.0
  0
INSERT
  5
35CE
330
35C7
100
AcDbEntity
  8
DIM
 62
     0
370
    -2
100
AcDbBlockReference
  2
_DOT
 10
-101.0295298094463
 20
974.5965880843369
 30
0.0
 41
10.0
 42
10.0
 43
10.0
 50
90.0
  0
MTEXT
  5
35CF
330
35C7
100
AcDbEntity
  8
DIM
 62
     0
100
AcDbMText
 10
-133.0295298094463
 20
834.5965880843369
 30
0.0
 40
24.0
 41
0.0
 46
0.0
 71
     5
 72
     1
  1
\A1;280
  7
ＭＳ ゴシック
 11
5.075305255429287E-17
 21
1.0
 31
0.0
 73
     1
 44
1.0
  0
POINT
  5
35D0
330
35C7
100
AcDbEntity
  8
Defpoints
 62
     0
100
AcDbPoint
 10
-422.4460434951955
 20
694.5965880843369
 30
0.0
  0
POINT
  5
35D1
330
35C7
100
AcDbEntity
  8
Defpoints
 62
     0
100
AcDbPoint
 10
-163.3191302345583
 20
974.5965880843369
 30
0.0
  0
POINT
  5
35D2
330
35C7
100
AcDbEntity
  8
Defpoints
 62
     0
100
AcDbPoint
 10
-101.0295298094463
 20
974.5965880843369
 30
0.0
  0
ENDBLK
  5
35C9
330
35C7
100
AcDbEntity
  8
0
100
AcDbBlockEnd
  0
BLOCK
  5
35D4
330
35D3
100
AcDbEntity
  8
0
100
AcDbBlockBegin
  2
*D11
 70
     1
 10
0.0
 20
0.0
 30
0.0
  3
*D11
  1

  0
LINE
  5
35D6
330
35D3
100
AcDbEntity
  8
DIM
  6
Continuous
 62
     0
370
    -2
100
AcDbLine
 10
-455.4648705722195
 20
1564.490644404527
 30
0.0
 11
-455.4648705722195
 21
1709.78585943874
 31
0.0
  0
LINE
  5
35D7
330
35D3
100
AcDbEntity
  8
DIM
  6
Continuous
 62
     0
370
    -2
100
AcDbLine
 10
-345.4648705722195
 20
1044.78672085991
 30
0.0
 11
-345.4648705722196
 21
1709.78585943874
 31
0.0
  0
LINE
  5
35D8
330
35D3
100
AcDbEntity
  8
DIM
  6
Continuous
 62
     0
370
    -2
100
AcDbLine
 10
-445.4648705722195
 20
1709.78585943874
 30
0.0
 11
-355.4648705722196
 21
1709.78585943874
 31
0.0
  0
INSERT
  5
35D9
330
35D3
100
AcDbEntity
  8
DIM
 62
     0
370
    -2
100
AcDbBlockReference
  2
_DOT
 10
-455.4648705722195
 20
1709.78585943874
 30
0.0
 41
10.0
 42
10.0
 43
10.0
 50
180.0
  0
INSERT
  5
35DA
330
35D3
100
AcDbEntity
  8
DIM
 62
     0
370
    -2
100
AcDbBlockReference
  2
_DOT
 10
-345.4648705722196
 20
1709.78585943874
 30
0.0
 41
10.0
 42
10.0
 43
10.0
  0
MTEXT
  5
35DB
330
35D3
100
AcDbEntity
  8
DIM
 62
     0
100
AcDbMText
 10
-400.4648705722195
 20
1741.78585943874
 30
0.0
 40
24.0
 41
0.0
 46
0.0
 71
     5
 72
     1
  1
\A1;110
  7
ＭＳ ゴシック
 73
     1
 44
1.0
  0
POINT
  5
35DC
330
35D3
100
AcDbEntity
  8
Defpoints
 62
     0
100
AcDbPoint
 10
-455.4648705722195
 20
1534.490644404527
 30
0.0
  0
POINT
  5
35DD
330
35D3
100
AcDbEntity
  8
Defpoints
 62
     0
100
AcDbPoint
 10
-345.4648705722195
 20
1014.78672085991
 30
0.0
  0
POINT
  5
35DE
330
35D3
100
AcDbEntity
  8
Defpoints
 62
     0
100
AcDbPoint
 10
-345.4648705722196
 20
1709.78585943874
 30
0.0
  0
ENDBLK
  5
35D5
330
35D3
100
AcDbEntity
  8
0
100
AcDbBlockEnd
  0
BLOCK
  5
35E0
330
35DF
100
AcDbEntity
  8
0
100
AcDbBlockBegin
  2
*D12
 70
     1
 10
0.0
 20
0.0
 30
0.0
  3
*D12
  1

  0
LINE
  5
35E2
330
35DF
100
AcDbEntity
  8
DIM
  6
Continuous
 62
     0
370
    -2
100
AcDbLine
 10
-455.4648705722195
 20
1564.569441744921
 30
0.0
 11
-455.4648705722195
 21
1649.297479704525
 31
0.0
  0
LINE
  5
35E3
330
35DF
100
AcDbEntity
  8
DIM
  6
Continuous
 62
     0
370
    -2
100
AcDbLine
 10
-365.4648705722195
 20
1195.39044183081
 30
0.0
 11
-365.4648705722196
 21
1649.297479704525
 31
0.0
  0
LINE
  5
35E4
330
35DF
100
AcDbEntity
  8
DIM
  6
Continuous
 62
     0
370
    -2
100
AcDbLine
 10
-445.4648705722195
 20
1649.297479704525
 30
0.0
 11
-375.4648705722196
 21
1649.297479704525
 31
0.0
  0
INSERT
  5
35E5
330
35DF
100
AcDbEntity
  8
DIM
 62
     0
370
    -2
100
AcDbBlockReference
  2
_DOT
 10
-455.4648705722195
 20
1649.297479704525
 30
0.0
 41
10.0
 42
10.0
 43
10.0
 50
180.0
  0
INSERT
  5
35E6
330
35DF
100
AcDbEntity
  8
DIM
 62
     0
370
    -2
100
AcDbBlockReference
  2
_DOT
 10
-365.4648705722196
 20
1649.297479704525
 30
0.0
 41
10.0
 42
10.0
 43
10.0
  0
MTEXT
  5
35E7
330
35DF
100
AcDbEntity
  8
DIM
 62
     0
100
AcDbMText
 10
-410.4648705722195
 20
1681.297479704525
 30
0.0
 40
24.0
 41
0.0
 46
0.0
 71
     5
 72
     1
  1
\A1;90
  7
ＭＳ ゴシック
 73
     1
 44
1.0
  0
POINT
  5
35E8
330
35DF
100
AcDbEntity
  8
Defpoints
 62
     0
100
AcDbPoint
 10
-455.4648705722195
 20
1534.569441744921
 30
0.0
  0
POINT
  5
35E9
330
35DF
100
AcDbEntity
  8
Defpoints
 62
     0
100
AcDbPoint
 10
-365.4648705722195
 20
1165.39044183081
 30
0.0
  0
POINT
  5
35EA
330
35DF
100
AcDbEntity
  8
Defpoints
 62
     0
100
AcDbPoint
 10
-365.4648705722196
 20
1649.297479704525
 30
0.0
  0
ENDBLK
  5
35E1
330
35DF
100
AcDbEntity
  8
0
100
AcDbBlockEnd
  0
BLOCK
  5
35EC
330
35EB
100
AcDbEntity
  8
0
100
AcDbBlockBegin
  2
*D13
 70
     1
 10
0.0
 20
0.0
 30
0.0
  3
*D13
  1

  0
LINE
  5
35EE
330
35EB
100
AcDbEntity
  8
DIM
  6
Continuous
 62
     0
370
    -2
100
AcDbLine
 10
-334.9773137145974
 20
2395.932361361355
 30
0.0
 11
-208.3661739236004
 21
2395.932361361355
 31
0.0
  0
LINE
  5
35EF
330
35EB
100
AcDbEntity
  8
DIM
  6
Continuous
 62
     0
370
    -2
100
AcDbLine
 10
-260.7142754838885
 20
2338.932361361355
 30
0.0
 11
-208.3661739236004
 21
2338.932361361355
 31
0.0
  0
LINE
  5
35F0
330
35EB
100
AcDbEntity
  8
DIM
  6
Continuous
 62
     0
370
    -2
100
AcDbLine
 10
-208.3661739236004
 20
2385.932361361355
 30
0.0
 11
-208.3661739236004
 21
2348.932361361355
 31
0.0
  0
INSERT
  5
35F1
330
35EB
100
AcDbEntity
  8
DIM
 62
     0
370
    -2
100
AcDbBlockReference
  2
_DOT
 10
-208.3661739236004
 20
2395.932361361355
 30
0.0
 41
10.0
 42
10.0
 43
10.0
 50
90.0
  0
INSERT
  5
35F2
330
35EB
100
AcDbEntity
  8
DIM
 62
     0
370
    -2
100
AcDbBlockReference
  2
_DOT
 10
-208.3661739236004
 20
2338.932361361355
 30
0.0
 41
10.0
 42
10.0
 43
10.0
 50
270.0
  0
MTEXT
  5
35F3
330
35EB
100
AcDbEntity
  8
DIM
 62
     0
100
AcDbMText
 10
-240.3661739236004
 20
2367.432361361355
 30
0.0
 40
24.0
 41
0.0
 46
0.0
 71
     5
 72
     1
  1
\A1;57
  7
ＭＳ ゴシック
 11
0.0
 21
1.0
 31
0.0
 73
     1
 44
1.0
  0
POINT
  5
35F4
330
35EB
100
AcDbEntity
  8
Defpoints
 62
     0
100
AcDbPoint
 10
-364.9773137145974
 20
2395.932361361355
 30
0.0
  0
POINT
  5
35F5
330
35EB
100
AcDbEntity
  8
Defpoints
 62
     0
100
AcDbPoint
 10
-290.7142754838885
 20
2338.932361361355
 30
0.0
  0
POINT
  5
35F6
330
35EB
100
AcDbEntity
  8
Defpoints
 62
     0
100
AcDbPoint
 10
-208.3661739236004
 20
2338.932361361355
 30
0.0
  0
ENDBLK
  5
35ED
330
35EB
100
AcDbEntity
  8
0
100
AcDbBlockEnd
  0
BLOCK
  5
35F8
330
35F7
100
AcDbEntity
  8
0
100
AcDbBlockBegin
  2
*D14
 70
     1
 10
0.0
 20
0.0
 30
0.0
  3
*D14
  1

  0
LINE
  5
35FA
330
35F7
100
AcDbEntity
  8
DIM
  6
Continuous
 62
     0
370
    -2
100
AcDbLine
 10
-455.4648705722195
 20
2300.664202753995
 30
0.0
 11
-634.1769972459365
 21
2300.664202753995
 31
0.0
  0
LINE
  5
35FB
330
35F7
100
AcDbEntity
  8
DIM
  6
Continuous
 62
     0
370
    -2
100
AcDbLine
 10
-445.4648705722195
 20
2300.664202753995
 30
0.0
 11
-394.4648705722195
 21
2300.664202753995
 31
0.0
  0
LINE
  5
35FC
330
35F7
100
AcDbEntity
  8
DIM
  6
Continuous
 62
     0
370
    -2
100
AcDbLine
 10
-445.4648705722195
 20
2300.664202753995
 30
0.0
 11
-435.4648705722195
 21
2300.664202753995
 31
0.0
  0
INSERT
  5
35FD
330
35F7
100
AcDbEntity
  8
DIM
 62
     0
370
    -2
100
AcDbBlockReference
  2
_DOT
 10
-455.4648705722195
 20
2300.664202753995
 30
0.0
 41
10.0
 42
10.0
 43
10.0
 50
180.0
  0
INSERT
  5
35FE
330
35F7
100
AcDbEntity
  8
DIM
 62
     0
370
    -2
100
AcDbBlockReference
  2
_DOT
 10
-384.4648705722195
 20
2300.664202753995
 30
0.0
 41
10.0
 42
10.0
 43
10.0
  0
MTEXT
  5
35FF
330
35F7
100
AcDbEntity
  8
DIM
 62
     0
100
AcDbMText
 10
-556.4089972459365
 20
2334.788202753995
 30
0.0
 40
24.0
 41
0.0
 46
0.0
 71
     5
 72
     1
  1
\A1;71(深さ)
  7
ＭＳ ゴシック
 73
     1
 44
1.0
  0
POINT
  5
3600
330
35F7
100
AcDbEntity
  8
Defpoints
 62
     0
100
AcDbPoint
 10
-455.4648705722195
 20
2323.165903121959
 30
0.0
  0
POINT
  5
3601
330
35F7
100
AcDbEntity
  8
Defpoints
 62
     0
100
AcDbPoint
 10
-384.4648705722195
 20
2313.828412861025
 30
0.0
  0
POINT
  5
3602
330
35F7
100
AcDbEntity
  8
Defpoints
 62
     0
100
AcDbPoint
 10
-384.4648705722195
 20
2300.664202753995
 30
0.0
  0
ENDBLK
  5
35F9
330
35F7
100
AcDbEntity
  8
0
100
AcDbBlockEnd
  0
BLOCK
  5
3604
330
3603
100
AcDbEntity
  8
0
100
AcDbBlockBegin
  2
*D15
 70
     1
 10
0.0
 20
0.0
 30
0.0
  3
*D15
  1

  0
LINE
  5
3606
330
3603
100
AcDbEntity
  8
DIM
  6
Continuous
 62
     0
370
    -2
100
AcDbLine
 10
-1459.103812693565
 20
1994.990655285753
 30
0.0
 11
-1489.275544678017
 21
1994.990655285753
 31
0.0
  0
LINE
  5
3607
330
3603
100
AcDbEntity
  8
DIM
  6
Continuous
 62
     0
370
    -2
100
AcDbLine
 10
-1335.261243117743
 20
2294.990655285753
 30
0.0
 11
-1489.275544678017
 21
2294.990655285753
 31
0.0
  0
LINE
  5
3608
330
3603
100
AcDbEntity
  8
DIM
  6
Continuous
 62
     0
370
    -2
100
AcDbLine
 10
-1489.275544678017
 20
2004.990655285753
 30
0.0
 11
-1489.275544678017
 21
2284.990655285753
 31
0.0
  0
INSERT
  5
3609
330
3603
100
AcDbEntity
  8
DIM
 62
     0
370
    -2
100
AcDbBlockReference
  2
_DOT
 10
-1489.275544678017
 20
1994.990655285753
 30
0.0
 41
10.0
 42
10.0
 43
10.0
 50
270.0
  0
INSERT
  5
360A
330
3603
100
AcDbEntity
  8
DIM
 62
     0
370
    -2
100
AcDbBlockReference
  2
_DOT
 10
-1489.275544678017
 20
2294.990655285753
 30
0.0
 41
10.0
 42
10.0
 43
10.0
 50
90.0
  0
MTEXT
  5
360B
330
3603
100
AcDbEntity
  8
DIM
 62
     0
100
AcDbMText
 10
-1521.275544678017
 20
2144.990655285753
 30
0.0
 40
24.0
 41
0.0
 46
0.0
 71
     5
 72
     1
  1
\A1;300
  7
ＭＳ ゴシック
 11
0.0
 21
1.0
 31
0.0
 73
     1
 44
1.0
  0
POINT
  5
360C
330
3603
100
AcDbEntity
  8
Defpoints
 62
     0
100
AcDbPoint
 10
-1429.103812693565
 20
1994.990655285753
 30
0.0
  0
POINT
  5
360D
330
3603
100
AcDbEntity
  8
Defpoints
 62
     0
100
AcDbPoint
 10
-1305.261243117743
 20
2294.990655285753
 30
0.0
  0
POINT
  5
360E
330
3603
100
AcDbEntity
  8
Defpoints
 62
     0
100
AcDbPoint
 10
-1489.275544678017
 20
2294.990655285753
 30
0.0
  0
ENDBLK
  5
3605
330
3603
100
AcDbEntity
  8
0
100
AcDbBlockEnd
  0
BLOCK
  5
3610
330
360F
100
AcDbEntity
  8
0
100
AcDbBlockBegin
  2
*D16
 70
     1
 10
0.0
 20
0.0
 30
0.0
  3
*D16
  1

  0
LINE
  5
3612
330
360F
100
AcDbEntity
  8
DIM
  6
Continuous
 62
     0
370
    -2
100
AcDbLine
 10
-335.4648669959383
 20
2386.790592101188
 30
0.0
 11
-276.5507620199105
 21
2386.790592101188
 31
0.0
  0
LINE
  5
3613
330
360F
100
AcDbEntity
  8
DIM
  6
Continuous
 62
     0
370
    -2
100
AcDbLine
 10
-335.4648669959383
 20
2290.790591683956
 30
0.0
 11
-276.5507620199105
 21
2290.790591683956
 31
0.0
  0
LINE
  5
3614
330
360F
100
AcDbEntity
  8
DIM
  6
Continuous
 62
     0
370
    -2
100
AcDbLine
 10
-276.5507620199105
 20
2376.790592101188
 30
0.0
 11
-276.5507620199105
 21
2300.790591683956
 31
0.0
  0
INSERT
  5
3615
330
360F
100
AcDbEntity
  8
DIM
 62
     0
370
    -2
100
AcDbBlockReference
  2
_DOT
 10
-276.5507620199105
 20
2386.790592101188
 30
0.0
 41
10.0
 42
10.0
 43
10.0
 50
90.0
  0
INSERT
  5
3616
330
360F
100
AcDbEntity
  8
DIM
 62
     0
370
    -2
100
AcDbBlockReference
  2
_DOT
 10
-276.5507620199105
 20
2290.790591683956
 30
0.0
 41
10.0
 42
10.0
 43
10.0
 50
270.0
  0
MTEXT
  5
3617
330
360F
100
AcDbEntity
  8
DIM
 62
     0
100
AcDbMText
 10
-308.5507620199105
 20
2338.790591892572
 30
0.0
 40
24.0
 41
0.0
 46
0.0
 71
     5
 72
     1
  1
\A1;96
  7
ＭＳ ゴシック
 11
0.0
 21
1.0
 31
0.0
 73
     1
 44
1.0
  0
POINT
  5
3618
330
360F
100
AcDbEntity
  8
Defpoints
 62
     0
100
AcDbPoint
 10
-365.4648669959383
 20
2386.790592101188
 30
0.0
  0
POINT
  5
3619
330
360F
100
AcDbEntity
  8
Defpoints
 62
     0
100
AcDbPoint
 10
-365.4648669959383
 20
2290.790591683956
 30
0.0
  0
POINT
  5
361A
330
360F
100
AcDbEntity
  8
Defpoints
 62
     0
100
AcDbPoint
 10
-276.5507620199105
 20
2290.790591683956
 30
0.0
  0
ENDBLK
  5
3611
330
360F
100
AcDbEntity
  8
0
100
AcDbBlockEnd
  0
BLOCK
  5
361C
330
361B
100
AcDbEntity
  8
0
100
AcDbBlockBegin
  2
*D17
 70
     1
 10
0.0
 20
0.0
 30
0.0
  3
*D17
  1

  0
LINE
  5
361E
330
361B
100
AcDbEntity
  8
DIM
 62
     0
 48
0.05
370
    -2
100
AcDbLine
 10
-333.0156882623523
 20
950.3986652665416
 30
0.0
 11
-305.8369755151675
 21
950.3986652665416
 31
0.0
  0
LINE
  5
361F
330
361B
100
AcDbEntity
  8
DIM
 62
     0
 48
0.05
370
    -2
100
AcDbLine
 10
-333.0156882623523
 20
997.3613317377002
 30
0.0
 11
-305.8369755151675
 21
997.3613317377002
 31
0.0
  0
LINE
  5
3620
330
361B
100
AcDbEntity
  8
DIM
 62
     0
 48
0.05
370
    -2
100
AcDbLine
 10
-305.8369755151675
 20
960.3986652665416
 30
0.0
 11
-305.8369755151675
 21
987.3613317377002
 31
0.0
  0
INSERT
  5
3621
330
361B
100
AcDbEntity
  8
DIM
 62
     0
370
    -2
100
AcDbBlockReference
  2
_DOT
 10
-305.8369755151675
 20
950.3986652665416
 30
0.0
 41
10.0
 42
10.0
 43
10.0
 50
270.0
  0
INSERT
  5
3622
330
361B
100
AcDbEntity
  8
DIM
 62
     0
370
    -2
100
AcDbBlockReference
  2
_DOT
 10
-305.8369755151675
 20
997.3613317377002
 30
0.0
 41
10.0
 42
10.0
 43
10.0
 50
90.0
  0
MTEXT
  5
3623
330
361B
100
AcDbEntity
  8
DIM
 62
     0
100
AcDbMText
 10
-271.2809755151675
 20
973.8799985021209
 30
0.0
 40
24.0
 41
0.0
 46
0.0
 71
     5
 72
     1
  1
\A1;G1 1/4"
  7
ＭＳ ゴシック
 11
0.0
 21
1.0
 31
0.0
 73
     1
 44
1.0
  0
POINT
  5
3624
330
361B
100
AcDbEntity
  8
Defpoints
 62
     0
100
AcDbPoint
 10
-363.0156882623523
 20
950.3986652665416
 30
0.0
  0
POINT
  5
3625
330
361B
100
AcDbEntity
  8
Defpoints
 62
     0
100
AcDbPoint
 10
-363.0156882623523
 20
997.3613317377002
 30
0.0
  0
POINT
  5
3626
330
361B
100
AcDbEntity
  8
Defpoints
 62
     0
100
AcDbPoint
 10
-305.8369755151675
 20
997.3613317377002
 30
0.0
  0
ENDBLK
  5
361D
330
361B
100
AcDbEntity
  8
0
100
AcDbBlockEnd
  0
BLOCK
  5
3628
330
3627
100
AcDbEntity
  8
0
100
AcDbBlockBegin
  2
*D18
 70
     1
 10
0.0
 20
0.0
 30
0.0
  3
*D18
  1

  0
LINE
  5
362A
330
3627
100
AcDbEntity
  8
DIM
 62
     0
 48
0.05
370
    -2
100
AcDbLine
 10
-335.4648669959383
 20
812.0100790950028
 30
0.0
 11
-188.3103274163614
 21
812.0100790950028
 31
0.0
  0
LINE
  5
362B
330
3627
100
AcDbEntity
  8
DIM
 62
     0
 48
0.05
370
    -2
100
AcDbLine
 10
-335.4648669959383
 20
1137.010079095002
 30
0.0
 11
-188.3103274163614
 21
1137.010079095002
 31
0.0
  0
LINE
  5
362C
330
3627
100
AcDbEntity
  8
DIM
 62
     0
 48
0.05
370
    -2
100
AcDbLine
 10
-188.3103274163614
 20
822.0100790950028
 30
0.0
 11
-188.3103274163614
 21
1127.010079095002
 31
0.0
  0
INSERT
  5
362D
330
3627
100
AcDbEntity
  8
DIM
 62
     0
370
    -2
100
AcDbBlockReference
  2
_DOT
 10
-188.3103274163614
 20
812.0100790950028
 30
0.0
 41
10.0
 42
10.0
 43
10.0
 50
270.0
  0
INSERT
  5
362E
330
3627
100
AcDbEntity
  8
DIM
 62
     0
370
    -2
100
AcDbBlockReference
  2
_DOT
 10
-188.3103274163614
 20
1137.010079095002
 30
0.0
 41
10.0
 42
10.0
 43
10.0
 50
90.0
  0
MTEXT
  5
362F
330
3627
100
AcDbEntity
  8
DIM
 62
     0
100
AcDbMText
 10
-220.3103274163614
 20
974.5100790950024
 30
0.0
 40
24.0
 41
0.0
 46
0.0
 71
     5
 72
     1
  1
\A1;325
  7
ＭＳ ゴシック
 11
8.745141363201252E-17
 21
1.0
 31
0.0
 73
     1
 44
1.0
  0
POINT
  5
3630
330
3627
100
AcDbEntity
  8
Defpoints
 62
     0
100
AcDbPoint
 10
-365.4648669959383
 20
812.0100790950028
 30
0.0
  0
POINT
  5
3631
330
3627
100
AcDbEntity
  8
Defpoints
 62
     0
100
AcDbPoint
 10
-365.4648669959383
 20
1137.010079095002
 30
0.0
  0
POINT
  5
3632
330
3627
100
AcDbEntity
  8
Defpoints
 62
     0
100
AcDbPoint
 10
-188.3103274163614
 20
1137.010079095002
 30
0.0
  0
ENDBLK
  5
3629
330
3627
100
AcDbEntity
  8
0
100
AcDbBlockEnd
  0
BLOCK
  5
3634
330
3633
100
AcDbEntity
  8
0
100
AcDbBlockBegin
  2
*D19
 70
     1
 10
0.0
 20
0.0
 30
0.0
  3
*D19
  1

  0
LINE
  5
3636
330
3633
100
AcDbEntity
  8
DIM
 62
     0
 48
0.05
370
    -2
100
AcDbLine
 10
-1338.078060513494
 20
2144.990655285753
 30
0.0
 11
-1401.743773204947
 21
2144.990655285753
 31
0.0
  0
LINE
  5
3637
330
3633
100
AcDbEntity
  8
DIM
 62
     0
 48
0.05
370
    -2
100
AcDbLine
 10
-1239.57601871865
 20
1864.990655285753
 30
0.0
 11
-1401.743773204947
 21
1864.990655285753
 31
0.0
  0
LINE
  5
3638
330
3633
100
AcDbEntity
  8
DIM
 62
     0
 48
0.05
370
    -2
100
AcDbLine
 10
-1401.743773204947
 20
2134.990655285753
 30
0.0
 11
-1401.743773204947
 21
1874.990655285753
 31
0.0
  0
INSERT
  5
3639
330
3633
100
AcDbEntity
  8
DIM
 62
     0
370
    -2
100
AcDbBlockReference
  2
_DOT
 10
-1401.743773204947
 20
2144.990655285753
 30
0.0
 41
10.0
 42
10.0
 43
10.0
 50
90.0
  0
INSERT
  5
363A
330
3633
100
AcDbEntity
  8
DIM
 62
     0
370
    -2
100
AcDbBlockReference
  2
_DOT
 10
-1401.743773204947
 20
1864.990655285753
 30
0.0
 41
10.0
 42
10.0
 43
10.0
 50
270.0
  0
MTEXT
  5
363B
330
3633
100
AcDbEntity
  8
DIM
 62
     0
100
AcDbMText
 10
-1433.743773204947
 20
2004.990655285753
 30
0.0
 40
24.0
 41
0.0
 46
0.0
 71
     5
 72
     1
  1
\A1;280
  7
ＭＳ ゴシック
 11
0.0
 21
1.0
 31
0.0
 73
     1
 44
1.0
  0
POINT
  5
363C
330
3633
100
AcDbEntity
  8
Defpoints
 62
     0
100
AcDbPoint
 10
-1308.078060513494
 20
2144.990655285753
 30
0.0
  0
POINT
  5
363D
330
3633
100
AcDbEntity
  8
Defpoints
 62
     0
100
AcDbPoint
 10
-1209.57601871865
 20
1864.990655285753
 30
0.0
  0
POINT
  5
363E
330
3633
100
AcDbEntity
  8
Defpoints
 62
     0
100
AcDbPoint
 10
-1401.743773204947
 20
1864.990655285753
 30
0.0
  0
ENDBLK
  5
3635
330
3633
100
AcDbEntity
  8
0
100
AcDbBlockEnd
  0
BLOCK
  5
3640
330
363F
100
AcDbEntity
  8
0
100
AcDbBlockBegin
  2
*D20
 70
     1
 10
0.0
 20
0.0
 30
0.0
  3
*D20
  1

  0
LINE
  5
3642
330
363F
100
AcDbEntity
  8
DIM
 62
     0
 48
0.05
370
    -2
100
AcDbLine
 10
-1330.235117426643
 20
2104.299845443934
 30
0.0
 11
-1330.235117426643
 21
1887.730951435908
 31
0.0
  0
LINE
  5
3643
330
363F
100
AcDbEntity
  8
DIM
 62
     0
 48
0.05
370
    -2
100
AcDbLine
 10
-1273.235117426643
 20
2104.299845443934
 30
0.0
 11
-1273.235117426643
 21
1887.730951435908
 31
0.0
  0
LINE
  5
3644
330
363F
100
AcDbEntity
  8
DIM
 62
     0
 48
0.05
370
    -2
100
AcDbLine
 10
-1320.235117426643
 20
1887.730951435908
 30
0.0
 11
-1283.235117426643
 21
1887.730951435908
 31
0.0
  0
INSERT
  5
3645
330
363F
100
AcDbEntity
  8
DIM
 62
     0
370
    -2
100
AcDbBlockReference
  2
_DOT
 10
-1330.235117426643
 20
1887.730951435908
 30
0.0
 41
10.0
 42
10.0
 43
10.0
 50
180.0
  0
INSERT
  5
3646
330
363F
100
AcDbEntity
  8
DIM
 62
     0
370
    -2
100
AcDbBlockReference
  2
_DOT
 10
-1273.235117426643
 20
1887.730951435908
 30
0.0
 41
10.0
 42
10.0
 43
10.0
  0
MTEXT
  5
3647
330
363F
100
AcDbEntity
  8
DIM
 62
     0
100
AcDbMText
 10
-1301.735117426643
 20
1919.730951435908
 30
0.0
 40
24.0
 41
0.0
 46
0.0
 71
     5
 72
     1
  1
\A1;57
  7
ＭＳ ゴシック
 73
     1
 44
1.0
  0
POINT
  5
3648
330
363F
100
AcDbEntity
  8
Defpoints
 62
     0
100
AcDbPoint
 10
-1330.235117426643
 20
2134.299845443934
 30
0.0
  0
POINT
  5
3649
330
363F
100
AcDbEntity
  8
Defpoints
 62
     0
100
AcDbPoint
 10
-1273.235117426643
 20
2134.299845443934
 30
0.0
  0
POINT
  5
364A
330
363F
100
AcDbEntity
  8
Defpoints
 62
     0
100
AcDbPoint
 10
-1273.235117426643
 20
1887.730951435908
 30
0.0
  0
ENDBLK
  5
3641
330
363F
100
AcDbEntity
  8
0
100
AcDbBlockEnd
  0
BLOCK
  5
364C
330
364B
100
AcDbEntity
  8
0
100
AcDbBlockBegin
  2
*D21
 70
     1
 10
0.0
 20
0.0
 30
0.0
  3
*D21
  1

  0
LINE
  5
364E
330
364B
100
AcDbEntity
  8
DIM
 62
     0
 48
0.05
370
    -2
100
AcDbLine
 10
-1330.149431861516
 20
2176.105069683482
 30
0.0
 11
-1330.149431861516
 21
2350.646865074346
 31
0.0
  0
LINE
  5
364F
330
364B
100
AcDbEntity
  8
DIM
 62
     0
 48
0.05
370
    -2
100
AcDbLine
 10
-1290.149431861516
 20
2329.990655285753
 30
0.0
 11
-1290.149431861516
 21
2350.646865074346
 31
0.0
  0
LINE
  5
3650
330
364B
100
AcDbEntity
  8
DIM
 62
     0
 48
0.05
370
    -2
100
AcDbLine
 10
-1320.149431861516
 20
2350.646865074346
 30
0.0
 11
-1300.149431861516
 21
2350.646865074346
 31
0.0
  0
INSERT
  5
3651
330
364B
100
AcDbEntity
  8
DIM
 62
     0
370
    -2
100
AcDbBlockReference
  2
_DOT
 10
-1330.149431861516
 20
2350.646865074346
 30
0.0
 41
10.0
 42
10.0
 43
10.0
 50
180.0
  0
INSERT
  5
3652
330
364B
100
AcDbEntity
  8
DIM
 62
     0
370
    -2
100
AcDbBlockReference
  2
_DOT
 10
-1290.149431861516
 20
2350.646865074346
 30
0.0
 41
10.0
 42
10.0
 43
10.0
  0
MTEXT
  5
3653
330
364B
100
AcDbEntity
  8
DIM
 62
     0
100
AcDbMText
 10
-1310.149431861516
 20
2382.646865074346
 30
0.0
 40
24.0
 41
0.0
 46
0.0
 71
     5
 72
     1
  1
\A1; 
  7
ＭＳ ゴシック
 73
     1
 44
1.0
  0
POINT
  5
3654
330
364B
100
AcDbEntity
  8
Defpoints
 62
     0
100
AcDbPoint
 10
-1330.149431861516
 20
2146.105069683482
 30
0.0
  0
POINT
  5
3655
330
364B
100
AcDbEntity
  8
Defpoints
 62
     0
100
AcDbPoint
 10
-1290.149431861516
 20
2299.990655285753
 30
0.0
  0
POINT
  5
3656
330
364B
100
AcDbEntity
  8
Defpoints
 62
     0
100
AcDbPoint
 10
-1290.149431861516
 20
2350.646865074346
 30
0.0
  0
ENDBLK
  5
364D
330
364B
100
AcDbEntity
  8
0
100
AcDbBlockEnd
  0
BLOCK
  5
369E
330
369D
100
AcDbEntity
  8
0
100
AcDbBlockBegin
  2
block 6
 70
     0
 10
0.0
 20
0.0
 30
0.0
  3
block 6
  1

  0
SPLINE
  5
369F
330
369D
100
AcDbEntity
  8
レイヤー 1
 62
     7
420
 16777215
370
     9
100
AcDbSpline
210
0.0
220
0.0
230
1.0
 70
     8
 71
     3
 72
    11
 73
     7
 74
     0
 42
0.000000001
 43
0.0000000001
 40
0.0
 40
0.0
 40
0.0
 40
0.0
 40
1.0
 40
1.0
 40
1.0
 40
2.0
 40
2.0
 40
2.0
 40
2.0
 10
104.1422046351997
 20
181.282766572823
 30
0.0
 10
101.8029832575437
 20
180.0051520692829
 30
0.0
 10
100.9429146022686
 20
177.0732016223697
 30
0.0
 10
102.2208736155844
 20
174.7341524996015
 30
0.0
 10
103.4981436093487
 20
172.3949311219456
 30
0.0
 10
106.4306108209257
 20
171.5352069764462
 30
0.0
 10
108.7691431790301
 20
172.8124769702105
 30
0.0
  0
SPLINE
  5
36A0
330
369D
100
AcDbEntity
  8
レイヤー 1
 62
     7
420
 16777215
370
     9
100
AcDbSpline
210
0.0
220
0.0
230
1.0
 70
     8
 71
     3
 72
    11
 73
     7
 74
     0
 42
0.000000001
 43
0.0000000001
 40
0.0
 40
0.0
 40
0.0
 40
0.0
 40
1.0
 40
1.0
 40
1.0
 40
2.0
 40
2.0
 40
2.0
 40
2.0
 10
108.7691431790301
 20
172.8124769702105
 30
0.0
 10
111.1083645566861
 20
174.0907804933022
 30
0.0
 10
111.9682609570733
 20
177.021869665776
 30
0.0
 10
110.6911632181969
 20
179.3614355532078
 30
0.0
 10
109.413376459769
 20
181.6997956564243
 30
0.0
 10
106.4812537579678
 20
182.5600365665873
 30
0.0
 10
104.1422046351997
 20
181.2824220630472
 30
0.0
  0
ENDBLK
  5
36A1
330
369D
100
AcDbEntity
  8
0
100
AcDbBlockEnd
  0
BLOCK
  5
37AD
330
37AC
100
AcDbEntity
  8
0
100
AcDbBlockBegin
  2
block 7
 70
     0
 10
0.0
 20
0.0
 30
0.0
  3
block 7
  1

  0
SPLINE
  5
37AE
330
37AC
100
AcDbEntity
  8
レイヤー 1
 62
     7
420
 16777215
370
     9
100
AcDbSpline
210
0.0
220
0.0
230
1.0
 70
     8
 71
     3
 72
    14
 73
    10
 74
     0
 42
0.000000001
 43
0.0000000001
 40
0.0
 40
0.0
 40
0.0
 40
0.0
 40
1.0
 40
1.0
 40
1.0
 40
2.0
 40
2.0
 40
2.0
 40
3.0
 40
3.0
 40
3.0
 40
3.0
 10
102.7695054335398
 20
183.8181862677949
 30
0.0
 10
99.02795701350556
 20
181.7855785905975
 30
0.0
 10
97.64233869525336
 20
177.1057577961824
 30
0.0
 10
99.67425735289916
 20
173.364381631036
 30
0.0
 10
101.706176010545
 20
169.6231777207775
 30
0.0
 10
106.3865135696238
 20
168.2375594025253
 30
0.0
 10
110.1272007152186
 20
170.2694780601711
 30
0.0
 10
110.133401891183
 20
170.2715451188259
 30
0.0
 10
110.1382250280441
 20
170.2744734519202
 30
0.0
 10
110.1416701258021
 20
170.2777462947902
 30
0.0
  0
SPLINE
  5
37AF
330
37AC
100
AcDbEntity
  8
レイヤー 1
 62
     7
420
 16777215
370
     9
100
AcDbSpline
210
0.0
220
0.0
230
1.0
 70
     8
 71
     3
 72
    14
 73
    10
 74
     0
 42
0.000000001
 43
0.0000000001
 40
0.0
 40
0.0
 40
0.0
 40
0.0
 40
1.0
 40
1.0
 40
1.0
 40
2.0
 40
2.0
 40
2.0
 40
3.0
 40
3.0
 40
3.0
 40
3.0
 10
110.1416701258021
 20
170.2774017850144
 30
0.0
 10
113.8840798202758
 20
172.3089759328844
 30
0.0
 10
115.269698138528
 20
176.9894857468512
 30
0.0
 10
113.2377794808822
 20
180.7312064217734
 30
0.0
 10
111.2058608232364
 20
184.4718935673682
 30
0.0
 10
106.5246619897181
 20
185.8576841405082
 30
0.0
 10
102.7839748441233
 20
183.8257654828624
 30
0.0
 10
102.7789794523742
 20
183.8228371497682
 30
0.0
 10
102.7745008252889
 20
183.8207700911134
 30
0.0
 10
102.7695054335398
 20
183.8178417580191
 30
0.0
  0
ENDBLK
  5
37B0
330
37AC
100
AcDbEntity
  8
0
100
AcDbBlockEnd
  0
BLOCK
  5
37EB
330
37EA
100
AcDbEntity
  8
0
100
AcDbBlockBegin
  2
block 8
 70
     0
 10
0.0
 20
0.0
 30
0.0
  3
block 8
  1

  0
SPLINE
  5
37EC
330
37EA
100
AcDbEntity
  8
レイヤー 1
 62
     7
420
 16777215
370
     9
100
AcDbSpline
210
0.0
220
0.0
230
1.0
 70
     8
 71
     3
 72
    11
 73
     7
 74
     0
 42
0.000000001
 43
0.0000000001
 40
0.0
 40
0.0
 40
0.0
 40
0.0
 40
1.0
 40
1.0
 40
1.0
 40
2.0
 40
2.0
 40
2.0
 40
2.0
 10
103.800278682722
 20
181.9087408354447
 30
0.0
 10
101.1156862548303
 20
180.4425072296562
 30
0.0
 10
100.1281489825106
 20
177.0764744652397
 30
0.0
 10
101.5948993529628
 20
174.3918820373481
 30
0.0
 10
103.0614774685271
 20
171.7071173545685
 30
0.0
 10
106.4264767036162
 20
170.7197523371367
 30
0.0
 10
109.1108968766199
 20
172.1859859429252
 30
0.0
  0
SPLINE
  5
37ED
330
37EA
100
AcDbEntity
  8
レイヤー 1
 62
     7
420
 16777215
370
     9
100
AcDbSpline
210
0.0
220
0.0
230
1.0
 70
     8
 71
     3
 72
    11
 73
     7
 74
     0
 42
0.000000001
 43
0.0000000001
 40
0.0
 40
0.0
 40
0.0
 40
0.0
 40
1.0
 40
1.0
 40
1.0
 40
2.0
 40
2.0
 40
2.0
 40
2.0
 10
109.1108968766199
 20
172.1865027075889
 30
0.0
 10
111.7956615593995
 20
173.6527363133774
 30
0.0
 10
112.7833710866071
 20
177.0182523131301
 30
0.0
 10
111.316448461267
 20
179.7030169959097
 30
0.0
 10
109.8498703457027
 20
182.3876094238013
 30
0.0
 10
106.4850433655015
 20
183.3749744412331
 30
0.0
 10
103.800278682722
 20
181.9087408354447
 30
0.0
  0
SPLINE
  5
37EE
330
37EA
100
AcDbEntity
  8
レイヤー 1
 62
     7
420
 16777215
370
     9
100
AcDbSpline
210
0.0
220
0.0
230
1.0
 70
     8
 71
     3
 72
    11
 73
     7
 74
     0
 42
0.000000001
 43
0.0000000001
 40
0.0
 40
0.0
 40
0.0
 40
0.0
 40
1.0
 40
1.0
 40
1.0
 40
2.0
 40
2.0
 40
2.0
 40
2.0
 10
108.8704290531142
 20
172.6285087499354
 30
0.0
 10
111.3109363048543
 20
173.9614170724907
 30
0.0
 10
112.2087287805791
 20
177.0215251560002
 30
0.0
 10
110.8747869286963
 20
179.4618601528524
 30
0.0
 10
109.5418786061409
 20
181.9021951497045
 30
0.0
 10
106.4822872872952
 20
182.7999876254294
 30
0.0
 10
104.0417800355551
 20
181.4663902833224
 30
0.0
  0
SPLINE
  5
37EF
330
37EA
100
AcDbEntity
  8
レイヤー 1
 62
     7
420
 16777215
370
     9
100
AcDbSpline
210
0.0
220
0.0
230
1.0
 70
     8
 71
     3
 72
    11
 73
     7
 74
     0
 42
0.000000001
 43
0.0000000001
 40
0.0
 40
0.0
 40
0.0
 40
0.0
 40
1.0
 40
1.0
 40
1.0
 40
2.0
 40
2.0
 40
2.0
 40
2.0
 10
104.0417800355551
 20
181.4667347930982
 30
0.0
 10
101.6014450387029
 20
180.133481960767
 30
0.0
 10
100.7036525629781
 20
177.0735461321454
 30
0.0
 10
102.0372499050851
 20
174.6328666255175
 30
0.0
 10
103.3701582276405
 20
172.1925316286653
 30
0.0
 10
106.4292327818225
 20
171.2947391529405
 30
0.0
 10
108.8697400335626
 20
172.6288532597112
 30
0.0
  0
ENDBLK
  5
37F0
330
37EA
100
AcDbEntity
  8
0
100
AcDbBlockEnd
  0
BLOCK
  5
38EA
330
38E9
100
AcDbEntity
  8
0
100
AcDbBlockBegin
  2
block 9
 70
     0
 10
0.0
 20
0.0
 30
0.0
  3
block 9
  1

  0
MTEXT
  5
38EB
330
38E9
100
AcDbEntity
  8
レイヤー 1
 62
     7
420
 16777215
100
AcDbMText
 10
21.51342971425546
 20
173.2222713485201
 30
0.0
 40
4.02667808715184
 41
0.0
 46
0.0
 71
     7
 72
     1
  1
\fISOCPEUR|b0|i0|c0|p34;\W1;b1
 11
-4.371139000186241E-8
 21
0.999999999999999
 31
0.0
 73
     1
 44
1.0
  0
ENDBLK
  5
38EC
330
38E9
100
AcDbEntity
  8
0
100
AcDbBlockEnd
  0
BLOCK
  5
392D
330
392C
100
AcDbEntity
  8
0
100
AcDbBlockBegin
  2
block 10
 70
     0
 10
0.0
 20
0.0
 30
0.0
  3
block 10
  1

  0
SPLINE
  5
392E
330
392C
100
AcDbEntity
  8
レイヤー 1
 62
     7
420
 16777215
370
     9
100
AcDbSpline
210
0.0
220
0.0
230
1.0
 70
     8
 71
     3
 72
     8
 73
     4
 74
     0
 42
0.000000001
 43
0.0000000001
 40
0.0
 40
0.0
 40
0.0
 40
0.0
 40
1.0
 40
1.0
 40
1.0
 40
1.0
 10
100.5806625730189
 20
50.00559395681391
 30
0.0
 10
100.7846123602902
 20
49.73377574371073
 30
0.0
 10
101.1062122359959
 20
49.57771281527506
 30
0.0
 10
101.4452098553794
 20
49.58563654011838
 30
0.0
  0
SPLINE
  5
392F
330
392C
100
AcDbEntity
  8
レイヤー 1
 62
     7
420
 16777215
370
     9
100
AcDbSpline
210
0.0
220
0.0
230
1.0
 70
     8
 71
     3
 72
     8
 73
     4
 74
     0
 42
0.000000001
 43
0.0000000001
 40
0.0
 40
0.0
 40
0.0
 40
0.0
 40
1.0
 40
1.0
 40
1.0
 40
1.0
 10
137.299375751814
 20
50.60986410356039
 30
0.0
 10
137.647675135144
 20
50.60986410356039
 30
0.0
 10
137.9294841317453
 20
50.89201760993745
 30
0.0
 10
137.9294841317453
 20
51.23962797371578
 30
0.0
  0
ENDBLK
  5
3930
330
392C
100
AcDbEntity
  8
0
100
AcDbBlockEnd
  0
BLOCK
  5
3937
330
3936
100
AcDbEntity
  8
0
100
AcDbBlockBegin
  2
block 11
 70
     0
 10
0.0
 20
0.0
 30
0.0
  3
block 11
  1

  0
SPLINE
  5
3938
330
3936
100
AcDbEntity
  8
レイヤー 1
 62
     7
420
 16777215
370
     9
100
AcDbSpline
210
0.0
220
0.0
230
1.0
 70
     8
 71
     3
 72
     8
 73
     4
 74
     0
 42
0.000000001
 43
0.0000000001
 40
0.0
 40
0.0
 40
0.0
 40
0.0
 40
1.0
 40
1.0
 40
1.0
 40
1.0
 10
74.98238044714824
 20
51.23962797371578
 30
0.0
 10
74.98238044714824
 20
50.89132859038586
 30
0.0
 10
75.265050718189
 20
50.6091750840088
 30
0.0
 10
75.61283333685525
 20
50.6091750840088
 30
0.0
  0
ENDBLK
  5
3939
330
3936
100
AcDbEntity
  8
0
100
AcDbBlockEnd
  0
BLOCK
  5
3944
330
3943
100
AcDbEntity
  8
0
100
AcDbBlockBegin
  2
block 12
 70
     0
 10
0.0
 20
0.0
 30
0.0
  3
block 12
  1

  0
SPLINE
  5
3945
330
3943
100
AcDbEntity
  8
レイヤー 1
 62
     7
420
 16777215
370
     9
100
AcDbSpline
210
0.0
220
0.0
230
1.0
 70
     8
 71
     3
 72
     8
 73
     4
 74
     0
 42
0.000000001
 43
0.0000000001
 40
0.0
 40
0.0
 40
0.0
 40
0.0
 40
1.0
 40
1.0
 40
1.0
 40
1.0
 10
137.9287951121937
 20
70.96246812827066
 30
0.0
 10
137.9287951121937
 20
71.31007849204899
 30
0.0
 10
137.6469861155924
 20
71.59223199842606
 30
0.0
 10
137.299375751814
 20
71.59223199842606
 30
0.0
  0
SPLINE
  5
3946
330
3943
100
AcDbEntity
  8
レイヤー 1
 62
     7
420
 16777215
370
     9
100
AcDbSpline
210
0.0
220
0.0
230
1.0
 70
     8
 71
     3
 72
     8
 73
     4
 74
     0
 42
0.000000001
 43
0.0000000001
 40
0.0
 40
0.0
 40
0.0
 40
0.0
 40
1.0
 40
1.0
 40
1.0
 40
1.0
 10
75.61197206241575
 20
71.59223199842606
 30
0.0
 10
75.26436169863742
 20
71.59223199842606
 30
0.0
 10
74.98238044714824
 20
71.31007849204899
 30
0.0
 10
74.98238044714824
 20
70.96177910871906
 30
0.0
  0
ENDBLK
  5
3947
330
3943
100
AcDbEntity
  8
0
100
AcDbBlockEnd
  0
BLOCK
  5
3D22
330
3D21
100
AcDbEntity
  8
0
100
AcDbBlockBegin
  2
*D29
 70
     1
 10
0.0
 20
0.0
 30
0.0
  3
*D29
  1

  0
LINE
  5
3D24
330
3D21
100
AcDbEntity
  8
DIM
 62
     0
370
    -2
100
AcDbLine
 10
2601.480907712219
 20
987.8710589576522
 30
0.0
 11
2601.480907712219
 21
850.5747992807419
 31
0.0
  0
LINE
  5
3D25
330
3D21
100
AcDbEntity
  8
DIM
 62
     0
370
    -2
100
AcDbLine
 10
3151.480907727024
 20
1016.912394923678
 30
0.0
 11
3151.480907727024
 21
850.5747992807419
 31
0.0
  0
LINE
  5
3D26
330
3D21
100
AcDbEntity
  8
DIM
 62
     0
370
    -2
100
AcDbLine
 10
2611.480907712219
 20
850.5747992807419
 30
0.0
 11
3141.480907727024
 21
850.5747992807419
 31
0.0
  0
INSERT
  5
3D27
330
3D21
100
AcDbEntity
  8
DIM
 62
     0
370
    -2
100
AcDbBlockReference
  2
_DOT
 10
2601.480907712219
 20
850.5747992807419
 30
0.0
 41
10.0
 42
10.0
 43
10.0
 50
180.0
  0
INSERT
  5
3D28
330
3D21
100
AcDbEntity
  8
DIM
 62
     0
370
    -2
100
AcDbBlockReference
  2
_DOT
 10
3151.480907727024
 20
850.5747992807419
 30
0.0
 41
10.0
 42
10.0
 43
10.0
  0
MTEXT
  5
3D29
330
3D21
100
AcDbEntity
  8
DIM
 62
     0
100
AcDbMText
 10
2876.480907719621
 20
882.5747992807419
 30
0.0
 40
24.0
 41
0.0
 46
0.0
 71
     5
 72
     1
  1
\A1;550.00000001
  7
ＭＳ ゴシック
 73
     1
 44
1.0
  0
POINT
  5
3D2A
330
3D21
100
AcDbEntity
  8
Defpoints
 62
     0
100
AcDbPoint
 10
2601.480907712219
 20
1017.871058957652
 30
0.0
  0
POINT
  5
3D2B
330
3D21
100
AcDbEntity
  8
Defpoints
 62
     0
100
AcDbPoint
 10
3151.480907727024
 20
1046.912394923678
 30
0.0
  0
POINT
  5
3D2C
330
3D21
100
AcDbEntity
  8
Defpoints
 62
     0
100
AcDbPoint
 10
3151.480907727024
 20
850.5747992807419
 30
0.0
  0
ENDBLK
  5
3D23
330
3D21
100
AcDbEntity
  8
0
100
AcDbBlockEnd
  0
BLOCK
  5
3D32
330
3D31
100
AcDbEntity
  8
0
100
AcDbBlockBegin
  2
*D30
 70
     1
 10
0.0
 20
0.0
 30
0.0
  3
*D30
  1

  0
LINE
  5
3D34
330
3D31
100
AcDbEntity
  8
DIM
 62
     0
370
    -2
100
AcDbLine
 10
2621.073246165421
 20
1094.215314726399
 30
0.0
 11
2621.073246165421
 21
1031.141412781298
 31
0.0
  0
LINE
  5
3D35
330
3D31
100
AcDbEntity
  8
DIM
 62
     0
370
    -2
100
AcDbLine
 10
3054.889406656421
 20
1088.33063498483
 30
0.0
 11
3054.889406656421
 21
1031.141412781298
 31
0.0
  0
LINE
  5
3D36
330
3D31
100
AcDbEntity
  8
DIM
 62
     0
370
    -2
100
AcDbLine
 10
2631.073246165421
 20
1031.141412781298
 30
0.0
 11
3044.889406656421
 21
1031.141412781298
 31
0.0
  0
INSERT
  5
3D37
330
3D31
100
AcDbEntity
  8
DIM
 62
     0
370
    -2
100
AcDbBlockReference
  2
_DOT
 10
2621.073246165421
 20
1031.141412781298
 30
0.0
 41
10.0
 42
10.0
 43
10.0
 50
180.0
  0
INSERT
  5
3D38
330
3D31
100
AcDbEntity
  8
DIM
 62
     0
370
    -2
100
AcDbBlockReference
  2
_DOT
 10
3054.889406656421
 20
1031.141412781298
 30
0.0
 41
10.0
 42
10.0
 43
10.0
  0
MTEXT
  5
3D39
330
3D31
100
AcDbEntity
  8
DIM
 62
     0
100
AcDbMText
 10
2837.981326410921
 20
1063.141412781298
 30
0.0
 40
24.0
 41
0.0
 46
0.0
 71
     5
 72
     1
  1
\A1;434
  7
ＭＳ ゴシック
 73
     1
 44
1.0
  0
POINT
  5
3D3A
330
3D31
100
AcDbEntity
  8
Defpoints
 62
     0
100
AcDbPoint
 10
2621.073246165421
 20
1124.215314726399
 30
0.0
  0
POINT
  5
3D3B
330
3D31
100
AcDbEntity
  8
Defpoints
 62
     0
100
AcDbPoint
 10
3054.889406656421
 20
1118.33063498483
 30
0.0
  0
POINT
  5
3D3C
330
3D31
100
AcDbEntity
  8
Defpoints
 62
     0
100
AcDbPoint
 10
3054.889406656421
 20
1031.141412781298
 30
0.0
  0
ENDBLK
  5
3D33
330
3D31
100
AcDbEntity
  8
0
100
AcDbBlockEnd
  0
BLOCK
  5
3D41
330
3D40
100
AcDbEntity
  8
0
100
AcDbBlockBegin
  2
*D31
 70
     1
 10
0.0
 20
0.0
 30
0.0
  3
*D31
  1

  0
LINE
  5
3D43
330
3D40
100
AcDbEntity
  8
DIM
 62
     0
370
    -2
100
AcDbLine
 10
545.0761661982397
 20
2217.206205903608
 30
0.0
 11
545.0761661982397
 21
2397.087439992311
 31
0.0
  0
LINE
  5
3D44
330
3D40
100
AcDbEntity
  8
DIM
 62
     0
370
    -2
100
AcDbLine
 10
857.8048610359201
 20
2236.692447187603
 30
0.0
 11
857.8048610359201
 21
2397.087439992311
 31
0.0
  0
LINE
  5
3D45
330
3D40
100
AcDbEntity
  8
DIM
 62
     0
370
    -2
100
AcDbLine
 10
555.0761661982397
 20
2397.087439992311
 30
0.0
 11
847.8048610359201
 21
2397.087439992311
 31
0.0
  0
INSERT
  5
3D46
330
3D40
100
AcDbEntity
  8
DIM
 62
     0
370
    -2
100
AcDbBlockReference
  2
_DOT
 10
545.0761661982397
 20
2397.087439992311
 30
0.0
 41
10.0
 42
10.0
 43
10.0
 50
180.0
  0
INSERT
  5
3D47
330
3D40
100
AcDbEntity
  8
DIM
 62
     0
370
    -2
100
AcDbBlockReference
  2
_DOT
 10
857.8048610359201
 20
2397.087439992311
 30
0.0
 41
10.0
 42
10.0
 43
10.0
  0
MTEXT
  5
3D48
330
3D40
100
AcDbEntity
  8
DIM
 62
     0
100
AcDbMText
 10
701.4405136170799
 20
2429.087439992311
 30
0.0
 40
24.0
 41
0.0
 46
0.0
 71
     5
 72
     1
  1
\A1;313.5
  7
ＭＳ ゴシック
 73
     1
 44
1.0
  0
POINT
  5
3D49
330
3D40
100
AcDbEntity
  8
Defpoints
 62
     0
100
AcDbPoint
 10
545.0761661982397
 20
2187.206205903608
 30
0.0
  0
POINT
  5
3D4A
330
3D40
100
AcDbEntity
  8
Defpoints
 62
     0
100
AcDbPoint
 10
857.8048610359201
 20
2206.692447187603
 30
0.0
  0
POINT
  5
3D4B
330
3D40
100
AcDbEntity
  8
Defpoints
 62
     0
100
AcDbPoint
 10
857.8048610359201
 20
2397.087439992311
 30
0.0
  0
ENDBLK
  5
3D42
330
3D40
100
AcDbEntity
  8
0
100
AcDbBlockEnd
  0
BLOCK
  5
3D50
330
3D4F
100
AcDbEntity
  8
0
100
AcDbBlockBegin
  2
*D32
 70
     1
 10
0.0
 20
0.0
 30
0.0
  3
*D32
  1

  0
LINE
  5
3D52
330
3D4F
100
AcDbEntity
  8
DIM
 62
     0
370
    -2
100
AcDbLine
 10
857.8048610359201
 20
2236.057832541784
 30
0.0
 11
857.8048610359201
 21
2329.077144625589
 31
0.0
  0
LINE
  5
3D53
330
3D4F
100
AcDbEntity
  8
DIM
 62
     0
370
    -2
100
AcDbLine
 10
761.2133599653166
 20
2250.831080967715
 30
0.0
 11
761.2133599653166
 21
2329.077144625589
 31
0.0
  0
LINE
  5
3D54
330
3D4F
100
AcDbEntity
  8
DIM
 62
     0
370
    -2
100
AcDbLine
 10
847.8048610359201
 20
2329.077144625589
 30
0.0
 11
771.2133599653166
 21
2329.077144625589
 31
0.0
  0
INSERT
  5
3D55
330
3D4F
100
AcDbEntity
  8
DIM
 62
     0
370
    -2
100
AcDbBlockReference
  2
_DOT
 10
857.8048610359201
 20
2329.077144625589
 30
0.0
 41
10.0
 42
10.0
 43
10.0
  0
INSERT
  5
3D56
330
3D4F
100
AcDbEntity
  8
DIM
 62
     0
370
    -2
100
AcDbBlockReference
  2
_DOT
 10
761.2133599653166
 20
2329.077144625589
 30
0.0
 41
10.0
 42
10.0
 43
10.0
 50
180.0
  0
MTEXT
  5
3D57
330
3D4F
100
AcDbEntity
  8
DIM
 62
     0
100
AcDbMText
 10
809.5091105006184
 20
2361.077144625589
 30
0.0
 40
24.0
 41
0.0
 46
0.0
 71
     5
 72
     1
  1
\A1;96
  7
ＭＳ ゴシック
 73
     1
 44
1.0
  0
POINT
  5
3D58
330
3D4F
100
AcDbEntity
  8
Defpoints
 62
     0
100
AcDbPoint
 10
857.8048610359201
 20
2206.057832541784
 30
0.0
  0
POINT
  5
3D59
330
3D4F
100
AcDbEntity
  8
Defpoints
 62
     0
100
AcDbPoint
 10
761.2133599653166
 20
2220.831080967715
 30
0.0
  0
POINT
  5
3D5A
330
3D4F
100
AcDbEntity
  8
Defpoints
 62
     0
100
AcDbPoint
 10
761.2133599653166
 20
2329.077144625589
 30
0.0
  0
ENDBLK
  5
3D51
330
3D4F
100
AcDbEntity
  8
0
100
AcDbBlockEnd
  0
BLOCK
  5
3D5F
330
3D5E
100
AcDbEntity
  8
0
100
AcDbBlockBegin
  2
*D33
 70
     1
 10
0.0
 20
0.0
 30
0.0
  3
*D33
  1

  0
LINE
  5
3D61
330
3D5E
100
AcDbEntity
  8
DIM
 62
     0
370
    -2
100
AcDbLine
 10
761.2133599653166
 20
2205.947942493172
 30
0.0
 11
761.2133599653166
 21
2246.821251906784
 31
0.0
  0
LINE
  5
3D62
330
3D5E
100
AcDbEntity
  8
DIM
 62
     0
370
    -2
100
AcDbLine
 10
806.2137555225686
 20
2103.855713625739
 30
0.0
 11
806.2137555225686
 21
2246.821251906784
 31
0.0
  0
LINE
  5
3D63
330
3D5E
100
AcDbEntity
  8
DIM
 62
     0
370
    -2
100
AcDbLine
 10
771.2133599653166
 20
2246.821251906784
 30
0.0
 11
796.2137555225686
 21
2246.821251906784
 31
0.0
  0
INSERT
  5
3D64
330
3D5E
100
AcDbEntity
  8
DIM
 62
     0
370
    -2
100
AcDbBlockReference
  2
_DOT
 10
761.2133599653166
 20
2246.821251906784
 30
0.0
 41
10.0
 42
10.0
 43
10.0
 50
180.0
  0
INSERT
  5
3D65
330
3D5E
100
AcDbEntity
  8
DIM
 62
     0
370
    -2
100
AcDbBlockReference
  2
_DOT
 10
806.2137555225686
 20
2246.821251906784
 30
0.0
 41
10.0
 42
10.0
 43
10.0
  0
MTEXT
  5
3D66
330
3D5E
100
AcDbEntity
  8
DIM
 62
     0
100
AcDbMText
 10
783.7135577439426
 20
2278.821251906784
 30
0.0
 40
24.0
 41
0.0
 46
0.0
 71
     5
 72
     1
  1
\A1;45
  7
ＭＳ ゴシック
 73
     1
 44
1.0
  0
POINT
  5
3D67
330
3D5E
100
AcDbEntity
  8
Defpoints
 62
     0
100
AcDbPoint
 10
761.2133599653166
 20
2175.947942493172
 30
0.0
  0
POINT
  5
3D68
330
3D5E
100
AcDbEntity
  8
Defpoints
 62
     0
100
AcDbPoint
 10
806.2137555225686
 20
2073.855713625739
 30
0.0
  0
POINT
  5
3D69
330
3D5E
100
AcDbEntity
  8
Defpoints
 62
     0
100
AcDbPoint
 10
806.2137555225686
 20
2246.821251906784
 30
0.0
  0
ENDBLK
  5
3D60
330
3D5E
100
AcDbEntity
  8
0
100
AcDbBlockEnd
  0
BLOCK
  5
3D6F
330
3D6E
100
AcDbEntity
  8
0
100
AcDbBlockBegin
  2
*D34
 70
     1
 10
0.0
 20
0.0
 30
0.0
  3
*D34
  1

  0
LINE
  5
3D71
330
3D6E
100
AcDbEntity
  8
DIM
 62
     0
370
    -2
100
AcDbLine
 10
872.3000883503687
 20
2018.435066034225
 30
0.0
 11
930.6227796200164
 21
2018.435066034225
 31
0.0
  0
LINE
  5
3D72
330
3D6E
100
AcDbEntity
  8
DIM
 62
     0
370
    -2
100
AcDbLine
 10
872.3000883503687
 20
1983.434849596959
 30
0.0
 11
930.6227796200164
 21
1983.434849596959
 31
0.0
  0
LINE
  5
3D73
330
3D6E
100
AcDbEntity
  8
DIM
 62
     0
370
    -2
100
AcDbLine
 10
930.6227796200164
 20
2008.435066034225
 30
0.0
 11
930.6227796200164
 21
1993.434849596959
 31
0.0
  0
INSERT
  5
3D74
330
3D6E
100
AcDbEntity
  8
DIM
 62
     0
370
    -2
100
AcDbBlockReference
  2
_DOT
 10
930.6227796200164
 20
2018.435066034225
 30
0.0
 41
10.0
 42
10.0
 43
10.0
 50
90.0
  0
INSERT
  5
3D75
330
3D6E
100
AcDbEntity
  8
DIM
 62
     0
370
    -2
100
AcDbBlockReference
  2
_DOT
 10
930.6227796200164
 20
1983.434849596959
 30
0.0
 41
10.0
 42
10.0
 43
10.0
 50
270.0
  0
MTEXT
  5
3D76
330
3D6E
100
AcDbEntity
  8
DIM
 62
     0
100
AcDbMText
 10
962.6227796200164
 20
2000.934957815592
 30
0.0
 40
24.0
 41
0.0
 46
0.0
 71
     5
 72
     1
  1
\A1;%%c35
  7
ＭＳ ゴシック
 11
0.0
 21
1.0
 31
0.0
 73
     1
 44
1.0
  0
POINT
  5
3D77
330
3D6E
100
AcDbEntity
  8
Defpoints
 62
     0
100
AcDbPoint
 10
842.3000883503687
 20
2018.435066034225
 30
0.0
  0
POINT
  5
3D78
330
3D6E
100
AcDbEntity
  8
Defpoints
 62
     0
100
AcDbPoint
 10
842.3000883503687
 20
1983.434849596959
 30
0.0
  0
POINT
  5
3D79
330
3D6E
100
AcDbEntity
  8
Defpoints
 62
     0
100
AcDbPoint
 10
930.6227796200164
 20
1983.434849596959
 30
0.0
  0
ENDBLK
  5
3D70
330
3D6E
100
AcDbEntity
  8
0
100
AcDbBlockEnd
  0
BLOCK
  5
3D7F
330
3D7E
100
AcDbEntity
  8
0
100
AcDbBlockBegin
  2
*D35
 70
     1
 10
0.0
 20
0.0
 30
0.0
  3
*D35
  1

  0
LINE
  5
3D81
330
3D7E
100
AcDbEntity
  8
DIM
 62
     0
370
    -2
100
AcDbLine
 10
761.2133599653166
 20
1890.990385849886
 30
0.0
 11
761.2133599653166
 21
1795.702616152536
 31
0.0
  0
LINE
  5
3D82
330
3D7E
100
AcDbEntity
  8
DIM
 62
     0
370
    -2
100
AcDbLine
 10
327.3971994743169
 20
1896.875065591455
 30
0.0
 11
327.3971994743169
 21
1795.702616152536
 31
0.0
  0
LINE
  5
3D83
330
3D7E
100
AcDbEntity
  8
DIM
 62
     0
370
    -2
100
AcDbLine
 10
751.2133599653166
 20
1795.702616152536
 30
0.0
 11
337.3971994743169
 21
1795.702616152536
 31
0.0
  0
INSERT
  5
3D84
330
3D7E
100
AcDbEntity
  8
DIM
 62
     0
370
    -2
100
AcDbBlockReference
  2
_DOT
 10
761.2133599653166
 20
1795.702616152536
 30
0.0
 41
10.0
 42
10.0
 43
10.0
  0
INSERT
  5
3D85
330
3D7E
100
AcDbEntity
  8
DIM
 62
     0
370
    -2
100
AcDbBlockReference
  2
_DOT
 10
327.3971994743169
 20
1795.702616152536
 30
0.0
 41
10.0
 42
10.0
 43
10.0
 50
180.0
  0
MTEXT
  5
3D86
330
3D7E
100
AcDbEntity
  8
DIM
 62
     0
100
AcDbMText
 10
544.3052797198168
 20
1827.702616152536
 30
0.0
 40
24.0
 41
0.0
 46
0.0
 71
     5
 72
     1
  1
\A1;434
  7
ＭＳ ゴシック
 73
     1
 44
1.0
  0
POINT
  5
3D87
330
3D7E
100
AcDbEntity
  8
Defpoints
 62
     0
100
AcDbPoint
 10
761.2133599653166
 20
1920.990385849886
 30
0.0
  0
POINT
  5
3D88
330
3D7E
100
AcDbEntity
  8
Defpoints
 62
     0
100
AcDbPoint
 10
327.3971994743169
 20
1926.875065591455
 30
0.0
  0
POINT
  5
3D89
330
3D7E
100
AcDbEntity
  8
Defpoints
 62
     0
100
AcDbPoint
 10
327.3971994743169
 20
1795.702616152536
 30
0.0
  0
ENDBLK
  5
3D80
330
3D7E
100
AcDbEntity
  8
0
100
AcDbBlockEnd
  0
BLOCK
  5
3D8E
330
3D8D
100
AcDbEntity
  8
0
100
AcDbBlockBegin
  2
*D36
 70
     1
 10
0.0
 20
0.0
 30
0.0
  3
*D36
  1

  0
LINE
  5
3D90
330
3D8D
100
AcDbEntity
  8
DIM
 62
     0
370
    -2
100
AcDbLine
 10
3217.735565246467
 20
1501.47516030912
 30
0.0
 11
3217.735565246467
 21
1374.076339432851
 31
0.0
  0
LINE
  5
3D91
330
3D8D
100
AcDbEntity
  8
DIM
 62
     0
370
    -2
100
AcDbLine
 10
3767.735565261272
 20
1501.47516030912
 30
0.0
 11
3767.735565261272
 21
1374.076339432851
 31
0.0
  0
LINE
  5
3D92
330
3D8D
100
AcDbEntity
  8
DIM
 62
     0
370
    -2
100
AcDbLine
 10
3227.735565246467
 20
1374.076339432851
 30
0.0
 11
3757.735565261272
 21
1374.076339432851
 31
0.0
  0
INSERT
  5
3D93
330
3D8D
100
AcDbEntity
  8
DIM
 62
     0
370
    -2
100
AcDbBlockReference
  2
_DOT
 10
3217.735565246467
 20
1374.076339432851
 30
0.0
 41
10.0
 42
10.0
 43
10.0
 50
180.0
  0
INSERT
  5
3D94
330
3D8D
100
AcDbEntity
  8
DIM
 62
     0
370
    -2
100
AcDbBlockReference
  2
_DOT
 10
3767.735565261272
 20
1374.076339432851
 30
0.0
 41
10.0
 42
10.0
 43
10.0
  0
MTEXT
  5
3D95
330
3D8D
100
AcDbEntity
  8
DIM
 62
     0
100
AcDbMText
 10
3492.735565253869
 20
1406.076339432851
 30
0.0
 40
24.0
 41
0.0
 46
0.0
 71
     5
 72
     1
  1
\A1;550
  7
ＭＳ ゴシック
 73
     1
 44
1.0
  0
POINT
  5
3D96
330
3D8D
100
AcDbEntity
  8
Defpoints
 62
     0
100
AcDbPoint
 10
3217.735565246467
 20
1531.47516030912
 30
0.0
  0
POINT
  5
3D97
330
3D8D
100
AcDbEntity
  8
Defpoints
 62
     0
100
AcDbPoint
 10
3767.735565261272
 20
1531.47516030912
 30
0.0
  0
POINT
  5
3D98
330
3D8D
100
AcDbEntity
  8
Defpoints
 62
     0
100
AcDbPoint
 10
3767.735565261272
 20
1374.076339432851
 30
0.0
  0
ENDBLK
  5
3D8F
330
3D8D
100
AcDbEntity
  8
0
100
AcDbBlockEnd
  0
BLOCK
  5
3D9D
330
3D9C
100
AcDbEntity
  8
0
100
AcDbBlockBegin
  2
*D37
 70
     1
 10
0.0
 20
0.0
 30
0.0
  3
*D37
  1

  0
LINE
  5
3D9F
330
3D9C
100
AcDbEntity
  8
DIM
 62
     0
370
    -2
100
AcDbLine
 10
291.1994374517171
 20
1913.242908030478
 30
0.0
 11
208.7785334291246
 21
1913.242908030478
 31
0.0
  0
LINE
  5
3DA0
330
3D9C
100
AcDbEntity
  8
DIM
 62
     0
370
    -2
100
AcDbLine
 10
298.7654542623054
 20
2182.495739995071
 30
0.0
 11
208.7785334291246
 21
2182.495739995071
 31
0.0
  0
LINE
  5
3DA1
330
3D9C
100
AcDbEntity
  8
DIM
 62
     0
370
    -2
100
AcDbLine
 10
208.7785334291246
 20
1923.242908030478
 30
0.0
 11
208.7785334291246
 21
2172.495739995071
 31
0.0
  0
INSERT
  5
3DA2
330
3D9C
100
AcDbEntity
  8
DIM
 62
     0
370
    -2
100
AcDbBlockReference
  2
_DOT
 10
208.7785334291246
 20
1913.242908030478
 30
0.0
 41
10.0
 42
10.0
 43
10.0
 50
270.0
  0
INSERT
  5
3DA3
330
3D9C
100
AcDbEntity
  8
DIM
 62
     0
370
    -2
100
AcDbBlockReference
  2
_DOT
 10
208.7785334291246
 20
2182.495739995071
 30
0.0
 41
10.0
 42
10.0
 43
10.0
 50
90.0
  0
MTEXT
  5
3DA4
330
3D9C
100
AcDbEntity
  8
DIM
 62
     0
100
AcDbMText
 10
176.7785334291246
 20
2047.869324012775
 30
0.0
 40
24.0
 41
0.0
 46
0.0
 71
     5
 72
     1
  1
\A1;269
  7
ＭＳ ゴシック
 11
1.055576991448005E-16
 21
1.0
 31
0.0
 73
     1
 44
1.0
  0
POINT
  5
3DA5
330
3D9C
100
AcDbEntity
  8
Defpoints
 62
     0
100
AcDbPoint
 10
321.1994374517171
 20
1913.242908030478
 30
0.0
  0
POINT
  5
3DA6
330
3D9C
100
AcDbEntity
  8
Defpoints
 62
     0
100
AcDbPoint
 10
328.7654542623054
 20
2182.495739995071
 30
0.0
  0
POINT
  5
3DA7
330
3D9C
100
AcDbEntity
  8
Defpoints
 62
     0
100
AcDbPoint
 10
208.7785334291246
 20
2182.495739995071
 30
0.0
  0
ENDBLK
  5
3D9E
330
3D9C
100
AcDbEntity
  8
0
100
AcDbBlockEnd
  0
BLOCK
  5
3DAC
330
3DAB
100
AcDbEntity
  8
0
100
AcDbBlockBegin
  2
*D38
 70
     1
 10
0.0
 20
0.0
 30
0.0
  3
*D38
  1

  0
LINE
  5
3DAE
330
3DAB
100
AcDbEntity
  8
DIM
 62
     0
370
    -2
100
AcDbLine
 10
887.5079025079513
 20
1897.868689626407
 30
0.0
 11
1007.561122693948
 21
1897.868689626407
 31
0.0
  0
LINE
  5
3DAF
330
3DAB
100
AcDbEntity
  8
DIM
 62
     0
370
    -2
100
AcDbLine
 10
887.5079025079525
 20
2197.867495503041
 30
0.0
 11
1007.561122693949
 21
2197.867495503041
 31
0.0
  0
LINE
  5
3DB0
330
3DAB
100
AcDbEntity
  8
DIM
 62
     0
370
    -2
100
AcDbLine
 10
1007.561122693948
 20
1907.868689626407
 30
0.0
 11
1007.561122693949
 21
2187.867495503041
 31
0.0
  0
INSERT
  5
3DB1
330
3DAB
100
AcDbEntity
  8
DIM
 62
     0
370
    -2
100
AcDbBlockReference
  2
_DOT
 10
1007.561122693948
 20
1897.868689626407
 30
0.0
 41
10.0
 42
10.0
 43
10.0
 50
269.9999999999998
  0
INSERT
  5
3DB2
330
3DAB
100
AcDbEntity
  8
DIM
 62
     0
370
    -2
100
AcDbBlockReference
  2
_DOT
 10
1007.561122693949
 20
2197.867495503041
 30
0.0
 41
10.0
 42
10.0
 43
10.0
 50
89.99999999999977
  0
MTEXT
  5
3DB3
330
3DAB
100
AcDbEntity
  8
DIM
 62
     0
100
AcDbMText
 10
975.5611226939485
 20
2047.868092564724
 30
0.0
 40
24.0
 41
0.0
 46
0.0
 71
     5
 72
     1
  1
\A1;300
  7
ＭＳ ゴシック
 11
4.168533975605323E-15
 21
1.0
 31
0.0
 73
     1
 44
1.0
  0
POINT
  5
3DB4
330
3DAB
100
AcDbEntity
  8
Defpoints
 62
     0
100
AcDbPoint
 10
857.5079025079513
 20
1897.868689626407
 30
0.0
  0
POINT
  5
3DB5
330
3DAB
100
AcDbEntity
  8
Defpoints
 62
     0
100
AcDbPoint
 10
857.5079025079525
 20
2197.867495503041
 30
0.0
  0
POINT
  5
3DB6
330
3DAB
100
AcDbEntity
  8
Defpoints
 62
     0
100
AcDbPoint
 10
1007.561122693949
 20
2197.867495503041
 30
0.0
  0
ENDBLK
  5
3DAD
330
3DAB
100
AcDbEntity
  8
0
100
AcDbBlockEnd
  0
BLOCK
  5
3DDA
330
3DD9
100
AcDbEntity
  8
0
100
AcDbBlockBegin
  2
*D39
 70
     1
 10
0.0
 20
0.0
 30
0.0
  3
*D39
  1

  0
LINE
  5
3DDC
330
3DD9
100
AcDbEntity
  8
DIM
 62
     0
370
    -2
100
AcDbLine
 10
3032.544641258105
 20
782.8923962002627
 30
0.0
 11
3072.561605984894
 21
782.8923962002627
 31
0.0
  0
LINE
  5
3DDD
330
3DD9
100
AcDbEntity
  8
DIM
 62
     0
370
    -2
100
AcDbLine
 10
3030.298107630507
 20
685.0597197415367
 30
0.0
 11
3072.561605984894
 21
685.0597197415367
 31
0.0
  0
LINE
  5
3DDE
330
3DD9
100
AcDbEntity
  8
DIM
 62
     0
370
    -2
100
AcDbLine
 10
3072.561605984894
 20
772.8923962002627
 30
0.0
 11
3072.561605984894
 21
695.0597197415367
 31
0.0
  0
INSERT
  5
3DDF
330
3DD9
100
AcDbEntity
  8
DIM
 62
     0
370
    -2
100
AcDbBlockReference
  2
_DOT
 10
3072.561605984894
 20
782.8923962002627
 30
0.0
 41
10.0
 42
10.0
 43
10.0
 50
90.0
  0
INSERT
  5
3DE0
330
3DD9
100
AcDbEntity
  8
DIM
 62
     0
370
    -2
100
AcDbBlockReference
  2
_DOT
 10
3072.561605984894
 20
685.0597197415367
 30
0.0
 41
10.0
 42
10.0
 43
10.0
 50
270.0
  0
MTEXT
  5
3DE1
330
3DD9
100
AcDbEntity
  8
DIM
 62
     0
100
AcDbMText
 10
3040.561605984894
 20
733.9760579708998
 30
0.0
 40
24.0
 41
0.0
 46
0.0
 71
     5
 72
     1
  1
\A1;98
  7
ＭＳ ゴシック
 11
0.0
 21
1.0
 31
0.0
 73
     1
 44
1.0
  0
POINT
  5
3DE2
330
3DD9
100
AcDbEntity
  8
Defpoints
 62
     0
100
AcDbPoint
 10
3002.544641258105
 20
782.8923962002627
 30
0.0
  0
POINT
  5
3DE3
330
3DD9
100
AcDbEntity
  8
Defpoints
 62
     0
100
AcDbPoint
 10
3000.298107630507
 20
685.0597197415367
 30
0.0
  0
POINT
  5
3DE4
330
3DD9
100
AcDbEntity
  8
Defpoints
 62
     0
100
AcDbPoint
 10
3072.561605984894
 20
685.0597197415367
 30
0.0
  0
ENDBLK
  5
3DDB
330
3DD9
100
AcDbEntity
  8
0
100
AcDbBlockEnd
  0
BLOCK
  5
3DE9
330
3DE8
100
AcDbEntity
  8
0
100
AcDbBlockBegin
  2
*D40
 70
     1
 10
0.0
 20
0.0
 30
0.0
  3
*D40
  1

  0
LINE
  5
3DEB
330
3DE8
100
AcDbEntity
  8
DIM
 62
     0
370
    -2
100
AcDbLine
 10
3806.733622261379
 20
1110.326495411368
 30
0.0
 11
3863.129486810788
 21
1110.326495411368
 31
0.0
  0
LINE
  5
3DEC
330
3DE8
100
AcDbEntity
  8
DIM
 62
     0
370
    -2
100
AcDbLine
 10
3806.733622261379
 20
1210.328286611222
 30
0.0
 11
3863.129486810788
 21
1210.328286611222
 31
0.0
  0
LINE
  5
3DED
330
3DE8
100
AcDbEntity
  8
DIM
 62
     0
370
    -2
100
AcDbLine
 10
3863.129486810788
 20
1120.326495411368
 30
0.0
 11
3863.129486810788
 21
1200.328286611222
 31
0.0
  0
INSERT
  5
3DEE
330
3DE8
100
AcDbEntity
  8
DIM
 62
     0
370
    -2
100
AcDbBlockReference
  2
_DOT
 10
3863.129486810788
 20
1110.326495411368
 30
0.0
 41
10.0
 42
10.0
 43
10.0
 50
270.0
  0
INSERT
  5
3DEF
330
3DE8
100
AcDbEntity
  8
DIM
 62
     0
370
    -2
100
AcDbBlockReference
  2
_DOT
 10
3863.129486810788
 20
1210.328286611222
 30
0.0
 41
10.0
 42
10.0
 43
10.0
 50
90.0
  0
MTEXT
  5
3DF0
330
3DE8
100
AcDbEntity
  8
DIM
 62
     0
100
AcDbMText
 10
3831.129486810788
 20
1160.327391011295
 30
0.0
 40
24.0
 41
0.0
 46
0.0
 71
     5
 72
     1
  1
\A1;100
  7
ＭＳ ゴシック
 11
0.0
 21
1.0
 31
0.0
 73
     1
 44
1.0
  0
POINT
  5
3DF1
330
3DE8
100
AcDbEntity
  8
Defpoints
 62
     0
100
AcDbPoint
 10
3776.733622261379
 20
1110.326495411368
 30
0.0
  0
POINT
  5
3DF2
330
3DE8
100
AcDbEntity
  8
Defpoints
 62
     0
100
AcDbPoint
 10
3776.733622261379
 20
1210.328286611222
 30
0.0
  0
POINT
  5
3DF3
330
3DE8
100
AcDbEntity
  8
Defpoints
 62
     0
100
AcDbPoint
 10
3863.129486810788
 20
1210.328286611222
 30
0.0
  0
ENDBLK
  5
3DEA
330
3DE8
100
AcDbEntity
  8
0
100
AcDbBlockEnd
  0
BLOCK
  5
3DF8
330
3DF7
100
AcDbEntity
  8
0
100
AcDbBlockBegin
  2
*D41
 70
     1
 10
0.0
 20
0.0
 30
0.0
  3
*D41
  1

  0
LINE
  5
3DFA
330
3DF7
100
AcDbEntity
  8
DIM
 62
     0
370
    -2
100
AcDbLine
 10
627.8266030977975
 20
839.8391902763019
 30
0.0
 11
961.9235124161028
 21
839.8391902763019
 31
0.0
  0
LINE
  5
3DFB
330
3DF7
100
AcDbEntity
  8
DIM
 62
     0
370
    -2
100
AcDbLine
 10
888.5730876356465
 20
944.7224415408
 30
0.0
 11
961.9235124161028
 21
944.7224415408
 31
0.0
  0
LINE
  5
3DFC
330
3DF7
100
AcDbEntity
  8
DIM
 62
     0
370
    -2
100
AcDbLine
 10
961.9235124161028
 20
849.8391902763019
 30
0.0
 11
961.9235124161028
 21
934.7224415408
 31
0.0
  0
INSERT
  5
3DFD
330
3DF7
100
AcDbEntity
  8
DIM
 62
     0
370
    -2
100
AcDbBlockReference
  2
_DOT
 10
961.9235124161028
 20
839.8391902763019
 30
0.0
 41
10.0
 42
10.0
 43
10.0
 50
270.0
  0
INSERT
  5
3DFE
330
3DF7
100
AcDbEntity
  8
DIM
 62
     0
370
    -2
100
AcDbBlockReference
  2
_DOT
 10
961.9235124161028
 20
944.7224415408
 30
0.0
 41
10.0
 42
10.0
 43
10.0
 50
90.0
  0
MTEXT
  5
3DFF
330
3DF7
100
AcDbEntity
  8
DIM
 62
     0
100
AcDbMText
 10
929.9235124161028
 20
892.280815908551
 30
0.0
 40
24.0
 41
0.0
 46
0.0
 71
     5
 72
     1
  1
\A1;105
  7
ＭＳ ゴシック
 11
0.0
 21
1.0
 31
0.0
 73
     1
 44
1.0
  0
POINT
  5
3E00
330
3DF7
100
AcDbEntity
  8
Defpoints
 62
     0
100
AcDbPoint
 10
597.8266030977975
 20
839.8391902763019
 30
0.0
  0
POINT
  5
3E01
330
3DF7
100
AcDbEntity
  8
Defpoints
 62
     0
100
AcDbPoint
 10
858.5730876356465
 20
944.7224415408
 30
0.0
  0
POINT
  5
3E02
330
3DF7
100
AcDbEntity
  8
Defpoints
 62
     0
100
AcDbPoint
 10
961.9235124161028
 20
944.7224415408
 30
0.0
  0
ENDBLK
  5
3DF9
330
3DF7
100
AcDbEntity
  8
0
100
AcDbBlockEnd
  0
BLOCK
  5
3E1C
330
3E1B
100
AcDbEntity
  8
0
100
AcDbBlockBegin
  2
*D42
 70
     1
 10
0.0
 20
0.0
 30
0.0
  3
*D42
  1

  0
LINE
  5
3E1E
330
3E1B
100
AcDbEntity
  8
DIM
 62
     0
370
    -2
100
AcDbLine
 10
3455.706332915198
 20
1075.445035346724
 30
0.0
 11
3455.706332915198
 21
987.8550868428564
 31
0.0
  0
LINE
  5
3E1F
330
3E1B
100
AcDbEntity
  8
DIM
 62
     0
370
    -2
100
AcDbLine
 10
3604.23702881422
 20
1083.327944788486
 30
0.0
 11
3604.23702881422
 21
987.8550868428564
 31
0.0
  0
LINE
  5
3E20
330
3E1B
100
AcDbEntity
  8
DIM
 62
     0
370
    -2
100
AcDbLine
 10
3445.706332915198
 20
987.8550868428564
 30
0.0
 11
3435.706332915198
 21
987.8550868428564
 31
0.0
  0
LINE
  5
3E21
330
3E1B
100
AcDbEntity
  8
DIM
 62
     0
370
    -2
100
AcDbLine
 10
3614.23702881422
 20
987.8550868428564
 30
0.0
 11
3624.23702881422
 21
987.8550868428564
 31
0.0
  0
INSERT
  5
3E22
330
3E1B
100
AcDbEntity
  8
DIM
 62
     0
370
    -2
100
AcDbBlockReference
  2
_DOT
 10
3455.706332915198
 20
987.8550868428564
 30
0.0
 41
10.0
 42
10.0
 43
10.0
  0
INSERT
  5
3E23
330
3E1B
100
AcDbEntity
  8
DIM
 62
     0
370
    -2
100
AcDbBlockReference
  2
_DOT
 10
3604.23702881422
 20
987.8550868428564
 30
0.0
 41
10.0
 42
10.0
 43
10.0
 50
180.0
  0
MTEXT
  5
3E24
330
3E1B
100
AcDbEntity
  8
DIM
 62
     0
100
AcDbMText
 10
3529.971680864709
 20
1019.855086842856
 30
0.0
 40
24.0
 41
0.0
 46
0.0
 71
     5
 72
     1
  1
\A1;148.5306959
  7
ＭＳ ゴシック
 73
     1
 44
1.0
  0
POINT
  5
3E25
330
3E1B
100
AcDbEntity
  8
Defpoints
 62
     0
100
AcDbPoint
 10
3455.706332915198
 20
1105.445035346724
 30
0.0
  0
POINT
  5
3E26
330
3E1B
100
AcDbEntity
  8
Defpoints
 62
     0
100
AcDbPoint
 10
3604.23702881422
 20
1113.327944788486
 30
0.0
  0
POINT
  5
3E27
330
3E1B
100
AcDbEntity
  8
Defpoints
 62
     0
100
AcDbPoint
 10
3604.23702881422
 20
987.8550868428564
 30
0.0
  0
ENDBLK
  5
3E1D
330
3E1B
100
AcDbEntity
  8
0
100
AcDbBlockEnd
  0
BLOCK
  5
3E2D
330
3E2C
100
AcDbEntity
  8
0
100
AcDbBlockBegin
  2
*D43
 70
     1
 10
0.0
 20
0.0
 30
0.0
  3
*D43
  1

  0
LINE
  5
3E2F
330
3E2C
100
AcDbEntity
  8
DIM
 62
     0
370
    -2
100
AcDbLine
 10
3604.23702881422
 20
1224.502260397355
 30
0.0
 11
3604.23702881422
 21
1258.55555669649
 31
0.0
  0
LINE
  5
3E30
330
3E2C
100
AcDbEntity
  8
DIM
 62
     0
370
    -2
100
AcDbLine
 10
3304.234939076121
 20
1224.502260397355
 30
0.0
 11
3304.234939076121
 21
1258.55555669649
 31
0.0
  0
LINE
  5
3E31
330
3E2C
100
AcDbEntity
  8
DIM
 62
     0
370
    -2
100
AcDbLine
 10
3594.23702881422
 20
1258.55555669649
 30
0.0
 11
3314.234939076121
 21
1258.55555669649
 31
0.0
  0
INSERT
  5
3E32
330
3E2C
100
AcDbEntity
  8
DIM
 62
     0
370
    -2
100
AcDbBlockReference
  2
_DOT
 10
3604.23702881422
 20
1258.55555669649
 30
0.0
 41
10.0
 42
10.0
 43
10.0
  0
INSERT
  5
3E33
330
3E2C
100
AcDbEntity
  8
DIM
 62
     0
370
    -2
100
AcDbBlockReference
  2
_DOT
 10
3304.234939076121
 20
1258.55555669649
 30
0.0
 41
10.0
 42
10.0
 43
10.0
 50
180.0
  0
MTEXT
  5
3E34
330
3E2C
100
AcDbEntity
  8
DIM
 62
     0
100
AcDbMText
 10
3454.235983945171
 20
1290.55555669649
 30
0.0
 40
24.0
 41
0.0
 46
0.0
 71
     5
 72
     1
  1
\A1;300
  7
ＭＳ ゴシック
 73
     1
 44
1.0
  0
POINT
  5
3E35
330
3E2C
100
AcDbEntity
  8
Defpoints
 62
     0
100
AcDbPoint
 10
3604.23702881422
 20
1194.502260397355
 30
0.0
  0
POINT
  5
3E36
330
3E2C
100
AcDbEntity
  8
Defpoints
 62
     0
100
AcDbPoint
 10
3304.234939076121
 20
1194.502260397355
 30
0.0
  0
POINT
  5
3E37
330
3E2C
100
AcDbEntity
  8
Defpoints
 62
     0
100
AcDbPoint
 10
3304.234939076121
 20
1258.55555669649
 30
0.0
  0
ENDBLK
  5
3E2E
330
3E2C
100
AcDbEntity
  8
0
100
AcDbBlockEnd
  0
BLOCK
  5
3EBD
330
3EBC
100
AcDbEntity
  8
0
100
AcDbBlockBegin
  2
*D44
 70
     1
 10
0.0
 20
0.0
 30
0.0
  3
*D44
  1

  0
LINE
  5
3EBF
330
3EBC
100
AcDbEntity
  8
DIM
 62
     0
370
    -2
100
AcDbLine
 10
4453.67137095179
 20
1110.326495411368
 30
0.0
 11
4510.067235501199
 21
1110.326495411368
 31
0.0
  0
LINE
  5
3EC0
330
3EBC
100
AcDbEntity
  8
DIM
 62
     0
370
    -2
100
AcDbLine
 10
4453.67137095179
 20
1210.328286611222
 30
0.0
 11
4510.067235501199
 21
1210.328286611222
 31
0.0
  0
LINE
  5
3EC1
330
3EBC
100
AcDbEntity
  8
DIM
 62
     0
370
    -2
100
AcDbLine
 10
4510.067235501199
 20
1120.326495411368
 30
0.0
 11
4510.067235501199
 21
1200.328286611222
 31
0.0
  0
INSERT
  5
3EC2
330
3EBC
100
AcDbEntity
  8
DIM
 62
     0
370
    -2
100
AcDbBlockReference
  2
_DOT
 10
4510.067235501199
 20
1110.326495411368
 30
0.0
 41
10.0
 42
10.0
 43
10.0
 50
270.0
  0
INSERT
  5
3EC3
330
3EBC
100
AcDbEntity
  8
DIM
 62
     0
370
    -2
100
AcDbBlockReference
  2
_DOT
 10
4510.067235501199
 20
1210.328286611222
 30
0.0
 41
10.0
 42
10.0
 43
10.0
 50
90.0
  0
MTEXT
  5
3EC4
330
3EBC
100
AcDbEntity
  8
DIM
 62
     0
100
AcDbMText
 10
4478.067235501199
 20
1160.327391011295
 30
0.0
 40
24.0
 41
0.0
 46
0.0
 71
     5
 72
     1
  1
\A1;100
  7
ＭＳ ゴシック
 11
0.0
 21
1.0
 31
0.0
 73
     1
 44
1.0
  0
POINT
  5
3EC5
330
3EBC
100
AcDbEntity
  8
Defpoints
 62
     0
100
AcDbPoint
 10
4423.67137095179
 20
1110.326495411368
 30
0.0
  0
POINT
  5
3EC6
330
3EBC
100
AcDbEntity
  8
Defpoints
 62
     0
100
AcDbPoint
 10
4423.67137095179
 20
1210.328286611222
 30
0.0
  0
POINT
  5
3EC7
330
3EBC
100
AcDbEntity
  8
Defpoints
 62
     0
100
AcDbPoint
 10
4510.067235501199
 20
1210.328286611222
 30
0.0
  0
ENDBLK
  5
3EBE
330
3EBC
100
AcDbEntity
  8
0
100
AcDbBlockEnd
  0
BLOCK
  5
3EC9
330
3EC8
100
AcDbEntity
  8
0
100
AcDbBlockBegin
  2
*D45
 70
     1
 10
0.0
 20
0.0
 30
0.0
  3
*D45
  1

  0
LINE
  5
3ECB
330
3EC8
100
AcDbEntity
  8
DIM
 62
     0
370
    -2
100
AcDbLine
 10
4445.338400870836
 20
1105.445035346724
 30
0.0
 11
4599.554158333834
 21
1105.445035346724
 31
0.0
  0
LINE
  5
3ECC
330
3EC8
100
AcDbEntity
  8
DIM
 62
     0
370
    -2
100
AcDbLine
 10
4569.646594931235
 20
1210.328286611222
 30
0.0
 11
4599.554158333834
 21
1210.328286611222
 31
0.0
  0
LINE
  5
3ECD
330
3EC8
100
AcDbEntity
  8
DIM
 62
     0
370
    -2
100
AcDbLine
 10
4599.554158333834
 20
1115.445035346724
 30
0.0
 11
4599.554158333834
 21
1200.328286611222
 31
0.0
  0
INSERT
  5
3ECE
330
3EC8
100
AcDbEntity
  8
DIM
 62
     0
370
    -2
100
AcDbBlockReference
  2
_DOT
 10
4599.554158333834
 20
1105.445035346724
 30
0.0
 41
10.0
 42
10.0
 43
10.0
 50
270.0
  0
INSERT
  5
3ECF
330
3EC8
100
AcDbEntity
  8
DIM
 62
     0
370
    -2
100
AcDbBlockReference
  2
_DOT
 10
4599.554158333834
 20
1210.328286611222
 30
0.0
 41
10.0
 42
10.0
 43
10.0
 50
90.0
  0
MTEXT
  5
3ED0
330
3EC8
100
AcDbEntity
  8
DIM
 62
     0
100
AcDbMText
 10
4567.554158333834
 20
1157.886660978973
 30
0.0
 40
24.0
 41
0.0
 46
0.0
 71
     5
 72
     1
  1
\A1;105
  7
ＭＳ ゴシック
 11
0.0
 21
1.0
 31
0.0
 73
     1
 44
1.0
  0
POINT
  5
3ED1
330
3EC8
100
AcDbEntity
  8
Defpoints
 62
     0
100
AcDbPoint
 10
4415.338400870836
 20
1105.445035346724
 30
0.0
  0
POINT
  5
3ED2
330
3EC8
100
AcDbEntity
  8
Defpoints
 62
     0
100
AcDbPoint
 10
4539.646594931235
 20
1210.328286611222
 30
0.0
  0
POINT
  5
3ED3
330
3EC8
100
AcDbEntity
  8
Defpoints
 62
     0
100
AcDbPoint
 10
4599.554158333834
 20
1210.328286611222
 30
0.0
  0
ENDBLK
  5
3ECA
330
3EC8
100
AcDbEntity
  8
0
100
AcDbBlockEnd
  0
BLOCK
  5
3F26
330
3F25
100
AcDbEntity
  8
0
100
AcDbBlockBegin
  2
*D46
 70
     1
 10
0.0
 20
0.0
 30
0.0
  3
*D46
  1

  0
LINE
  5
3F28
330
3F25
100
AcDbEntity
  8
DIM
 62
     0
370
    -2
100
AcDbLine
 10
3671.218827623253
 20
1742.927388339374
 30
0.0
 11
3671.218827623253
 21
1756.652824683643
 31
0.0
  0
LINE
  5
3F29
330
3F25
100
AcDbEntity
  8
DIM
 62
     0
370
    -2
100
AcDbLine
 10
3455.006870423592
 20
1743.927324154836
 30
0.0
 11
3455.006870423592
 21
1756.652824683643
 31
0.0
  0
LINE
  5
3F2A
330
3F25
100
AcDbEntity
  8
DIM
 62
     0
370
    -2
100
AcDbLine
 10
3661.218827623253
 20
1756.652824683643
 30
0.0
 11
3465.006870423592
 21
1756.652824683643
 31
0.0
  0
INSERT
  5
3F2B
330
3F25
100
AcDbEntity
  8
DIM
 62
     0
370
    -2
100
AcDbBlockReference
  2
_DOT
 10
3671.218827623253
 20
1756.652824683643
 30
0.0
 41
10.0
 42
10.0
 43
10.0
  0
INSERT
  5
3F2C
330
3F25
100
AcDbEntity
  8
DIM
 62
     0
370
    -2
100
AcDbBlockReference
  2
_DOT
 10
3455.006870423592
 20
1756.652824683643
 30
0.0
 41
10.0
 42
10.0
 43
10.0
 50
180.0
  0
MTEXT
  5
3F2D
330
3F25
100
AcDbEntity
  8
DIM
 62
     0
100
AcDbMText
 10
3563.112849023422
 20
1788.652824683643
 30
0.0
 40
24.0
 41
0.0
 46
0.0
 71
     5
 72
     1
  1
\A1;216
  7
ＭＳ ゴシック
 73
     1
 44
1.0
  0
POINT
  5
3F2E
330
3F25
100
AcDbEntity
  8
Defpoints
 62
     0
100
AcDbPoint
 10
3671.218827623253
 20
1712.927388339374
 30
0.0
  0
POINT
  5
3F2F
330
3F25
100
AcDbEntity
  8
Defpoints
 62
     0
100
AcDbPoint
 10
3455.006870423592
 20
1713.927324154836
 30
0.0
  0
POINT
  5
3F30
330
3F25
100
AcDbEntity
  8
Defpoints
 62
     0
100
AcDbPoint
 10
3455.006870423592
 20
1756.652824683643
 30
0.0
  0
ENDBLK
  5
3F27
330
3F25
100
AcDbEntity
  8
0
100
AcDbBlockEnd
  0
BLOCK
  5
400E
330
400D
100
AcDbEntity
  8
0
100
AcDbBlockBegin
  2
*D47
 70
     1
 10
0.0
 20
0.0
 30
0.0
  3
*D47
  1

  0
LINE
  5
4010
330
400D
100
AcDbEntity
  8
DIM
 62
     0
370
    -2
100
AcDbLine
 10
3249.346477973994
 20
1157.31417822261
 30
0.0
 11
3249.346477973994
 21
1264.633759844131
 31
0.0
  0
LINE
  5
4011
330
400D
100
AcDbEntity
  8
DIM
 62
     0
370
    -2
100
AcDbLine
 10
3652.800972240868
 20
1154.170830602838
 30
0.0
 11
3652.800972240868
 21
1264.633759844131
 31
0.0
  0
LINE
  5
4012
330
400D
100
AcDbEntity
  8
DIM
 62
     0
370
    -2
100
AcDbLine
 10
3259.346477973994
 20
1264.633759844131
 30
0.0
 11
3642.800972240868
 21
1264.633759844131
 31
0.0
  0
INSERT
  5
4013
330
400D
100
AcDbEntity
  8
DIM
 62
     0
370
    -2
100
AcDbBlockReference
  2
_DOT
 10
3249.346477973994
 20
1264.633759844131
 30
0.0
 41
10.0
 42
10.0
 43
10.0
 50
180.0
  0
INSERT
  5
4014
330
400D
100
AcDbEntity
  8
DIM
 62
     0
370
    -2
100
AcDbBlockReference
  2
_DOT
 10
3652.800972240868
 20
1264.633759844131
 30
0.0
 41
10.0
 42
10.0
 43
10.0
  0
MTEXT
  5
4015
330
400D
100
AcDbEntity
  8
DIM
 62
     0
100
AcDbMText
 10
3451.073725107432
 20
1296.633759844131
 30
0.0
 40
24.0
 41
0.0
 46
0.0
 71
     5
 72
     1
  1
\A1;403
  7
ＭＳ ゴシック
 73
     1
 44
1.0
  0
POINT
  5
4016
330
400D
100
AcDbEntity
  8
Defpoints
 62
     0
100
AcDbPoint
 10
3249.346477973994
 20
1127.31417822261
 30
0.0
  0
POINT
  5
4017
330
400D
100
AcDbEntity
  8
Defpoints
 62
     0
100
AcDbPoint
 10
3652.800972240868
 20
1124.170830602838
 30
0.0
  0
POINT
  5
4018
330
400D
100
AcDbEntity
  8
Defpoints
 62
     0
100
AcDbPoint
 10
3652.800972240868
 20
1264.633759844131
 30
0.0
  0
ENDBLK
  5
400F
330
400D
100
AcDbEntity
  8
0
100
AcDbBlockEnd
  0
BLOCK
  5
401D
330
401C
100
AcDbEntity
  8
0
100
AcDbBlockBegin
  2
*D48
 70
     1
 10
0.0
 20
0.0
 30
0.0
  3
*D48
  1

  0
LINE
  5
401F
330
401C
100
AcDbEntity
  8
DIM
 62
     0
370
    -2
100
AcDbLine
 10
4554.62195433642
 20
1154.170830602838
 30
0.0
 11
4554.62195433642
 21
1377.736467717146
 31
0.0
  0
LINE
  5
4020
330
401C
100
AcDbEntity
  8
DIM
 62
     0
370
    -2
100
AcDbLine
 10
4786.78786758239
 20
1154.121694506923
 30
0.0
 11
4786.78786758239
 21
1377.736467717146
 31
0.0
  0
LINE
  5
4021
330
401C
100
AcDbEntity
  8
DIM
 62
     0
370
    -2
100
AcDbLine
 10
4564.62195433642
 20
1377.736467717146
 30
0.0
 11
4776.78786758239
 21
1377.736467717146
 31
0.0
  0
INSERT
  5
4022
330
401C
100
AcDbEntity
  8
DIM
 62
     0
370
    -2
100
AcDbBlockReference
  2
_DOT
 10
4554.62195433642
 20
1377.736467717146
 30
0.0
 41
10.0
 42
10.0
 43
10.0
 50
180.0
  0
INSERT
  5
4023
330
401C
100
AcDbEntity
  8
DIM
 62
     0
370
    -2
100
AcDbBlockReference
  2
_DOT
 10
4786.78786758239
 20
1377.736467717146
 30
0.0
 41
10.0
 42
10.0
 43
10.0
  0
MTEXT
  5
4024
330
401C
100
AcDbEntity
  8
DIM
 62
     0
100
AcDbMText
 10
4670.704910959405
 20
1409.736467717146
 30
0.0
 40
24.0
 41
0.0
 46
0.0
 71
     5
 72
     1
  1
\A1;232
  7
ＭＳ ゴシック
 73
     1
 44
1.0
  0
POINT
  5
4025
330
401C
100
AcDbEntity
  8
Defpoints
 62
     0
100
AcDbPoint
 10
4554.62195433642
 20
1124.170830602838
 30
0.0
  0
POINT
  5
4026
330
401C
100
AcDbEntity
  8
Defpoints
 62
     0
100
AcDbPoint
 10
4786.78786758239
 20
1124.121694506923
 30
0.0
  0
POINT
  5
4027
330
401C
100
AcDbEntity
  8
Defpoints
 62
     0
100
AcDbPoint
 10
4786.78786758239
 20
1377.736467717146
 30
0.0
  0
ENDBLK
  5
401E
330
401C
100
AcDbEntity
  8
0
100
AcDbBlockEnd
  0
BLOCK
  5
402A
330
4029
100
AcDbEntity
  8
0
100
AcDbBlockBegin
  2
*D49
 70
     1
 10
0.0
 20
0.0
 30
0.0
  3
*D49
  1

  0
LINE
  5
402C
330
4029
100
AcDbEntity
  8
DIM
 62
     0
370
    -2
100
AcDbLine
 10
4544.334115531413
 20
1226.462264687794
 30
0.0
 11
4544.334115531413
 21
1300.268859584944
 31
0.0
  0
LINE
  5
402D
330
4029
100
AcDbEntity
  8
DIM
 62
     0
370
    -2
100
AcDbLine
 10
4794.334115531413
 20
1226.462264687794
 30
0.0
 11
4794.334115531413
 21
1300.268859584944
 31
0.0
  0
LINE
  5
402E
330
4029
100
AcDbEntity
  8
DIM
 62
     0
370
    -2
100
AcDbLine
 10
4554.334115531413
 20
1300.268859584944
 30
0.0
 11
4784.334115531413
 21
1300.268859584944
 31
0.0
  0
INSERT
  5
402F
330
4029
100
AcDbEntity
  8
DIM
 62
     0
370
    -2
100
AcDbBlockReference
  2
_DOT
 10
4544.334115531413
 20
1300.268859584944
 30
0.0
 41
10.0
 42
10.0
 43
10.0
 50
180.0
  0
INSERT
  5
4030
330
4029
100
AcDbEntity
  8
DIM
 62
     0
370
    -2
100
AcDbBlockReference
  2
_DOT
 10
4794.334115531413
 20
1300.268859584944
 30
0.0
 41
10.0
 42
10.0
 43
10.0
  0
MTEXT
  5
4031
330
4029
100
AcDbEntity
  8
DIM
 62
     0
100
AcDbMText
 10
4669.334115531413
 20
1332.268859584944
 30
0.0
 40
24.0
 41
0.0
 46
0.0
 71
     5
 72
     1
  1
\A1;250
  7
ＭＳ ゴシック
 73
     1
 44
1.0
  0
POINT
  5
4032
330
4029
100
AcDbEntity
  8
Defpoints
 62
     0
100
AcDbPoint
 10
4544.334115531413
 20
1196.462264687794
 30
0.0
  0
POINT
  5
4033
330
4029
100
AcDbEntity
  8
Defpoints
 62
     0
100
AcDbPoint
 10
4794.334115531413
 20
1196.462264687794
 30
0.0
  0
POINT
  5
4034
330
4029
100
AcDbEntity
  8
Defpoints
 62
     0
100
AcDbPoint
 10
4794.334115531413
 20
1300.268859584944
 30
0.0
  0
ENDBLK
  5
402B
330
4029
100
AcDbEntity
  8
0
100
AcDbBlockEnd
  0
BLOCK
  5
403A
330
4039
100
AcDbEntity
  8
0
100
AcDbBlockBegin
  2
*D50
 70
     1
 10
0.0
 20
0.0
 30
0.0
  3
*D50
  1

  0
LINE
  5
403C
330
4039
100
AcDbEntity
  8
DIM
 62
     0
370
    -2
100
AcDbLine
 10
307.8048610211154
 20
2236.087580103307
 30
0.0
 11
307.8048610211154
 21
2458.825341764183
 31
0.0
  0
LINE
  5
403D
330
4039
100
AcDbEntity
  8
DIM
 62
     0
370
    -2
100
AcDbLine
 10
857.8048610359201
 20
2238.59629112506
 30
0.0
 11
857.8048610359201
 21
2458.825341764183
 31
0.0
  0
LINE
  5
403E
330
4039
100
AcDbEntity
  8
DIM
 62
     0
370
    -2
100
AcDbLine
 10
317.8048610211154
 20
2458.825341764183
 30
0.0
 11
847.8048610359201
 21
2458.825341764183
 31
0.0
  0
INSERT
  5
403F
330
4039
100
AcDbEntity
  8
DIM
 62
     0
370
    -2
100
AcDbBlockReference
  2
_DOT
 10
307.8048610211154
 20
2458.825341764183
 30
0.0
 41
10.0
 42
10.0
 43
10.0
 50
180.0
  0
INSERT
  5
4040
330
4039
100
AcDbEntity
  8
DIM
 62
     0
370
    -2
100
AcDbBlockReference
  2
_DOT
 10
857.8048610359201
 20
2458.825341764183
 30
0.0
 41
10.0
 42
10.0
 43
10.0
  0
MTEXT
  5
4041
330
4039
100
AcDbEntity
  8
DIM
 62
     0
100
AcDbMText
 10
582.8048610285177
 20
2490.825341764183
 30
0.0
 40
24.0
 41
0.0
 46
0.0
 71
     5
 72
     1
  1
\A1;550
  7
ＭＳ ゴシック
 73
     1
 44
1.0
  0
POINT
  5
4042
330
4039
100
AcDbEntity
  8
Defpoints
 62
     0
100
AcDbPoint
 10
307.8048610211154
 20
2206.087580103307
 30
0.0
  0
POINT
  5
4043
330
4039
100
AcDbEntity
  8
Defpoints
 62
     0
100
AcDbPoint
 10
857.8048610359201
 20
2208.59629112506
 30
0.0
  0
POINT
  5
4044
330
4039
100
AcDbEntity
  8
Defpoints
 62
     0
100
AcDbPoint
 10
857.8048610359201
 20
2458.825341764183
 30
0.0
  0
ENDBLK
  5
403B
330
4039
100
AcDbEntity
  8
0
100
AcDbBlockEnd
  0
BLOCK
  5
4047
330
4046
100
AcDbEntity
  8
0
100
AcDbBlockBegin
  2
*D51
 70
     1
 10
0.0
 20
0.0
 30
0.0
  3
*D51
  1

  0
LINE
  5
4049
330
4046
100
AcDbEntity
  8
DIM
 62
     0
370
    -2
100
AcDbLine
 10
1491.076593114547
 20
844.7206503409459
 30
0.0
 11
1434.680728565138
 21
844.7206503409459
 31
0.0
  0
LINE
  5
404A
330
4046
100
AcDbEntity
  8
DIM
 62
     0
370
    -2
100
AcDbLine
 10
1491.076593114547
 20
944.7224415408
 30
0.0
 11
1434.680728565138
 21
944.7224415408
 31
0.0
  0
LINE
  5
404B
330
4046
100
AcDbEntity
  8
DIM
 62
     0
370
    -2
100
AcDbLine
 10
1434.680728565138
 20
854.7206503409459
 30
0.0
 11
1434.680728565138
 21
934.7224415408
 31
0.0
  0
INSERT
  5
404C
330
4046
100
AcDbEntity
  8
DIM
 62
     0
370
    -2
100
AcDbBlockReference
  2
_DOT
 10
1434.680728565138
 20
844.7206503409459
 30
0.0
 41
10.0
 42
10.0
 43
10.0
 50
270.0
  0
INSERT
  5
404D
330
4046
100
AcDbEntity
  8
DIM
 62
     0
370
    -2
100
AcDbBlockReference
  2
_DOT
 10
1434.680728565138
 20
944.7224415408
 30
0.0
 41
10.0
 42
10.0
 43
10.0
 50
90.0
  0
MTEXT
  5
404E
330
4046
100
AcDbEntity
  8
DIM
 62
     0
100
AcDbMText
 10
1402.680728565138
 20
894.7215459408729
 30
0.0
 40
24.0
 41
0.0
 46
0.0
 71
     5
 72
     1
  1
\A1;100
  7
ＭＳ ゴシック
 11
0.0
 21
1.0
 31
0.0
 73
     1
 44
1.0
  0
POINT
  5
404F
330
4046
100
AcDbEntity
  8
Defpoints
 62
     0
100
AcDbPoint
 10
1521.076593114547
 20
844.7206503409459
 30
0.0
  0
POINT
  5
4050
330
4046
100
AcDbEntity
  8
Defpoints
 62
     0
100
AcDbPoint
 10
1521.076593114547
 20
944.7224415408
 30
0.0
  0
POINT
  5
4051
330
4046
100
AcDbEntity
  8
Defpoints
 62
     0
100
AcDbPoint
 10
1434.680728565138
 20
944.7224415408
 30
0.0
  0
ENDBLK
  5
4048
330
4046
100
AcDbEntity
  8
0
100
AcDbBlockEnd
  0
BLOCK
  5
4056
330
4055
100
AcDbEntity
  8
0
100
AcDbBlockBegin
  2
*D52
 70
     1
 10
0.0
 20
0.0
 30
0.0
  3
*D52
  1

  0
LINE
  5
4058
330
4055
100
AcDbEntity
  8
DIM
 62
     0
370
    -2
100
AcDbLine
 10
1700.589517237645
 20
854.7224415408
 30
0.0
 11
1671.369253359457
 21
854.7224415408
 31
0.0
  0
LINE
  5
4059
330
4055
100
AcDbEntity
  8
DIM
 62
     0
370
    -2
100
AcDbLine
 10
1699.1195787503
 20
944.7224415408
 30
0.0
 11
1671.369253359457
 21
944.7224415408
 31
0.0
  0
LINE
  5
405A
330
4055
100
AcDbEntity
  8
DIM
 62
     0
370
    -2
100
AcDbLine
 10
1671.369253359457
 20
944.7224415408
 30
0.0
 11
1671.369253359457
 21
1120.8584415408
 31
0.0
  0
LINE
  5
405B
330
4055
100
AcDbEntity
  8
DIM
 62
     0
370
    -2
100
AcDbLine
 10
1671.369253359457
 20
864.7224415408
 30
0.0
 11
1671.369253359457
 21
934.7224415408
 31
0.0
  0
LINE
  5
405C
330
4055
100
AcDbEntity
  8
DIM
 62
     0
370
    -2
100
AcDbLine
 10
1671.369253359457
 20
934.7224415408
 30
0.0
 11
1671.369253359457
 21
924.7224415408
 31
0.0
  0
INSERT
  5
405D
330
4055
100
AcDbEntity
  8
DIM
 62
     0
370
    -2
100
AcDbBlockReference
  2
_DOT
 10
1671.369253359457
 20
854.7224415408
 30
0.0
 41
10.0
 42
10.0
 43
10.0
 50
270.0
  0
INSERT
  5
405E
330
4055
100
AcDbEntity
  8
DIM
 62
     0
370
    -2
100
AcDbBlockReference
  2
_DOT
 10
1671.369253359457
 20
944.7224415408
 30
0.0
 41
10.0
 42
10.0
 43
10.0
 50
90.0
  0
MTEXT
  5
405F
330
4055
100
AcDbEntity
  8
DIM
 62
     0
100
AcDbMText
 10
1637.245253359457
 20
1042.7904415408
 30
0.0
 40
24.0
 41
0.0
 46
0.0
 71
     5
 72
     1
  1
\A1;85(深さ)
  7
ＭＳ ゴシック
 11
0.0
 21
1.0
 31
0.0
 73
     1
 44
1.0
  0
POINT
  5
4060
330
4055
100
AcDbEntity
  8
Defpoints
 62
     0
100
AcDbPoint
 10
1670.589517237645
 20
854.7224415408
 30
0.0
  0
POINT
  5
4061
330
4055
100
AcDbEntity
  8
Defpoints
 62
     0
100
AcDbPoint
 10
1669.1195787503
 20
944.7224415408
 30
0.0
  0
POINT
  5
4062
330
4055
100
AcDbEntity
  8
Defpoints
 62
     0
100
AcDbPoint
 10
1671.369253359457
 20
944.7224415408
 30
0.0
  0
ENDBLK
  5
4057
330
4055
100
AcDbEntity
  8
0
100
AcDbBlockEnd
  0
BLOCK
  5
407A
330
4079
100
AcDbEntity
  8
0
100
AcDbBlockBegin
  2
*D53
 70
     1
 10
0.0
 20
0.0
 30
0.0
  3
*D53
  1

  0
LINE
  5
407C
330
4079
100
AcDbEntity
  8
DIM
 62
     0
370
    -2
100
AcDbLine
 10
1819.120213136666
 20
822.0417611785015
 30
0.0
 11
1819.120213136666
 21
749.5329525145962
 31
0.0
  0
LINE
  5
407D
330
4079
100
AcDbEntity
  8
DIM
 62
     0
370
    -2
100
AcDbLine
 10
1670.589517237645
 20
809.8391902763019
 30
0.0
 11
1670.589517237645
 21
749.5329525145962
 31
0.0
  0
LINE
  5
407E
330
4079
100
AcDbEntity
  8
DIM
 62
     0
370
    -2
100
AcDbLine
 10
1809.120213136666
 20
749.5329525145962
 30
0.0
 11
1680.589517237645
 21
749.5329525145962
 31
0.0
  0
INSERT
  5
407F
330
4079
100
AcDbEntity
  8
DIM
 62
     0
370
    -2
100
AcDbBlockReference
  2
_DOT
 10
1819.120213136666
 20
749.5329525145962
 30
0.0
 41
10.0
 42
10.0
 43
10.0
  0
INSERT
  5
4080
330
4079
100
AcDbEntity
  8
DIM
 62
     0
370
    -2
100
AcDbBlockReference
  2
_DOT
 10
1670.589517237645
 20
749.5329525145962
 30
0.0
 41
10.0
 42
10.0
 43
10.0
 50
180.0
  0
MTEXT
  5
4081
330
4079
100
AcDbEntity
  8
DIM
 62
     0
100
AcDbMText
 10
1744.854865187156
 20
781.5329525145962
 30
0.0
 40
24.0
 41
0.0
 46
0.0
 71
     5
 72
     1
  1
\A1;150
  7
ＭＳ ゴシック
 73
     1
 44
1.0
  0
POINT
  5
4082
330
4079
100
AcDbEntity
  8
Defpoints
 62
     0
100
AcDbPoint
 10
1819.120213136666
 20
852.0417611785015
 30
0.0
  0
POINT
  5
4083
330
4079
100
AcDbEntity
  8
Defpoints
 62
     0
100
AcDbPoint
 10
1670.589517237645
 20
839.8391902763019
 30
0.0
  0
POINT
  5
4084
330
4079
100
AcDbEntity
  8
Defpoints
 62
     0
100
AcDbPoint
 10
1670.589517237645
 20
749.5329525145962
 30
0.0
  0
ENDBLK
  5
407B
330
4079
100
AcDbEntity
  8
0
100
AcDbBlockEnd
  0
BLOCK
  5
42B3
330
42B2
100
AcDbEntity
  8
0
100
AcDbBlockBegin
  2
*D54
 70
     1
 10
0.0
 20
0.0
 30
0.0
  3
*D54
  1

  0
LINE
  5
42B5
330
42B2
100
AcDbEntity
  8
DIM
 62
     0
370
    -2
100
AcDbLine
 10
1373.397259909158
 20
2192.868092564726
 30
0.0
 11
1373.397259909158
 21
2261.201654113353
 31
0.0
  0
LINE
  5
42B6
330
42B2
100
AcDbEntity
  8
DIM
 62
     0
370
    -2
100
AcDbLine
 10
1733.397259909158
 20
2192.868092564726
 30
0.0
 11
1733.397259909158
 21
2261.201654113353
 31
0.0
  0
LINE
  5
42B7
330
42B2
100
AcDbEntity
  8
DIM
 62
     0
370
    -2
100
AcDbLine
 10
1383.397259909158
 20
2261.201654113353
 30
0.0
 11
1723.397259909158
 21
2261.201654113353
 31
0.0
  0
INSERT
  5
42B8
330
42B2
100
AcDbEntity
  8
DIM
 62
     0
370
    -2
100
AcDbBlockReference
  2
_DOT
 10
1373.397259909158
 20
2261.201654113353
 30
0.0
 41
10.0
 42
10.0
 43
10.0
 50
180.0
  0
INSERT
  5
42B9
330
42B2
100
AcDbEntity
  8
DIM
 62
     0
370
    -2
100
AcDbBlockReference
  2
_DOT
 10
1733.397259909158
 20
2261.201654113353
 30
0.0
 41
10.0
 42
10.0
 43
10.0
  0
MTEXT
  5
42BA
330
42B2
100
AcDbEntity
  8
DIM
 62
     0
100
AcDbMText
 10
1553.397259909158
 20
2293.201654113353
 30
0.0
 40
24.0
 41
0.0
 46
0.0
 71
     5
 72
     1
  1
\A1;360
  7
ＭＳ ゴシック
 73
     1
 44
1.0
  0
POINT
  5
42BB
330
42B2
100
AcDbEntity
  8
Defpoints
 62
     0
100
AcDbPoint
 10
1373.397259909158
 20
2162.868092564726
 30
0.0
  0
POINT
  5
42BC
330
42B2
100
AcDbEntity
  8
Defpoints
 62
     0
100
AcDbPoint
 10
1733.397259909158
 20
2162.868092564726
 30
0.0
  0
POINT
  5
42BD
330
42B2
100
AcDbEntity
  8
Defpoints
 62
     0
100
AcDbPoint
 10
1733.397259909158
 20
2261.201654113353
 30
0.0
  0
ENDBLK
  5
42B4
330
42B2
100
AcDbEntity
  8
0
100
AcDbBlockEnd
  0
BLOCK
  5
42C2
330
42C1
100
AcDbEntity
  8
0
100
AcDbBlockBegin
  2
*D55
 70
     1
 10
0.0
 20
0.0
 30
0.0
  3
*D55
  1

  0
LINE
  5
42C4
330
42C1
100
AcDbEntity
  8
DIM
 62
     0
370
    -2
100
AcDbLine
 10
1763.397259909158
 20
2162.868092564726
 30
0.0
 11
1840.066366326026
 21
2162.868092564726
 31
0.0
  0
LINE
  5
42C5
330
42C1
100
AcDbEntity
  8
DIM
 62
     0
370
    -2
100
AcDbLine
 10
1763.397259909158
 20
1932.868092564726
 30
0.0
 11
1840.066366326026
 21
1932.868092564726
 31
0.0
  0
LINE
  5
42C6
330
42C1
100
AcDbEntity
  8
DIM
 62
     0
370
    -2
100
AcDbLine
 10
1840.066366326026
 20
2152.868092564726
 30
0.0
 11
1840.066366326026
 21
1942.868092564726
 31
0.0
  0
INSERT
  5
42C7
330
42C1
100
AcDbEntity
  8
DIM
 62
     0
370
    -2
100
AcDbBlockReference
  2
_DOT
 10
1840.066366326026
 20
2162.868092564726
 30
0.0
 41
10.0
 42
10.0
 43
10.0
 50
90.0
  0
INSERT
  5
42C8
330
42C1
100
AcDbEntity
  8
DIM
 62
     0
370
    -2
100
AcDbBlockReference
  2
_DOT
 10
1840.066366326026
 20
1932.868092564726
 30
0.0
 41
10.0
 42
10.0
 43
10.0
 50
270.0
  0
MTEXT
  5
42C9
330
42C1
100
AcDbEntity
  8
DIM
 62
     0
100
AcDbMText
 10
1808.066366326026
 20
2047.868092564726
 30
0.0
 40
24.0
 41
0.0
 46
0.0
 71
     5
 72
     1
  1
\A1;230
  7
ＭＳ ゴシック
 11
0.0
 21
1.0
 31
0.0
 73
     1
 44
1.0
  0
POINT
  5
42CA
330
42C1
100
AcDbEntity
  8
Defpoints
 62
     0
100
AcDbPoint
 10
1733.397259909158
 20
2162.868092564726
 30
0.0
  0
POINT
  5
42CB
330
42C1
100
AcDbEntity
  8
Defpoints
 62
     0
100
AcDbPoint
 10
1733.397259909158
 20
1932.868092564726
 30
0.0
  0
POINT
  5
42CC
330
42C1
100
AcDbEntity
  8
Defpoints
 62
     0
100
AcDbPoint
 10
1840.066366326026
 20
1932.868092564726
 30
0.0
  0
ENDBLK
  5
42C3
330
42C1
100
AcDbEntity
  8
0
100
AcDbBlockEnd
  0
ENDSEC
  0
SECTION
  2
ENTITIES
  0
MTEXT
  5
177
330
A
100
AcDbEntity
  8
TEMPLATE
390
1D
100
AcDbMText
 10
79.20214454773075
 20
343.7317516314282
 30
0.0
 40
16.28841145833333
 41
0.0
 46
0.0
 71
     1
 72
     1
  1
品名
  7
ＭＳ ゴシック
 73
     1
 44
0.7828267384257843
  0
MTEXT
  5
178
330
A
100
AcDbEntity
  8
TEMPLATE
390
1D
100
AcDbMText
 10
79.20214454773075
 20
258.731751631428
 30
0.0
 40
16.28841145833333
 41
0.0
 46
18.11271354166666
 71
     1
 72
     1
  1
{仕様}
  7
ＭＳ ゴシック
 73
     1
 44
0.7828267384257843
1001
ACAD
1000
ACAD_MTEXT_DEFINED_HEIGHT_BEGIN
1070
    46
1040
18.11271354166666
1000
ACAD_MTEXT_DEFINED_HEIGHT_END
  0
LINE
  5
179
330
A
100
AcDbEntity
  8
TEMPLATE
390
1D
100
AcDbLine
 10
2022.202144547248
 20
267.1466735064284
 30
0.0
 11
72.20214454724874
 21
267.1466735064284
 31
0.0
  0
LWPOLYLINE
  5
17A
330
A
100
AcDbEntity
  8
TEMPLATE
390
1D
100
AcDbPolyline
 90
        5
 70
   128
 43
0.0
 10
2022.202144547248
 20
2897.146673506426
 10
72.20214454724874
 20
2897.146673506426
 10
72.20214454724874
 20
97.14667350642826
 10
2022.202144547248
 20
97.14667350642826
 10
2022.202144547248
 20
2897.146673506426
  0
LINE
  5
17B
330
A
100
AcDbEntity
  8
TEMPLATE
390
1D
100
AcDbLine
 10
2022.202144547248
 20
352.1466735064282
 30
0.0
 11
72.20214454724874
 21
352.1466735064282
 31
0.0
  0
LINE
  5
17C
330
A
100
AcDbEntity
  8
TEMPLATE
390
1D
100
AcDbLine
 10
2022.202144547732
 20
182.1466735064282
 30
0.0
 11
1269.20214454773
 21
182.1466735064282
 31
0.0
  0
MTEXT
  5
17E
330
A
100
AcDbEntity
  8
TEMPLATE
390
1D
100
AcDbMText
 10
1299.073550799991
 20
152.2362790331201
 30
0.0
 40
24.4326171875
 41
0.0
 46
0.0
 71
     1
 72
     1
  1
大洋金物株式会社 ティーフォルム事業部
  7
ＭＳ ゴシック
 73
     1
 44
0.7828267384257843
  0
MTEXT
  5
180
330
A
100
AcDbEntity
  8
TEMPLATE
390
1D
100
AcDbMText
 10
1831.20214454799
 20
230.1492906939282
 30
0.0
 40
24.4326171875
 41
0.0
 46
24.4326171875
 71
     1
 72
     1
  1
{1:10}
  7
ＭＳ ゴシック
 73
     1
 44
0.7828267384257843
1001
ACAD
1000
ACAD_MTEXT_DEFINED_HEIGHT_BEGIN
1070
    46
1040
24.4326171875
1000
ACAD_MTEXT_DEFINED_HEIGHT_END
  0
MTEXT
  5
181
330
A
100
AcDbEntity
  8
TEMPLATE
390
1D
100
AcDbMText
 10
1778.20214454799
 20
258.731751631428
 30
0.0
 40
16.28841145833333
 41
0.0
 46
18.19415559895833
 71
     1
 72
     1
  1
{縮尺}
  7
ＭＳ ゴシック
 73
     1
 44
0.7828267384257843
1001
ACAD
1000
ACAD_MTEXT_DEFINED_HEIGHT_BEGIN
1070
    46
1040
18.19415559895833
1000
ACAD_MTEXT_DEFINED_HEIGHT_END
  0
LINE
  5
182
330
A
100
AcDbEntity
  8
TEMPLATE
390
1D
100
AcDbLine
 10
1771.20214454799
 20
182.1466735064282
 30
0.0
 11
1771.20214454799
 21
267.1466735064284
 31
0.0
  0
MTEXT
  5
183
330
A
100
AcDbEntity
  8
TEMPLATE
390
1D
100
AcDbMText
 10
1527.20214454799
 20
258.731751631428
 30
0.0
 40
16.28841145833333
 41
0.0
 46
0.0
 71
     1
 72
     1
  1
容量
  7
ＭＳ ゴシック
 73
     1
 44
0.7828267384257843
  0
LINE
  5
184
330
A
100
AcDbEntity
  8
TEMPLATE
390
1D
100
AcDbLine
 10
1520.20214454799
 20
182.1466735064282
 30
0.0
 11
1520.20214454799
 21
267.1466735064284
 31
0.0
  0
MTEXT
  5
185
330
A
100
AcDbEntity
  8
TEMPLATE
390
1D
100
AcDbMText
 10
1276.20214454799
 20
343.7317516314282
 30
0.0
 40
16.28841145833333
 41
0.0
 46
0.0
 71
     1
 72
     1
  1
品番
  7
ＭＳ ゴシック
 73
     1
 44
0.7828267384257843
  0
MTEXT
  5
186
330
A
100
AcDbEntity
  8
TEMPLATE
390
1D
100
AcDbMText
 10
1276.20214454799
 20
258.731751631428
 30
0.0
 40
16.28841145833333
 41
0.0
 46
0.0
 71
     1
 72
     1
  1
重量
  7
ＭＳ ゴシック
 73
     1
 44
0.7828267384257843
  0
MTEXT
  5
187
330
A
100
AcDbEntity
  8
TEMPLATE
390
1D
100
AcDbMText
 10
1329.20214454799
 20
315.1492906939282
 30
0.0
 40
24.4326171875
 41
0.0
 46
24.4326171875
 71
     1
 72
     1
  1
{FLN70-6507}
  7
ＭＳ ゴシック
 73
     1
 44
0.7828267384257843
1001
ACAD
1000
ACAD_MTEXT_DEFINED_HEIGHT_BEGIN
1070
    46
1040
24.4326171875
1000
ACAD_MTEXT_DEFINED_HEIGHT_END
  0
LINE
  5
188
330
A
100
AcDbEntity
  8
TEMPLATE
390
1D
100
AcDbLine
 10
1269.20214454799
 20
97.14667350642826
 30
0.0
 11
1269.20214454799
 21
352.1466735064282
 31
0.0
  0
MTEXT
  5
189
330
A
100
AcDbEntity
  8
TEMPLATE
390
1D
100
AcDbMText
 10
132.2021445477307
 20
315.1492906939282
 30
0.0
 40
24.4326171875
 41
0.0
 46
27.5355595703125
 71
     1
 72
     1
  1
{洗面器　-KALDEWEI, Puro-}
  7
ＭＳ ゴシック
 73
     1
 44
0.7828267384257843
1001
ACAD
1000
ACAD_MTEXT_DEFINED_HEIGHT_BEGIN
1070
    46
1040
27.5355595703125
1000
ACAD_MTEXT_DEFINED_HEIGHT_END
  0
INSERT
  5
6B5
330
A
100
AcDbEntity
  8
TEMPLATE
100
AcDbBlockReference
  2
名称未設定-1
 10
1870.75074808845
 20
25.94676575665382
 30
0.0
 41
0.7619999999999998
 42
0.7619999999999998
 43
0.7619999999999998
  0
MTEXT
  5
7D9
330
A
100
AcDbEntity
  8
TEMPLATE
390
1D
100
AcDbMText
 10
125.2543452760364
 20
226.8119760293952
 30
0.0
 40
24.0
 41
0.0
 46
68.55280418881651
 71
     1
 72
     1
  1
{\fＭＳ Ｐゴシック|b0|i0|c1|p0;カウンター置き/\fＭＳ ゴシック|b0|i0|c0|p0;オーバーフローなし/型紙、水栓取付用スペーサー付属\P鋼板ホーロー/ホワイト}
  7
ＭＳ ゴシック
 73
     1
 44
0.9331787841240657
1001
ACAD
1000
ACAD_MTEXT_DEFINED_HEIGHT_BEGIN
1070
    46
1040
68.55280418881651
1000
ACAD_MTEXT_DEFINED_HEIGHT_END
  0
INSERT
  5
68C
330
A
100
AcDbEntity
  8
TEMPLATE
100
AcDbBlockReference
  2
block 2
 10
919.2743017702577
 20
8.373076514336368
 30
0.0
 41
0.3809999999999999
 42
0.3809999999999999
 43
0.3809999999999999
  0
LWPOLYLINE
  5
DAC
330
A
100
AcDbEntity
  8
BORDER
100
AcDbPolyline
 90
        4
 70
     1
 43
0.0
 10
0.0
 20
0.0
 10
0.0
 20
2970.0
 10
2100.0
 20
2970.0
 10
2100.0
 20
0.0
  0
MTEXT
  5
121B
330
A
100
AcDbEntity
  8
TEMPLATE
390
1D
100
AcDbMText
 10
1329.20214454799
 20
227.1688729773101
 30
0.0
 40
24.4326171875
 41
0.0
 46
28.390701171875
 71
     1
 72
     1
  1
{8.2kg}
  7
ＭＳ ゴシック
 73
     1
 44
0.7828267384257843
1001
ACAD
1000
ACAD_MTEXT_DEFINED_HEIGHT_BEGIN
1070
    46
1040
28.390701171875
1000
ACAD_MTEXT_DEFINED_HEIGHT_END
  0
MTEXT
  5
1466
102
{ACAD_XDICTIONARY
360
1468
102
}
330
A
100
AcDbEntity
  8
TEMPLATE
 48
0.05
100
AcDbMText
 10
74.728656548571
 20
83.86172105142839
 30
0.0
 40
22.0
 41
0.0
 46
22.0
 71
     1
 72
     1
  1
{20180228N}
  7
ＭＳ ゴシック
 73
     1
 44
1.0
1001
ACAD
1000
ACAD_MTEXT_DEFINED_HEIGHT_BEGIN
1070
    46
1040
22.0
1000
ACAD_MTEXT_DEFINED_HEIGHT_END
  0
MTEXT
  5
146D
330
A
100
AcDbEntity
  8
TEMPLATE
390
1D
100
AcDbMText
 10
1583.904999862276
 20
227.1688729773101
 30
0.0
 40
24.4326171875
 41
0.0
 46
24.4326171875
 71
     1
 72
     1
  1
{3.8L}
  7
ＭＳ ゴシック
 73
     1
 44
0.7828267384257843
1001
ACAD
1000
ACAD_MTEXT_DEFINED_HEIGHT_BEGIN
1070
    46
1040
24.4326171875
1000
ACAD_MTEXT_DEFINED_HEIGHT_END
  0
POINT
  5
262A
330
A
100
AcDbEntity
  8
Layer9
  6
Continuous
 62
     7
100
AcDbPoint
 10
1037.460145007193
 20
1010.220672371878
 30
0.0
  0
POINT
  5
262B
330
A
100
AcDbEntity
  8
Layer9
  6
Continuous
 62
     7
100
AcDbPoint
 10
1037.460146257193
 20
1010.220672788578
 30
0.0
  0
POINT
  5
262C
330
A
100
AcDbEntity
  8
Layer9
  6
Continuous
 62
     7
100
AcDbPoint
 10
1037.853693340493
 20
1015.267975288578
 30
0.0
  0
POINT
  5
2812
330
A
100
AcDbEntity
  8
Layer9
  6
Continuous
 62
     7
100
AcDbPoint
 10
925.7934783404928
 20
1010.220672371878
 30
0.0
  0
POINT
  5
2813
330
A
100
AcDbEntity
  8
Layer9
  6
Continuous
 62
     7
100
AcDbPoint
 10
925.7934795904928
 20
1010.220672788578
 30
0.0
  0
POINT
  5
2814
330
A
100
AcDbEntity
  8
Layer9
  6
Continuous
 62
     7
100
AcDbPoint
 10
926.1870266737928
 20
1015.267975288578
 30
0.0
  0
INSERT
  5
28CA
330
A
100
AcDbEntity
  8
Layer3
100
AcDbBlockReference
  2
SEANNOT_GROUP
 10
859.7083018867928
 20
826.1905269541776
 30
0.0
  0
POINT
  5
2A52
330
A
100
AcDbEntity
  8
Standard
  6
Continuous
 62
     7
100
AcDbPoint
 10
1036.111241014893
 20
1018.794321538578
 30
0.0
  0
INSERT
  5
2B9B
330
A
100
AcDbEntity
  8
Layer3
100
AcDbBlockReference
  2
SEANNOT_GROUP1
 10
859.7083018867928
 20
826.1905269541776
 30
0.0
  0
POLYLINE
  5
39E7
330
A
100
AcDbEntity
  8
MODEL
100
AcDb2dPolyline
 66
     1
 10
0.0
 20
0.0
 30
0.0
  0
VERTEX
  5
39E8
330
39E7
100
AcDbEntity
  8
MODEL
100
AcDbVertex
100
AcDb2dVertex
 10
857.8048610359197
 20
1900.866855142064
 30
0.0
  0
VERTEX
  5
39E9
330
39E7
100
AcDbEntity
  8
MODEL
100
AcDbVertex
100
AcDb2dVertex
 10
857.8048610359197
 20
2194.869329987389
 30
0.0
  0
SEQEND
  5
39EA
330
39E7
100
AcDbEntity
  8
MODEL
  0
POLYLINE
  5
39EC
330
A
100
AcDbEntity
  8
MODEL
100
AcDb2dPolyline
 66
     1
 10
0.0
 20
0.0
 30
0.0
  0
VERTEX
  5
39ED
330
39EC
100
AcDbEntity
  8
MODEL
100
AcDbVertex
100
AcDb2dVertex
 10
854.8066955202667
 20
2197.867495503043
 30
0.0
  0
VERTEX
  5
39EE
330
39EC
100
AcDbEntity
  8
MODEL
100
AcDbVertex
100
AcDb2dVertex
 10
310.8054894328648
 20
2197.867495503043
 30
0.0
  0
SEQEND
  5
39EF
330
39EC
100
AcDbEntity
  8
MODEL
  0
POLYLINE
  5
39F1
330
A
100
AcDbEntity
  8
MODEL
100
AcDb2dPolyline
 66
     1
 10
0.0
 20
0.0
 30
0.0
  0
VERTEX
  5
39F2
330
39F1
100
AcDbEntity
  8
MODEL
100
AcDbVertex
100
AcDb2dVertex
 10
307.8048610211149
 20
2194.869329987389
 30
0.0
  0
VERTEX
  5
39F3
330
39F1
100
AcDbEntity
  8
MODEL
100
AcDbVertex
100
AcDb2dVertex
 10
307.8048610211149
 20
1900.866855142064
 30
0.0
  0
SEQEND
  5
39F4
330
39F1
100
AcDbEntity
  8
MODEL
  0
POLYLINE
  5
39F5
330
A
100
AcDbEntity
  8
MODEL
100
AcDb2dPolyline
 66
     1
 10
0.0
 20
0.0
 30
0.0
  0
VERTEX
  5
39F6
330
39F5
100
AcDbEntity
  8
MODEL
100
AcDbVertex
100
AcDb2dVertex
 10
310.8054894328648
 20
1897.868689626409
 30
0.0
  0
VERTEX
  5
39F7
330
39F5
100
AcDbEntity
  8
MODEL
100
AcDbVertex
100
AcDb2dVertex
 10
854.8066955202667
 20
1897.868689626409
 30
0.0
  0
SEQEND
  5
39F8
330
39F5
100
AcDbEntity
  8
MODEL
  0
POLYLINE
  5
39FA
330
A
100
AcDbEntity
  8
MODEL
100
AcDb2dPolyline
 66
     1
 10
0.0
 20
0.0
 30
0.0
  0
VERTEX
  5
39FB
330
39FA
100
AcDbEntity
  8
MODEL
100
AcDbVertex
100
AcDb2dVertex
 10
390.7872192239697
 20
1913.252759614867
 30
0.0
  0
VERTEX
  5
39FC
330
39FA
100
AcDbEntity
  8
MODEL
100
AcDbVertex
100
AcDb2dVertex
 10
350.6961965538007
 20
1913.242908030478
 30
0.0
  0
SEQEND
  5
39FD
330
39FA
100
AcDbEntity
  8
MODEL
  0
POLYLINE
  5
39FE
330
A
100
AcDbEntity
  8
MODEL
100
AcDb2dPolyline
 66
     1
 10
0.0
 20
0.0
 30
0.0
  0
VERTEX
  5
39FF
330
39FE
100
AcDbEntity
  8
MODEL
100
AcDbVertex
100
AcDb2dVertex
 10
697.824982146396
 20
2182.484246479952
 30
0.0
  0
VERTEX
  5
3A00
330
39FE
100
AcDbEntity
  8
MODEL
100
AcDbVertex
100
AcDb2dVertex
 10
737.914362885836
 20
2182.49409806434
 30
0.0
  0
SEQEND
  5
3A01
330
39FE
100
AcDbEntity
  8
MODEL
  0
POLYLINE
  5
3A02
330
A
100
AcDbEntity
  8
MODEL
100
AcDb2dPolyline
 66
     1
 10
0.0
 20
0.0
 30
0.0
  0
VERTEX
  5
3A03
330
3A02
100
AcDbEntity
  8
MODEL
100
AcDbVertex
100
AcDb2dVertex
 10
697.824982146396
 20
1913.252759614867
 30
0.0
  0
VERTEX
  5
3A04
330
3A02
100
AcDbEntity
  8
MODEL
100
AcDbVertex
100
AcDb2dVertex
 10
737.914362885836
 20
1913.242908030478
 30
0.0
  0
SEQEND
  5
3A05
330
3A02
100
AcDbEntity
  8
MODEL
  0
POLYLINE
  5
3A06
330
A
100
AcDbEntity
  8
MODEL
100
AcDb2dPolyline
 66
     1
 10
0.0
 20
0.0
 30
0.0
  0
VERTEX
  5
3A07
330
3A06
100
AcDbEntity
  8
MODEL
100
AcDbVertex
100
AcDb2dVertex
 10
390.7872192239697
 20
2182.484246479952
 30
0.0
  0
VERTEX
  5
3A08
330
3A06
100
AcDbEntity
  8
MODEL
100
AcDbVertex
100
AcDb2dVertex
 10
350.6961965538007
 20
2182.49409806434
 30
0.0
  0
SEQEND
  5
3A09
330
3A06
100
AcDbEntity
  8
MODEL
  0
POLYLINE
  5
3A0A
330
A
100
AcDbEntity
  8
MODEL
100
AcDb2dPolyline
 66
     1
 10
0.0
 20
0.0
 30
0.0
  0
VERTEX
  5
3A0B
330
3A0A
100
AcDbEntity
  8
MODEL
100
AcDbVertex
100
AcDb2dVertex
 10
737.914362885836
 20
1913.242908030478
 30
0.0
  0
VERTEX
  5
3A0C
330
3A0A
100
AcDbEntity
  8
MODEL
100
AcDbVertex
100
AcDb2dVertex
 10
742.8303034958408
 20
1913.242908030478
 30
0.0
  0
VERTEX
  5
3A0D
330
3A0A
100
AcDbEntity
  8
MODEL
100
AcDbVertex
100
AcDb2dVertex
 10
747.7396763829188
 20
1913.238803203649
 30
0.0
  0
VERTEX
  5
3A0E
330
3A0A
100
AcDbEntity
  8
MODEL
100
AcDbVertex
100
AcDb2dVertex
 10
752.6638266465816
 20
1913.357843181681
 30
0.0
  0
VERTEX
  5
3A0F
330
3A0A
100
AcDbEntity
  8
MODEL
100
AcDbVertex
100
AcDb2dVertex
 10
754.8886427877169
 20
1913.687050293339
 30
0.0
  0
VERTEX
  5
3A10
330
3A0A
100
AcDbEntity
  8
MODEL
100
AcDbVertex
100
AcDb2dVertex
 10
756.9426981327797
 20
1914.339717759096
 30
0.0
  0
VERTEX
  5
3A11
330
3A0A
100
AcDbEntity
  8
MODEL
100
AcDbVertex
100
AcDb2dVertex
 10
758.6815027773978
 20
1915.387269565771
 30
0.0
  0
VERTEX
  5
3A12
330
3A0A
100
AcDbEntity
  8
MODEL
100
AcDbVertex
100
AcDb2dVertex
 10
760.001615085499
 20
1916.875679773844
 30
0.0
  0
VERTEX
  5
3A13
330
3A0A
100
AcDbEntity
  8
MODEL
100
AcDbVertex
100
AcDb2dVertex
 10
760.8275062434236
 20
1918.79427583356
 30
0.0
  0
VERTEX
  5
3A14
330
3A0A
100
AcDbEntity
  8
MODEL
100
AcDbVertex
100
AcDb2dVertex
 10
761.2035083809296
 20
1921.073275688833
 30
0.0
  0
VERTEX
  5
3A15
330
3A0A
100
AcDbEntity
  8
MODEL
100
AcDbVertex
100
AcDb2dVertex
 10
761.2593340257986
 20
1926.114823999795
 30
0.0
  0
VERTEX
  5
3A16
330
3A0A
100
AcDbEntity
  8
MODEL
100
AcDbVertex
100
AcDb2dVertex
 10
761.256050164337
 20
1931.201525405873
 30
0.0
  0
VERTEX
  5
3A17
330
3A0A
100
AcDbEntity
  8
MODEL
100
AcDbVertex
100
AcDb2dVertex
 10
761.247840510679
 20
1936.28822681195
 30
0.0
  0
VERTEX
  5
3A18
330
3A0A
100
AcDbEntity
  8
MODEL
100
AcDbVertex
100
AcDb2dVertex
 10
761.2133599653166
 20
1966.815823936706
 30
0.0
  0
SEQEND
  5
3A19
330
3A0A
100
AcDbEntity
  8
MODEL
  0
POLYLINE
  5
3A1A
330
A
100
AcDbEntity
  8
MODEL
100
AcDb2dPolyline
 66
     1
 10
0.0
 20
0.0
 30
0.0
  0
VERTEX
  5
3A1B
330
3A1A
100
AcDbEntity
  8
MODEL
100
AcDbVertex
100
AcDb2dVertex
 10
761.2133599653166
 20
2128.921182158113
 30
0.0
  0
VERTEX
  5
3A1C
330
3A1A
100
AcDbEntity
  8
MODEL
100
AcDbVertex
100
AcDb2dVertex
 10
761.2970984326216
 20
2038.138011050067
 30
0.0
  0
VERTEX
  5
3A1D
330
3A1A
100
AcDbEntity
  8
MODEL
100
AcDbVertex
100
AcDb2dVertex
 10
761.2133599653166
 20
1966.815823936706
 30
0.0
  0
SEQEND
  5
3A1E
330
3A1A
100
AcDbEntity
  8
MODEL
  0
POLYLINE
  5
3A1F
330
A
100
AcDbEntity
  8
MODEL
100
AcDb2dPolyline
 66
     1
 10
0.0
 20
0.0
 30
0.0
  0
VERTEX
  5
3A20
330
3A1F
100
AcDbEntity
  8
MODEL
100
AcDbVertex
100
AcDb2dVertex
 10
737.914362885836
 20
2182.495739995071
 30
0.0
  0
VERTEX
  5
3A21
330
3A1F
100
AcDbEntity
  8
MODEL
100
AcDbVertex
100
AcDb2dVertex
 10
742.8303034958408
 20
2182.495739995071
 30
0.0
  0
VERTEX
  5
3A22
330
3A1F
100
AcDbEntity
  8
MODEL
100
AcDbVertex
100
AcDb2dVertex
 10
747.7396763829188
 20
2182.495739995071
 30
0.0
  0
VERTEX
  5
3A23
330
3A1F
100
AcDbEntity
  8
MODEL
100
AcDbVertex
100
AcDb2dVertex
 10
752.6638266465816
 20
2182.379162913138
 30
0.0
  0
VERTEX
  5
3A24
330
3A1F
100
AcDbEntity
  8
MODEL
100
AcDbVertex
100
AcDb2dVertex
 10
754.8886427877169
 20
2182.051597732211
 30
0.0
  0
VERTEX
  5
3A25
330
3A1F
100
AcDbEntity
  8
MODEL
100
AcDbVertex
100
AcDb2dVertex
 10
756.9426981327797
 20
2181.398930266454
 30
0.0
  0
VERTEX
  5
3A26
330
3A1F
100
AcDbEntity
  8
MODEL
100
AcDbVertex
100
AcDb2dVertex
 10
758.6815027773978
 20
2180.348094598316
 30
0.0
  0
VERTEX
  5
3A27
330
3A1F
100
AcDbEntity
  8
MODEL
100
AcDbVertex
100
AcDb2dVertex
 10
760.001615085499
 20
2178.859684390243
 30
0.0
  0
VERTEX
  5
3A28
330
3A1F
100
AcDbEntity
  8
MODEL
100
AcDbVertex
100
AcDb2dVertex
 10
760.8275062434236
 20
2176.942730261258
 30
0.0
  0
VERTEX
  5
3A29
330
3A1F
100
AcDbEntity
  8
MODEL
100
AcDbVertex
100
AcDb2dVertex
 10
761.2035083809296
 20
2174.663730405985
 30
0.0
  0
VERTEX
  5
3A2A
330
3A1F
100
AcDbEntity
  8
MODEL
100
AcDbVertex
100
AcDb2dVertex
 10
761.2593340257986
 20
2169.623003060389
 30
0.0
  0
VERTEX
  5
3A2B
330
3A1F
100
AcDbEntity
  8
MODEL
100
AcDbVertex
100
AcDb2dVertex
 10
761.256050164337
 20
2164.536301654311
 30
0.0
  0
VERTEX
  5
3A2C
330
3A1F
100
AcDbEntity
  8
MODEL
100
AcDbVertex
100
AcDb2dVertex
 10
761.247840510679
 20
2159.44467445604
 30
0.0
  0
VERTEX
  5
3A2D
330
3A1F
100
AcDbEntity
  8
MODEL
100
AcDbVertex
100
AcDb2dVertex
 10
761.2133599653166
 20
2128.919540227379
 30
0.0
  0
SEQEND
  5
3A2E
330
3A1F
100
AcDbEntity
  8
MODEL
  0
POLYLINE
  5
3A2F
330
A
100
AcDbEntity
  8
MODEL
100
AcDb2dPolyline
 66
     1
 10
0.0
 20
0.0
 30
0.0
  0
VERTEX
  5
3A30
330
3A2F
100
AcDbEntity
  8
MODEL
100
AcDbVertex
100
AcDb2dVertex
 10
697.824982146396
 20
2182.484246479952
 30
0.0
  0
VERTEX
  5
3A31
330
3A2F
100
AcDbEntity
  8
MODEL
100
AcDbVertex
100
AcDb2dVertex
 10
525.8869217396109
 20
2182.599181631154
 30
0.0
  0
VERTEX
  5
3A32
330
3A2F
100
AcDbEntity
  8
MODEL
100
AcDbVertex
100
AcDb2dVertex
 10
390.7872192239697
 20
2182.484246479952
 30
0.0
  0
SEQEND
  5
3A33
330
3A2F
100
AcDbEntity
  8
MODEL
  0
POLYLINE
  5
3A34
330
A
100
AcDbEntity
  8
MODEL
100
AcDb2dPolyline
 66
     1
 10
0.0
 20
0.0
 30
0.0
  0
VERTEX
  5
3A35
330
3A34
100
AcDbEntity
  8
MODEL
100
AcDbVertex
100
AcDb2dVertex
 10
350.6961965538007
 20
2182.495739995071
 30
0.0
  0
VERTEX
  5
3A36
330
3A34
100
AcDbEntity
  8
MODEL
100
AcDbVertex
100
AcDb2dVertex
 10
345.7835398052566
 20
2182.495739995071
 30
0.0
  0
VERTEX
  5
3A37
330
3A34
100
AcDbEntity
  8
MODEL
100
AcDbVertex
100
AcDb2dVertex
 10
340.8741669181777
 20
2182.495739995071
 30
0.0
  0
VERTEX
  5
3A38
330
3A34
100
AcDbEntity
  8
MODEL
100
AcDbVertex
100
AcDb2dVertex
 10
335.9516585852466
 20
2182.379162913138
 30
0.0
  0
VERTEX
  5
3A39
330
3A34
100
AcDbEntity
  8
MODEL
100
AcDbVertex
100
AcDb2dVertex
 10
333.7260214787448
 20
2182.051597732211
 30
0.0
  0
VERTEX
  5
3A3A
330
3A34
100
AcDbEntity
  8
MODEL
100
AcDbVertex
100
AcDb2dVertex
 10
331.6727870990508
 20
2181.398930266454
 30
0.0
  0
VERTEX
  5
3A3B
330
3A34
100
AcDbEntity
  8
MODEL
100
AcDbVertex
100
AcDb2dVertex
 10
329.933161489063
 20
2180.348094598316
 30
0.0
  0
VERTEX
  5
3A3C
330
3A34
100
AcDbEntity
  8
MODEL
100
AcDbVertex
100
AcDb2dVertex
 10
328.6130491809668
 20
2178.859684390243
 30
0.0
  0
VERTEX
  5
3A3D
330
3A34
100
AcDbEntity
  8
MODEL
100
AcDbVertex
100
AcDb2dVertex
 10
327.7830531962099
 20
2176.942730261258
 30
0.0
  0
VERTEX
  5
3A3E
330
3A34
100
AcDbEntity
  8
MODEL
100
AcDbVertex
100
AcDb2dVertex
 10
327.4111558855329
 20
2174.663730405985
 30
0.0
  0
VERTEX
  5
3A3F
330
3A34
100
AcDbEntity
  8
MODEL
100
AcDbVertex
100
AcDb2dVertex
 10
327.3528673445667
 20
2169.623003060389
 30
0.0
  0
VERTEX
  5
3A40
330
3A34
100
AcDbEntity
  8
MODEL
100
AcDbVertex
100
AcDb2dVertex
 10
327.3594350674939
 20
2164.536301654311
 30
0.0
  0
VERTEX
  5
3A41
330
3A34
100
AcDbEntity
  8
MODEL
100
AcDbVertex
100
AcDb2dVertex
 10
327.3660027904189
 20
2159.44467445604
 30
0.0
  0
VERTEX
  5
3A42
330
3A34
100
AcDbEntity
  8
MODEL
100
AcDbVertex
100
AcDb2dVertex
 10
327.4004833357808
 20
2128.919540227379
 30
0.0
  0
SEQEND
  5
3A43
330
3A34
100
AcDbEntity
  8
MODEL
  0
POLYLINE
  5
3A44
330
A
100
AcDbEntity
  8
MODEL
100
AcDb2dPolyline
 66
     1
 10
0.0
 20
0.0
 30
0.0
  0
VERTEX
  5
3A45
330
3A44
100
AcDbEntity
  8
MODEL
100
AcDbVertex
100
AcDb2dVertex
 10
327.3971994743169
 20
2128.921182158113
 30
0.0
  0
VERTEX
  5
3A46
330
3A44
100
AcDbEntity
  8
MODEL
100
AcDbVertex
100
AcDb2dVertex
 10
327.3183867992038
 20
2038.138011050067
 30
0.0
  0
VERTEX
  5
3A47
330
3A44
100
AcDbEntity
  8
MODEL
100
AcDbVertex
100
AcDb2dVertex
 10
327.3971994743169
 20
1966.815823936706
 30
0.0
  0
SEQEND
  5
3A48
330
3A44
100
AcDbEntity
  8
MODEL
  0
POLYLINE
  5
3A49
330
A
100
AcDbEntity
  8
MODEL
100
AcDb2dPolyline
 66
     1
 10
0.0
 20
0.0
 30
0.0
  0
VERTEX
  5
3A4A
330
3A49
100
AcDbEntity
  8
MODEL
100
AcDbVertex
100
AcDb2dVertex
 10
350.6961965538007
 20
1913.242908030478
 30
0.0
  0
VERTEX
  5
3A4B
330
3A49
100
AcDbEntity
  8
MODEL
100
AcDbVertex
100
AcDb2dVertex
 10
345.7835398052566
 20
1913.242908030478
 30
0.0
  0
VERTEX
  5
3A4C
330
3A49
100
AcDbEntity
  8
MODEL
100
AcDbVertex
100
AcDb2dVertex
 10
340.8741669181777
 20
1913.238803203649
 30
0.0
  0
VERTEX
  5
3A4D
330
3A49
100
AcDbEntity
  8
MODEL
100
AcDbVertex
100
AcDb2dVertex
 10
335.9516585852466
 20
1913.357843181681
 30
0.0
  0
VERTEX
  5
3A4E
330
3A49
100
AcDbEntity
  8
MODEL
100
AcDbVertex
100
AcDb2dVertex
 10
333.7260214787448
 20
1913.687050293339
 30
0.0
  0
VERTEX
  5
3A4F
330
3A49
100
AcDbEntity
  8
MODEL
100
AcDbVertex
100
AcDb2dVertex
 10
331.6727870990508
 20
1914.339717759096
 30
0.0
  0
VERTEX
  5
3A50
330
3A49
100
AcDbEntity
  8
MODEL
100
AcDbVertex
100
AcDb2dVertex
 10
329.933161489063
 20
1915.387269565771
 30
0.0
  0
VERTEX
  5
3A51
330
3A49
100
AcDbEntity
  8
MODEL
100
AcDbVertex
100
AcDb2dVertex
 10
328.6130491809668
 20
1916.875679773844
 30
0.0
  0
VERTEX
  5
3A52
330
3A49
100
AcDbEntity
  8
MODEL
100
AcDbVertex
100
AcDb2dVertex
 10
327.7830531962099
 20
1918.79427583356
 30
0.0
  0
VERTEX
  5
3A53
330
3A49
100
AcDbEntity
  8
MODEL
100
AcDbVertex
100
AcDb2dVertex
 10
327.4111558855329
 20
1921.073275688833
 30
0.0
  0
VERTEX
  5
3A54
330
3A49
100
AcDbEntity
  8
MODEL
100
AcDbVertex
100
AcDb2dVertex
 10
327.3528673445667
 20
1926.114823999795
 30
0.0
  0
VERTEX
  5
3A55
330
3A49
100
AcDbEntity
  8
MODEL
100
AcDbVertex
100
AcDb2dVertex
 10
327.3594350674939
 20
1931.201525405873
 30
0.0
  0
VERTEX
  5
3A56
330
3A49
100
AcDbEntity
  8
MODEL
100
AcDbVertex
100
AcDb2dVertex
 10
327.3660027904189
 20
1936.28822681195
 30
0.0
  0
VERTEX
  5
3A57
330
3A49
100
AcDbEntity
  8
MODEL
100
AcDbVertex
100
AcDb2dVertex
 10
327.4004833357808
 20
1966.815823936706
 30
0.0
  0
SEQEND
  5
3A58
330
3A49
100
AcDbEntity
  8
MODEL
  0
POLYLINE
  5
3A59
330
A
100
AcDbEntity
  8
MODEL
100
AcDb2dPolyline
 66
     1
 10
0.0
 20
0.0
 30
0.0
  0
VERTEX
  5
3A5A
330
3A59
100
AcDbEntity
  8
MODEL
100
AcDbVertex
100
AcDb2dVertex
 10
697.824982146396
 20
1913.252759614867
 30
0.0
  0
VERTEX
  5
3A5B
330
3A59
100
AcDbEntity
  8
MODEL
100
AcDbVertex
100
AcDb2dVertex
 10
525.8869217396109
 20
1913.136182532933
 30
0.0
  0
VERTEX
  5
3A5C
330
3A59
100
AcDbEntity
  8
MODEL
100
AcDbVertex
100
AcDb2dVertex
 10
390.7872192239697
 20
1913.252759614867
 30
0.0
  0
SEQEND
  5
3A5D
330
3A59
100
AcDbEntity
  8
MODEL
  0
POLYLINE
  5
3A5E
330
A
100
AcDbEntity
  8
MODEL
100
AcDb2dPolyline
 66
     1
 10
0.0
 20
0.0
 30
0.0
  0
VERTEX
  5
3A5F
330
3A5E
100
AcDbEntity
  8
MODEL
100
AcDbVertex
100
AcDb2dVertex
 10
310.8054894328648
 20
1900.866855142064
 30
0.0
  0
VERTEX
  5
3A60
330
3A5E
100
AcDbEntity
  8
MODEL
100
AcDbVertex
100
AcDb2dVertex
 10
854.8066955202667
 20
1900.866855142064
 30
0.0
  0
SEQEND
  5
3A61
330
3A5E
100
AcDbEntity
  8
MODEL
  0
POLYLINE
  5
3A62
330
A
100
AcDbEntity
  8
MODEL
100
AcDb2dPolyline
 66
     1
 10
0.0
 20
0.0
 30
0.0
  0
VERTEX
  5
3A63
330
3A62
100
AcDbEntity
  8
MODEL
100
AcDbVertex
100
AcDb2dVertex
 10
310.8054894328648
 20
2194.869329987389
 30
0.0
  0
VERTEX
  5
3A64
330
3A62
100
AcDbEntity
  8
MODEL
100
AcDbVertex
100
AcDb2dVertex
 10
310.8054894328648
 20
1900.866855142064
 30
0.0
  0
SEQEND
  5
3A65
330
3A62
100
AcDbEntity
  8
MODEL
  0
POLYLINE
  5
3A66
330
A
100
AcDbEntity
  8
MODEL
100
AcDb2dPolyline
 66
     1
 10
0.0
 20
0.0
 30
0.0
  0
VERTEX
  5
3A67
330
3A66
100
AcDbEntity
  8
MODEL
100
AcDbVertex
100
AcDb2dVertex
 10
854.8066955202667
 20
2194.869329987389
 30
0.0
  0
VERTEX
  5
3A68
330
3A66
100
AcDbEntity
  8
MODEL
100
AcDbVertex
100
AcDb2dVertex
 10
310.8054894328648
 20
2194.869329987389
 30
0.0
  0
SEQEND
  5
3A69
330
3A66
100
AcDbEntity
  8
MODEL
  0
POLYLINE
  5
3A6A
330
A
100
AcDbEntity
  8
MODEL
100
AcDb2dPolyline
 66
     1
 10
0.0
 20
0.0
 30
0.0
  0
VERTEX
  5
3A6B
330
3A6A
100
AcDbEntity
  8
MODEL
100
AcDbVertex
100
AcDb2dVertex
 10
854.8066955202667
 20
1900.866855142064
 30
0.0
  0
VERTEX
  5
3A6C
330
3A6A
100
AcDbEntity
  8
MODEL
100
AcDbVertex
100
AcDb2dVertex
 10
854.8066955202667
 20
2194.869329987389
 30
0.0
  0
SEQEND
  5
3A6D
330
3A6A
100
AcDbEntity
  8
MODEL
  0
POLYLINE
  5
3A8A
330
A
100
AcDbEntity
  8
MODEL
100
AcDb2dPolyline
 66
     1
 10
0.0
 20
0.0
 30
0.0
  0
VERTEX
  5
41E4
330
3A8A
100
AcDbEntity
  8
MODEL
100
AcDbVertex
100
AcDb2dVertex
 10
307.8073239172109
 20
2194.869329987389
 30
0.0
  0
VERTEX
  5
41E5
330
3A8A
100
AcDbEntity
  8
MODEL
100
AcDbVertex
100
AcDb2dVertex
 10
307.8048610211149
 20
2194.869329987389
 30
0.0
  0
SEQEND
  5
41E6
330
3A8A
100
AcDbEntity
  8
MODEL
  0
POLYLINE
  5
3A8E
330
A
100
AcDbEntity
  8
MODEL
100
AcDb2dPolyline
 66
     1
 10
0.0
 20
0.0
 30
0.0
  0
VERTEX
  5
3A8F
330
3A8E
100
AcDbEntity
  8
MODEL
100
AcDbVertex
100
AcDb2dVertex
 10
421.4141531579808
 20
2068.426707253395
 30
0.0
  0
VERTEX
  5
3A90
330
3A8E
100
AcDbEntity
  8
MODEL
100
AcDbVertex
100
AcDb2dVertex
 10
421.4798303872408
 20
2073.622597053115
 30
0.0
  0
VERTEX
  5
3A91
330
3A8E
100
AcDbEntity
  8
MODEL
100
AcDbVertex
100
AcDb2dVertex
 10
422.1341397837286
 20
2078.93095910794
 30
0.0
  0
VERTEX
  5
3A92
330
3A8E
100
AcDbEntity
  8
MODEL
100
AcDbVertex
100
AcDb2dVertex
 10
422.8853230933737
 20
2081.595812685106
 30
0.0
  0
VERTEX
  5
3A93
330
3A8E
100
AcDbEntity
  8
MODEL
100
AcDbVertex
100
AcDb2dVertex
 10
424.0387794322269
 20
2084.174464898872
 30
0.0
  0
VERTEX
  5
3A94
330
3A8E
100
AcDbEntity
  8
MODEL
100
AcDbVertex
100
AcDb2dVertex
 10
425.6240635534568
 20
2086.51011136438
 30
0.0
  0
VERTEX
  5
3A95
330
3A8E
100
AcDbEntity
  8
MODEL
100
AcDbVertex
100
AcDb2dVertex
 10
427.5878127082869
 20
2088.446768662143
 30
0.0
  0
VERTEX
  5
3A96
330
3A8E
100
AcDbEntity
  8
MODEL
100
AcDbVertex
100
AcDb2dVertex
 10
429.761728996747
 20
2089.90726604778
 30
0.0
  0
VERTEX
  5
3A97
330
3A8E
100
AcDbEntity
  8
MODEL
100
AcDbVertex
100
AcDb2dVertex
 10
432.0251305100696
 20
2090.940861443238
 30
0.0
  0
VERTEX
  5
3A98
330
3A8E
100
AcDbEntity
  8
MODEL
100
AcDbVertex
100
AcDb2dVertex
 10
436.541260986965
 20
2092.048343721611
 30
0.0
  0
VERTEX
  5
3A99
330
3A8E
100
AcDbEntity
  8
MODEL
100
AcDbVertex
100
AcDb2dVertex
 10
440.9202902477828
 20
2092.387402417658
 30
0.0
  0
VERTEX
  5
3A9A
330
3A8E
100
AcDbEntity
  8
MODEL
100
AcDbVertex
100
AcDb2dVertex
 10
445.1712489115407
 20
2092.371804075708
 30
0.0
  0
SEQEND
  5
3A9B
330
3A8E
100
AcDbEntity
  8
MODEL
  0
POLYLINE
  5
3A9C
330
A
100
AcDbEntity
  8
MODEL
100
AcDb2dPolyline
 66
     1
 10
0.0
 20
0.0
 30
0.0
  0
VERTEX
  5
3A9D
330
3A9C
100
AcDbEntity
  8
MODEL
100
AcDbVertex
100
AcDb2dVertex
 10
643.4360266666276
 20
2092.373446006441
 30
0.0
  0
VERTEX
  5
3A9E
330
3A9C
100
AcDbEntity
  8
MODEL
100
AcDbVertex
100
AcDb2dVertex
 10
647.6919111225866
 20
2092.384118556196
 30
0.0
  0
VERTEX
  5
3A9F
330
3A9C
100
AcDbEntity
  8
MODEL
100
AcDbVertex
100
AcDb2dVertex
 10
652.0742242448646
 20
2092.048343721611
 30
0.0
  0
VERTEX
  5
3AA0
330
3A9C
100
AcDbEntity
  8
MODEL
100
AcDbVertex
100
AcDb2dVertex
 10
654.315459693315
 20
2091.626367523624
 30
0.0
  0
VERTEX
  5
3AA1
330
3A9C
100
AcDbEntity
  8
MODEL
100
AcDbVertex
100
AcDb2dVertex
 10
656.5895337563916
 20
2090.940861443238
 30
0.0
  0
VERTEX
  5
3AA2
330
3A9C
100
AcDbEntity
  8
MODEL
100
AcDbVertex
100
AcDb2dVertex
 10
658.8504723736187
 20
2089.90726604778
 30
0.0
  0
VERTEX
  5
3AA3
330
3A9C
100
AcDbEntity
  8
MODEL
100
AcDbVertex
100
AcDb2dVertex
 10
661.0276725235399
 20
2088.446768662143
 30
0.0
  0
VERTEX
  5
3AA4
330
3A9C
100
AcDbEntity
  8
MODEL
100
AcDbVertex
100
AcDb2dVertex
 10
662.9848539554459
 20
2086.51011136438
 30
0.0
  0
VERTEX
  5
3AA5
330
3A9C
100
AcDbEntity
  8
MODEL
100
AcDbVertex
100
AcDb2dVertex
 10
664.5758848342357
 20
2084.174464898872
 30
0.0
  0
VERTEX
  5
3AA6
330
3A9C
100
AcDbEntity
  8
MODEL
100
AcDbVertex
100
AcDb2dVertex
 10
665.7301621384559
 20
2081.595812685106
 30
0.0
  0
VERTEX
  5
3AA7
330
3A9C
100
AcDbEntity
  8
MODEL
100
AcDbVertex
100
AcDb2dVertex
 10
666.4805244827348
 20
2078.932601038671
 30
0.0
  0
VERTEX
  5
3AA8
330
3A9C
100
AcDbEntity
  8
MODEL
100
AcDbVertex
100
AcDb2dVertex
 10
667.1356548445888
 20
2073.624238983846
 30
0.0
  0
VERTEX
  5
3AA9
330
3A9C
100
AcDbEntity
  8
MODEL
100
AcDbVertex
100
AcDb2dVertex
 10
667.198048212385
 20
2068.426707253395
 30
0.0
  0
SEQEND
  5
3AAA
330
3A9C
100
AcDbEntity
  8
MODEL
  0
POLYLINE
  5
3AAB
330
A
100
AcDbEntity
  8
MODEL
100
AcDb2dPolyline
 66
     1
 10
0.0
 20
0.0
 30
0.0
  0
VERTEX
  5
3AAC
330
3AAB
100
AcDbEntity
  8
MODEL
100
AcDbVertex
100
AcDb2dVertex
 10
667.198048212385
 20
2027.309477876058
 30
0.0
  0
VERTEX
  5
3AAD
330
3AAB
100
AcDbEntity
  8
MODEL
100
AcDbVertex
100
AcDb2dVertex
 10
667.132370983129
 20
2022.112767110972
 30
0.0
  0
VERTEX
  5
3AAE
330
3AAB
100
AcDbEntity
  8
MODEL
100
AcDbVertex
100
AcDb2dVertex
 10
666.4838083441978
 20
2016.803584090781
 30
0.0
  0
VERTEX
  5
3AAF
330
3AAB
100
AcDbEntity
  8
MODEL
100
AcDbVertex
100
AcDb2dVertex
 10
665.7301621384559
 20
2014.141193409711
 30
0.0
  0
VERTEX
  5
3AB0
330
3AAB
100
AcDbEntity
  8
MODEL
100
AcDbVertex
100
AcDb2dVertex
 10
664.5791686957
 20
2011.562541195945
 30
0.0
  0
VERTEX
  5
3AB1
330
3AAB
100
AcDbEntity
  8
MODEL
100
AcDbVertex
100
AcDb2dVertex
 10
662.9881378169098
 20
2009.226073765072
 30
0.0
  0
VERTEX
  5
3AB2
330
3AAB
100
AcDbEntity
  8
MODEL
100
AcDbVertex
100
AcDb2dVertex
 10
661.0276725235399
 20
2007.288595501944
 30
0.0
  0
VERTEX
  5
3AB3
330
3AAB
100
AcDbEntity
  8
MODEL
100
AcDbVertex
100
AcDb2dVertex
 10
658.853756235083
 20
2005.829740047037
 30
0.0
  0
VERTEX
  5
3AB4
330
3AAB
100
AcDbEntity
  8
MODEL
100
AcDbVertex
100
AcDb2dVertex
 10
656.58624989493
 20
2004.799428513044
 30
0.0
  0
VERTEX
  5
3AB5
330
3AAB
100
AcDbEntity
  8
MODEL
100
AcDbVertex
100
AcDb2dVertex
 10
652.0742242448646
 20
2003.687020442476
 30
0.0
  0
VERTEX
  5
3AB6
330
3AAB
100
AcDbEntity
  8
MODEL
100
AcDbVertex
100
AcDb2dVertex
 10
647.6951949840477
 20
2003.348782711794
 30
0.0
  0
VERTEX
  5
3AB7
330
3AAB
100
AcDbEntity
  8
MODEL
100
AcDbVertex
100
AcDb2dVertex
 10
643.4393105280919
 20
2003.362739123012
 30
0.0
  0
SEQEND
  5
3AB8
330
3AAB
100
AcDbEntity
  8
MODEL
  0
POLYLINE
  5
3AB9
330
A
100
AcDbEntity
  8
MODEL
100
AcDb2dPolyline
 66
     1
 10
0.0
 20
0.0
 30
0.0
  0
VERTEX
  5
3ABA
330
3AB9
100
AcDbEntity
  8
MODEL
100
AcDbVertex
100
AcDb2dVertex
 10
445.1745327730059
 20
2003.362739123012
 30
0.0
  0
VERTEX
  5
3ABB
330
3AB9
100
AcDbEntity
  8
MODEL
100
AcDbVertex
100
AcDb2dVertex
 10
440.9202902477828
 20
2003.352887538623
 30
0.0
  0
VERTEX
  5
3ABC
330
3AB9
100
AcDbEntity
  8
MODEL
100
AcDbVertex
100
AcDb2dVertex
 10
436.5379771255007
 20
2003.687020442476
 30
0.0
  0
VERTEX
  5
3ABD
330
3AB9
100
AcDbEntity
  8
MODEL
100
AcDbVertex
100
AcDb2dVertex
 10
432.0210256832429
 20
2004.797786582311
 30
0.0
  0
VERTEX
  5
3ABE
330
3AB9
100
AcDbEntity
  8
MODEL
100
AcDbVertex
100
AcDb2dVertex
 10
429.761728996747
 20
2005.828098116306
 30
0.0
  0
VERTEX
  5
3ABF
330
3AB9
100
AcDbEntity
  8
MODEL
100
AcDbVertex
100
AcDb2dVertex
 10
427.5845288468258
 20
2007.288595501944
 30
0.0
  0
VERTEX
  5
3AC0
330
3AB9
100
AcDbEntity
  8
MODEL
100
AcDbVertex
100
AcDb2dVertex
 10
425.6273474149198
 20
2009.226073765072
 30
0.0
  0
VERTEX
  5
3AC1
330
3AB9
100
AcDbEntity
  8
MODEL
100
AcDbVertex
100
AcDb2dVertex
 10
424.0354955707639
 20
2011.560899265215
 30
0.0
  0
VERTEX
  5
3AC2
330
3AB9
100
AcDbEntity
  8
MODEL
100
AcDbVertex
100
AcDb2dVertex
 10
422.8812182665456
 20
2014.13955147898
 30
0.0
  0
VERTEX
  5
3AC3
330
3AB9
100
AcDbEntity
  8
MODEL
100
AcDbVertex
100
AcDb2dVertex
 10
422.1308559222666
 20
2016.80768891761
 30
0.0
  0
VERTEX
  5
3AC4
330
3AB9
100
AcDbEntity
  8
MODEL
100
AcDbVertex
100
AcDb2dVertex
 10
421.4831142487019
 20
2022.112767110972
 30
0.0
  0
VERTEX
  5
3AC5
330
3AB9
100
AcDbEntity
  8
MODEL
100
AcDbVertex
100
AcDb2dVertex
 10
421.4141531579808
 20
2027.309477876058
 30
0.0
  0
SEQEND
  5
3AC6
330
3AB9
100
AcDbEntity
  8
MODEL
  0
POLYLINE
  5
3AC7
330
A
100
AcDbEntity
  8
MODEL
100
AcDb2dPolyline
 66
     1
 10
0.0
 20
0.0
 30
0.0
  0
VERTEX
  5
3AC8
330
3AC7
100
AcDbEntity
  8
MODEL
100
AcDbVertex
100
AcDb2dVertex
 10
643.4360266666276
 20
2003.362739123012
 30
0.0
  0
VERTEX
  5
3AC9
330
3AC7
100
AcDbEntity
  8
MODEL
100
AcDbVertex
100
AcDb2dVertex
 10
630.024736452026
 20
2003.581936875662
 30
0.0
  0
VERTEX
  5
3ACA
330
3AC7
100
AcDbEntity
  8
MODEL
100
AcDbVertex
100
AcDb2dVertex
 10
617.1979735778236
 20
2003.790462078558
 30
0.0
  0
VERTEX
  5
3ACB
330
3AC7
100
AcDbEntity
  8
MODEL
100
AcDbVertex
100
AcDb2dVertex
 10
604.9967863123106
 20
2003.976000251213
 30
0.0
  0
VERTEX
  5
3ACC
330
3AC7
100
AcDbEntity
  8
MODEL
100
AcDbVertex
100
AcDb2dVertex
 10
593.4934196076679
 20
2004.145119116555
 30
0.0
  0
VERTEX
  5
3ACD
330
3AC7
100
AcDbEntity
  8
MODEL
100
AcDbVertex
100
AcDb2dVertex
 10
582.7929570307128
 20
2004.292892882387
 30
0.0
  0
VERTEX
  5
3ACE
330
3AC7
100
AcDbEntity
  8
MODEL
100
AcDbVertex
100
AcDb2dVertex
 10
573.0185433863048
 20
2004.416858652612
 30
0.0
  0
VERTEX
  5
3ACF
330
3AC7
100
AcDbEntity
  8
MODEL
100
AcDbVertex
100
AcDb2dVertex
 10
564.2966073407656
 20
2004.523584150157
 30
0.0
  0
VERTEX
  5
3AD0
330
3AC7
100
AcDbEntity
  8
MODEL
100
AcDbVertex
100
AcDb2dVertex
 10
556.6993938462779
 20
2004.596650067707
 30
0.0
  0
VERTEX
  5
3AD1
330
3AC7
100
AcDbEntity
  8
MODEL
100
AcDbVertex
100
AcDb2dVertex
 10
550.1530160199309
 20
2004.642624128188
 30
0.0
  0
VERTEX
  5
3AD2
330
3AC7
100
AcDbEntity
  8
MODEL
100
AcDbVertex
100
AcDb2dVertex
 10
544.3077426159148
 20
2004.656580539406
 30
0.0
  0
SEQEND
  5
3AD3
330
3AC7
100
AcDbEntity
  8
MODEL
  0
POLYLINE
  5
3AD4
330
A
100
AcDbEntity
  8
MODEL
100
AcDb2dPolyline
 66
     1
 10
0.0
 20
0.0
 30
0.0
  0
VERTEX
  5
3AD5
330
3AD4
100
AcDbEntity
  8
MODEL
100
AcDbVertex
100
AcDb2dVertex
 10
544.3077426159148
 20
2004.658222470137
 30
0.0
  0
VERTEX
  5
3AD6
330
3AD4
100
AcDbEntity
  8
MODEL
100
AcDbVertex
100
AcDb2dVertex
 10
538.4608272811688
 20
2004.64426605892
 30
0.0
  0
VERTEX
  5
3AD7
330
3AD4
100
AcDbEntity
  8
MODEL
100
AcDbVertex
100
AcDb2dVertex
 10
531.9152704201838
 20
2004.59418717161
 30
0.0
  0
VERTEX
  5
3AD8
330
3AD4
100
AcDbEntity
  8
MODEL
100
AcDbVertex
100
AcDb2dVertex
 10
524.3155940296019
 20
2004.520300288694
 30
0.0
  0
VERTEX
  5
3AD9
330
3AD4
100
AcDbEntity
  8
MODEL
100
AcDbVertex
100
AcDb2dVertex
 10
515.5928370186957
 20
2004.416858652612
 30
0.0
  0
VERTEX
  5
3ADA
330
3AD4
100
AcDbEntity
  8
MODEL
100
AcDbVertex
100
AcDb2dVertex
 10
505.8225282011149
 20
2004.291250951655
 30
0.0
  0
VERTEX
  5
3ADB
330
3AD4
100
AcDbEntity
  8
MODEL
100
AcDbVertex
100
AcDb2dVertex
 10
495.1220656241617
 20
2004.143477185823
 30
0.0
  0
VERTEX
  5
3ADC
330
3AD4
100
AcDbEntity
  8
MODEL
100
AcDbVertex
100
AcDb2dVertex
 10
483.6186989195189
 20
2003.976000251213
 30
0.0
  0
VERTEX
  5
3ADD
330
3AD4
100
AcDbEntity
  8
MODEL
100
AcDbVertex
100
AcDb2dVertex
 10
471.4158697232738
 20
2003.78635725173
 30
0.0
  0
VERTEX
  5
3ADE
330
3AD4
100
AcDbEntity
  8
MODEL
100
AcDbVertex
100
AcDb2dVertex
 10
458.5866439529736
 20
2003.581936875662
 30
0.0
  0
VERTEX
  5
3ADF
330
3AD4
100
AcDbEntity
  8
MODEL
100
AcDbVertex
100
AcDb2dVertex
 10
445.1778166344679
 20
2003.362739123012
 30
0.0
  0
SEQEND
  5
3AE0
330
3AD4
100
AcDbEntity
  8
MODEL
  0
POLYLINE
  5
3AE1
330
A
100
AcDbEntity
  8
MODEL
100
AcDb2dPolyline
 66
     1
 10
0.0
 20
0.0
 30
0.0
  0
VERTEX
  5
3AE2
330
3AE1
100
AcDbEntity
  8
MODEL
100
AcDbVertex
100
AcDb2dVertex
 10
445.1745327730059
 20
2092.373446006441
 30
0.0
  0
VERTEX
  5
3AE3
330
3AE1
100
AcDbEntity
  8
MODEL
100
AcDbVertex
100
AcDb2dVertex
 10
458.5866439529736
 20
2092.155069219156
 30
0.0
  0
VERTEX
  5
3AE4
330
3AE1
100
AcDbEntity
  8
MODEL
100
AcDbVertex
100
AcDb2dVertex
 10
471.4158697232738
 20
2091.949827877723
 30
0.0
  0
VERTEX
  5
3AE5
330
3AE1
100
AcDbEntity
  8
MODEL
100
AcDbVertex
100
AcDb2dVertex
 10
483.6186989195189
 20
2091.762647774336
 30
0.0
  0
VERTEX
  5
3AE6
330
3AE1
100
AcDbEntity
  8
MODEL
100
AcDbVertex
100
AcDb2dVertex
 10
495.1220656241617
 20
2091.593528908995
 30
0.0
  0
VERTEX
  5
3AE7
330
3AE1
100
AcDbEntity
  8
MODEL
100
AcDbVertex
100
AcDb2dVertex
 10
505.8225282011149
 20
2091.441650316335
 30
0.0
  0
VERTEX
  5
3AE8
330
3AE1
100
AcDbEntity
  8
MODEL
100
AcDbVertex
100
AcDb2dVertex
 10
515.5887321918649
 20
2091.317684546108
 30
0.0
  0
VERTEX
  5
3AE9
330
3AE1
100
AcDbEntity
  8
MODEL
100
AcDbVertex
100
AcDb2dVertex
 10
524.3155940296019
 20
2091.215884840758
 30
0.0
  0
VERTEX
  5
3AEA
330
3AE1
100
AcDbEntity
  8
MODEL
100
AcDbVertex
100
AcDb2dVertex
 10
531.9119865587236
 20
2091.13871409638
 30
0.0
  0
VERTEX
  5
3AEB
330
3AE1
100
AcDbEntity
  8
MODEL
100
AcDbVertex
100
AcDb2dVertex
 10
538.4608272811688
 20
2091.092740035899
 30
0.0
  0
VERTEX
  5
3AEC
330
3AE1
100
AcDbEntity
  8
MODEL
100
AcDbVertex
100
AcDb2dVertex
 10
544.3077426159148
 20
2091.078783624681
 30
0.0
  0
SEQEND
  5
3AED
330
3AE1
100
AcDbEntity
  8
MODEL
  0
POLYLINE
  5
3AEE
330
A
100
AcDbEntity
  8
MODEL
100
AcDb2dPolyline
 66
     1
 10
0.0
 20
0.0
 30
0.0
  0
VERTEX
  5
3AEF
330
3AEE
100
AcDbEntity
  8
MODEL
100
AcDbVertex
100
AcDb2dVertex
 10
544.3077426159148
 20
2091.078783624681
 30
0.0
  0
VERTEX
  5
3AF0
330
3AEE
100
AcDbEntity
  8
MODEL
100
AcDbVertex
100
AcDb2dVertex
 10
550.1530160199309
 20
2091.092740035899
 30
0.0
  0
VERTEX
  5
3AF1
330
3AEE
100
AcDbEntity
  8
MODEL
100
AcDbVertex
100
AcDb2dVertex
 10
556.6993938462779
 20
2091.140356027111
 30
0.0
  0
VERTEX
  5
3AF2
330
3AEE
100
AcDbEntity
  8
MODEL
100
AcDbVertex
100
AcDb2dVertex
 10
564.299891202229
 20
2091.214242910027
 30
0.0
  0
VERTEX
  5
3AF3
330
3AEE
100
AcDbEntity
  8
MODEL
100
AcDbVertex
100
AcDb2dVertex
 10
573.0185433863048
 20
2091.317684546108
 30
0.0
  0
VERTEX
  5
3AF4
330
3AEE
100
AcDbEntity
  8
MODEL
100
AcDbVertex
100
AcDb2dVertex
 10
582.7929570307128
 20
2091.444113212432
 30
0.0
  0
VERTEX
  5
3AF5
330
3AEE
100
AcDbEntity
  8
MODEL
100
AcDbVertex
100
AcDb2dVertex
 10
593.4901357462077
 20
2091.593528908995
 30
0.0
  0
VERTEX
  5
3AF6
330
3AEE
100
AcDbEntity
  8
MODEL
100
AcDbVertex
100
AcDb2dVertex
 10
604.9967863123106
 20
2091.762647774336
 30
0.0
  0
VERTEX
  5
3AF7
330
3AEE
100
AcDbEntity
  8
MODEL
100
AcDbVertex
100
AcDb2dVertex
 10
617.1979735778236
 20
2091.948185946992
 30
0.0
  0
VERTEX
  5
3AF8
330
3AEE
100
AcDbEntity
  8
MODEL
100
AcDbVertex
100
AcDb2dVertex
 10
630.024736452026
 20
2092.153427288425
 30
0.0
  0
VERTEX
  5
3AF9
330
3AEE
100
AcDbEntity
  8
MODEL
100
AcDbVertex
100
AcDb2dVertex
 10
643.4360266666276
 20
2092.371804075708
 30
0.0
  0
SEQEND
  5
3AFA
330
3AEE
100
AcDbEntity
  8
MODEL
  0
POLYLINE
  5
3AFB
330
A
100
AcDbEntity
  8
MODEL
100
AcDb2dPolyline
 66
     1
 10
0.0
 20
0.0
 30
0.0
  0
VERTEX
  5
3AFC
330
3AFB
100
AcDbEntity
  8
MODEL
100
AcDbVertex
100
AcDb2dVertex
 10
667.198048212385
 20
2068.426707253395
 30
0.0
  0
VERTEX
  5
3AFD
330
3AFB
100
AcDbEntity
  8
MODEL
100
AcDbVertex
100
AcDb2dVertex
 10
667.198048212385
 20
2027.309477876058
 30
0.0
  0
SEQEND
  5
3AFE
330
3AFB
100
AcDbEntity
  8
MODEL
  0
POLYLINE
  5
3AFF
330
A
100
AcDbEntity
  8
MODEL
100
AcDb2dPolyline
 66
     1
 10
0.0
 20
0.0
 30
0.0
  0
VERTEX
  5
3B00
330
3AFF
100
AcDbEntity
  8
MODEL
100
AcDbVertex
100
AcDb2dVertex
 10
421.4141531579808
 20
2027.309477876058
 30
0.0
  0
VERTEX
  5
3B01
330
3AFF
100
AcDbEntity
  8
MODEL
100
AcDbVertex
100
AcDb2dVertex
 10
421.4141531579808
 20
2068.425065322663
 30
0.0
  0
SEQEND
  5
3B02
330
3AFF
100
AcDbEntity
  8
MODEL
  0
POLYLINE
  5
3B04
330
A
100
AcDbEntity
  8
MODEL
100
AcDb2dPolyline
 66
     1
 10
0.0
 20
0.0
 30
0.0
  0
VERTEX
  5
3B05
330
3B04
100
AcDbEntity
  8
MODEL
100
AcDbVertex
100
AcDb2dVertex
 10
559.5038115356197
 20
2020.051323077618
 30
0.0
  0
VERTEX
  5
3B06
330
3B04
100
AcDbEntity
  8
MODEL
100
AcDbVertex
100
AcDb2dVertex
 10
554.9425279636107
 20
2018.045704689134
 30
0.0
  0
VERTEX
  5
3B07
330
3B04
100
AcDbEntity
  8
MODEL
100
AcDbVertex
100
AcDb2dVertex
 10
550.7900851437366
 20
2016.907025726864
 30
0.0
  0
VERTEX
  5
3B08
330
3B04
100
AcDbEntity
  8
MODEL
100
AcDbVertex
100
AcDb2dVertex
 10
547.0005090155146
 20
2016.368472446943
 30
0.0
  0
VERTEX
  5
3B09
330
3B04
100
AcDbEntity
  8
MODEL
100
AcDbVertex
100
AcDb2dVertex
 10
543.3948291292218
 20
2016.268314672323
 30
0.0
  0
VERTEX
  5
3B0A
330
3B04
100
AcDbEntity
  8
MODEL
100
AcDbVertex
100
AcDb2dVertex
 10
539.7218300829336
 20
2016.57863958057
 30
0.0
  0
VERTEX
  5
3B0B
330
3B04
100
AcDbEntity
  8
MODEL
100
AcDbVertex
100
AcDb2dVertex
 10
535.76395605474
 20
2017.397963015571
 30
0.0
  0
VERTEX
  5
3B0C
330
3B04
100
AcDbEntity
  8
MODEL
100
AcDbVertex
100
AcDb2dVertex
 10
532.9004288590636
 20
2018.324832913484
 30
0.0
  0
VERTEX
  5
3B0D
330
3B04
100
AcDbEntity
  8
MODEL
100
AcDbVertex
100
AcDb2dVertex
 10
529.8587521790269
 20
2019.661364528896
 30
0.0
  0
VERTEX
  5
3B0E
330
3B04
100
AcDbEntity
  8
MODEL
100
AcDbVertex
100
AcDb2dVertex
 10
526.65124049511
 20
2021.521672047645
 30
0.0
  0
VERTEX
  5
3B0F
330
3B04
100
AcDbEntity
  8
MODEL
100
AcDbVertex
100
AcDb2dVertex
 10
524.1711041252306
 20
2023.337647436645
 30
0.0
  0
VERTEX
  5
3B10
330
3B04
100
AcDbEntity
  8
MODEL
100
AcDbVertex
100
AcDb2dVertex
 10
521.6802952056019
 20
2025.592839296312
 30
0.0
  0
VERTEX
  5
3B11
330
3B04
100
AcDbEntity
  8
MODEL
100
AcDbVertex
100
AcDb2dVertex
 10
519.2338184157179
 20
2028.35374582127
 30
0.0
  0
VERTEX
  5
3B12
330
3B04
100
AcDbEntity
  8
MODEL
100
AcDbVertex
100
AcDb2dVertex
 10
516.949892768253
 20
2031.699179686628
 30
0.0
  0
VERTEX
  5
3B13
330
3B04
100
AcDbEntity
  8
MODEL
100
AcDbVertex
100
AcDb2dVertex
 10
514.9516630680587
 20
2035.667726264578
 30
0.0
  0
VERTEX
  5
3B14
330
3B04
100
AcDbEntity
  8
MODEL
100
AcDbVertex
100
AcDb2dVertex
 10
513.4361610029168
 20
2040.246250109267
 30
0.0
  0
VERTEX
  5
3B15
330
3B04
100
AcDbEntity
  8
MODEL
100
AcDbVertex
100
AcDb2dVertex
 10
512.6094488796239
 20
2045.298470969984
 30
0.0
  0
VERTEX
  5
3B16
330
3B04
100
AcDbEntity
  8
MODEL
100
AcDbVertex
100
AcDb2dVertex
 10
512.6160166025488
 20
2050.52966228043
 30
0.0
  0
VERTEX
  5
3B17
330
3B04
100
AcDbEntity
  8
MODEL
100
AcDbVertex
100
AcDb2dVertex
 10
513.4566851370596
 20
2055.571210591393
 30
0.0
  0
VERTEX
  5
3B18
330
3B04
100
AcDbEntity
  8
MODEL
100
AcDbVertex
100
AcDb2dVertex
 10
514.9828597519568
 20
2060.143166713156
 30
0.0
  0
VERTEX
  5
3B19
330
3B04
100
AcDbEntity
  8
MODEL
100
AcDbVertex
100
AcDb2dVertex
 10
516.9843733136108
 20
2064.101861706717
 30
0.0
  0
VERTEX
  5
3B1A
330
3B04
100
AcDbEntity
  8
MODEL
100
AcDbVertex
100
AcDb2dVertex
 10
519.2789715108338
 20
2067.434981091591
 30
0.0
  0
VERTEX
  5
3B1B
330
3B04
100
AcDbEntity
  8
MODEL
100
AcDbVertex
100
AcDb2dVertex
 10
521.7213434738878
 20
2070.187677962891
 30
0.0
  0
VERTEX
  5
3B1C
330
3B04
100
AcDbEntity
  8
MODEL
100
AcDbVertex
100
AcDb2dVertex
 10
524.2154362549809
 20
2072.433839203534
 30
0.0
  0
VERTEX
  5
3B1D
330
3B04
100
AcDbEntity
  8
MODEL
100
AcDbVertex
100
AcDb2dVertex
 10
526.6922887633968
 20
2074.244067834974
 30
0.0
  0
VERTEX
  5
3B1E
330
3B04
100
AcDbEntity
  8
MODEL
100
AcDbVertex
100
AcDb2dVertex
 10
529.1108527308438
 20
2075.687324947931
 30
0.0
  0
SEQEND
  5
3B1F
330
3B04
100
AcDbEntity
  8
MODEL
  0
POLYLINE
  5
3C55
330
A
100
AcDbEntity
  8
MODEL
100
AcDb2dPolyline
 66
     1
 10
0.0
 20
0.0
 30
0.0
  0
VERTEX
  5
3C56
330
3C55
100
AcDbEntity
  8
MODEL
100
AcDbVertex
100
AcDb2dVertex
 10
571.5999152343161
 20
841.840703837958
 30
0.0
  0
VERTEX
  5
3C57
330
3C55
100
AcDbEntity
  8
MODEL
100
AcDbVertex
100
AcDb2dVertex
 10
573.7590541461918
 20
844.7173664794841
 30
0.0
  0
SEQEND
  5
3C58
330
3C55
100
AcDbEntity
  8
MODEL
  0
POLYLINE
  5
3C59
330
A
100
AcDbEntity
  8
MODEL
100
AcDb2dPolyline
 66
     1
 10
0.0
 20
0.0
 30
0.0
  0
VERTEX
  5
3C5A
330
3C59
100
AcDbEntity
  8
MODEL
100
AcDbVertex
100
AcDb2dVertex
 10
522.038236105057
 20
839.8736708216629
 30
0.0
  0
VERTEX
  5
3C5B
330
3C59
100
AcDbEntity
  8
MODEL
100
AcDbVertex
100
AcDb2dVertex
 10
524.0257932554928
 20
839.8736708216629
 30
0.0
  0
VERTEX
  5
3C5C
330
3C59
100
AcDbEntity
  8
MODEL
100
AcDbVertex
100
AcDb2dVertex
 10
526.337631725396
 20
839.8736708216629
 30
0.0
  0
VERTEX
  5
3C5D
330
3C59
100
AcDbEntity
  8
MODEL
100
AcDbVertex
100
AcDb2dVertex
 10
528.859637328926
 20
839.8736708216629
 30
0.0
  0
VERTEX
  5
3C5E
330
3C59
100
AcDbEntity
  8
MODEL
100
AcDbVertex
100
AcDb2dVertex
 10
531.5023248412208
 20
839.8736708216629
 30
0.0
  0
VERTEX
  5
3C5F
330
3C59
100
AcDbEntity
  8
MODEL
100
AcDbVertex
100
AcDb2dVertex
 10
534.195912206188
 20
839.8736708216629
 30
0.0
  0
VERTEX
  5
3C60
330
3C59
100
AcDbEntity
  8
MODEL
100
AcDbVertex
100
AcDb2dVertex
 10
536.8624077140857
 20
839.8736708216629
 30
0.0
  0
VERTEX
  5
3C61
330
3C59
100
AcDbEntity
  8
MODEL
100
AcDbVertex
100
AcDb2dVertex
 10
541.9236591938247
 20
839.8736708216629
 30
0.0
  0
VERTEX
  5
3C62
330
3C59
100
AcDbEntity
  8
MODEL
100
AcDbVertex
100
AcDb2dVertex
 10
546.3913527141399
 20
839.8736708216629
 30
0.0
  0
VERTEX
  5
3C63
330
3C59
100
AcDbEntity
  8
MODEL
100
AcDbVertex
100
AcDb2dVertex
 10
550.1201774052961
 20
839.8736708216629
 30
0.0
  0
VERTEX
  5
3C64
330
3C59
100
AcDbEntity
  8
MODEL
100
AcDbVertex
100
AcDb2dVertex
 10
553.1987975267921
 20
839.8736708216629
 30
0.0
  0
VERTEX
  5
3C65
330
3C59
100
AcDbEntity
  8
MODEL
100
AcDbVertex
100
AcDb2dVertex
 10
556.1690502200117
 20
839.8736708216629
 30
0.0
  0
VERTEX
  5
3C66
330
3C59
100
AcDbEntity
  8
MODEL
100
AcDbVertex
100
AcDb2dVertex
 10
559.032577415685
 20
839.8736708216629
 30
0.0
  0
VERTEX
  5
3C67
330
3C59
100
AcDbEntity
  8
MODEL
100
AcDbVertex
100
AcDb2dVertex
 10
561.6842955470029
 20
839.8736708216629
 30
0.0
  0
VERTEX
  5
3C68
330
3C59
100
AcDbEntity
  8
MODEL
100
AcDbVertex
100
AcDb2dVertex
 10
564.020762977877
 20
839.8736708216629
 30
0.0
  0
VERTEX
  5
3C69
330
3C59
100
AcDbEntity
  8
MODEL
100
AcDbVertex
100
AcDb2dVertex
 10
565.9451057951528
 20
839.8736708216629
 30
0.0
  0
VERTEX
  5
3C6A
330
3C59
100
AcDbEntity
  8
MODEL
100
AcDbVertex
100
AcDb2dVertex
 10
567.440904691518
 20
839.8982997826349
 30
0.0
  0
VERTEX
  5
3C6B
330
3C59
100
AcDbEntity
  8
MODEL
100
AcDbVertex
100
AcDb2dVertex
 10
568.811916852289
 20
840.067418647976
 30
0.0
  0
VERTEX
  5
3C6C
330
3C59
100
AcDbEntity
  8
MODEL
100
AcDbVertex
100
AcDb2dVertex
 10
570.2305450042741
 20
840.6010461357021
 30
0.0
  0
VERTEX
  5
3C6D
330
3C59
100
AcDbEntity
  8
MODEL
100
AcDbVertex
100
AcDb2dVertex
 10
571.5999152343161
 20
841.840703837958
 30
0.0
  0
SEQEND
  5
3C6E
330
3C59
100
AcDbEntity
  8
MODEL
  0
POLYLINE
  5
3C74
330
A
100
AcDbEntity
  8
MODEL
100
AcDb2dPolyline
 66
     1
 10
0.0
 20
0.0
 30
0.0
  0
VERTEX
  5
3EE5
330
3C74
100
AcDbEntity
  8
MODEL
100
AcDbVertex
100
AcDb2dVertex
 10
310.667989388251
 20
844.7206503409459
 30
0.0
  0
VERTEX
  5
3EE6
330
3C74
100
AcDbEntity
  8
MODEL
100
AcDbVertex
100
AcDb2dVertex
 10
545.0761661982388
 20
844.7206503409459
 30
0.0
  0
SEQEND
  5
3EE8
330
3C74
100
AcDbEntity
  8
MODEL
  0
POLYLINE
  5
3C79
330
A
100
AcDbEntity
  8
MODEL
100
AcDb2dPolyline
 66
     1
 10
0.0
 20
0.0
 30
0.0
  0
VERTEX
  5
3C7A
330
3C79
100
AcDbEntity
  8
MODEL
100
AcDbVertex
100
AcDb2dVertex
 10
307.804861021114
 20
847.7220997180641
 30
0.0
  0
VERTEX
  5
3C7B
330
3C79
100
AcDbEntity
  8
MODEL
100
AcDbVertex
100
AcDb2dVertex
 10
307.804861021114
 20
941.724276025145
 30
0.0
  0
SEQEND
  5
3C7C
330
3C79
100
AcDbEntity
  8
MODEL
  0
POLYLINE
  5
3C82
330
A
100
AcDbEntity
  8
MODEL
100
AcDb2dPolyline
 66
     1
 10
0.0
 20
0.0
 30
0.0
  0
VERTEX
  5
3EDF
330
3C82
100
AcDbEntity
  8
MODEL
100
AcDbVertex
100
AcDb2dVertex
 10
310.6055188663308
 20
944.7224415408
 30
0.0
  0
VERTEX
  5
3EE0
330
3C82
100
AcDbEntity
  8
MODEL
100
AcDbVertex
100
AcDb2dVertex
 10
545.0761661982388
 20
944.7224415408
 30
0.0
  0
SEQEND
  5
3EE7
330
3C82
100
AcDbEntity
  8
MODEL
  0
POLYLINE
  5
3C86
330
A
100
AcDbEntity
  8
MODEL
100
AcDb2dPolyline
 66
     1
 10
0.0
 20
0.0
 30
0.0
  0
VERTEX
  5
3C87
330
3C86
100
AcDbEntity
  8
MODEL
100
AcDbVertex
100
AcDb2dVertex
 10
522.0521925162748
 20
839.957409288967
 30
0.0
  0
VERTEX
  5
3C88
330
3C86
100
AcDbEntity
  8
MODEL
100
AcDbVertex
100
AcDb2dVertex
 10
522.5480555971781
 20
839.8391902763019
 30
0.0
  0
SEQEND
  5
3C89
330
3C86
100
AcDbEntity
  8
MODEL
  0
POLYLINE
  5
3C9A
330
A
100
AcDbEntity
  8
MODEL
100
AcDb2dPolyline
 66
     1
 10
0.0
 20
0.0
 30
0.0
  0
VERTEX
  5
3EF1
330
3C9A
100
AcDbEntity
  8
MODEL
100
AcDbVertex
100
AcDb2dVertex
 10
310.8054894328657
 20
844.7206503409459
 30
0.0
  0
VERTEX
  5
3EF2
330
3C9A
100
AcDbEntity
  8
MODEL
100
AcDbVertex
100
AcDb2dVertex
 10
310.8054894328657
 20
844.7173664794841
 30
0.0
  0
SEQEND
  5
3EF3
330
3C9A
100
AcDbEntity
  8
MODEL
  0
POLYLINE
  5
3CC2
330
A
100
AcDbEntity
  8
MODEL
100
AcDb2dPolyline
 66
     1
 10
0.0
 20
0.0
 30
0.0
  0
VERTEX
  5
3CC3
330
3CC2
100
AcDbEntity
  8
MODEL
100
AcDbVertex
100
AcDb2dVertex
 10
519.034323831841
 20
841.840703837958
 30
0.0
  0
VERTEX
  5
3CC4
330
3CC2
100
AcDbEntity
  8
MODEL
100
AcDbVertex
100
AcDb2dVertex
 10
571.4948316675041
 20
841.840703837958
 30
0.0
  0
SEQEND
  5
3CC5
330
3CC2
100
AcDbEntity
  8
MODEL
  0
POLYLINE
  5
3CC6
330
A
100
AcDbEntity
  8
MODEL
100
AcDb2dPolyline
 66
     1
 10
0.0
 20
0.0
 30
0.0
  0
VERTEX
  5
3CC7
330
3CC6
100
AcDbEntity
  8
MODEL
100
AcDbVertex
100
AcDb2dVertex
 10
517.1395357677329
 20
844.7206503409459
 30
0.0
  0
VERTEX
  5
3CC8
330
3CC6
100
AcDbEntity
  8
MODEL
100
AcDbVertex
100
AcDb2dVertex
 10
519.0376076933039
 20
841.84398769942
 30
0.0
  0
SEQEND
  5
3CC9
330
3CC6
100
AcDbEntity
  8
MODEL
  0
POLYLINE
  5
3CCA
330
A
100
AcDbEntity
  8
MODEL
100
AcDb2dPolyline
 66
     1
 10
0.0
 20
0.0
 30
0.0
  0
VERTEX
  5
3CCB
330
3CCA
100
AcDbEntity
  8
MODEL
100
AcDbVertex
100
AcDb2dVertex
 10
519.034323831841
 20
841.840703837958
 30
0.0
  0
VERTEX
  5
3CCC
330
3CCA
100
AcDbEntity
  8
MODEL
100
AcDbVertex
100
AcDb2dVertex
 10
520.801862264264
 20
840.249672959168
 30
0.0
  0
VERTEX
  5
3CCD
330
3CCA
100
AcDbEntity
  8
MODEL
100
AcDbVertex
100
AcDb2dVertex
 10
522.0521925162748
 20
839.957409288967
 30
0.0
  0
SEQEND
  5
3CCE
330
3CCA
100
AcDbEntity
  8
MODEL
  0
SPLINE
  5
3D1D
330
A
100
AcDbEntity
  8
MODEL
100
AcDbSpline
210
0.0
220
0.0
230
1.0
 70
    11
 71
     3
 72
    17
 73
    13
 74
     0
 42
0.000000001
 43
0.0000000001
 40
0.0
 40
0.0
 40
0.0
 40
0.0
 40
1.0
 40
1.0
 40
1.0
 40
2.0
 40
2.0
 40
2.0
 40
3.0
 40
3.0
 40
3.0
 40
4.0
 40
4.0
 40
4.0
 40
4.0
 10
788.7124158558868
 20
2047.868092564726
 30
0.0
 10
788.7124158558868
 20
2057.533317815492
 30
0.0
 10
796.5509931679007
 20
2065.369432231408
 30
0.0
 10
806.2137555225686
 20
2065.369432231408
 30
0.0
 10
815.8781598079686
 20
2065.369432231408
 30
0.0
 10
823.711811327787
 20
2057.533317815492
 30
0.0
 10
823.711811327787
 20
2047.868092564726
 30
0.0
 10
823.711811327787
 20
2038.201225383229
 30
0.0
 10
815.8781598079686
 20
2030.370857724874
 30
0.0
 10
806.2137555225686
 20
2030.370857724874
 30
0.0
 10
796.5509931679007
 20
2030.370857724874
 30
0.0
 10
788.7124158558868
 20
2038.201225383229
 30
0.0
 10
788.7124158558868
 20
2047.868092564726
 30
0.0
  0
DIMENSION
  5
3D3D
330
A
100
AcDbEntity
  8
DIM
100
AcDbDimension
  2
*D31
 10
857.8048610359201
 20
2397.087439992311
 30
0.0
 11
701.4405136170799
 21
2429.087439992311
 31
0.0
 70
    32
  1
313.5
 71
     5
 42
312.7286948376805
 73
     0
 74
     0
 75
     0
  3
tfrom線あり
100
AcDbAlignedDimension
 13
545.0761661982397
 23
2187.206205903608
 33
0.0
 14
857.8048610359201
 24
2206.692447187603
 34
0.0
100
AcDbRotatedDimension
1001
ACAD
1000
DSTYLE
1002
{
1070
   271
1070
     8
1070
   144
1040
1.0
1002
}
  0
DIMENSION
  5
3D4C
330
A
100
AcDbEntity
  8
DIM
100
AcDbDimension
  2
*D32
 10
761.2133599653166
 20
2329.077144625589
 30
0.0
 11
809.5091105006184
 21
2361.077144625589
 31
0.0
 70
    32
  1
96
 71
     5
 42
96.5915010706035
 73
     0
 74
     0
 75
     0
  3
tfrom線あり
100
AcDbAlignedDimension
 13
857.8048610359201
 23
2206.057832541784
 33
0.0
 14
761.2133599653166
 24
2220.831080967715
 34
0.0
100
AcDbRotatedDimension
1001
ACAD
1000
DSTYLE
1002
{
1070
   144
1040
1.0
1002
}
  0
DIMENSION
  5
3D5B
330
A
100
AcDbEntity
  8
DIM
100
AcDbDimension
  2
*D33
 10
806.2137555225686
 20
2246.821251906784
 30
0.0
 11
783.7135577439426
 21
2246.821251906784
 31
0.0
 70
   160
 71
     5
 42
45.00039555725198
 73
     0
 74
     0
 75
     0
  3
tfrom線あり
100
AcDbAlignedDimension
 13
761.2133599653166
 23
2175.947942493172
 33
0.0
 14
806.2137555225686
 24
2073.855713625739
 34
0.0
100
AcDbRotatedDimension
1001
ACAD
1000
DSTYLE
1002
{
1070
   144
1040
1.0
1002
}
  0
DIMENSION
  5
3D7B
330
A
100
AcDbEntity
  8
DIM
100
AcDbDimension
  2
*D35
 10
327.3971994743169
 20
1795.702616152536
 30
0.0
 11
544.3052797198168
 21
1827.702616152536
 31
0.0
 70
    32
 71
     5
 42
433.8161604909997
 73
     0
 74
     0
 75
     0
  3
tfrom線あり
100
AcDbAlignedDimension
 13
761.2133599653166
 23
1920.990385849886
 33
0.0
 14
327.3971994743169
 24
1926.875065591455
 34
0.0
100
AcDbRotatedDimension
1001
ACAD
1000
DSTYLE
1002
{
1070
   144
1040
1.0
1002
}
  0
DIMENSION
  5
3D99
330
A
100
AcDbEntity
  8
DIM
100
AcDbDimension
  2
*D37
 10
208.7785334291246
 20
2182.495739995071
 30
0.0
 11
176.7785334291246
 21
2047.869324012775
 31
0.0
 70
    32
 71
     5
 42
269.2528319645928
 73
     0
 74
     0
 75
     0
  3
tfrom線あり
100
AcDbAlignedDimension
 13
321.1994374517171
 23
1913.242908030478
 33
0.0
 14
328.7654542623054
 24
2182.495739995071
 34
0.0
 50
90.0
100
AcDbRotatedDimension
1001
ACAD
1000
DSTYLE
1002
{
1070
   144
1040
1.0
1002
}
  0
DIMENSION
  5
3DA8
330
A
100
AcDbEntity
  8
DIM
100
AcDbDimension
  2
*D38
 10
1007.561122693949
 20
2197.867495503041
 30
0.0
 11
975.5611226939485
 21
2047.868092564724
 31
0.0
 70
    32
 71
     5
 42
299.9988058766342
 73
     0
 74
     0
 75
     0
 52
-90.0
  3
tfrom線あり
100
AcDbAlignedDimension
 13
857.5079025079513
 23
1897.868689626407
 33
0.0
 14
857.5079025079525
 24
2197.867495503041
 34
0.0
 50
89.99999999999977
100
AcDbRotatedDimension
1001
ACAD
1000
DSTYLE
1002
{
1070
   144
1040
1.0
1002
}
  0
SPLINE
  5
3DB7
330
A
100
AcDbEntity
  8
MODEL
100
AcDbSpline
210
0.0
220
0.0
230
1.0
 70
     8
 71
     3
 72
    14
 73
    10
 74
     0
 42
0.000000001
 43
0.0000000001
 40
0.0
 40
0.0
 40
0.0
 40
0.0
 40
1.0
 40
1.0
 40
1.0
 40
2.0
 40
2.0
 40
2.0
 40
3.0
 40
3.0
 40
3.0
 40
3.0
 10
526.7374418585118
 20
2080.136957230201
 30
0.0
 10
508.9052531494417
 20
2070.449565914559
 30
0.0
 10
502.3014077474909
 20
2048.145578858343
 30
0.0
 10
511.9855152016689
 20
2030.314211114638
 30
0.0
 10
521.6696226558479
 20
2012.483664336298
 30
0.0
 10
543.9760726081599
 20
2005.879818934347
 30
0.0
 10
561.8041564904029
 20
2015.563926388526
 30
0.0
 10
561.8337112435688
 20
2015.573777972914
 30
0.0
 10
561.8566982738098
 20
2015.587734384132
 30
0.0
 10
561.8731175811249
 20
2015.603332726081
 30
0.0
  0
SPLINE
  5
3DB8
330
A
100
AcDbEntity
  8
MODEL
100
AcDbSpline
210
0.0
220
0.0
230
1.0
 70
     8
 71
     3
 72
    14
 73
    10
 74
     0
 42
0.000000001
 43
0.0000000001
 40
0.0
 40
0.0
 40
0.0
 40
0.0
 40
1.0
 40
1.0
 40
1.0
 40
2.0
 40
2.0
 40
2.0
 40
3.0
 40
3.0
 40
3.0
 40
3.0
 10
561.8731175811249
 20
2015.601690795349
 30
0.0
 10
579.709411117025
 20
2025.284156318796
 30
0.0
 10
586.3132565189758
 20
2047.591427236475
 30
0.0
 10
576.6291490647968
 20
2065.424436910912
 30
0.0
 10
566.9450416106188
 20
2083.252520793155
 30
0.0
 10
544.6344868314768
 20
2089.857187160471
 30
0.0
 10
526.8064029492348
 20
2080.173079706293
 30
0.0
 10
526.7825949536277
 20
2080.159123295075
 30
0.0
 10
526.7612498541189
 20
2080.149271710687
 30
0.0
 10
526.7374418585118
 20
2080.135315299469
 30
0.0
  0
LINE
  5
3DB9
330
A
100
AcDbEntity
  8
MODEL
100
AcDbLine
 10
529.1075688693818
 20
2075.687324947931
 30
0.0
 11
533.6688524413908
 21
2077.691301405684
 31
0.0
  0
LINE
  5
3DBA
330
A
100
AcDbEntity
  8
MODEL
100
AcDbLine
 10
533.6688524413908
 20
2077.691301405684
 30
0.0
 11
537.8204742958987
 21
2078.829159402589
 31
0.0
  0
LINE
  5
3DBB
330
A
100
AcDbEntity
  8
MODEL
100
AcDbLine
 10
537.8204742958987
 20
2078.829159402589
 30
0.0
 11
541.610050424119
 21
2079.366891717144
 31
0.0
  0
LINE
  5
3DBC
330
A
100
AcDbEntity
  8
MODEL
100
AcDbLine
 10
541.610050424119
 20
2079.366891717144
 30
0.0
 11
545.2173722411458
 21
2079.465407561031
 31
0.0
  0
LINE
  5
3DBD
330
A
100
AcDbEntity
  8
MODEL
100
AcDbLine
 10
545.2173722411458
 20
2079.465407561031
 30
0.0
 11
548.8887293567
 21
2079.158366514248
 31
0.0
  0
LINE
  5
3DBE
330
A
100
AcDbEntity
  8
MODEL
100
AcDbLine
 10
548.8887293567
 20
2079.158366514248
 30
0.0
 11
552.8474243502619
 21
2078.339864044613
 31
0.0
  0
LINE
  5
3DBF
330
A
100
AcDbEntity
  8
MODEL
100
AcDbLine
 10
552.8474243502619
 20
2078.339864044613
 30
0.0
 11
555.7076676844717
 21
2077.412173181335
 31
0.0
  0
LINE
  5
3DC0
330
A
100
AcDbEntity
  8
MODEL
100
AcDbLine
 10
555.7076676844717
 20
2077.412173181335
 30
0.0
 11
558.7534491913398
 21
2076.074820600556
 31
0.0
  0
LINE
  5
3DC1
330
A
100
AcDbEntity
  8
MODEL
100
AcDbLine
 10
558.7534491913398
 20
2076.074820600556
 30
0.0
 11
561.963423771354
 21
2074.220259839367
 31
0.0
  0
LINE
  5
3DC2
330
A
100
AcDbEntity
  8
MODEL
100
AcDbLine
 10
561.963423771354
 20
2074.220259839367
 30
0.0
 11
564.4410972451346
 21
2072.402642519636
 31
0.0
  0
LINE
  5
3DC3
330
A
100
AcDbEntity
  8
MODEL
100
AcDbLine
 10
564.4410972451346
 20
2072.402642519636
 30
0.0
 11
566.9302642340349
 21
2070.148271625335
 31
0.0
  0
LINE
  5
3DC4
330
A
100
AcDbEntity
  8
MODEL
100
AcDbLine
 10
566.9302642340349
 20
2070.148271625335
 30
0.0
 11
569.3701733009898
 21
2067.386544135012
 31
0.0
  0
LINE
  5
3DC5
330
A
100
AcDbEntity
  8
MODEL
100
AcDbLine
 10
569.3701733009898
 20
2067.386544135012
 30
0.0
 11
571.6655924635779
 21
2064.045215096482
 31
0.0
  0
LINE
  5
3DC6
330
A
100
AcDbEntity
  8
MODEL
100
AcDbLine
 10
571.6655924635779
 20
2064.045215096482
 30
0.0
 11
573.6621802330378
 21
2060.072563691702
 31
0.0
  0
LINE
  5
3DC7
330
A
100
AcDbEntity
  8
MODEL
100
AcDbLine
 10
573.6621802330378
 20
2060.072563691702
 30
0.0
 11
575.1760403674507
 21
2055.494039847013
 31
0.0
  0
LINE
  5
3DC8
330
A
100
AcDbEntity
  8
MODEL
100
AcDbLine
 10
575.1760403674507
 20
2055.494039847013
 30
0.0
 11
575.9986476639128
 21
2050.441818986297
 31
0.0
  0
LINE
  5
3DC9
330
A
100
AcDbEntity
  8
MODEL
100
AcDbLine
 10
575.9986476639128
 20
2050.441818986297
 30
0.0
 11
575.9953638024508
 21
2045.213911537314
 31
0.0
  0
LINE
  5
3DCA
330
A
100
AcDbEntity
  8
MODEL
100
AcDbLine
 10
575.9953638024508
 20
2045.213911537314
 30
0.0
 11
575.1579791294039
 21
2040.16497453806
 31
0.0
  0
LINE
  5
3DCB
330
A
100
AcDbEntity
  8
MODEL
100
AcDbLine
 10
575.1579791294039
 20
2040.16497453806
 30
0.0
 11
573.6326254798728
 21
2035.597123243125
 31
0.0
  0
LINE
  5
3DCC
330
A
100
AcDbEntity
  8
MODEL
100
AcDbLine
 10
573.6326254798728
 20
2035.597123243125
 30
0.0
 11
571.6294699874866
 21
2031.635144388101
 31
0.0
  0
LINE
  5
3DCD
330
A
100
AcDbEntity
  8
MODEL
100
AcDbLine
 10
571.6294699874866
 20
2031.635144388101
 30
0.0
 11
569.3324088941677
 21
2028.302025003228
 31
0.0
  0
LINE
  5
3DCE
330
A
100
AcDbEntity
  8
MODEL
100
AcDbLine
 10
569.3324088941677
 20
2028.302025003228
 30
0.0
 11
566.8908578964788
 21
2025.546044270464
 31
0.0
  0
LINE
  5
3DCF
330
A
100
AcDbEntity
  8
MODEL
100
AcDbLine
 10
566.8908578964788
 20
2025.546044270464
 30
0.0
 11
564.398407046117
 21
2023.303166891284
 31
0.0
  0
LINE
  5
3DD0
330
A
100
AcDbEntity
  8
MODEL
100
AcDbLine
 10
564.398407046117
 20
2023.303166891284
 30
0.0
 11
561.9223755030666
 21
2021.489654398381
 31
0.0
  0
LINE
  5
3DD1
330
A
100
AcDbEntity
  8
MODEL
100
AcDbLine
 10
561.9223755030666
 20
2021.489654398381
 30
0.0
 11
559.5038115356197
 21
2020.051323077618
 31
0.0
  0
SPLINE
  5
3DD2
330
A
100
AcDbEntity
  8
MODEL
100
AcDbSpline
210
0.0
220
0.0
230
1.0
 70
     8
 71
     3
 72
    11
 73
     7
 74
     0
 42
0.000000001
 43
0.0000000001
 40
0.0
 40
0.0
 40
0.0
 40
0.0
 40
1.0
 40
1.0
 40
1.0
 40
2.0
 40
2.0
 40
2.0
 40
2.0
 10
531.6500986070546
 20
2071.036556151058
 30
0.0
 10
518.8553533821168
 20
2064.048498957945
 30
0.0
 10
514.1487589403737
 20
2048.00601474617
 30
0.0
 10
521.1392790295836
 20
2035.211269521231
 30
0.0
 10
528.1289781534297
 20
2022.415703330928
 30
0.0
 10
544.1665365730096
 20
2017.70992985455
 30
0.0
 10
556.9604608325826
 20
2024.697987047663
 30
0.0
  0
SPLINE
  5
3DD3
330
A
100
AcDbEntity
  8
MODEL
100
AcDbSpline
210
0.0
220
0.0
230
1.0
 70
     8
 71
     3
 72
    11
 73
     7
 74
     0
 42
0.000000001
 43
0.0000000001
 40
0.0
 40
0.0
 40
0.0
 40
0.0
 40
1.0
 40
1.0
 40
1.0
 40
2.0
 40
2.0
 40
2.0
 40
2.0
 10
556.9604608325826
 20
2024.70044994376
 30
0.0
 10
569.7560270228869
 20
2031.688507136874
 30
0.0
 10
574.4634424299957
 20
2047.728528452552
 30
0.0
 10
567.4721013754188
 20
2060.524094642856
 30
0.0
 10
560.4824022515736
 20
2073.318839867794
 30
0.0
 10
544.4456647973589
 20
2078.024613344171
 30
0.0
 10
531.6500986070546
 20
2071.036556151058
 30
0.0
  0
SPLINE
  5
3DD4
330
A
100
AcDbEntity
  8
MODEL
100
AcDbSpline
210
0.0
220
0.0
230
1.0
 70
     8
 71
     3
 72
    11
 73
     7
 74
     0
 42
0.000000001
 43
0.0000000001
 40
0.0
 40
0.0
 40
0.0
 40
0.0
 40
1.0
 40
1.0
 40
1.0
 40
2.0
 40
2.0
 40
2.0
 40
2.0
 10
555.81439318202
 20
2026.80704707223
 30
0.0
 10
567.4458304837158
 20
2033.159677072266
 30
0.0
 10
571.724701969913
 20
2047.744126794501
 30
0.0
 10
565.3671461776817
 20
2059.374743130831
 30
0.0
 10
559.014516177645
 20
2071.00535946716
 30
0.0
 10
544.4325293515076
 20
2075.284230953357
 30
0.0
 10
532.8010920498118
 20
2068.928317091858
 30
0.0
  0
SPLINE
  5
3DD5
330
A
100
AcDbEntity
  8
MODEL
100
AcDbSpline
210
0.0
220
0.0
230
1.0
 70
     8
 71
     3
 72
    11
 73
     7
 74
     0
 42
0.000000001
 43
0.0000000001
 40
0.0
 40
0.0
 40
0.0
 40
0.0
 40
1.0
 40
1.0
 40
1.0
 40
2.0
 40
2.0
 40
2.0
 40
2.0
 10
532.8010920498118
 20
2068.929959022589
 30
0.0
 10
521.1704757134817
 20
2062.575687091821
 30
0.0
 10
516.8916042272849
 20
2047.992058334952
 30
0.0
 10
523.247518088785
 20
2036.359800067891
 30
0.0
 10
529.6001480888217
 20
2024.729183731561
 30
0.0
 10
544.1796720188618
 20
2020.450312245364
 30
0.0
 10
555.811109320558
 20
2026.808689002961
 30
0.0
  0
SPLINE
  5
3DD6
330
A
100
AcDbEntity
  8
MODEL
100
AcDbSpline
210
0.0
220
0.0
230
1.0
 70
     8
 71
     3
 72
    11
 73
     7
 74
     0
 42
0.000000001
 43
0.0000000001
 40
0.0
 40
0.0
 40
0.0
 40
0.0
 40
1.0
 40
1.0
 40
1.0
 40
2.0
 40
2.0
 40
2.0
 40
2.0
 10
533.2797148580339
 20
2068.053168011987
 30
0.0
 10
522.1310051913888
 20
2061.96406789435
 30
0.0
 10
518.0319251202877
 20
2047.990416404221
 30
0.0
 10
524.122667168655
 20
2036.842527702941
 30
0.0
 10
530.2101253555606
 20
2025.693818036297
 30
0.0
 10
544.1862397417876
 20
2021.596379895927
 30
0.0
 10
555.3316655469698
 20
2027.683838082832
 30
0.0
  0
SPLINE
  5
3DD7
330
A
100
AcDbEntity
  8
MODEL
100
AcDbSpline
210
0.0
220
0.0
230
1.0
 70
     8
 71
     3
 72
    11
 73
     7
 74
     0
 42
0.000000001
 43
0.0000000001
 40
0.0
 40
0.0
 40
0.0
 40
0.0
 40
1.0
 40
1.0
 40
1.0
 40
2.0
 40
2.0
 40
2.0
 40
2.0
 10
555.3316655469698
 20
2027.683838082832
 30
0.0
 10
566.480375213614
 20
2033.776222061931
 30
0.0
 10
570.5786343193499
 20
2047.745768725232
 30
0.0
 10
564.4919970978108
 20
2058.896120322609
 30
0.0
 10
558.4020760148087
 20
2070.040725162425
 30
0.0
 10
544.427603559313
 20
2074.140626198892
 30
0.0
 10
533.2797148580339
 20
2068.051526081254
 30
0.0
  0
DIMENSION
  5
3DF4
330
A
100
AcDbEntity
  8
DIM
100
AcDbDimension
  2
*D41
 10
961.9235124161028
 20
944.7224415408
 30
0.0
 11
929.9235124161028
 21
892.280815908551
 31
0.0
 70
    32
 71
     5
 42
104.8832512644981
 73
     0
 74
     0
 75
     0
  3
tfrom線あり
100
AcDbAlignedDimension
 13
597.8266030977975
 23
839.8391902763019
 33
0.0
 14
858.5730876356465
 24
944.7224415408
 34
0.0
 50
90.0
100
AcDbRotatedDimension
1001
ACAD
1000
DSTYLE
1002
{
1070
   144
1040
1.0
1002
}
  0
SPLINE
  5
3ED7
330
A
100
AcDbEntity
  8
MODEL
100
AcDbSpline
210
0.0
220
0.0
230
1.0
 70
     8
 71
     3
 72
     8
 73
     4
 74
     0
 42
0.000000001
 43
0.0000000001
 40
0.0
 40
0.0
 40
0.0
 40
0.0
 40
1.0
 40
1.0
 40
1.0
 40
1.0
 10
310.8054894328648
 20
944.729009263725
 30
0.0
 10
309.1487813248177
 20
944.729009263725
 30
0.0
 10
307.804861021114
 20
943.384267994656
 30
0.0
 10
307.804861021114
 20
941.724276025145
 30
0.0
  0
SPLINE
  5
3EDE
330
A
100
AcDbEntity
  8
MODEL
100
AcDbSpline
210
0.0
220
0.0
230
1.0
 70
     8
 71
     3
 72
     8
 73
     4
 74
     0
 42
0.000000001
 43
0.0000000001
 40
0.0
 40
0.0
 40
0.0
 40
0.0
 40
1.0
 40
1.0
 40
1.0
 40
1.0
 10
307.8048610211149
 20
847.7220997180641
 30
0.0
 10
307.8048610211149
 20
846.062107748553
 30
0.0
 10
309.152065186282
 20
844.7173664794841
 30
0.0
 10
310.8095942596947
 20
844.7173664794841
 30
0.0
  0
POLYLINE
  5
3EFD
330
A
100
AcDbEntity
  8
MODEL
100
AcDb2dPolyline
 66
     1
 10
0.0
 20
0.0
 30
0.0
  0
VERTEX
  5
3EFE
330
3EFD
100
AcDbEntity
  8
MODEL
100
AcDbVertex
100
AcDb2dVertex
 10
857.8048610359178
 20
847.7220997180641
 30
0.0
  0
VERTEX
  5
3EFF
330
3EFD
100
AcDbEntity
  8
MODEL
100
AcDbVertex
100
AcDb2dVertex
 10
857.8048610359178
 20
941.724276025145
 30
0.0
  0
SEQEND
  5
3F00
330
3EFD
100
AcDbEntity
  8
MODEL
  0
SPLINE
  5
3F01
330
A
100
AcDbEntity
  8
MODEL
100
AcDbSpline
210
0.0
220
0.0
230
1.0
 70
     8
 71
     3
 72
     8
 73
     4
 74
     0
 42
0.000000001
 43
0.0000000001
 40
0.0
 40
0.0
 40
0.0
 40
0.0
 40
1.0
 40
1.0
 40
1.0
 40
1.0
 10
854.8042326241671
 20
944.729009263725
 30
0.0
 10
856.460940732215
 20
944.729009263725
 30
0.0
 10
857.8048610359178
 20
943.384267994656
 30
0.0
 10
857.8048610359178
 20
941.724276025145
 30
0.0
  0
SPLINE
  5
3F02
330
A
100
AcDbEntity
  8
MODEL
100
AcDbSpline
210
0.0
220
0.0
230
1.0
 70
     8
 71
     3
 72
     8
 73
     4
 74
     0
 42
0.000000001
 43
0.0000000001
 40
0.0
 40
0.0
 40
0.0
 40
0.0
 40
1.0
 40
1.0
 40
1.0
 40
1.0
 10
857.8048610359178
 20
847.7220997180641
 30
0.0
 10
857.8048610359178
 20
846.062107748553
 30
0.0
 10
856.4576568707507
 20
844.7173664794841
 30
0.0
 10
854.8001277973367
 20
844.7173664794841
 30
0.0
  0
POLYLINE
  5
3F03
330
A
100
AcDbEntity
  8
MODEL
100
AcDb2dPolyline
 66
     1
 10
0.0
 20
0.0
 30
0.0
  0
VERTEX
  5
3F04
330
3F03
100
AcDbEntity
  8
MODEL
100
AcDbVertex
100
AcDb2dVertex
 10
855.0042031907019
 20
944.7224415408
 30
0.0
  0
VERTEX
  5
3F05
330
3F03
100
AcDbEntity
  8
MODEL
100
AcDbVertex
100
AcDb2dVertex
 10
545.0761661982388
 20
944.7224415408
 30
0.0
  0
SEQEND
  5
3F06
330
3F03
100
AcDbEntity
  8
MODEL
  0
POLYLINE
  5
3F07
330
A
100
AcDbEntity
  8
MODEL
100
AcDb2dPolyline
 66
     1
 10
0.0
 20
0.0
 30
0.0
  0
VERTEX
  5
3F08
330
3F07
100
AcDbEntity
  8
MODEL
100
AcDbVertex
100
AcDb2dVertex
 10
854.8042326241671
 20
844.7206503409459
 30
0.0
  0
VERTEX
  5
3F09
330
3F07
100
AcDbEntity
  8
MODEL
100
AcDbVertex
100
AcDb2dVertex
 10
545.0761661982388
 20
844.7206503409459
 30
0.0
  0
SEQEND
  5
3F0A
330
3F07
100
AcDbEntity
  8
MODEL
  0
POLYLINE
  5
3F0B
330
A
100
AcDbEntity
  8
MODEL
100
AcDb2dPolyline
 66
     1
 10
0.0
 20
0.0
 30
0.0
  0
VERTEX
  5
3F0C
330
3F0B
100
AcDbEntity
  8
MODEL
100
AcDbVertex
100
AcDb2dVertex
 10
854.8042326241671
 20
844.7206503409459
 30
0.0
  0
VERTEX
  5
3F0D
330
3F0B
100
AcDbEntity
  8
MODEL
100
AcDbVertex
100
AcDb2dVertex
 10
854.8042326241671
 20
844.7173664794841
 30
0.0
  0
SEQEND
  5
3F0E
330
3F0B
100
AcDbEntity
  8
MODEL
  0
LINE
  5
3F1A
330
A
100
AcDbEntity
  8
HIDDEN
100
AcDbLine
 10
545.0761661982388
 20
854.7224415408
 30
0.0
 11
347.2820643809628
 21
858.5649855324159
 31
0.0
  0
LINE
  5
3F1B
330
A
100
AcDbEntity
  8
HIDDEN
100
AcDbLine
 10
335.5856223289838
 20
869.264066251852
 30
0.0
 11
327.3711747997791
 21
944.7224415408
 31
0.0
  0
ARC
  5
3F1F
330
A
100
AcDbEntity
  8
HIDDEN
100
AcDbCircle
 10
347.515144279193
 20
870.5627217255919
 30
0.0
 40
12.0
100
AcDbArc
 50
186.2127908368482
 51
268.8870554750862
  0
LINE
  5
3F31
330
A
100
AcDbEntity
  8
HIDDEN
100
AcDbLine
 10
545.0761661982388
 20
854.7224415408
 30
0.0
 11
742.8702680155147
 21
858.5649855324159
 31
0.0
  0
ARC
  5
3F32
330
A
100
AcDbEntity
  8
HIDDEN
100
AcDbCircle
 10
742.637188117285
 20
870.5627217255919
 30
0.0
 40
12.0
100
AcDbArc
 50
271.1129445249138
 51
353.7872091631518
  0
LINE
  5
3F33
330
A
100
AcDbEntity
  8
HIDDEN
100
AcDbLine
 10
754.5667100674941
 20
869.264066251852
 30
0.0
 11
762.7811575966989
 21
944.7224415408
 31
0.0
  0
LINE
  5
3F39
330
A
100
AcDbEntity
  8
HIDDEN
100
AcDbLine
 10
517.902355078872
 20
855.2503468912971
 30
0.0
 11
522.474939289028
 21
852.1076030991401
 31
0.0
  0
LINE
  5
3F3A
330
A
100
AcDbEntity
  8
HIDDEN
100
AcDbLine
 10
522.474939289028
 20
852.1076030991401
 30
0.0
 11
522.5480555971781
 21
839.8391902763019
 31
0.0
  0
LINE
  5
3F3B
330
A
100
AcDbEntity
  8
HIDDEN
100
AcDbLine
 10
522.474939289028
 20
852.1076030991401
 30
0.0
 11
545.0761661982388
 21
852.1076030991401
 31
0.0
  0
LINE
  5
3F3C
330
A
100
AcDbEntity
  8
HIDDEN
100
AcDbLine
 10
572.249977317606
 20
855.2503468912971
 30
0.0
 11
567.6773931074499
 21
852.1076030991401
 31
0.0
  0
LINE
  5
3F3D
330
A
100
AcDbEntity
  8
HIDDEN
100
AcDbLine
 10
567.6773931074499
 20
852.1076030991401
 30
0.0
 11
567.6042767992999
 21
839.8391902763019
 31
0.0
  0
LINE
  5
3F3E
330
A
100
AcDbEntity
  8
HIDDEN
100
AcDbLine
 10
567.6773931074499
 20
852.1076030991401
 30
0.0
 11
545.0761661982388
 21
852.1076030991401
 31
0.0
  0
LINE
  5
3F8D
330
A
100
AcDbEntity
  8
MODEL
100
AcDbLine
 10
1638.966752315001
 20
844.7206503409459
 30
0.0
 11
1641.129996053705
 21
841.84398769942
 31
0.0
  0
SPLINE
  5
3F8E
330
A
100
AcDbEntity
  8
MODEL
100
AcDbSpline
210
0.0
220
0.0
230
1.0
 70
     8
 71
     3
 72
     8
 73
     4
 74
     0
 42
0.000000001
 43
0.0000000001
 40
0.0
 40
0.0
 40
0.0
 40
0.0
 40
1.0
 40
1.0
 40
1.0
 40
1.0
 10
1641.119323503951
 20
841.840703837958
 30
0.0
 10
1642.091346496978
 20
840.545220490832
 30
0.0
 10
1643.6240888348
 20
839.801425869478
 30
0.0
 10
1645.239748674562
 20
839.8391902763019
 30
0.0
  0
SPLINE
  5
3F8F
330
A
100
AcDbEntity
  8
MODEL
100
AcDbSpline
210
0.0
220
0.0
230
1.0
 70
     8
 71
     3
 72
     8
 73
     4
 74
     0
 42
0.000000001
 43
0.0000000001
 40
0.0
 40
0.0
 40
0.0
 40
0.0
 40
1.0
 40
1.0
 40
1.0
 40
1.0
 10
1816.12040569028
 20
844.720650340947
 30
0.0
 10
1817.780397659791
 20
844.720650340947
 30
0.0
 10
1819.12349699813
 20
846.0653916100159
 30
0.0
 10
1819.12349699813
 20
847.7220997180641
 30
0.0
  0
LINE
  5
3F90
330
A
100
AcDbEntity
  8
MODEL
100
AcDbLine
 10
1522.11875181032
 20
844.7206503409459
 30
0.0
 11
1816.12040569028
 21
844.7206503409459
 31
0.0
  0
SPLINE
  5
3F91
330
A
100
AcDbEntity
  8
MODEL
100
AcDbSpline
210
0.0
220
0.0
230
1.0
 70
     8
 71
     3
 72
     8
 73
     4
 74
     0
 42
0.000000001
 43
0.0000000001
 40
0.0
 40
0.0
 40
0.0
 40
0.0
 40
1.0
 40
1.0
 40
1.0
 40
1.0
 10
1519.118123398569
 20
847.7220997180641
 30
0.0
 10
1519.118123398569
 20
846.062107748553
 30
0.0
 10
1520.465327563736
 20
844.7173664794841
 30
0.0
 10
1522.122856637149
 20
844.7173664794841
 30
0.0
  0
LINE
  5
3F92
330
A
100
AcDbEntity
  8
MODEL
100
AcDbLine
 10
1519.118123398568
 20
847.7220997180641
 30
0.0
 11
1519.118123398568
 21
941.724276025145
 31
0.0
  0
LINE
  5
3F93
330
A
100
AcDbEntity
  8
MODEL
100
AcDbLine
 10
1819.120213136666
 20
941.720992163682
 30
0.0
 11
1819.120213136666
 21
847.7220997180641
 31
0.0
  0
SPLINE
  5
3F94
330
A
100
AcDbEntity
  8
MODEL
100
AcDbSpline
210
0.0
220
0.0
230
1.0
 70
     8
 71
     3
 72
     8
 73
     4
 74
     0
 42
0.000000001
 43
0.0000000001
 40
0.0
 40
0.0
 40
0.0
 40
0.0
 40
1.0
 40
1.0
 40
1.0
 40
1.0
 10
1819.120213136666
 20
941.720992163682
 30
0.0
 10
1819.120213136666
 20
943.37770027173
 30
0.0
 10
1817.777113798328
 20
944.7224415408
 30
0.0
 10
1816.12040569028
 20
944.7224415408
 30
0.0
  0
SPLINE
  5
3F95
330
A
100
AcDbEntity
  8
MODEL
100
AcDbSpline
210
0.0
220
0.0
230
1.0
 70
     8
 71
     3
 72
     8
 73
     4
 74
     0
 42
0.000000001
 43
0.0000000001
 40
0.0
 40
0.0
 40
0.0
 40
0.0
 40
1.0
 40
1.0
 40
1.0
 40
1.0
 10
1522.118751810321
 20
944.7224415408
 30
0.0
 10
1520.462043702272
 20
944.7224415408
 30
0.0
 10
1519.118123398569
 20
943.37770027173
 30
0.0
 10
1519.118123398569
 20
941.71770830222
 30
0.0
  0
LINE
  5
3F96
102
{ACAD_REACTORS
330
4054
102
}
330
A
100
AcDbEntity
  8
MODEL
100
AcDbLine
 10
1522.11875181032
 20
944.7224415408
 30
0.0
 11
1816.12040569028
 21
944.7224415408
 31
0.0
  0
LINE
  5
3FA2
330
A
100
AcDbEntity
  8
MODEL
100
AcDbLine
 10
1519.118123398568
 20
941.720992163682
 30
0.0
 11
1519.118125151826
 21
941.720992163682
 31
0.0
  0
LINE
  5
3FAC
330
A
100
AcDbEntity
  8
MODEL
100
AcDbLine
 10
1645.239748674562
 20
839.8391902763019
 30
0.0
 11
1670.589517237645
 21
839.8391902763019
 31
0.0
  0
LINE
  5
3FAD
330
A
100
AcDbEntity
  8
MODEL
100
AcDbLine
 10
1695.939285800728
 20
839.8391902763019
 30
0.0
 11
1670.589517237645
 21
839.8391902763019
 31
0.0
  0
SPLINE
  5
3FAE
330
A
100
AcDbEntity
  8
MODEL
100
AcDbSpline
210
0.0
220
0.0
230
1.0
 70
     8
 71
     3
 72
     8
 73
     4
 74
     0
 42
0.000000001
 43
0.0000000001
 40
0.0
 40
0.0
 40
0.0
 40
0.0
 40
1.0
 40
1.0
 40
1.0
 40
1.0
 10
1700.059710971339
 20
841.840703837958
 30
0.0
 10
1699.087687978312
 20
840.545220490832
 30
0.0
 10
1697.55494564049
 20
839.801425869478
 30
0.0
 10
1695.939285800728
 20
839.8391902763019
 30
0.0
  0
LINE
  5
3FAF
330
A
100
AcDbEntity
  8
MODEL
100
AcDbLine
 10
1702.212282160288
 20
844.7206503409459
 30
0.0
 11
1700.049038421585
 21
841.84398769942
 31
0.0
  0
LINE
  5
3FB0
330
A
100
AcDbEntity
  8
HIDDEN
100
AcDbLine
 10
1670.589517237645
 20
854.7224415408
 30
0.0
 11
1554.606524639379
 21
858.515849436501
 31
0.0
  0
LINE
  5
3FB2
330
A
100
AcDbEntity
  8
HIDDEN
100
AcDbLine
 10
1643.415706118279
 20
855.2503468912971
 30
0.0
 11
1647.988290328434
 21
852.1076030991401
 31
0.0
  0
LINE
  5
3FB3
330
A
100
AcDbEntity
  8
HIDDEN
100
AcDbLine
 10
1647.988290328434
 20
852.1076030991401
 30
0.0
 11
1648.061406636584
 21
839.8391902763019
 31
0.0
  0
LINE
  5
3FB4
330
A
100
AcDbEntity
  8
HIDDEN
100
AcDbLine
 10
1647.988290328434
 20
852.1076030991401
 30
0.0
 11
1670.589517237645
 21
852.1076030991401
 31
0.0
  0
LINE
  5
3FB5
330
A
100
AcDbEntity
  8
HIDDEN
100
AcDbLine
 10
1697.763328357011
 20
855.2503468912971
 30
0.0
 11
1693.190744146856
 21
852.1076030991401
 31
0.0
  0
LINE
  5
3FB6
330
A
100
AcDbEntity
  8
HIDDEN
100
AcDbLine
 10
1693.190744146856
 20
852.1076030991401
 30
0.0
 11
1693.117627838706
 21
839.8391902763019
 31
0.0
  0
LINE
  5
3FB7
330
A
100
AcDbEntity
  8
HIDDEN
100
AcDbLine
 10
1693.190744146856
 20
852.1076030991401
 30
0.0
 11
1670.589517237645
 21
852.1076030991401
 31
0.0
  0
LINE
  5
3FB8
330
A
100
AcDbEntity
  8
HIDDEN
100
AcDbLine
 10
1542.710154537963
 20
869.264066251852
 30
0.0
 11
1534.495707008757
 21
944.7224415408
 31
0.0
  0
ARC
  5
3FB9
330
A
100
AcDbEntity
  8
HIDDEN
100
AcDbCircle
 10
1554.639676488171
 20
870.5627217255919
 30
0.0
 40
12.0
100
AcDbArc
 50
186.2127908368481
 51
268.8870554750862
  0
LINE
  5
3FC2
102
{ACAD_REACTORS
330
4054
102
}
330
A
100
AcDbEntity
  8
HIDDEN
100
AcDbLine
 10
1670.589517237645
 20
854.7224415408
 30
0.0
 11
1786.572509835911
 21
858.515849436501
 31
0.0
  0
ARC
  5
3FC3
330
A
100
AcDbEntity
  8
HIDDEN
100
AcDbCircle
 10
1786.539357987118
 20
870.5627217255919
 30
0.0
 40
12.0
100
AcDbArc
 50
271.1129445249138
 51
353.7872091631518
  0
LINE
  5
3FC4
330
A
100
AcDbEntity
  8
HIDDEN
100
AcDbLine
 10
1798.468879937328
 20
869.264066251852
 30
0.0
 11
1806.683327466533
 21
944.7224415408
 31
0.0
  0
DIMENSION
  5
4038
330
A
100
AcDbEntity
  8
DIM
100
AcDbDimension
  2
*D50
 10
857.8048610359201
 20
2458.825341764183
 30
0.0
 11
582.8048610285177
 21
2490.825341764183
 31
0.0
 70
    32
 71
     5
 42
550.0000000148048
 73
     0
 74
     0
 75
     0
 52
-90.0
  3
tfrom線あり
100
AcDbAlignedDimension
 13
307.8048610211154
 23
2206.087580103307
 33
0.0
 14
857.8048610359201
 24
2208.59629112506
 34
0.0
100
AcDbRotatedDimension
1001
ACAD
1000
DSTYLE
1002
{
1070
   144
1040
1.0
1002
}
  0
DIMENSION
  5
4045
330
A
100
AcDbEntity
  8
DIM
100
AcDbDimension
  2
*D51
 10
1434.680728565138
 20
944.7224415408
 30
0.0
 11
1402.680728565138
 21
894.7215459408729
 31
0.0
 70
    32
 71
     5
 42
100.0017911998541
 73
     0
 74
     0
 75
     0
 52
-90.0
  3
tfrom線あり
100
AcDbAlignedDimension
 13
1521.076593114547
 23
844.7206503409459
 33
0.0
 14
1521.076593114547
 24
944.7224415408
 34
0.0
 50
90.00000000000001
100
AcDbRotatedDimension
1001
ACAD
1000
DSTYLE
1002
{
1070
   144
1040
1.0
1002
}
  0
DIMENSION
  5
4052
102
{ACAD_REACTORS
330
4054
102
}
102
{ACAD_XDICTIONARY
360
4053
102
}
330
A
100
AcDbEntity
  8
DIM
100
AcDbDimension
  2
*D52
 10
1671.369253359457
 20
944.7224415408
 30
0.0
 11
1671.369253359457
 21
1042.7904415408
 31
0.0
 70
   160
  1
85(深さ)
 71
     5
 42
90.0
 73
     0
 74
     1
 75
     1
  3
tfrom線あり
100
AcDbAlignedDimension
 13
1670.589517237645
 23
854.7224415408
 33
0.0
 14
1669.1195787503
 24
944.7224415408
 34
0.0
 50
90.0
100
AcDbRotatedDimension
1001
ACAD
1000
DSTYLE
1002
{
1070
   172
1070
     1
1070
   271
1070
     1
1070
   144
1040
1.0
1002
}
  0
DIMENSION
  5
4078
330
A
100
AcDbEntity
  8
DIM
100
AcDbDimension
  2
*D53
 10
1670.589517237645
 20
749.5329525145962
 30
0.0
 11
1744.854865187156
 21
781.5329525145962
 31
0.0
 70
    32
  1
150
 71
     5
 42
148.5306958990213
 73
     0
 74
     0
 75
     0
  3
tfrom線あり
100
AcDbAlignedDimension
 13
1819.120213136666
 23
852.0417611785015
 33
0.0
 14
1670.589517237645
 24
839.8391902763019
 34
0.0
100
AcDbRotatedDimension
1001
ACAD
1000
DSTYLE
1002
{
1070
   144
1040
1.0
1002
}
  0
POLYLINE
  5
408C
330
A
100
AcDbEntity
  8
HIDDEN
100
AcDb2dPolyline
 66
     1
 10
0.0
 20
0.0
 30
0.0
  0
VERTEX
  5
408D
330
408C
100
AcDbEntity
  8
HIDDEN
100
AcDbVertex
100
AcDb2dVertex
 10
1748.397259909159
 20
1900.866855142064
 30
0.0
  0
VERTEX
  5
408E
330
408C
100
AcDbEntity
  8
HIDDEN
100
AcDbVertex
100
AcDb2dVertex
 10
1748.397259909159
 20
2194.869329987389
 30
0.0
  0
SEQEND
  5
408F
330
408C
100
AcDbEntity
  8
HIDDEN
  0
POLYLINE
  5
4090
330
A
100
AcDbEntity
  8
HIDDEN
100
AcDb2dPolyline
 66
     1
 10
0.0
 20
0.0
 30
0.0
  0
VERTEX
  5
4091
330
4090
100
AcDbEntity
  8
HIDDEN
100
AcDbVertex
100
AcDb2dVertex
 10
1745.399094393506
 20
2197.867495503043
 30
0.0
  0
VERTEX
  5
4092
330
4090
100
AcDbEntity
  8
HIDDEN
100
AcDbVertex
100
AcDb2dVertex
 10
1201.397888306104
 20
2197.867495503043
 30
0.0
  0
SEQEND
  5
4093
330
4090
100
AcDbEntity
  8
HIDDEN
  0
POLYLINE
  5
4094
330
A
100
AcDbEntity
  8
HIDDEN
100
AcDb2dPolyline
 66
     1
 10
0.0
 20
0.0
 30
0.0
  0
VERTEX
  5
4095
330
4094
100
AcDbEntity
  8
HIDDEN
100
AcDbVertex
100
AcDb2dVertex
 10
1198.397259894354
 20
2194.869329987389
 30
0.0
  0
VERTEX
  5
4096
330
4094
100
AcDbEntity
  8
HIDDEN
100
AcDbVertex
100
AcDb2dVertex
 10
1198.397259894354
 20
1900.866855142064
 30
0.0
  0
SEQEND
  5
4097
330
4094
100
AcDbEntity
  8
HIDDEN
  0
POLYLINE
  5
4098
330
A
100
AcDbEntity
  8
HIDDEN
100
AcDb2dPolyline
 66
     1
 10
0.0
 20
0.0
 30
0.0
  0
VERTEX
  5
4099
330
4098
100
AcDbEntity
  8
HIDDEN
100
AcDbVertex
100
AcDb2dVertex
 10
1201.397888306104
 20
1897.868689626409
 30
0.0
  0
VERTEX
  5
409A
330
4098
100
AcDbEntity
  8
HIDDEN
100
AcDbVertex
100
AcDb2dVertex
 10
1745.399094393506
 20
1897.868689626409
 30
0.0
  0
SEQEND
  5
409B
330
4098
100
AcDbEntity
  8
HIDDEN
  0
ARC
  5
41E3
330
A
100
AcDbEntity
  8
MODEL
100
AcDbCircle
 10
310.8054894328648
 20
2194.869329987389
 30
0.0
 40
2.998165515653909
100
AcDbArc
 50
90.0
 51
180.0
  0
ARC
  5
41E7
330
A
100
AcDbEntity
  8
MODEL
100
AcDbCircle
 10
854.8066955202667
 20
2194.869329987389
 30
0.0
 40
2.998165515653909
100
AcDbArc
 50
0.0
 51
90.0
  0
ARC
  5
41E8
330
A
100
AcDbEntity
  8
MODEL
100
AcDbCircle
 10
854.8066955202667
 20
1900.866855142064
 30
0.0
 40
2.998165515653909
100
AcDbArc
 50
270.0
 51
0.0
  0
ARC
  5
41E9
330
A
100
AcDbEntity
  8
MODEL
100
AcDbCircle
 10
310.8054894328648
 20
1900.866855142064
 30
0.0
 40
2.998165515653909
100
AcDbArc
 50
180.0
 51
270.0
  0
ARC
  5
41ED
330
A
100
AcDbEntity
  8
HIDDEN
100
AcDbCircle
 10
1201.397888306104
 20
2194.869329987389
 30
0.0
 40
2.998165515653909
100
AcDbArc
 50
90.0
 51
180.0
  0
ARC
  5
41EE
330
A
100
AcDbEntity
  8
HIDDEN
100
AcDbCircle
 10
1201.397888306106
 20
1900.866855142064
 30
0.0
 40
2.998165515653909
100
AcDbArc
 50
180.0
 51
270.0
  0
ARC
  5
41EF
330
A
100
AcDbEntity
  8
HIDDEN
100
AcDbCircle
 10
1745.399094393503
 20
1900.866855142064
 30
0.0
 40
2.998165515653909
100
AcDbArc
 50
270.0
 51
0.0
  0
ARC
  5
41F0
330
A
100
AcDbEntity
  8
HIDDEN
100
AcDbCircle
 10
1745.399094393503
 20
2194.869329987389
 30
0.0
 40
2.998165515653909
100
AcDbArc
 50
0.0
 51
90.0
  0
CIRCLE
  5
41F1
330
A
100
AcDbEntity
  8
HIDDEN
 48
0.75
100
AcDbCircle
 10
1435.069514963816
 20
2047.5751907089
 30
0.0
 40
23.0
  0
CIRCLE
  5
41F2
330
A
100
AcDbEntity
  8
HIDDEN
 48
0.75
100
AcDbCircle
 10
1697.109959414273
 20
2047.442460867603
 30
0.0
 40
17.5
  0
LINE
  5
41FD
102
{ACAD_REACTORS
330
4209
102
}
330
A
100
AcDbEntity
  8
DIM
100
AcDbLine
 10
1733.397259909158
 20
1932.868092564726
 30
0.0
 11
1373.397259909158
 21
1932.868092564726
 31
0.0
  0
LINE
  5
41FF
102
{ACAD_REACTORS
330
4209
330
42C0
102
}
330
A
100
AcDbEntity
  8
DIM
100
AcDbLine
 10
1733.397259909158
 20
2162.868092564726
 30
0.0
 11
1733.397259909158
 21
1932.868092564726
 31
0.0
  0
LINE
  5
4202
102
{ACAD_REACTORS
330
4209
330
42B1
102
}
330
A
100
AcDbEntity
  8
DIM
100
AcDbLine
 10
1373.397259909158
 20
2162.868092564726
 30
0.0
 11
1373.397259909158
 21
1932.868092564726
 31
0.0
  0
LINE
  5
4203
102
{ACAD_REACTORS
330
4209
330
42B1
330
42C0
102
}
330
A
100
AcDbEntity
  8
DIM
100
AcDbLine
 10
1733.397259909158
 20
2162.868092564726
 30
0.0
 11
1373.397259909158
 21
2162.868092564726
 31
0.0
  0
HATCH
  5
4209
330
A
100
AcDbEntity
  8
DIM
100
AcDbHatch
 10
0.0
 20
0.0
 30
0.0
210
0.0
220
0.0
230
1.0
  2
ANSI31
 70
     0
 71
     1
 91
        1
 92
        1
 93
        4
 72
     1
 10
1373.397259909158
 20
2162.868092564726
 11
1373.397259909158
 21
1932.868092564726
 72
     1
 10
1733.397259909158
 20
2162.868092564726
 11
1373.397259909158
 21
2162.868092564726
 72
     1
 10
1733.397259909158
 20
2162.868092564726
 11
1733.397259909158
 21
1932.868092564726
 72
     1
 10
1733.397259909158
 20
1932.868092564726
 11
1373.397259909158
 21
1932.868092564726
 97
        4
330
4202
330
4203
330
41FF
330
41FD
 75
     0
 76
     1
 52
0.0
 41
5.0
 77
     0
 78
     1
 53
45.0
 43
0.0
 44
46.93436619718295
 45
-11.22532015133644
 46
11.22532015133644
 79
     0
 98
        1
 10
0.0
 20
46.93436619718295
1001
ACAD
1010
0.0
1020
0.0
1030
0.0
  0
MTEXT
  5
423C
330
A
100
AcDbEntity
  8
MODEL
390
1D
100
AcDbMText
 10
1135.644901058733
 20
1706.613580743971
 30
0.0
 40
24.0
 41
949.7161250932045
 46
111.8331968503937
 71
     1
 72
     1
  1
{※陶器製品には寸法公差があります。\P  洗面器の収め方をご確認の上、必ず現物を合わせて\P  カウンターに切込を行ってください。}
  7
ＭＳ ゴシック
 73
     1
 44
0.9822934569727008
1001
ACAD
1000
ACAD_MTEXT_DEFINED_HEIGHT_BEGIN
1070
    46
1040
111.8331968503937
1000
ACAD_MTEXT_DEFINED_HEIGHT_END
  0
LINE
  5
4243
330
A
100
AcDbEntity
  8
DIM
100
AcDbLine
 10
823.711811327787
 20
2047.868092564726
 30
0.0
 11
897.4561670778885
 21
2100.472035946225
 31
0.0
  0
LINE
  5
4244
330
A
100
AcDbEntity
  8
DIM
100
AcDbLine
 10
897.4561670778885
 20
2100.472035946225
 30
0.0
 11
974.633059075635
 21
2100.472035946225
 31
0.0
  0
MTEXT
  5
4278
330
A
100
AcDbEntity
  8
DIM
390
1D
100
AcDbMText
 10
914.7930051353532
 20
2135.541037623814
 30
0.0
 40
24.0
 41
949.7161250932046
 46
24.0
 71
     1
 72
     1
  1
{%%c35}
  7
ＭＳ ゴシック
 73
     1
 44
0.9822934569727008
1001
ACAD
1000
ACAD_MTEXT_DEFINED_HEIGHT_BEGIN
1070
    46
1040
24.0
1000
ACAD_MTEXT_DEFINED_HEIGHT_END
  0
MTEXT
  5
42AE
330
A
100
AcDbEntity
  8
MODEL
390
1D
100
AcDbMText
 10
1333.20666936873
 20
2453.554647887322
 30
0.0
 40
24.0
 41
0.0
 46
0.0
 71
     1
 72
     1
  1
カウンター切込寸法
  7
ＭＳ ゴシック
 73
     1
 44
0.7828267384257843
  0
DIMENSION
  5
42AF
102
{ACAD_REACTORS
330
42B1
102
}
102
{ACAD_XDICTIONARY
360
42B0
102
}
330
A
100
AcDbEntity
  8
DIM
100
AcDbDimension
  2
*D54
 10
1733.397259909158
 20
2261.201654113353
 30
0.0
 11
1553.397259909158
 21
2293.201654113353
 31
0.0
 70
    32
 71
     5
 42
360.0
 73
     0
 74
     0
 75
     0
  3
tfrom線あり
100
AcDbAlignedDimension
 13
1373.397259909158
 23
2162.868092564726
 33
0.0
 14
1733.397259909158
 24
2162.868092564726
 34
0.0
100
AcDbRotatedDimension
1001
ACAD
1000
DSTYLE
1002
{
1070
   144
1040
1.0
1002
}
  0
DIMENSION
  5
42BE
102
{ACAD_REACTORS
330
42C0
102
}
102
{ACAD_XDICTIONARY
360
42BF
102
}
330
A
100
AcDbEntity
  8
DIM
100
AcDbDimension
  2
*D55
 10
1840.066366326026
 20
1932.868092564726
 30
0.0
 11
1808.066366326026
 21
2047.868092564726
 31
0.0
 70
    32
 71
     5
 42
229.9999999999998
 73
     0
 74
     0
 75
     0
  3
tfrom線あり
100
AcDbAlignedDimension
 13
1733.397259909158
 23
2162.868092564726
 33
0.0
 14
1733.397259909158
 24
1932.868092564726
 34
0.0
 50
90.0
100
AcDbRotatedDimension
1001
ACAD
1000
DSTYLE
1002
{
1070
   144
1040
1.0
1002
}
  0
VIEWPORT
  5
349
330
B
100
AcDbEntity
 67
     1
  8
0
100
AcDbViewport
 10
202.5
 20
128.5
 30
0.0
 40
486.0
 41
308.4
 68
     1
 69
     1
 12
202.5
 22
128.5
 13
0.0
 23
0.0
 14
0.5
 24
0.5
 15
0.0
 25
0.0
 16
0.0
 26
0.0
 36
1.0
 17
0.0
 27
0.0
 37
0.0
 42
50.0
 43
0.0
 44
0.0
 45
308.4
 50
0.0
 51
0.0
 72
   100
 90
   557152
  1

281
     0
 71
     1
 74
     0
110
0.0
120
0.0
130
0.0
111
1.0
121
0.0
131
0.0
112
0.0
122
1.0
132
0.0
 79
     0
146
0.0
170
     0
 61
     5
348
26C
292
     1
282
     1
141
0.0
142
0.0
 63
   256
  0
VIEWPORT
  5
34A
330
B
100
AcDbEntity
 67
     1
  8
0
100
AcDbViewport
 10
202.5
 20
128.5
 30
0.0
 40
324.0
 41
205.6
 68
     2
 69
     2
 12
986.6781359294573
 22
1427.077061889956
 13
0.0
 23
0.0
 14
0.5
 24
0.5
 15
0.0
 25
0.0
 16
0.0
 26
0.0
 36
1.0
 17
0.0
 27
0.0
 37
0.0
 42
50.0
 43
0.0
 44
0.0
 45
2890.021615685494
 50
0.0
 51
0.0
 72
   100
 90
   557152
  1

281
     0
 71
     1
 74
     0
110
0.0
120
0.0
130
0.0
111
1.0
121
0.0
131
0.0
112
0.0
122
1.0
132
0.0
 79
     0
146
0.0
170
     0
 61
     5
348
26C
292
     1
282
     1
141
0.0
142
0.0
 63
   256
  0
ENDSEC
  0
SECTION
  2
OBJECTS
  0
DICTIONARY
  5
19
330
0
100
AcDbDictionary
281
     1
  3
ACAD_COLOR
350
674
  3
ACAD_DETAILVIEWSTYLE
350
BBF
  3
ACAD_FIELDLIST
350
146A
  3
ACAD_GROUP
350
1A
  3
ACAD_IMAGE_VARS
350
27B
  3
ACAD_LAYOUT
350
1E
  3
ACAD_MATERIAL
350
263
  3
ACAD_MLEADERSTYLE
350
336
  3
ACAD_MLINESTYLE
350
1B
  3
ACAD_PLOTSETTINGS
350
22
  3
ACAD_PLOTSTYLENAME
350
1F
  3
ACAD_SCALELIST
350
241
  3
ACAD_SECTIONVIEWSTYLE
350
BC0
  3
ACAD_TABLESTYLE
350
278
  3
ACAD_VISUALSTYLE
350
267
  3
ACDB_RECOMPOSE_DATA
350
4302
  3
AcDbVariableDictionary
350
330
  3
APPDATA
350
27A
  3
DimOffsetDictionary
350
E3E
  0
SUN
  5
904
330
15
100
AcDbSun
 90
        1
290
     0
 63
     7
421
 16777215
 40
1.0
291
     1
 91
  2455826
 92
 54000000
292
     0
 70
     2
 71
   256
280
     1
  0
DICTIONARY
  5
2E1
330
2
100
AcDbDictionary
280
     1
281
     1
  3
ACAD_LAYERSTATES
360
2E2
  3
ACLYDICTIONARY
360
DF9
  0
DICTIONARY
  5
4205
330
A
100
AcDbDictionary
280
     1
281
     1
  3
ACAD_SORTENTS
360
4206
  0
DICTIONARY
  5
1468
330
1466
100
AcDbDictionary
280
     1
281
     1
  3
ACAD_FIELD
360
3FF0
  0
DICTIONARY
  5
4053
330
4052
100
AcDbDictionary
280
     1
281
     1
  3
ACAD_DIMASSOC
360
4054
  0
DICTIONARY
  5
42B0
330
42AF
100
AcDbDictionary
280
     1
281
     1
  3
ACAD_DIMASSOC
360
42B1
  0
DICTIONARY
  5
42BF
330
42BE
100
AcDbDictionary
280
     1
281
     1
  3
ACAD_DIMASSOC
360
42C0
  0
DICTIONARY
  5
674
102
{ACAD_REACTORS
330
19
102
}
330
19
100
AcDbDictionary
281
     1
  0
DICTIONARY
  5
BBF
102
{ACAD_REACTORS
330
19
102
}
330
19
100
AcDbDictionary
281
     1
  0
FIELDLIST
  5
146A
102
{ACAD_REACTORS
330
19
102
}
330
19
100
AcDbIdSet
 90
        2
330
146B
330
1467
100
AcDbFieldList
  0
DICTIONARY
  5
1A
102
{ACAD_REACTORS
330
19
102
}
330
19
100
AcDbDictionary
281
     1
  0
RASTERVARIABLES
  5
27B
102
{ACAD_REACTORS
330
19
102
}
330
19
100
AcDbRasterVariables
 90
        0
 70
     1
 71
     1
 72
     1
  0
DICTIONARY
  5
1E
102
{ACAD_REACTORS
330
19
102
}
330
19
100
AcDbDictionary
281
     1
  3
Layout1
350
21
  3
Model
350
20
  0
DICTIONARY
  5
263
102
{ACAD_REACTORS
330
19
102
}
330
19
100
AcDbDictionary
281
     1
  3
ByBlock
350
265
  3
ByLayer
350
264
  3
Global
350
266
  0
DICTIONARY
  5
336
102
{ACAD_REACTORS
330
19
102
}
330
19
100
AcDbDictionary
281
     1
  3
Standard
350
DAB
  0
DICTIONARY
  5
1B
102
{ACAD_REACTORS
330
19
102
}
330
19
100
AcDbDictionary
281
     1
  3
Standard
350
1C
  0
DICTIONARY
  5
22
102
{ACAD_REACTORS
330
19
102
}
330
19
100
AcDbDictionary
281
     1
  0
ACDBDICTIONARYWDFLT
  5
1F
102
{ACAD_REACTORS
330
19
102
}
330
19
100
AcDbDictionary
281
     1
  3
Normal
350
1D
100
AcDbDictionaryWithDefault
340
1D
  0
DICTIONARY
  5
241
102
{ACAD_REACTORS
330
19
102
}
330
19
100
AcDbDictionary
281
     1
  3
A0
350
242
  3
A1
350
243
  3
A2
350
244
  3
A3
350
245
  3
A4
350
246
  3
A5
350
247
  3
A6
350
248
  3
A7
350
249
  3
A8
350
24A
  3
A9
350
24B
  3
B0
350
24C
  3
B1
350
24D
  3
B2
350
24E
  3
B3
350
24F
  3
B4
350
250
  3
B5
350
251
  3
B6
350
252
  3
B7
350
253
  3
B8
350
254
  3
B9
350
255
  3
C0
350
256
  3
C1
350
257
  3
C2
350
258
  3
C3
350
259
  3
C4
350
25A
  3
C5
350
25B
  3
C6
350
25C
  3
C7
350
25D
  3
C8
350
25E
  3
C9
350
25F
  3
D0
350
260
  3
D1
350
261
  3
D2
350
262
  0
DICTIONARY
  5
BC0
102
{ACAD_REACTORS
330
19
102
}
330
19
100
AcDbDictionary
281
     1
  0
DICTIONARY
  5
278
102
{ACAD_REACTORS
330
19
102
}
330
19
100
AcDbDictionary
281
     1
  3
Standard
350
279
  0
DICTIONARY
  5
267
102
{ACAD_REACTORS
330
19
102
}
330
19
100
AcDbDictionary
281
     1
  3
2dWireframe
350
26C
  3
3D Hidden
350
26E
  3
3dWireframe
350
26D
  3
Basic
350
26F
  3
Brighten
350
273
  3
ColorChange
350
277
  3
Conceptual
350
271
  3
Dim
350
272
  3
EdgeColorOff
350
8FE
  3
Facepattern
350
276
  3
Flat
350
268
  3
FlatWithEdges
350
269
  3
Gouraud
350
26A
  3
GouraudWithEdges
350
26B
  3
Hidden
350
8FB
  3
JitterOff
350
8FC
  3
Linepattern
350
275
  3
OverhangOff
350
8FD
  3
Realistic
350
270
  3
Shaded
350
903
  3
Shaded with edges
350
902
  3
Shades of Gray
350
8FF
  3
Sketchy
350
900
  3
Thicken
350
274
  3
Wireframe
350
8FA
  3
X-Ray
350
901
  0
XRECORD
  5
4302
102
{ACAD_REACTORS
330
19
102
}
330
19
100
AcDbXrecord
280
     1
 90
        1
330
279
  0
DICTIONARY
  5
330
102
{ACAD_REACTORS
330
19
102
}
330
19
100
AcDbDictionary
281
     1
  3
CANNOSCALE
350
331
  3
CMLEADERSTYLE
350
DB1
  3
CTABLESTYLE
350
335
  3
HPTRANSPARENCY
350
D52
  3
XCLIPFRAME
350
896
  0
DICTIONARY
  5
27A
102
{ACAD_REACTORS
330
19
102
}
330
19
100
AcDbDictionary
281
     1
  0
DICTIONARY
  5
E3E
102
{ACAD_REACTORS
330
19
102
}
330
19
100
AcDbDictionary
281
     1
  3
DIMRAILANGLE
350
ECE
  3
DIMRAILFIRSTOFFSET
350
ECC
  3
DIMRAILOFFSET
350
ECD
  3
DIMRAILSENABLED
350
ECF
  0
DICTIONARY
  5
2E2
102
{ACAD_REACTORS
330
2E1
102
}
330
2E1
100
AcDbDictionary
281
     1
  0
DICTIONARY
  5
DF9
102
{ACAD_REACTORS
330
2E1
102
}
330
2E1
100
AcDbDictionary
281
     1
1001
ACAD
1000
<All
  0
SORTENTSTABLE
  5
4206
102
{ACAD_REACTORS
330
4205
102
}
330
4205
100
AcDbSortentsTable
330
A
331
0
  5
4200
331
41FD
  5
41FF
331
41FF
  5
4202
331
4202
  5
4208
331
4203
  5
4209
331
4209
  5
41FE
  0
DICTIONARY
  5
3FF0
102
{ACAD_REACTORS
330
1468
102
}
330
1468
100
AcDbDictionary
280
     1
281
     1
  3
TEXT
360
1467
  0
DIMASSOC
  5
4054
102
{ACAD_REACTORS
330
4053
102
}
330
4053
100
AcDbDimAssoc
330
4052
 90
        3
 70
     0
 71
     1
  1
AcDbOsnapPointRef
 72
    13
331
3FC2
 73
     0
 91
        0
 40
0.0
 10
0.0
 20
0.0
 30
0.0
 75
     0
  1
AcDbOsnapPointRef
 72
     2
331
3F96
 73
     0
 91
        0
 40
0.5000000000000016
 10
0.0
 20
0.0
 30
0.0
 75
     0
  0
DIMASSOC
  5
42B1
102
{ACAD_REACTORS
330
42B0
102
}
330
42B0
100
AcDbDimAssoc
330
42AF
 90
        3
 70
     0
 71
     1
  1
AcDbOsnapPointRef
 72
    13
331
4202
 73
     0
 91
        0
 40
0.0
 10
0.0
 20
0.0
 30
0.0
 75
     0
  1
AcDbOsnapPointRef
 72
    13
331
4203
 73
     0
 91
        0
 40
0.0
 10
0.0
 20
0.0
 30
0.0
 75
     0
  0
DIMASSOC
  5
42C0
102
{ACAD_REACTORS
330
42BF
102
}
330
42BF
100
AcDbDimAssoc
330
42BE
 90
        3
 70
     0
 71
     1
  1
AcDbOsnapPointRef
 72
    13
331
4203
 73
     0
 91
        0
 40
0.0
 10
0.0
 20
0.0
 30
0.0
 75
     0
  1
AcDbOsnapPointRef
 72
     1
331
41FF
 73
     0
 91
        0
 40
0.0
 10
0.0
 20
0.0
 30
0.0
 75
     0
  0
LAYOUT
  5
21
102
{ACAD_REACTORS
330
1E
102
}
330
1E
100
AcDbPlotSettings
  1

  2
none_device
  4
ISO_A3_(420.00_x_297.00_MM)
  6

 40
7.5
 41
20.0
 42
7.5
 43
20.0
 44
420.0
 45
297.0
 46
0.0
 47
0.0
 48
0.0
 49
0.0
140
0.0
141
0.0
142
1.0
143
1.0
 70
     0
 72
     1
 73
     0
 74
     0
  7

 75
     0
 76
     0
 77
     2
 78
   300
147
1.0
148
0.0
149
0.0
100
AcDbLayout
  1
Layout1
 70
     0
 71
     0
 10
-7.5
 20
-20.0
 11
412.5
 21
277.0
 12
0.0
 22
0.0
 32
0.0
 14
0.0
 24
0.0
 34
0.0
 15
0.0
 25
0.0
 35
0.0
146
0.0
 13
0.0
 23
0.0
 33
0.0
 16
0.0
 26
0.0
 36
0.0
 17
0.0
 27
0.0
 37
0.0
 76
     0
330
B
331
349
  0
LAYOUT
  5
20
102
{ACAD_REACTORS
330
1E
102
}
330
1E
100
AcDbPlotSettings
  1

  2
none_device
  4
ISO_A3_(420.00_x_297.00_MM)
  6

 40
7.5
 41
20.0
 42
7.5
 43
20.0
 44
420.0
 45
297.0
 46
0.0
 47
0.0
 48
0.0
 49
0.0
140
0.0
141
0.0
142
1.0
143
1.0
 70
  1024
 72
     1
 73
     0
 74
     0
  7

 75
     0
 76
     0
 77
     2
 78
   300
147
1.0
148
0.0
149
0.0
100
AcDbLayout
  1
Model
 70
     0
 71
     1
 10
0.0
 20
0.0
 11
2100.0
 21
2970.0
 12
0.0
 22
0.0
 32
0.0
 14
0.0
 24
0.0
 34
-0.0000000000000071
 15
2100.0
 25
2970.0
 35
0.0000000000000142
146
0.0
 13
0.0
 23
0.0
 33
0.0
 16
0.0
 26
0.0
 36
0.0
 17
0.0
 27
0.0
 37
0.0
 76
     0
330
A
331
15
  0
MATERIAL
  5
265
102
{ACAD_REACTORS
330
263
102
}
330
263
100
AcDbMaterial
  1
ByBlock
 72
     1
 94
      127
  0
MATERIAL
  5
264
102
{ACAD_REACTORS
330
263
102
}
330
263
100
AcDbMaterial
  1
ByLayer
 72
     1
 94
      127
  0
MATERIAL
  5
266
102
{ACAD_REACTORS
330
263
102
}
330
263
100
AcDbMaterial
  1
Global
 72
     1
 94
      127
  0
MLEADERSTYLE
  5
DAB
102
{ACAD_REACTORS
330
336
102
}
330
336
100
AcDbMLeaderStyle
170
     2
171
     1
172
     0
 90
        2
 40
0.0
 41
0.0
173
     1
 91
-1056964608
340
11
 92
       -2
290
     1
 42
2.0
291
     1
 43
8.0
  3
Standard
341
0
 44
4.0
300

342
17
174
     1
178
     6
175
     1
176
     0
 93
-1056964608
 45
4.0
292
     0
297
     0
 46
4.0
343
0
 94
-1056964608
 47
1.0
 49
1.0
140
1.0
293
     1
141
0.0
294
     1
177
     0
142
1.0
295
     0
296
     0
143
3.75
1001
ACAD_MLEADERVER
1070
     2
  0
MLINESTYLE
  5
1C
102
{ACAD_REACTORS
330
1B
102
}
330
1B
100
AcDbMlineStyle
  2
Standard
 70
     0
  3

 62
     0
 51
90.0
 52
90.0
 71
     2
 49
0.5
 62
   256
  6
BYLAYER
 49
-0.5
 62
   256
  6
BYLAYER
  0
ACDBPLACEHOLDER
  5
1D
102
{ACAD_REACTORS
330
1F
102
}
330
1F
  0
SCALE
  5
242
102
{ACAD_REACTORS
330
241
102
}
330
241
100
AcDbScale
 70
     0
300
1:1
140
1.0
141
1.0
290
     1
  0
SCALE
  5
243
102
{ACAD_REACTORS
330
241
102
}
330
241
100
AcDbScale
 70
     0
300
1:2
140
1.0
141
2.0
290
     0
  0
SCALE
  5
244
102
{ACAD_REACTORS
330
241
102
}
330
241
100
AcDbScale
 70
     0
300
1:4
140
1.0
141
4.0
290
     0
  0
SCALE
  5
245
102
{ACAD_REACTORS
330
241
102
}
330
241
100
AcDbScale
 70
     0
300
1:5
140
1.0
141
5.0
290
     0
  0
SCALE
  5
246
102
{ACAD_REACTORS
330
241
102
}
330
241
100
AcDbScale
 70
     0
300
1:8
140
1.0
141
8.0
290
     0
  0
SCALE
  5
247
102
{ACAD_REACTORS
330
241
102
}
330
241
100
AcDbScale
 70
     0
300
1:10
140
1.0
141
10.0
290
     0
  0
SCALE
  5
248
102
{ACAD_REACTORS
330
241
102
}
330
241
100
AcDbScale
 70
     0
300
1:16
140
1.0
141
16.0
290
     0
  0
SCALE
  5
249
102
{ACAD_REACTORS
330
241
102
}
330
241
100
AcDbScale
 70
     0
300
1:20
140
1.0
141
20.0
290
     0
  0
SCALE
  5
24A
102
{ACAD_REACTORS
330
241
102
}
330
241
100
AcDbScale
 70
     0
300
1:30
140
1.0
141
30.0
290
     0
  0
SCALE
  5
24B
102
{ACAD_REACTORS
330
241
102
}
330
241
100
AcDbScale
 70
     0
300
1:40
140
1.0
141
40.0
290
     0
  0
SCALE
  5
24C
102
{ACAD_REACTORS
330
241
102
}
330
241
100
AcDbScale
 70
     0
300
1:50
140
1.0
141
50.0
290
     0
  0
SCALE
  5
24D
102
{ACAD_REACTORS
330
241
102
}
330
241
100
AcDbScale
 70
     0
300
1:100
140
1.0
141
100.0
290
     0
  0
SCALE
  5
24E
102
{ACAD_REACTORS
330
241
102
}
330
241
100
AcDbScale
 70
     0
300
2:1
140
2.0
141
1.0
290
     0
  0
SCALE
  5
24F
102
{ACAD_REACTORS
330
241
102
}
330
241
100
AcDbScale
 70
     0
300
4:1
140
4.0
141
1.0
290
     0
  0
SCALE
  5
250
102
{ACAD_REACTORS
330
241
102
}
330
241
100
AcDbScale
 70
     0
300
8:1
140
8.0
141
1.0
290
     0
  0
SCALE
  5
251
102
{ACAD_REACTORS
330
241
102
}
330
241
100
AcDbScale
 70
     0
300
10:1
140
10.0
141
1.0
290
     0
  0
SCALE
  5
252
102
{ACAD_REACTORS
330
241
102
}
330
241
100
AcDbScale
 70
     0
300
100:1
140
100.0
141
1.0
290
     0
  0
SCALE
  5
253
102
{ACAD_REACTORS
330
241
102
}
330
241
100
AcDbScale
 70
     0
300
1/128" = 1'-0"
140
0.0078125
141
12.0
290
     0
  0
SCALE
  5
254
102
{ACAD_REACTORS
330
241
102
}
330
241
100
AcDbScale
 70
     0
300
1/64" = 1'-0"
140
0.015625
141
12.0
290
     0
  0
SCALE
  5
255
102
{ACAD_REACTORS
330
241
102
}
330
241
100
AcDbScale
 70
     0
300
1/32" = 1'-0"
140
0.03125
141
12.0
290
     0
  0
SCALE
  5
256
102
{ACAD_REACTORS
330
241
102
}
330
241
100
AcDbScale
 70
     0
300
1/16" = 1'-0"
140
0.0625
141
12.0
290
     0
  0
SCALE
  5
257
102
{ACAD_REACTORS
330
241
102
}
330
241
100
AcDbScale
 70
     0
300
3/32" = 1'-0"
140
0.09375
141
12.0
290
     0
  0
SCALE
  5
258
102
{ACAD_REACTORS
330
241
102
}
330
241
100
AcDbScale
 70
     0
300
1/8" = 1'-0"
140
0.125
141
12.0
290
     0
  0
SCALE
  5
259
102
{ACAD_REACTORS
330
241
102
}
330
241
100
AcDbScale
 70
     0
300
3/16" = 1'-0"
140
0.1875
141
12.0
290
     0
  0
SCALE
  5
25A
102
{ACAD_REACTORS
330
241
102
}
330
241
100
AcDbScale
 70
     0
300
1/4" = 1'-0"
140
0.25
141
12.0
290
     0
  0
SCALE
  5
25B
102
{ACAD_REACTORS
330
241
102
}
330
241
100
AcDbScale
 70
     0
300
3/8" = 1'-0"
140
0.375
141
12.0
290
     0
  0
SCALE
  5
25C
102
{ACAD_REACTORS
330
241
102
}
330
241
100
AcDbScale
 70
     0
300
1/2" = 1'-0"
140
0.5
141
12.0
290
     0
  0
SCALE
  5
25D
102
{ACAD_REACTORS
330
241
102
}
330
241
100
AcDbScale
 70
     0
300
3/4" = 1'-0"
140
0.75
141
12.0
290
     0
  0
SCALE
  5
25E
102
{ACAD_REACTORS
330
241
102
}
330
241
100
AcDbScale
 70
     0
300
1" = 1'-0"
140
1.0
141
12.0
290
     0
  0
SCALE
  5
25F
102
{ACAD_REACTORS
330
241
102
}
330
241
100
AcDbScale
 70
     0
300
1-1/2" = 1'-0"
140
1.5
141
12.0
290
     0
  0
SCALE
  5
260
102
{ACAD_REACTORS
330
241
102
}
330
241
100
AcDbScale
 70
     0
300
3" = 1'-0"
140
3.0
141
12.0
290
     0
  0
SCALE
  5
261
102
{ACAD_REACTORS
330
241
102
}
330
241
100
AcDbScale
 70
     0
300
6" = 1'-0"
140
6.0
141
12.0
290
     0
  0
SCALE
  5
262
102
{ACAD_REACTORS
330
241
102
}
330
241
100
AcDbScale
 70
     0
300
1'-0" = 1'-0"
140
12.0
141
12.0
290
     0
  0
TABLESTYLE
  5
279
102
{ACAD_REACTORS
330
278
102
}
102
{ACAD_XDICTIONARY
360
4300
102
}
330
278
100
AcDbTableStyle
  3
Standard
 70
     0
 71
     0
 40
0.06
 41
0.06
280
     0
281
     0
  7
Standard
140
4.5
170
     2
 62
     0
 63
   257
283
     0
 90
        4
 91
        0
  1

274
    -2
284
     1
 64
     0
275
    -2
285
     1
 65
     0
276
    -2
286
     1
 66
     0
277
    -2
287
     1
 67
     0
278
    -2
288
     1
 68
     0
279
    -2
289
     1
 69
     0
  7
Standard
140
6.0
170
     5
 62
     0
 63
   257
283
     0
 90
        4
 91
        0
  1

274
    -2
284
     1
 64
     0
275
    -2
285
     1
 65
     0
276
    -2
286
     1
 66
     0
277
    -2
287
     1
 67
     0
278
    -2
288
     1
 68
     0
279
    -2
289
     1
 69
     0
  7
Standard
140
4.5
170
     5
 62
     0
 63
   257
283
     0
 90
        4
 91
        0
  1

274
    -2
284
     1
 64
     0
275
    -2
285
     1
 65
     0
276
    -2
286
     1
 66
     0
277
    -2
287
     1
 67
     0
278
    -2
288
     1
 68
     0
279
    -2
289
     1
 69
     0
  0
VISUALSTYLE
  5
26C
102
{ACAD_REACTORS
330
267
102
}
330
267
100
AcDbVisualStyle
  2
2dWireframe
 70
     4
 71
     0
 72
     2
 73
     0
 90
        0
 40
-0.6
 41
-30.0
 62
     5
 63
     7
421
 16777215
 74
     1
 91
        4
 64
     7
 65
   257
 75
     1
175
     1
 42
1.0
 92
        0
 66
   257
 43
1.0
 76
     1
 77
     6
 78
     2
 67
     7
 79
     5
170
     0
171
     0
290
     0
174
     0
 93
        1
 44
0.0
173
     0
291
     0
 45
0.0
  0
VISUALSTYLE
  5
26E
102
{ACAD_REACTORS
330
267
102
}
330
267
100
AcDbVisualStyle
  2
3D Hidden
 70
     6
 71
     1
 72
     2
 73
     2
 90
        0
 40
-0.6
 41
-30.0
 62
     5
 63
     7
421
 16777215
 74
     2
 91
        2
 64
     7
 65
   257
 75
     2
175
     1
 42
40.0
 92
        0
 66
   257
 43
1.0
 76
     1
 77
     6
 78
     2
 67
     7
 79
     3
170
     0
171
     0
290
     0
174
     0
 93
        1
 44
0.0
173
     0
291
     0
 45
0.0
  0
VISUALSTYLE
  5
26D
102
{ACAD_REACTORS
330
267
102
}
330
267
100
AcDbVisualStyle
  2
3dWireframe
 70
     5
 71
     0
 72
     2
 73
     0
 90
        0
 40
-0.6
 41
-30.0
 62
     5
 63
     7
421
 16777215
 74
     1
 91
        4
 64
     7
 65
   257
 75
     1
175
     1
 42
1.0
 92
        0
 66
   257
 43
1.0
 76
     1
 77
     6
 78
     2
 67
     7
 79
     5
170
     0
171
     0
290
     0
174
     0
 93
        1
 44
0.0
173
     0
291
     0
 45
0.0
  0
VISUALSTYLE
  5
26F
102
{ACAD_REACTORS
330
267
102
}
330
267
100
AcDbVisualStyle
  2
Basic
 70
     7
 71
     1
 72
     0
 73
     1
 90
        0
 40
-0.6
 41
-30.0
 62
     5
 63
     7
421
 16777215
 74
     0
 91
        4
 64
     7
 65
   257
 75
     1
175
     1
 42
1.0
 92
        8
 66
     7
 43
1.0
 76
     1
 77
     6
 78
     2
 67
     7
 79
     5
170
     0
171
     0
290
     0
174
     0
 93
        1
 44
0.0
173
     0
291
     1
 45
0.0
  0
VISUALSTYLE
  5
273
102
{ACAD_REACTORS
330
267
102
}
330
267
100
AcDbVisualStyle
  2
Brighten
 70
    12
 71
     2
 72
     2
 73
     0
 90
        0
 40
-0.6
 41
-30.0
 62
     5
 63
     7
421
 16777215
 74
     1
 91
        4
 64
     7
 65
   257
 75
     1
175
     1
 42
1.0
 92
        8
 66
     7
 43
1.0
 76
     1
 77
     6
 78
     2
 67
     7
 79
     5
170
     0
171
     0
290
     0
174
     0
 93
        1
 44
50.0
173
     0
291
     1
 45
0.0
  0
VISUALSTYLE
  5
277
102
{ACAD_REACTORS
330
267
102
}
330
267
100
AcDbVisualStyle
  2
ColorChange
 70
    16
 71
     2
 72
     2
 73
     3
 90
        0
 40
-0.6
 41
-30.0
 62
     5
 63
     8
421
  8421504
 74
     1
 91
        4
 64
     7
 65
   257
 75
     1
175
     1
 42
1.0
 92
        8
 66
     8
424
  8421504
 43
1.0
 76
     1
 77
     6
 78
     2
 67
     7
 79
     5
170
     0
171
     0
290
     0
174
     0
 93
        1
 44
0.0
173
     0
291
     1
 45
0.0
  0
VISUALSTYLE
  5
271
102
{ACAD_REACTORS
330
267
102
}
330
267
100
AcDbVisualStyle
  2
Conceptual
 70
     9
 71
     3
 72
     2
 73
     0
 90
        0
 40
-0.6
 41
-30.0
 62
     5
 63
     7
421
 16777215
 74
     2
 91
        2
 64
     7
 65
   257
 75
     1
175
     1
 42
40.0
 92
        8
 66
     7
 43
1.0
 76
     1
 77
     6
 78
     2
 67
     7
 79
     3
170
     0
171
     0
290
     0
174
     0
 93
        1
 44
0.0
173
     0
291
     0
 45
0.0
  0
VISUALSTYLE
  5
272
102
{ACAD_REACTORS
330
267
102
}
330
267
100
AcDbVisualStyle
  2
Dim
 70
    11
 71
     2
 72
     2
 73
     0
 90
        0
 40
-0.6
 41
-30.0
 62
     5
 63
     7
421
 16777215
 74
     1
 91
        4
 64
     7
 65
   257
 75
     1
175
     1
 42
1.0
 92
        8
 66
     7
 43
1.0
 76
     1
 77
     6
 78
     2
 67
     7
 79
     5
170
     0
171
     0
290
     0
174
     0
 93
        1
 44
-50.0
173
     0
291
     1
 45
0.0
  0
VISUALSTYLE
  5
8FE
102
{ACAD_REACTORS
330
267
102
}
330
267
100
AcDbVisualStyle
  2
EdgeColorOff
 70
    22
 71
     2
 72
     2
 73
     0
 90
        0
 40
0.6
 41
30.0
 62
     5
 63
     7
421
 16777215
 74
     1
 91
        4
 64
     7
 65
   257
 75
     1
175
     1
 42
1.0
 92
        8
 66
     7
 43
1.0
 76
     1
 77
     6
 78
     2
 67
     7
 79
     5
170
     0
171
     0
290
     0
174
     0
 93
        1
 44
0.0
173
     0
291
     1
 45
0.0
  0
VISUALSTYLE
  5
276
102
{ACAD_REACTORS
330
267
102
}
330
267
100
AcDbVisualStyle
  2
Facepattern
 70
    15
 71
     2
 72
     2
 73
     0
 90
        0
 40
-0.6
 41
-30.0
 62
     5
 63
     7
421
 16777215
 74
     1
 91
        4
 64
     7
 65
   257
 75
     1
175
     1
 42
1.0
 92
        8
 66
     7
 43
1.0
 76
     1
 77
     6
 78
     2
 67
     7
 79
     5
170
     0
171
     0
290
     0
174
     0
 93
        1
 44
0.0
173
     0
291
     1
 45
0.0
  0
VISUALSTYLE
  5
268
102
{ACAD_REACTORS
330
267
102
}
330
267
100
AcDbVisualStyle
  2
Flat
 70
     0
 71
     2
 72
     1
 73
     1
 90
        2
 40
-0.6
 41
30.0
 62
     5
 63
     7
421
 16777215
 74
     0
 91
        4
 64
     7
 65
   257
 75
     1
175
     1
 42
1.0
 92
        8
 66
     7
 43
1.0
 76
     1
 77
     6
 78
     2
 67
     7
 79
     5
170
     0
171
     0
290
     0
174
     0
 93
       13
 44
0.0
173
     0
291
     1
 45
0.0
  0
VISUALSTYLE
  5
269
102
{ACAD_REACTORS
330
267
102
}
330
267
100
AcDbVisualStyle
  2
FlatWithEdges
 70
     1
 71
     2
 72
     1
 73
     1
 90
        2
 40
-0.6
 41
30.0
 62
     5
 63
     7
421
 16777215
 74
     1
 91
        4
 64
     7
 65
   257
 75
     1
175
     1
 42
1.0
 92
        0
 66
   257
 43
1.0
 76
     1
 77
     6
 78
     2
 67
     7
 79
     5
170
     0
171
     0
290
     0
174
     0
 93
       13
 44
0.0
173
     0
291
     1
 45
0.0
  0
VISUALSTYLE
  5
26A
102
{ACAD_REACTORS
330
267
102
}
330
267
100
AcDbVisualStyle
  2
Gouraud
 70
     2
 71
     2
 72
     2
 73
     1
 90
        2
 40
-0.6
 41
30.0
 62
     5
 63
     7
421
 16777215
 74
     0
 91
        4
 64
     7
 65
   257
 75
     1
175
     1
 42
1.0
 92
        0
 66
     7
 43
1.0
 76
     1
 77
     6
 78
     2
 67
     7
 79
     5
170
     0
171
     0
290
     0
174
     0
 93
       13
 44
0.0
173
     0
291
     1
 45
0.0
  0
VISUALSTYLE
  5
26B
102
{ACAD_REACTORS
330
267
102
}
330
267
100
AcDbVisualStyle
  2
GouraudWithEdges
 70
     3
 71
     2
 72
     2
 73
     1
 90
        2
 40
-0.6
 41
30.0
 62
     5
 63
     7
421
 16777215
 74
     1
 91
        4
 64
     7
 65
   257
 75
     1
175
     1
 42
1.0
 92
        0
 66
   257
 43
1.0
 76
     1
 77
     6
 78
     2
 67
     7
 79
     5
170
     0
171
     0
290
     0
174
     0
 93
       13
 44
0.0
173
     0
291
     1
 45
0.0
  0
VISUALSTYLE
  5
8FB
102
{ACAD_REACTORS
330
267
102
}
330
267
100
AcDbVisualStyle
  2
Hidden
 70
     6
 71
     1
 72
     2
 73
     2
 90
        0
 40
0.6
 41
30.0
 62
     5
 63
     7
421
 16777215
 74
     2
 91
        2
 64
     7
 65
   257
 75
     2
175
     1
 42
40.0
 92
        0
 66
   257
 43
1.0
 76
     1
 77
     6
 78
     2
 67
     7
 79
     3
170
     0
171
     0
290
     0
174
     0
 93
        1
 44
0.0
173
     0
291
     0
 45
0.0
  0
VISUALSTYLE
  5
8FC
102
{ACAD_REACTORS
330
267
102
}
330
267
100
AcDbVisualStyle
  2
JitterOff
 70
    20
 71
     2
 72
     2
 73
     0
 90
        0
 40
0.6
 41
30.0
 62
     5
 63
     7
421
 16777215
 74
     1
 91
        4
 64
     7
 65
   257
 75
     1
175
     1
 42
1.0
 92
       10
 66
     7
 43
1.0
 76
     1
 77
     6
 78
     2
 67
     7
 79
     5
170
     0
171
     0
290
     0
174
     0
 93
        1
 44
0.0
173
     0
291
     1
 45
0.0
  0
VISUALSTYLE
  5
275
102
{ACAD_REACTORS
330
267
102
}
330
267
100
AcDbVisualStyle
  2
Linepattern
 70
    14
 71
     2
 72
     2
 73
     0
 90
        0
 40
-0.6
 41
-30.0
 62
     5
 63
     7
421
 16777215
 74
     1
 91
        4
 64
     7
 65
   257
 75
     7
175
     7
 42
1.0
 92
        8
 66
     7
 43
1.0
 76
     1
 77
     6
 78
     2
 67
     7
 79
     5
170
     0
171
     0
290
     0
174
     0
 93
        1
 44
0.0
173
     0
291
     1
 45
0.0
  0
VISUALSTYLE
  5
8FD
102
{ACAD_REACTORS
330
267
102
}
330
267
100
AcDbVisualStyle
  2
OverhangOff
 70
    21
 71
     2
 72
     2
 73
     0
 90
        0
 40
0.6
 41
30.0
 62
     5
 63
     7
421
 16777215
 74
     1
 91
        4
 64
     7
 65
   257
 75
     1
175
     1
 42
1.0
 92
        9
 66
     7
 43
1.0
 76
     1
 77
     6
 78
     2
 67
     7
 79
     5
170
     0
171
     0
290
     0
174
     0
 93
        1
 44
0.0
173
     0
291
     1
 45
0.0
  0
VISUALSTYLE
  5
270
102
{ACAD_REACTORS
330
267
102
}
330
267
100
AcDbVisualStyle
  2
Realistic
 70
     8
 71
     2
 72
     2
 73
     0
 90
        0
 40
-0.6
 41
-30.0
 62
     5
 63
     7
421
 16777215
 74
     1
 91
        0
 64
     7
 65
   257
 75
     1
175
     1
 42
1.0
 92
        8
 66
     8
424
  7895160
 43
1.0
 76
     1
 77
     6
 78
     2
 67
     7
 79
     5
170
     0
171
     0
290
     0
174
     0
 93
       13
 44
0.0
173
     0
291
     0
 45
0.0
  0
VISUALSTYLE
  5
903
102
{ACAD_REACTORS
330
267
102
}
330
267
100
AcDbVisualStyle
  2
Shaded
 70
    27
 71
     2
 72
     2
 73
     1
 90
        2
 40
0.6
 41
30.0
 62
     5
 63
     7
421
 16777215
 74
     0
 91
        4
 64
     7
 65
   257
 75
     1
175
     1
 42
1.0
 92
        8
 66
   257
 43
1.0
 76
     1
 77
     6
 78
     2
 67
     8
425
  7895160
 79
     3
170
     0
171
     0
290
     0
174
     0
 93
        5
 44
0.0
173
     0
291
     0
 45
0.0
  0
VISUALSTYLE
  5
902
102
{ACAD_REACTORS
330
267
102
}
330
267
100
AcDbVisualStyle
  2
Shaded with edges
 70
    26
 71
     2
 72
     2
 73
     1
 90
        2
 40
0.6
 41
30.0
 62
     5
 63
     7
421
 16777215
 74
     1
 91
       10
 64
     7
 65
   257
 75
     2
175
     1
 42
1.0
 92
        8
 66
   257
 43
1.0
 76
     1
 77
     6
 78
     2
 67
     7
 79
     3
170
     0
171
     0
290
     0
174
     0
 93
        5
 44
0.0
173
     0
291
     0
 45
0.0
  0
VISUALSTYLE
  5
8FF
102
{ACAD_REACTORS
330
267
102
}
330
267
100
AcDbVisualStyle
  2
Shades of Gray
 70
    23
 71
     2
 72
     2
 73
     3
 90
        0
 40
0.6
 41
30.0
 62
     5
 63
     7
421
 16777215
 74
     2
 91
        2
 64
     7
 65
     7
 75
     1
175
     1
 42
40.0
 92
        8
 66
     7
 43
1.0
 76
     1
 77
     6
 78
     2
 67
     7
 79
     3
170
     0
171
     0
290
     0
174
     0
 93
        1
 44
0.0
173
     0
291
     0
 45
0.0
  0
VISUALSTYLE
  5
900
102
{ACAD_REACTORS
330
267
102
}
330
267
100
AcDbVisualStyle
  2
Sketchy
 70
    24
 71
     1
 72
     2
 73
     2
 90
        0
 40
0.6
 41
30.0
 62
     5
 63
     7
421
 16777215
 74
     2
 91
        2
 64
     7
 65
     7
 75
     1
175
     1
 42
40.0
 92
       11
 66
     7
 43
1.0
 76
     1
 77
     6
 78
     2
 67
     7
 79
     6
170
     0
171
     0
290
     0
174
     0
 93
        1
 44
0.0
173
     0
291
     0
 45
0.0
  0
VISUALSTYLE
  5
274
102
{ACAD_REACTORS
330
267
102
}
330
267
100
AcDbVisualStyle
  2
Thicken
 70
    13
 71
     2
 72
     2
 73
     0
 90
        0
 40
-0.6
 41
-30.0
 62
     5
 63
     7
421
 16777215
 74
     1
 91
        4
 64
     7
 65
   257
 75
     1
175
     1
 42
1.0
 92
       12
 66
     7
 43
1.0
 76
     1
 77
     6
 78
     2
 67
     7
 79
     5
170
     0
171
     0
290
     0
174
     0
 93
        1
 44
0.0
173
     0
291
     1
 45
0.0
  0
VISUALSTYLE
  5
8FA
102
{ACAD_REACTORS
330
267
102
}
330
267
100
AcDbVisualStyle
  2
Wireframe
 70
     5
 71
     0
 72
     2
 73
     0
 90
        0
 40
0.6
 41
30.0
 62
     5
 63
     7
421
 16777215
 74
     1
 91
        4
 64
     7
 65
   257
 75
     1
175
     1
 42
1.0
 92
        0
 66
   257
 43
1.0
 76
     1
 77
     6
 78
     2
 67
     7
 79
     3
170
     0
171
     0
290
     0
174
     0
 93
        1
 44
0.0
173
     0
291
     0
 45
0.0
  0
VISUALSTYLE
  5
901
102
{ACAD_REACTORS
330
267
102
}
330
267
100
AcDbVisualStyle
  2
X-Ray
 70
    25
 71
     2
 72
     2
 73
     1
 90
        1
 40
0.5
 41
30.0
 62
     5
 63
     7
421
 16777215
 74
     1
 91
        0
 64
     7
 65
   257
 75
     1
175
     1
 42
1.0
 92
        8
 66
     7
 43
1.0
 76
     1
 77
     6
 78
     2
 67
     7
 79
     3
170
     0
171
     0
290
     0
174
     0
 93
       13
 44
0.0
173
     0
291
     0
 45
0.0
  0
DICTIONARYVAR
  5
331
102
{ACAD_REACTORS
330
330
102
}
330
330
100
DictionaryVariables
280
     0
  1
1:1
  0
DICTIONARYVAR
  5
DB1
102
{ACAD_REACTORS
330
330
102
}
330
330
100
DictionaryVariables
280
     0
  1
Standard
  0
DICTIONARYVAR
  5
335
102
{ACAD_REACTORS
330
330
102
}
330
330
100
DictionaryVariables
280
     0
  1
Standard
  0
DICTIONARYVAR
  5
D52
102
{ACAD_REACTORS
330
330
102
}
330
330
100
DictionaryVariables
280
     0
  1
ByLayer
  0
DICTIONARYVAR
  5
896
102
{ACAD_REACTORS
330
330
102
}
330
330
100
DictionaryVariables
280
     0
  1
0
  0
DICTIONARYVAR
  5
ECE
102
{ACAD_REACTORS
330
E3E
102
}
330
E3E
100
DictionaryVariables
280
     0
  1
0.261799
  0
DICTIONARYVAR
  5
ECC
102
{ACAD_REACTORS
330
E3E
102
}
330
E3E
100
DictionaryVariables
280
     0
  1
0.400000
  0
DICTIONARYVAR
  5
ECD
102
{ACAD_REACTORS
330
E3E
102
}
330
E3E
100
DictionaryVariables
280
     0
  1
0.250000
  0
DICTIONARYVAR
  5
ECF
102
{ACAD_REACTORS
330
E3E
102
}
330
E3E
100
DictionaryVariables
280
     0
  1
1
  0
FIELD
  5
1467
102
{ACAD_REACTORS
330
3FF0
102
}
330
3FF0
100
AcDbField
  1
_text
  2
{%<\_FldIdx 0>%N}
 90
        1
360
146B
 97
        0
 91
       63
 92
        0
 94
       11
 95
        2
 96
        0
300

 93
        1
  6
ACFD_FIELDTEXT_CHECKSUM
 93
        2
 90
        2
140
4540.0
 94
        0
300

302

304
ACVALUE_END
  7
ACFD_FIELD_VALUE
 93
        6
 90
        4
  1
{20180228N}
 94
        0
300

302

304
ACVALUE_END
301
{20180228N}
 98
       11
  0
DICTIONARY
  5
4300
330
279
100
AcDbDictionary
280
     1
281
     1
  3
ACAD_ROUNDTRIP_2008_TABLESTYLE_CELLSTYLEMAP
360
4301
  0
FIELD
  5
146B
330
1467
100
AcDbField
  1
AcVar
  2
\AcVar Date \f "yyyyMMdd"
 90
        0
 97
        0
 91
       63
 92
        0
 94
        8
 95
       64
 96
        0
300
Variable not supported
 93
        1
  6
Variable
 93
        2
 90
        4
  1
Date
 94
        0
300

302

304
ACVALUE_END
  7
ACFD_FIELD_VALUE
 93
        6
 90
        8
 92
       16
310
E207020000001C000A00300011000000
 94
        0
300
yyyyMMdd
302

304
ACVALUE_END
301
20180228
 98
        8
  0
CELLSTYLEMAP
  5
4301
102
{ACAD_REACTORS
330
4300
102
}
330
4300
100
AcDbCellStyleMap
 90
        3
300
CELLSTYLE
  1
TABLEFORMAT_BEGIN
 90
        5
170
     1
 91
        0
 92
    32768
 62
   257
 93
        1
300
CONTENTFORMAT
  1
CONTENTFORMAT_BEGIN
 90
        0
 91
        0
 92
        4
 93
        0
300

 40
0.0
140
1.0
 94
        5
 62
     0
340
17
144
6.0
309
CONTENTFORMAT_END
171
     1
301
MARGIN
  1
CELLMARGIN_BEGIN
 40
0.06
 40
0.06
 40
0.06
 40
0.06
 40
0.18
 40
0.18
309
CELLMARGIN_END
 94
        6
 95
        1
302
GRIDFORMAT
  1
GRIDFORMAT_BEGIN
 90
        0
 91
        1
 62
     0
 92
       -2
340
0
 93
        0
 40
0.045
309
GRIDFORMAT_END
 95
        2
302
GRIDFORMAT
  1
GRIDFORMAT_BEGIN
 90
        0
 91
        1
 62
     0
 92
       -2
340
0
 93
        0
 40
0.045
309
GRIDFORMAT_END
 95
        4
302
GRIDFORMAT
  1
GRIDFORMAT_BEGIN
 90
        0
 91
        1
 62
     0
 92
       -2
340
0
 93
        0
 40
0.045
309
GRIDFORMAT_END
 95
        8
302
GRIDFORMAT
  1
GRIDFORMAT_BEGIN
 90
        0
 91
        1
 62
     0
 92
       -2
340
0
 93
        0
 40
0.045
309
GRIDFORMAT_END
 95
       16
302
GRIDFORMAT
  1
GRIDFORMAT_BEGIN
 90
        0
 91
        1
 62
     0
 92
       -2
340
0
 93
        0
 40
0.045
309
GRIDFORMAT_END
 95
       32
302
GRIDFORMAT
  1
GRIDFORMAT_BEGIN
 90
        0
 91
        1
 62
     0
 92
       -2
340
0
 93
        0
 40
0.045
309
GRIDFORMAT_END
309
TABLEFORMAT_END
  1
CELLSTYLE_BEGIN
 90
        1
 91
        1
300
_TITLE
309
CELLSTYLE_END
300
CELLSTYLE
  1
TABLEFORMAT_BEGIN
 90
        5
170
     1
 91
        0
 92
        0
 62
   257
 93
        1
300
CONTENTFORMAT
  1
CONTENTFORMAT_BEGIN
 90
        0
 91
        0
 92
        4
 93
        0
300

 40
0.0
140
1.0
 94
        5
 62
     0
340
17
144
4.5
309
CONTENTFORMAT_END
171
     1
301
MARGIN
  1
CELLMARGIN_BEGIN
 40
0.06
 40
0.06
 40
0.06
 40
0.06
 40
0.18
 40
0.18
309
CELLMARGIN_END
 94
        6
 95
        1
302
GRIDFORMAT
  1
GRIDFORMAT_BEGIN
 90
        0
 91
        1
 62
     0
 92
       -2
340
0
 93
        0
 40
0.045
309
GRIDFORMAT_END
 95
        2
302
GRIDFORMAT
  1
GRIDFORMAT_BEGIN
 90
        0
 91
        1
 62
     0
 92
       -2
340
0
 93
        0
 40
0.045
309
GRIDFORMAT_END
 95
        4
302
GRIDFORMAT
  1
GRIDFORMAT_BEGIN
 90
        0
 91
        1
 62
     0
 92
       -2
340
0
 93
        0
 40
0.045
309
GRIDFORMAT_END
 95
        8
302
GRIDFORMAT
  1
GRIDFORMAT_BEGIN
 90
        0
 91
        1
 62
     0
 92
       -2
340
0
 93
        0
 40
0.045
309
GRIDFORMAT_END
 95
       16
302
GRIDFORMAT
  1
GRIDFORMAT_BEGIN
 90
        0
 91
        1
 62
     0
 92
       -2
340
0
 93
        0
 40
0.045
309
GRIDFORMAT_END
 95
       32
302
GRIDFORMAT
  1
GRIDFORMAT_BEGIN
 90
        0
 91
        1
 62
     0
 92
       -2
340
0
 93
        0
 40
0.045
309
GRIDFORMAT_END
309
TABLEFORMAT_END
  1
CELLSTYLE_BEGIN
 90
        2
 91
        1
300
_HEADER
309
CELLSTYLE_END
300
CELLSTYLE
  1
TABLEFORMAT_BEGIN
 90
        5
170
     1
 91
        0
 92
        0
 62
   257
 93
        1
300
CONTENTFORMAT
  1
CONTENTFORMAT_BEGIN
 90
        0
 91
        0
 92
        4
 93
        0
300

 40
0.0
140
1.0
 94
        2
 62
     0
340
17
144
4.5
309
CONTENTFORMAT_END
171
     1
301
MARGIN
  1
CELLMARGIN_BEGIN
 40
0.06
 40
0.06
 40
0.06
 40
0.06
 40
0.18
 40
0.18
309
CELLMARGIN_END
 94
        6
 95
        1
302
GRIDFORMAT
  1
GRIDFORMAT_BEGIN
 90
        0
 91
        1
 62
     0
 92
       -2
340
0
 93
        0
 40
0.045
309
GRIDFORMAT_END
 95
        2
302
GRIDFORMAT
  1
GRIDFORMAT_BEGIN
 90
        0
 91
        1
 62
     0
 92
       -2
340
0
 93
        0
 40
0.045
309
GRIDFORMAT_END
 95
        4
302
GRIDFORMAT
  1
GRIDFORMAT_BEGIN
 90
        0
 91
        1
 62
     0
 92
       -2
340
0
 93
        0
 40
0.045
309
GRIDFORMAT_END
 95
        8
302
GRIDFORMAT
  1
GRIDFORMAT_BEGIN
 90
        0
 91
        1
 62
     0
 92
       -2
340
0
 93
        0
 40
0.045
309
GRIDFORMAT_END
 95
       16
302
GRIDFORMAT
  1
GRIDFORMAT_BEGIN
 90
        0
 91
        1
 62
     0
 92
       -2
340
0
 93
        0
 40
0.045
309
GRIDFORMAT_END
 95
       32
302
GRIDFORMAT
  1
GRIDFORMAT_BEGIN
 90
        0
 91
        1
 62
     0
 92
       -2
340
0
 93
        0
 40
0.045
309
GRIDFORMAT_END
309
TABLEFORMAT_END
  1
CELLSTYLE_BEGIN
 90
        3
 91
        2
300
_DATA
309
CELLSTYLE_END
  0
ENDSEC
  0
EOF
