  0
SECTION
  2
HEADER
  9
$ACADVER
  1
AC1021
  9
$ACADMAINTVER
 70
    25
  9
$DWGCODEPAGE
  3
ANSI_932
  9
$LASTSAVEDBY
  1
howeNelson
  9
$INSBASE
 10
0.0
 20
0.0
 30
0.0
  9
$EXTMIN
 10
0.0
 20
0.0
 30
0.0
  9
$EXTMAX
 10
2100.0
 20
2970.0
 30
34.99521132346015
  9
$LIMMIN
 10
0.0
 20
0.0
  9
$LIMMAX
 10
2100.0
 20
2970.0
  9
$ORTHOMODE
 70
     0
  9
$REGENMODE
 70
     1
  9
$FILLMODE
 70
     1
  9
$QTEXTMODE
 70
     0
  9
$MIRRTEXT
 70
     1
  9
$LTSCALE
 40
5.0
  9
$ATTMODE
 70
     1
  9
$TEXTSIZE
 40
533.0403732820173
  9
$TRACEWID
 40
1.0
  9
$TEXTSTYLE
  7
Standard
  9
$CLAYER
  8
Dim
  9
$CELTYPE
  6
Continuous
  9
$CECOLOR
 62
   256
  9
$CELTSCALE
 40
1.0
  9
$DISPSILH
 70
     0
  9
$DIMSCALE
 40
1.0
  9
$DIMASZ
 40
9.0
  9
$DIMEXO
 40
25.0
  9
$DIMDLI
 40
25.0
  9
$DIMRND
 40
0.0
  9
$DIMDLE
 40
0.0
  9
$DIMEXE
 40
0.0
  9
$DIMTP
 40
0.0
  9
$DIMTM
 40
0.0
  9
$DIMTXT
 40
24.4326171875
  9
$DIMCEN
 40
0.0
  9
$DIMTSZ
 40
0.0
  9
$DIMTOL
 70
     0
  9
$DIMLIM
 70
     0
  9
$DIMTIH
 70
     0
  9
$DIMTOH
 70
     0
  9
$DIMSE1
 70
     0
  9
$DIMSE2
 70
     0
  9
$DIMTAD
 70
     1
  9
$DIMZIN
 70
    11
  9
$DIMBLK
  1
DOT
  9
$DIMASO
 70
     1
  9
$DIMSHO
 70
     1
  9
$DIMPOST
  1
<>
  9
$DIMAPOST
  1
[]
  9
$DIMALT
 70
     0
  9
$DIMALTD
 70
     1
  9
$DIMALTF
 40
1.0
  9
$DIMLFAC
 40
1.0
  9
$DIMTOFL
 70
     0
  9
$DIMTVP
 40
0.0
  9
$DIMTIX
 70
     1
  9
$DIMSOXD
 70
     0
  9
$DIMSAH
 70
     0
  9
$DIMBLK1
  1

  9
$DIMBLK2
  1

  9
$DIMSTYLE
  2
JIS
  9
$DIMCLRD
 70
     0
  9
$DIMCLRE
 70
     0
  9
$DIMCLRT
 70
     0
  9
$DIMTFAC
 40
1.0
  9
$DIMGAP
 40
10.0
  9
$DIMJUST
 70
     0
  9
$DIMSD1
 70
     0
  9
$DIMSD2
 70
     0
  9
$DIMTOLJ
 70
     1
  9
$DIMTZIN
 70
    11
  9
$DIMALTZ
 70
    11
  9
$DIMALTTZ
 70
    11
  9
$DIMUPT
 70
     0
  9
$DIMDEC
 70
     0
  9
$DIMTDEC
 70
     1
  9
$DIMALTU
 70
     2
  9
$DIMALTTD
 70
     2
  9
$DIMTXSTY
  7
ＭＳ ゴシック
  9
$DIMAUNIT
 70
     0
  9
$DIMADEC
 70
     0
  9
$DIMALTRND
 40
0.0
  9
$DIMAZIN
 70
     0
  9
$DIMDSEP
 70
    46
  9
$DIMATFIT
 70
     0
  9
$DIMFRAC
 70
     2
  9
$DIMLDRBLK
  1
DOT
  9
$DIMLUNIT
 70
     2
  9
$DIMLWD
 70
    -2
  9
$DIMLWE
 70
    -2
  9
$DIMTMOVE
 70
     0
  9
$DIMFXL
 40
1.0
  9
$DIMFXLON
 70
     0
  9
$DIMJOGANG
 40
0.7853981633974483
  9
$DIMTFILL
 70
     0
  9
$DIMTFILLCLR
 70
     0
  9
$DIMARCSYM
 70
     0
  9
$DIMLTYPE
  6

  9
$DIMLTEX1
  6

  9
$DIMLTEX2
  6

  9
$LUNITS
 70
     2
  9
$LUPREC
 70
     0
  9
$SKETCHINC
 40
0.1
  9
$FILLETRAD
 40
0.0
  9
$AUNITS
 70
     0
  9
$AUPREC
 70
     0
  9
$MENU
  1
acad
  9
$ELEVATION
 40
0.0
  9
$PELEVATION
 40
0.0
  9
$THICKNESS
 40
0.0
  9
$LIMCHECK
 70
     0
  9
$CHAMFERA
 40
0.0
  9
$CHAMFERB
 40
0.0
  9
$CHAMFERC
 40
0.0
  9
$CHAMFERD
 40
0.0
  9
$SKPOLY
 70
     0
  9
$TDCREATE
 40
2447893.375
  9
$TDUCREATE
 40
0.0
  9
$TDUPDATE
 40
2458260.58820147
  9
$TDUUPDATE
 40
2458260.21320147
  9
$TDINDWG
 40
0.0010172685
  9
$TDUSRTIMER
 40
0.0003781713
  9
$USRTIMER
 70
     1
  9
$ANGBASE
 50
0.0
  9
$ANGDIR
 70
     0
  9
$PDMODE
 70
     1
  9
$PDSIZE
 40
-2.0
  9
$PLINEWID
 40
0.0
  9
$SPLFRAME
 70
     0
  9
$SPLINETYPE
 70
     6
  9
$SPLINESEGS
 70
     8
  9
$HANDSEED
  5
29BF
  9
$SURFTAB1
 70
     6
  9
$SURFTAB2
 70
     6
  9
$SURFTYPE
 70
     6
  9
$SURFU
 70
     6
  9
$SURFV
 70
     6
  9
$UCSBASE
  2

  9
$UCSNAME
  2

  9
$UCSORG
 10
0.0
 20
0.0
 30
0.0
  9
$UCSXDIR
 10
1.0
 20
0.0
 30
0.0
  9
$UCSYDIR
 10
0.0
 20
1.0
 30
0.0
  9
$UCSORTHOREF
  2

  9
$UCSORTHOVIEW
 70
     0
  9
$UCSORGTOP
 10
0.0
 20
0.0
 30
0.0
  9
$UCSORGBOTTOM
 10
0.0
 20
0.0
 30
0.0
  9
$UCSORGLEFT
 10
0.0
 20
0.0
 30
0.0
  9
$UCSORGRIGHT
 10
0.0
 20
0.0
 30
0.0
  9
$UCSORGFRONT
 10
0.0
 20
0.0
 30
0.0
  9
$UCSORGBACK
 10
0.0
 20
0.0
 30
0.0
  9
$PUCSBASE
  2

  9
$PUCSNAME
  2

  9
$PUCSORG
 10
0.0
 20
0.0
 30
0.0
  9
$PUCSXDIR
 10
1.0
 20
0.0
 30
0.0
  9
$PUCSYDIR
 10
0.0
 20
1.0
 30
0.0
  9
$PUCSORTHOREF
  2

  9
$PUCSORTHOVIEW
 70
     0
  9
$PUCSORGTOP
 10
0.0
 20
0.0
 30
0.0
  9
$PUCSORGBOTTOM
 10
0.0
 20
0.0
 30
0.0
  9
$PUCSORGLEFT
 10
0.0
 20
0.0
 30
0.0
  9
$PUCSORGRIGHT
 10
0.0
 20
0.0
 30
0.0
  9
$PUCSORGFRONT
 10
0.0
 20
0.0
 30
0.0
  9
$PUCSORGBACK
 10
0.0
 20
0.0
 30
0.0
  9
$USERI1
 70
     0
  9
$USERI2
 70
     0
  9
$USERI3
 70
     0
  9
$USERI4
 70
     0
  9
$USERI5
 70
     0
  9
$USERR1
 40
0.0
  9
$USERR2
 40
0.0
  9
$USERR3
 40
0.0
  9
$USERR4
 40
0.0
  9
$USERR5
 40
0.0
  9
$WORLDVIEW
 70
     1
  9
$SHADEDGE
 70
     3
  9
$SHADEDIF
 70
    70
  9
$TILEMODE
 70
     1
  9
$MAXACTVP
 70
    64
  9
$PINSBASE
 10
0.0
 20
0.0
 30
0.0
  9
$PLIMCHECK
 70
     0
  9
$PEXTMIN
 10
0.0
 20
0.0
 30
0.0
  9
$PEXTMAX
 10
0.0
 20
0.0
 30
0.0
  9
$PLIMMIN
 10
-7.5
 20
-20.0
  9
$PLIMMAX
 10
412.5
 20
277.0
  9
$UNITMODE
 70
     0
  9
$VISRETAIN
 70
     0
  9
$PLINEGEN
 70
     1
  9
$PSLTSCALE
 70
     0
  9
$TREEDEPTH
 70
  3020
  9
$CMLSTYLE
  2
Standard
  9
$CMLJUST
 70
     0
  9
$CMLSCALE
 40
1.0
  9
$PROXYGRAPHICS
 70
     0
  9
$MEASUREMENT
 70
     1
  9
$CELWEIGHT
370
    -1
  9
$ENDCAPS
280
     0
  9
$JOINSTYLE
280
     0
  9
$LWDISPLAY
290
     1
  9
$INSUNITS
 70
     4
  9
$HYPERLINKBASE
  1

  9
$STYLESHEET
  1

  9
$XEDIT
290
     1
  9
$CEPSNTYPE
380
     0
  9
$PSTYLEMODE
290
     1
  9
$FINGERPRINTGUID
  2

  9
$VERSIONGUID
  2

  9
$EXTNAMES
290
     1
  9
$PSVPSCALE
 40
0.0
  9
$OLESTARTUP
290
     0
  9
$SORTENTS
280
   127
  9
$INDEXCTL
280
     0
  9
$HIDETEXT
280
     1
  9
$XCLIPFRAME
290
     0
  9
$HALOGAP
280
     0
  9
$OBSCOLOR
 70
   257
  9
$OBSLTYPE
280
     0
  9
$INTERSECTIONDISPLAY
280
     0
  9
$INTERSECTIONCOLOR
 70
   257
  9
$DIMASSOC
280
     2
  9
$PROJECTNAME
  1

  9
$CAMERADISPLAY
290
     0
  9
$LENSLENGTH
 40
50.0
  9
$CAMERAHEIGHT
 40
0.0
  9
$STEPSPERSEC
 40
2.0
  9
$STEPSIZE
 40
6.0
  9
$3DDWFPREC
 40
2.0
  9
$PSOLWIDTH
 40
0.25
  9
$PSOLHEIGHT
 40
4.0
  9
$LOFTANG1
 40
1.570796326794897
  9
$LOFTANG2
 40
1.570796326794897
  9
$LOFTMAG1
 40
0.0
  9
$LOFTMAG2
 40
0.0
  9
$LOFTPARAM
 70
     7
  9
$LOFTNORMALS
280
     1
  9
$LATITUDE
 40
37.795
  9
$LONGITUDE
 40
-122.394
  9
$NORTHDIRECTION
 40
0.0
  9
$TIMEZONE
 70
 -8000
  9
$LIGHTGLYPHDISPLAY
280
     1
  9
$TILEMODELIGHTSYNCH
280
     1
  9
$SOLIDHIST
280
     1
  9
$SHOWHIST
280
     1
  9
$DWFFRAME
280
     2
  9
$DGNFRAME
280
     2
  9
$REALWORLDSCALE
290
     1
  9
$INTERFERECOLOR
 62
   256
  9
$CSHADOW
280
     0
  9
$SHADOWPLANELOCATION
 40
0.0
  0
ENDSEC
  0
SECTION
  2
CLASSES
  0
CLASS
  1
LWPOLYLINE
  2
AcDbPolyline
  3
ObjectDBX Classes
 90
        0
 91
        1
280
     0
281
     1
  0
CLASS
  1
IMAGE
  2
AcDbRasterImage
  3
ISM
 90
      127
 91
       10
280
     0
281
     1
  0
CLASS
  1
OLE2FRAME
  2
AcDbOle2Frame
  3
ObjectDBX Classes
 90
        0
 91
        1
280
     0
281
     1
  0
CLASS
  1
HATCH
  2
AcDbHatch
  3
ObjectDBX Classes
 90
        0
 91
        1
280
     0
281
     1
  0
CLASS
  1
DICTIONARYVAR
  2
AcDbDictionaryVar
  3
ObjectDBX Classes
 90
        0
 91
        9
280
     0
281
     0
  0
CLASS
  1
RASTERVARIABLES
  2
AcDbRasterVariables
  3
ISM
 90
        0
 91
        9
280
     0
281
     0
  0
CLASS
  1
IMAGEDEF
  2
AcDbRasterImageDef
  3
ISM
 90
        0
 91
        9
280
     0
281
     0
  0
CLASS
  1
IMAGEDEF_REACTOR
  2
AcDbRasterImageDefReactor
  3
ISM
 90
        1
 91
        9
280
     0
281
     0
  0
CLASS
  1
IDBUFFER
  2
AcDbIdBuffer
  3
ObjectDBX Classes
 90
        0
 91
        9
280
     0
281
     0
  0
CLASS
  1
SPATIAL_FILTER
  2
AcDbSpatialFilter
  3
ObjectDBX Classes
 90
        0
 91
        9
280
     0
281
     0
  0
CLASS
  1
XRECORD
  2
AcDbXrecord
  3
ObjectDBX Classes
 90
        0
 91
        1
280
     0
281
     0
  0
CLASS
  1
SORTENTSTABLE
  2
AcDbSortentsTable
  3
ObjectDBX Classes
 90
        0
 91
        9
280
     0
281
     0
  0
CLASS
  1
LAYER_INDEX
  2
AcDbLayerIndex
  3
ObjectDBX Classes
 90
        0
 91
        9
280
     0
281
     0
  0
CLASS
  1
SPATIAL_INDEX
  2
AcDbSpatialIndex
  3
AutoCAD 2000
 90
        0
 91
        9
280
     0
281
     0
  0
CLASS
  1
OBJECT_PTR
  2
CAseDLPNTableRecord
  3
ASE-LPNTableRecord
 90
        1
 91
        9
280
     0
281
     0
  0
CLASS
  1
LAYOUT
  2
AcDbLayout
  3
ObjectDBX Classes
 90
        0
 91
        1
280
     0
281
     0
  0
CLASS
  1
PLOTSETTINGS
  2
AcDbPlotSettings
  3
ObjectDBX Classes
 90
        0
 91
        9
280
     0
281
     0
  0
CLASS
  1
ACDBDICTIONARYWDFLT
  2
AcDbDictionaryWithDefault
  3
ObjectDBX Classes
 90
        0
 91
        9
280
     0
281
     0
  0
CLASS
  1
ACDBPLACEHOLDER
  2
AcDbPlaceHolder
  3
ObjectDBX Classes
 90
        0
 91
        1
280
     0
281
     0
  0
CLASS
  1
SCALE
  2
AcDbScale
  3
ObjectDBX Classes
 90
     1153
 91
        9
280
     0
281
     0
  0
CLASS
  1
MATERIAL
  2
AcDbMaterial
  3
ObjectDBX Classes
 90
     1153
 91
        9
280
     0
281
     0
  0
CLASS
  1
VISUALSTYLE
  2
AcDbVisualStyle
  3
ObjectDBX Classes
 90
     4095
 91
        9
280
     0
281
     0
  0
CLASS
  1
TABLESTYLE
  2
AcDbTableStyle
  3
ObjectDBX Classes
 90
     4095
 91
        9
280
     0
281
     0
  0
CLASS
  1
DIMASSOC
  2
AcDbDimAssoc
  3
"AcDbDimAssoc|Product Desc:     AcDim ARX App For Dimension|Company:          Autodesk, Inc.|WEB Address:      www.autodesk.com"
 90
        0
 91
        9
280
     0
281
     0
  0
CLASS
  1
CELLSTYLEMAP
  2
AcDbCellStyleMap
  3
ObjectDBX Classes
 90
     1152
 91
        9
280
     0
281
     0
  0
CLASS
  1
SUN
  2
AcDbSun
  3
SCENEOE
 90
     1153
 91
        9
280
     0
281
     0
  0
CLASS
  1
MLEADERSTYLE
  2
AcDbMLeaderStyle
  3
ACDB_MLEADERSTYLE_CLASS
 90
     4095
 91
        9
280
     0
281
     0
  0
CLASS
  1
FIELD
  2
AcDbField
  3
ObjectDBX Classes
 90
     1152
 91
        9
280
     0
281
     0
  0
CLASS
  1
FIELDLIST
  2
AcDbFieldList
  3
ObjectDBX Classes
 90
     1152
 91
        9
280
     0
281
     0
  0
ENDSEC
  0
SECTION
  2
TABLES
  0
TABLE
  2
VPORT
  5
7
330
0
100
AcDbSymbolTable
 70
     1
  0
VPORT
  5
15
330
7
100
AcDbSymbolTableRecord
100
AcDbViewportTableRecord
  2
*ACTIVE
 70
     0
 10
0.0
 20
0.0
 11
1.0
 21
1.0
 12
672.9525617540357
 22
1782.612370234525
 13
0.0
 23
0.0
 14
1.0
 24
1.0
 15
0.0
 25
0.0
 16
0.0
 26
0.0
 36
1.0
 17
377.0474382459643
 27
-297.6123702345249
 37
0.0
 40
3029.4
 41
2.294372294372294
 42
50.0
 43
0.0
 44
0.0
 50
0.0
 51
0.0
 71
    16
 72
  2000
 73
     1
 74
     1
 75
     0
 76
     0
 77
     0
 78
     0
281
     0
 65
     1
110
0.0
120
0.0
130
0.0
111
1.0
121
0.0
131
0.0
112
0.0
122
1.0
132
0.0
 79
     0
146
0.0
348
26C
 60
     3
 61
     5
292
     1
282
     1
141
0.0
142
0.0
 63
   256
361
8C2
  0
ENDTAB
  0
TABLE
  2
LTYPE
  5
4
330
0
100
AcDbSymbolTable
 70
    11
  0
LTYPE
  5
11
330
4
100
AcDbSymbolTableRecord
100
AcDbLinetypeTableRecord
  2
ByBlock
 70
     0
  3

 72
    65
 73
     0
 40
0.0
  0
LTYPE
  5
12
330
4
100
AcDbSymbolTableRecord
100
AcDbLinetypeTableRecord
  2
ByLayer
 70
     0
  3

 72
    65
 73
     0
 40
0.0
  0
LTYPE
  5
13
330
4
100
AcDbSymbolTableRecord
100
AcDbLinetypeTableRecord
  2
Continuous
 70
     0
  3
Solid line
 72
    65
 73
     0
 40
0.0
  0
LTYPE
  5
8D4
330
4
100
AcDbSymbolTableRecord
100
AcDbLinetypeTableRecord
  2
HIDDEN
 70
     0
  3
Hidden _ _ _ _ _ _ _ _ _ _ _ _ _ _ _ _ _ _ _ _ 
 72
    65
 73
     2
 40
9.524999999999999
 49
6.35
 74
     0
 49
-3.175
 74
     0
  0
LTYPE
  5
BF2
330
4
100
AcDbSymbolTableRecord
100
AcDbLinetypeTableRecord
  2
BORDER
 70
     0
  3
Border __  __  . __  __  . __  __  . __  __  . 
 72
    65
 73
     6
 40
44.45
 49
12.7
 74
     0
 49
-6.35
 74
     0
 49
12.7
 74
     0
 49
-6.35
 74
     0
 49
0.0
 74
     0
 49
-6.35
 74
     0
  0
LTYPE
  5
1B00
330
4
100
AcDbSymbolTableRecord
100
AcDbLinetypeTableRecord
  2
AI-Linetype-1
 70
     0
  3
Adobe Illustrator Linetype No. 1
 72
    65
 73
     4
 40
28.67400121688843
 49
17.92200088500977
 74
     0
 49
-3.584000110626221
 74
     0
 49
3.584000110626221
 74
     0
 49
-3.584000110626221
 74
     0
  0
LTYPE
  5
1B01
330
4
100
AcDbSymbolTableRecord
100
AcDbLinetypeTableRecord
  2
AI-Linetype-2
 70
     0
  3
Adobe Illustrator Linetype No. 2
 72
    65
 73
     4
 40
28.67400121688843
 49
17.92200088500977
 74
     0
 49
-3.584000110626221
 74
     0
 49
3.584000110626221
 74
     0
 49
-3.584000110626221
 74
     0
  0
LTYPE
  5
1B02
330
4
100
AcDbSymbolTableRecord
100
AcDbLinetypeTableRecord
  2
AI-Linetype-3
 70
     0
  3
Adobe Illustrator Linetype No. 3
 72
    65
 73
     2
 40
2.115999937057495
 49
1.057999968528748
 74
     0
 49
-1.057999968528748
 74
     0
  0
LTYPE
  5
1B03
330
4
100
AcDbSymbolTableRecord
100
AcDbLinetypeTableRecord
  2
AI-Linetype-4
 70
     0
  3
Adobe Illustrator Linetype No. 4
 72
    65
 73
     2
 40
2.115999937057495
 49
1.057999968528748
 74
     0
 49
-1.057999968528748
 74
     0
  0
LTYPE
  5
1B04
330
4
100
AcDbSymbolTableRecord
100
AcDbLinetypeTableRecord
  2
AI-Linetype-5
 70
     0
  3
Adobe Illustrator Linetype No. 5
 72
    65
 73
     4
 40
28.79999971389771
 49
18.0
 74
     0
 49
-3.599999904632568
 74
     0
 49
3.599999904632568
 74
     0
 49
-3.599999904632568
 74
     0
  0
LTYPE
  5
1B05
330
4
100
AcDbSymbolTableRecord
100
AcDbLinetypeTableRecord
  2
AI-Linetype-6
 70
     0
  3
Adobe Illustrator Linetype No. 6
 72
    65
 73
     4
 40
28.79999971389771
 49
18.0
 74
     0
 49
-3.599999904632568
 74
     0
 49
3.599999904632568
 74
     0
 49
-3.599999904632568
 74
     0
  0
LTYPE
  5
23F4
330
4
100
AcDbSymbolTableRecord
100
AcDbLinetypeTableRecord
  2
CENTER
 70
     0
  3
 Center _____  _  _____  _  _____  _  _____  _ 
 72
    65
 73
     4
 40
50.8
 49
31.75
 74
     0
 49
-6.35
 74
     0
 49
6.35
 74
     0
 49
-6.35
 74
     0
  0
LTYPE
  5
2679
330
4
100
AcDbSymbolTableRecord
100
AcDbLinetypeTableRecord
  2
CENTERX2
 70
     0
  3
Center (2x) ________  __  ________  __  _____
 72
    65
 73
     4
 40
20.32
 49
12.7
 74
     0
 49
-2.54
 74
     0
 49
2.54
 74
     0
 49
-2.54
 74
     0
  0
ENDTAB
  0
TABLE
  2
LAYER
  5
2
102
{ACAD_XDICTIONARY
360
2E1
102
}
330
0
100
AcDbSymbolTable
 70
     9
  0
LAYER
  5
14
330
2
100
AcDbSymbolTableRecord
100
AcDbLayerTableRecord
  2
0
 70
     0
 62
     7
  6
Continuous
370
    -3
390
1D
347
266
  0
LAYER
  5
4A
330
2
100
AcDbSymbolTableRecord
100
AcDbLayerTableRecord
  2
Defpoints
 70
     0
 62
     7
  6
Continuous
290
     0
370
    20
390
1D
347
266
  0
LAYER
  5
4B
330
2
100
AcDbSymbolTableRecord
100
AcDbLayerTableRecord
  2
template
 70
     0
 62
     7
  6
Continuous
370
    20
390
1D
347
266
  0
LAYER
  5
4D
330
2
100
AcDbSymbolTableRecord
100
AcDbLayerTableRecord
  2
MODEL
 70
     0
 62
     7
  6
Continuous
370
    20
390
1D
347
266
  0
LAYER
  5
382
330
2
100
AcDbSymbolTableRecord
100
AcDbLayerTableRecord
  2
レイヤー 1
 70
     0
 62
     7
  6
Continuous
370
    -3
390
1D
347
266
  0
LAYER
  5
5C4
330
2
100
AcDbSymbolTableRecord
100
AcDbLayerTableRecord
  2
HIDDEN
 70
     0
 62
   253
  6
HIDDEN
370
    20
390
1D
347
266
1001
AcAecLayerStandard
1000

1000

  0
LAYER
  5
5EB
330
2
100
AcDbSymbolTableRecord
100
AcDbLayerTableRecord
  2
Dim
 70
     0
 62
     3
  6
Continuous
370
    13
390
1D
347
266
1001
AcAecLayerStandard
1000

1000

  0
LAYER
  5
BF1
330
2
100
AcDbSymbolTableRecord
100
AcDbLayerTableRecord
  2
PRINT BORDER
 70
     0
 62
     4
  6
BORDER
290
     0
370
    20
390
1D
347
266
1001
AcAecLayerStandard
1000

1000

  0
LAYER
  5
2441
330
2
100
AcDbSymbolTableRecord
100
AcDbLayerTableRecord
  2
LOGO
 70
     0
 62
     7
  6
Continuous
370
    -3
390
1D
347
266
  0
ENDTAB
  0
TABLE
  2
STYLE
  5
3
330
0
100
AcDbSymbolTable
 70
     2
  0
STYLE
  5
17
330
3
100
AcDbSymbolTableRecord
100
AcDbTextStyleTableRecord
  2
Standard
 70
     0
 40
0.0
 41
1.0
 50
0.0
 71
     0
 42
533.0403732820173
  3
txt
  4
BIGFONT.SHX
  0
STYLE
  5
39
330
3
100
AcDbSymbolTableRecord
100
AcDbTextStyleTableRecord
  2
ＭＳ ゴシック
 70
     0
 40
0.0
 41
1.0
 50
0.0
 71
     0
 42
2.5
  3
msgothic.ttc
  4
ＭＳ ゴシック
1001
ACAD
1000
ＭＳ ゴシック
1071
        0
  0
ENDTAB
  0
TABLE
  2
VIEW
  5
5
330
0
100
AcDbSymbolTable
 70
     0
  0
ENDTAB
  0
TABLE
  2
UCS
  5
6
330
0
100
AcDbSymbolTable
 70
     0
  0
ENDTAB
  0
TABLE
  2
APPID
  5
8
330
0
100
AcDbSymbolTable
 70
    11
  0
APPID
  5
16
330
8
100
AcDbSymbolTableRecord
100
AcDbRegAppTableRecord
  2
ACAD
 70
     0
  0
APPID
  5
5C5
330
8
100
AcDbSymbolTableRecord
100
AcDbRegAppTableRecord
  2
AcAecLayerStandard
 70
     0
  0
APPID
  5
913
330
8
100
AcDbSymbolTableRecord
100
AcDbRegAppTableRecord
  2
ACAD_DSTYLE_DIMBREAK
 70
     0
  0
APPID
  5
914
330
8
100
AcDbSymbolTableRecord
100
AcDbRegAppTableRecord
  2
ACAD_DSTYLE_DIMJAG
 70
     0
  0
APPID
  5
915
330
8
100
AcDbSymbolTableRecord
100
AcDbRegAppTableRecord
  2
ACAD_DSTYLE_DIMTALN
 70
     0
  0
APPID
  5
E4F
330
8
100
AcDbSymbolTableRecord
100
AcDbRegAppTableRecord
  2
ACAD_MLEADERVER
 70
     0
  0
APPID
  5
E79
330
8
100
AcDbSymbolTableRecord
100
AcDbRegAppTableRecord
  2
ACAD_PSEXT
 70
     0
  0
APPID
  5
E7A
330
8
100
AcDbSymbolTableRecord
100
AcDbRegAppTableRecord
  2
ACAD_NAV_VCDISPLAY
 70
     0
  0
APPID
  5
166E
330
8
100
AcDbSymbolTableRecord
100
AcDbRegAppTableRecord
  2
AcadAnnotative
 70
     0
  0
APPID
  5
166F
330
8
100
AcDbSymbolTableRecord
100
AcDbRegAppTableRecord
  2
GradientColor1ACI
 70
     0
  0
APPID
  5
1670
330
8
100
AcDbSymbolTableRecord
100
AcDbRegAppTableRecord
  2
GradientColor2ACI
 70
     0
  0
ENDTAB
  0
TABLE
  2
DIMSTYLE
  5
9
330
0
100
AcDbSymbolTable
 70
     4
100
AcDbDimStyleTable
  0
DIMSTYLE
105
18
330
9
100
AcDbSymbolTableRecord
100
AcDbDimStyleTableRecord
  2
Standard
 70
     0
178
     0
340
17
  0
DIMSTYLE
105
5C
102
{ACAD_REACTORS
330
1E8E
330
1E9B
330
1ED8
330
1EEE
330
1F00
330
1F14
330
1F2F
330
21AA
330
228F
330
2313
330
29A1
102
}
330
9
100
AcDbSymbolTableRecord
100
AcDbDimStyleTableRecord
  2
JIS
 70
     0
  3
<>
  4
[]
 41
9.0
 42
0.0
 43
6.99999999999994
 44
19.9999999999962
 73
     0
 74
     0
 77
     1
 78
    11
140
24.4326171875
141
0.0
143
1.0
147
10.0
171
     1
174
     1
178
     0
179
     2
271
     1
272
     1
276
     2
284
    11
285
    11
286
    11
289
     0
340
39
341
4E
342
4E
  0
DIMSTYLE
105
2443
102
{ACAD_REACTORS
330
2559
330
255A
330
255D
330
255F
330
2560
330
2561
102
}
330
9
100
AcDbSymbolTableRecord
100
AcDbDimStyleTableRecord
  2
tfrom線あり
 70
     0
  3
<>
  4
[]
 41
8.0
 42
30.0
 43
0.0
 44
0.0
 73
     0
 74
     0
 77
     1
 78
    11
140
24.0
141
0.0
143
1.0
147
20.0
171
     1
174
     1
178
     0
179
     2
271
     0
272
     1
276
     2
284
    11
285
    11
286
    11
289
     0
340
39
341
4E
342
4E
  0
DIMSTYLE
105
267A
330
9
100
AcDbSymbolTableRecord
100
AcDbDimStyleTableRecord
  2
ISO-25
 70
     0
 41
2.5
 42
0.625
 43
3.75
 44
1.25
 73
     0
 74
     0
 77
     1
 78
     8
140
2.5
141
2.5
143
0.0393700787
147
0.625
171
     3
172
     1
178
     0
340
17
  0
ENDTAB
  0
TABLE
  2
BLOCK_RECORD
  5
1
330
0
100
AcDbSymbolTable
 70
    57
  0
BLOCK_RECORD
  5
A
102
{ACAD_XDICTIONARY
360
2893
102
}
330
1
100
AcDbSymbolTableRecord
100
AcDbBlockTableRecord
  2
*MODEL_SPACE
340
20
 70
     0
280
     1
281
     0
  0
BLOCK_RECORD
  5
B
330
1
100
AcDbSymbolTableRecord
100
AcDbBlockTableRecord
  2
*PAPER_SPACE
340
21
 70
     0
280
     1
281
     0
  0
BLOCK_RECORD
  5
4E
330
1
100
AcDbSymbolTableRecord
100
AcDbBlockTableRecord
  2
_DOT
340
0
102
{BLKREFS
331
19BF
331
19C0
331
19DB
331
19DC
331
19EB
331
19EC
331
19FA
331
19FB
331
1A0A
331
1A0B
331
1A1F
331
1A20
331
1A2C
331
1A2D
331
1A3C
331
1A3D
331
1A49
331
1A4A
331
1A8F
331
1A90
331
1AAA
331
1AAB
331
1E57
331
1E58
331
1E95
331
1E96
331
1EA2
331
1EA3
331
1ED2
331
1ED3
331
1EDF
331
1EE0
331
1EF7
331
1EF8
331
1F07
331
1F08
331
1F1B
331
1F1C
331
1F29
331
1F2A
331
1F38
331
1F39
331
1F60
331
1F61
331
20C8
331
20C9
331
20D4
331
20D5
331
20E0
331
20E1
331
20EC
331
20ED
331
2116
331
2117
331
213D
331
213E
331
214C
331
214D
331
215B
331
215C
331
21A4
331
21A5
331
21B1
331
21B2
331
2214
331
2215
331
223F
331
2240
331
2298
331
2299
331
22BC
331
22BD
331
231B
331
231C
331
24C1
331
24C2
331
24CE
331
24CF
331
24DF
331
24E0
331
24EC
331
24ED
331
24FC
331
24FD
331
256B
331
256C
331
2577
331
2578
331
2583
331
2584
331
258F
331
2590
331
259E
331
259F
331
2808
331
2809
331
29AB
331
29AA
102
}
 70
     0
280
     1
281
     0
  0
BLOCK_RECORD
  5
3A5
330
1
100
AcDbSymbolTableRecord
100
AcDbBlockTableRecord
  2
名称未設定-1
340
0
102
{BLKREFS
331
3D0
102
}
 70
     1
280
     1
281
     0
  0
BLOCK_RECORD
  5
3A8
330
1
100
AcDbSymbolTableRecord
100
AcDbBlockTableRecord
  2
block 2
340
0
102
{BLKREFS
331
3A7
102
}
 70
     0
280
     1
281
     0
  0
BLOCK_RECORD
  5
3AB
330
1
100
AcDbSymbolTableRecord
100
AcDbBlockTableRecord
  2
block 3
340
0
102
{BLKREFS
331
3AA
102
}
 70
     0
280
     1
281
     0
  0
BLOCK_RECORD
  5
3AE
330
1
100
AcDbSymbolTableRecord
100
AcDbBlockTableRecord
  2
block 4
340
0
102
{BLKREFS
331
3AD
102
}
 70
     0
280
     1
281
     0
  0
BLOCK_RECORD
  5
3BD
330
1
100
AcDbSymbolTableRecord
100
AcDbBlockTableRecord
  2
block 5
340
0
102
{BLKREFS
331
3BC
102
}
 70
     0
280
     1
281
     0
  0
BLOCK_RECORD
  5
11F0
330
1
100
AcDbSymbolTableRecord
100
AcDbBlockTableRecord
  2
BLOCK_2
340
0
102
{BLKREFS
331
1273
331
127B
331
127C
102
}
 70
     0
280
     1
281
     0
  0
BLOCK_RECORD
  5
19B9
330
1
100
AcDbSymbolTableRecord
100
AcDbBlockTableRecord
  2
*D7
340
0
 70
     0
280
     1
281
     0
  0
BLOCK_RECORD
  5
19D5
330
1
100
AcDbSymbolTableRecord
100
AcDbBlockTableRecord
  2
*D8
340
0
 70
     0
280
     1
281
     0
  0
BLOCK_RECORD
  5
19E5
330
1
100
AcDbSymbolTableRecord
100
AcDbBlockTableRecord
  2
*D9
340
0
 70
     0
280
     1
281
     0
  0
BLOCK_RECORD
  5
19F4
330
1
100
AcDbSymbolTableRecord
100
AcDbBlockTableRecord
  2
*D10
340
0
 70
     0
280
     1
281
     0
  0
BLOCK_RECORD
  5
1A04
330
1
100
AcDbSymbolTableRecord
100
AcDbBlockTableRecord
  2
*D11
340
0
 70
     0
280
     1
281
     0
  0
BLOCK_RECORD
  5
1A19
330
1
100
AcDbSymbolTableRecord
100
AcDbBlockTableRecord
  2
*D12
340
0
 70
     0
280
     1
281
     0
  0
BLOCK_RECORD
  5
1A26
330
1
100
AcDbSymbolTableRecord
100
AcDbBlockTableRecord
  2
*D13
340
0
 70
     0
280
     1
281
     0
  0
BLOCK_RECORD
  5
1A36
330
1
100
AcDbSymbolTableRecord
100
AcDbBlockTableRecord
  2
*D14
340
0
 70
     0
280
     1
281
     0
  0
BLOCK_RECORD
  5
1A43
330
1
100
AcDbSymbolTableRecord
100
AcDbBlockTableRecord
  2
*D15
340
0
 70
     0
280
     1
281
     0
  0
BLOCK_RECORD
  5
1A89
330
1
100
AcDbSymbolTableRecord
100
AcDbBlockTableRecord
  2
*D16
340
0
 70
     0
280
     1
281
     0
  0
BLOCK_RECORD
  5
1AA5
330
1
100
AcDbSymbolTableRecord
100
AcDbBlockTableRecord
  2
*D17
340
0
 70
     0
280
     1
281
     0
  0
BLOCK_RECORD
  5
1E51
330
1
100
AcDbSymbolTableRecord
100
AcDbBlockTableRecord
  2
*D18
340
0
 70
     0
280
     1
281
     0
  0
BLOCK_RECORD
  5
1E8F
330
1
100
AcDbSymbolTableRecord
100
AcDbBlockTableRecord
  2
*D19
340
0
 70
     0
280
     1
281
     0
  0
BLOCK_RECORD
  5
1E9C
330
1
100
AcDbSymbolTableRecord
100
AcDbBlockTableRecord
  2
*D20
340
0
 70
     0
280
     1
281
     0
  0
BLOCK_RECORD
  5
1ECC
330
1
100
AcDbSymbolTableRecord
100
AcDbBlockTableRecord
  2
*D21
340
0
 70
     0
280
     1
281
     0
  0
BLOCK_RECORD
  5
1ED9
330
1
100
AcDbSymbolTableRecord
100
AcDbBlockTableRecord
  2
*D22
340
0
 70
     0
280
     1
281
     0
  0
BLOCK_RECORD
  5
1EF1
330
1
100
AcDbSymbolTableRecord
100
AcDbBlockTableRecord
  2
*D23
340
0
 70
     0
280
     1
281
     0
  0
BLOCK_RECORD
  5
1F01
330
1
100
AcDbSymbolTableRecord
100
AcDbBlockTableRecord
  2
*D24
340
0
 70
     0
280
     1
281
     0
  0
BLOCK_RECORD
  5
1F15
330
1
100
AcDbSymbolTableRecord
100
AcDbBlockTableRecord
  2
*D25
340
0
 70
     0
280
     1
281
     0
  0
BLOCK_RECORD
  5
1F23
330
1
100
AcDbSymbolTableRecord
100
AcDbBlockTableRecord
  2
*D26
340
0
 70
     0
280
     1
281
     0
  0
BLOCK_RECORD
  5
1F32
330
1
100
AcDbSymbolTableRecord
100
AcDbBlockTableRecord
  2
*D27
340
0
 70
     0
280
     1
281
     0
  0
BLOCK_RECORD
  5
1F5A
330
1
100
AcDbSymbolTableRecord
100
AcDbBlockTableRecord
  2
*D28
340
0
 70
     0
280
     1
281
     0
  0
BLOCK_RECORD
  5
20C2
330
1
100
AcDbSymbolTableRecord
100
AcDbBlockTableRecord
  2
*D29
340
0
 70
     0
280
     1
281
     0
  0
BLOCK_RECORD
  5
20CE
330
1
100
AcDbSymbolTableRecord
100
AcDbBlockTableRecord
  2
*D30
340
0
 70
     0
280
     1
281
     0
  0
BLOCK_RECORD
  5
20DA
330
1
100
AcDbSymbolTableRecord
100
AcDbBlockTableRecord
  2
*D31
340
0
 70
     0
280
     1
281
     0
  0
BLOCK_RECORD
  5
20E6
330
1
100
AcDbSymbolTableRecord
100
AcDbBlockTableRecord
  2
*D32
340
0
 70
     0
280
     1
281
     0
  0
BLOCK_RECORD
  5
2110
330
1
100
AcDbSymbolTableRecord
100
AcDbBlockTableRecord
  2
*D33
340
0
 70
     0
280
     1
281
     0
  0
BLOCK_RECORD
  5
2137
330
1
100
AcDbSymbolTableRecord
100
AcDbBlockTableRecord
  2
*D34
340
0
 70
     0
280
     1
281
     0
  0
BLOCK_RECORD
  5
2146
330
1
100
AcDbSymbolTableRecord
100
AcDbBlockTableRecord
  2
*D35
340
0
 70
     0
280
     1
281
     0
  0
BLOCK_RECORD
  5
2155
330
1
100
AcDbSymbolTableRecord
100
AcDbBlockTableRecord
  2
*D36
340
0
 70
     0
280
     1
281
     0
  0
BLOCK_RECORD
  5
219D
330
1
100
AcDbSymbolTableRecord
100
AcDbBlockTableRecord
  2
*D37
340
0
 70
     0
280
     1
281
     0
  0
BLOCK_RECORD
  5
21AB
330
1
100
AcDbSymbolTableRecord
100
AcDbBlockTableRecord
  2
*D38
340
0
 70
     0
280
     1
281
     0
  0
BLOCK_RECORD
  5
220F
330
1
100
AcDbSymbolTableRecord
100
AcDbBlockTableRecord
  2
*D39
340
0
 70
     0
280
     1
281
     0
  0
BLOCK_RECORD
  5
2239
330
1
100
AcDbSymbolTableRecord
100
AcDbBlockTableRecord
  2
*D40
340
0
 70
     0
280
     1
281
     0
  0
BLOCK_RECORD
  5
2292
330
1
100
AcDbSymbolTableRecord
100
AcDbBlockTableRecord
  2
*D41
340
0
 70
     0
280
     1
281
     0
  0
BLOCK_RECORD
  5
22B6
330
1
100
AcDbSymbolTableRecord
100
AcDbBlockTableRecord
  2
*D42
340
0
 70
     0
280
     1
281
     0
  0
BLOCK_RECORD
  5
2316
330
1
100
AcDbSymbolTableRecord
100
AcDbBlockTableRecord
  2
*D43
340
0
 70
     0
280
     1
281
     0
  0
BLOCK_RECORD
  5
24BC
330
1
100
AcDbSymbolTableRecord
100
AcDbBlockTableRecord
  2
*D44
340
0
 70
     0
280
     1
281
     0
  0
BLOCK_RECORD
  5
24C9
330
1
100
AcDbSymbolTableRecord
100
AcDbBlockTableRecord
  2
*D45
340
0
 70
     0
280
     1
281
     0
  0
BLOCK_RECORD
  5
24DA
330
1
100
AcDbSymbolTableRecord
100
AcDbBlockTableRecord
  2
*D46
340
0
 70
     0
280
     1
281
     0
  0
BLOCK_RECORD
  5
24E7
330
1
100
AcDbSymbolTableRecord
100
AcDbBlockTableRecord
  2
*D47
340
0
 70
     0
280
     1
281
     0
  0
BLOCK_RECORD
  5
24F4
330
1
100
AcDbSymbolTableRecord
100
AcDbBlockTableRecord
  2
*D48
340
0
 70
     0
280
     1
281
     0
  0
BLOCK_RECORD
  5
2565
330
1
100
AcDbSymbolTableRecord
100
AcDbBlockTableRecord
  2
*D49
340
0
 70
     0
280
     1
281
     0
  0
BLOCK_RECORD
  5
2571
330
1
100
AcDbSymbolTableRecord
100
AcDbBlockTableRecord
  2
*D50
340
0
 70
     0
280
     1
281
     0
  0
BLOCK_RECORD
  5
257D
330
1
100
AcDbSymbolTableRecord
100
AcDbBlockTableRecord
  2
*D51
340
0
 70
     0
280
     1
281
     0
  0
BLOCK_RECORD
  5
2589
330
1
100
AcDbSymbolTableRecord
100
AcDbBlockTableRecord
  2
*D52
340
0
 70
     0
280
     1
281
     0
  0
BLOCK_RECORD
  5
2595
330
1
100
AcDbSymbolTableRecord
100
AcDbBlockTableRecord
  2
*D53
340
0
 70
     0
280
     1
281
     0
  0
BLOCK_RECORD
  5
269C
330
1
100
AcDbSymbolTableRecord
100
AcDbBlockTableRecord
  2
SW_TABLEANNOTATION_0
340
0
 70
     0
280
     1
281
     0
  0
BLOCK_RECORD
  5
2801
330
1
100
AcDbSymbolTableRecord
100
AcDbBlockTableRecord
  2
*D55
340
0
 70
     0
280
     1
281
     0
  0
BLOCK_RECORD
  5
29A4
330
1
100
AcDbSymbolTableRecord
100
AcDbBlockTableRecord
  2
*D56
340
0
 70
     0
280
     1
281
     0
  0
ENDTAB
  0
ENDSEC
  0
SECTION
  2
BLOCKS
  0
BLOCK
  5
D
330
A
100
AcDbEntity
  8
0
390
1D
100
AcDbBlockBegin
  2
*MODEL_SPACE
 70
     0
 10
0.0
 20
0.0
 30
0.0
  3
*MODEL_SPACE
  1
*MODEL_SPACE
  0
ENDBLK
  5
E
330
A
100
AcDbEntity
  8
0
390
1D
100
AcDbBlockEnd
  0
BLOCK
  5
F
330
B
100
AcDbEntity
 67
     1
  8
0
390
1D
100
AcDbBlockBegin
  2
*PAPER_SPACE
 70
     0
 10
0.0
 20
0.0
 30
0.0
  3
*PAPER_SPACE
  1
*PAPER_SPACE
  0
ENDBLK
  5
10
330
B
100
AcDbEntity
 67
     1
  8
0
390
1D
100
AcDbBlockEnd
  0
BLOCK
  5
2BB
330
4E
100
AcDbEntity
  8
0
390
1D
100
AcDbBlockBegin
  2
_DOT
 70
     0
 10
0.0
 20
0.0
 30
0.0
  3
_DOT
  1
_DOT
  0
POLYLINE
  5
2BD
330
4E
100
AcDbEntity
  8
0
  6
ByBlock
 62
     0
370
    -2
390
1D
100
AcDb2dPolyline
 66
     1
 10
0.0
 20
0.0
 30
0.0
 70
     1
 40
0.5
 41
0.5
  0
VERTEX
  5
2BE
330
2BD
100
AcDbEntity
  8
0
  6
ByBlock
 62
     0
370
    -2
390
1D
100
AcDbVertex
100
AcDb2dVertex
 10
-0.25
 20
0.0
 30
0.0
 42
1.0
  0
VERTEX
  5
2BF
330
2BD
100
AcDbEntity
  8
0
  6
ByBlock
 62
     0
370
    -2
390
1D
100
AcDbVertex
100
AcDb2dVertex
 10
0.25
 20
0.0
 30
0.0
 42
1.0
  0
SEQEND
  5
2C0
330
2BD
100
AcDbEntity
  8
0
390
1D
  0
LINE
  5
2C1
330
4E
100
AcDbEntity
  8
0
  6
ByBlock
 62
     0
370
    -2
390
1D
100
AcDbLine
 10
-0.5
 20
0.0
 30
0.0
 11
-1.0
 21
0.0
 31
0.0
  0
ENDBLK
  5
2C2
330
4E
100
AcDbEntity
  8
0
390
1D
100
AcDbBlockEnd
  0
BLOCK
  5
3A6
330
3A5
100
AcDbEntity
  8
0
100
AcDbBlockBegin
  2
名称未設定-1
 70
     0
 10
0.0
 20
0.0
 30
0.0
  3
名称未設定-1
  1
名称未設定-1
  0
INSERT
  5
3A7
330
3A5
100
AcDbEntity
  8
レイヤー 1
100
AcDbBlockReference
  2
block 2
 10
0.0
 20
0.0
 30
0.0
  0
ENDBLK
  5
3CC
330
3A5
100
AcDbEntity
  8
0
100
AcDbBlockEnd
  0
BLOCK
  5
3A9
330
3A8
100
AcDbEntity
  8
0
100
AcDbBlockBegin
  2
block 2
 70
     0
 10
0.0
 20
0.0
 30
0.0
  3
block 2
  1
block 2
  0
INSERT
  5
3AA
330
3A8
100
AcDbEntity
  8
レイヤー 1
100
AcDbBlockReference
  2
block 3
 10
0.0
 20
0.0
 30
0.0
  0
ENDBLK
  5
3CB
330
3A8
100
AcDbEntity
  8
0
100
AcDbBlockEnd
  0
BLOCK
  5
3AC
330
3AB
100
AcDbEntity
  8
0
100
AcDbBlockBegin
  2
block 3
 70
     0
 10
0.0
 20
0.0
 30
0.0
  3
block 3
  1
block 3
  0
INSERT
  5
3AD
330
3AB
100
AcDbEntity
  8
レイヤー 1
100
AcDbBlockReference
  2
block 4
 10
0.0
 20
0.0
 30
0.0
  0
ENDBLK
  5
3CA
330
3AB
100
AcDbEntity
  8
0
100
AcDbBlockEnd
  0
BLOCK
  5
3AF
330
3AE
100
AcDbEntity
  8
0
100
AcDbBlockBegin
  2
block 4
 70
     0
 10
0.0
 20
0.0
 30
0.0
  3
block 4
  1
block 4
  0
POLYLINE
  5
3B0
330
3AE
100
AcDbEntity
  8
レイヤー 1
370
     0
100
AcDb2dPolyline
 66
     1
 10
0.0
 20
0.0
 30
0.0
  0
VERTEX
  5
3B1
330
3B0
100
AcDbEntity
  8
レイヤー 1
370
     0
100
AcDbVertex
100
AcDb2dVertex
 10
83.79545727667795
 20
167.6444858234922
 30
0.0
  0
VERTEX
  5
3B2
330
3B0
100
AcDbEntity
  8
レイヤー 1
370
     0
100
AcDbVertex
100
AcDb2dVertex
 10
83.79545727667795
 20
159.7968976406313
 30
0.0
  0
VERTEX
  5
3B3
330
3B0
100
AcDbEntity
  8
レイヤー 1
370
     0
100
AcDbVertex
100
AcDb2dVertex
 10
71.3631329975216
 20
159.7968976406313
 30
0.0
  0
VERTEX
  5
3B4
330
3B0
100
AcDbEntity
  8
レイヤー 1
370
     0
100
AcDbVertex
100
AcDb2dVertex
 10
71.3631329975216
 20
127.8027915271048
 30
0.0
  0
VERTEX
  5
3B5
330
3B0
100
AcDbEntity
  8
レイヤー 1
370
     0
100
AcDbVertex
100
AcDb2dVertex
 10
60.43011526263018
 20
127.8027915271048
 30
0.0
  0
VERTEX
  5
3B6
330
3B0
100
AcDbEntity
  8
レイヤー 1
370
     0
100
AcDbVertex
100
AcDb2dVertex
 10
60.43011526263018
 20
159.7968976406313
 30
0.0
  0
VERTEX
  5
3B7
330
3B0
100
AcDbEntity
  8
レイヤー 1
370
     0
100
AcDbVertex
100
AcDb2dVertex
 10
48.21793273020759
 20
159.7968976406313
 30
0.0
  0
VERTEX
  5
3B8
330
3B0
100
AcDbEntity
  8
レイヤー 1
370
     0
100
AcDbVertex
100
AcDb2dVertex
 10
48.21793273020759
 20
167.6444858234922
 30
0.0
  0
VERTEX
  5
3B9
330
3B0
100
AcDbEntity
  8
レイヤー 1
370
     0
100
AcDbVertex
100
AcDb2dVertex
 10
83.79545727667795
 20
167.6444858234922
 30
0.0
  0
SEQEND
  5
3BA
330
3B0
100
AcDbEntity
  8
レイヤー 1
370
     0
  0
HATCH
  5
3BB
330
3AE
100
AcDbEntity
  8
レイヤー 1
 62
   250
420
  2234388
100
AcDbHatch
 10
0.0
 20
0.0
 30
0.0
210
0.0
220
0.0
230
1.0
  2
SOLID
 70
     1
 71
     0
 91
        1
 92
        1
 93
        8
 72
     1
 10
83.79545727667795
 20
167.6444858234922
 11
83.79545727667795
 21
159.7968976406313
 72
     1
 10
83.79545727667795
 20
159.7968976406313
 11
71.3631329975216
 21
159.7968976406313
 72
     1
 10
71.3631329975216
 20
159.7968976406313
 11
71.3631329975216
 21
127.8027915271048
 72
     1
 10
71.3631329975216
 20
127.8027915271048
 11
60.43011526263018
 21
127.8027915271048
 72
     1
 10
60.43011526263018
 20
127.8027915271048
 11
60.43011526263018
 21
159.7968976406313
 72
     1
 10
60.43011526263018
 20
159.7968976406313
 11
48.21793273020759
 21
159.7968976406313
 72
     1
 10
48.21793273020759
 20
159.7968976406313
 11
48.21793273020759
 21
167.6444858234922
 72
     1
 10
48.21793273020759
 20
167.6444858234922
 11
83.79545727667795
 21
167.6444858234922
 97
        0
 75
     2
 76
     1
 98
        0
  0
INSERT
  5
3BC
330
3AE
100
AcDbEntity
  8
レイヤー 1
100
AcDbBlockReference
  2
block 5
 10
0.0
 20
0.0
 30
0.0
  0
ENDBLK
  5
3C9
330
3AE
100
AcDbEntity
  8
0
100
AcDbBlockEnd
  0
BLOCK
  5
3BE
330
3BD
100
AcDbEntity
  8
0
100
AcDbBlockBegin
  2
block 5
 70
     0
 10
0.0
 20
0.0
 30
0.0
  3
block 5
  1
block 5
  0
SPLINE
  5
3BF
330
3BD
100
AcDbEntity
  8
レイヤー 1
370
     0
100
AcDbSpline
210
0.0
220
0.0
230
1.0
 70
    11
 71
     3
 72
    56
 73
    52
 74
     0
 42
0.000000001
 43
0.0000000001
 40
0.0
 40
0.0
 40
0.0
 40
0.0
 40
1.0
 40
1.0
 40
1.0
 40
2.0
 40
2.0
 40
2.0
 40
3.0
 40
3.0
 40
3.0
 40
4.0
 40
4.0
 40
4.0
 40
5.0
 40
5.0
 40
5.0
 40
6.0
 40
6.0
 40
6.0
 40
7.0
 40
7.0
 40
7.0
 40
8.0
 40
8.0
 40
8.0
 40
9.0
 40
9.0
 40
9.0
 40
10.0
 40
10.0
 40
10.0
 40
11.0
 40
11.0
 40
11.0
 40
12.0
 40
12.0
 40
12.0
 40
13.0
 40
13.0
 40
13.0
 40
14.0
 40
14.0
 40
14.0
 40
15.0
 40
15.0
 40
15.0
 40
16.0
 40
16.0
 40
16.0
 40
17.0
 40
17.0
 40
17.0
 40
17.0
 10
100.4504378777679
 20
166.69157178364
 30
0.0
 10
101.9848844191641
 20
167.1313385124438
 30
0.0
 10
103.9637485713373
 20
166.7649523658846
 30
0.0
 10
103.9637485713373
 20
166.7649523658846
 30
0.0
 10
103.9637485713373
 20
166.7649523658846
 30
0.0
 10
103.0132460999156
 20
163.911205638077
 30
0.0
 10
103.0132460999156
 20
163.911205638077
 30
0.0
 10
103.0132460999156
 20
163.911205638077
 30
0.0
 10
101.0674548862189
 20
164.3601018759394
 30
0.0
 10
99.57090442016032
 20
163.1805004036133
 30
0.0
 10
98.40508333886608
 20
162.258247733807
 30
0.0
 10
97.65301849830304
 20
159.804132345923
 30
0.0
 10
97.3598406791005
 20
158.8699940888517
 30
0.0
 10
97.3598406791005
 20
158.8699940888517
 30
0.0
 10
96.07137411762282
 20
154.9119212747295
 30
0.0
 10
96.07137411762282
 20
154.9119212747295
 30
0.0
 10
96.07137411762282
 20
154.9119212747295
 30
0.0
 10
100.3012651448482
 20
154.9119212747295
 30
0.0
 10
100.3012651448482
 20
154.9119212747295
 30
0.0
 10
100.3012651448482
 20
154.9119212747295
 30
0.0
 10
99.64152892419852
 20
152.4199098115079
 30
0.0
 10
99.64152892419852
 20
152.4199098115079
 30
0.0
 10
99.64152892419852
 20
152.4199098115079
 30
0.0
 10
95.38097652692731
 20
152.4199098115079
 30
0.0
 10
95.38097652692731
 20
152.4199098115079
 30
0.0
 10
95.38097652692731
 20
152.4199098115079
 30
0.0
 10
87.75353009080013
 20
127.8027915271048
 30
0.0
 10
87.75353009080013
 20
127.8027915271048
 30
0.0
 10
87.75353009080013
 20
127.8027915271048
 30
0.0
 10
85.36538832498108
 20
127.8027915271048
 30
0.0
 10
85.36538832498108
 20
127.8027915271048
 30
0.0
 10
85.36538832498108
 20
127.8027915271048
 30
0.0
 10
93.00006946639998
 20
152.4199098115079
 30
0.0
 10
93.00006946639998
 20
152.4199098115079
 30
0.0
 10
93.00006946639998
 20
152.4199098115079
 30
0.0
 10
89.85297266450198
 20
152.4199098115079
 30
0.0
 10
89.85297266450198
 20
152.4199098115079
 30
0.0
 10
89.85297266450198
 20
152.4199098115079
 30
0.0
 10
90.51270888515164
 20
154.9119212747295
 30
0.0
 10
90.51270888515164
 20
154.9119212747295
 30
0.0
 10
90.51270888515164
 20
154.9119212747295
 30
0.0
 10
93.6904670570955
 20
154.9119212747295
 30
0.0
 10
93.6904670570955
 20
154.9119212747295
 30
0.0
 10
93.6904670570955
 20
154.9119212747295
 30
0.0
 10
94.81598049462158
 20
158.3616699146644
 30
0.0
 10
94.81598049462158
 20
158.3616699146644
 30
0.0
 10
95.7237637538445
 20
161.2605474231013
 30
0.0
 10
96.4968436907311
 20
162.8139420021662
 30
0.0
 10
97.15657991138076
 20
163.9844139654337
 30
0.0
 10
97.81183750494507
 20
165.1523021053827
 30
0.0
 10
99.1047826935081
 20
166.3084769129547
 30
0.0
 10
100.4504378777679
 20
166.69157178364
 30
0.0
  0
HATCH
  5
3C0
330
3BD
100
AcDbEntity
  8
レイヤー 1
 62
   250
420
  2234388
100
AcDbHatch
 10
0.0
 20
0.0
 30
0.0
210
0.0
220
0.0
230
1.0
  2
SOLID
 70
     1
 71
     0
 91
        1
 92
        1
 93
        1
 72
     4
 94
        3
 73
     0
 74
     1
 95
       56
 96
       52
 40
0.0
 40
0.0
 40
0.0
 40
0.0
 40
1.0
 40
1.0
 40
1.0
 40
2.0
 40
2.0
 40
2.0
 40
3.0
 40
3.0
 40
3.0
 40
4.0
 40
4.0
 40
4.0
 40
5.0
 40
5.0
 40
5.0
 40
6.0
 40
6.0
 40
6.0
 40
7.0
 40
7.0
 40
7.0
 40
8.0
 40
8.0
 40
8.0
 40
9.0
 40
9.0
 40
9.0
 40
10.0
 40
10.0
 40
10.0
 40
11.0
 40
11.0
 40
11.0
 40
12.0
 40
12.0
 40
12.0
 40
13.0
 40
13.0
 40
13.0
 40
14.0
 40
14.0
 40
14.0
 40
15.0
 40
15.0
 40
15.0
 40
16.0
 40
16.0
 40
16.0
 40
17.0
 40
17.0
 40
17.0
 40
17.0
 10
100.4504378777679
 20
166.69157178364
 10
101.9848844191641
 20
167.1313385124438
 10
103.9637485713373
 20
166.7649523658846
 10
103.9637485713373
 20
166.7649523658846
 10
103.9637485713373
 20
166.7649523658846
 10
103.0132460999156
 20
163.911205638077
 10
103.0132460999156
 20
163.911205638077
 10
103.0132460999156
 20
163.911205638077
 10
101.0674548862189
 20
164.3601018759394
 10
99.57090442016032
 20
163.1805004036133
 10
98.40508333886608
 20
162.258247733807
 10
97.65301849830304
 20
159.804132345923
 10
97.3598406791005
 20
158.8699940888517
 10
97.3598406791005
 20
158.8699940888517
 10
96.07137411762282
 20
154.9119212747295
 10
96.07137411762282
 20
154.9119212747295
 10
96.07137411762282
 20
154.9119212747295
 10
100.3012651448482
 20
154.9119212747295
 10
100.3012651448482
 20
154.9119212747295
 10
100.3012651448482
 20
154.9119212747295
 10
99.64152892419852
 20
152.4199098115079
 10
99.64152892419852
 20
152.4199098115079
 10
99.64152892419852
 20
152.4199098115079
 10
95.38097652692731
 20
152.4199098115079
 10
95.38097652692731
 20
152.4199098115079
 10
95.38097652692731
 20
152.4199098115079
 10
87.75353009080013
 20
127.8027915271048
 10
87.75353009080013
 20
127.8027915271048
 10
87.75353009080013
 20
127.8027915271048
 10
85.36538832498108
 20
127.8027915271048
 10
85.36538832498108
 20
127.8027915271048
 10
85.36538832498108
 20
127.8027915271048
 10
93.00006946639998
 20
152.4199098115079
 10
93.00006946639998
 20
152.4199098115079
 10
93.00006946639998
 20
152.4199098115079
 10
89.85297266450198
 20
152.4199098115079
 10
89.85297266450198
 20
152.4199098115079
 10
89.85297266450198
 20
152.4199098115079
 10
90.51270888515164
 20
154.9119212747295
 10
90.51270888515164
 20
154.9119212747295
 10
90.51270888515164
 20
154.9119212747295
 10
93.6904670570955
 20
154.9119212747295
 10
93.6904670570955
 20
154.9119212747295
 10
93.6904670570955
 20
154.9119212747295
 10
94.81598049462158
 20
158.3616699146644
 10
94.81598049462158
 20
158.3616699146644
 10
95.7237637538445
 20
161.2605474231013
 10
96.4968436907311
 20
162.8139420021662
 10
97.15657991138076
 20
163.9844139654337
 10
97.81183750494507
 20
165.1523021053827
 10
99.1047826935081
 20
166.3084769129547
 10
100.4504378777679
 20
166.69157178364
 97
        0
 75
     2
 76
     1
 98
        0
  0
SPLINE
  5
3C1
330
3BD
100
AcDbEntity
  8
レイヤー 1
370
     0
100
AcDbSpline
210
0.0
220
0.0
230
1.0
 70
    11
 71
     3
 72
    38
 73
    34
 74
     0
 42
0.000000001
 43
0.0000000001
 40
0.0
 40
0.0
 40
0.0
 40
0.0
 40
1.0
 40
1.0
 40
1.0
 40
2.0
 40
2.0
 40
2.0
 40
3.0
 40
3.0
 40
3.0
 40
4.0
 40
4.0
 40
4.0
 40
5.0
 40
5.0
 40
5.0
 40
6.0
 40
6.0
 40
6.0
 40
7.0
 40
7.0
 40
7.0
 40
8.0
 40
8.0
 40
8.0
 40
9.0
 40
9.0
 40
9.0
 40
10.0
 40
10.0
 40
10.0
 40
11.0
 40
11.0
 40
11.0
 40
11.0
 10
126.377554584636
 20
154.8151140277308
 30
0.0
 10
126.377554584636
 20
154.8151140277308
 30
0.0
 10
128.8311532078563
 20
154.8151140277308
 30
0.0
 10
128.8311532078563
 20
154.8151140277308
 30
0.0
 10
128.8311532078563
 20
154.8151140277308
 30
0.0
 10
127.7345785914971
 20
151.3062819612468
 30
0.0
 10
127.7345785914971
 20
151.3062819612468
 30
0.0
 10
128.571392836906
 20
152.2922689395754
 30
0.0
 10
129.8860421413442
 20
153.604506675583
 30
0.0
 10
131.0163787157314
 20
154.2664822097754
 30
0.0
 10
132.7044766171327
 20
155.2500576196734
 30
0.0
 10
133.6642808525008
 20
155.3847609420097
 30
0.0
 10
134.7284715499351
 20
155.3565111403944
 30
0.0
 10
134.7284715499351
 20
155.3565111403944
 30
0.0
 10
133.6877075172549
 20
152.0345756272799
 30
0.0
 10
133.6877075172549
 20
152.0345756272799
 30
0.0
 10
133.011434827367
 20
152.3184516825359
 30
0.0
 10
130.930940291334
 20
151.7768823149844
 30
0.0
 10
129.739280976855
 20
150.9162968950455
 30
0.0
 10
128.66613302525
 20
150.1454562717016
 30
0.0
 10
127.9192358313239
 20
149.4857200510519
 30
0.0
 10
127.0393578639405
 20
147.8282835196966
 30
0.0
 10
126.164647543194
 20
146.1699857139017
 30
0.0
 10
125.4742499524985
 20
143.5262176944419
 30
0.0
 10
124.2822461282437
 20
139.6959580071401
 30
0.0
 10
124.2822461282437
 20
139.6959580071401
 30
0.0
 10
120.5753209406769
 20
127.8027915271048
 30
0.0
 10
120.5753209406769
 20
127.8027915271048
 30
0.0
 10
120.5753209406769
 20
127.8027915271048
 30
0.0
 10
118.1964809388044
 20
127.8027915271048
 30
0.0
 10
118.1964809388044
 20
127.8027915271048
 30
0.0
 10
118.1964809388044
 20
127.8027915271048
 30
0.0
 10
126.377554584636
 20
154.8151140277308
 30
0.0
 10
126.377554584636
 20
154.8151140277308
 30
0.0
  0
HATCH
  5
3C2
330
3BD
100
AcDbEntity
  8
レイヤー 1
 62
   250
420
  2234388
100
AcDbHatch
 10
0.0
 20
0.0
 30
0.0
210
0.0
220
0.0
230
1.0
  2
SOLID
 70
     1
 71
     0
 91
        1
 92
        1
 93
        1
 72
     4
 94
        3
 73
     0
 74
     1
 95
       38
 96
       34
 40
0.0
 40
0.0
 40
0.0
 40
0.0
 40
1.0
 40
1.0
 40
1.0
 40
2.0
 40
2.0
 40
2.0
 40
3.0
 40
3.0
 40
3.0
 40
4.0
 40
4.0
 40
4.0
 40
5.0
 40
5.0
 40
5.0
 40
6.0
 40
6.0
 40
6.0
 40
7.0
 40
7.0
 40
7.0
 40
8.0
 40
8.0
 40
8.0
 40
9.0
 40
9.0
 40
9.0
 40
10.0
 40
10.0
 40
10.0
 40
11.0
 40
11.0
 40
11.0
 40
11.0
 10
126.377554584636
 20
154.8151140277308
 10
126.377554584636
 20
154.8151140277308
 10
128.8311532078563
 20
154.8151140277308
 10
128.8311532078563
 20
154.8151140277308
 10
128.8311532078563
 20
154.8151140277308
 10
127.7345785914971
 20
151.3062819612468
 10
127.7345785914971
 20
151.3062819612468
 10
128.571392836906
 20
152.2922689395754
 10
129.8860421413442
 20
153.604506675583
 10
131.0163787157314
 20
154.2664822097754
 10
132.7044766171327
 20
155.2500576196734
 10
133.6642808525008
 20
155.3847609420097
 10
134.7284715499351
 20
155.3565111403944
 10
134.7284715499351
 20
155.3565111403944
 10
133.6877075172549
 20
152.0345756272799
 10
133.6877075172549
 20
152.0345756272799
 10
133.011434827367
 20
152.3184516825359
 10
130.930940291334
 20
151.7768823149844
 10
129.739280976855
 20
150.9162968950455
 10
128.66613302525
 20
150.1454562717016
 10
127.9192358313239
 20
149.4857200510519
 10
127.0393578639405
 20
147.8282835196966
 10
126.164647543194
 20
146.1699857139017
 10
125.4742499524985
 20
143.5262176944419
 10
124.2822461282437
 20
139.6959580071401
 10
124.2822461282437
 20
139.6959580071401
 10
120.5753209406769
 20
127.8027915271048
 10
120.5753209406769
 20
127.8027915271048
 10
120.5753209406769
 20
127.8027915271048
 10
118.1964809388044
 20
127.8027915271048
 10
118.1964809388044
 20
127.8027915271048
 10
118.1964809388044
 20
127.8027915271048
 10
126.377554584636
 20
154.8151140277308
 10
126.377554584636
 20
154.8151140277308
 97
        0
 75
     2
 76
     1
 98
        0
  0
SPLINE
  5
3C3
330
3BD
100
AcDbEntity
  8
レイヤー 1
370
     0
100
AcDbSpline
210
0.0
220
0.0
230
1.0
 70
    11
 71
     3
 72
   104
 73
   100
 74
     0
 42
0.000000001
 43
0.0000000001
 40
0.0
 40
0.0
 40
0.0
 40
0.0
 40
1.0
 40
1.0
 40
1.0
 40
2.0
 40
2.0
 40
2.0
 40
3.0
 40
3.0
 40
3.0
 40
4.0
 40
4.0
 40
4.0
 40
5.0
 40
5.0
 40
5.0
 40
6.0
 40
6.0
 40
6.0
 40
7.0
 40
7.0
 40
7.0
 40
8.0
 40
8.0
 40
8.0
 40
9.0
 40
9.0
 40
9.0
 40
10.0
 40
10.0
 40
10.0
 40
11.0
 40
11.0
 40
11.0
 40
12.0
 40
12.0
 40
12.0
 40
13.0
 40
13.0
 40
13.0
 40
14.0
 40
14.0
 40
14.0
 40
15.0
 40
15.0
 40
15.0
 40
16.0
 40
16.0
 40
16.0
 40
17.0
 40
17.0
 40
17.0
 40
18.0
 40
18.0
 40
18.0
 40
19.0
 40
19.0
 40
19.0
 40
20.0
 40
20.0
 40
20.0
 40
21.0
 40
21.0
 40
21.0
 40
22.0
 40
22.0
 40
22.0
 40
23.0
 40
23.0
 40
23.0
 40
24.0
 40
24.0
 40
24.0
 40
25.0
 40
25.0
 40
25.0
 40
26.0
 40
26.0
 40
26.0
 40
27.0
 40
27.0
 40
27.0
 40
28.0
 40
28.0
 40
28.0
 40
29.0
 40
29.0
 40
29.0
 40
30.0
 40
30.0
 40
30.0
 40
31.0
 40
31.0
 40
31.0
 40
32.0
 40
32.0
 40
32.0
 40
33.0
 40
33.0
 40
33.0
 40
33.0
 10
139.8926730891197
 20
154.8294111834263
 30
0.0
 10
139.8926730891197
 20
154.8294111834263
 30
0.0
 10
142.0344903652445
 20
154.8294111834263
 30
0.0
 10
142.0344903652445
 20
154.8294111834263
 30
0.0
 10
142.0344903652445
 20
154.8294111834263
 30
0.0
 10
140.9516961399171
 20
151.3157559800812
 30
0.0
 10
140.9516961399171
 20
151.3157559800812
 30
0.0
 10
141.8928968473923
 20
152.7887075264977
 30
0.0
 10
142.7341897198865
 20
153.4484437471474
 30
0.0
 10
143.8552245303272
 20
154.2926649527359
 30
0.0
 10
144.9803934580775
 20
155.1296514530327
 30
0.0
 10
146.3139908001845
 20
155.3044901642492
 30
0.0
 10
147.241066606852
 20
155.3044901642492
 30
0.0
 10
148.3855280820469
 20
155.3044901642492
 30
0.0
 10
149.4969166187653
 20
155.0752189084569
 30
0.0
 10
150.0784491203092
 20
153.8172414621372
 30
0.0
 10
150.5228667310863
 20
152.833838307127
 30
0.0
 10
150.5414702589793
 20
152.7201500811143
 30
0.0
 10
150.4140016419347
 20
150.7765981809602
 30
0.0
 10
151.5818897818837
 20
152.7699317437168
 30
0.0
 10
152.4424752018226
 20
153.6256940267945
 30
0.0
 10
153.9038856707499
 20
154.4507949398263
 30
0.0
 10
155.4455669174378
 20
155.3044901642492
 30
0.0
 10
156.339225275853
 20
155.3659851592288
 30
0.0
 10
157.3748216618963
 20
155.2147453676543
 30
0.0
 10
158.911679771723
 20
154.9877134254046
 30
0.0
 10
159.8859534176746
 20
154.4390816074493
 30
0.0
 10
160.3965169054045
 20
152.7816450760939
 30
0.0
 10
160.9070803931344
 20
151.1219692311958
 30
0.0
 10
160.6328506116007
 20
150.2303779314354
 30
0.0
 10
159.9992971339115
 20
147.597634224801
 30
0.0
 10
159.7105979417943
 20
146.4014962832367
 30
0.0
 10
159.2947746424084
 20
144.9400858143094
 30
0.0
 10
158.7463150793409
 20
143.2092687007094
 30
0.0
 10
158.7463150793409
 20
143.2092687007094
 30
0.0
 10
153.9038856707499
 20
127.8027915271048
 30
0.0
 10
153.9038856707499
 20
127.8027915271048
 30
0.0
 10
153.9038856707499
 20
127.8027915271048
 30
0.0
 10
151.3882752878863
 20
127.8027915271048
 30
0.0
 10
151.3882752878863
 20
127.8027915271048
 30
0.0
 10
151.3882752878863
 20
127.8027915271048
 30
0.0
 10
155.6250565106276
 20
141.2751908193897
 30
0.0
 10
155.6250565106276
 20
141.2751908193897
 30
0.0
 10
156.5094131050963
 20
144.0936252951782
 30
0.0
 10
157.109893644309
 20
146.1506931664571
 30
0.0
 10
157.4220195011804
 20
147.4415712963654
 30
0.0
 10
157.8095929989511
 20
149.0530157726519
 30
0.0
 10
157.9656559273867
 20
149.5826995529385
 30
0.0
 10
157.7816877071116
 20
150.7529992613181
 30
0.0
 10
157.6111553680925
 20
151.8430281919372
 30
0.0
 10
157.0582171779396
 20
152.5547853887321
 30
0.0
 10
156.1170164704645
 20
152.5547853887321
 30
0.0
 10
155.1096698860365
 20
152.5547853887321
 30
0.0
 10
154.2962823053817
 20
152.4412694176073
 30
0.0
 10
153.156643967048
 20
151.2945686288697
 30
0.0
 10
152.0170056287143
 20
150.1476955852443
 30
0.0
 10
151.076149431015
 20
148.7930831468137
 30
0.0
 10
150.3337308641742
 20
147.2290087646991
 30
0.0
 10
149.5957909244188
 20
145.6683794803425
 30
0.0
 10
148.8530278478023
 20
143.6822806228776
 30
0.0
 10
148.0964843801539
 20
141.2751908193897
 30
0.0
 10
148.0964843801539
 20
141.2751908193897
 30
0.0
 10
143.8552245303272
 20
127.8027915271048
 30
0.0
 10
143.8552245303272
 20
127.8027915271048
 30
0.0
 10
143.8552245303272
 20
127.8027915271048
 30
0.0
 10
141.486030802177
 20
127.8027915271048
 30
0.0
 10
141.486030802177
 20
127.8027915271048
 30
0.0
 10
141.486030802177
 20
127.8027915271048
 30
0.0
 10
146.3329388378533
 20
143.2092687007094
 30
0.0
 10
146.3329388378533
 20
143.2092687007094
 30
0.0
 10
146.8483254624444
 20
144.8408669988801
 30
0.0
 10
147.2314203331297
 20
146.1837661049335
 30
0.0
 10
147.4867020769946
 20
147.224185627838
 30
0.0
 10
147.9169947869641
 20
149.0197705792876
 30
0.0
 10
148.0306830129768
 20
150.2400242051577
 30
0.0
 10
147.709255392159
 20
151.3157559800812
 30
0.0
 10
147.3874832615654
 20
152.3916600098926
 30
0.0
 10
146.8245542879144
 20
152.6683013598569
 30
0.0
 10
145.8840425999909
 20
152.6683013598569
 30
0.0
 10
145.0989048209514
 20
152.6683013598569
 30
0.0
 10
144.3282364524954
 20
152.3275811915945
 30
0.0
 10
143.4531816219731
 20
151.6538923250251
 30
0.0
 10
142.34627171234
 20
150.8074318058939
 30
0.0
 10
141.901854101563
 20
150.1097995099067
 30
0.0
 10
141.3578731655808
 20
149.289521733736
 30
0.0
 10
140.6299240093235
 20
148.192602607601
 30
0.0
 10
140.2850697237515
 20
147.455696197173
 30
0.0
 10
139.6652966370942
 20
145.8385673095858
 30
0.0
 10
139.0506911970739
 20
144.2214384219986
 30
0.0
 10
138.463991048893
 20
142.3252566160164
 30
0.0
 10
138.0571250036777
 20
141.0154304484394
 30
0.0
 10
138.0571250036777
 20
141.0154304484394
 30
0.0
 10
133.9009590684727
 20
127.8027915271048
 30
0.0
 10
133.9009590684727
 20
127.8027915271048
 30
0.0
 10
133.9009590684727
 20
127.8027915271048
 30
0.0
 10
131.4180771143097
 20
127.8027915271048
 30
0.0
 10
131.4180771143097
 20
127.8027915271048
 30
0.0
 10
131.4180771143097
 20
127.8027915271048
 30
0.0
 10
139.8926730891197
 20
154.8294111834263
 30
0.0
 10
139.8926730891197
 20
154.8294111834263
 30
0.0
  0
HATCH
  5
3C4
330
3BD
100
AcDbEntity
  8
レイヤー 1
 62
   250
420
  2234388
100
AcDbHatch
 10
0.0
 20
0.0
 30
0.0
210
0.0
220
0.0
230
1.0
  2
SOLID
 70
     1
 71
     0
 91
        1
 92
        1
 93
        1
 72
     4
 94
        3
 73
     0
 74
     1
 95
      104
 96
      100
 40
0.0
 40
0.0
 40
0.0
 40
0.0
 40
1.0
 40
1.0
 40
1.0
 40
2.0
 40
2.0
 40
2.0
 40
3.0
 40
3.0
 40
3.0
 40
4.0
 40
4.0
 40
4.0
 40
5.0
 40
5.0
 40
5.0
 40
6.0
 40
6.0
 40
6.0
 40
7.0
 40
7.0
 40
7.0
 40
8.0
 40
8.0
 40
8.0
 40
9.0
 40
9.0
 40
9.0
 40
10.0
 40
10.0
 40
10.0
 40
11.0
 40
11.0
 40
11.0
 40
12.0
 40
12.0
 40
12.0
 40
13.0
 40
13.0
 40
13.0
 40
14.0
 40
14.0
 40
14.0
 40
15.0
 40
15.0
 40
15.0
 40
16.0
 40
16.0
 40
16.0
 40
17.0
 40
17.0
 40
17.0
 40
18.0
 40
18.0
 40
18.0
 40
19.0
 40
19.0
 40
19.0
 40
20.0
 40
20.0
 40
20.0
 40
21.0
 40
21.0
 40
21.0
 40
22.0
 40
22.0
 40
22.0
 40
23.0
 40
23.0
 40
23.0
 40
24.0
 40
24.0
 40
24.0
 40
25.0
 40
25.0
 40
25.0
 40
26.0
 40
26.0
 40
26.0
 40
27.0
 40
27.0
 40
27.0
 40
28.0
 40
28.0
 40
28.0
 40
29.0
 40
29.0
 40
29.0
 40
30.0
 40
30.0
 40
30.0
 40
31.0
 40
31.0
 40
31.0
 40
32.0
 40
32.0
 40
32.0
 40
33.0
 40
33.0
 40
33.0
 40
33.0
 10
139.8926730891197
 20
154.8294111834263
 10
139.8926730891197
 20
154.8294111834263
 10
142.0344903652445
 20
154.8294111834263
 10
142.0344903652445
 20
154.8294111834263
 10
142.0344903652445
 20
154.8294111834263
 10
140.9516961399171
 20
151.3157559800812
 10
140.9516961399171
 20
151.3157559800812
 10
141.8928968473923
 20
152.7887075264977
 10
142.7341897198865
 20
153.4484437471474
 10
143.8552245303272
 20
154.2926649527359
 10
144.9803934580775
 20
155.1296514530327
 10
146.3139908001845
 20
155.3044901642492
 10
147.241066606852
 20
155.3044901642492
 10
148.3855280820469
 20
155.3044901642492
 10
149.4969166187653
 20
155.0752189084569
 10
150.0784491203092
 20
153.8172414621372
 10
150.5228667310863
 20
152.833838307127
 10
150.5414702589793
 20
152.7201500811143
 10
150.4140016419347
 20
150.7765981809602
 10
151.5818897818837
 20
152.7699317437168
 10
152.4424752018226
 20
153.6256940267945
 10
153.9038856707499
 20
154.4507949398263
 10
155.4455669174378
 20
155.3044901642492
 10
156.339225275853
 20
155.3659851592288
 10
157.3748216618963
 20
155.2147453676543
 10
158.911679771723
 20
154.9877134254046
 10
159.8859534176746
 20
154.4390816074493
 10
160.3965169054045
 20
152.7816450760939
 10
160.9070803931344
 20
151.1219692311958
 10
160.6328506116007
 20
150.2303779314354
 10
159.9992971339115
 20
147.597634224801
 10
159.7105979417943
 20
146.4014962832367
 10
159.2947746424084
 20
144.9400858143094
 10
158.7463150793409
 20
143.2092687007094
 10
158.7463150793409
 20
143.2092687007094
 10
153.9038856707499
 20
127.8027915271048
 10
153.9038856707499
 20
127.8027915271048
 10
153.9038856707499
 20
127.8027915271048
 10
151.3882752878863
 20
127.8027915271048
 10
151.3882752878863
 20
127.8027915271048
 10
151.3882752878863
 20
127.8027915271048
 10
155.6250565106276
 20
141.2751908193897
 10
155.6250565106276
 20
141.2751908193897
 10
156.5094131050963
 20
144.0936252951782
 10
157.109893644309
 20
146.1506931664571
 10
157.4220195011804
 20
147.4415712963654
 10
157.8095929989511
 20
149.0530157726519
 10
157.9656559273867
 20
149.5826995529385
 10
157.7816877071116
 20
150.7529992613181
 10
157.6111553680925
 20
151.8430281919372
 10
157.0582171779396
 20
152.5547853887321
 10
156.1170164704645
 20
152.5547853887321
 10
155.1096698860365
 20
152.5547853887321
 10
154.2962823053817
 20
152.4412694176073
 10
153.156643967048
 20
151.2945686288697
 10
152.0170056287143
 20
150.1476955852443
 10
151.076149431015
 20
148.7930831468137
 10
150.3337308641742
 20
147.2290087646991
 10
149.5957909244188
 20
145.6683794803425
 10
148.8530278478023
 20
143.6822806228776
 10
148.0964843801539
 20
141.2751908193897
 10
148.0964843801539
 20
141.2751908193897
 10
143.8552245303272
 20
127.8027915271048
 10
143.8552245303272
 20
127.8027915271048
 10
143.8552245303272
 20
127.8027915271048
 10
141.486030802177
 20
127.8027915271048
 10
141.486030802177
 20
127.8027915271048
 10
141.486030802177
 20
127.8027915271048
 10
146.3329388378533
 20
143.2092687007094
 10
146.3329388378533
 20
143.2092687007094
 10
146.8483254624444
 20
144.8408669988801
 10
147.2314203331297
 20
146.1837661049335
 10
147.4867020769946
 20
147.224185627838
 10
147.9169947869641
 20
149.0197705792876
 10
148.0306830129768
 20
150.2400242051577
 10
147.709255392159
 20
151.3157559800812
 10
147.3874832615654
 20
152.3916600098926
 10
146.8245542879144
 20
152.6683013598569
 10
145.8840425999909
 20
152.6683013598569
 10
145.0989048209514
 20
152.6683013598569
 10
144.3282364524954
 20
152.3275811915945
 10
143.4531816219731
 20
151.6538923250251
 10
142.34627171234
 20
150.8074318058939
 10
141.901854101563
 20
150.1097995099067
 10
141.3578731655808
 20
149.289521733736
 10
140.6299240093235
 20
148.192602607601
 10
140.2850697237515
 20
147.455696197173
 10
139.6652966370942
 20
145.8385673095858
 10
139.0506911970739
 20
144.2214384219986
 10
138.463991048893
 20
142.3252566160164
 10
138.0571250036777
 20
141.0154304484394
 10
138.0571250036777
 20
141.0154304484394
 10
133.9009590684727
 20
127.8027915271048
 10
133.9009590684727
 20
127.8027915271048
 10
133.9009590684727
 20
127.8027915271048
 10
131.4180771143097
 20
127.8027915271048
 10
131.4180771143097
 20
127.8027915271048
 10
131.4180771143097
 20
127.8027915271048
 10
139.8926730891197
 20
154.8294111834263
 10
139.8926730891197
 20
154.8294111834263
 97
        0
 75
     2
 76
     1
 98
        0
  0
SPLINE
  5
3C5
330
3BD
100
AcDbEntity
  8
レイヤー 1
370
     0
100
AcDbSpline
210
0.0
220
0.0
230
1.0
 70
    11
 71
     3
 72
    29
 73
    25
 74
     0
 42
0.000000001
 43
0.0000000001
 40
0.0
 40
0.0
 40
0.0
 40
0.0
 40
1.0
 40
1.0
 40
1.0
 40
2.0
 40
2.0
 40
2.0
 40
3.0
 40
3.0
 40
3.0
 40
4.0
 40
4.0
 40
4.0
 40
5.0
 40
5.0
 40
5.0
 40
6.0
 40
6.0
 40
6.0
 40
7.0
 40
7.0
 40
7.0
 40
8.0
 40
8.0
 40
8.0
 40
8.0
 10
101.6420971922469
 20
132.8388354296931
 30
0.0
 10
101.630039350094
 20
134.7164137077823
 30
0.0
 10
102.2236296937908
 20
138.0598810818841
 30
0.0
 10
103.7487744712405
 20
142.5378191476827
 30
0.0
 10
105.819967243327
 20
148.5896501242061
 30
0.0
 10
107.0602024361932
 20
150.8074318058939
 30
0.0
 10
108.1522984254671
 20
151.8833358357054
 30
0.0
 10
109.741177511439
 20
153.4532668840085
 30
0.0
 10
111.8740375333931
 20
153.5290590346837
 30
0.0
 10
112.5075910110823
 20
153.4532668840085
 30
0.0
 10
113.4012493694975
 20
153.3490526768302
 30
0.0
 10
114.6683563248758
 20
152.7580461564518
 30
0.0
 10
114.7493161221879
 20
150.7838328862519
 30
0.0
 10
114.8106388622796
 20
149.0909118479895
 30
0.0
 10
114.3186789024427
 20
145.9191825971221
 30
0.0
 10
112.6164561002338
 20
140.9489400617108
 30
0.0
 10
110.6444821435766
 20
135.1746117095912
 30
0.0
 10
109.4669477299053
 20
132.8960240524753
 30
0.0
 10
108.5212683953448
 20
131.9072809959403
 30
0.0
 10
106.7346406980658
 20
130.0538184021569
 30
0.0
 10
104.8222669326213
 20
130.2336525051225
 30
0.0
 10
104.5408024457958
 20
130.2336525051225
 30
0.0
 10
104.1721769856939
 20
130.2336525051225
 30
0.0
 10
101.6465758193322
 20
130.6305277668397
 30
0.0
 10
101.6420971922469
 20
132.8388354296931
 30
0.0
  0
SPLINE
  5
3C6
330
3BD
100
AcDbEntity
  8
レイヤー 1
370
     0
100
AcDbSpline
210
0.0
220
0.0
230
1.0
 70
    11
 71
     3
 72
    32
 73
    28
 74
     0
 42
0.000000001
 43
0.0000000001
 40
0.0
 40
0.0
 40
0.0
 40
0.0
 40
1.0
 40
1.0
 40
1.0
 40
2.0
 40
2.0
 40
2.0
 40
3.0
 40
3.0
 40
3.0
 40
4.0
 40
4.0
 40
4.0
 40
5.0
 40
5.0
 40
5.0
 40
6.0
 40
6.0
 40
6.0
 40
7.0
 40
7.0
 40
7.0
 40
8.0
 40
8.0
 40
8.0
 40
9.0
 40
9.0
 40
9.0
 40
9.0
 10
106.2595617172429
 20
153.4105476718098
 30
0.0
 10
104.8222669326213
 20
151.5474388043041
 30
0.0
 10
103.7177685914188
 20
149.8758773721411
 30
0.0
 10
101.9232171692965
 20
144.6141795664062
 30
0.0
 10
100.2754269116635
 20
139.7999999594306
 30
0.0
 10
99.22777268346732
 20
136.3052927937542
 30
0.0
 10
99.06964269637689
 20
132.039572749846
 30
0.0
 10
98.94665270641765
 20
128.8673267343149
 30
0.0
 10
100.8807305877373
 20
127.8027915271048
 30
0.0
 10
103.7129454545577
 20
127.8027915271048
 30
0.0
 10
104.9352661390825
 20
127.8027915271048
 30
0.0
 10
108.0151835347002
 20
127.8827177950895
 30
0.0
 10
110.2045431598849
 20
130.5926316915021
 30
0.0
 10
111.7417457794874
 20
132.4984597712065
 30
0.0
 10
113.155269389579
 20
134.475256864725
 30
0.0
 10
115.0562743324223
 20
140.9489400617108
 30
0.0
 10
116.6361961642235
 20
146.3680788349845
 30
0.0
 10
117.7282921534974
 20
149.8639917848761
 30
0.0
 10
117.6480213757369
 20
151.8595646611754
 30
0.0
 10
117.6480213757369
 20
151.8595646611754
 30
0.0
 10
117.6480213757369
 20
151.8595646611754
 30
0.0
 10
117.6480213757369
 20
151.8595646611754
 30
0.0
 10
117.13229024137
 20
155.18150017429
 30
0.0
 10
114.7162431837115
 20
155.886194920681
 30
0.0
 10
113.3351034925446
 20
155.886194920681
 30
0.0
 10
111.9829026225447
 20
155.886194920681
 30
0.0
 10
108.3414342923792
 20
156.1251124501957
 30
0.0
 10
106.2595617172429
 20
153.4105476718098
 30
0.0
  0
HATCH
  5
3C7
330
3BD
100
AcDbEntity
  8
レイヤー 1
 62
   250
420
  2234388
100
AcDbHatch
 10
0.0
 20
0.0
 30
0.0
210
0.0
220
0.0
230
1.0
  2
SOLID
 70
     1
 71
     0
 91
        2
 92
        1
 93
        1
 72
     4
 94
        3
 73
     0
 74
     1
 95
       29
 96
       25
 40
0.0
 40
0.0
 40
0.0
 40
0.0
 40
1.0
 40
1.0
 40
1.0
 40
2.0
 40
2.0
 40
2.0
 40
3.0
 40
3.0
 40
3.0
 40
4.0
 40
4.0
 40
4.0
 40
5.0
 40
5.0
 40
5.0
 40
6.0
 40
6.0
 40
6.0
 40
7.0
 40
7.0
 40
7.0
 40
8.0
 40
8.0
 40
8.0
 40
8.0
 10
101.6420971922469
 20
132.8388354296931
 10
101.630039350094
 20
134.7164137077823
 10
102.2236296937908
 20
138.0598810818841
 10
103.7487744712405
 20
142.5378191476827
 10
105.819967243327
 20
148.5896501242061
 10
107.0602024361932
 20
150.8074318058939
 10
108.1522984254671
 20
151.8833358357054
 10
109.741177511439
 20
153.4532668840085
 10
111.8740375333931
 20
153.5290590346837
 10
112.5075910110823
 20
153.4532668840085
 10
113.4012493694975
 20
153.3490526768302
 10
114.6683563248758
 20
152.7580461564518
 10
114.7493161221879
 20
150.7838328862519
 10
114.8106388622796
 20
149.0909118479895
 10
114.3186789024427
 20
145.9191825971221
 10
112.6164561002338
 20
140.9489400617108
 10
110.6444821435766
 20
135.1746117095912
 10
109.4669477299053
 20
132.8960240524753
 10
108.5212683953448
 20
131.9072809959403
 10
106.7346406980658
 20
130.0538184021569
 10
104.8222669326213
 20
130.2336525051225
 10
104.5408024457958
 20
130.2336525051225
 10
104.1721769856939
 20
130.2336525051225
 10
101.6465758193322
 20
130.6305277668397
 10
101.6420971922469
 20
132.8388354296931
 97
        0
 92
        1
 93
        1
 72
     4
 94
        3
 73
     0
 74
     1
 95
       32
 96
       28
 40
0.0
 40
0.0
 40
0.0
 40
0.0
 40
1.0
 40
1.0
 40
1.0
 40
2.0
 40
2.0
 40
2.0
 40
3.0
 40
3.0
 40
3.0
 40
4.0
 40
4.0
 40
4.0
 40
5.0
 40
5.0
 40
5.0
 40
6.0
 40
6.0
 40
6.0
 40
7.0
 40
7.0
 40
7.0
 40
8.0
 40
8.0
 40
8.0
 40
9.0
 40
9.0
 40
9.0
 40
9.0
 10
106.2595617172429
 20
153.4105476718098
 10
104.8222669326213
 20
151.5474388043041
 10
103.7177685914188
 20
149.8758773721411
 10
101.9232171692965
 20
144.6141795664062
 10
100.2754269116635
 20
139.7999999594306
 10
99.22777268346732
 20
136.3052927937542
 10
99.06964269637689
 20
132.039572749846
 10
98.94665270641765
 20
128.8673267343149
 10
100.8807305877373
 20
127.8027915271048
 10
103.7129454545577
 20
127.8027915271048
 10
104.9352661390825
 20
127.8027915271048
 10
108.0151835347002
 20
127.8827177950895
 10
110.2045431598849
 20
130.5926316915021
 10
111.7417457794874
 20
132.4984597712065
 10
113.155269389579
 20
134.475256864725
 10
115.0562743324223
 20
140.9489400617108
 10
116.6361961642235
 20
146.3680788349845
 10
117.7282921534974
 20
149.8639917848761
 10
117.6480213757369
 20
151.8595646611754
 10
117.6480213757369
 20
151.8595646611754
 10
117.6480213757369
 20
151.8595646611754
 10
117.6480213757369
 20
151.8595646611754
 10
117.13229024137
 20
155.18150017429
 10
114.7162431837115
 20
155.886194920681
 10
113.3351034925446
 20
155.886194920681
 10
111.9829026225447
 20
155.886194920681
 10
108.3414342923792
 20
156.1251124501957
 10
106.2595617172429
 20
153.4105476718098
 97
        0
 75
     2
 76
     1
 98
        0
  0
ENDBLK
  5
3C8
330
3BD
100
AcDbEntity
  8
0
100
AcDbBlockEnd
  0
BLOCK
  5
11F1
330
11F0
100
AcDbEntity
  8
0
100
AcDbBlockBegin
  2
BLOCK_2
 70
     0
 10
0.0
 20
0.0
 30
0.0
  3
BLOCK_2
  1
BLOCK_2
  0
ENDBLK
  5
11F2
330
11F0
100
AcDbEntity
  8
0
100
AcDbBlockEnd
  0
BLOCK
  5
19BA
330
19B9
100
AcDbEntity
  8
0
100
AcDbBlockBegin
  2
*D7
 70
     1
 10
0.0
 20
0.0
 30
0.0
  3
*D7
  1
*D171
  0
LINE
  5
19BC
330
19B9
100
AcDbEntity
  8
Dim
  6
Continuous
 62
     0
370
    -2
100
AcDbLine
 10
-1099.996083546581
 20
2038.96504316011
 30
0.0
 11
-1099.996083546581
 21
2303.281849329459
 31
0.0
  0
LINE
  5
19BD
330
19B9
100
AcDbEntity
  8
Dim
  6
Continuous
 62
     0
370
    -2
100
AcDbLine
 10
-1799.89088807097
 20
2038.96504316011
 30
0.0
 11
-1799.89088807097
 21
2303.281849329459
 31
0.0
  0
LINE
  5
19BE
330
19B9
100
AcDbEntity
  8
Dim
  6
Continuous
 62
     0
370
    -2
100
AcDbLine
 10
-1108.996083546581
 20
2303.281849329459
 30
0.0
 11
-1790.89088807097
 21
2303.281849329459
 31
0.0
  0
INSERT
  5
19BF
330
19B9
100
AcDbEntity
  8
Dim
 62
     0
370
    -2
100
AcDbBlockReference
  2
_DOT
 10
-1099.996083546581
 20
2303.281849329459
 30
0.0
 41
9.0
 42
9.0
 43
9.0
  0
INSERT
  5
19C0
330
19B9
100
AcDbEntity
  8
Dim
 62
     0
370
    -2
100
AcDbBlockReference
  2
_DOT
 10
-1799.89088807097
 20
2303.281849329459
 30
0.0
 41
9.0
 42
9.0
 43
9.0
 50
180.0
  0
MTEXT
  5
19C1
330
19B9
100
AcDbEntity
  8
Dim
  6
Continuous
 62
     0
100
AcDbMText
 10
-1449.943485808775
 20
2325.498157923209
 30
0.0
 40
24.4326171875
 41
0.0
 46
0.0
 71
     5
 72
     1
  1
\A1;700
  7
ＭＳ ゴシック
 73
     1
 44
1.0
  0
POINT
  5
19C2
330
19B9
100
AcDbEntity
  8
Defpoints
 62
     0
100
AcDbPoint
 10
-1099.996083546581
 20
2013.96504316011
 30
0.0
  0
POINT
  5
19C3
330
19B9
100
AcDbEntity
  8
Defpoints
 62
     0
100
AcDbPoint
 10
-1799.89088807097
 20
2013.96504316011
 30
0.0
  0
POINT
  5
19C4
330
19B9
100
AcDbEntity
  8
Defpoints
 62
     0
100
AcDbPoint
 10
-1799.89088807097
 20
2303.281849329459
 30
0.0
  0
ENDBLK
  5
19BB
330
19B9
100
AcDbEntity
  8
0
100
AcDbBlockEnd
  0
BLOCK
  5
19D6
330
19D5
100
AcDbEntity
  8
0
100
AcDbBlockBegin
  2
*D8
 70
     1
 10
0.0
 20
0.0
 30
0.0
  3
*D8
  1
*D173
  0
LINE
  5
19D8
330
19D5
100
AcDbEntity
  8
Dim
  6
Continuous
 62
     0
370
    -2
100
AcDbLine
 10
-1249.325954287327
 20
2198.454981313166
 30
0.0
 11
-1025.715534479406
 21
2198.454981313166
 31
0.0
  0
LINE
  5
19D9
330
19D5
100
AcDbEntity
  8
Dim
  6
Continuous
 62
     0
370
    -2
100
AcDbLine
 10
-1249.325954287327
 20
1828.454981313166
 30
0.0
 11
-1025.715534479406
 21
1828.454981313166
 31
0.0
  0
LINE
  5
19DA
330
19D5
100
AcDbEntity
  8
Dim
  6
Continuous
 62
     0
370
    -2
100
AcDbLine
 10
-1025.715534479406
 20
2189.454981313166
 30
0.0
 11
-1025.715534479406
 21
1837.454981313166
 31
0.0
  0
INSERT
  5
19DB
330
19D5
100
AcDbEntity
  8
Dim
 62
     0
370
    -2
100
AcDbBlockReference
  2
_DOT
 10
-1025.715534479406
 20
2198.454981313166
 30
0.0
 41
9.0
 42
9.0
 43
9.0
 50
90.0
  0
INSERT
  5
19DC
330
19D5
100
AcDbEntity
  8
Dim
 62
     0
370
    -2
100
AcDbBlockReference
  2
_DOT
 10
-1025.715534479406
 20
1828.454981313166
 30
0.0
 41
9.0
 42
9.0
 43
9.0
 50
270.0
  0
MTEXT
  5
19DD
330
19D5
100
AcDbEntity
  8
Dim
  6
Continuous
 62
     0
100
AcDbMText
 10
-1047.931843073156
 20
2013.454981313166
 30
0.0
 40
24.4326171875
 41
0.0
 46
0.0
 71
     5
 72
     1
  1
\A1;370
  7
ＭＳ ゴシック
 11
0.0
 21
1.0
 31
0.0
 73
     1
 44
1.0
  0
POINT
  5
19DE
330
19D5
100
AcDbEntity
  8
Defpoints
 62
     0
100
AcDbPoint
 10
-1274.325954287327
 20
2198.454981313166
 30
0.0
  0
POINT
  5
19DF
330
19D5
100
AcDbEntity
  8
Defpoints
 62
     0
100
AcDbPoint
 10
-1274.325954287327
 20
1828.454981313166
 30
0.0
  0
POINT
  5
19E0
330
19D5
100
AcDbEntity
  8
Defpoints
 62
     0
100
AcDbPoint
 10
-1025.715534479406
 20
1828.454981313166
 30
0.0
  0
ENDBLK
  5
19D7
330
19D5
100
AcDbEntity
  8
0
100
AcDbBlockEnd
  0
BLOCK
  5
19E6
330
19E5
100
AcDbEntity
  8
0
100
AcDbBlockBegin
  2
*D9
 70
     1
 10
0.0
 20
0.0
 30
0.0
  3
*D9
  1
*D174
  0
LINE
  5
19E8
330
19E5
100
AcDbEntity
  8
Dim
  6
Continuous
 62
     0
370
    -2
100
AcDbLine
 10
-1658.462652838284
 20
2171.208593363257
 30
0.0
 11
-1848.980854296902
 21
2171.208593363257
 31
0.0
  0
LINE
  5
19E9
330
19E5
100
AcDbEntity
  8
Dim
  6
Continuous
 62
     0
370
    -2
100
AcDbLine
 10
-1658.462652838284
 20
1856.208593363257
 30
0.0
 11
-1848.980854296902
 21
1856.208593363257
 31
0.0
  0
LINE
  5
19EA
330
19E5
100
AcDbEntity
  8
Dim
  6
Continuous
 62
     0
370
    -2
100
AcDbLine
 10
-1848.980854296902
 20
2162.208593363257
 30
0.0
 11
-1848.980854296902
 21
1865.208593363257
 31
0.0
  0
INSERT
  5
19EB
330
19E5
100
AcDbEntity
  8
Dim
 62
     0
370
    -2
100
AcDbBlockReference
  2
_DOT
 10
-1848.980854296902
 20
2171.208593363257
 30
0.0
 41
9.0
 42
9.0
 43
9.0
 50
90.0
  0
INSERT
  5
19EC
330
19E5
100
AcDbEntity
  8
Dim
 62
     0
370
    -2
100
AcDbBlockReference
  2
_DOT
 10
-1848.980854296902
 20
1856.208593363257
 30
0.0
 41
9.0
 42
9.0
 43
9.0
 50
270.0
  0
MTEXT
  5
19ED
330
19E5
100
AcDbEntity
  8
Dim
  6
Continuous
 62
     0
100
AcDbMText
 10
-1871.197162890652
 20
2013.708593363257
 30
0.0
 40
24.4326171875
 41
0.0
 46
0.0
 71
     5
 72
     1
  1
\A1;315
  7
ＭＳ ゴシック
 11
0.0
 21
1.0
 31
0.0
 73
     1
 44
1.0
  0
POINT
  5
19EE
330
19E5
100
AcDbEntity
  8
Defpoints
 62
     0
100
AcDbPoint
 10
-1633.462652838284
 20
2171.208593363257
 30
0.0
  0
POINT
  5
19EF
330
19E5
100
AcDbEntity
  8
Defpoints
 62
     0
100
AcDbPoint
 10
-1633.462652838284
 20
1856.208593363257
 30
0.0
  0
POINT
  5
19F0
330
19E5
100
AcDbEntity
  8
Defpoints
 62
     0
100
AcDbPoint
 10
-1848.980854296902
 20
1856.208593363257
 30
0.0
  0
ENDBLK
  5
19E7
330
19E5
100
AcDbEntity
  8
0
100
AcDbBlockEnd
  0
BLOCK
  5
19F5
330
19F4
100
AcDbEntity
  8
0
100
AcDbBlockBegin
  2
*D10
 70
     1
 10
0.0
 20
0.0
 30
0.0
  3
*D10
  1
*D175
  0
LINE
  5
19F7
330
19F4
100
AcDbEntity
  8
Dim
  6
Continuous
 62
     0
370
    -2
100
AcDbLine
 10
-1769.89088878071
 20
1962.447941487623
 30
0.0
 11
-1769.89088878071
 21
1742.239402837962
 31
0.0
  0
LINE
  5
19F8
330
19F4
100
AcDbEntity
  8
Dim
  6
Continuous
 62
     0
370
    -2
100
AcDbLine
 10
-1129.996082836847
 20
1962.447941487651
 30
0.0
 11
-1129.996082836847
 21
1742.239402837962
 31
0.0
  0
LINE
  5
19F9
330
19F4
100
AcDbEntity
  8
Dim
  6
Continuous
 62
     0
370
    -2
100
AcDbLine
 10
-1760.89088878071
 20
1742.239402837962
 30
0.0
 11
-1138.996082836847
 21
1742.239402837962
 31
0.0
  0
INSERT
  5
19FA
330
19F4
100
AcDbEntity
  8
Dim
 62
     0
370
    -2
100
AcDbBlockReference
  2
_DOT
 10
-1769.89088878071
 20
1742.239402837962
 30
0.0
 41
9.0
 42
9.0
 43
9.0
 50
180.0
  0
INSERT
  5
19FB
330
19F4
100
AcDbEntity
  8
Dim
 62
     0
370
    -2
100
AcDbBlockReference
  2
_DOT
 10
-1129.996082836847
 20
1742.239402837962
 30
0.0
 41
9.0
 42
9.0
 43
9.0
  0
MTEXT
  5
19FC
330
19F4
100
AcDbEntity
  8
Dim
  6
Continuous
 62
     0
100
AcDbMText
 10
-1449.943485808778
 20
1764.455711431712
 30
0.0
 40
24.4326171875
 41
0.0
 46
0.0
 71
     5
 72
     1
  1
\A1;640
  7
ＭＳ ゴシック
 73
     1
 44
1.0
  0
POINT
  5
19FD
330
19F4
100
AcDbEntity
  8
Defpoints
 62
     0
100
AcDbPoint
 10
-1769.89088878071
 20
1987.447941487623
 30
0.0
  0
POINT
  5
19FE
330
19F4
100
AcDbEntity
  8
Defpoints
 62
     0
100
AcDbPoint
 10
-1129.996082836847
 20
1987.447941487651
 30
0.0
  0
POINT
  5
19FF
330
19F4
100
AcDbEntity
  8
Defpoints
 62
     0
100
AcDbPoint
 10
-1129.996082836847
 20
1742.239402837962
 30
0.0
  0
ENDBLK
  5
19F6
330
19F4
100
AcDbEntity
  8
0
100
AcDbBlockEnd
  0
BLOCK
  5
1A05
330
1A04
100
AcDbEntity
  8
0
100
AcDbBlockBegin
  2
*D11
 70
     1
 10
0.0
 20
0.0
 30
0.0
  3
*D11
  1
*D176
  0
LINE
  5
1A07
330
1A04
100
AcDbEntity
  8
Dim
  6
Continuous
 62
     0
370
    -2
100
AcDbLine
 10
-327.3720526930472
 20
986.4496762339288
 30
0.0
 11
-327.3720526930472
 21
735.8857509555712
 31
0.0
  0
LINE
  5
1A08
330
1A04
100
AcDbEntity
  8
Dim
  6
Continuous
 62
     0
370
    -2
100
AcDbLine
 10
-512.3720526930472
 20
778.9884752019805
 30
0.0
 11
-512.3720526930472
 21
735.8857509555712
 31
0.0
  0
LINE
  5
1A09
330
1A04
100
AcDbEntity
  8
Dim
  6
Continuous
 62
     0
370
    -2
100
AcDbLine
 10
-336.3720526930472
 20
735.8857509555712
 30
0.0
 11
-503.3720526930472
 21
735.8857509555712
 31
0.0
  0
INSERT
  5
1A0A
330
1A04
100
AcDbEntity
  8
Dim
 62
     0
370
    -2
100
AcDbBlockReference
  2
_DOT
 10
-327.3720526930472
 20
735.8857509555712
 30
0.0
 41
9.0
 42
9.0
 43
9.0
  0
INSERT
  5
1A0B
330
1A04
100
AcDbEntity
  8
Dim
 62
     0
370
    -2
100
AcDbBlockReference
  2
_DOT
 10
-512.3720526930472
 20
735.8857509555712
 30
0.0
 41
9.0
 42
9.0
 43
9.0
 50
180.0
  0
MTEXT
  5
1A0C
330
1A04
100
AcDbEntity
  8
Dim
  6
Continuous
 62
     0
100
AcDbMText
 10
-419.8720526930472
 20
758.1020595493212
 30
0.0
 40
24.4326171875
 41
0.0
 46
0.0
 71
     5
 72
     1
  1
\A1;185
  7
ＭＳ ゴシック
 73
     1
 44
1.0
  0
POINT
  5
1A0D
330
1A04
100
AcDbEntity
  8
Defpoints
 62
     0
100
AcDbPoint
 10
-327.3720526930472
 20
1011.449676233929
 30
0.0
  0
POINT
  5
1A0E
330
1A04
100
AcDbEntity
  8
Defpoints
 62
     0
100
AcDbPoint
 10
-512.3720526930472
 20
803.9884752019805
 30
0.0
  0
POINT
  5
1A0F
330
1A04
100
AcDbEntity
  8
Defpoints
 62
     0
100
AcDbPoint
 10
-512.3720526930472
 20
735.8857509555712
 30
0.0
  0
ENDBLK
  5
1A06
330
1A04
100
AcDbEntity
  8
0
100
AcDbBlockEnd
  0
BLOCK
  5
1A1A
330
1A19
100
AcDbEntity
  8
0
100
AcDbBlockBegin
  2
*D12
 70
     1
 10
0.0
 20
0.0
 30
0.0
  3
*D12
  1
*D177
  0
LINE
  5
1A1C
330
1A19
100
AcDbEntity
  8
Dim
  6
Continuous
 62
     0
370
    -2
100
AcDbLine
 10
-719.6927189960682
 20
1042.146970822732
 30
0.0
 11
-761.3768901128972
 21
1042.146970822732
 31
0.0
  0
LINE
  5
1A1D
330
1A19
100
AcDbEntity
  8
Dim
  6
Continuous
 62
     0
370
    -2
100
AcDbLine
 10
-702.471264939091
 20
967.2331786268264
 30
0.0
 11
-761.3768901128972
 21
967.2331786268264
 31
0.0
  0
LINE
  5
1A1E
330
1A19
100
AcDbEntity
  8
Dim
  6
Continuous
 62
     0
370
    -2
100
AcDbLine
 10
-761.3768901128972
 20
1033.146970822732
 30
0.0
 11
-761.3768901128972
 21
976.2331786268264
 31
0.0
  0
INSERT
  5
1A1F
330
1A19
100
AcDbEntity
  8
Dim
 62
     0
370
    -2
100
AcDbBlockReference
  2
_DOT
 10
-761.3768901128972
 20
1042.146970822732
 30
0.0
 41
9.0
 42
9.0
 43
9.0
 50
90.0
  0
INSERT
  5
1A20
330
1A19
100
AcDbEntity
  8
Dim
 62
     0
370
    -2
100
AcDbBlockReference
  2
_DOT
 10
-761.3768901128972
 20
967.2331786268264
 30
0.0
 41
9.0
 42
9.0
 43
9.0
 50
270.0
  0
MTEXT
  5
1A21
330
1A19
100
AcDbEntity
  8
Dim
  6
Continuous
 62
     0
100
AcDbMText
 10
-783.5931987066472
 20
1004.690074724779
 30
0.0
 40
24.4326171875
 41
0.0
 46
0.0
 71
     5
 72
     1
  1
\A1;75
  7
ＭＳ ゴシック
 11
0.0
 21
1.0
 31
0.0
 73
     1
 44
1.0
  0
POINT
  5
1A22
330
1A19
100
AcDbEntity
  8
Defpoints
 62
     0
100
AcDbPoint
 10
-694.6927189960682
 20
1042.146970822732
 30
0.0
  0
POINT
  5
1A23
330
1A19
100
AcDbEntity
  8
Defpoints
 62
     0
100
AcDbPoint
 10
-677.471264939091
 20
967.2331786268264
 30
0.0
  0
POINT
  5
1A24
330
1A19
100
AcDbEntity
  8
Defpoints
 62
     0
100
AcDbPoint
 10
-761.3768901128972
 20
967.2331786268264
 30
0.0
  0
ENDBLK
  5
1A1B
330
1A19
100
AcDbEntity
  8
0
100
AcDbBlockEnd
  0
BLOCK
  5
1A27
330
1A26
100
AcDbEntity
  8
0
100
AcDbBlockBegin
  2
*D13
 70
     1
 10
0.0
 20
0.0
 30
0.0
  3
*D13
  1
*D178
  0
LINE
  5
1A29
330
1A26
100
AcDbEntity
  8
Dim
  6
Continuous
 62
     0
370
    -2
100
AcDbLine
 10
-727.471264939091
 20
967.2331786268264
 30
0.0
 11
-761.3768901128972
 21
967.2331786268264
 31
0.0
  0
LINE
  5
1A2A
330
1A26
100
AcDbEntity
  8
Dim
  6
Continuous
 62
     0
370
    -2
100
AcDbLine
 10
-664.2463188304221
 20
892.2331786268264
 30
0.0
 11
-761.3768901128972
 21
892.2331786268264
 31
0.0
  0
LINE
  5
1A2B
330
1A26
100
AcDbEntity
  8
Dim
  6
Continuous
 62
     0
370
    -2
100
AcDbLine
 10
-761.3768901128972
 20
958.2331786268264
 30
0.0
 11
-761.3768901128972
 21
901.2331786268264
 31
0.0
  0
INSERT
  5
1A2C
330
1A26
100
AcDbEntity
  8
Dim
 62
     0
370
    -2
100
AcDbBlockReference
  2
_DOT
 10
-761.3768901128972
 20
967.2331786268264
 30
0.0
 41
9.0
 42
9.0
 43
9.0
 50
90.0
  0
INSERT
  5
1A2D
330
1A26
100
AcDbEntity
  8
Dim
 62
     0
370
    -2
100
AcDbBlockReference
  2
_DOT
 10
-761.3768901128972
 20
892.2331786268264
 30
0.0
 41
9.0
 42
9.0
 43
9.0
 50
270.0
  0
MTEXT
  5
1A2E
330
1A26
100
AcDbEntity
  8
Dim
  6
Continuous
 62
     0
100
AcDbMText
 10
-783.5931987066472
 20
929.7331786268264
 30
0.0
 40
24.4326171875
 41
0.0
 46
0.0
 71
     5
 72
     1
  1
\A1;75
  7
ＭＳ ゴシック
 11
0.0
 21
1.0
 31
0.0
 73
     1
 44
1.0
  0
POINT
  5
1A2F
330
1A26
100
AcDbEntity
  8
Defpoints
 62
     0
100
AcDbPoint
 10
-702.471264939091
 20
967.2331786268264
 30
0.0
  0
POINT
  5
1A30
330
1A26
100
AcDbEntity
  8
Defpoints
 62
     0
100
AcDbPoint
 10
-639.2463188304221
 20
892.2331786268264
 30
0.0
  0
POINT
  5
1A31
330
1A26
100
AcDbEntity
  8
Defpoints
 62
     0
100
AcDbPoint
 10
-761.3768901128972
 20
892.2331786268264
 30
0.0
  0
ENDBLK
  5
1A28
330
1A26
100
AcDbEntity
  8
0
100
AcDbBlockEnd
  0
BLOCK
  5
1A37
330
1A36
100
AcDbEntity
  8
0
100
AcDbBlockBegin
  2
*D14
 70
     1
 10
0.0
 20
0.0
 30
0.0
  3
*D14
  1
*D179
  0
LINE
  5
1A39
330
1A36
100
AcDbEntity
  8
Dim
  6
Continuous
 62
     0
370
    -2
100
AcDbLine
 10
-1079.023640787445
 20
1042.154778093721
 30
0.0
 11
-1010.950968915361
 21
1042.154778093721
 31
0.0
  0
LINE
  5
1A3A
330
1A36
100
AcDbEntity
  8
Dim
  6
Continuous
 62
     0
370
    -2
100
AcDbLine
 10
-1127.580864198037
 20
892.1547780937206
 30
0.0
 11
-1010.950968915361
 21
892.1547780937206
 31
0.0
  0
LINE
  5
1A3B
330
1A36
100
AcDbEntity
  8
Dim
  6
Continuous
 62
     0
370
    -2
100
AcDbLine
 10
-1010.950968915361
 20
1033.154778093721
 30
0.0
 11
-1010.950968915361
 21
901.1547780937206
 31
0.0
  0
INSERT
  5
1A3C
330
1A36
100
AcDbEntity
  8
Dim
 62
     0
370
    -2
100
AcDbBlockReference
  2
_DOT
 10
-1010.950968915361
 20
1042.154778093721
 30
0.0
 41
9.0
 42
9.0
 43
9.0
 50
90.0
  0
INSERT
  5
1A3D
330
1A36
100
AcDbEntity
  8
Dim
 62
     0
370
    -2
100
AcDbBlockReference
  2
_DOT
 10
-1010.950968915361
 20
892.1547780937206
 30
0.0
 41
9.0
 42
9.0
 43
9.0
 50
270.0
  0
MTEXT
  5
1A3E
330
1A36
100
AcDbEntity
  8
Dim
  6
Continuous
 62
     0
100
AcDbMText
 10
-1033.167277509111
 20
967.1547780937207
 30
0.0
 40
24.4326171875
 41
0.0
 46
0.0
 71
     5
 72
     1
  1
\A1;150
  7
ＭＳ ゴシック
 11
0.0
 21
1.0
 31
0.0
 73
     1
 44
1.0
  0
POINT
  5
1A3F
330
1A36
100
AcDbEntity
  8
Defpoints
 62
     0
100
AcDbPoint
 10
-1104.023640787445
 20
1042.154778093721
 30
0.0
  0
POINT
  5
1A40
330
1A36
100
AcDbEntity
  8
Defpoints
 62
     0
100
AcDbPoint
 10
-1152.580864198037
 20
892.1547780937206
 30
0.0
  0
POINT
  5
1A41
330
1A36
100
AcDbEntity
  8
Defpoints
 62
     0
100
AcDbPoint
 10
-1010.950968915361
 20
892.1547780937206
 30
0.0
  0
ENDBLK
  5
1A38
330
1A36
100
AcDbEntity
  8
0
100
AcDbBlockEnd
  0
BLOCK
  5
1A44
330
1A43
100
AcDbEntity
  8
0
100
AcDbBlockBegin
  2
*D15
 70
     1
 10
0.0
 20
0.0
 30
0.0
  3
*D15
  1
*D180
  0
LINE
  5
1A46
330
1A43
100
AcDbEntity
  8
Dim
  6
Continuous
 62
     0
370
    -2
100
AcDbLine
 10
-1730.498314026006
 20
864.0829322445534
 30
0.0
 11
-1730.498314026006
 21
800.3750743564613
 31
0.0
  0
LINE
  5
1A47
330
1A43
100
AcDbEntity
  8
Dim
  6
Continuous
 62
     0
370
    -2
100
AcDbLine
 10
-1165.498314026006
 20
864.0829322445534
 30
0.0
 11
-1165.498314026006
 21
800.3750743564613
 31
0.0
  0
LINE
  5
1A48
330
1A43
100
AcDbEntity
  8
Dim
  6
Continuous
 62
     0
370
    -2
100
AcDbLine
 10
-1721.498314026006
 20
800.3750743564613
 30
0.0
 11
-1174.498314026006
 21
800.3750743564613
 31
0.0
  0
INSERT
  5
1A49
330
1A43
100
AcDbEntity
  8
Dim
 62
     0
370
    -2
100
AcDbBlockReference
  2
_DOT
 10
-1730.498314026006
 20
800.3750743564613
 30
0.0
 41
9.0
 42
9.0
 43
9.0
 50
180.0
  0
INSERT
  5
1A4A
330
1A43
100
AcDbEntity
  8
Dim
 62
     0
370
    -2
100
AcDbBlockReference
  2
_DOT
 10
-1165.498314026006
 20
800.3750743564613
 30
0.0
 41
9.0
 42
9.0
 43
9.0
  0
MTEXT
  5
1A4B
330
1A43
100
AcDbEntity
  8
Dim
  6
Continuous
 62
     0
100
AcDbMText
 10
-1447.998314026006
 20
822.5913829502113
 30
0.0
 40
24.4326171875
 41
0.0
 46
0.0
 71
     5
 72
     1
  1
\A1;565
  7
ＭＳ ゴシック
 73
     1
 44
1.0
  0
POINT
  5
1A4C
330
1A43
100
AcDbEntity
  8
Defpoints
 62
     0
100
AcDbPoint
 10
-1730.498314026006
 20
889.0829322445534
 30
0.0
  0
POINT
  5
1A4D
330
1A43
100
AcDbEntity
  8
Defpoints
 62
     0
100
AcDbPoint
 10
-1165.498314026006
 20
889.0829322445534
 30
0.0
  0
POINT
  5
1A4E
330
1A43
100
AcDbEntity
  8
Defpoints
 62
     0
100
AcDbPoint
 10
-1165.498314026006
 20
800.3750743564613
 30
0.0
  0
ENDBLK
  5
1A45
330
1A43
100
AcDbEntity
  8
0
100
AcDbBlockEnd
  0
BLOCK
  5
1A8A
330
1A89
100
AcDbEntity
  8
0
100
AcDbBlockBegin
  2
*D16
 70
     1
 10
0.0
 20
0.0
 30
0.0
  3
*D16
  1
*D182
  0
LINE
  5
1A8C
330
1A89
100
AcDbEntity
  8
Dim
  6
Continuous
 62
     0
370
    -2
100
AcDbLine
 10
-629.8720526930472
 20
868.9935144224153
 30
0.0
 11
-629.8720526930472
 21
803.9884752019805
 31
0.0
  0
LINE
  5
1A8D
330
1A89
100
AcDbEntity
  8
Dim
  6
Continuous
 62
     0
370
    -2
100
AcDbLine
 10
-394.8720526930472
 20
868.9935144224153
 30
0.0
 11
-394.8720526930472
 21
803.9884752019805
 31
0.0
  0
LINE
  5
1A8E
330
1A89
100
AcDbEntity
  8
Dim
  6
Continuous
 62
     0
370
    -2
100
AcDbLine
 10
-620.8720526930472
 20
803.9884752019805
 30
0.0
 11
-403.8720526930472
 21
803.9884752019805
 31
0.0
  0
INSERT
  5
1A8F
330
1A89
100
AcDbEntity
  8
Dim
 62
     0
370
    -2
100
AcDbBlockReference
  2
_DOT
 10
-629.8720526930472
 20
803.9884752019805
 30
0.0
 41
9.0
 42
9.0
 43
9.0
 50
180.0
  0
INSERT
  5
1A90
330
1A89
100
AcDbEntity
  8
Dim
 62
     0
370
    -2
100
AcDbBlockReference
  2
_DOT
 10
-394.8720526930472
 20
803.9884752019805
 30
0.0
 41
9.0
 42
9.0
 43
9.0
  0
MTEXT
  5
1A91
330
1A89
100
AcDbEntity
  8
Dim
  6
Continuous
 62
     0
100
AcDbMText
 10
-512.3720526930472
 20
826.2047837957305
 30
0.0
 40
24.4326171875
 41
0.0
 46
0.0
 71
     5
 72
     1
  1
\A1;235
  7
ＭＳ ゴシック
 73
     1
 44
1.0
  0
POINT
  5
1A92
330
1A89
100
AcDbEntity
  8
Defpoints
 62
     0
100
AcDbPoint
 10
-629.8720526930472
 20
893.9935144224153
 30
0.0
  0
POINT
  5
1A93
330
1A89
100
AcDbEntity
  8
Defpoints
 62
     0
100
AcDbPoint
 10
-394.8720526930472
 20
893.9935144224153
 30
0.0
  0
POINT
  5
1A94
330
1A89
100
AcDbEntity
  8
Defpoints
 62
     0
100
AcDbPoint
 10
-394.8720526930472
 20
803.9884752019805
 30
0.0
  0
ENDBLK
  5
1A8B
330
1A89
100
AcDbEntity
  8
0
100
AcDbBlockEnd
  0
BLOCK
  5
1AA6
330
1AA5
100
AcDbEntity
  8
0
100
AcDbBlockBegin
  2
*D17
 70
     1
 10
0.0
 20
0.0
 30
0.0
  3
*D17
  1
*D183
  0
LINE
  5
1AA8
330
1AA5
100
AcDbEntity
  8
Dim
  6
Continuous
 62
     0
370
    -2
100
AcDbLine
 10
-512.3720447192811
 20
1042.148728416899
 30
0.0
 11
-512.3720447192811
 21
1212.524648338775
 31
0.0
  0
LINE
  5
1AA9
330
1AA5
100
AcDbEntity
  8
Dim
  6
Continuous
 62
     0
370
    -2
100
AcDbLine
 10
-512.3720447192811
 20
929.8244651276623
 30
0.0
 11
-512.3720447192811
 21
1033.148728416899
 31
0.0
  0
INSERT
  5
1AAA
330
1AA5
100
AcDbEntity
  8
Dim
 62
     0
370
    -2
100
AcDbBlockReference
  2
_DOT
 10
-512.3720447192811
 20
920.8244651276623
 30
0.0
 41
9.0
 42
9.0
 43
9.0
 50
270.0
  0
INSERT
  5
1AAB
330
1AA5
100
AcDbEntity
  8
Dim
 62
     0
370
    -2
100
AcDbBlockReference
  2
_DOT
 10
-512.3720447192811
 20
1042.148728416899
 30
0.0
 41
9.0
 42
9.0
 43
9.0
 50
90.0
  0
MTEXT
  5
1AAC
330
1AA5
100
AcDbEntity
  8
Dim
  6
Continuous
 62
     0
100
AcDbMText
 10
-536.7506399341248
 20
1136.336688377837
 30
0.0
 40
24.4326171875
 41
0.0
 46
0.0
 71
     5
 72
     1
  1
\A1;120(深さ)
  7
ＭＳ ゴシック
 11
0.0
 21
1.0
 31
0.0
 73
     1
 44
1.0
  0
POINT
  5
1AAD
330
1AA5
100
AcDbEntity
  8
Defpoints
 62
     0
100
AcDbPoint
 10
-512.372057990432
 20
920.8244651276623
 30
0.0
  0
POINT
  5
1AAE
330
1AA5
100
AcDbEntity
  8
Defpoints
 62
     0
100
AcDbPoint
 10
-512.3720507163941
 20
1042.148728416899
 30
0.0
  0
POINT
  5
1AB3
330
1AA5
100
AcDbEntity
  8
Defpoints
 62
     0
100
AcDbPoint
 10
-512.3720447192811
 20
1042.148728416899
 30
0.0
  0
ENDBLK
  5
1AA7
330
1AA5
100
AcDbEntity
  8
0
100
AcDbBlockEnd
  0
BLOCK
  5
1E52
330
1E51
100
AcDbEntity
  8
0
100
AcDbBlockBegin
  2
*D18
 70
     1
 10
0.0
 20
0.0
 30
0.0
  3
*D18
  1
*D19
  0
LINE
  5
1E54
330
1E51
100
AcDbEntity
  8
Dim
  6
Continuous
 62
     0
370
    -2
100
AcDbLine
 10
1342.902576057656
 20
1413.741616148908
 30
0.0
 11
1659.541231010124
 21
1413.741616148908
 31
0.0
  0
LINE
  5
1E55
330
1E51
100
AcDbEntity
  8
Dim
  6
Continuous
 62
     0
370
    -2
100
AcDbLine
 10
1342.902576057656
 20
1873.741616144479
 30
0.0
 11
1659.541231010124
 21
1873.741616144479
 31
0.0
  0
LINE
  5
1E56
330
1E51
100
AcDbEntity
  8
Dim
  6
Continuous
 62
     0
370
    -2
100
AcDbLine
 10
1659.541231010124
 20
1422.741616148908
 30
0.0
 11
1659.541231010124
 21
1864.741616144479
 31
0.0
  0
INSERT
  5
1E57
330
1E51
100
AcDbEntity
  8
Dim
 62
     0
370
    -2
100
AcDbBlockReference
  2
_DOT
 10
1659.541231010124
 20
1413.741616148908
 30
0.0
 41
9.0
 42
9.0
 43
9.0
 50
270.0
  0
INSERT
  5
1E58
330
1E51
100
AcDbEntity
  8
Dim
 62
     0
370
    -2
100
AcDbBlockReference
  2
_DOT
 10
1659.541231010124
 20
1873.741616144479
 30
0.0
 41
9.0
 42
9.0
 43
9.0
 50
90.0
  0
MTEXT
  5
1E59
330
1E51
100
AcDbEntity
  8
Dim
  6
Continuous
 62
     0
100
AcDbMText
 10
1637.324922416374
 20
1643.741616146694
 30
0.0
 40
24.4326171875
 41
0.0
 46
0.0
 71
     5
 72
     1
  1
\A1;460
  7
ＭＳ ゴシック
 11
0.0
 21
1.0
 31
0.0
 73
     1
 44
1.0
  0
POINT
  5
1E5A
330
1E51
100
AcDbEntity
  8
Defpoints
 62
     0
100
AcDbPoint
 10
1317.902576057656
 20
1413.741616148908
 30
0.0
  0
POINT
  5
1E5B
330
1E51
100
AcDbEntity
  8
Defpoints
 62
     0
100
AcDbPoint
 10
1317.902576057656
 20
1873.741616144479
 30
0.0
  0
POINT
  5
1E5C
330
1E51
100
AcDbEntity
  8
Defpoints
 62
     0
100
AcDbPoint
 10
1659.541231010124
 20
1873.741616144479
 30
0.0
  0
ENDBLK
  5
1E53
330
1E51
100
AcDbEntity
  8
0
100
AcDbBlockEnd
  0
BLOCK
  5
1E90
330
1E8F
100
AcDbEntity
  8
0
100
AcDbBlockBegin
  2
*D19
 70
     1
 10
0.0
 20
0.0
 30
0.0
  3
*D19
  1
*D20
  0
LINE
  5
1E92
330
1E8F
100
AcDbEntity
  8
Dim
  6
Continuous
 62
     0
370
    -2
100
AcDbLine
 10
266.2688618067473
 20
2333.981632006561
 30
0.0
 11
266.2688618067473
 21
2418.931492431568
 31
0.0
  0
LINE
  5
1E93
330
1E8F
100
AcDbEntity
  8
Dim
  6
Continuous
 62
     0
370
    -2
100
AcDbLine
 10
866.2688618067473
 20
2333.981632006561
 30
0.0
 11
866.2688618067473
 21
2418.931492431568
 31
0.0
  0
LINE
  5
1E94
330
1E8F
100
AcDbEntity
  8
Dim
  6
Continuous
 62
     0
370
    -2
100
AcDbLine
 10
275.2688618067473
 20
2418.931492431568
 30
0.0
 11
857.2688618067473
 21
2418.931492431568
 31
0.0
  0
INSERT
  5
1E95
330
1E8F
100
AcDbEntity
  8
Dim
 62
     0
370
    -2
100
AcDbBlockReference
  2
_DOT
 10
266.2688618067473
 20
2418.931492431568
 30
0.0
 41
9.0
 42
9.0
 43
9.0
 50
180.0
  0
INSERT
  5
1E96
330
1E8F
100
AcDbEntity
  8
Dim
 62
     0
370
    -2
100
AcDbBlockReference
  2
_DOT
 10
866.2688618067473
 20
2418.931492431568
 30
0.0
 41
9.0
 42
9.0
 43
9.0
  0
MTEXT
  5
1E97
330
1E8F
100
AcDbEntity
  8
Dim
  6
Continuous
 62
     0
100
AcDbMText
 10
566.2688618067473
 20
2441.147801025318
 30
0.0
 40
24.4326171875
 41
0.0
 46
0.0
 71
     5
 72
     1
  1
\A1;600
  7
ＭＳ ゴシック
 73
     1
 44
1.0
  0
POINT
  5
1E98
330
1E8F
100
AcDbEntity
  8
Defpoints
 62
     0
100
AcDbPoint
 10
266.2688618067473
 20
2308.981632006561
 30
0.0
  0
POINT
  5
1E99
330
1E8F
100
AcDbEntity
  8
Defpoints
 62
     0
100
AcDbPoint
 10
866.2688618067473
 20
2308.981632006561
 30
0.0
  0
POINT
  5
1E9A
330
1E8F
100
AcDbEntity
  8
Defpoints
 62
     0
100
AcDbPoint
 10
866.2688618067473
 20
2418.931492431568
 30
0.0
  0
ENDBLK
  5
1E91
330
1E8F
100
AcDbEntity
  8
0
100
AcDbBlockEnd
  0
BLOCK
  5
1E9D
330
1E9C
100
AcDbEntity
  8
0
100
AcDbBlockBegin
  2
*D20
 70
     1
 10
0.0
 20
0.0
 30
0.0
  3
*D20
  1
*D21
  0
LINE
  5
1E9F
330
1E9C
100
AcDbEntity
  8
Dim
  6
Continuous
 62
     0
370
    -2
100
AcDbLine
 10
888.2635249473733
 20
2311.985013142128
 30
0.0
 11
1000.030194040457
 21
2311.985013142128
 31
0.0
  0
LINE
  5
1EA0
330
1E9C
100
AcDbEntity
  8
Dim
  6
Continuous
 62
     0
370
    -2
100
AcDbLine
 10
888.2635249473733
 20
1851.985013142128
 30
0.0
 11
1000.030194040457
 21
1851.985013142128
 31
0.0
  0
LINE
  5
1EA1
330
1E9C
100
AcDbEntity
  8
Dim
  6
Continuous
 62
     0
370
    -2
100
AcDbLine
 10
1000.030194040457
 20
2302.985013142128
 30
0.0
 11
1000.030194040457
 21
1860.985013142128
 31
0.0
  0
INSERT
  5
1EA2
330
1E9C
100
AcDbEntity
  8
Dim
 62
     0
370
    -2
100
AcDbBlockReference
  2
_DOT
 10
1000.030194040457
 20
2311.985013142128
 30
0.0
 41
9.0
 42
9.0
 43
9.0
 50
90.0
  0
INSERT
  5
1EA3
330
1E9C
100
AcDbEntity
  8
Dim
 62
     0
370
    -2
100
AcDbBlockReference
  2
_DOT
 10
1000.030194040457
 20
1851.985013142128
 30
0.0
 41
9.0
 42
9.0
 43
9.0
 50
270.0
  0
MTEXT
  5
1EA4
330
1E9C
100
AcDbEntity
  8
Dim
  6
Continuous
 62
     0
100
AcDbMText
 10
977.813885446707
 20
2081.985013142128
 30
0.0
 40
24.4326171875
 41
0.0
 46
0.0
 71
     5
 72
     1
  1
\A1;460
  7
ＭＳ ゴシック
 11
0.0
 21
1.0
 31
0.0
 73
     1
 44
1.0
  0
POINT
  5
1EA5
330
1E9C
100
AcDbEntity
  8
Defpoints
 62
     0
100
AcDbPoint
 10
863.2635249473733
 20
2311.985013142128
 30
0.0
  0
POINT
  5
1EA6
330
1E9C
100
AcDbEntity
  8
Defpoints
 62
     0
100
AcDbPoint
 10
863.2635249473733
 20
1851.985013142128
 30
0.0
  0
POINT
  5
1EA7
330
1E9C
100
AcDbEntity
  8
Defpoints
 62
     0
100
AcDbPoint
 10
1000.030194040457
 20
1851.985013142128
 30
0.0
  0
ENDBLK
  5
1E9E
330
1E9C
100
AcDbEntity
  8
0
100
AcDbBlockEnd
  0
BLOCK
  5
1ECD
330
1ECC
100
AcDbEntity
  8
0
100
AcDbBlockBegin
  2
*D21
 70
     1
 10
0.0
 20
0.0
 30
0.0
  3
*D21
  1
*D21
  0
LINE
  5
1ECF
330
1ECC
100
AcDbEntity
  8
Dim
  6
Continuous
 62
     0
370
    -2
100
AcDbLine
 10
337.1392414713775
 20
2207.484304195348
 30
0.0
 11
246.9246919480045
 21
2207.484304195348
 31
0.0
  0
LINE
  5
1ED0
330
1ECC
100
AcDbEntity
  8
Dim
  6
Continuous
 62
     0
370
    -2
100
AcDbLine
 10
337.1392414713775
 20
1854.986664223865
 30
0.0
 11
246.9246919480045
 21
1854.986664223865
 31
0.0
  0
LINE
  5
1ED1
330
1ECC
100
AcDbEntity
  8
Dim
  6
Continuous
 62
     0
370
    -2
100
AcDbLine
 10
246.9246919480045
 20
2198.484304195348
 30
0.0
 11
246.9246919480045
 21
1863.986664223865
 31
0.0
  0
INSERT
  5
1ED2
330
1ECC
100
AcDbEntity
  8
Dim
 62
     0
370
    -2
100
AcDbBlockReference
  2
_DOT
 10
246.9246919480045
 20
2207.484304195348
 30
0.0
 41
9.0
 42
9.0
 43
9.0
 50
90.0
  0
INSERT
  5
1ED3
330
1ECC
100
AcDbEntity
  8
Dim
 62
     0
370
    -2
100
AcDbBlockReference
  2
_DOT
 10
246.9246919480045
 20
1854.986664223865
 30
0.0
 41
9.0
 42
9.0
 43
9.0
 50
270.0
  0
MTEXT
  5
1ED4
330
1ECC
100
AcDbEntity
  8
Dim
  6
Continuous
 62
     0
100
AcDbMText
 10
224.7083833542545
 20
2031.235484209607
 30
0.0
 40
24.4326171875
 41
0.0
 46
0.0
 71
     5
 72
     1
  1
\A1;352
  7
ＭＳ ゴシック
 11
8.062950274703488E-17
 21
1.0
 31
0.0
 73
     1
 44
1.0
  0
POINT
  5
1ED5
330
1ECC
100
AcDbEntity
  8
Defpoints
 62
     0
100
AcDbPoint
 10
362.1392414713775
 20
2207.484304195348
 30
0.0
  0
POINT
  5
1ED6
330
1ECC
100
AcDbEntity
  8
Defpoints
 62
     0
100
AcDbPoint
 10
362.1392414713775
 20
1854.986664223865
 30
0.0
  0
POINT
  5
1ED7
330
1ECC
100
AcDbEntity
  8
Defpoints
 62
     0
100
AcDbPoint
 10
246.9246919480045
 20
1854.986664223865
 30
0.0
  0
ENDBLK
  5
1ECE
330
1ECC
100
AcDbEntity
  8
0
100
AcDbBlockEnd
  0
BLOCK
  5
1EDA
330
1ED9
100
AcDbEntity
  8
0
100
AcDbBlockBegin
  2
*D22
 70
     1
 10
0.0
 20
0.0
 30
0.0
  3
*D22
  1
*D22
  0
LINE
  5
1EDC
330
1ED9
100
AcDbEntity
  8
Dim
  6
Continuous
 62
     0
370
    -2
100
AcDbLine
 10
244.2687828257981
 20
2207.484304195348
 30
0.0
 11
168.4831310122198
 21
2207.484304195348
 31
0.0
  0
LINE
  5
1EDD
330
1ED9
100
AcDbEntity
  8
Dim
  6
Continuous
 62
     0
370
    -2
100
AcDbLine
 10
244.2687828257981
 20
1854.984304195348
 30
0.0
 11
168.4831310122198
 21
1854.984304195348
 31
0.0
  0
LINE
  5
1EDE
330
1ED9
100
AcDbEntity
  8
Dim
  6
Continuous
 62
     0
370
    -2
100
AcDbLine
 10
168.4831310122198
 20
2198.484304195348
 30
0.0
 11
168.4831310122198
 21
1863.984304195348
 31
0.0
  0
INSERT
  5
1EDF
330
1ED9
100
AcDbEntity
  8
Dim
 62
     0
370
    -2
100
AcDbBlockReference
  2
_DOT
 10
168.4831310122198
 20
2207.484304195348
 30
0.0
 41
9.0
 42
9.0
 43
9.0
 50
90.0
  0
INSERT
  5
1EE0
330
1ED9
100
AcDbEntity
  8
Dim
 62
     0
370
    -2
100
AcDbBlockReference
  2
_DOT
 10
168.4831310122198
 20
1854.984304195348
 30
0.0
 41
9.0
 42
9.0
 43
9.0
 50
270.0
  0
MTEXT
  5
1EE1
330
1ED9
100
AcDbEntity
  8
Dim
  6
Continuous
 62
     0
100
AcDbMText
 10
146.2668224184698
 20
2031.234304195348
 30
0.0
 40
24.4326171875
 41
0.0
 46
0.0
 71
     5
 72
     1
  1
\A1;352
  7
ＭＳ ゴシック
 11
8.062896292313188E-17
 21
1.0
 31
0.0
 73
     1
 44
1.0
  0
POINT
  5
1EE2
330
1ED9
100
AcDbEntity
  8
Defpoints
 62
     0
100
AcDbPoint
 10
269.2687828257981
 20
2207.484304195348
 30
0.0
  0
POINT
  5
1EE3
330
1ED9
100
AcDbEntity
  8
Defpoints
 62
     0
100
AcDbPoint
 10
269.2687828257981
 20
1854.984304195348
 30
0.0
  0
POINT
  5
1EE4
330
1ED9
100
AcDbEntity
  8
Defpoints
 62
     0
100
AcDbPoint
 10
168.4831310122198
 20
1854.984304195348
 30
0.0
  0
ENDBLK
  5
1EDB
330
1ED9
100
AcDbEntity
  8
0
100
AcDbBlockEnd
  0
BLOCK
  5
1EF2
330
1EF1
100
AcDbEntity
  8
0
100
AcDbBlockBegin
  2
*D23
 70
     1
 10
0.0
 20
0.0
 30
0.0
  3
*D23
  1
*D23
  0
LINE
  5
1EF4
330
1EF1
100
AcDbEntity
  8
Dim
  6
Continuous
 62
     0
370
    -2
100
AcDbLine
 10
269.2687828257981
 20
1829.986664223865
 30
0.0
 11
269.2687828257981
 21
1715.084764486738
 31
0.0
  0
LINE
  5
1EF5
330
1EF1
100
AcDbEntity
  8
Dim
  6
Continuous
 62
     0
370
    -2
100
AcDbLine
 10
863.2635249473733
 20
1829.986664223865
 30
0.0
 11
863.2635249473733
 21
1715.084764486738
 31
0.0
  0
LINE
  5
1EF6
330
1EF1
100
AcDbEntity
  8
Dim
  6
Continuous
 62
     0
370
    -2
100
AcDbLine
 10
278.2687828257981
 20
1715.084764486738
 30
0.0
 11
854.2635249473733
 21
1715.084764486738
 31
0.0
  0
INSERT
  5
1EF7
330
1EF1
100
AcDbEntity
  8
Dim
 62
     0
370
    -2
100
AcDbBlockReference
  2
_DOT
 10
269.2687828257981
 20
1715.084764486738
 30
0.0
 41
9.0
 42
9.0
 43
9.0
 50
180.0
  0
INSERT
  5
1EF8
330
1EF1
100
AcDbEntity
  8
Dim
 62
     0
370
    -2
100
AcDbBlockReference
  2
_DOT
 10
863.2635249473733
 20
1715.084764486738
 30
0.0
 41
9.0
 42
9.0
 43
9.0
  0
MTEXT
  5
1EF9
330
1EF1
100
AcDbEntity
  8
Dim
  6
Continuous
 62
     0
100
AcDbMText
 10
566.2661538865857
 20
1737.301073080488
 30
0.0
 40
24.4326171875
 41
0.0
 46
0.0
 71
     5
 72
     1
  1
\A1;594
  7
ＭＳ ゴシック
 73
     1
 44
1.0
  0
POINT
  5
1EFA
330
1EF1
100
AcDbEntity
  8
Defpoints
 62
     0
100
AcDbPoint
 10
269.2687828257981
 20
1854.986664223865
 30
0.0
  0
POINT
  5
1EFB
330
1EF1
100
AcDbEntity
  8
Defpoints
 62
     0
100
AcDbPoint
 10
863.2635249473733
 20
1854.986664223865
 30
0.0
  0
POINT
  5
1EFC
330
1EF1
100
AcDbEntity
  8
Defpoints
 62
     0
100
AcDbPoint
 10
863.2635249473733
 20
1715.084764486738
 30
0.0
  0
ENDBLK
  5
1EF3
330
1EF1
100
AcDbEntity
  8
0
100
AcDbBlockEnd
  0
BLOCK
  5
1F02
330
1F01
100
AcDbEntity
  8
0
100
AcDbBlockBegin
  2
*D24
 70
     1
 10
0.0
 20
0.0
 30
0.0
  3
*D24
  1
*D24
  0
LINE
  5
1F04
330
1F01
100
AcDbEntity
  8
Dim
  6
Continuous
 62
     0
370
    -2
100
AcDbLine
 10
1816.045857422891
 20
1076.961796838273
 30
0.0
 11
1816.045857422891
 21
1111.742866230311
 31
0.0
  0
LINE
  5
1F05
330
1F01
100
AcDbEntity
  8
Dim
  6
Continuous
 62
     0
370
    -2
100
AcDbLine
 10
1756.045857422891
 20
1082.698963489378
 30
0.0
 11
1756.045857422891
 21
1111.742866230311
 31
0.0
  0
LINE
  5
1F06
330
1F01
100
AcDbEntity
  8
Dim
  6
Continuous
 62
     0
370
    -2
100
AcDbLine
 10
1807.045857422891
 20
1111.742866230311
 30
0.0
 11
1765.045857422891
 21
1111.742866230311
 31
0.0
  0
INSERT
  5
1F07
330
1F01
100
AcDbEntity
  8
Dim
 62
     0
370
    -2
100
AcDbBlockReference
  2
_DOT
 10
1816.045857422891
 20
1111.742866230311
 30
0.0
 41
9.0
 42
9.0
 43
9.0
  0
INSERT
  5
1F08
330
1F01
100
AcDbEntity
  8
Dim
 62
     0
370
    -2
100
AcDbBlockReference
  2
_DOT
 10
1756.045857422891
 20
1111.742866230311
 30
0.0
 41
9.0
 42
9.0
 43
9.0
 50
180.0
  0
MTEXT
  5
1F09
330
1F01
100
AcDbEntity
  8
Dim
  6
Continuous
 62
     0
100
AcDbMText
 10
1786.045857422891
 20
1133.959174824061
 30
0.0
 40
24.4326171875
 41
0.0
 46
0.0
 71
     5
 72
     1
  1
\A1;60
  7
ＭＳ ゴシック
 73
     1
 44
1.0
  0
POINT
  5
1F0A
330
1F01
100
AcDbEntity
  8
Defpoints
 62
     0
100
AcDbPoint
 10
1816.045857422891
 20
1051.961796838273
 30
0.0
  0
POINT
  5
1F0B
330
1F01
100
AcDbEntity
  8
Defpoints
 62
     0
100
AcDbPoint
 10
1756.045857422891
 20
1057.698963489378
 30
0.0
  0
POINT
  5
1F0C
330
1F01
100
AcDbEntity
  8
Defpoints
 62
     0
100
AcDbPoint
 10
1756.045857422891
 20
1111.742866230311
 30
0.0
  0
ENDBLK
  5
1F03
330
1F01
100
AcDbEntity
  8
0
100
AcDbBlockEnd
  0
BLOCK
  5
1F16
330
1F15
100
AcDbEntity
  8
0
100
AcDbBlockBegin
  2
*D25
 70
     1
 10
0.0
 20
0.0
 30
0.0
  3
*D25
  1
*D25
  0
LINE
  5
1F18
330
1F15
100
AcDbEntity
  8
Dim
  6
Continuous
 62
     0
370
    -2
100
AcDbLine
 10
1334.409383511216
 20
1056.598857468806
 30
0.0
 11
1280.697491612037
 21
1056.598857468806
 31
0.0
  0
LINE
  5
1F19
330
1F15
100
AcDbEntity
  8
Dim
  6
Continuous
 62
     0
370
    -2
100
AcDbLine
 10
1337.018852252409
 20
1042.598857036606
 30
0.0
 11
1280.697491612037
 21
1042.598857036606
 31
0.0
  0
LINE
  5
1F1A
330
1F15
100
AcDbEntity
  8
Dim
  6
Continuous
 62
     0
370
    -2
100
AcDbLine
 10
1280.697491612037
 20
1047.598857468806
 30
0.0
 11
1280.697491612037
 21
1051.598857036606
 31
0.0
  0
INSERT
  5
1F1B
330
1F15
100
AcDbEntity
  8
Dim
 62
     0
370
    -2
100
AcDbBlockReference
  2
_DOT
 10
1280.697491612037
 20
1056.598857468806
 30
0.0
 41
9.0
 42
9.0
 43
9.0
 50
90.0
  0
INSERT
  5
1F1C
330
1F15
100
AcDbEntity
  8
Dim
 62
     0
370
    -2
100
AcDbBlockReference
  2
_DOT
 10
1280.697491612037
 20
1042.598857036606
 30
0.0
 41
9.0
 42
9.0
 43
9.0
 50
270.0
  0
MTEXT
  5
1F1D
330
1F15
100
AcDbEntity
  8
Dim
  6
Continuous
 62
     0
100
AcDbMText
 10
1258.481183018287
 20
1051.548251551132
 30
0.0
 40
24.4326171875
 41
0.0
 46
0.0
 71
     5
 72
     1
  1
\A1;14
  7
ＭＳ ゴシック
 11
0.0
 21
1.0
 31
0.0
 73
     1
 44
1.0
  0
POINT
  5
1F1E
330
1F15
100
AcDbEntity
  8
Defpoints
 62
     0
100
AcDbPoint
 10
1359.409383511216
 20
1056.598857468806
 30
0.0
  0
POINT
  5
1F1F
330
1F15
100
AcDbEntity
  8
Defpoints
 62
     0
100
AcDbPoint
 10
1362.018852252409
 20
1042.598857036606
 30
0.0
  0
POINT
  5
1F20
330
1F15
100
AcDbEntity
  8
Defpoints
 62
     0
100
AcDbPoint
 10
1280.697491612037
 20
1042.598857036606
 30
0.0
  0
ENDBLK
  5
1F17
330
1F15
100
AcDbEntity
  8
0
100
AcDbBlockEnd
  0
BLOCK
  5
1F24
330
1F23
100
AcDbEntity
  8
0
100
AcDbBlockBegin
  2
*D26
 70
     1
 10
0.0
 20
0.0
 30
0.0
  3
*D26
  1
*D26
  0
LINE
  5
1F26
330
1F23
100
AcDbEntity
  8
Dim
  6
Continuous
 62
     0
370
    -2
100
AcDbLine
 10
1334.409383511216
 20
1216.256425036374
 30
0.0
 11
1214.838767739367
 21
1216.256425036374
 31
0.0
  0
LINE
  5
1F27
330
1F23
100
AcDbEntity
  8
Dim
  6
Continuous
 62
     0
370
    -2
100
AcDbLine
 10
1334.409383511216
 20
1093.256425036374
 30
0.0
 11
1214.838767739367
 21
1093.256425036374
 31
0.0
  0
LINE
  5
1F28
330
1F23
100
AcDbEntity
  8
Dim
  6
Continuous
 62
     0
370
    -2
100
AcDbLine
 10
1214.838767739367
 20
1207.256425036374
 30
0.0
 11
1214.838767739367
 21
1102.256425036374
 31
0.0
  0
INSERT
  5
1F29
330
1F23
100
AcDbEntity
  8
Dim
 62
     0
370
    -2
100
AcDbBlockReference
  2
_DOT
 10
1214.838767739367
 20
1216.256425036374
 30
0.0
 41
9.0
 42
9.0
 43
9.0
 50
90.0
  0
INSERT
  5
1F2A
330
1F23
100
AcDbEntity
  8
Dim
 62
     0
370
    -2
100
AcDbBlockReference
  2
_DOT
 10
1214.838767739367
 20
1093.256425036374
 30
0.0
 41
9.0
 42
9.0
 43
9.0
 50
270.0
  0
MTEXT
  5
1F2B
330
1F23
100
AcDbEntity
  8
Dim
  6
Continuous
 62
     0
100
AcDbMText
 10
1192.622459145617
 20
1154.756425036374
 30
0.0
 40
24.4326171875
 41
0.0
 46
0.0
 71
     5
 72
     1
  1
\A1;123
  7
ＭＳ ゴシック
 11
0.0
 21
1.0
 31
0.0
 73
     1
 44
1.0
  0
POINT
  5
1F2C
330
1F23
100
AcDbEntity
  8
Defpoints
 62
     0
100
AcDbPoint
 10
1359.409383511216
 20
1216.256425036374
 30
0.0
  0
POINT
  5
1F2D
330
1F23
100
AcDbEntity
  8
Defpoints
 62
     0
100
AcDbPoint
 10
1359.409383511216
 20
1093.256425036374
 30
0.0
  0
POINT
  5
1F2E
330
1F23
100
AcDbEntity
  8
Defpoints
 62
     0
100
AcDbPoint
 10
1214.838767739367
 20
1093.256425036374
 30
0.0
  0
ENDBLK
  5
1F25
330
1F23
100
AcDbEntity
  8
0
100
AcDbBlockEnd
  0
BLOCK
  5
1F33
330
1F32
100
AcDbEntity
  8
0
100
AcDbBlockBegin
  2
*D27
 70
     1
 10
0.0
 20
0.0
 30
0.0
  3
*D27
  1
*D27
  0
LINE
  5
1F35
330
1F32
100
AcDbEntity
  8
Dim
  6
Continuous
 62
     0
370
    -2
100
AcDbLine
 10
1309.409383511216
 20
1042.598857468806
 30
0.0
 11
1280.697491612037
 21
1042.598857468806
 31
0.0
  0
LINE
  5
1F36
330
1F32
100
AcDbEntity
  8
Dim
  6
Continuous
 62
     0
370
    -2
100
AcDbLine
 10
1479.403322607051
 20
933.5988574688065
 30
0.0
 11
1280.697491612037
 21
933.5988574688065
 31
0.0
  0
LINE
  5
1F37
330
1F32
100
AcDbEntity
  8
Dim
  6
Continuous
 62
     0
370
    -2
100
AcDbLine
 10
1280.697491612037
 20
1033.598857468806
 30
0.0
 11
1280.697491612037
 21
942.5988574688065
 31
0.0
  0
INSERT
  5
1F38
330
1F32
100
AcDbEntity
  8
Dim
 62
     0
370
    -2
100
AcDbBlockReference
  2
_DOT
 10
1280.697491612037
 20
1042.598857468806
 30
0.0
 41
9.0
 42
9.0
 43
9.0
 50
90.0
  0
INSERT
  5
1F39
330
1F32
100
AcDbEntity
  8
Dim
 62
     0
370
    -2
100
AcDbBlockReference
  2
_DOT
 10
1280.697491612037
 20
933.5988574688065
 30
0.0
 41
9.0
 42
9.0
 43
9.0
 50
270.0
  0
MTEXT
  5
1F3A
330
1F32
100
AcDbEntity
  8
Dim
  6
Continuous
 62
     0
100
AcDbMText
 10
1258.481183018287
 20
988.0988574688063
 30
0.0
 40
24.4326171875
 41
0.0
 46
0.0
 71
     5
 72
     1
  1
\A1;109
  7
ＭＳ ゴシック
 11
0.0
 21
1.0
 31
0.0
 73
     1
 44
1.0
  0
POINT
  5
1F3B
330
1F32
100
AcDbEntity
  8
Defpoints
 62
     0
100
AcDbPoint
 10
1334.409383511216
 20
1042.598857468806
 30
0.0
  0
POINT
  5
1F3C
330
1F32
100
AcDbEntity
  8
Defpoints
 62
     0
100
AcDbPoint
 10
1504.403322607051
 20
933.5988574688065
 30
0.0
  0
POINT
  5
1F3D
330
1F32
100
AcDbEntity
  8
Defpoints
 62
     0
100
AcDbPoint
 10
1280.697491612037
 20
933.5988574688065
 30
0.0
  0
ENDBLK
  5
1F34
330
1F32
100
AcDbEntity
  8
0
100
AcDbBlockEnd
  0
BLOCK
  5
1F5B
330
1F5A
100
AcDbEntity
  8
0
100
AcDbBlockBegin
  2
*D28
 70
     1
 10
0.0
 20
0.0
 30
0.0
  3
*D28
  1
*D28
  0
LINE
  5
1F5D
330
1F5A
100
AcDbEntity
  8
Dim
  6
Continuous
 62
     0
370
    -2
100
AcDbLine
 10
1304.885906721279
 20
1093.166240109376
 30
0.0
 11
1060.522531811009
 21
1093.166240109376
 31
0.0
  0
LINE
  5
1F5E
330
1F5A
100
AcDbEntity
  8
Dim
  6
Continuous
 62
     0
370
    -2
100
AcDbLine
 10
1295.227459015333
 20
1216.256425036374
 30
0.0
 11
1060.522531811009
 21
1216.256425036374
 31
0.0
  0
LINE
  5
1F5F
330
1F5A
100
AcDbEntity
  8
Dim
  6
Continuous
 62
     0
370
    -2
100
AcDbLine
 10
1060.522531811009
 20
1102.166240109376
 30
0.0
 11
1060.522531811009
 21
1207.256425036374
 31
0.0
  0
INSERT
  5
1F60
330
1F5A
100
AcDbEntity
  8
Dim
 62
     0
370
    -2
100
AcDbBlockReference
  2
_DOT
 10
1060.522531811009
 20
1093.166240109376
 30
0.0
 41
9.0
 42
9.0
 43
9.0
 50
270.0
  0
INSERT
  5
1F61
330
1F5A
100
AcDbEntity
  8
Dim
 62
     0
370
    -2
100
AcDbBlockReference
  2
_DOT
 10
1060.522531811009
 20
1216.256425036374
 30
0.0
 41
9.0
 42
9.0
 43
9.0
 50
90.0
  0
MTEXT
  5
1F62
330
1F5A
100
AcDbEntity
  8
Dim
  6
Continuous
 62
     0
100
AcDbMText
 10
1038.306223217259
 20
1154.711332572875
 30
0.0
 40
24.4326171875
 41
0.0
 46
0.0
 71
     5
 72
     1
  1
\A1;123
  7
ＭＳ ゴシック
 11
0.0
 21
1.0
 31
0.0
 73
     1
 44
1.0
  0
POINT
  5
1F63
330
1F5A
100
AcDbEntity
  8
Defpoints
 62
     0
100
AcDbPoint
 10
1329.885906721279
 20
1093.166240109376
 30
0.0
  0
POINT
  5
1F64
330
1F5A
100
AcDbEntity
  8
Defpoints
 62
     0
100
AcDbPoint
 10
1320.227459015333
 20
1216.256425036374
 30
0.0
  0
POINT
  5
1F65
330
1F5A
100
AcDbEntity
  8
Defpoints
 62
     0
100
AcDbPoint
 10
1060.522531811009
 20
1216.256425036374
 30
0.0
  0
ENDBLK
  5
1F5C
330
1F5A
100
AcDbEntity
  8
0
100
AcDbBlockEnd
  0
BLOCK
  5
20C3
330
20C2
100
AcDbEntity
  8
0
100
AcDbBlockBegin
  2
*D29
 70
     1
 10
0.0
 20
0.0
 30
0.0
  3
*D29
  1
*D31
  0
LINE
  5
20C5
330
20C2
100
AcDbEntity
  8
Dim
  6
Continuous
 62
     0
370
    -2
100
AcDbLine
 10
2647.21351045539
 20
2333.981632006561
 30
0.0
 11
2647.21351045539
 21
2418.931492431568
 31
0.0
  0
LINE
  5
20C6
330
20C2
100
AcDbEntity
  8
Dim
  6
Continuous
 62
     0
370
    -2
100
AcDbLine
 10
3247.21351045539
 20
2333.981632006561
 30
0.0
 11
3247.21351045539
 21
2418.931492431568
 31
0.0
  0
LINE
  5
20C7
330
20C2
100
AcDbEntity
  8
Dim
  6
Continuous
 62
     0
370
    -2
100
AcDbLine
 10
2656.21351045539
 20
2418.931492431568
 30
0.0
 11
3238.21351045539
 21
2418.931492431568
 31
0.0
  0
INSERT
  5
20C8
330
20C2
100
AcDbEntity
  8
Dim
 62
     0
370
    -2
100
AcDbBlockReference
  2
_DOT
 10
2647.21351045539
 20
2418.931492431568
 30
0.0
 41
9.0
 42
9.0
 43
9.0
 50
180.0
  0
INSERT
  5
20C9
330
20C2
100
AcDbEntity
  8
Dim
 62
     0
370
    -2
100
AcDbBlockReference
  2
_DOT
 10
3247.21351045539
 20
2418.931492431568
 30
0.0
 41
9.0
 42
9.0
 43
9.0
  0
MTEXT
  5
20CA
330
20C2
100
AcDbEntity
  8
Dim
  6
Continuous
 62
     0
100
AcDbMText
 10
2947.21351045539
 20
2441.147801025318
 30
0.0
 40
24.4326171875
 41
0.0
 46
0.0
 71
     5
 72
     1
  1
\A1;600
  7
ＭＳ ゴシック
 73
     1
 44
1.0
  0
POINT
  5
20CB
330
20C2
100
AcDbEntity
  8
Defpoints
 62
     0
100
AcDbPoint
 10
2647.21351045539
 20
2308.981632006561
 30
0.0
  0
POINT
  5
20CC
330
20C2
100
AcDbEntity
  8
Defpoints
 62
     0
100
AcDbPoint
 10
3247.21351045539
 20
2308.981632006561
 30
0.0
  0
POINT
  5
20CD
330
20C2
100
AcDbEntity
  8
Defpoints
 62
     0
100
AcDbPoint
 10
3247.21351045539
 20
2418.931492431568
 30
0.0
  0
ENDBLK
  5
20C4
330
20C2
100
AcDbEntity
  8
0
100
AcDbBlockEnd
  0
BLOCK
  5
20CF
330
20CE
100
AcDbEntity
  8
0
100
AcDbBlockBegin
  2
*D30
 70
     1
 10
0.0
 20
0.0
 30
0.0
  3
*D30
  1
*D32
  0
LINE
  5
20D1
330
20CE
100
AcDbEntity
  8
Dim
  6
Continuous
 62
     0
370
    -2
100
AcDbLine
 10
3269.208173596016
 20
2311.985013142128
 30
0.0
 11
3380.9748426891
 21
2311.985013142128
 31
0.0
  0
LINE
  5
20D2
330
20CE
100
AcDbEntity
  8
Dim
  6
Continuous
 62
     0
370
    -2
100
AcDbLine
 10
3269.208173596016
 20
1851.985013142128
 30
0.0
 11
3380.9748426891
 21
1851.985013142128
 31
0.0
  0
LINE
  5
20D3
330
20CE
100
AcDbEntity
  8
Dim
  6
Continuous
 62
     0
370
    -2
100
AcDbLine
 10
3380.9748426891
 20
2302.985013142128
 30
0.0
 11
3380.9748426891
 21
1860.985013142128
 31
0.0
  0
INSERT
  5
20D4
330
20CE
100
AcDbEntity
  8
Dim
 62
     0
370
    -2
100
AcDbBlockReference
  2
_DOT
 10
3380.9748426891
 20
2311.985013142128
 30
0.0
 41
9.0
 42
9.0
 43
9.0
 50
90.0
  0
INSERT
  5
20D5
330
20CE
100
AcDbEntity
  8
Dim
 62
     0
370
    -2
100
AcDbBlockReference
  2
_DOT
 10
3380.9748426891
 20
1851.985013142128
 30
0.0
 41
9.0
 42
9.0
 43
9.0
 50
270.0
  0
MTEXT
  5
20D6
330
20CE
100
AcDbEntity
  8
Dim
  6
Continuous
 62
     0
100
AcDbMText
 10
3358.75853409535
 20
2081.985013142128
 30
0.0
 40
24.4326171875
 41
0.0
 46
0.0
 71
     5
 72
     1
  1
\A1;460
  7
ＭＳ ゴシック
 11
0.0
 21
1.0
 31
0.0
 73
     1
 44
1.0
  0
POINT
  5
20D7
330
20CE
100
AcDbEntity
  8
Defpoints
 62
     0
100
AcDbPoint
 10
3244.208173596016
 20
2311.985013142128
 30
0.0
  0
POINT
  5
20D8
330
20CE
100
AcDbEntity
  8
Defpoints
 62
     0
100
AcDbPoint
 10
3244.208173596016
 20
1851.985013142128
 30
0.0
  0
POINT
  5
20D9
330
20CE
100
AcDbEntity
  8
Defpoints
 62
     0
100
AcDbPoint
 10
3380.9748426891
 20
1851.985013142128
 30
0.0
  0
ENDBLK
  5
20D0
330
20CE
100
AcDbEntity
  8
0
100
AcDbBlockEnd
  0
BLOCK
  5
20DB
330
20DA
100
AcDbEntity
  8
0
100
AcDbBlockBegin
  2
*D31
 70
     1
 10
0.0
 20
0.0
 30
0.0
  3
*D31
  1
*D33
  0
LINE
  5
20DD
330
20DA
100
AcDbEntity
  8
Dim
  6
Continuous
 62
     0
370
    -2
100
AcDbLine
 10
2625.213431474441
 20
2207.484304195348
 30
0.0
 11
2549.427779660863
 21
2207.484304195348
 31
0.0
  0
LINE
  5
20DE
330
20DA
100
AcDbEntity
  8
Dim
  6
Continuous
 62
     0
370
    -2
100
AcDbLine
 10
2625.213431474441
 20
1854.984304195348
 30
0.0
 11
2549.427779660863
 21
1854.984304195348
 31
0.0
  0
LINE
  5
20DF
330
20DA
100
AcDbEntity
  8
Dim
  6
Continuous
 62
     0
370
    -2
100
AcDbLine
 10
2549.427779660863
 20
2198.484304195348
 30
0.0
 11
2549.427779660863
 21
1863.984304195348
 31
0.0
  0
INSERT
  5
20E0
330
20DA
100
AcDbEntity
  8
Dim
 62
     0
370
    -2
100
AcDbBlockReference
  2
_DOT
 10
2549.427779660863
 20
2207.484304195348
 30
0.0
 41
9.0
 42
9.0
 43
9.0
 50
90.0
  0
INSERT
  5
20E1
330
20DA
100
AcDbEntity
  8
Dim
 62
     0
370
    -2
100
AcDbBlockReference
  2
_DOT
 10
2549.427779660863
 20
1854.984304195348
 30
0.0
 41
9.0
 42
9.0
 43
9.0
 50
270.0
  0
MTEXT
  5
20E2
330
20DA
100
AcDbEntity
  8
Dim
  6
Continuous
 62
     0
100
AcDbMText
 10
2527.211471067113
 20
2031.234304195348
 30
0.0
 40
24.4326171875
 41
0.0
 46
0.0
 71
     5
 72
     1
  1
\A1;352.5
  7
ＭＳ ゴシック
 11
0.0
 21
1.0
 31
0.0
 73
     1
 44
1.0
  0
POINT
  5
20E3
330
20DA
100
AcDbEntity
  8
Defpoints
 62
     0
100
AcDbPoint
 10
2650.213431474441
 20
2207.484304195348
 30
0.0
  0
POINT
  5
20E4
330
20DA
100
AcDbEntity
  8
Defpoints
 62
     0
100
AcDbPoint
 10
2650.213431474441
 20
1854.984304195348
 30
0.0
  0
POINT
  5
20E5
330
20DA
100
AcDbEntity
  8
Defpoints
 62
     0
100
AcDbPoint
 10
2549.427779660863
 20
1854.984304195348
 30
0.0
  0
ENDBLK
  5
20DC
330
20DA
100
AcDbEntity
  8
0
100
AcDbBlockEnd
  0
BLOCK
  5
20E7
330
20E6
100
AcDbEntity
  8
0
100
AcDbBlockBegin
  2
*D32
 70
     1
 10
0.0
 20
0.0
 30
0.0
  3
*D32
  1
*D34
  0
LINE
  5
20E9
330
20E6
100
AcDbEntity
  8
Dim
  6
Continuous
 62
     0
370
    -2
100
AcDbLine
 10
2650.213431474441
 20
1829.986664223865
 30
0.0
 11
2650.213431474441
 21
1715.084764486738
 31
0.0
  0
LINE
  5
20EA
330
20E6
100
AcDbEntity
  8
Dim
  6
Continuous
 62
     0
370
    -2
100
AcDbLine
 10
3244.208173596016
 20
1829.986664223865
 30
0.0
 11
3244.208173596016
 21
1715.084764486738
 31
0.0
  0
LINE
  5
20EB
330
20E6
100
AcDbEntity
  8
Dim
  6
Continuous
 62
     0
370
    -2
100
AcDbLine
 10
2659.213431474441
 20
1715.084764486738
 30
0.0
 11
3235.208173596016
 21
1715.084764486738
 31
0.0
  0
INSERT
  5
20EC
330
20E6
100
AcDbEntity
  8
Dim
 62
     0
370
    -2
100
AcDbBlockReference
  2
_DOT
 10
2650.213431474441
 20
1715.084764486738
 30
0.0
 41
9.0
 42
9.0
 43
9.0
 50
180.0
  0
INSERT
  5
20ED
330
20E6
100
AcDbEntity
  8
Dim
 62
     0
370
    -2
100
AcDbBlockReference
  2
_DOT
 10
3244.208173596016
 20
1715.084764486738
 30
0.0
 41
9.0
 42
9.0
 43
9.0
  0
MTEXT
  5
20EE
330
20E6
100
AcDbEntity
  8
Dim
  6
Continuous
 62
     0
100
AcDbMText
 10
2947.210802535229
 20
1737.301073080488
 30
0.0
 40
24.4326171875
 41
0.0
 46
0.0
 71
     5
 72
     1
  1
\A1;594
  7
ＭＳ ゴシック
 73
     1
 44
1.0
  0
POINT
  5
20EF
330
20E6
100
AcDbEntity
  8
Defpoints
 62
     0
100
AcDbPoint
 10
2650.213431474441
 20
1854.986664223865
 30
0.0
  0
POINT
  5
20F0
330
20E6
100
AcDbEntity
  8
Defpoints
 62
     0
100
AcDbPoint
 10
3244.208173596016
 20
1854.986664223865
 30
0.0
  0
POINT
  5
20F1
330
20E6
100
AcDbEntity
  8
Defpoints
 62
     0
100
AcDbPoint
 10
3244.208173596016
 20
1715.084764486738
 30
0.0
  0
ENDBLK
  5
20E8
330
20E6
100
AcDbEntity
  8
0
100
AcDbBlockEnd
  0
BLOCK
  5
2111
330
2110
100
AcDbEntity
  8
0
100
AcDbBlockBegin
  2
*D33
 70
     1
 10
0.0
 20
0.0
 30
0.0
  3
*D33
  1
*D35
  0
LINE
  5
2113
330
2110
100
AcDbEntity
  8
Dim
  6
Continuous
 62
     0
370
    -2
100
AcDbLine
 10
1240.366700509448
 20
2333.981632006561
 30
0.0
 11
1240.366700509448
 21
2418.931492431568
 31
0.0
  0
LINE
  5
2114
330
2110
100
AcDbEntity
  8
Dim
  6
Continuous
 62
     0
370
    -2
100
AcDbLine
 10
1840.361284669125
 20
2329.30848974371
 30
0.0
 11
1840.361284669125
 21
2418.931492431568
 31
0.0
  0
LINE
  5
2115
330
2110
100
AcDbEntity
  8
Dim
  6
Continuous
 62
     0
370
    -2
100
AcDbLine
 10
1249.366700509448
 20
2418.931492431568
 30
0.0
 11
1831.361284669125
 21
2418.931492431568
 31
0.0
  0
INSERT
  5
2116
330
2110
100
AcDbEntity
  8
Dim
 62
     0
370
    -2
100
AcDbBlockReference
  2
_DOT
 10
1240.366700509448
 20
2418.931492431568
 30
0.0
 41
9.0
 42
9.0
 43
9.0
 50
180.0
  0
INSERT
  5
2117
330
2110
100
AcDbEntity
  8
Dim
 62
     0
370
    -2
100
AcDbBlockReference
  2
_DOT
 10
1840.361284669125
 20
2418.931492431568
 30
0.0
 41
9.0
 42
9.0
 43
9.0
  0
MTEXT
  5
2118
330
2110
100
AcDbEntity
  8
Dim
  6
Continuous
 62
     0
100
AcDbMText
 10
1540.363992589287
 20
2441.147801025318
 30
0.0
 40
24.4326171875
 41
0.0
 46
0.0
 71
     5
 72
     1
  1
\A1;600
  7
ＭＳ ゴシック
 73
     1
 44
1.0
  0
POINT
  5
2119
330
2110
100
AcDbEntity
  8
Defpoints
 62
     0
100
AcDbPoint
 10
1240.366700509448
 20
2308.981632006561
 30
0.0
  0
POINT
  5
211A
330
2110
100
AcDbEntity
  8
Defpoints
 62
     0
100
AcDbPoint
 10
1840.361284669125
 20
2304.30848974371
 30
0.0
  0
POINT
  5
211B
330
2110
100
AcDbEntity
  8
Defpoints
 62
     0
100
AcDbPoint
 10
1840.361284669125
 20
2418.931492431568
 30
0.0
  0
ENDBLK
  5
2112
330
2110
100
AcDbEntity
  8
0
100
AcDbBlockEnd
  0
BLOCK
  5
2138
330
2137
100
AcDbEntity
  8
0
100
AcDbBlockBegin
  2
*D34
 70
     1
 10
0.0
 20
0.0
 30
0.0
  3
*D34
  1
*D36
  0
LINE
  5
213A
330
2137
100
AcDbEntity
  8
Dim
  6
Continuous
 62
     0
370
    -2
100
AcDbLine
 10
1703.456578944142
 20
2286.33056170543
 30
0.0
 11
1934.246074774655
 21
2286.33056170543
 31
0.0
  0
LINE
  5
213B
330
2137
100
AcDbEntity
  8
Dim
  6
Continuous
 62
     0
370
    -2
100
AcDbLine
 10
1845.363992589287
 20
1861.33056170543
 30
0.0
 11
1934.246074774655
 21
1861.33056170543
 31
0.0
  0
LINE
  5
213C
330
2137
100
AcDbEntity
  8
Dim
  6
Continuous
 62
     0
370
    -2
100
AcDbLine
 10
1934.246074774655
 20
2277.33056170543
 30
0.0
 11
1934.246074774655
 21
1870.33056170543
 31
0.0
  0
INSERT
  5
213D
330
2137
100
AcDbEntity
  8
Dim
 62
     0
370
    -2
100
AcDbBlockReference
  2
_DOT
 10
1934.246074774655
 20
2286.33056170543
 30
0.0
 41
9.0
 42
9.0
 43
9.0
 50
90.0
  0
INSERT
  5
213E
330
2137
100
AcDbEntity
  8
Dim
 62
     0
370
    -2
100
AcDbBlockReference
  2
_DOT
 10
1934.246074774655
 20
1861.33056170543
 30
0.0
 41
9.0
 42
9.0
 43
9.0
 50
270.0
  0
MTEXT
  5
213F
330
2137
100
AcDbEntity
  8
Dim
  6
Continuous
 62
     0
100
AcDbMText
 10
1912.029766180905
 20
2073.83056170543
 30
0.0
 40
24.4326171875
 41
0.0
 46
0.0
 71
     5
 72
     1
  1
\A1;425
  7
ＭＳ ゴシック
 11
0.0
 21
1.0
 31
0.0
 73
     1
 44
1.0
  0
POINT
  5
2140
330
2137
100
AcDbEntity
  8
Defpoints
 62
     0
100
AcDbPoint
 10
1678.456578944142
 20
2286.33056170543
 30
0.0
  0
POINT
  5
2141
330
2137
100
AcDbEntity
  8
Defpoints
 62
     0
100
AcDbPoint
 10
1820.363992589287
 20
1861.33056170543
 30
0.0
  0
POINT
  5
2142
330
2137
100
AcDbEntity
  8
Defpoints
 62
     0
100
AcDbPoint
 10
1934.246074774655
 20
1861.33056170543
 30
0.0
  0
ENDBLK
  5
2139
330
2137
100
AcDbEntity
  8
0
100
AcDbBlockEnd
  0
BLOCK
  5
2147
330
2146
100
AcDbEntity
  8
0
100
AcDbBlockBegin
  2
*D35
 70
     1
 10
0.0
 20
0.0
 30
0.0
  3
*D35
  1
*D37
  0
LINE
  5
2149
330
2146
100
AcDbEntity
  8
Dim
  6
Continuous
 62
     0
370
    -2
100
AcDbLine
 10
1235.363992589287
 20
2281.33056170543
 30
0.0
 11
1155.647751823739
 21
2281.33056170543
 31
0.0
  0
LINE
  5
214A
330
2146
100
AcDbEntity
  8
Dim
  6
Continuous
 62
     0
370
    -2
100
AcDbLine
 10
1235.363992589287
 20
1861.33056170543
 30
0.0
 11
1155.647751823739
 21
1861.33056170543
 31
0.0
  0
LINE
  5
214B
330
2146
100
AcDbEntity
  8
Dim
  6
Continuous
 62
     0
370
    -2
100
AcDbLine
 10
1155.647751823739
 20
2272.33056170543
 30
0.0
 11
1155.647751823739
 21
1870.33056170543
 31
0.0
  0
INSERT
  5
214C
330
2146
100
AcDbEntity
  8
Dim
 62
     0
370
    -2
100
AcDbBlockReference
  2
_DOT
 10
1155.647751823739
 20
2281.33056170543
 30
0.0
 41
9.0
 42
9.0
 43
9.0
 50
90.0
  0
INSERT
  5
214D
330
2146
100
AcDbEntity
  8
Dim
 62
     0
370
    -2
100
AcDbBlockReference
  2
_DOT
 10
1155.647751823739
 20
1861.33056170543
 30
0.0
 41
9.0
 42
9.0
 43
9.0
 50
270.0
  0
MTEXT
  5
214E
330
2146
100
AcDbEntity
  8
Dim
  6
Continuous
 62
     0
100
AcDbMText
 10
1133.431443229989
 20
2071.33056170543
 30
0.0
 40
24.4326171875
 41
0.0
 46
0.0
 71
     5
 72
     1
  1
\A1;420
  7
ＭＳ ゴシック
 11
0.0
 21
1.0
 31
0.0
 73
     1
 44
1.0
  0
POINT
  5
214F
330
2146
100
AcDbEntity
  8
Defpoints
 62
     0
100
AcDbPoint
 10
1260.363992589287
 20
2281.33056170543
 30
0.0
  0
POINT
  5
2150
330
2146
100
AcDbEntity
  8
Defpoints
 62
     0
100
AcDbPoint
 10
1260.363992589287
 20
1861.33056170543
 30
0.0
  0
POINT
  5
2151
330
2146
100
AcDbEntity
  8
Defpoints
 62
     0
100
AcDbPoint
 10
1155.647751823739
 20
1861.33056170543
 30
0.0
  0
ENDBLK
  5
2148
330
2146
100
AcDbEntity
  8
0
100
AcDbBlockEnd
  0
BLOCK
  5
2156
330
2155
100
AcDbEntity
  8
0
100
AcDbBlockBegin
  2
*D36
 70
     1
 10
0.0
 20
0.0
 30
0.0
  3
*D36
  1
*D38
  0
LINE
  5
2158
330
2155
100
AcDbEntity
  8
Dim
  6
Continuous
 62
     0
370
    -2
100
AcDbLine
 10
1260.363992589287
 20
2306.33056170543
 30
0.0
 11
1260.363992589287
 21
2386.578694218069
 31
0.0
  0
LINE
  5
2159
330
2155
100
AcDbEntity
  8
Dim
  6
Continuous
 62
     0
370
    -2
100
AcDbLine
 10
1820.363992589287
 20
2306.33056170543
 30
0.0
 11
1820.363992589287
 21
2386.578694218069
 31
0.0
  0
LINE
  5
215A
330
2155
100
AcDbEntity
  8
Dim
  6
Continuous
 62
     0
370
    -2
100
AcDbLine
 10
1269.363992589287
 20
2386.578694218069
 30
0.0
 11
1811.363992589287
 21
2386.578694218069
 31
0.0
  0
INSERT
  5
215B
330
2155
100
AcDbEntity
  8
Dim
 62
     0
370
    -2
100
AcDbBlockReference
  2
_DOT
 10
1260.363992589287
 20
2386.578694218069
 30
0.0
 41
9.0
 42
9.0
 43
9.0
 50
180.0
  0
INSERT
  5
215C
330
2155
100
AcDbEntity
  8
Dim
 62
     0
370
    -2
100
AcDbBlockReference
  2
_DOT
 10
1820.363992589287
 20
2386.578694218069
 30
0.0
 41
9.0
 42
9.0
 43
9.0
  0
MTEXT
  5
215D
330
2155
100
AcDbEntity
  8
Dim
  6
Continuous
 62
     0
100
AcDbMText
 10
1540.363992589287
 20
2408.795002811819
 30
0.0
 40
24.4326171875
 41
0.0
 46
0.0
 71
     5
 72
     1
  1
\A1;560
  7
ＭＳ ゴシック
 73
     1
 44
1.0
  0
POINT
  5
215E
330
2155
100
AcDbEntity
  8
Defpoints
 62
     0
100
AcDbPoint
 10
1260.363992589287
 20
2281.33056170543
 30
0.0
  0
POINT
  5
215F
330
2155
100
AcDbEntity
  8
Defpoints
 62
     0
100
AcDbPoint
 10
1820.363992589287
 20
2281.33056170543
 30
0.0
  0
POINT
  5
2160
330
2155
100
AcDbEntity
  8
Defpoints
 62
     0
100
AcDbPoint
 10
1820.363992589287
 20
2386.578694218069
 30
0.0
  0
ENDBLK
  5
2157
330
2155
100
AcDbEntity
  8
0
100
AcDbBlockEnd
  0
BLOCK
  5
219E
330
219D
100
AcDbEntity
  8
0
100
AcDbBlockBegin
  2
*D37
 70
     1
 10
0.0
 20
0.0
 30
0.0
  3
*D37
  1
*D39
  0
LINE
  5
21A0
330
219D
100
AcDbEntity
  8
Dim
  6
Continuous
 62
     0
370
    -2
100
AcDbLine
 10
973.1391216421007
 20
1056.598857468806
 30
0.0
 11
1081.905869716134
 21
1056.598857468806
 31
0.0
  0
LINE
  5
21A1
330
219D
100
AcDbEntity
  8
Dim
  6
Continuous
 62
     0
370
    -2
100
AcDbLine
 10
973.1391216421007
 20
1016.423444605834
 30
0.0
 11
1081.905869716134
 21
1016.423444605834
 31
0.0
  0
LINE
  5
21A2
330
219D
100
AcDbEntity
  8
Dim
  6
Continuous
 62
     0
370
    -2
100
AcDbLine
 10
1081.905869716134
 20
1065.598857468806
 30
0.0
 11
1081.905869716134
 21
1074.598857468806
 31
0.0
  0
LINE
  5
21A3
330
219D
100
AcDbEntity
  8
Dim
  6
Continuous
 62
     0
370
    -2
100
AcDbLine
 10
1081.905869716134
 20
1007.423444605834
 30
0.0
 11
1081.905869716134
 21
998.4234446058344
 31
0.0
  0
INSERT
  5
21A4
330
219D
100
AcDbEntity
  8
Dim
 62
     0
370
    -2
100
AcDbBlockReference
  2
_DOT
 10
1081.905869716134
 20
1056.598857468806
 30
0.0
 41
9.0
 42
9.0
 43
9.0
 50
270.0
  0
INSERT
  5
21A5
330
219D
100
AcDbEntity
  8
Dim
 62
     0
370
    -2
100
AcDbBlockReference
  2
_DOT
 10
1081.905869716134
 20
1016.423444605834
 30
0.0
 41
9.0
 42
9.0
 43
9.0
 50
90.0
  0
MTEXT
  5
21A6
330
219D
100
AcDbEntity
  8
Dim
  6
Continuous
 62
     0
100
AcDbMText
 10
1059.689561122384
 20
1036.51115103732
 30
0.0
 40
24.4326171875
 41
0.0
 46
0.0
 71
     5
 72
     1
  1
\A1;40
  7
ＭＳ ゴシック
 11
0.0
 21
1.0
 31
0.0
 73
     1
 44
1.0
  0
POINT
  5
21A7
330
219D
100
AcDbEntity
  8
Defpoints
 62
     0
100
AcDbPoint
 10
948.1391216421007
 20
1056.598857468806
 30
0.0
  0
POINT
  5
21A8
330
219D
100
AcDbEntity
  8
Defpoints
 62
     0
100
AcDbPoint
 10
948.1391216421007
 20
1016.423444605834
 30
0.0
  0
POINT
  5
21A9
330
219D
100
AcDbEntity
  8
Defpoints
 62
     0
100
AcDbPoint
 10
1081.905869716134
 20
1016.423444605834
 30
0.0
  0
ENDBLK
  5
219F
330
219D
100
AcDbEntity
  8
0
100
AcDbBlockEnd
  0
BLOCK
  5
21AC
330
21AB
100
AcDbEntity
  8
0
100
AcDbBlockBegin
  2
*D38
 70
     1
 10
0.0
 20
0.0
 30
0.0
  3
*D38
  1
*D40
  0
LINE
  5
21AE
330
21AB
100
AcDbEntity
  8
Dim
  6
Continuous
 62
     0
370
    -2
100
AcDbLine
 10
891.2634459664241
 20
1056.598857468806
 30
0.0
 11
972.4346825345201
 21
1056.598857468806
 31
0.0
  0
LINE
  5
21AF
330
21AB
100
AcDbEntity
  8
Dim
  6
Continuous
 62
     0
370
    -2
100
AcDbLine
 10
621.0557070423688
 20
898.5988574688063
 30
0.0
 11
972.4346825345201
 21
898.5988574688063
 31
0.0
  0
LINE
  5
21B0
330
21AB
100
AcDbEntity
  8
Dim
  6
Continuous
 62
     0
370
    -2
100
AcDbLine
 10
972.4346825345201
 20
1047.598857468806
 30
0.0
 11
972.4346825345201
 21
907.5988574688063
 31
0.0
  0
INSERT
  5
21B1
330
21AB
100
AcDbEntity
  8
Dim
 62
     0
370
    -2
100
AcDbBlockReference
  2
_DOT
 10
972.4346825345201
 20
1056.598857468806
 30
0.0
 41
9.0
 42
9.0
 43
9.0
 50
90.0
  0
INSERT
  5
21B2
330
21AB
100
AcDbEntity
  8
Dim
 62
     0
370
    -2
100
AcDbBlockReference
  2
_DOT
 10
972.4346825345201
 20
898.5988574688063
 30
0.0
 41
9.0
 42
9.0
 43
9.0
 50
270.0
  0
MTEXT
  5
21B3
330
21AB
100
AcDbEntity
  8
Dim
  6
Continuous
 62
     0
100
AcDbMText
 10
950.2183739407701
 20
977.5988574688062
 30
0.0
 40
24.4326171875
 41
0.0
 46
0.0
 71
     5
 72
     1
  1
\A1;158
  7
ＭＳ ゴシック
 11
0.0
 21
1.0
 31
0.0
 73
     1
 44
1.0
  0
POINT
  5
21B4
330
21AB
100
AcDbEntity
  8
Defpoints
 62
     0
100
AcDbPoint
 10
866.2634459664241
 20
1056.598857468806
 30
0.0
  0
POINT
  5
21B5
330
21AB
100
AcDbEntity
  8
Defpoints
 62
     0
100
AcDbPoint
 10
596.0557070423688
 20
898.5988574688063
 30
0.0
  0
POINT
  5
21B6
330
21AB
100
AcDbEntity
  8
Defpoints
 62
     0
100
AcDbPoint
 10
972.4346825345201
 20
898.5988574688063
 30
0.0
  0
ENDBLK
  5
21AD
330
21AB
100
AcDbEntity
  8
0
100
AcDbBlockEnd
  0
BLOCK
  5
2210
330
220F
100
AcDbEntity
  8
0
100
AcDbBlockBegin
  2
*D39
 70
     1
 10
0.0
 20
0.0
 30
0.0
  3
*D39
  1
*D33
  0
LINE
  5
2211
330
220F
100
AcDbEntity
  8
Dim
  6
Continuous
 62
     0
370
    -2
100
AcDbLine
 10
100.6925058971672
 20
236.975084277607
 30
0.0
 11
100.6925058971672
 21
301.1352995795683
 31
0.0
  0
LINE
  5
2212
330
220F
100
AcDbEntity
  8
Dim
  6
Continuous
 62
     0
370
    -2
100
AcDbLine
 10
135.6925058971672
 20
236.975084277607
 30
0.0
 11
135.6925058971672
 21
301.1352995795683
 31
0.0
  0
LINE
  5
2213
330
220F
100
AcDbEntity
  8
Dim
  6
Continuous
 62
     0
370
    -2
100
AcDbLine
 10
109.6925058971672
 20
301.1352995795683
 30
0.0
 11
126.6925058971672
 21
301.1352995795683
 31
0.0
  0
INSERT
  5
2214
330
220F
100
AcDbEntity
  8
Dim
 62
     0
370
    -2
100
AcDbBlockReference
  2
_DOT
 10
100.6925058971672
 20
301.1352995795683
 30
0.0
 41
9.0
 42
9.0
 43
9.0
 50
180.0
  0
INSERT
  5
2215
330
220F
100
AcDbEntity
  8
Dim
 62
     0
370
    -2
100
AcDbBlockReference
  2
_DOT
 10
135.6925058971672
 20
301.1352995795683
 30
0.0
 41
9.0
 42
9.0
 43
9.0
  0
MTEXT
  5
2216
330
220F
100
AcDbEntity
  8
Dim
  6
Continuous
 62
     0
100
AcDbMText
 10
118.1925058971681
 20
323.3516081733183
 30
0.0
 40
24.4326171875
 41
0.0
 46
0.0
 71
     5
 72
     1
  1
\A1;35
  7
ＭＳ ゴシック
 73
     1
 44
1.0
  0
POINT
  5
2217
330
220F
100
AcDbEntity
  8
Defpoints
 62
     0
100
AcDbPoint
 10
100.6925058971672
 20
211.975084277607
 30
0.0
  0
POINT
  5
2218
330
220F
100
AcDbEntity
  8
Defpoints
 62
     0
100
AcDbPoint
 10
135.6925058971672
 20
211.975084277607
 30
0.0
  0
POINT
  5
2219
330
220F
100
AcDbEntity
  8
Defpoints
 62
     0
100
AcDbPoint
 10
135.6925058971672
 20
301.1352995795683
 30
0.0
  0
ENDBLK
  5
221A
330
220F
100
AcDbEntity
  8
0
100
AcDbBlockEnd
  0
BLOCK
  5
223A
330
2239
100
AcDbEntity
  8
0
100
AcDbBlockBegin
  2
*D40
 70
     1
 10
0.0
 20
0.0
 30
0.0
  3
*D40
  1
*D43
  0
LINE
  5
223C
330
2239
100
AcDbEntity
  8
Dim
  6
Continuous
 62
     0
370
    -2
100
AcDbLine
 10
1489.947665167823
 20
933.5988574688065
 30
0.0
 11
1281.172007861103
 21
933.5988574688065
 31
0.0
  0
LINE
  5
223D
330
2239
100
AcDbEntity
  8
Dim
  6
Continuous
 62
     0
370
    -2
100
AcDbLine
 10
1489.947665167823
 20
898.5988574688065
 30
0.0
 11
1281.172007861103
 21
898.5988574688065
 31
0.0
  0
LINE
  5
223E
330
2239
100
AcDbEntity
  8
Dim
  6
Continuous
 62
     0
370
    -2
100
AcDbLine
 10
1281.172007861103
 20
924.5988574688065
 30
0.0
 11
1281.172007861103
 21
907.5988574688065
 31
0.0
  0
INSERT
  5
223F
330
2239
100
AcDbEntity
  8
Dim
 62
     0
370
    -2
100
AcDbBlockReference
  2
_DOT
 10
1281.172007861103
 20
933.5988574688065
 30
0.0
 41
9.0
 42
9.0
 43
9.0
 50
90.0
  0
INSERT
  5
2240
330
2239
100
AcDbEntity
  8
Dim
 62
     0
370
    -2
100
AcDbBlockReference
  2
_DOT
 10
1281.172007861103
 20
898.5988574688065
 30
0.0
 41
9.0
 42
9.0
 43
9.0
 50
270.0
  0
MTEXT
  5
2241
330
2239
100
AcDbEntity
  8
Dim
  6
Continuous
 62
     0
100
AcDbMText
 10
1258.955699267353
 20
913.8488574688056
 30
0.0
 40
24.4326171875
 41
0.0
 46
0.0
 71
     5
 72
     1
  1
\A1;35
  7
ＭＳ ゴシック
 11
0.0
 21
1.0
 31
0.0
 73
     1
 44
1.0
  0
POINT
  5
2242
330
2239
100
AcDbEntity
  8
Defpoints
 62
     0
100
AcDbPoint
 10
1514.947665167823
 20
933.5988574688065
 30
0.0
  0
POINT
  5
2243
330
2239
100
AcDbEntity
  8
Defpoints
 62
     0
100
AcDbPoint
 10
1514.947665167823
 20
898.5988574688065
 30
0.0
  0
POINT
  5
2244
330
2239
100
AcDbEntity
  8
Defpoints
 62
     0
100
AcDbPoint
 10
1281.172007861103
 20
898.5988574688065
 30
0.0
  0
ENDBLK
  5
223B
330
2239
100
AcDbEntity
  8
0
100
AcDbBlockEnd
  0
BLOCK
  5
2293
330
2292
100
AcDbEntity
  8
0
100
AcDbBlockBegin
  2
*D41
 70
     1
 10
0.0
 20
0.0
 30
0.0
  3
*D41
  1
*D44
  0
LINE
  5
2295
330
2292
100
AcDbEntity
  8
Dim
  6
Continuous
 62
     0
370
    -2
100
AcDbLine
 10
1816.045857422891
 20
991.325354742397
 30
0.0
 11
1816.045857422891
 21
821.4462479537124
 31
0.0
  0
LINE
  5
2296
330
2292
100
AcDbEntity
  8
Dim
  6
Continuous
 62
     0
370
    -2
100
AcDbLine
 10
1542.645857422891
 20
869.8538846336414
 30
0.0
 11
1542.645857422891
 21
821.4462479537124
 31
0.0
  0
LINE
  5
2297
330
2292
100
AcDbEntity
  8
Dim
  6
Continuous
 62
     0
370
    -2
100
AcDbLine
 10
1807.045857422891
 20
821.4462479537124
 30
0.0
 11
1551.645857422891
 21
821.4462479537124
 31
0.0
  0
INSERT
  5
2298
330
2292
100
AcDbEntity
  8
Dim
 62
     0
370
    -2
100
AcDbBlockReference
  2
_DOT
 10
1816.045857422891
 20
821.4462479537124
 30
0.0
 41
9.0
 42
9.0
 43
9.0
  0
INSERT
  5
2299
330
2292
100
AcDbEntity
  8
Dim
 62
     0
370
    -2
100
AcDbBlockReference
  2
_DOT
 10
1542.645857422891
 20
821.4462479537124
 30
0.0
 41
9.0
 42
9.0
 43
9.0
 50
180.0
  0
MTEXT
  5
229A
330
2292
100
AcDbEntity
  8
Dim
  6
Continuous
 62
     0
100
AcDbMText
 10
1679.345857422891
 20
843.6625565474624
 30
0.0
 40
24.4326171875
 41
0.0
 46
0.0
 71
     5
 72
     1
  1
\A1;273
  7
ＭＳ ゴシック
 73
     1
 44
1.0
  0
POINT
  5
229B
330
2292
100
AcDbEntity
  8
Defpoints
 62
     0
100
AcDbPoint
 10
1816.045857422891
 20
1016.325354742397
 30
0.0
  0
POINT
  5
229C
330
2292
100
AcDbEntity
  8
Defpoints
 62
     0
100
AcDbPoint
 10
1542.645857422891
 20
894.8538846336414
 30
0.0
  0
POINT
  5
229D
330
2292
100
AcDbEntity
  8
Defpoints
 62
     0
100
AcDbPoint
 10
1542.645857422891
 20
821.4462479537124
 30
0.0
  0
ENDBLK
  5
2294
330
2292
100
AcDbEntity
  8
0
100
AcDbBlockEnd
  0
BLOCK
  5
22B7
330
22B6
100
AcDbEntity
  8
0
100
AcDbBlockBegin
  2
*D42
 70
     1
 10
0.0
 20
0.0
 30
0.0
  3
*D42
  1
*D45
  0
LINE
  5
22B9
330
22B6
100
AcDbEntity
  8
Dim
  6
Continuous
 62
     0
370
    -2
100
AcDbLine
 10
648.1400995040048
 20
908.5086725418084
 30
0.0
 11
648.1400995040048
 21
761.073615827027
 31
0.0
  0
LINE
  5
22BA
330
22B6
100
AcDbEntity
  8
Dim
  6
Continuous
 62
     0
370
    -2
100
AcDbLine
 10
948.1391216421007
 20
1011.51115103732
 30
0.0
 11
948.1391216421007
 21
761.073615827027
 31
0.0
  0
LINE
  5
22BB
330
22B6
100
AcDbEntity
  8
Dim
  6
Continuous
 62
     0
370
    -2
100
AcDbLine
 10
657.1400995040048
 20
761.073615827027
 30
0.0
 11
939.1391216421007
 21
761.073615827027
 31
0.0
  0
INSERT
  5
22BC
330
22B6
100
AcDbEntity
  8
Dim
 62
     0
370
    -2
100
AcDbBlockReference
  2
_DOT
 10
648.1400995040048
 20
761.073615827027
 30
0.0
 41
9.0
 42
9.0
 43
9.0
 50
180.0
  0
INSERT
  5
22BD
330
22B6
100
AcDbEntity
  8
Dim
 62
     0
370
    -2
100
AcDbBlockReference
  2
_DOT
 10
948.1391216421007
 20
761.073615827027
 30
0.0
 41
9.0
 42
9.0
 43
9.0
  0
MTEXT
  5
22BE
330
22B6
100
AcDbEntity
  8
Dim
  6
Continuous
 62
     0
100
AcDbMText
 10
798.1396105730528
 20
783.289924420777
 30
0.0
 40
24.4326171875
 41
0.0
 46
0.0
 71
     5
 72
     1
  1
\A1;300
  7
ＭＳ ゴシック
 73
     1
 44
1.0
  0
POINT
  5
22BF
330
22B6
100
AcDbEntity
  8
Defpoints
 62
     0
100
AcDbPoint
 10
648.1400995040048
 20
933.5086725418084
 30
0.0
  0
POINT
  5
22C0
330
22B6
100
AcDbEntity
  8
Defpoints
 62
     0
100
AcDbPoint
 10
948.1391216421007
 20
1036.51115103732
 30
0.0
  0
POINT
  5
22C1
330
22B6
100
AcDbEntity
  8
Defpoints
 62
     0
100
AcDbPoint
 10
948.1391216421007
 20
761.073615827027
 30
0.0
  0
ENDBLK
  5
22B8
330
22B6
100
AcDbEntity
  8
0
100
AcDbBlockEnd
  0
BLOCK
  5
2317
330
2316
100
AcDbEntity
  8
0
100
AcDbBlockBegin
  2
*D43
 70
     1
 10
0.0
 20
0.0
 30
0.0
  3
*D43
  1
*D46
  0
LINE
  5
2319
330
2316
100
AcDbEntity
  8
Dim
  6
Continuous
 62
     0
370
    -2
100
AcDbLine
 10
1541.426789926936
 20
1056.598857468806
 30
0.0
 11
1541.426789926936
 21
1226.974777390681
 31
0.0
  0
LINE
  5
231A
330
2316
100
AcDbEntity
  8
Dim
  6
Continuous
 62
     0
370
    -2
100
AcDbLine
 10
1541.426789926936
 20
953.5153031780253
 30
0.0
 11
1541.426789926936
 21
1047.598857468806
 31
0.0
  0
INSERT
  5
231B
330
2316
100
AcDbEntity
  8
Dim
 62
     0
370
    -2
100
AcDbBlockReference
  2
_DOT
 10
1541.426789926936
 20
944.5153031780253
 30
0.0
 41
9.0
 42
9.0
 43
9.0
 50
270.0
  0
INSERT
  5
231C
330
2316
100
AcDbEntity
  8
Dim
 62
     0
370
    -2
100
AcDbBlockReference
  2
_DOT
 10
1541.426789926936
 20
1056.598857468806
 30
0.0
 41
9.0
 42
9.0
 43
9.0
 50
90.0
  0
MTEXT
  5
231D
330
2316
100
AcDbEntity
  8
Dim
  6
Continuous
 62
     0
100
AcDbMText
 10
1517.048194712092
 20
1150.786817429744
 30
0.0
 40
24.4326171875
 41
0.0
 46
0.0
 71
     5
 72
     1
  1
\A1;110(深さ)
  7
ＭＳ ゴシック
 11
0.0
 21
1.0
 31
0.0
 73
     1
 44
1.0
  0
POINT
  5
231E
330
2316
100
AcDbEntity
  8
Defpoints
 62
     0
100
AcDbPoint
 10
1541.426776655785
 20
944.5153031780253
 30
0.0
  0
POINT
  5
231F
330
2316
100
AcDbEntity
  8
Defpoints
 62
     0
100
AcDbPoint
 10
1541.426789926936
 20
1056.598857468806
 30
0.0
  0
POINT
  5
2320
330
2316
100
AcDbEntity
  8
Defpoints
 62
     0
100
AcDbPoint
 10
1541.426789926936
 20
1056.598857468806
 30
0.0
  0
ENDBLK
  5
2318
330
2316
100
AcDbEntity
  8
0
100
AcDbBlockEnd
  0
BLOCK
  5
24BD
330
24BC
100
AcDbEntity
  8
0
100
AcDbBlockBegin
  2
*D44
 70
     1
 10
0.0
 20
0.0
 30
0.0
  3
*D44
  1
*D308
  0
LINE
  5
24BE
330
24BC
100
AcDbEntity
  8
LOGO
  6
Continuous
 62
     0
370
    -2
100
AcDbLine
 10
721.7960906306282
 20
841.6803077661032
 30
0.0
 11
814.1021861303461
 21
841.6803077661032
 31
0.0
  0
LINE
  5
24BF
330
24BC
100
AcDbEntity
  8
LOGO
  6
Continuous
 62
     0
370
    -2
100
AcDbLine
 10
721.7960906306282
 20
421.6803077661034
 30
0.0
 11
814.1021861303461
 21
421.6803077661034
 31
0.0
  0
LINE
  5
24C0
330
24BC
100
AcDbEntity
  8
LOGO
  6
Continuous
 62
     0
370
    -2
100
AcDbLine
 10
814.1021861303461
 20
833.6803077661032
 30
0.0
 11
814.1021861303461
 21
429.6803077661034
 31
0.0
  0
INSERT
  5
24C1
330
24BC
100
AcDbEntity
  8
LOGO
 62
     0
370
    -2
100
AcDbBlockReference
  2
_DOT
 10
814.1021861303461
 20
841.6803077661032
 30
0.0
 41
8.0
 42
8.0
 43
8.0
 50
90.0
  0
INSERT
  5
24C2
330
24BC
100
AcDbEntity
  8
LOGO
 62
     0
370
    -2
100
AcDbBlockReference
  2
_DOT
 10
814.1021861303461
 20
421.6803077661034
 30
0.0
 41
8.0
 42
8.0
 43
8.0
 50
270.0
  0
MTEXT
  5
24C3
330
24BC
100
AcDbEntity
  8
LOGO
  6
Continuous
 62
     0
100
AcDbMText
 10
782.1021861303461
 20
631.6803077661033
 30
0.0
 40
24.0
 41
0.0
 46
0.0
 71
     5
 72
     1
  1
\A1;420
  7
ＭＳ ゴシック
 11
0.0
 21
1.0
 31
0.0
 73
     1
 44
1.0
  0
POINT
  5
24C4
330
24BC
100
AcDbEntity
  8
Defpoints
 62
     0
100
AcDbPoint
 10
691.7960906306282
 20
841.6803077661032
 30
0.0
  0
POINT
  5
24C5
330
24BC
100
AcDbEntity
  8
Defpoints
 62
     0
100
AcDbPoint
 10
691.7960906306282
 20
421.6803077661034
 30
0.0
  0
POINT
  5
24C6
330
24BC
100
AcDbEntity
  8
Defpoints
 62
     0
100
AcDbPoint
 10
814.1021861303461
 20
421.6803077661034
 30
0.0
  0
ENDBLK
  5
24C7
330
24BC
100
AcDbEntity
  8
0
100
AcDbBlockEnd
  0
BLOCK
  5
24CA
330
24C9
100
AcDbEntity
  8
0
100
AcDbBlockBegin
  2
*D45
 70
     1
 10
0.0
 20
0.0
 30
0.0
  3
*D45
  1
*D309
  0
LINE
  5
24CB
330
24C9
100
AcDbEntity
  8
LOGO
  6
Continuous
 62
     0
370
    -2
100
AcDbLine
 10
106.9676819256993
 20
362.8917380880473
 30
0.0
 11
106.9676819256993
 21
276.7946021937464
 31
0.0
  0
LINE
  5
24CC
330
24C9
100
AcDbEntity
  8
LOGO
  6
Continuous
 62
     0
370
    -2
100
AcDbLine
 10
666.9662554237161
 20
362.8917380880473
 30
0.0
 11
666.9662554237161
 21
276.7946021937464
 31
0.0
  0
LINE
  5
24CD
330
24C9
100
AcDbEntity
  8
LOGO
  6
Continuous
 62
     0
370
    -2
100
AcDbLine
 10
114.9676819256993
 20
276.7946021937464
 30
0.0
 11
658.9662554237161
 21
276.7946021937464
 31
0.0
  0
INSERT
  5
24CE
330
24C9
100
AcDbEntity
  8
LOGO
 62
     0
370
    -2
100
AcDbBlockReference
  2
_DOT
 10
106.9676819256993
 20
276.7946021937464
 30
0.0
 41
8.0
 42
8.0
 43
8.0
 50
180.0
  0
INSERT
  5
24CF
330
24C9
100
AcDbEntity
  8
LOGO
 62
     0
370
    -2
100
AcDbBlockReference
  2
_DOT
 10
666.9662554237161
 20
276.7946021937464
 30
0.0
 41
8.0
 42
8.0
 43
8.0
  0
MTEXT
  5
24D0
330
24C9
100
AcDbEntity
  8
LOGO
  6
Continuous
 62
     0
100
AcDbMText
 10
386.9669686747077
 20
308.7946021937464
 30
0.0
 40
24.0
 41
0.0
 46
0.0
 71
     5
 72
     1
  1
\A1;560
  7
ＭＳ ゴシック
 73
     1
 44
1.0
  0
POINT
  5
24D1
330
24C9
100
AcDbEntity
  8
Defpoints
 62
     0
100
AcDbPoint
 10
106.9676819256993
 20
392.8917380880473
 30
0.0
  0
POINT
  5
24D2
330
24C9
100
AcDbEntity
  8
Defpoints
 62
     0
100
AcDbPoint
 10
666.9662554237161
 20
392.8917380880473
 30
0.0
  0
POINT
  5
24D3
330
24C9
100
AcDbEntity
  8
Defpoints
 62
     0
100
AcDbPoint
 10
666.9662554237161
 20
276.7946021937464
 30
0.0
  0
ENDBLK
  5
24D4
330
24C9
100
AcDbEntity
  8
0
100
AcDbBlockEnd
  0
BLOCK
  5
24DB
330
24DA
100
AcDbEntity
  8
0
100
AcDbBlockBegin
  2
*D46
 70
     1
 10
0.0
 20
0.0
 30
0.0
  3
*D46
  1
*D313
  0
LINE
  5
24DC
330
24DA
100
AcDbEntity
  8
LOGO
  6
Continuous
 62
     0
370
    -2
100
AcDbLine
 10
245.0738108487581
 20
846.6204056961321
 30
0.0
 11
235.9836871753253
 21
846.6204056961321
 31
0.0
  0
LINE
  5
24DD
330
24DA
100
AcDbEntity
  8
LOGO
  6
Continuous
 62
     0
370
    -2
100
AcDbLine
 10
243.0495139600262
 20
861.6785834864074
 30
0.0
 11
235.9836871753253
 21
861.6785834864074
 31
0.0
  0
LINE
  5
24DE
330
24DA
100
AcDbEntity
  8
LOGO
  6
Continuous
 62
     0
370
    -2
100
AcDbLine
 10
235.9836871753253
 20
861.6785834864074
 30
0.0
 11
235.9836871753253
 21
943.9825834864075
 31
0.0
  0
INSERT
  5
24DF
330
24DA
100
AcDbEntity
  8
LOGO
 62
     0
370
    -2
100
AcDbBlockReference
  2
_DOT
 10
235.9836871753253
 20
846.6204056961321
 30
0.0
 41
8.0
 42
8.0
 43
8.0
 50
270.0
  0
INSERT
  5
24E0
330
24DA
100
AcDbEntity
  8
LOGO
 62
     0
370
    -2
100
AcDbBlockReference
  2
_DOT
 10
235.9836871753253
 20
861.6785834864074
 30
0.0
 41
8.0
 42
8.0
 43
8.0
 50
90.0
  0
MTEXT
  5
24E1
330
24DA
100
AcDbEntity
  8
LOGO
  6
Continuous
 62
     0
100
AcDbMText
 10
203.9836871753253
 20
910.8305834864075
 30
0.0
 40
24.0
 41
0.0
 46
0.0
 71
     5
 72
     1
  1
\A1;15
  7
ＭＳ ゴシック
 11
0.0
 21
1.0
 31
0.0
 73
     1
 44
1.0
  0
POINT
  5
24E2
330
24DA
100
AcDbEntity
  8
Defpoints
 62
     0
100
AcDbPoint
 10
275.0738108487581
 20
846.6204056961321
 30
0.0
  0
POINT
  5
24E3
330
24DA
100
AcDbEntity
  8
Defpoints
 62
     0
100
AcDbPoint
 10
273.0495139600262
 20
861.6785834864074
 30
0.0
  0
POINT
  5
24E4
330
24DA
100
AcDbEntity
  8
Defpoints
 62
     0
100
AcDbPoint
 10
235.9836871753253
 20
861.6785834864074
 30
0.0
  0
ENDBLK
  5
24E5
330
24DA
100
AcDbEntity
  8
0
100
AcDbBlockEnd
  0
BLOCK
  5
24E8
330
24E7
100
AcDbEntity
  8
0
100
AcDbBlockBegin
  2
*D47
 70
     1
 10
0.0
 20
0.0
 30
0.0
  3
*D47
  1
*D314
  0
LINE
  5
24E9
330
24E7
100
AcDbEntity
  8
LOGO
  6
Continuous
 62
     0
370
    -2
100
AcDbLine
 10
276.9679255960853
 20
893.1649585275825
 30
0.0
 11
276.9679255960853
 21
970.3865346982973
 31
0.0
  0
LINE
  5
24EA
330
24E7
100
AcDbEntity
  8
LOGO
  6
Continuous
 62
     0
370
    -2
100
AcDbLine
 10
496.9679255960853
 20
893.1649585275825
 30
0.0
 11
496.9679255960853
 21
970.3865346982973
 31
0.0
  0
LINE
  5
24EB
330
24E7
100
AcDbEntity
  8
LOGO
  6
Continuous
 62
     0
370
    -2
100
AcDbLine
 10
284.9679255960853
 20
970.3865346982973
 30
0.0
 11
488.9679255960853
 21
970.3865346982973
 31
0.0
  0
INSERT
  5
24EC
330
24E7
100
AcDbEntity
  8
LOGO
 62
     0
370
    -2
100
AcDbBlockReference
  2
_DOT
 10
276.9679255960853
 20
970.3865346982973
 30
0.0
 41
8.0
 42
8.0
 43
8.0
 50
180.0
  0
INSERT
  5
24ED
330
24E7
100
AcDbEntity
  8
LOGO
 62
     0
370
    -2
100
AcDbBlockReference
  2
_DOT
 10
496.9679255960853
 20
970.3865346982973
 30
0.0
 41
8.0
 42
8.0
 43
8.0
  0
MTEXT
  5
24EE
330
24E7
100
AcDbEntity
  8
LOGO
  6
Continuous
 62
     0
100
AcDbMText
 10
386.9679255960853
 20
1002.386534698297
 30
0.0
 40
24.0
 41
0.0
 46
0.0
 71
     5
 72
     1
  1
\A1;220
  7
ＭＳ ゴシック
 73
     1
 44
1.0
  0
POINT
  5
24EF
330
24E7
100
AcDbEntity
  8
Defpoints
 62
     0
100
AcDbPoint
 10
276.9679255960853
 20
863.1649585275825
 30
0.0
  0
POINT
  5
24F0
330
24E7
100
AcDbEntity
  8
Defpoints
 62
     0
100
AcDbPoint
 10
496.9679255960853
 20
863.1649585275825
 30
0.0
  0
POINT
  5
24F1
330
24E7
100
AcDbEntity
  8
Defpoints
 62
     0
100
AcDbPoint
 10
496.9679255960853
 20
970.3865346982973
 30
0.0
  0
ENDBLK
  5
24F2
330
24E7
100
AcDbEntity
  8
0
100
AcDbBlockEnd
  0
BLOCK
  5
24F5
330
24F4
100
AcDbEntity
  8
0
100
AcDbBlockBegin
  2
*D48
 70
     1
 10
0.0
 20
0.0
 30
0.0
  3
*D48
  1
*D355
  0
LINE
  5
24F6
330
24F4
100
AcDbEntity
  8
Dim
  6
Continuous
 62
     0
370
    -2
100
AcDbLine
 10
721.7960906306282
 20
841.6803077661032
 30
0.0
 11
814.1021861303461
 21
841.6803077661032
 31
0.0
  0
LINE
  5
24F7
330
24F4
100
AcDbEntity
  8
Dim
  6
Continuous
 62
     0
370
    -2
100
AcDbLine
 10
721.7960906306282
 20
861.6803077661032
 30
0.0
 11
814.1021861303461
 21
861.6803077661032
 31
0.0
  0
LINE
  5
24F8
330
24F4
100
AcDbEntity
  8
Dim
  6
Continuous
 62
     0
370
    -2
100
AcDbLine
 10
814.1021861303461
 20
861.6803077661032
 30
0.0
 11
814.1021861303461
 21
948.1923077661044
 31
0.0
  0
LINE
  5
24F9
330
24F4
100
AcDbEntity
  8
Dim
  6
Continuous
 62
     0
370
    -2
100
AcDbLine
 10
814.1021861303461
 20
841.6803077661032
 30
0.0
 11
814.1021861303461
 21
861.6803077661032
 31
0.0
  0
LINE
  5
24FA
330
24F4
100
AcDbEntity
  8
Dim
  6
Continuous
 62
     0
370
    -2
100
AcDbLine
 10
814.1021861303461
 20
833.6803077661032
 30
0.0
 11
814.1021861303461
 21
825.6803077661032
 31
0.0
  0
LINE
  5
24FB
330
24F4
100
AcDbEntity
  8
Dim
  6
Continuous
 62
     0
370
    -2
100
AcDbLine
 10
814.1021861303461
 20
869.6803077661032
 30
0.0
 11
814.1021861303461
 21
877.6803077661032
 31
0.0
  0
INSERT
  5
24FC
330
24F4
100
AcDbEntity
  8
Dim
 62
     0
370
    -2
100
AcDbBlockReference
  2
_DOT
 10
814.1021861303461
 20
841.6803077661032
 30
0.0
 41
8.0
 42
8.0
 43
8.0
 50
90.0
  0
INSERT
  5
24FD
330
24F4
100
AcDbEntity
  8
Dim
 62
     0
370
    -2
100
AcDbBlockReference
  2
_DOT
 10
814.1021861303461
 20
861.6803077661032
 30
0.0
 41
8.0
 42
8.0
 43
8.0
 50
270.0
  0
MTEXT
  5
24FE
330
24F4
100
AcDbEntity
  8
Dim
  6
Continuous
 62
     0
100
AcDbMText
 10
782.1021861303461
 20
913.9363077661044
 30
0.0
 40
24.0
 41
0.0
 46
0.0
 71
     5
 72
     1
  1
\A1;20
  7
ＭＳ ゴシック
 11
0.0
 21
1.0
 31
0.0
 73
     1
 44
1.0
  0
POINT
  5
24FF
330
24F4
100
AcDbEntity
  8
Defpoints
 62
     0
100
AcDbPoint
 10
691.7960906306282
 20
841.6803077661032
 30
0.0
  0
POINT
  5
2500
330
24F4
100
AcDbEntity
  8
Defpoints
 62
     0
100
AcDbPoint
 10
691.7960906306282
 20
861.6803077661032
 30
0.0
  0
POINT
  5
2501
330
24F4
100
AcDbEntity
  8
Defpoints
 62
     0
100
AcDbPoint
 10
814.1021861303461
 20
861.6803077661032
 30
0.0
  0
ENDBLK
  5
2502
330
24F4
100
AcDbEntity
  8
0
100
AcDbBlockEnd
  0
BLOCK
  5
2566
330
2565
100
AcDbEntity
  8
0
100
AcDbBlockBegin
  2
*D49
 70
     1
 10
0.0
 20
0.0
 30
0.0
  3
*D49
  1
*D50
  0
LINE
  5
2568
330
2565
100
AcDbEntity
  8
Dim
  6
Continuous
 62
     0
370
    -2
100
AcDbLine
 10
1875.198971211395
 20
2291.984795304314
 30
0.0
 11
1967.505066711114
 21
2291.984795304314
 31
0.0
  0
LINE
  5
2569
330
2565
100
AcDbEntity
  8
Dim
  6
Continuous
 62
     0
370
    -2
100
AcDbLine
 10
1875.198971211395
 20
1871.984795304314
 30
0.0
 11
1967.505066711114
 21
1871.984795304314
 31
0.0
  0
LINE
  5
256A
330
2565
100
AcDbEntity
  8
Dim
  6
Continuous
 62
     0
370
    -2
100
AcDbLine
 10
1967.505066711114
 20
2283.984795304314
 30
0.0
 11
1967.505066711114
 21
1879.984795304314
 31
0.0
  0
INSERT
  5
256B
330
2565
100
AcDbEntity
  8
Dim
 62
     0
370
    -2
100
AcDbBlockReference
  2
_DOT
 10
1967.505066711114
 20
2291.984795304314
 30
0.0
 41
8.0
 42
8.0
 43
8.0
 50
90.0
  0
INSERT
  5
256C
330
2565
100
AcDbEntity
  8
Dim
 62
     0
370
    -2
100
AcDbBlockReference
  2
_DOT
 10
1967.505066711114
 20
1871.984795304314
 30
0.0
 41
8.0
 42
8.0
 43
8.0
 50
270.0
  0
MTEXT
  5
256D
330
2565
100
AcDbEntity
  8
Dim
  6
Continuous
 62
     0
100
AcDbMText
 10
1935.505066711114
 20
2081.984795304314
 30
0.0
 40
24.0
 41
0.0
 46
0.0
 71
     5
 72
     1
  1
\A1;420
  7
ＭＳ ゴシック
 11
0.0
 21
1.0
 31
0.0
 73
     1
 44
1.0
  0
POINT
  5
256E
330
2565
100
AcDbEntity
  8
Defpoints
 62
     0
100
AcDbPoint
 10
1845.198971211395
 20
2291.984795304314
 30
0.0
  0
POINT
  5
256F
330
2565
100
AcDbEntity
  8
Defpoints
 62
     0
100
AcDbPoint
 10
1845.198971211395
 20
1871.984795304314
 30
0.0
  0
POINT
  5
2570
330
2565
100
AcDbEntity
  8
Defpoints
 62
     0
100
AcDbPoint
 10
1967.505066711114
 20
1871.984795304314
 30
0.0
  0
ENDBLK
  5
2567
330
2565
100
AcDbEntity
  8
0
100
AcDbBlockEnd
  0
BLOCK
  5
2572
330
2571
100
AcDbEntity
  8
0
100
AcDbBlockBegin
  2
*D50
 70
     1
 10
0.0
 20
0.0
 30
0.0
  3
*D50
  1
*D51
  0
LINE
  5
2574
330
2571
100
AcDbEntity
  8
Dim
  6
Continuous
 62
     0
370
    -2
100
AcDbLine
 10
1260.370562506467
 20
1813.196225626258
 30
0.0
 11
1260.370562506467
 21
1727.099089731957
 31
0.0
  0
LINE
  5
2575
330
2571
100
AcDbEntity
  8
Dim
  6
Continuous
 62
     0
370
    -2
100
AcDbLine
 10
1820.369136004484
 20
1813.196225626258
 30
0.0
 11
1820.369136004484
 21
1727.099089731957
 31
0.0
  0
LINE
  5
2576
330
2571
100
AcDbEntity
  8
Dim
  6
Continuous
 62
     0
370
    -2
100
AcDbLine
 10
1268.370562506467
 20
1727.099089731957
 30
0.0
 11
1812.369136004484
 21
1727.099089731957
 31
0.0
  0
INSERT
  5
2577
330
2571
100
AcDbEntity
  8
Dim
 62
     0
370
    -2
100
AcDbBlockReference
  2
_DOT
 10
1260.370562506467
 20
1727.099089731957
 30
0.0
 41
8.0
 42
8.0
 43
8.0
 50
180.0
  0
INSERT
  5
2578
330
2571
100
AcDbEntity
  8
Dim
 62
     0
370
    -2
100
AcDbBlockReference
  2
_DOT
 10
1820.369136004484
 20
1727.099089731957
 30
0.0
 41
8.0
 42
8.0
 43
8.0
  0
MTEXT
  5
2579
330
2571
100
AcDbEntity
  8
Dim
  6
Continuous
 62
     0
100
AcDbMText
 10
1540.369849255475
 20
1759.099089731957
 30
0.0
 40
24.0
 41
0.0
 46
0.0
 71
     5
 72
     1
  1
\A1;560
  7
ＭＳ ゴシック
 73
     1
 44
1.0
  0
POINT
  5
257A
330
2571
100
AcDbEntity
  8
Defpoints
 62
     0
100
AcDbPoint
 10
1260.370562506467
 20
1843.196225626258
 30
0.0
  0
POINT
  5
257B
330
2571
100
AcDbEntity
  8
Defpoints
 62
     0
100
AcDbPoint
 10
1820.369136004484
 20
1843.196225626258
 30
0.0
  0
POINT
  5
257C
330
2571
100
AcDbEntity
  8
Defpoints
 62
     0
100
AcDbPoint
 10
1820.369136004484
 20
1727.099089731957
 30
0.0
  0
ENDBLK
  5
2573
330
2571
100
AcDbEntity
  8
0
100
AcDbBlockEnd
  0
BLOCK
  5
257E
330
257D
100
AcDbEntity
  8
0
100
AcDbBlockBegin
  2
*D51
 70
     1
 10
0.0
 20
0.0
 30
0.0
  3
*D51
  1
*D52
  0
LINE
  5
2580
330
257D
100
AcDbEntity
  8
Dim
  6
Continuous
 62
     0
370
    -2
100
AcDbLine
 10
1398.476691429526
 20
2296.924893234343
 30
0.0
 11
1389.386567756093
 21
2296.924893234343
 31
0.0
  0
LINE
  5
2581
330
257D
100
AcDbEntity
  8
Dim
  6
Continuous
 62
     0
370
    -2
100
AcDbLine
 10
1396.452394540794
 20
2311.983071024618
 30
0.0
 11
1389.386567756093
 21
2311.983071024618
 31
0.0
  0
LINE
  5
2582
330
257D
100
AcDbEntity
  8
Dim
  6
Continuous
 62
     0
370
    -2
100
AcDbLine
 10
1389.386567756093
 20
2311.983071024618
 30
0.0
 11
1389.386567756093
 21
2394.287071024618
 31
0.0
  0
INSERT
  5
2583
330
257D
100
AcDbEntity
  8
Dim
 62
     0
370
    -2
100
AcDbBlockReference
  2
_DOT
 10
1389.386567756093
 20
2296.924893234343
 30
0.0
 41
8.0
 42
8.0
 43
8.0
 50
270.0
  0
INSERT
  5
2584
330
257D
100
AcDbEntity
  8
Dim
 62
     0
370
    -2
100
AcDbBlockReference
  2
_DOT
 10
1389.386567756093
 20
2311.983071024618
 30
0.0
 41
8.0
 42
8.0
 43
8.0
 50
90.0
  0
MTEXT
  5
2585
330
257D
100
AcDbEntity
  8
Dim
  6
Continuous
 62
     0
100
AcDbMText
 10
1357.386567756093
 20
2361.135071024618
 30
0.0
 40
24.0
 41
0.0
 46
0.0
 71
     5
 72
     1
  1
\A1;15
  7
ＭＳ ゴシック
 11
0.0
 21
1.0
 31
0.0
 73
     1
 44
1.0
  0
POINT
  5
2586
330
257D
100
AcDbEntity
  8
Defpoints
 62
     0
100
AcDbPoint
 10
1428.476691429526
 20
2296.924893234343
 30
0.0
  0
POINT
  5
2587
330
257D
100
AcDbEntity
  8
Defpoints
 62
     0
100
AcDbPoint
 10
1426.452394540794
 20
2311.983071024618
 30
0.0
  0
POINT
  5
2588
330
257D
100
AcDbEntity
  8
Defpoints
 62
     0
100
AcDbPoint
 10
1389.386567756093
 20
2311.983071024618
 30
0.0
  0
ENDBLK
  5
257F
330
257D
100
AcDbEntity
  8
0
100
AcDbBlockEnd
  0
BLOCK
  5
258A
330
2589
100
AcDbEntity
  8
0
100
AcDbBlockBegin
  2
*D52
 70
     1
 10
0.0
 20
0.0
 30
0.0
  3
*D52
  1
*D53
  0
LINE
  5
258C
330
2589
100
AcDbEntity
  8
Dim
  6
Continuous
 62
     0
370
    -2
100
AcDbLine
 10
1430.370806176853
 20
2343.469446065793
 30
0.0
 11
1430.370806176853
 21
2420.691022236508
 31
0.0
  0
LINE
  5
258D
330
2589
100
AcDbEntity
  8
Dim
  6
Continuous
 62
     0
370
    -2
100
AcDbLine
 10
1650.370806176853
 20
2343.469446065793
 30
0.0
 11
1650.370806176853
 21
2420.691022236508
 31
0.0
  0
LINE
  5
258E
330
2589
100
AcDbEntity
  8
Dim
  6
Continuous
 62
     0
370
    -2
100
AcDbLine
 10
1438.370806176853
 20
2420.691022236508
 30
0.0
 11
1642.370806176853
 21
2420.691022236508
 31
0.0
  0
INSERT
  5
258F
330
2589
100
AcDbEntity
  8
Dim
 62
     0
370
    -2
100
AcDbBlockReference
  2
_DOT
 10
1430.370806176853
 20
2420.691022236508
 30
0.0
 41
8.0
 42
8.0
 43
8.0
 50
180.0
  0
INSERT
  5
2590
330
2589
100
AcDbEntity
  8
Dim
 62
     0
370
    -2
100
AcDbBlockReference
  2
_DOT
 10
1650.370806176853
 20
2420.691022236508
 30
0.0
 41
8.0
 42
8.0
 43
8.0
  0
MTEXT
  5
2591
330
2589
100
AcDbEntity
  8
Dim
  6
Continuous
 62
     0
100
AcDbMText
 10
1540.370806176853
 20
2452.691022236508
 30
0.0
 40
24.0
 41
0.0
 46
0.0
 71
     5
 72
     1
  1
\A1;220
  7
ＭＳ ゴシック
 73
     1
 44
1.0
  0
POINT
  5
2592
330
2589
100
AcDbEntity
  8
Defpoints
 62
     0
100
AcDbPoint
 10
1430.370806176853
 20
2313.469446065793
 30
0.0
  0
POINT
  5
2593
330
2589
100
AcDbEntity
  8
Defpoints
 62
     0
100
AcDbPoint
 10
1650.370806176853
 20
2313.469446065793
 30
0.0
  0
POINT
  5
2594
330
2589
100
AcDbEntity
  8
Defpoints
 62
     0
100
AcDbPoint
 10
1650.370806176853
 20
2420.691022236508
 30
0.0
  0
ENDBLK
  5
258B
330
2589
100
AcDbEntity
  8
0
100
AcDbBlockEnd
  0
BLOCK
  5
2596
330
2595
100
AcDbEntity
  8
0
100
AcDbBlockBegin
  2
*D53
 70
     1
 10
0.0
 20
0.0
 30
0.0
  3
*D53
  1
*D54
  0
LINE
  5
2598
330
2595
100
AcDbEntity
  8
Dim
  6
Continuous
 62
     0
370
    -2
100
AcDbLine
 10
1875.198971211395
 20
2291.984795304314
 30
0.0
 11
1967.505066711114
 21
2291.984795304314
 31
0.0
  0
LINE
  5
2599
330
2595
100
AcDbEntity
  8
Dim
  6
Continuous
 62
     0
370
    -2
100
AcDbLine
 10
1875.198971211395
 20
2311.984795304314
 30
0.0
 11
1967.505066711114
 21
2311.984795304314
 31
0.0
  0
LINE
  5
259A
330
2595
100
AcDbEntity
  8
Dim
  6
Continuous
 62
     0
370
    -2
100
AcDbLine
 10
1967.505066711114
 20
2311.984795304314
 30
0.0
 11
1967.505066711114
 21
2398.496795304315
 31
0.0
  0
LINE
  5
259B
330
2595
100
AcDbEntity
  8
Dim
  6
Continuous
 62
     0
370
    -2
100
AcDbLine
 10
1967.505066711114
 20
2291.984795304314
 30
0.0
 11
1967.505066711114
 21
2311.984795304314
 31
0.0
  0
LINE
  5
259C
330
2595
100
AcDbEntity
  8
Dim
  6
Continuous
 62
     0
370
    -2
100
AcDbLine
 10
1967.505066711114
 20
2283.984795304314
 30
0.0
 11
1967.505066711114
 21
2275.984795304314
 31
0.0
  0
LINE
  5
259D
330
2595
100
AcDbEntity
  8
Dim
  6
Continuous
 62
     0
370
    -2
100
AcDbLine
 10
1967.505066711114
 20
2319.984795304314
 30
0.0
 11
1967.505066711114
 21
2327.984795304314
 31
0.0
  0
INSERT
  5
259E
330
2595
100
AcDbEntity
  8
Dim
 62
     0
370
    -2
100
AcDbBlockReference
  2
_DOT
 10
1967.505066711114
 20
2291.984795304314
 30
0.0
 41
8.0
 42
8.0
 43
8.0
 50
90.0
  0
INSERT
  5
259F
330
2595
100
AcDbEntity
  8
Dim
 62
     0
370
    -2
100
AcDbBlockReference
  2
_DOT
 10
1967.505066711114
 20
2311.984795304314
 30
0.0
 41
8.0
 42
8.0
 43
8.0
 50
270.0
  0
MTEXT
  5
25A0
330
2595
100
AcDbEntity
  8
Dim
  6
Continuous
 62
     0
100
AcDbMText
 10
1935.505066711114
 20
2364.240795304315
 30
0.0
 40
24.0
 41
0.0
 46
0.0
 71
     5
 72
     1
  1
\A1;20
  7
ＭＳ ゴシック
 11
0.0
 21
1.0
 31
0.0
 73
     1
 44
1.0
  0
POINT
  5
25A1
330
2595
100
AcDbEntity
  8
Defpoints
 62
     0
100
AcDbPoint
 10
1845.198971211395
 20
2291.984795304314
 30
0.0
  0
POINT
  5
25A2
330
2595
100
AcDbEntity
  8
Defpoints
 62
     0
100
AcDbPoint
 10
1845.198971211395
 20
2311.984795304314
 30
0.0
  0
POINT
  5
25A3
330
2595
100
AcDbEntity
  8
Defpoints
 62
     0
100
AcDbPoint
 10
1967.505066711114
 20
2311.984795304314
 30
0.0
  0
ENDBLK
  5
2597
330
2595
100
AcDbEntity
  8
0
100
AcDbBlockEnd
  0
BLOCK
  5
269D
330
269C
100
AcDbEntity
  8
0
100
AcDbBlockBegin
  2
SW_TABLEANNOTATION_0
 70
     0
 10
0.0
 20
0.0
 30
0.0
  3
SW_TABLEANNOTATION_0
  1

  0
LINE
  5
269E
330
269C
100
AcDbEntity
  8
0
  6
Continuous
 62
     0
100
AcDbLine
 10
0.0
 20
0.0
 30
0.0
 11
0.0
 21
-78.1499990791
 31
0.0
  0
LINE
  5
269F
330
269C
100
AcDbEntity
  8
0
  6
Continuous
 62
     0
100
AcDbLine
 10
0.0
 20
-78.1499990791
 30
0.0
 11
479.815625884
 21
-78.1499990791
 31
0.0
  0
LINE
  5
26A0
330
269C
100
AcDbEntity
  8
0
  6
Continuous
 62
     0
100
AcDbLine
 10
479.815625884
 20
-78.1499990791
 30
0.0
 11
479.815625884
 21
0.0
 31
0.0
  0
LINE
  5
26A1
330
269C
100
AcDbEntity
  8
0
  6
Continuous
 62
     0
100
AcDbLine
 10
479.815625884
 20
0.0
 30
0.0
 11
0.0
 21
0.0
 31
0.0
  0
LINE
  5
26A2
330
269C
100
AcDbEntity
  8
0
  6
Continuous
 62
     0
100
AcDbLine
 10
93.4668343238
 20
-27.399999693
 30
0.0
 11
93.4668343238
 21
-78.1499990791
 31
0.0
  0
LINE
  5
26A3
330
269C
100
AcDbEntity
  8
0
  6
Continuous
 62
     0
100
AcDbLine
 10
215.5683959143
 20
-27.399999693
 30
0.0
 11
215.5683959143
 21
-78.1499990791
 31
0.0
  0
LINE
  5
26A4
330
269C
100
AcDbEntity
  8
0
  6
Continuous
 62
     0
100
AcDbLine
 10
344.0265483657
 20
-27.399999693
 30
0.0
 11
344.0265483657
 21
-78.1499990791
 31
0.0
  0
LINE
  5
26A5
330
269C
100
AcDbEntity
  8
0
  6
Continuous
 62
     0
100
AcDbLine
 10
0.0
 20
-27.399999693
 30
0.0
 11
479.815625884
 21
-27.399999693
 31
0.0
  0
LINE
  5
26A6
330
269C
100
AcDbEntity
  8
0
  6
Continuous
 62
     0
100
AcDbLine
 10
0.0
 20
-54.7999993861
 30
0.0
 11
479.815625884
 21
-54.7999993861
 31
0.0
  0
TEXT
  5
26A7
330
269C
100
AcDbEntity
  8
0
  6
Continuous
 62
     0
100
AcDbText
 10
201.6490629504
 20
-28.7536383341
 30
0.0
 40
19.05
  1
Silenio
 41
0.7
 11
201.6490629504
 21
-28.7536383341
 31
0.0
100
AcDbText
 73
     1
  0
TEXT
  5
26A8
330
269C
100
AcDbEntity
  8
0
  6
Continuous
 62
     0
100
AcDbText
 10
4.7175815191
 20
-53.8000003174
 30
0.0
 40
19.05
  1
Modell
 41
0.7
 11
4.7175815191
 21
-53.8000003174
 31
0.0
100
AcDbText
 73
     1
  0
TEXT
  5
26A9
330
269C
100
AcDbEntity
  8
0
  6
Continuous
 62
     0
100
AcDbText
 10
107.1748341416
 20
-53.8000003174
 30
0.0
 40
19.05
  1
Laenge
 41
0.7
 11
107.1748341416
 21
-53.8000003174
 31
0.0
100
AcDbText
 73
     1
  0
TEXT
  5
26AA
330
269C
100
AcDbEntity
  8
0
  6
Continuous
 62
     0
100
AcDbText
 10
245.3310825733
 20
-53.8000003174
 30
0.0
 40
19.05
  1
Breite
 41
0.7
 11
245.3310825733
 21
-53.8000003174
 31
0.0
100
AcDbText
 73
     1
  0
TEXT
  5
26AB
330
269C
100
AcDbEntity
  8
0
  6
Continuous
 62
     0
100
AcDbText
 10
383.4695587247
 20
-53.8000003174
 30
0.0
 40
19.05
  1
Tiefe
 41
0.7
 11
383.4695587247
 21
-53.8000003174
 31
0.0
100
AcDbText
 73
     1
  0
TEXT
  5
26AC
330
269C
100
AcDbEntity
  8
0
  6
Continuous
 62
     0
100
AcDbText
 10
18.5817504164
 20
-81.5286377202
 30
0.0
 40
19.05
  1
3037
 41
0.7
 11
18.5817504164
 21
-81.5286377202
 31
0.0
100
AcDbText
 73
     1
  0
TEXT
  5
26AD
330
269C
100
AcDbEntity
  8
0
  6
Continuous
 62
     0
100
AcDbText
 10
133.4038655256
 20
-81.5286377202
 30
0.0
 40
19.05
  1
600
 41
0.7
 11
133.4038655256
 21
-81.5286377202
 31
0.0
100
AcDbText
 73
     1
  0
TEXT
  5
26AE
330
269C
100
AcDbEntity
  8
0
  6
Continuous
 62
     0
100
AcDbText
 10
258.6837225465
 20
-81.5286377202
 30
0.0
 40
19.05
  1
460
 41
0.7
 11
258.6837225465
 21
-81.5286377202
 31
0.0
100
AcDbText
 73
     1
  0
TEXT
  5
26AF
330
269C
100
AcDbEntity
  8
0
  6
Continuous
 62
     0
100
AcDbText
 10
390.8073375314
 20
-81.5286377202
 30
0.0
 40
19.05
  1
123
 41
0.7
 11
390.8073375314
 21
-81.5286377202
 31
0.0
100
AcDbText
 73
     1
  0
ENDBLK
  5
26B0
330
269C
100
AcDbEntity
  8
0
100
AcDbBlockEnd
  0
BLOCK
  5
2802
330
2801
100
AcDbEntity
  8
0
100
AcDbBlockBegin
  2
*D55
 70
     1
 10
0.0
 20
0.0
 30
0.0
  3
*D55
  1

  0
LINE
  5
2804
330
2801
100
AcDbEntity
  8
Dim
  6
Continuous
 62
     0
370
    -2
100
AcDbLine
 10
250.1239626874237
 20
1042.598857036606
 30
0.0
 11
223.0229415531609
 21
1042.598857036606
 31
0.0
  0
LINE
  5
2805
330
2801
100
AcDbEntity
  8
Dim
  6
Continuous
 62
     0
370
    -2
100
AcDbLine
 10
255.7565055127495
 20
1056.598857468806
 30
0.0
 11
223.0229415531609
 21
1056.598857468806
 31
0.0
  0
LINE
  5
2806
330
2801
100
AcDbEntity
  8
Dim
  6
Continuous
 62
     0
370
    -2
100
AcDbLine
 10
223.0229415531609
 20
1033.598857036606
 30
0.0
 11
223.0229415531609
 21
1024.598857036606
 31
0.0
  0
LINE
  5
2807
330
2801
100
AcDbEntity
  8
Dim
  6
Continuous
 62
     0
370
    -2
100
AcDbLine
 10
223.0229415531609
 20
1065.598857468806
 30
0.0
 11
223.0229415531609
 21
1074.598857468806
 31
0.0
  0
INSERT
  5
2808
330
2801
100
AcDbEntity
  8
Dim
 62
     0
370
    -2
100
AcDbBlockReference
  2
_DOT
 10
223.0229415531609
 20
1042.598857036606
 30
0.0
 41
9.0
 42
9.0
 43
9.0
 50
90.0
  0
INSERT
  5
2809
330
2801
100
AcDbEntity
  8
Dim
 62
     0
370
    -2
100
AcDbBlockReference
  2
_DOT
 10
223.0229415531609
 20
1056.598857468806
 30
0.0
 41
9.0
 42
9.0
 43
9.0
 50
270.0
  0
MTEXT
  5
280A
330
2801
100
AcDbEntity
  8
Dim
  6
Continuous
 62
     0
100
AcDbMText
 10
200.8066329594109
 20
1049.598857252706
 30
0.0
 40
24.4326171875
 41
0.0
 46
0.0
 71
     5
 72
     1
  1
\A1;14
  7
ＭＳ ゴシック
 11
0.0
 21
1.0
 31
0.0
 73
     1
 44
1.0
  0
POINT
  5
280B
330
2801
100
AcDbEntity
  8
Defpoints
 62
     0
100
AcDbPoint
 10
275.1239626874237
 20
1042.598857036606
 30
0.0
  0
POINT
  5
280C
330
2801
100
AcDbEntity
  8
Defpoints
 62
     0
100
AcDbPoint
 10
280.7565055127495
 20
1056.598857468806
 30
0.0
  0
POINT
  5
280D
330
2801
100
AcDbEntity
  8
Defpoints
 62
     0
100
AcDbPoint
 10
223.0229415531609
 20
1056.598857468806
 30
0.0
  0
ENDBLK
  5
2803
330
2801
100
AcDbEntity
  8
0
100
AcDbBlockEnd
  0
BLOCK
  5
29A5
330
29A4
100
AcDbEntity
  8
0
100
AcDbBlockBegin
  2
*D56
 70
     1
 10
0.0
 20
0.0
 30
0.0
  3
*D56
  1

  0
LINE
  5
29A7
330
29A4
100
AcDbEntity
  8
Dim
  6
Continuous
 62
     0
370
    -2
100
AcDbLine
 10
219.2687828257981
 20
2207.484304195348
 30
0.0
 11
168.4831310122198
 21
2207.484304195348
 31
0.0
  0
LINE
  5
29A8
330
29A4
100
AcDbEntity
  8
Dim
  6
Continuous
 62
     0
370
    -2
100
AcDbLine
 10
234.3700743245291
 20
2312.484304195348
 30
0.0
 11
168.4831310122198
 21
2312.484304195348
 31
0.0
  0
LINE
  5
29A9
330
29A4
100
AcDbEntity
  8
Dim
  6
Continuous
 62
     0
370
    -2
100
AcDbLine
 10
168.4831310122198
 20
2216.484304195348
 30
0.0
 11
168.4831310122198
 21
2303.484304195348
 31
0.0
  0
INSERT
  5
29AA
330
29A4
100
AcDbEntity
  8
Dim
 62
     0
370
    -2
100
AcDbBlockReference
  2
_DOT
 10
168.4831310122198
 20
2207.484304195348
 30
0.0
 41
9.0
 42
9.0
 43
9.0
 50
270.0
  0
INSERT
  5
29AB
330
29A4
100
AcDbEntity
  8
Dim
 62
     0
370
    -2
100
AcDbBlockReference
  2
_DOT
 10
168.4831310122198
 20
2312.484304195348
 30
0.0
 41
9.0
 42
9.0
 43
9.0
 50
90.0
  0
MTEXT
  5
29AC
330
29A4
100
AcDbEntity
  8
Dim
  6
Continuous
 62
     0
100
AcDbMText
 10
146.2668224184698
 20
2259.984304195348
 30
0.0
 40
24.4326171875
 41
0.0
 46
0.0
 71
     5
 72
     1
  1
\A1;105
  7
ＭＳ ゴシック
 11
0.0
 21
1.0
 31
0.0
 73
     1
 44
1.0
  0
POINT
  5
29AD
330
29A4
100
AcDbEntity
  8
Defpoints
 62
     0
100
AcDbPoint
 10
244.2687828257981
 20
2207.484304195348
 30
0.0
  0
POINT
  5
29AE
330
29A4
100
AcDbEntity
  8
Defpoints
 62
     0
100
AcDbPoint
 10
259.3700743245291
 20
2312.484304195348
 30
0.0
  0
POINT
  5
29AF
330
29A4
100
AcDbEntity
  8
Defpoints
 62
     0
100
AcDbPoint
 10
168.4831310122198
 20
2312.484304195348
 30
0.0
  0
ENDBLK
  5
29A6
330
29A4
100
AcDbEntity
  8
0
100
AcDbBlockEnd
  0
ENDSEC
  0
SECTION
  2
ENTITIES
  0
MTEXT
  5
177
330
A
100
AcDbEntity
  8
template
390
1D
100
AcDbMText
 10
82.00000000048226
 20
348.023957835319
 30
0.0
 40
16.28841145833333
 41
0.0
 46
0.0
 71
     1
 72
     1
  1
品名
  7
ＭＳ ゴシック
 73
     1
 44
0.7828267384257843
  0
MTEXT
  5
178
330
A
100
AcDbEntity
  8
template
390
1D
100
AcDbMText
 10
82.00000000048226
 20
263.0239578353188
 30
0.0
 40
16.28841145833333
 41
0.0
 46
0.0
 71
     1
 72
     1
  1
仕様
  7
ＭＳ ゴシック
 73
     1
 44
0.7828267384257843
  0
LINE
  5
179
330
A
100
AcDbEntity
  8
template
390
1D
100
AcDbLine
 10
2025.0
 20
271.4388797103189
 30
0.0
 11
75.00000000000023
 21
271.4388797103189
 31
0.0
  0
LWPOLYLINE
  5
17A
330
A
100
AcDbEntity
  8
template
390
1D
100
AcDbPolyline
 90
        5
 70
   128
 43
0.0
 10
2025.0
 20
2901.438879710319
 10
75.00000000000023
 20
2901.438879710319
 10
75.00000000000023
 20
101.4388797103188
 10
2025.0
 20
101.4388797103188
 10
2025.0
 20
2901.438879710319
  0
LINE
  5
17B
330
A
100
AcDbEntity
  8
template
390
1D
100
AcDbLine
 10
2025.0
 20
356.4388797103188
 30
0.0
 11
75.00000000000023
 21
356.4388797103188
 31
0.0
  0
LINE
  5
17C
330
A
100
AcDbEntity
  8
template
390
1D
100
AcDbLine
 10
2025.000000000482
 20
186.4388797103189
 30
0.0
 11
1272.000000000482
 21
186.4388797103189
 31
0.0
  0
MTEXT
  5
17E
330
A
100
AcDbEntity
  8
template
390
1D
100
AcDbMText
 10
1301.871406252743
 20
156.5284852370108
 30
0.0
 40
24.4326171875
 41
0.0
 46
0.0
 71
     1
 72
     1
  1
大洋金物株式会社 ティーフォルム事業部
  7
ＭＳ ゴシック
 73
     1
 44
0.7828267384257843
  0
MTEXT
  5
180
330
A
100
AcDbEntity
  8
template
390
1D
100
AcDbMText
 10
1834.000000000742
 20
234.4414968978188
 30
0.0
 40
24.4326171875
 41
0.0
 46
0.0
 71
     1
 72
     1
  1
1:10
  7
ＭＳ ゴシック
 73
     1
 44
0.7828267384257843
  0
MTEXT
  5
181
330
A
100
AcDbEntity
  8
template
390
1D
100
AcDbMText
 10
1781.000000000742
 20
263.0239578353188
 30
0.0
 40
16.28841145833333
 41
0.0
 46
0.0
 71
     1
 72
     1
  1
縮尺
  7
ＭＳ ゴシック
 73
     1
 44
0.7828267384257843
  0
LINE
  5
182
330
A
100
AcDbEntity
  8
template
390
1D
100
AcDbLine
 10
1774.000000000742
 20
186.4388797103189
 30
0.0
 11
1774.000000000742
 21
271.4388797103189
 31
0.0
  0
MTEXT
  5
183
330
A
100
AcDbEntity
  8
template
390
1D
100
AcDbMText
 10
1530.000000000742
 20
263.0239578353188
 30
0.0
 40
16.28841145833333
 41
0.0
 46
0.0
 71
     1
 72
     1
  1
容量
  7
ＭＳ ゴシック
 73
     1
 44
0.7828267384257843
  0
LINE
  5
184
330
A
100
AcDbEntity
  8
template
390
1D
100
AcDbLine
 10
1523.000000000742
 20
186.4388797103189
 30
0.0
 11
1523.000000000742
 21
271.4388797103189
 31
0.0
  0
MTEXT
  5
185
330
A
100
AcDbEntity
  8
template
390
1D
100
AcDbMText
 10
1279.000000000742
 20
348.023957835319
 30
0.0
 40
16.28841145833333
 41
0.0
 46
0.0
 71
     1
 72
     1
  1
品番
  7
ＭＳ ゴシック
 73
     1
 44
0.7828267384257843
  0
MTEXT
  5
186
330
A
100
AcDbEntity
  8
template
390
1D
100
AcDbMText
 10
1279.000000000742
 20
263.0239578353188
 30
0.0
 40
16.28841145833333
 41
0.0
 46
0.0
 71
     1
 72
     1
  1
重量
  7
ＭＳ ゴシック
 73
     1
 44
0.7828267384257843
  0
MTEXT
  5
187
330
A
100
AcDbEntity
  8
template
390
1D
100
AcDbMText
 10
1332.000000000742
 20
319.4414968978188
 30
0.0
 40
24.4326171875
 41
0.0
 46
24.4326171875
 71
     1
 72
     1
  1
{FLN70-6907}
  7
ＭＳ ゴシック
 73
     1
 44
0.7828267384257843
1001
ACAD
1000
ACAD_MTEXT_DEFINED_HEIGHT_BEGIN
1070
    46
1040
24.4326171875
1000
ACAD_MTEXT_DEFINED_HEIGHT_END
  0
LINE
  5
188
330
A
100
AcDbEntity
  8
template
390
1D
100
AcDbLine
 10
1272.000000000742
 20
101.4388797103188
 30
0.0
 11
1272.000000000742
 21
356.4388797103188
 31
0.0
  0
MTEXT
  5
189
330
A
100
AcDbEntity
  8
template
390
1D
100
AcDbMText
 10
135.0000000004822
 20
319.4414968978188
 30
0.0
 40
24.4326171875
 41
0.0
 46
27.5355595703125
 71
     1
 72
     1
  1
{洗面器 -KALDEWEI, Silenio-}
  7
ＭＳ ゴシック
 73
     1
 44
0.7828267384257843
1001
ACAD
1000
ACAD_MTEXT_DEFINED_HEIGHT_BEGIN
1070
    46
1040
27.5355595703125
1000
ACAD_MTEXT_DEFINED_HEIGHT_END
  0
MTEXT
  5
18A
330
A
100
AcDbEntity
  8
template
390
1D
100
AcDbMText
 10
135.0000000004822
 20
234.4414968978188
 30
0.0
 40
24.4326171875
 41
0.0
 46
111.236517578125
 71
     1
 72
     1
  1
{オーバーカウンター/オーバーフロー付/型紙、オーバーフロー部品、\P水栓取付用スペーサー付属/\Pホーロー/ホワイト}
  7
ＭＳ ゴシック
 73
     1
 44
0.9822934569727008
1001
ACAD
1000
ACAD_MTEXT_DEFINED_HEIGHT_BEGIN
1070
    46
1040
111.236517578125
1000
ACAD_MTEXT_DEFINED_HEIGHT_END
  0
MTEXT
  5
1A6
330
A
100
AcDbEntity
  8
template
390
1D
100
AcDbMText
 10
1332.000000000742
 20
234.4414968978188
 30
0.0
 40
24.4326171875
 41
0.0
 46
28.390701171875
 71
     1
 72
     1
  1
{7kg}
  7
ＭＳ ゴシック
 73
     1
 44
0.7828267384257843
1001
ACAD
1000
ACAD_MTEXT_DEFINED_HEIGHT_BEGIN
1070
    46
1040
28.390701171875
1000
ACAD_MTEXT_DEFINED_HEIGHT_END
  0
MTEXT
  5
374
330
A
100
AcDbEntity
  8
template
390
1D
100
AcDbMText
 10
1581.992122669024
 20
234.4414968978188
 30
0.0
 40
24.4326171875
 41
0.0
 46
24.4326171875
 71
     1
 72
     1
  1
{4.2L}
  7
ＭＳ ゴシック
 73
     1
 44
0.7828267384257843
1001
ACAD
1000
ACAD_MTEXT_DEFINED_HEIGHT_BEGIN
1070
    46
1040
24.4326171875
1000
ACAD_MTEXT_DEFINED_HEIGHT_END
  0
INSERT
  5
3D0
330
A
100
AcDbEntity
  8
template
100
AcDbBlockReference
  2
名称未設定-1
 10
1873.559250554905
 20
30.23897196054438
 30
0.0
 41
0.7619999999999999
 42
0.7619999999999999
 43
0.7619999999999999
  0
MTEXT
  5
BDB
102
{ACAD_XDICTIONARY
360
BDC
102
}
330
A
100
AcDbEntity
  8
template
  6
Continuous
100
AcDbMText
 10
78.95663872901252
 20
86.10730750352229
 30
0.0
 40
23.0
 41
0.0
 46
23.0
 71
     1
 72
     1
  1
{20180518N}
  7
ＭＳ ゴシック
 73
     1
 44
1.0
1001
ACAD
1000
ACAD_MTEXT_DEFINED_HEIGHT_BEGIN
1070
    46
1040
23.0
1000
ACAD_MTEXT_DEFINED_HEIGHT_END
  0
LWPOLYLINE
  5
BEE
330
A
100
AcDbEntity
  8
PRINT BORDER
100
AcDbPolyline
 90
        4
 70
     1
 43
0.0
 10
0.0
 20
0.0
 10
0.0
 20
2970.0
 10
2100.0
 20
2970.0
 10
2100.0
 20
0.0
  0
INSERT
  5
1273
330
A
100
AcDbEntity
  8
0
 62
     7
100
AcDbBlockReference
  2
BLOCK_2
 10
591.2037060744204
 20
943.564364962162
 30
0.0
  0
INSERT
  5
127B
330
A
100
AcDbEntity
  8
0
 62
     7
100
AcDbBlockReference
  2
BLOCK_2
 10
1291.863324028138
 20
1038.76992320659
 30
0.0
  0
INSERT
  5
127C
330
A
100
AcDbEntity
  8
0
 62
     7
100
AcDbBlockReference
  2
BLOCK_2
 10
652.1648429406905
 20
1595.641631888467
 30
0.0
  0
MTEXT
  5
13DA
330
A
100
AcDbEntity
  8
Dim
390
1D
100
AcDbMText
 10
1406.630815998878
 20
2556.934894408438
 30
34.99521132346015
 40
24.0
 41
0.0
 46
27.413396484375
 71
     1
 72
     1
  1
{カウンター切込寸法}
  7
ＭＳ ゴシック
 73
     1
 44
0.7828267384257843
1001
ACAD
1000
ACAD_MTEXT_DEFINED_HEIGHT_BEGIN
1070
    46
1040
27.413396484375
1000
ACAD_MTEXT_DEFINED_HEIGHT_END
  0
CIRCLE
  5
142C
330
A
100
AcDbEntity
  8
Dim
  6
Continuous
100
AcDbCircle
 10
1366.841726484681
 20
1758.85027442579
 30
0.0
 40
0.0
  0
SPLINE
  5
1CBA
330
A
100
AcDbEntity
  8
MODEL
100
AcDbSpline
210
0.0
220
0.0
230
1.0
 70
     8
 71
     3
 72
     8
 73
     4
 74
     0
 42
0.000000001
 43
0.0000000001
 40
0.0
 40
0.0
 40
0.0
 40
0.0
 40
1.0
 40
1.0
 40
1.0
 40
1.0
 10
866.2634459664241
 20
2308.98336206482
 30
0.0
 10
866.2634459664241
 20
2310.642487934064
 30
0.0
 10
864.9209207583599
 20
2311.985013142128
 30
0.0
 10
863.2635249473733
 20
2311.985013142128
 30
0.0
  0
SPLINE
  5
1CBB
330
A
100
AcDbEntity
  8
MODEL
100
AcDbSpline
210
0.0
220
0.0
230
1.0
 70
     8
 71
     3
 72
     8
 73
     4
 74
     0
 42
0.000000001
 43
0.0000000001
 40
0.0
 40
0.0
 40
0.0
 40
0.0
 40
1.0
 40
1.0
 40
1.0
 40
1.0
 10
863.2635249473733
 20
1851.983283088299
 30
0.0
 10
864.9209207583599
 20
1851.983283088299
 30
0.0
 10
866.2634459664241
 20
1853.325808296363
 30
0.0
 10
866.2634459664241
 20
1854.986664223865
 30
0.0
  0
SPLINE
  5
1CBC
330
A
100
AcDbEntity
  8
MODEL
100
AcDbSpline
210
0.0
220
0.0
230
1.0
 70
     8
 71
     3
 72
     8
 73
     4
 74
     0
 42
0.000000001
 43
0.0000000001
 40
0.0
 40
0.0
 40
0.0
 40
0.0
 40
1.0
 40
1.0
 40
1.0
 40
1.0
 10
266.2688618067473
 20
1854.986664223865
 30
0.0
 10
266.2688618067473
 20
1853.325808296363
 30
0.0
 10
267.6113870148115
 20
1851.983283088299
 30
0.0
 10
269.2687828257981
 20
1851.983283088299
 30
0.0
  0
SPLINE
  5
1CBD
330
A
100
AcDbEntity
  8
MODEL
100
AcDbSpline
210
0.0
220
0.0
230
1.0
 70
     8
 71
     3
 72
     8
 73
     4
 74
     0
 42
0.000000001
 43
0.0000000001
 40
0.0
 40
0.0
 40
0.0
 40
0.0
 40
1.0
 40
1.0
 40
1.0
 40
1.0
 10
269.2687828257981
 20
2311.98328308387
 30
0.0
 10
267.6113870148115
 20
2311.98328308387
 30
0.0
 10
266.2688618067473
 20
2310.640757875806
 30
0.0
 10
266.2688618067473
 20
2308.981632006561
 30
0.0
  0
LINE
  5
1CBE
330
A
100
AcDbEntity
  8
MODEL
100
AcDbLine
 10
866.2634459664241
 20
1854.986664223865
 30
0.0
 11
866.2634459664241
 21
2308.981632006561
 31
0.0
  0
LINE
  5
1CBF
330
A
100
AcDbEntity
  8
MODEL
100
AcDbLine
 10
266.2688618067473
 20
2308.98336206482
 30
0.0
 11
266.2688618067473
 21
1854.986664223865
 31
0.0
  0
LINE
  5
1CC0
330
A
100
AcDbEntity
  8
MODEL
100
AcDbLine
 10
566.2678839448436
 20
2191.135253658999
 30
0.0
 11
568.3820151358932
 21
2191.048750746108
 31
0.0
  0
LINE
  5
1CC1
330
A
100
AcDbEntity
  8
MODEL
100
AcDbLine
 10
572.094720157163
 20
2190.564334433921
 30
0.0
 11
573.7728766672435
 21
2190.197562083264
 31
0.0
  0
LINE
  5
1CC2
330
A
100
AcDbEntity
  8
MODEL
100
AcDbLine
 10
573.7728766672435
 20
2190.197562083264
 30
0.0
 11
575.9423697225429
 21
2189.488238197559
 31
0.0
  0
LINE
  5
1CC3
330
A
100
AcDbEntity
  8
MODEL
100
AcDbLine
 10
575.9423697225429
 20
2189.488238197559
 30
0.0
 11
577.8385135731078
 21
2188.598988253043
 31
0.0
  0
LINE
  5
1CC4
330
A
100
AcDbEntity
  8
MODEL
100
AcDbLine
 10
577.8385135731078
 20
2188.598988253043
 30
0.0
 11
579.4024862381725
 21
2187.557493181838
 31
0.0
  0
LINE
  5
1CC5
330
A
100
AcDbEntity
  8
MODEL
100
AcDbLine
 10
579.4024862381725
 20
2187.557493181838
 30
0.0
 11
580.5962264360646
 21
2186.38451368304
 31
0.0
  0
LINE
  5
1CC6
330
A
100
AcDbEntity
  8
MODEL
100
AcDbLine
 10
580.5962264360646
 20
2186.38451368304
 30
0.0
 11
581.3885931181435
 21
2185.111190805288
 31
0.0
  0
LINE
  5
1CC7
330
A
100
AcDbEntity
  8
MODEL
100
AcDbLine
 10
581.3885931181435
 20
2185.111190805288
 30
0.0
 11
581.741525002738
 21
2183.768665597224
 31
0.0
  0
LINE
  5
1CC8
330
A
100
AcDbEntity
  8
MODEL
100
AcDbLine
 10
581.741525002738
 20
2183.768665597224
 30
0.0
 11
581.6654024393938
 21
2182.394999340519
 31
0.0
  0
LINE
  5
1CC9
330
A
100
AcDbEntity
  8
MODEL
100
AcDbLine
 10
581.6654024393938
 20
2182.394999340519
 30
0.0
 11
581.1429248455338
 21
2181.031713433362
 31
0.0
  0
LINE
  5
1CCA
330
A
100
AcDbEntity
  8
MODEL
100
AcDbLine
 10
581.1429248455338
 20
2181.031713433362
 30
0.0
 11
580.2086933863138
 21
2179.720329273938
 31
0.0
  0
LINE
  5
1CCB
330
A
100
AcDbEntity
  8
MODEL
100
AcDbLine
 10
580.2086933863138
 20
2179.720329273938
 30
0.0
 11
578.8730884112811
 21
2178.495448027405
 31
0.0
  0
LINE
  5
1CCC
330
A
100
AcDbEntity
  8
MODEL
100
AcDbLine
 10
578.8730884112811
 20
2178.495448027405
 30
0.0
 11
577.1810914351381
 21
2177.408971441498
 31
0.0
  0
LINE
  5
1CCD
330
A
100
AcDbEntity
  8
MODEL
100
AcDbLine
 10
577.1810914351381
 20
2177.408971441498
 30
0.0
 11
575.177683972589
 21
2176.474739982277
 31
0.0
  0
LINE
  5
1CCE
330
A
100
AcDbEntity
  8
MODEL
100
AcDbLine
 10
575.177683972589
 20
2176.474739982277
 30
0.0
 11
572.9216880043987
 21
2175.741195280964
 31
0.0
  0
LINE
  5
1CCF
330
A
100
AcDbEntity
  8
MODEL
100
AcDbLine
 10
572.9216880043987
 20
2175.741195280964
 30
0.0
 11
570.4788457443642
 21
2175.229098036651
 31
0.0
  0
LINE
  5
1CD0
330
A
100
AcDbEntity
  8
MODEL
100
AcDbLine
 10
570.4788457443642
 20
2175.229098036651
 30
0.0
 11
570.2435578213017
 21
2175.201417104526
 31
0.0
  0
LINE
  5
1CD1
330
A
100
AcDbEntity
  8
MODEL
100
AcDbLine
 10
568.3785550193775
 20
2174.997270230104
 30
0.0
 11
567.9114392897677
 21
2174.945368482369
 31
0.0
  0
LINE
  5
1CD2
330
A
100
AcDbEntity
  8
MODEL
100
AcDbLine
 10
567.9114392897677
 20
2174.945368482369
 30
0.0
 11
566.2678839448436
 21
2174.896926851151
 31
0.0
  0
LINE
  5
1CD3
330
A
100
AcDbEntity
  8
MODEL
100
AcDbLine
 10
566.2678839448436
 20
2191.135253658999
 30
0.0
 11
564.1502926372787
 21
2191.048750746108
 31
0.0
  0
LINE
  5
1CD4
330
A
100
AcDbEntity
  8
MODEL
100
AcDbLine
 10
560.4375876160084
 20
2190.564334433921
 30
0.0
 11
558.7594311059279
 21
2190.197562083264
 31
0.0
  0
LINE
  5
1CD5
330
A
100
AcDbEntity
  8
MODEL
100
AcDbLine
 10
558.7594311059279
 20
2190.197562083264
 30
0.0
 11
556.5899380506285
 21
2189.488238197559
 31
0.0
  0
LINE
  5
1CD6
330
A
100
AcDbEntity
  8
MODEL
100
AcDbLine
 10
556.5899380506285
 20
2189.488238197559
 30
0.0
 11
554.6937942000636
 21
2188.598988253043
 31
0.0
  0
LINE
  5
1CD7
330
A
100
AcDbEntity
  8
MODEL
100
AcDbLine
 10
554.6937942000636
 20
2188.598988253043
 30
0.0
 11
553.1298215349989
 21
2187.557493181838
 31
0.0
  0
LINE
  5
1CD8
330
A
100
AcDbEntity
  8
MODEL
100
AcDbLine
 10
553.1298215349989
 20
2187.557493181838
 30
0.0
 11
551.9360813371068
 21
2186.38451368304
 31
0.0
  0
LINE
  5
1CD9
330
A
100
AcDbEntity
  8
MODEL
100
AcDbLine
 10
551.9360813371068
 20
2186.38451368304
 30
0.0
 11
551.1437146550279
 21
2185.111190805288
 31
0.0
  0
LINE
  5
1CDA
330
A
100
AcDbEntity
  8
MODEL
100
AcDbLine
 10
551.1437146550279
 20
2185.111190805288
 30
0.0
 11
550.7907827704335
 21
2183.768665597224
 31
0.0
  0
LINE
  5
1CDB
330
A
100
AcDbEntity
  8
MODEL
100
AcDbLine
 10
550.7907827704335
 20
2183.768665597224
 30
0.0
 11
550.8669053337776
 21
2182.394999340519
 31
0.0
  0
LINE
  5
1CDC
330
A
100
AcDbEntity
  8
MODEL
100
AcDbLine
 10
550.8669053337776
 20
2182.394999340519
 30
0.0
 11
551.3893829276376
 21
2181.031713433362
 31
0.0
  0
LINE
  5
1CDD
330
A
100
AcDbEntity
  8
MODEL
100
AcDbLine
 10
551.3893829276376
 20
2181.031713433362
 30
0.0
 11
552.3236143868576
 21
2179.720329273938
 31
0.0
  0
LINE
  5
1CDE
330
A
100
AcDbEntity
  8
MODEL
100
AcDbLine
 10
552.3236143868576
 20
2179.720329273938
 30
0.0
 11
553.6592193618903
 21
2178.495448027405
 31
0.0
  0
LINE
  5
1CDF
330
A
100
AcDbEntity
  8
MODEL
100
AcDbLine
 10
553.6592193618903
 20
2178.495448027405
 30
0.0
 11
555.3512163380333
 21
2177.408971441498
 31
0.0
  0
LINE
  5
1CE0
330
A
100
AcDbEntity
  8
MODEL
100
AcDbLine
 10
555.3512163380333
 20
2177.408971441498
 30
0.0
 11
557.3546238005824
 21
2176.474739982277
 31
0.0
  0
LINE
  5
1CE1
330
A
100
AcDbEntity
  8
MODEL
100
AcDbLine
 10
557.3546238005824
 20
2176.474739982277
 30
0.0
 11
559.6106197687727
 21
2175.741195280964
 31
0.0
  0
LINE
  5
1CE2
330
A
100
AcDbEntity
  8
MODEL
100
AcDbLine
 10
559.6106197687727
 20
2175.741195280964
 30
0.0
 11
562.0534620288072
 21
2175.229098036651
 31
0.0
  0
LINE
  5
1CE3
330
A
100
AcDbEntity
  8
MODEL
100
AcDbLine
 10
562.0534620288072
 20
2175.229098036651
 30
0.0
 11
562.2887499518702
 21
2175.201417104526
 31
0.0
  0
LINE
  5
1CE4
330
A
100
AcDbEntity
  8
MODEL
100
AcDbLine
 10
564.1537527537944
 20
2174.997270230104
 30
0.0
 11
564.6208684834041
 21
2174.945368482369
 31
0.0
  0
LINE
  5
1CE5
330
A
100
AcDbEntity
  8
MODEL
100
AcDbLine
 10
564.6208684834041
 20
2174.945368482369
 30
0.0
 11
566.2644238283283
 21
2174.896926851151
 31
0.0
  0
LINE
  5
1CE6
330
A
100
AcDbEntity
  8
MODEL
100
AcDbLine
 10
863.2635249473733
 20
2311.98328308387
 30
0.0
 11
269.2687828257981
 21
2311.98328308387
 31
0.0
  0
LINE
  5
1CE7
330
A
100
AcDbEntity
  8
MODEL
100
AcDbLine
 10
269.2687828257981
 20
1851.983283088299
 30
0.0
 11
863.2635249473733
 21
1851.983283088299
 31
0.0
  0
SPLINE
  5
1CE8
330
A
100
AcDbEntity
  8
MODEL
100
AcDbSpline
210
0.0
220
0.0
230
1.0
 70
    11
 71
     3
 72
    17
 73
    13
 74
     0
 42
0.000000001
 43
0.0000000001
 40
0.0
 40
0.0
 40
0.0
 40
0.0
 40
1.0
 40
1.0
 40
1.0
 40
2.0
 40
2.0
 40
2.0
 40
3.0
 40
3.0
 40
3.0
 40
4.0
 40
4.0
 40
4.0
 40
4.0
 10
548.7666146087904
 20
2252.484849539365
 30
0.0
 10
548.7666146087904
 20
2262.148954967518
 30
0.0
 10
556.6003184001752
 20
2269.982658758903
 30
0.0
 10
566.2678839448436
 20
2269.982658758903
 30
0.0
 10
575.9319893729962
 20
2269.982658758903
 30
0.0
 10
583.765693164381
 20
2262.148954967518
 30
0.0
 10
583.765693164381
 20
2252.484849539365
 30
0.0
 10
583.765693164381
 20
2242.817283994697
 30
0.0
 10
575.9319893729962
 20
2234.98531026157
 30
0.0
 10
566.2678839448436
 20
2234.98531026157
 30
0.0
 10
556.6003184001752
 20
2234.98531026157
 30
0.0
 10
548.7666146087904
 20
2242.817283994697
 30
0.0
 10
548.7666146087904
 20
2252.484849539365
 30
0.0
  0
SPLINE
  5
1CEB
330
A
100
AcDbEntity
  8
MODEL
100
AcDbSpline
210
0.0
220
0.0
230
1.0
 70
     8
 71
     3
 72
    11
 73
     7
 74
     0
 42
0.000000001
 43
0.0000000001
 40
0.0
 40
0.0
 40
0.0
 40
0.0
 40
1.0
 40
1.0
 40
1.0
 40
2.0
 40
2.0
 40
2.0
 40
2.0
 10
546.081564192662
 20
2027.528834392238
 30
0.0
 10
552.1713692601697
 20
2016.387259211912
 30
0.0
 10
566.1467798667968
 20
2012.283561024375
 30
0.0
 10
577.2952752801539
 20
2018.373366091883
 30
0.0
 10
588.4403105769961
 20
2024.463171159391
 30
0.0
 10
592.5405486480172
 20
2038.435121649502
 30
0.0
 10
586.4507435805094
 20
2049.58361706286
 30
0.0
  0
SPLINE
  5
1CEC
330
A
100
AcDbEntity
  8
MODEL
100
AcDbSpline
210
0.0
220
0.0
230
1.0
 70
     8
 71
     3
 72
    11
 73
     7
 74
     0
 42
0.000000001
 43
0.0000000001
 40
0.0
 40
0.0
 40
0.0
 40
0.0
 40
1.0
 40
1.0
 40
1.0
 40
2.0
 40
2.0
 40
2.0
 40
2.0
 10
586.4507435805094
 20
2049.58361706286
 30
0.0
 10
580.3609385130017
 20
2060.732112476217
 30
0.0
 10
566.385527906375
 20
2064.828890430723
 30
0.0
 10
555.2404926095328
 20
2058.746005596247
 30
0.0
 10
544.0919971961753
 20
2052.656200528739
 30
0.0
 10
539.9917591251542
 20
2038.677329805596
 30
0.0
 10
546.0850243091777
 20
2027.528834392238
 30
0.0
  0
LINE
  5
1CED
330
A
100
AcDbEntity
  8
MODEL
100
AcDbLine
 10
863.2635249473733
 20
2207.484304195348
 30
0.0
 11
863.2635249473733
 21
2195.982876897396
 31
0.0
  0
LINE
  5
1CEE
330
A
100
AcDbEntity
  8
MODEL
100
AcDbLine
 10
566.2678839448436
 20
2195.982876897396
 30
0.0
 11
615.7648507009212
 21
2195.982876897396
 31
0.0
  0
LINE
  5
1CEF
330
A
100
AcDbEntity
  8
MODEL
100
AcDbLine
 10
615.7648507009212
 20
2195.982876897396
 30
0.0
 11
665.2652775735146
 21
2195.982876897396
 31
0.0
  0
LINE
  5
1CF0
330
A
100
AcDbEntity
  8
MODEL
100
AcDbLine
 10
665.2652775735146
 20
2195.982876897396
 30
0.0
 11
714.7622443295927
 21
2195.982876897396
 31
0.0
  0
LINE
  5
1CF1
330
A
100
AcDbEntity
  8
MODEL
100
AcDbLine
 10
714.7622443295927
 20
2195.982876897396
 30
0.0
 11
744.4673446162706
 21
2195.982876897396
 31
0.0
  0
LINE
  5
1CF2
330
A
100
AcDbEntity
  8
MODEL
100
AcDbLine
 10
744.4673446162706
 20
2195.982876897396
 30
0.0
 11
774.1655246699174
 21
2195.982876897396
 31
0.0
  0
LINE
  5
1CF3
330
A
100
AcDbEntity
  8
MODEL
100
AcDbLine
 10
774.1655246699174
 20
2195.982876897396
 30
0.0
 11
803.8637047235643
 21
2195.982876897396
 31
0.0
  0
LINE
  5
1CF4
330
A
100
AcDbEntity
  8
MODEL
100
AcDbLine
 10
803.8637047235643
 20
2195.982876897396
 30
0.0
 11
833.5653448937264
 21
2195.982876897396
 31
0.0
  0
LINE
  5
1CF5
330
A
100
AcDbEntity
  8
MODEL
100
AcDbLine
 10
833.5653448937264
 20
2195.982876897396
 30
0.0
 11
863.2635249473733
 21
2195.982876897396
 31
0.0
  0
LINE
  5
1CF6
330
A
100
AcDbEntity
  8
MODEL
100
AcDbLine
 10
566.2678839448436
 20
2195.982876897396
 30
0.0
 11
516.7674570722502
 21
2195.982876897396
 31
0.0
  0
LINE
  5
1CF7
330
A
100
AcDbEntity
  8
MODEL
100
AcDbLine
 10
516.7674570722502
 20
2195.982876897396
 30
0.0
 11
467.2670301996568
 21
2195.982876897396
 31
0.0
  0
LINE
  5
1CF8
330
A
100
AcDbEntity
  8
MODEL
100
AcDbLine
 10
467.2670301996568
 20
2195.982876897396
 30
0.0
 11
417.7666033270629
 21
2195.982876897396
 31
0.0
  0
LINE
  5
1CF9
330
A
100
AcDbEntity
  8
MODEL
100
AcDbLine
 10
417.7666033270629
 20
2195.982876897396
 30
0.0
 11
388.0649631569008
 21
2195.982876897396
 31
0.0
  0
LINE
  5
1CFA
330
A
100
AcDbEntity
  8
MODEL
100
AcDbLine
 10
388.0649631569008
 20
2195.982876897396
 30
0.0
 11
358.3667831032539
 21
2195.982876897396
 31
0.0
  0
LINE
  5
1CFB
330
A
100
AcDbEntity
  8
MODEL
100
AcDbLine
 10
358.3667831032539
 20
2195.982876897396
 30
0.0
 11
328.6686030496071
 21
2195.982876897396
 31
0.0
  0
LINE
  5
1CFC
330
A
100
AcDbEntity
  8
MODEL
100
AcDbLine
 10
328.6686030496071
 20
2195.982876897396
 30
0.0
 11
298.9669628794449
 21
2195.982876897396
 31
0.0
  0
LINE
  5
1CFD
330
A
100
AcDbEntity
  8
MODEL
100
AcDbLine
 10
298.9669628794449
 20
2195.982876897396
 30
0.0
 11
269.2687828257981
 21
2195.982876897396
 31
0.0
  0
LINE
  5
1CFE
330
A
100
AcDbEntity
  8
MODEL
100
AcDbLine
 10
269.2687828257981
 20
2195.982876897396
 30
0.0
 11
269.2687828257981
 21
2207.484304195348
 31
0.0
  0
LINE
  5
1CFF
330
A
100
AcDbEntity
  8
MODEL
100
AcDbLine
 10
269.2687828257981
 20
2207.484304195348
 30
0.0
 11
863.2635249473733
 21
2207.484304195348
 31
0.0
  0
LINE
  5
1D00
330
A
100
AcDbEntity
  8
MODEL
100
AcDbLine
 10
863.2635249473733
 20
2308.98336206482
 30
0.0
 11
863.2635249473733
 21
2207.484304195348
 31
0.0
  0
LINE
  5
1D01
330
A
100
AcDbEntity
  8
MODEL
100
AcDbLine
 10
863.2635249473733
 20
2038.559685844065
 30
0.0
 11
863.2635249473733
 21
1854.986664223865
 31
0.0
  0
LINE
  5
1D02
330
A
100
AcDbEntity
  8
MODEL
100
AcDbLine
 10
863.2635249473733
 20
2195.982876897396
 30
0.0
 11
863.2635249473733
 21
2038.559685844065
 31
0.0
  0
LINE
  5
1D03
330
A
100
AcDbEntity
  8
MODEL
100
AcDbLine
 10
269.2687828257981
 20
2195.982876897396
 30
0.0
 11
269.2687828257981
 21
2038.559685844065
 31
0.0
  0
LINE
  5
1D04
330
A
100
AcDbEntity
  8
MODEL
100
AcDbLine
 10
269.2687828257981
 20
2038.559685844065
 30
0.0
 11
269.2687828257981
 21
1854.986664223865
 31
0.0
  0
LINE
  5
1D05
330
A
100
AcDbEntity
  8
MODEL
100
AcDbLine
 10
269.2687828257981
 20
2207.484304195348
 30
0.0
 11
269.2687828257981
 21
2308.981632006561
 31
0.0
  0
SPLINE
  5
1D06
330
A
100
AcDbEntity
  8
MODEL
100
AcDbSpline
210
0.0
220
0.0
230
1.0
 70
     8
 71
     3
 72
    11
 73
     7
 74
     0
 42
0.000000001
 43
0.0000000001
 40
0.0
 40
0.0
 40
0.0
 40
0.0
 40
1.0
 40
1.0
 40
1.0
 40
2.0
 40
2.0
 40
2.0
 40
2.0
 10
566.2678839448436
 20
2002.615995479707
 30
0.0
 10
586.1462533271338
 20
2002.546793149395
 30
0.0
 10
602.3222980377013
 20
2018.601733781915
 30
0.0
 10
602.391500368014
 20
2038.483563280721
 30
0.0
 10
602.391500368014
 20
2038.483563280721
 30
0.0
 10
602.391500368014
 20
2038.559685844065
 30
0.0
 10
602.391500368014
 20
2038.559685844065
 30
0.0
  0
LINE
  5
1D07
102
{ACAD_REACTORS
330
1EF0
102
}
330
A
100
AcDbEntity
  8
MODEL
100
AcDbLine
 10
863.2635249473733
 20
1854.986664223865
 30
0.0
 11
566.2644238283283
 21
1854.986664223865
 31
0.0
  0
SPLINE
  5
1D08
330
A
100
AcDbEntity
  8
MODEL
100
AcDbSpline
210
0.0
220
0.0
230
1.0
 70
     8
 71
     3
 72
     8
 73
     4
 74
     0
 42
0.000000001
 43
0.0000000001
 40
0.0
 40
0.0
 40
0.0
 40
0.0
 40
1.0
 40
1.0
 40
1.0
 40
1.0
 10
602.391500368014
 20
2038.559685844065
 30
0.0
 10
602.3880402514983
 20
2044.601049280353
 30
0.0
 10
600.8725092176524
 20
2050.538609221174
 30
0.0
 10
597.9763916940706
 20
2055.839507723118
 30
0.0
  0
SPLINE
  5
1D09
330
A
100
AcDbEntity
  8
MODEL
100
AcDbSpline
210
0.0
220
0.0
230
1.0
 70
     8
 71
     3
 72
     8
 73
     4
 74
     0
 42
0.000000001
 43
0.0000000001
 40
0.0
 40
0.0
 40
0.0
 40
0.0
 40
1.0
 40
1.0
 40
1.0
 40
1.0
 10
597.9763916940706
 20
2055.839507723118
 30
0.0
 10
591.6512987035003
 20
2067.444738516539
 30
0.0
 10
579.4820689180319
 20
2074.662541568142
 30
0.0
 10
566.2678839448436
 20
2074.648701102079
 30
0.0
  0
LINE
  5
1D0A
102
{ACAD_REACTORS
330
1EF0
102
}
330
A
100
AcDbEntity
  8
MODEL
100
AcDbLine
 10
269.2687828257981
 20
1854.986664223865
 30
0.0
 11
566.2678839448436
 21
1854.986664223865
 31
0.0
  0
SPLINE
  5
1D0B
330
A
100
AcDbEntity
  8
MODEL
100
AcDbSpline
210
0.0
220
0.0
230
1.0
 70
     8
 71
     3
 72
     8
 73
     4
 74
     0
 42
0.000000001
 43
0.0000000001
 40
0.0
 40
0.0
 40
0.0
 40
0.0
 40
1.0
 40
1.0
 40
1.0
 40
1.0
 10
530.1408074051578
 20
2038.559685844065
 30
0.0
 10
530.1408074051578
 20
2032.511402174745
 30
0.0
 10
531.6770991380972
 20
2026.560001767862
 30
0.0
 10
534.5905172442572
 20
2021.259103265918
 30
0.0
  0
SPLINE
  5
1D0C
330
A
100
AcDbEntity
  8
MODEL
100
AcDbSpline
210
0.0
220
0.0
230
1.0
 70
     8
 71
     3
 72
     8
 73
     4
 74
     0
 42
0.000000001
 43
0.0000000001
 40
0.0
 40
0.0
 40
0.0
 40
0.0
 40
1.0
 40
1.0
 40
1.0
 40
1.0
 10
534.5939773607724
 20
2021.259103265918
 30
0.0
 10
540.9571316330148
 20
2009.729995035841
 30
0.0
 10
553.095220369843
 20
2002.588314547582
 30
0.0
 10
566.2644238283283
 20
2002.615995479707
 30
0.0
  0
SPLINE
  5
1D0D
330
A
100
AcDbEntity
  8
MODEL
100
AcDbSpline
210
0.0
220
0.0
230
1.0
 70
     8
 71
     3
 72
    11
 73
     7
 74
     0
 42
0.000000001
 43
0.0000000001
 40
0.0
 40
0.0
 40
0.0
 40
0.0
 40
1.0
 40
1.0
 40
1.0
 40
2.0
 40
2.0
 40
2.0
 40
2.0
 10
566.2678839448436
 20
2074.641780869048
 30
0.0
 10
546.3341526983031
 20
2074.662541568142
 30
0.0
 10
530.158107987736
 20
2058.517637906215
 30
0.0
 10
530.1408074051578
 20
2038.580446543158
 30
0.0
 10
530.1408074051578
 20
2038.580446543158
 30
0.0
 10
530.1408074051578
 20
2038.559685844065
 30
0.0
 10
530.1408074051578
 20
2038.559685844065
 30
0.0
  0
LINE
  5
1D0E
330
A
100
AcDbEntity
  8
MODEL
100
AcDbLine
 10
863.2635249473733
 20
2308.98336206482
 30
0.0
 11
269.2687828257981
 21
2308.98336206482
 31
0.0
  0
SPLINE
  5
1D8F
330
A
100
AcDbEntity
  8
MODEL
100
AcDbSpline
210
0.0
220
0.0
230
1.0
 70
     8
 71
     3
 72
     8
 73
     4
 74
     0
 42
0.000000001
 43
0.0000000001
 40
0.0
 40
0.0
 40
0.0
 40
0.0
 40
1.0
 40
1.0
 40
1.0
 40
1.0
 10
1816.045857422891
 20
1045.610888463461
 30
0.0
 10
1816.035477073344
 20
1043.972523293312
 30
0.0
 10
1814.727553030436
 20
1042.636918318279
 30
0.0
 10
1813.087457802028
 20
1042.598857036606
 30
0.0
  0
SPLINE
  5
1D90
330
A
100
AcDbEntity
  8
MODEL
100
AcDbSpline
210
0.0
220
0.0
230
1.0
 70
     8
 71
     3
 72
     8
 73
     4
 74
     0
 42
0.000000001
 43
0.0000000001
 40
0.0
 40
0.0
 40
0.0
 40
0.0
 40
1.0
 40
1.0
 40
1.0
 40
1.0
 10
1356.999119527376
 20
1042.598857036606
 30
0.0
 10
1355.362484415483
 20
1042.638648376536
 30
0.0
 10
1354.054560372575
 20
1043.974253351569
 30
0.0
 10
1354.040719906513
 20
1045.610888463461
 30
0.0
  0
SPLINE
  5
1D91
330
A
100
AcDbEntity
  8
MODEL
100
AcDbSpline
210
0.0
220
0.0
230
1.0
 70
     8
 71
     3
 72
     8
 73
     4
 74
     0
 42
0.000000001
 43
0.0000000001
 40
0.0
 40
0.0
 40
0.0
 40
0.0
 40
1.0
 40
1.0
 40
1.0
 40
1.0
 10
1354.096081770763
 20
1053.585095983693
 30
0.0
 10
1354.10646212031
 20
1055.221731095586
 30
0.0
 10
1355.414386163218
 20
1056.557336070619
 30
0.0
 10
1357.054481391626
 20
1056.597127410548
 30
0.0
  0
SPLINE
  5
1D92
330
A
100
AcDbEntity
  8
MODEL
100
AcDbSpline
210
0.0
220
0.0
230
1.0
 70
     8
 71
     3
 72
     8
 73
     4
 74
     0
 42
0.000000001
 43
0.0000000001
 40
0.0
 40
0.0
 40
0.0
 40
0.0
 40
1.0
 40
1.0
 40
1.0
 40
1.0
 10
1813.032095937778
 20
1056.597127410548
 30
0.0
 10
1814.66873104967
 20
1056.555606012361
 30
0.0
 10
1815.980115209094
 20
1055.223461153843
 30
0.0
 10
1816.045857422891
 20
1053.585095983693
 30
0.0
  0
LINE
  5
1D95
330
A
100
AcDbEntity
  8
MODEL
100
AcDbLine
 10
1575.20444735251
 20
943.0585941249453
 30
0.0
 11
1569.550616965971
 21
935.5190002373884
 31
0.0
  0
LINE
  5
1D96
330
A
100
AcDbEntity
  8
MODEL
100
AcDbLine
 10
1513.306423004417
 20
935.5172701791303
 30
0.0
 11
1507.849819259269
 21
942.7921651532413
 31
0.0
  0
SPLINE
  5
1D97
330
A
100
AcDbEntity
  8
MODEL
100
AcDbSpline
210
0.0
220
0.0
230
1.0
 70
     8
 71
     3
 72
     8
 73
     4
 74
     0
 42
0.000000001
 43
0.0000000001
 40
0.0
 40
0.0
 40
0.0
 40
0.0
 40
1.0
 40
1.0
 40
1.0
 40
1.0
 10
1569.550616965971
 20
935.5172701791303
 30
0.0
 10
1568.557563525986
 20
934.2318368935744
 30
0.0
 10
1567.014351560015
 20
933.4879118427134
 30
0.0
 10
1565.391556914186
 20
933.5086725418084
 30
0.0
  0
SPLINE
  5
1D98
330
A
100
AcDbEntity
  8
MODEL
100
AcDbSpline
210
0.0
220
0.0
230
1.0
 70
     8
 71
     3
 72
     8
 73
     4
 74
     0
 42
0.000000001
 43
0.0000000001
 40
0.0
 40
0.0
 40
0.0
 40
0.0
 40
1.0
 40
1.0
 40
1.0
 40
1.0
 10
1517.462022939687
 20
933.5086725418084
 30
0.0
 10
1515.839228293857
 20
933.4879118427134
 30
0.0
 10
1514.296016327887
 20
934.2318368935744
 30
0.0
 10
1513.306423004417
 20
935.5172701791303
 30
0.0
  0
LINE
  5
1D99
330
A
100
AcDbEntity
  8
MODEL
100
AcDbLine
 10
1816.045857422891
 20
1045.610888463461
 30
0.0
 11
1816.045857422891
 21
1053.585095983693
 31
0.0
  0
LINE
  5
1D9A
330
A
100
AcDbEntity
  8
MODEL
100
AcDbLine
 10
1699.540274225135
 20
1056.598857468806
 30
0.0
 11
1541.426789926936
 21
1056.598857468806
 31
0.0
  0
LINE
  5
1D9B
330
A
100
AcDbEntity
  8
MODEL
100
AcDbLine
 10
1541.426789926936
 20
1056.598857468806
 30
0.0
 11
1357.051021275111
 21
1056.598857468806
 31
0.0
  0
LINE
  5
1D9C
330
A
100
AcDbEntity
  8
MODEL
100
AcDbLine
 10
1711.090143154305
 20
1056.598857468806
 30
0.0
 11
1813.032095937778
 21
1056.598857468806
 31
0.0
  0
LINE
  5
1D9D
330
A
100
AcDbEntity
  8
MODEL
100
AcDbLine
 10
1699.540274225135
 20
1056.598857468806
 30
0.0
 11
1711.090143154305
 21
1056.598857468806
 31
0.0
  0
LINE
  5
1D9E
330
A
100
AcDbEntity
  8
MODEL
100
AcDbLine
 10
1813.032095937778
 20
1042.598857036606
 30
0.0
 11
1357.051021275111
 21
1042.598857036606
 31
0.0
  0
LINE
  5
1D9F
330
A
100
AcDbEntity
  8
MODEL
100
AcDbLine
 10
1354.040719906513
 20
1053.585095983693
 30
0.0
 11
1354.040719906513
 21
1045.610888463461
 31
0.0
  0
LINE
  5
1DA0
330
A
100
AcDbEntity
  8
MODEL
100
AcDbLine
 10
1385.435404637581
 20
1042.598857036606
 30
0.0
 11
1406.27809894297
 21
1014.148417996808
 31
0.0
  0
LINE
  5
1DA1
330
A
100
AcDbEntity
  8
MODEL
100
AcDbLine
 10
1406.27809894297
 20
1014.148417996808
 30
0.0
 11
1412.08071433968
 21
1005.9998436025
 31
0.0
  0
LINE
  5
1DA2
330
A
100
AcDbEntity
  8
MODEL
100
AcDbLine
 10
1412.08071433968
 20
1005.9998436025
 30
0.0
 11
1418.464629311016
 21
997.5917604695214
 31
0.0
  0
LINE
  5
1DA3
330
A
100
AcDbEntity
  8
MODEL
100
AcDbLine
 10
1418.464629311016
 20
997.5917604695214
 30
0.0
 11
1425.049231040259
 21
989.6300323670584
 31
0.0
  0
LINE
  5
1DA4
330
A
100
AcDbEntity
  8
MODEL
100
AcDbLine
 10
1425.049231040259
 20
989.6300323670584
 30
0.0
 11
1432.225512693674
 21
981.8257395660564
 31
0.0
  0
LINE
  5
1DA5
330
A
100
AcDbEntity
  8
MODEL
100
AcDbLine
 10
1432.225512693674
 20
981.8257395660564
 30
0.0
 11
1440.028075436418
 21
974.3622682418434
 31
0.0
  0
LINE
  5
1DA6
330
A
100
AcDbEntity
  8
MODEL
100
AcDbLine
 10
1440.028075436418
 20
974.3622682418434
 30
0.0
 11
1448.546882297898
 21
967.4039739289133
 31
0.0
  0
LINE
  5
1DA7
330
A
100
AcDbEntity
  8
MODEL
100
AcDbLine
 10
1448.546882297898
 20
967.4039739289133
 30
0.0
 11
1457.968779569957
 21
961.0615803557644
 31
0.0
  0
LINE
  5
1DA8
330
A
100
AcDbEntity
  8
MODEL
100
AcDbLine
 10
1457.968779569957
 20
961.0615803557644
 30
0.0
 11
1465.812863710888
 21
956.7329745947125
 31
0.0
  0
LINE
  5
1DA9
330
A
100
AcDbEntity
  8
MODEL
100
AcDbLine
 10
1465.812863710888
 20
956.7329745947125
 30
0.0
 11
1474.362811621008
 21
952.8697545050125
 31
0.0
  0
LINE
  5
1DAA
330
A
100
AcDbEntity
  8
MODEL
100
AcDbLine
 10
1474.362811621008
 20
952.8697545050125
 30
0.0
 11
1483.687825630629
 21
949.5117114265934
 31
0.0
  0
LINE
  5
1DAB
330
A
100
AcDbEntity
  8
MODEL
100
AcDbLine
 10
1483.687825630629
 20
949.5117114265934
 30
0.0
 11
1493.874408652642
 21
946.7055569324184
 31
0.0
  0
LINE
  5
1DAC
330
A
100
AcDbEntity
  8
MODEL
100
AcDbLine
 10
1493.874408652642
 20
946.7055569324184
 30
0.0
 11
1505.005603483422
 21
944.4876222458993
 31
0.0
  0
LINE
  5
1DAD
330
A
100
AcDbEntity
  8
MODEL
100
AcDbLine
 10
1578.020982196233
 20
944.7817321497284
 30
0.0
 11
1590.446260603857
 21
947.4598623328254
 31
0.0
  0
LINE
  5
1DAE
330
A
100
AcDbEntity
  8
MODEL
100
AcDbLine
 10
1590.446260603857
 20
947.4598623328254
 30
0.0
 11
1602.473625612185
 21
951.0670338003683
 31
0.0
  0
LINE
  5
1DAF
330
A
100
AcDbEntity
  8
MODEL
100
AcDbLine
 10
1602.473625612185
 20
951.0670338003683
 30
0.0
 11
1614.092696871669
 21
955.6516881835785
 31
0.0
  0
LINE
  5
1DB0
330
A
100
AcDbEntity
  8
MODEL
100
AcDbLine
 10
1614.092696871669
 20
955.6516881835785
 30
0.0
 11
1625.31731484837
 21
961.2570769388974
 31
0.0
  0
LINE
  5
1DB1
330
A
100
AcDbEntity
  8
MODEL
100
AcDbLine
 10
1625.31731484837
 20
961.2570769388974
 30
0.0
 11
1636.150939658806
 21
967.9351018140624
 31
0.0
  0
LINE
  5
1DB2
330
A
100
AcDbEntity
  8
MODEL
100
AcDbLine
 10
1636.150939658806
 20
967.9351018140624
 30
0.0
 11
1646.586651069944
 21
975.7342044402903
 31
0.0
  0
LINE
  5
1DB3
330
A
100
AcDbEntity
  8
MODEL
100
AcDbLine
 10
1646.586651069944
 20
975.7342044402903
 30
0.0
 11
1656.641749664362
 21
984.6872559244814
 31
0.0
  0
LINE
  5
1DB4
330
A
100
AcDbEntity
  8
MODEL
100
AcDbLine
 10
1656.641749664362
 20
984.6872559244814
 30
0.0
 11
1675.606648286526
 21
1006.26108239943
 31
0.0
  0
LINE
  5
1DB6
330
A
100
AcDbEntity
  8
MODEL
100
AcDbLine
 10
1675.606648286526
 20
1006.26108239943
 30
0.0
 11
1680.073658708204
 21
1012.394138923383
 31
0.0
  0
SPLINE
  5
1DB8
330
A
100
AcDbEntity
  8
MODEL
100
AcDbSpline
210
0.0
220
0.0
230
1.0
 70
     8
 71
     3
 72
     8
 73
     4
 74
     0
 42
0.000000001
 43
0.0000000001
 40
0.0
 40
0.0
 40
0.0
 40
0.0
 40
1.0
 40
1.0
 40
1.0
 40
1.0
 10
1575.190606886448
 20
943.0412935423674
 30
0.0
 10
1575.879170073057
 20
943.9599544772664
 30
0.0
 10
1576.892984212137
 20
944.5793153335644
 30
0.0
 10
1578.020982196233
 20
944.7817321497284
 30
0.0
  0
SPLINE
  5
1DB9
330
A
100
AcDbEntity
  8
MODEL
100
AcDbSpline
210
0.0
220
0.0
230
1.0
 70
     8
 71
     3
 72
     8
 73
     4
 74
     0
 42
0.000000001
 43
0.0000000001
 40
0.0
 40
0.0
 40
0.0
 40
0.0
 40
1.0
 40
1.0
 40
1.0
 40
1.0
 10
1505.002143366906
 20
944.4876222458993
 30
0.0
 10
1506.154362166611
 20
944.3007759540553
 30
0.0
 10
1507.188937004784
 20
943.6727648064693
 30
0.0
 10
1507.887880540941
 20
942.7419934637653
 30
0.0
  0
LINE
  5
1DBA
330
A
100
AcDbEntity
  8
MODEL
100
AcDbLine
 10
1565.391556914186
 20
933.5086725418084
 30
0.0
 11
1529.870000764734
 21
933.5086725418084
 31
0.0
  0
LINE
  5
1DBB
330
A
100
AcDbEntity
  8
MODEL
100
AcDbLine
 10
1529.870000764734
 20
933.5086725418084
 30
0.0
 11
1517.417041424984
 21
933.5086725418084
 31
0.0
  0
SPLINE
  5
1DBC
330
A
100
AcDbEntity
  8
MODEL
100
AcDbSpline
210
0.0
220
0.0
230
1.0
 70
     8
 71
     3
 72
     8
 73
     4
 74
     0
 42
0.000000001
 43
0.0000000001
 40
0.0
 40
0.0
 40
0.0
 40
0.0
 40
1.0
 40
1.0
 40
1.0
 40
1.0
 10
1700.743052464203
 20
1042.598857036606
 30
0.0
 10
1696.855358451859
 20
1034.028356340592
 30
0.0
 10
1689.139137039544
 20
1023.995788212718
 30
0.0
 10
1680.07711882472
 20
1012.395868981641
 30
0.0
  0
SPLINE
  5
1DC1
330
A
100
AcDbEntity
  8
MODEL
100
AcDbSpline
210
0.0
220
0.0
230
1.0
 70
     8
 71
     3
 72
     8
 73
     4
 74
     0
 42
0.000000001
 43
0.0000000001
 40
0.0
 40
0.0
 40
0.0
 40
0.0
 40
1.0
 40
1.0
 40
1.0
 40
1.0
 10
1505.002143366906
 20
944.4876222458993
 30
0.0
 10
1511.309935774898
 20
944.5412540518923
 30
0.0
 10
1517.614268066375
 20
944.5481742849233
 30
0.0
 10
1523.922060474367
 20
944.5101130032513
 30
0.0
  0
LINE
  5
1DC2
330
A
100
AcDbEntity
  8
MODEL
100
AcDbLine
 10
1541.426789926936
 20
944.5153031780253
 30
0.0
 11
1536.804074262055
 21
944.5118430615094
 31
0.0
  0
LINE
  5
1DC3
330
A
100
AcDbEntity
  8
MODEL
100
AcDbLine
 10
1536.804074262055
 20
944.5118430615094
 30
0.0
 11
1532.292082325675
 21
944.5083829449934
 31
0.0
  0
LINE
  5
1DC4
330
A
100
AcDbEntity
  8
MODEL
100
AcDbLine
 10
1532.292082325675
 20
944.5083829449934
 30
0.0
 11
1527.973856914169
 21
944.5083829449934
 31
0.0
  0
LINE
  5
1DC5
330
A
100
AcDbEntity
  8
MODEL
100
AcDbLine
 10
1527.973856914169
 20
944.5083829449934
 30
0.0
 11
1523.918600357852
 21
944.5083829449934
 31
0.0
  0
LINE
  5
1DC6
330
A
100
AcDbEntity
  8
MODEL
100
AcDbLine
 10
1578.020982196233
 20
944.7817321497284
 30
0.0
 11
1577.830675787873
 21
944.7817321497284
 31
0.0
  0
LINE
  5
1DC7
330
A
100
AcDbEntity
  8
MODEL
100
AcDbLine
 10
1577.830675787873
 20
944.7817321497284
 30
0.0
 11
1577.259756562794
 21
944.7765419749544
 31
0.0
  0
LINE
  5
1DC8
330
A
100
AcDbEntity
  8
MODEL
100
AcDbLine
 10
1577.259756562794
 20
944.7765419749544
 30
0.0
 11
1576.308224520996
 21
944.7661616254074
 31
0.0
  0
LINE
  5
1DC9
330
A
100
AcDbEntity
  8
MODEL
100
AcDbLine
 10
1576.308224520996
 20
944.7661616254074
 30
0.0
 11
1575.003760594604
 21
944.7454009263145
 31
0.0
  0
LINE
  5
1DCA
330
A
100
AcDbEntity
  8
MODEL
100
AcDbLine
 10
1575.003760594604
 20
944.7454009263145
 30
0.0
 11
1573.353285016649
 21
944.7211801107044
 31
0.0
  0
LINE
  5
1DCB
330
A
100
AcDbEntity
  8
MODEL
100
AcDbLine
 10
1573.353285016649
 20
944.7211801107044
 30
0.0
 11
1571.398319185318
 21
944.6917691203223
 31
0.0
  0
LINE
  5
1DCC
330
A
100
AcDbEntity
  8
MODEL
100
AcDbLine
 10
1571.398319185318
 20
944.6917691203223
 30
0.0
 11
1569.166544032737
 21
944.6606280716815
 31
0.0
  0
LINE
  5
1DCD
330
A
100
AcDbEntity
  8
MODEL
100
AcDbLine
 10
1569.166544032737
 20
944.6606280716815
 30
0.0
 11
1566.689100607546
 21
944.6277569647823
 31
0.0
  0
LINE
  5
1DCE
330
A
100
AcDbEntity
  8
MODEL
100
AcDbLine
 10
1566.689100607546
 20
944.6277569647823
 30
0.0
 11
1563.055978266135
 21
944.5896956831104
 31
0.0
  0
LINE
  5
1DCF
330
A
100
AcDbEntity
  8
MODEL
100
AcDbLine
 10
1563.055978266135
 20
944.5896956831104
 30
0.0
 11
1559.111445438318
 21
944.5568245762124
 31
0.0
  0
LINE
  5
1DD0
330
A
100
AcDbEntity
  8
MODEL
100
AcDbLine
 10
1559.111445438318
 20
944.5568245762124
 30
0.0
 11
1554.92124433789
 21
944.5326037606033
 31
0.0
  0
LINE
  5
1DD1
330
A
100
AcDbEntity
  8
MODEL
100
AcDbLine
 10
1554.92124433789
 20
944.5326037606033
 30
0.0
 11
1548.295121210461
 21
944.5187632945403
 31
0.0
  0
LINE
  5
1DD2
330
A
100
AcDbEntity
  8
MODEL
100
AcDbLine
 10
1548.295121210461
 20
944.5187632945403
 30
0.0
 11
1541.426789926936
 21
944.5153031780253
 31
0.0
  0
LINE
  5
1DD3
330
A
100
AcDbEntity
  8
MODEL
100
AcDbLine
 10
1541.426789926936
 20
942.7489136967954
 30
0.0
 11
1547.734582334929
 21
942.7523738133114
 31
0.0
  0
LINE
  5
1DD4
330
A
100
AcDbEntity
  8
MODEL
100
AcDbLine
 10
1547.734582334929
 20
942.7523738133114
 30
0.0
 11
1553.831307635467
 21
942.7696743958904
 31
0.0
  0
LINE
  5
1DD5
330
A
100
AcDbEntity
  8
MODEL
100
AcDbLine
 10
1553.831307635467
 20
942.7696743958904
 30
0.0
 11
1559.543960002771
 21
942.8094657358195
 31
0.0
  0
LINE
  5
1DD6
330
A
100
AcDbEntity
  8
MODEL
100
AcDbLine
 10
1559.543960002771
 20
942.8094657358195
 30
0.0
 11
1564.689153261512
 21
942.8734778913595
 31
0.0
  0
LINE
  5
1DD7
330
A
100
AcDbEntity
  8
MODEL
100
AcDbLine
 10
1564.689153261512
 20
942.8734778913595
 30
0.0
 11
1569.04543995469
 21
942.9444102799293
 31
0.0
  0
LINE
  5
1DD8
330
A
100
AcDbEntity
  8
MODEL
100
AcDbLine
 10
1569.04543995469
 20
942.9444102799293
 30
0.0
 11
1570.858541008879
 21
942.9755513285693
 31
0.0
  0
LINE
  5
1DD9
330
A
100
AcDbEntity
  8
MODEL
100
AcDbLine
 10
1570.858541008879
 20
942.9755513285693
 30
0.0
 11
1572.387912508788
 21
943.0032322606944
 31
0.0
  0
LINE
  5
1DDA
330
A
100
AcDbEntity
  8
MODEL
100
AcDbLine
 10
1572.387912508788
 20
943.0032322606944
 30
0.0
 11
1573.602413405774
 21
943.0257230180464
 31
0.0
  0
LINE
  5
1DDB
330
A
100
AcDbEntity
  8
MODEL
100
AcDbLine
 10
1573.602413405774
 20
943.0257230180464
 30
0.0
 11
1574.48474311726
 21
943.0361033675933
 31
0.0
  0
LINE
  5
1DDC
330
A
100
AcDbEntity
  8
MODEL
100
AcDbLine
 10
1574.48474311726
 20
943.0361033675933
 30
0.0
 11
1575.017601060666
 21
943.0395634841084
 31
0.0
  0
LINE
  5
1DDD
330
A
100
AcDbEntity
  8
MODEL
100
AcDbLine
 10
1575.017601060666
 20
943.0395634841084
 30
0.0
 11
1575.194067002963
 21
943.0430236006243
 31
0.0
  0
LINE
  5
1DDE
330
A
100
AcDbEntity
  8
MODEL
100
AcDbLine
 10
1525.347628478807
 20
942.7437235220223
 30
0.0
 11
1529.077634082655
 21
942.7402634055063
 31
0.0
  0
LINE
  5
1DDF
330
A
100
AcDbEntity
  8
MODEL
100
AcDbLine
 10
1529.077634082655
 20
942.7402634055063
 30
0.0
 11
1533.046387726082
 21
942.7437235220223
 31
0.0
  0
LINE
  5
1DE0
330
A
100
AcDbEntity
  8
MODEL
100
AcDbLine
 10
1533.046387726082
 20
942.7437235220223
 30
0.0
 11
1537.18814719529
 21
942.7471836385384
 31
0.0
  0
LINE
  5
1DE1
330
A
100
AcDbEntity
  8
MODEL
100
AcDbLine
 10
1537.18814719529
 20
942.7471836385384
 30
0.0
 11
1541.426789926936
 21
942.7471836385384
 31
0.0
  0
LINE
  5
1DE2
330
A
100
AcDbEntity
  8
MODEL
100
AcDbLine
 10
1527.946175982044
 20
935.5172701791303
 30
0.0
 11
1569.412212305347
 21
935.5172701791303
 31
0.0
  0
SPLINE
  5
1DE3
330
A
100
AcDbEntity
  8
MODEL
100
AcDbSpline
210
0.0
220
0.0
230
1.0
 70
     8
 71
     3
 72
     8
 73
     4
 74
     0
 42
0.000000001
 43
0.0000000001
 40
0.0
 40
0.0
 40
0.0
 40
0.0
 40
1.0
 40
1.0
 40
1.0
 40
1.0
 10
1507.887880540941
 20
942.7402634055063
 30
0.0
 10
1513.704336403714
 20
942.7852449202103
 30
0.0
 10
1519.527712499518
 20
942.7904350949834
 30
0.0
 10
1525.344168362291
 20
942.7437235220223
 30
0.0
  0
LINE
  5
1DE4
330
A
100
AcDbEntity
  8
MODEL
100
AcDbLine
 10
1527.946175982044
 20
935.5172701791303
 30
0.0
 11
1513.417146732916
 21
935.5172701791303
 31
0.0
  0
LINE
  5
1DE5
330
A
100
AcDbEntity
  8
MODEL
100
AcDbLine
 10
1565.52996157481
 20
933.5086725418084
 30
0.0
 11
1517.323618279063
 21
933.5086725418084
 31
0.0
  0
DIMENSION
  5
1E8E
330
A
100
AcDbEntity
  8
Dim
  6
Continuous
100
AcDbDimension
  2
*D19
 10
866.2688618067473
 20
2418.931492431568
 30
0.0
 11
566.2688618067473
 21
2441.147801025318
 31
0.0
 70
    32
 71
     5
 42
600.0
 73
     0
 74
     0
 75
     0
  3
JIS
100
AcDbAlignedDimension
 13
266.2688618067473
 23
2308.981632006561
 33
0.0
 14
866.2688618067473
 24
2308.981632006561
 34
0.0
100
AcDbRotatedDimension
1001
ACAD
1000
DSTYLE
1002
{
1070
   179
1070
     0
1070
   271
1070
     0
1070
    43
1040
25.0
1070
    44
1040
0.0
1070
    42
1040
25.0
1002
}
  0
DIMENSION
  5
1E9B
330
A
100
AcDbEntity
  8
Dim
  6
Continuous
100
AcDbDimension
  2
*D20
 10
1000.030194040457
 20
1851.985013142128
 30
0.0
 11
977.813885446707
 21
2081.985013142128
 31
0.0
 70
    32
 71
     5
 42
460.0
 73
     0
 74
     0
 75
     0
  3
JIS
100
AcDbAlignedDimension
 13
863.2635249473733
 23
2311.985013142128
 33
0.0
 14
863.2635249473733
 24
1851.985013142128
 34
0.0
 50
90.0
100
AcDbRotatedDimension
1001
ACAD
1000
DSTYLE
1002
{
1070
   179
1070
     0
1070
   271
1070
     0
1070
    43
1040
25.0
1070
    44
1040
0.0
1070
    42
1040
25.0
1002
}
  0
DIMENSION
  5
1ED8
330
A
100
AcDbEntity
  8
Dim
  6
Continuous
100
AcDbDimension
  2
*D22
 10
168.4831310122198
 20
1854.984304195348
 30
0.0
 11
146.2668224184698
 21
2031.234304195348
 31
0.0
 70
    32
  1
352
 71
     5
 42
352.5000000000002
 73
     0
 74
     0
 75
     0
  3
JIS
100
AcDbAlignedDimension
 13
269.2687828257981
 23
2207.484304195348
 33
0.0
 14
269.2687828257981
 24
1854.984304195348
 34
0.0
 50
90.0
100
AcDbRotatedDimension
1001
ACAD
1000
DSTYLE
1002
{
1070
   179
1070
     0
1070
   271
1070
     1
1070
    43
1040
25.0
1070
    44
1040
0.0
1070
    42
1040
25.0
1002
}
  0
DIMENSION
  5
1EEE
102
{ACAD_REACTORS
330
1EF0
102
}
102
{ACAD_XDICTIONARY
360
1EEF
102
}
330
A
100
AcDbEntity
  8
Dim
  6
Continuous
100
AcDbDimension
  2
*D23
 10
863.2635249473733
 20
1715.084764486738
 30
0.0
 11
566.2661538865857
 21
1737.301073080488
 31
0.0
 70
    32
 71
     5
 42
593.9947421215752
 73
     0
 74
     0
 75
     0
  3
JIS
100
AcDbAlignedDimension
 13
269.2687828257981
 23
1854.986664223865
 33
0.0
 14
863.2635249473733
 24
1854.986664223865
 34
0.0
100
AcDbRotatedDimension
1001
ACAD
1000
DSTYLE
1002
{
1070
   179
1070
     0
1070
   271
1070
     0
1070
    43
1040
25.0
1070
    44
1040
0.0
1070
    42
1040
25.0
1002
}
  0
DIMENSION
  5
1F00
330
A
100
AcDbEntity
  8
Dim
  6
Continuous
100
AcDbDimension
  2
*D24
 10
1756.045857422891
 20
1111.742866230311
 30
0.0
 11
1786.045857422891
 21
1111.742866230311
 31
0.0
 70
   160
 71
     5
 42
60.00000000000023
 73
     0
 74
     0
 75
     0
  3
JIS
100
AcDbAlignedDimension
 13
1816.045857422891
 23
1051.961796838273
 33
0.0
 14
1756.045857422891
 24
1057.698963489378
 34
0.0
100
AcDbRotatedDimension
1001
ACAD
1000
DSTYLE
1002
{
1070
   179
1070
     0
1070
   271
1070
     0
1070
    43
1040
25.0
1070
    44
1040
0.0
1070
    42
1040
25.0
1002
}
  0
DIMENSION
  5
1F14
330
A
100
AcDbEntity
  8
Dim
  6
Continuous
100
AcDbDimension
  2
*D25
 10
1280.697491612037
 20
1042.598857036606
 30
0.0
 11
1280.697491612037
 21
1051.548251551132
 31
0.0
 70
   160
 71
     5
 42
14.0000004322003
 73
     0
 74
     0
 75
     0
  3
JIS
100
AcDbAlignedDimension
 13
1359.409383511216
 23
1056.598857468806
 33
0.0
 14
1362.018852252409
 24
1042.598857036606
 34
0.0
 50
90.0
100
AcDbRotatedDimension
1001
ACAD
1000
DSTYLE
1002
{
1070
   179
1070
     0
1070
   271
1070
     0
1070
    43
1040
25.0
1070
    44
1040
0.0
1070
    42
1040
25.0
1002
}
  0
DIMENSION
  5
1F2F
330
A
100
AcDbEntity
  8
Dim
  6
Continuous
100
AcDbDimension
  2
*D27
 10
1280.697491612037
 20
933.5988574688065
 30
0.0
 11
1258.481183018287
 21
988.0988574688063
 31
0.0
 70
    32
 71
     5
 42
108.9999999999995
 73
     0
 74
     0
 75
     0
  3
JIS
100
AcDbAlignedDimension
 13
1334.409383511216
 23
1042.598857468806
 33
0.0
 14
1504.403322607051
 24
933.5988574688065
 34
0.0
 50
90.0
100
AcDbRotatedDimension
1001
ACAD
1000
DSTYLE
1002
{
1070
   179
1070
     0
1070
   271
1070
     0
1070
    43
1040
25.0
1070
    44
1040
0.0
1070
    42
1040
25.0
1002
}
  0
LINE
  5
1F6A
330
A
100
AcDbEntity
  8
MODEL
100
AcDbLine
 10
266.2688618067473
 20
1056.598857468806
 30
0.0
 11
266.2688501054972
 21
1042.598857036606
 31
0.0
  0
LINE
  5
1F6B
330
A
100
AcDbEntity
  8
MODEL
100
AcDbLine
 10
866.2634459664241
 20
1056.598857468806
 30
0.0
 11
866.263434265174
 21
1042.598857036606
 31
0.0
  0
LINE
  5
1F6C
330
A
100
AcDbEntity
  8
MODEL
100
AcDbLine
 10
866.2634459664241
 20
1056.598857468806
 30
0.0
 11
266.2688618067473
 21
1056.598857468806
 31
0.0
  0
LINE
  5
1F6D
330
A
100
AcDbEntity
  8
MODEL
100
AcDbLine
 10
866.263434265174
 20
1042.598857036606
 30
0.0
 11
266.2688501054972
 21
1042.598857036606
 31
0.0
  0
LINE
  5
1FA3
330
A
100
AcDbEntity
  8
MODEL
100
AcDbLine
 10
600.0420812539016
 20
943.0585941249453
 30
0.0
 11
594.3882508673626
 21
935.5190002373884
 31
0.0
  0
LINE
  5
1FA4
330
A
100
AcDbEntity
  8
MODEL
100
AcDbLine
 10
538.1440569058086
 20
935.5172701791303
 30
0.0
 11
532.6874531606607
 21
942.7921651532413
 31
0.0
  0
SPLINE
  5
1FA5
330
A
100
AcDbEntity
  8
MODEL
100
AcDbSpline
210
0.0
220
0.0
230
1.0
 70
     8
 71
     3
 72
     8
 73
     4
 74
     0
 42
0.000000001
 43
0.0000000001
 40
0.0
 40
0.0
 40
0.0
 40
0.0
 40
1.0
 40
1.0
 40
1.0
 40
1.0
 10
594.3882508673626
 20
935.5172701791303
 30
0.0
 10
593.3951974273778
 20
934.2318368935744
 30
0.0
 10
591.8519854614067
 20
933.4879118427134
 30
0.0
 10
590.2291908155776
 20
933.5086725418084
 30
0.0
  0
SPLINE
  5
1FA6
330
A
100
AcDbEntity
  8
MODEL
100
AcDbSpline
210
0.0
220
0.0
230
1.0
 70
     8
 71
     3
 72
     8
 73
     4
 74
     0
 42
0.000000001
 43
0.0000000001
 40
0.0
 40
0.0
 40
0.0
 40
0.0
 40
1.0
 40
1.0
 40
1.0
 40
1.0
 10
542.2996568410786
 20
933.5086725418084
 30
0.0
 10
540.6768621952488
 20
933.4879118427134
 30
0.0
 10
539.1336502292786
 20
934.2318368935744
 30
0.0
 10
538.1440569058086
 20
935.5172701791303
 30
0.0
  0
SPLINE
  5
1FAA
330
A
100
AcDbEntity
  8
MODEL
100
AcDbSpline
210
0.0
220
0.0
230
1.0
 70
     8
 71
     3
 72
     8
 73
     4
 74
     0
 42
0.000000001
 43
0.0000000001
 40
0.0
 40
0.0
 40
0.0
 40
0.0
 40
1.0
 40
1.0
 40
1.0
 40
1.0
 10
600.0282407878396
 20
943.0412935423674
 30
0.0
 10
600.7168039744486
 20
943.9599544772664
 30
0.0
 10
601.7306181135286
 20
944.5793153335644
 30
0.0
 10
602.8586160976247
 20
944.7817321497284
 30
0.0
  0
SPLINE
  5
1FAB
330
A
100
AcDbEntity
  8
MODEL
100
AcDbSpline
210
0.0
220
0.0
230
1.0
 70
     8
 71
     3
 72
     8
 73
     4
 74
     0
 42
0.000000001
 43
0.0000000001
 40
0.0
 40
0.0
 40
0.0
 40
0.0
 40
1.0
 40
1.0
 40
1.0
 40
1.0
 10
529.8397772682977
 20
944.4876222458993
 30
0.0
 10
530.9919960680027
 20
944.3007759540553
 30
0.0
 10
532.0265709061757
 20
943.6727648064693
 30
0.0
 10
532.7255144423327
 20
942.7419934637653
 30
0.0
  0
LINE
  5
1FAC
330
A
100
AcDbEntity
  8
MODEL
100
AcDbLine
 10
590.2291908155776
 20
933.5086725418084
 30
0.0
 11
554.7076346661256
 21
933.5086725418084
 31
0.0
  0
LINE
  5
1FAD
330
A
100
AcDbEntity
  8
MODEL
100
AcDbLine
 10
554.7076346661256
 20
933.5086725418084
 30
0.0
 11
542.2546753263757
 21
933.5086725418084
 31
0.0
  0
SPLINE
  5
1FAE
330
A
100
AcDbEntity
  8
MODEL
100
AcDbSpline
210
0.0
220
0.0
230
1.0
 70
     8
 71
     3
 72
     8
 73
     4
 74
     0
 42
0.000000001
 43
0.0000000001
 40
0.0
 40
0.0
 40
0.0
 40
0.0
 40
1.0
 40
1.0
 40
1.0
 40
1.0
 10
529.8397772682977
 20
944.4876222458993
 30
0.0
 10
536.1475696762895
 20
944.5412540518923
 30
0.0
 10
542.4519019677666
 20
944.5481742849233
 30
0.0
 10
548.7596943757587
 20
944.5101130032513
 30
0.0
  0
LINE
  5
1FAF
330
A
100
AcDbEntity
  8
MODEL
100
AcDbLine
 10
566.2644238283276
 20
944.5153031780253
 30
0.0
 11
561.6417081634468
 21
944.5118430615094
 31
0.0
  0
LINE
  5
1FB0
330
A
100
AcDbEntity
  8
MODEL
100
AcDbLine
 10
561.6417081634468
 20
944.5118430615094
 30
0.0
 11
557.1297162270666
 21
944.5083829449934
 31
0.0
  0
LINE
  5
1FB1
330
A
100
AcDbEntity
  8
MODEL
100
AcDbLine
 10
557.1297162270666
 20
944.5083829449934
 30
0.0
 11
552.8114908155605
 21
944.5083829449934
 31
0.0
  0
LINE
  5
1FB2
330
A
100
AcDbEntity
  8
MODEL
100
AcDbLine
 10
552.8114908155605
 20
944.5083829449934
 30
0.0
 11
548.7562342592437
 21
944.5083829449934
 31
0.0
  0
LINE
  5
1FB3
330
A
100
AcDbEntity
  8
MODEL
100
AcDbLine
 10
602.8586160976247
 20
944.7817321497284
 30
0.0
 11
602.6683096892646
 21
944.7817321497284
 31
0.0
  0
LINE
  5
1FB4
330
A
100
AcDbEntity
  8
MODEL
100
AcDbLine
 10
602.6683096892646
 20
944.7817321497284
 30
0.0
 11
602.0973904641858
 21
944.7765419749544
 31
0.0
  0
LINE
  5
1FB5
330
A
100
AcDbEntity
  8
MODEL
100
AcDbLine
 10
602.0973904641858
 20
944.7765419749544
 30
0.0
 11
601.1458584223876
 21
944.7661616254074
 31
0.0
  0
LINE
  5
1FB6
330
A
100
AcDbEntity
  8
MODEL
100
AcDbLine
 10
601.1458584223876
 20
944.7661616254074
 30
0.0
 11
599.8413944959957
 21
944.7454009263145
 31
0.0
  0
LINE
  5
1FB7
330
A
100
AcDbEntity
  8
MODEL
100
AcDbLine
 10
599.8413944959957
 20
944.7454009263145
 30
0.0
 11
598.1909189180406
 21
944.7211801107044
 31
0.0
  0
LINE
  5
1FB8
330
A
100
AcDbEntity
  8
MODEL
100
AcDbLine
 10
598.1909189180406
 20
944.7211801107044
 30
0.0
 11
596.2359530867097
 21
944.6917691203223
 31
0.0
  0
LINE
  5
1FB9
330
A
100
AcDbEntity
  8
MODEL
100
AcDbLine
 10
596.2359530867097
 20
944.6917691203223
 30
0.0
 11
594.0041779341286
 21
944.6606280716815
 31
0.0
  0
LINE
  5
1FBA
330
A
100
AcDbEntity
  8
MODEL
100
AcDbLine
 10
594.0041779341286
 20
944.6606280716815
 30
0.0
 11
591.5267345089376
 21
944.6277569647823
 31
0.0
  0
LINE
  5
1FBB
330
A
100
AcDbEntity
  8
MODEL
100
AcDbLine
 10
591.5267345089376
 20
944.6277569647823
 30
0.0
 11
587.8936121675267
 21
944.5896956831104
 31
0.0
  0
LINE
  5
1FBC
330
A
100
AcDbEntity
  8
MODEL
100
AcDbLine
 10
587.8936121675267
 20
944.5896956831104
 30
0.0
 11
583.9490793397097
 21
944.5568245762124
 31
0.0
  0
LINE
  5
1FBD
330
A
100
AcDbEntity
  8
MODEL
100
AcDbLine
 10
583.9490793397097
 20
944.5568245762124
 30
0.0
 11
579.7588782392816
 21
944.5326037606033
 31
0.0
  0
LINE
  5
1FBE
330
A
100
AcDbEntity
  8
MODEL
100
AcDbLine
 10
579.7588782392816
 20
944.5326037606033
 30
0.0
 11
573.1327551118527
 21
944.5187632945403
 31
0.0
  0
LINE
  5
1FBF
330
A
100
AcDbEntity
  8
MODEL
100
AcDbLine
 10
573.1327551118527
 20
944.5187632945403
 30
0.0
 11
566.2644238283276
 21
944.5153031780253
 31
0.0
  0
LINE
  5
1FC0
330
A
100
AcDbEntity
  8
MODEL
100
AcDbLine
 10
566.2644238283276
 20
942.7489136967954
 30
0.0
 11
572.5722162363206
 21
942.7523738133114
 31
0.0
  0
LINE
  5
1FC1
330
A
100
AcDbEntity
  8
MODEL
100
AcDbLine
 10
572.5722162363206
 20
942.7523738133114
 30
0.0
 11
578.6689415368587
 21
942.7696743958904
 31
0.0
  0
LINE
  5
1FC2
330
A
100
AcDbEntity
  8
MODEL
100
AcDbLine
 10
578.6689415368587
 20
942.7696743958904
 30
0.0
 11
584.3815939041626
 21
942.8094657358195
 31
0.0
  0
LINE
  5
1FC3
330
A
100
AcDbEntity
  8
MODEL
100
AcDbLine
 10
584.3815939041626
 20
942.8094657358195
 30
0.0
 11
589.5267871629037
 21
942.8734778913595
 31
0.0
  0
LINE
  5
1FC4
330
A
100
AcDbEntity
  8
MODEL
100
AcDbLine
 10
589.5267871629037
 20
942.8734778913595
 30
0.0
 11
593.8830738560816
 21
942.9444102799293
 31
0.0
  0
LINE
  5
1FC5
330
A
100
AcDbEntity
  8
MODEL
100
AcDbLine
 10
593.8830738560816
 20
942.9444102799293
 30
0.0
 11
595.6961749102707
 21
942.9755513285693
 31
0.0
  0
LINE
  5
1FC6
330
A
100
AcDbEntity
  8
MODEL
100
AcDbLine
 10
595.6961749102707
 20
942.9755513285693
 30
0.0
 11
597.2255464101797
 21
943.0032322606944
 31
0.0
  0
LINE
  5
1FC7
330
A
100
AcDbEntity
  8
MODEL
100
AcDbLine
 10
597.2255464101797
 20
943.0032322606944
 30
0.0
 11
598.4400473071657
 21
943.0257230180464
 31
0.0
  0
LINE
  5
1FC8
330
A
100
AcDbEntity
  8
MODEL
100
AcDbLine
 10
598.4400473071657
 20
943.0257230180464
 30
0.0
 11
599.3223770186517
 21
943.0361033675933
 31
0.0
  0
LINE
  5
1FC9
330
A
100
AcDbEntity
  8
MODEL
100
AcDbLine
 10
599.3223770186517
 20
943.0361033675933
 30
0.0
 11
599.8552349620577
 21
943.0395634841084
 31
0.0
  0
LINE
  5
1FCA
330
A
100
AcDbEntity
  8
MODEL
100
AcDbLine
 10
599.8552349620577
 20
943.0395634841084
 30
0.0
 11
600.0317009043547
 21
943.0430236006243
 31
0.0
  0
LINE
  5
1FCB
330
A
100
AcDbEntity
  8
MODEL
100
AcDbLine
 10
550.1852623801988
 20
942.7437235220223
 30
0.0
 11
553.9152679840467
 21
942.7402634055063
 31
0.0
  0
LINE
  5
1FCC
330
A
100
AcDbEntity
  8
MODEL
100
AcDbLine
 10
553.9152679840467
 20
942.7402634055063
 30
0.0
 11
557.8840216274737
 21
942.7437235220223
 31
0.0
  0
LINE
  5
1FCD
330
A
100
AcDbEntity
  8
MODEL
100
AcDbLine
 10
557.8840216274737
 20
942.7437235220223
 30
0.0
 11
562.0257810966816
 21
942.7471836385384
 31
0.0
  0
LINE
  5
1FCE
330
A
100
AcDbEntity
  8
MODEL
100
AcDbLine
 10
562.0257810966816
 20
942.7471836385384
 30
0.0
 11
566.2644238283276
 21
942.7471836385384
 31
0.0
  0
LINE
  5
1FCF
330
A
100
AcDbEntity
  8
MODEL
100
AcDbLine
 10
552.7838098834357
 20
935.5172701791303
 30
0.0
 11
594.2498462067388
 21
935.5172701791303
 31
0.0
  0
SPLINE
  5
1FD0
330
A
100
AcDbEntity
  8
MODEL
100
AcDbSpline
210
0.0
220
0.0
230
1.0
 70
     8
 71
     3
 72
     8
 73
     4
 74
     0
 42
0.000000001
 43
0.0000000001
 40
0.0
 40
0.0
 40
0.0
 40
0.0
 40
1.0
 40
1.0
 40
1.0
 40
1.0
 10
532.7255144423327
 20
942.7402634055063
 30
0.0
 10
538.5419703051057
 20
942.7852449202103
 30
0.0
 10
544.3653464009096
 20
942.7904350949834
 30
0.0
 10
550.1818022636826
 20
942.7437235220223
 30
0.0
  0
LINE
  5
1FD1
330
A
100
AcDbEntity
  8
MODEL
100
AcDbLine
 10
552.7838098834357
 20
935.5172701791303
 30
0.0
 11
538.2547806343077
 21
935.5172701791303
 31
0.0
  0
LINE
  5
1FD2
330
A
100
AcDbEntity
  8
MODEL
100
AcDbLine
 10
590.3675954762016
 20
933.5086725418084
 30
0.0
 11
542.1612521804548
 21
933.5086725418084
 31
0.0
  0
SPLINE
  5
203B
330
A
100
AcDbEntity
  8
MODEL
100
AcDbSpline
210
0.0
220
0.0
230
1.0
 70
     8
 71
     3
 72
    15
 73
    11
 74
     0
 42
0.000000001
 43
0.0000000001
 40
53.1749453289097
 40
53.1749453289097
 40
53.1749453289097
 40
53.1749453289097
 40
62.5587017453351
 40
106.645917750752
 40
156.1323496700648
 40
199.6003782288182
 40
236.7081225696147
 40
259.9472263444102
 40
278.8302802810854
 40
295.3178911199043
 40
295.3178911199043
 40
295.3178911199043
 40
295.3178911199043
 10
831.3474584179858
 20
1042.598857036606
 30
0.0
 10
814.3393228273184
 20
1029.398026523015
 30
0.0
 10
796.948672342216
 20
1016.299933788501
 30
0.0
 10
769.9632110494767
 20
999.2296916373114
 30
0.0
 10
737.2643302389929
 20
983.0238474785831
 30
0.0
 10
693.8499487406939
 20
966.6523000393573
 30
0.0
 10
664.5750057999817
 20
957.9484956715773
 30
0.0
 10
638.3095718781794
 20
951.4332334417139
 30
0.0
 10
619.5029851334244
 20
947.6868844958856
 30
0.0
 10
609.0784175082614
 20
946.0258085919116
 30
0.0
 10
602.6890703883589
 20
944.4876222458993
 30
0.0
  0
SPLINE
  5
2049
330
A
100
AcDbEntity
  8
HIDDEN
 48
0.5
100
AcDbSpline
210
0.0
220
0.0
230
1.0
 70
  1064
 71
     3
 72
    10
 73
     6
 74
     4
 42
0.000000001
 43
0.0000000001
 44
0.0
 40
0.0
 40
0.0
 40
0.0
 40
0.0
 40
11.0468791011634
 40
26.22761034963887
 40
32.4756666287281
 40
32.4756666287281
 40
32.4756666287281
 40
32.4756666287281
 10
831.3474584179858
 20
1042.598857036606
 30
0.0
 10
834.467660212324
 20
1044.521093880265
 30
0.0
 10
841.8756743785633
 20
1049.084887733127
 30
0.0
 10
851.1316125929982
 20
1055.297488280107
 30
0.0
 10
858.252216874316
 20
1056.305072961163
 30
0.0
 10
860.3283929637735
 20
1056.598857468806
 30
0.0
 11
831.3474584179858
 21
1042.598857036606
 31
0.0
 11
840.7199775347525
 21
1048.446029283219
 31
0.0
 11
854.1859977691404
 21
1055.454659697608
 31
0.0
 11
860.3283929637735
 21
1056.598857468806
 31
0.0
  0
DIMENSION
  5
21AA
330
A
100
AcDbEntity
  8
Dim
  6
Continuous
100
AcDbDimension
  2
*D38
 10
972.4346825345201
 20
898.5988574688063
 30
0.0
 11
950.2183739407701
 21
977.5988574688062
 31
0.0
 70
    32
 71
     5
 42
157.9999999999998
 73
     0
 74
     0
 75
     0
  3
JIS
100
AcDbAlignedDimension
 13
866.2634459664241
 23
1056.598857468806
 33
0.0
 14
596.0557070423688
 24
898.5988574688063
 34
0.0
 50
90.0
100
AcDbRotatedDimension
1001
ACAD
1000
DSTYLE
1002
{
1070
   179
1070
     0
1070
   271
1070
     0
1070
    43
1040
25.0
1070
    44
1040
0.0
1070
    42
1040
25.0
1002
}
  0
LINE
  5
221E
330
A
100
AcDbEntity
  8
MODEL
  6
Continuous
100
AcDbLine
 10
1568.258538446083
 20
898.5988574688065
 30
0.0
 11
1514.947665167823
 21
898.5988574688065
 31
0.0
  0
LINE
  5
221F
330
A
100
AcDbEntity
  8
MODEL
  6
Continuous
100
AcDbLine
 10
1514.947665167823
 20
933.5988574688065
 30
0.0
 11
1568.258538446083
 21
933.5988574688065
 31
0.0
  0
LINE
  5
2220
330
A
100
AcDbEntity
  8
MODEL
  6
Continuous
100
AcDbLine
 10
1568.258538446083
 20
933.5988574688065
 30
0.0
 11
1568.258538446083
 21
898.5988574688065
 31
0.0
  0
LINE
  5
2221
330
A
100
AcDbEntity
  8
MODEL
  6
Continuous
100
AcDbLine
 10
1514.947665167823
 20
933.5988574688065
 30
0.0
 11
1514.947665167823
 21
898.5988574688065
 31
0.0
  0
LINE
  5
2222
330
A
100
AcDbEntity
  8
MODEL
  6
Continuous
100
AcDbLine
 10
1568.258538446083
 20
926.4154378618794
 30
0.0
 11
1578.937142254939
 21
926.4154378618794
 31
0.0
  0
LINE
  5
2223
330
A
100
AcDbEntity
  8
MODEL
  6
Continuous
100
AcDbLine
 10
1568.258538446083
 20
905.7822770757332
 30
0.0
 11
1578.937142254939
 21
905.7822770757332
 31
0.0
  0
LINE
  5
2224
330
A
100
AcDbEntity
  8
MODEL
  6
Continuous
100
AcDbLine
 10
1578.937142254939
 20
926.4154378618794
 30
0.0
 11
1578.937142254939
 21
905.7822770757332
 31
0.0
  0
LINE
  5
2225
330
A
100
AcDbEntity
  8
MODEL
  6
Continuous
100
AcDbLine
 10
1578.937142254939
 20
929.3726596702966
 30
0.0
 11
1578.937142254939
 21
902.8250552673164
 31
0.0
  0
LINE
  5
2226
330
A
100
AcDbEntity
  8
MODEL
  6
Continuous
100
AcDbLine
 10
1578.937142254939
 20
929.3726596702966
 30
0.0
 11
1589.610828086965
 21
929.3726596702966
 31
0.0
  0
LINE
  5
2227
330
A
100
AcDbEntity
  8
MODEL
  6
Continuous
100
AcDbLine
 10
1589.610828086965
 20
929.3726596702966
 30
0.0
 11
1589.610828086965
 21
902.8250552673164
 31
0.0
  0
LINE
  5
2228
330
A
100
AcDbEntity
  8
MODEL
  6
Continuous
100
AcDbLine
 10
1578.937142254939
 20
902.8250552673164
 30
0.0
 11
1589.610828086965
 21
902.8250552673164
 31
0.0
  0
LINE
  5
2229
330
A
100
AcDbEntity
  8
MODEL
  6
Continuous
100
AcDbLine
 10
1578.937142254939
 20
908.2756670914343
 30
0.0
 11
1589.610828086965
 21
908.2756670914343
 31
0.0
  0
LINE
  5
222A
330
A
100
AcDbEntity
  8
MODEL
  6
Continuous
100
AcDbLine
 10
1578.937142254939
 20
923.9220478461773
 30
0.0
 11
1589.610828086965
 21
923.9220478461773
 31
0.0
  0
LINE
  5
222B
102
{ACAD_REACTORS
330
224C
102
}
330
A
100
AcDbEntity
  8
MODEL
  6
Continuous
100
AcDbLine
 10
1699.027474186866
 20
1036.852523498148
 30
0.0
 11
1683.786118253793
 21
1017.035836859827
 31
0.0
  0
LINE
  5
222C
102
{ACAD_REACTORS
330
224C
102
}
330
A
100
AcDbEntity
  8
MODEL
  6
Continuous
100
AcDbLine
 10
1699.027474186866
 20
1036.852523498148
 30
0.0
 11
1703.938946447945
 21
1033.075025359698
 31
0.0
  0
LINE
  5
222D
102
{ACAD_REACTORS
330
224C
102
}
330
A
100
AcDbEntity
  8
MODEL
  6
Continuous
100
AcDbLine
 10
1703.938946447945
 20
1033.075025359698
 30
0.0
 11
1678.532302398041
 21
1000.189176854266
 31
0.0
  0
LINE
  5
222E
102
{ACAD_REACTORS
330
224C
102
}
330
A
100
AcDbEntity
  8
MODEL
  6
Continuous
100
AcDbLine
 10
1688.697590514873
 20
1013.258338721377
 30
0.0
 11
1683.786118253793
 21
1017.035836859827
 31
0.0
  0
LINE
  5
222F
102
{ACAD_REACTORS
330
224C
102
}
330
A
100
AcDbEntity
  8
MODEL
  6
Continuous
100
AcDbLine
 10
1703.938946447945
 20
1033.075025359698
 30
0.0
 11
1719.631300305238
 21
1021.005764996856
 31
0.0
  0
LINE
  5
2230
102
{ACAD_REACTORS
330
224C
102
}
330
A
100
AcDbEntity
  8
MODEL
  6
Continuous
100
AcDbLine
 10
1719.631300305238
 20
1021.005764996856
 30
0.0
 11
1700.003853039497
 21
995.486318191513
 31
0.0
  0
LINE
  5
2231
102
{ACAD_REACTORS
330
224C
102
}
330
A
100
AcDbEntity
  8
MODEL
  6
Continuous
100
AcDbLine
 10
1700.003853039497
 20
995.486318191513
 30
0.0
 11
1684.311499182204
 21
1007.555578554354
 31
0.0
  0
LINE
  5
2232
102
{ACAD_REACTORS
330
224C
102
}
330
A
100
AcDbEntity
  8
MODEL
  6
Continuous
100
AcDbLine
 10
1700.003853039497
 20
995.486318191513
 30
0.0
 11
1694.296014762646
 21
988.0650334310717
 31
0.0
  0
LINE
  5
2233
102
{ACAD_REACTORS
330
224C
102
}
330
A
100
AcDbEntity
  8
MODEL
  6
Continuous
100
AcDbLine
 10
1694.296014762646
 20
988.0650334310717
 30
0.0
 11
1678.532302398041
 21
1000.189176854266
 31
0.0
  0
ARC
  5
2272
330
A
100
AcDbEntity
  8
MODEL
  6
Continuous
100
AcDbCircle
 10
1525.472456343328
 20
1094.621918188079
 30
0.0
 40
179.8467656370586
100
AcDbArc
 50
290.893246751447
 51
328.3268196227231
  0
ARC
  5
2279
330
A
100
AcDbEntity
  8
MODEL
  6
Continuous
100
AcDbCircle
 10
1531.980083343695
 20
1086.457229611206
 30
0.0
 40
189.8090773950268
100
AcDbArc
 50
287.6754482021345
 51
328.7767170606277
  0
DIMENSION
  5
228F
330
A
100
AcDbEntity
  8
Dim
  6
Continuous
100
AcDbDimension
  2
*D41
 10
1542.645857422891
 20
821.4462479537124
 30
0.0
 11
1679.345857422891
 21
821.4462479537124
 31
0.0
 70
   160
  1
273
 71
     5
 42
273.4000000000001
 73
     0
 74
     0
 75
     0
  3
JIS
100
AcDbAlignedDimension
 13
1816.045857422891
 23
1016.325354742397
 33
0.0
 14
1542.645857422891
 24
894.8538846336414
 34
0.0
100
AcDbRotatedDimension
1001
ACAD
1000
DSTYLE
1002
{
1070
   179
1070
     0
1070
   271
1070
     1
1070
    43
1040
25.0
1070
    44
1040
0.0
1070
    42
1040
25.0
1002
}
  0
DIMENSION
  5
2313
330
A
100
AcDbEntity
  8
Dim
  6
Continuous
100
AcDbDimension
  2
*D43
 10
1541.426789926936
 20
1056.598857468806
 30
0.0
 11
1541.426789926936
 21
1150.786817429744
 31
0.0
 70
   160
  1
110(深さ)
 71
     5
 42
112.083554290781
 73
     0
 74
     1
 75
     1
  3
JIS
100
AcDbAlignedDimension
 13
1541.426776655785
 23
944.5153031780253
 33
0.0
 14
1541.426789926936
 24
1056.598857468806
 34
0.0
 50
90.0
100
AcDbRotatedDimension
1001
ACAD
1000
DSTYLE
1002
{
1070
   172
1070
     1
1070
    76
1070
     1
1070
    75
1070
     1
1070
   175
1070
     0
1070
   179
1070
     0
1070
   271
1070
     0
1070
    43
1040
25.0
1070
    44
1040
0.0
1070
    42
1040
25.0
1002
}
  0
MTEXT
  5
23E8
330
A
100
AcDbEntity
  8
Dim
390
1D
100
AcDbMText
 10
680.9534953935005
 20
2367.982964688435
 30
0.0
 40
24.0
 41
1169.771715461011
 46
24.72
 71
     1
 72
     1
  1
{%%c35}
  7
ＭＳ ゴシック
 73
     1
 44
1.174240107638677
1001
ACAD
1000
ACAD_MTEXT_DEFINED_HEIGHT_BEGIN
1070
    46
1040
24.72
1000
ACAD_MTEXT_DEFINED_HEIGHT_END
  0
LINE
  5
23E9
330
A
100
AcDbEntity
  8
Dim
100
AcDbLine
 10
674.5515677560672
 20
2339.417362027612
 30
0.0
 11
578.4334583804921
 21
2265.061765457383
 31
0.0
  0
LINE
  5
2425
330
A
100
AcDbEntity
  8
Dim
  6
CENTER
 48
0.1
100
AcDbLine
 10
1738.545857422891
 20
1031.131099151019
 30
0.0
 11
1738.545857422891
 21
1066.296434087512
 31
0.0
  0
LINE
  5
2426
330
A
100
AcDbEntity
  8
Dim
  6
CENTER
 48
0.1
100
AcDbLine
 10
1773.545857422891
 20
1031.131099151019
 30
0.0
 11
1773.545857422891
 21
1066.296434087512
 31
0.0
  0
CIRCLE
  5
2509
330
A
100
AcDbEntity
  8
HIDDEN
  6
HIDDEN
 48
0.5
100
AcDbCircle
 10
1540.366264454639
 20
2252.482787572399
 30
0.0
 40
17.50109652755145
  0
SPLINE
  5
250A
330
A
100
AcDbEntity
  8
HIDDEN
  6
HIDDEN
100
AcDbSpline
210
0.0
220
0.0
230
1.0
 70
     8
 71
     3
 72
     8
 73
     4
 74
     0
 42
0.000000001
 43
0.0000000001
 40
0.0
 40
0.0
 40
0.0
 40
0.0
 40
1.0
 40
1.0
 40
1.0
 40
1.0
 10
1840.36482790147
 20
2308.982390877433
 30
0.0
 10
1840.36482790147
 20
2310.636037801255
 30
0.0
 10
1839.021239775865
 20
2311.979625926859
 30
0.0
 10
1837.360702656527
 20
2311.979625926859
 30
0.0
  0
SPLINE
  5
250B
330
A
100
AcDbEntity
  8
HIDDEN
  6
HIDDEN
100
AcDbSpline
210
0.0
220
0.0
230
1.0
 70
     8
 71
     3
 72
     8
 73
     4
 74
     0
 42
0.000000001
 43
0.0000000001
 40
0.0
 40
0.0
 40
0.0
 40
0.0
 40
1.0
 40
1.0
 40
1.0
 40
1.0
 10
1837.364147754286
 20
1851.979837990539
 30
0.0
 10
1839.017794678107
 20
1851.979837990539
 30
0.0
 10
1840.361382803711
 20
1853.326871213904
 30
0.0
 10
1840.361382803711
 20
1854.983963235483
 30
0.0
  0
SPLINE
  5
250C
330
A
100
AcDbEntity
  8
HIDDEN
  6
HIDDEN
100
AcDbSpline
210
0.0
220
0.0
230
1.0
 70
     8
 71
     3
 72
     8
 73
     4
 74
     0
 42
0.000000001
 43
0.0000000001
 40
0.0
 40
0.0
 40
0.0
 40
0.0
 40
1.0
 40
1.0
 40
1.0
 40
1.0
 10
1240.363157277105
 20
1854.983963235483
 30
0.0
 10
1240.363157277105
 20
1853.326871213904
 30
0.0
 10
1241.70674540271
 20
1851.979837990539
 30
0.0
 10
1243.367282522046
 20
1851.979837990539
 30
0.0
  0
SPLINE
  5
250D
330
A
100
AcDbEntity
  8
HIDDEN
  6
HIDDEN
100
AcDbSpline
210
0.0
220
0.0
230
1.0
 70
     8
 71
     3
 72
     8
 73
     4
 74
     0
 42
0.000000001
 43
0.0000000001
 40
0.0
 40
0.0
 40
0.0
 40
0.0
 40
1.0
 40
1.0
 40
1.0
 40
1.0
 10
1243.363837424289
 20
2311.983071024618
 30
0.0
 10
1241.710190500467
 20
2311.983071024618
 30
0.0
 10
1240.363157277105
 20
2310.639482899012
 30
0.0
 10
1240.363157277105
 20
2308.982390877433
 30
0.0
  0
LINE
  5
250E
330
A
100
AcDbEntity
  8
HIDDEN
  6
HIDDEN
100
AcDbLine
 10
1840.36482790147
 20
1854.983963235483
 30
0.0
 11
1840.36482790147
 21
2308.982390877433
 31
0.0
  0
LINE
  5
250F
330
A
100
AcDbEntity
  8
HIDDEN
  6
HIDDEN
100
AcDbLine
 10
1240.363157277105
 20
2308.982390877433
 30
0.0
 11
1240.363157277105
 21
1854.983963235483
 31
0.0
  0
LINE
  5
2510
330
A
100
AcDbEntity
  8
HIDDEN
  6
HIDDEN
100
AcDbLine
 10
1837.364147754286
 20
2311.983071024618
 30
0.0
 11
1243.363837424289
 21
2311.983071024618
 31
0.0
  0
LINE
  5
2511
330
A
100
AcDbEntity
  8
HIDDEN
  6
HIDDEN
100
AcDbLine
 10
1243.363837424289
 20
1851.983283088299
 30
0.0
 11
1837.364147754286
 21
1851.983283088299
 31
0.0
  0
LINE
  5
2512
102
{ACAD_REACTORS
330
2562
102
}
330
A
100
AcDbEntity
  8
MODEL
 48
0.05
100
AcDbLine
 10
1810.37146231088
 20
2291.984795304314
 30
0.0
 11
1697.369844281306
 21
2291.984795304314
 31
0.0
  0
LINE
  5
2513
102
{ACAD_REACTORS
330
2562
102
}
330
A
100
AcDbEntity
  8
MODEL
 48
0.05
100
AcDbLine
 10
1697.369844281306
 20
2291.984795304314
 30
0.0
 11
1683.37137856138
 21
2291.984795304314
 31
0.0
  0
LINE
  5
2514
102
{ACAD_REACTORS
330
2562
102
}
330
A
100
AcDbEntity
  8
MODEL
 48
0.05
100
AcDbLine
 10
1683.37137856138
 20
2291.984795304314
 30
0.0
 11
1669.736370654919
 21
2291.984795304314
 31
0.0
  0
LINE
  5
2515
102
{ACAD_REACTORS
330
2562
102
}
330
A
100
AcDbEntity
  8
MODEL
 48
0.05
100
AcDbLine
 10
1411.005739424463
 20
2291.984795304314
 30
0.0
 11
1397.370559263114
 21
2291.984795304314
 31
0.0
  0
LINE
  5
2516
102
{ACAD_REACTORS
330
2562
102
}
330
A
100
AcDbEntity
  8
MODEL
 48
0.05
100
AcDbLine
 10
1397.370559263114
 20
2291.984795304314
 30
0.0
 11
1383.370543249197
 21
2291.984795304314
 31
0.0
  0
LINE
  5
2517
102
{ACAD_REACTORS
330
2562
102
}
330
A
100
AcDbEntity
  8
MODEL
 48
0.05
100
AcDbLine
 10
1383.370543249197
 20
2291.984795304314
 30
0.0
 11
1270.370475513614
 21
2291.984795304314
 31
0.0
  0
LINE
  5
2518
102
{ACAD_REACTORS
330
2562
102
}
330
A
100
AcDbEntity
  8
MODEL
 48
0.05
100
AcDbLine
 10
1260.370562506467
 20
2281.984710042278
 30
0.0
 11
1260.370562506467
 21
2238.984550121391
 31
0.0
  0
LINE
  5
2519
102
{ACAD_REACTORS
330
2562
102
}
330
A
100
AcDbEntity
  8
MODEL
 48
0.05
100
AcDbLine
 10
1260.370562506467
 20
2238.984550121391
 30
0.0
 11
1260.370562506467
 21
2224.984534107474
 31
0.0
  0
LINE
  5
251A
102
{ACAD_REACTORS
330
2562
102
}
330
A
100
AcDbEntity
  8
MODEL
 48
0.05
100
AcDbLine
 10
1260.370562506467
 20
2224.984534107474
 30
0.0
 11
1260.370562506467
 21
1938.985437358087
 31
0.0
  0
LINE
  5
251B
102
{ACAD_REACTORS
330
2562
102
}
330
A
100
AcDbEntity
  8
MODEL
 48
0.05
100
AcDbLine
 10
1260.370562506467
 20
1938.985437358087
 30
0.0
 11
1260.370562506467
 21
1924.983526540402
 31
0.0
  0
LINE
  5
251C
102
{ACAD_REACTORS
330
2562
102
}
330
A
100
AcDbEntity
  8
MODEL
 48
0.05
100
AcDbLine
 10
1260.370562506467
 20
1924.983526540402
 30
0.0
 11
1260.370562506467
 21
1881.983538874405
 31
0.0
  0
LINE
  5
251D
102
{ACAD_REACTORS
330
2562
102
}
330
A
100
AcDbEntity
  8
MODEL
 48
0.05
100
AcDbLine
 10
1820.369136004484
 20
1881.983538874405
 30
0.0
 11
1820.369136004484
 21
2281.984710042278
 31
0.0
  0
LINE
  5
251E
102
{ACAD_REACTORS
330
2562
102
}
330
A
100
AcDbEntity
  8
MODEL
 48
0.05
100
AcDbLine
 10
1411.005739424463
 20
2291.984795304314
 30
0.0
 11
1411.63688133372
 21
2292.004604616421
 31
0.0
  0
LINE
  5
251F
102
{ACAD_REACTORS
330
2562
102
}
330
A
100
AcDbEntity
  8
MODEL
 48
0.05
100
AcDbLine
 10
1411.63688133372
 20
2292.004604616421
 30
0.0
 11
1412.265783929437
 21
2292.064204807634
 31
0.0
  0
LINE
  5
2520
102
{ACAD_REACTORS
330
2562
102
}
330
A
100
AcDbEntity
  8
MODEL
 48
0.05
100
AcDbLine
 10
1412.265783929437
 20
2292.064204807634
 30
0.0
 11
1412.889518878515
 21
2292.163768132839
 31
0.0
  0
LINE
  5
2521
102
{ACAD_REACTORS
330
2562
102
}
330
A
100
AcDbEntity
  8
MODEL
 48
0.05
100
AcDbLine
 10
1412.889518878515
 20
2292.163768132839
 30
0.0
 11
1413.505846867415
 21
2292.302261062709
 31
0.0
  0
LINE
  5
2522
102
{ACAD_REACTORS
330
2562
102
}
330
A
100
AcDbEntity
  8
MODEL
 48
0.05
100
AcDbLine
 10
1413.505846867415
 20
2292.302261062709
 30
0.0
 11
1414.111839563041
 21
2292.479339087469
 31
0.0
  0
LINE
  5
2523
102
{ACAD_REACTORS
330
2562
102
}
330
A
100
AcDbEntity
  8
MODEL
 48
0.05
100
AcDbLine
 10
1414.111839563041
 20
2292.479339087469
 30
0.0
 11
1414.705602161625
 21
2292.694313187566
 31
0.0
  0
LINE
  5
2524
102
{ACAD_REACTORS
330
2562
102
}
330
A
100
AcDbEntity
  8
MODEL
 48
0.05
100
AcDbLine
 10
1414.705602161625
 20
2292.694313187566
 30
0.0
 11
1415.284895349627
 21
2292.946494343448
 31
0.0
  0
LINE
  5
2525
102
{ACAD_REACTORS
330
2562
102
}
330
A
100
AcDbEntity
  8
MODEL
 48
0.05
100
AcDbLine
 10
1415.284895349627
 20
2292.946494343448
 30
0.0
 11
1415.846963048838
 21
2293.234676770902
 31
0.0
  0
LINE
  5
2526
102
{ACAD_REACTORS
330
2562
102
}
330
A
100
AcDbEntity
  8
MODEL
 48
0.05
100
AcDbLine
 10
1430.370806176853
 20
2296.98483793533
 30
0.0
 11
1428.476691429526
 21
2296.924893234343
 31
0.0
  0
LINE
  5
2527
102
{ACAD_REACTORS
330
2562
102
}
330
A
100
AcDbEntity
  8
MODEL
 48
0.05
100
AcDbLine
 10
1428.476691429526
 20
2296.924893234343
 30
0.0
 11
1426.590328152154
 21
2296.74557589604
 31
0.0
  0
LINE
  5
2528
102
{ACAD_REACTORS
330
2562
102
}
330
A
100
AcDbEntity
  8
MODEL
 48
0.05
100
AcDbLine
 10
1426.590328152154
 20
2296.74557589604
 30
0.0
 11
1424.719295559805
 21
2296.447402685089
 31
0.0
  0
LINE
  5
2529
102
{ACAD_REACTORS
330
2562
102
}
330
A
100
AcDbEntity
  8
MODEL
 48
0.05
100
AcDbLine
 10
1424.719295559805
 20
2296.447402685089
 30
0.0
 11
1422.870656102883
 21
2296.031923895479
 31
0.0
  0
LINE
  5
252A
102
{ACAD_REACTORS
330
2562
102
}
330
A
100
AcDbEntity
  8
MODEL
 48
0.05
100
AcDbLine
 10
1422.870656102883
 20
2296.031923895479
 30
0.0
 11
1421.051816741567
 21
2295.500689821201
 31
0.0
  0
LINE
  5
252B
102
{ACAD_REACTORS
330
2562
102
}
330
A
100
AcDbEntity
  8
MODEL
 48
0.05
100
AcDbLine
 10
1421.051816741567
 20
2295.500689821201
 30
0.0
 11
1419.270184436037
 21
2294.855423011135
 31
0.0
  0
LINE
  5
252C
102
{ACAD_REACTORS
330
2562
102
}
330
A
100
AcDbEntity
  8
MODEL
 48
0.05
100
AcDbLine
 10
1419.270184436037
 20
2294.855423011135
 30
0.0
 11
1417.532821636697
 21
2294.09939630815
 31
0.0
  0
LINE
  5
252D
102
{ACAD_REACTORS
330
2562
102
}
330
A
100
AcDbEntity
  8
MODEL
 48
0.05
100
AcDbLine
 10
1417.532821636697
 20
2294.09939630815
 30
0.0
 11
1415.846963048838
 21
2293.234676770902
 31
0.0
  0
LINE
  5
252E
102
{ACAD_REACTORS
330
2562
102
}
330
A
100
AcDbEntity
  8
MODEL
 48
0.05
100
AcDbLine
 10
1650.369064588986
 20
2296.98483793533
 30
0.0
 11
1430.370806176853
 21
2296.98483793533
 31
0.0
  0
LINE
  5
252F
102
{ACAD_REACTORS
330
2562
102
}
330
A
100
AcDbEntity
  8
MODEL
 48
0.05
100
AcDbLine
 10
1664.892907717001
 20
2293.234676770902
 30
0.0
 11
1663.210321972012
 21
2294.09939630815
 31
0.0
  0
LINE
  5
2530
102
{ACAD_REACTORS
330
2562
102
}
330
A
100
AcDbEntity
  8
MODEL
 48
0.05
100
AcDbLine
 10
1663.210321972012
 20
2294.09939630815
 30
0.0
 11
1661.470892114018
 21
2294.855423011135
 31
0.0
  0
LINE
  5
2531
102
{ACAD_REACTORS
330
2562
102
}
330
A
100
AcDbEntity
  8
MODEL
 48
0.05
100
AcDbLine
 10
1661.470892114018
 20
2294.855423011135
 30
0.0
 11
1659.689432063376
 21
2295.500689821201
 31
0.0
  0
LINE
  5
2532
102
{ACAD_REACTORS
330
2562
102
}
330
A
100
AcDbEntity
  8
MODEL
 48
0.05
100
AcDbLine
 10
1659.689432063376
 20
2295.500689821201
 30
0.0
 11
1657.869042408069
 21
2296.031923895479
 31
0.0
  0
LINE
  5
2533
102
{ACAD_REACTORS
330
2562
102
}
330
A
100
AcDbEntity
  8
MODEL
 48
0.05
100
AcDbLine
 10
1657.869042408069
 20
2296.031923895479
 30
0.0
 11
1656.020747460921
 21
2296.447402685089
 31
0.0
  0
LINE
  5
2534
102
{ACAD_REACTORS
330
2562
102
}
330
A
100
AcDbEntity
  8
MODEL
 48
0.05
100
AcDbLine
 10
1656.020747460921
 20
2296.447402685089
 30
0.0
 11
1654.150748397899
 21
2296.74557589604
 31
0.0
  0
LINE
  5
2535
102
{ACAD_REACTORS
330
2562
102
}
330
A
100
AcDbEntity
  8
MODEL
 48
0.05
100
AcDbLine
 10
1654.150748397899
 20
2296.74557589604
 30
0.0
 11
1652.263179336313
 21
2296.924893234343
 31
0.0
  0
LINE
  5
2536
102
{ACAD_REACTORS
330
2562
102
}
330
A
100
AcDbEntity
  8
MODEL
 48
0.05
100
AcDbLine
 10
1652.263179336313
 20
2296.924893234343
 30
0.0
 11
1650.369064588986
 21
2296.98483793533
 31
0.0
  0
LINE
  5
2537
102
{ACAD_REACTORS
330
2562
102
}
330
A
100
AcDbEntity
  8
MODEL
 48
0.05
100
AcDbLine
 10
1664.892907717001
 20
2293.234676770902
 30
0.0
 11
1665.45755923953
 21
2292.946494343448
 31
0.0
  0
LINE
  5
2538
102
{ACAD_REACTORS
330
2562
102
}
330
A
100
AcDbEntity
  8
MODEL
 48
0.05
100
AcDbLine
 10
1665.45755923953
 20
2292.946494343448
 30
0.0
 11
1666.035991153093
 21
2292.694313187566
 31
0.0
  0
LINE
  5
2539
102
{ACAD_REACTORS
330
2562
102
}
330
A
100
AcDbEntity
  8
MODEL
 48
0.05
100
AcDbLine
 10
1666.035991153093
 20
2292.694313187566
 30
0.0
 11
1666.628547967462
 21
2292.479339087469
 31
0.0
  0
LINE
  5
253A
102
{ACAD_REACTORS
330
2562
102
}
330
A
100
AcDbEntity
  8
MODEL
 48
0.05
100
AcDbLine
 10
1666.628547967462
 20
2292.479339087469
 30
0.0
 11
1667.235574192415
 21
2292.302261062709
 31
0.0
  0
LINE
  5
253B
102
{ACAD_REACTORS
330
2562
102
}
330
A
100
AcDbEntity
  8
MODEL
 48
0.05
100
AcDbLine
 10
1667.235574192415
 20
2292.302261062709
 30
0.0
 11
1667.852935710641
 21
2292.163768132839
 31
0.0
  0
LINE
  5
253C
102
{ACAD_REACTORS
330
2562
102
}
330
A
100
AcDbEntity
  8
MODEL
 48
0.05
100
AcDbLine
 10
1667.852935710641
 20
2292.163768132839
 30
0.0
 11
1668.477187424383
 21
2292.064204807634
 31
0.0
  0
LINE
  5
253D
102
{ACAD_REACTORS
330
2562
102
}
330
A
100
AcDbEntity
  8
MODEL
 48
0.05
100
AcDbLine
 10
1668.477187424383
 20
2292.064204807634
 30
0.0
 11
1669.10522874566
 21
2292.004604616421
 31
0.0
  0
LINE
  5
253E
102
{ACAD_REACTORS
330
2562
102
}
330
A
100
AcDbEntity
  8
MODEL
 48
0.05
100
AcDbLine
 10
1669.10522874566
 20
2292.004604616421
 30
0.0
 11
1669.736370654919
 21
2291.984795304314
 31
0.0
  0
LINE
  5
253F
102
{ACAD_REACTORS
330
2562
102
}
330
A
100
AcDbEntity
  8
MODEL
 48
0.05
100
AcDbLine
 10
1810.37146231088
 20
2291.984795304314
 30
0.0
 11
1812.322421171213
 21
2291.792558849419
 31
0.0
  0
LINE
  5
2540
102
{ACAD_REACTORS
330
2562
102
}
330
A
100
AcDbEntity
  8
MODEL
 48
0.05
100
AcDbLine
 10
1812.322421171213
 20
2291.792558849419
 30
0.0
 11
1814.198965919974
 21
2291.223256444916
 31
0.0
  0
LINE
  5
2541
102
{ACAD_REACTORS
330
2562
102
}
330
A
100
AcDbEntity
  8
MODEL
 48
0.05
100
AcDbLine
 10
1814.198965919974
 20
2291.223256444916
 30
0.0
 11
1815.92771597492
 21
2290.299281226231
 31
0.0
  0
LINE
  5
2542
102
{ACAD_REACTORS
330
2562
102
}
330
A
100
AcDbEntity
  8
MODEL
 48
0.05
100
AcDbLine
 10
1815.92771597492
 20
2290.299281226231
 30
0.0
 11
1817.441147419992
 21
2289.055773190494
 31
0.0
  0
LINE
  5
2543
102
{ACAD_REACTORS
330
2562
102
}
330
A
100
AcDbEntity
  8
MODEL
 48
0.05
100
AcDbLine
 10
1817.441147419992
 20
2289.055773190494
 30
0.0
 11
1818.686550259496
 21
2287.540446941655
 31
0.0
  0
LINE
  5
2544
102
{ACAD_REACTORS
330
2562
102
}
330
A
100
AcDbEntity
  8
MODEL
 48
0.05
100
AcDbLine
 10
1818.686550259496
 20
2287.540446941655
 30
0.0
 11
1819.610869987957
 21
2285.811524631822
 31
0.0
  0
LINE
  5
2545
102
{ACAD_REACTORS
330
2562
102
}
330
A
100
AcDbEntity
  8
MODEL
 48
0.05
100
AcDbLine
 10
1819.610869987957
 20
2285.811524631822
 30
0.0
 11
1820.178966608245
 21
2283.935496647724
 31
0.0
  0
LINE
  5
2546
102
{ACAD_REACTORS
330
2562
102
}
330
A
100
AcDbEntity
  8
MODEL
 48
0.05
100
AcDbLine
 10
1820.178966608245
 20
2283.935496647724
 30
0.0
 11
1820.369136004484
 21
2281.984710042278
 31
0.0
  0
LINE
  5
2547
102
{ACAD_REACTORS
330
2562
102
}
330
A
100
AcDbEntity
  8
MODEL
 48
0.05
100
AcDbLine
 10
1820.369136004484
 20
1881.983538874405
 30
0.0
 11
1820.178966608245
 21
1880.032580014072
 31
0.0
  0
LINE
  5
2548
102
{ACAD_REACTORS
330
2562
102
}
330
A
100
AcDbEntity
  8
MODEL
 48
0.05
100
AcDbLine
 10
1820.178966608245
 20
1880.032580014072
 30
0.0
 11
1819.610869987957
 21
1878.155690755534
 31
0.0
  0
LINE
  5
2549
102
{ACAD_REACTORS
330
2562
102
}
330
A
100
AcDbEntity
  8
MODEL
 48
0.05
100
AcDbLine
 10
1819.610869987957
 20
1878.155690755534
 30
0.0
 11
1818.686550259496
 21
1876.427285210364
 31
0.0
  0
LINE
  5
254A
102
{ACAD_REACTORS
330
2562
102
}
330
A
100
AcDbEntity
  8
MODEL
 48
0.05
100
AcDbLine
 10
1818.686550259496
 20
1876.427285210364
 30
0.0
 11
1817.441147419992
 21
1874.913853765291
 31
0.0
  0
LINE
  5
254B
102
{ACAD_REACTORS
330
2562
102
}
330
A
100
AcDbEntity
  8
MODEL
 48
0.05
100
AcDbLine
 10
1817.441147419992
 20
1874.913853765291
 30
0.0
 11
1815.92771597492
 21
1873.668450925788
 31
0.0
  0
LINE
  5
254C
102
{ACAD_REACTORS
330
2562
102
}
330
A
100
AcDbEntity
  8
MODEL
 48
0.05
100
AcDbLine
 10
1815.92771597492
 20
1873.668450925788
 30
0.0
 11
1814.198965919974
 21
1872.744131197328
 31
0.0
  0
LINE
  5
254D
102
{ACAD_REACTORS
330
2562
102
}
330
A
100
AcDbEntity
  8
MODEL
 48
0.05
100
AcDbLine
 10
1814.198965919974
 20
1872.744131197328
 30
0.0
 11
1812.322421171213
 21
1872.17603457704
 31
0.0
  0
LINE
  5
254E
102
{ACAD_REACTORS
330
2562
102
}
330
A
100
AcDbEntity
  8
MODEL
 48
0.05
100
AcDbLine
 10
1812.322421171213
 20
1872.17603457704
 30
0.0
 11
1810.37146231088
 21
1871.9858651808
 31
0.0
  0
LINE
  5
254F
102
{ACAD_REACTORS
330
2562
102
}
330
A
100
AcDbEntity
  8
MODEL
 48
0.05
100
AcDbLine
 10
1270.370475513614
 20
1871.9858651808
 30
0.0
 11
1810.37146231088
 21
1871.9858651808
 31
0.0
  0
LINE
  5
2550
102
{ACAD_REACTORS
330
2562
102
}
330
A
100
AcDbEntity
  8
MODEL
 48
0.05
100
AcDbLine
 10
1260.370562506467
 20
2281.984710042278
 30
0.0
 11
1260.562454451585
 21
2283.935496647724
 31
0.0
  0
LINE
  5
2551
102
{ACAD_REACTORS
330
2562
102
}
330
A
100
AcDbEntity
  8
MODEL
 48
0.05
100
AcDbLine
 10
1260.562454451585
 20
2283.935496647724
 30
0.0
 11
1261.131929110976
 21
2285.811524631822
 31
0.0
  0
LINE
  5
2552
102
{ACAD_REACTORS
330
2562
102
}
330
A
100
AcDbEntity
  8
MODEL
 48
0.05
100
AcDbLine
 10
1261.131929110976
 20
2285.811524631822
 30
0.0
 11
1262.055732074774
 21
2287.540446941655
 31
0.0
  0
LINE
  5
2553
102
{ACAD_REACTORS
330
2562
102
}
330
A
100
AcDbEntity
  8
MODEL
 48
0.05
100
AcDbLine
 10
1262.055732074774
 20
2287.540446941655
 30
0.0
 11
1263.299412365398
 21
2289.055773190494
 31
0.0
  0
LINE
  5
2554
102
{ACAD_REACTORS
330
2562
102
}
330
A
100
AcDbEntity
  8
MODEL
 48
0.05
100
AcDbLine
 10
1263.299412365398
 20
2289.055773190494
 30
0.0
 11
1264.814910869125
 21
2290.299281226231
 31
0.0
  0
LINE
  5
2555
102
{ACAD_REACTORS
330
2562
102
}
330
A
100
AcDbEntity
  8
MODEL
 48
0.05
100
AcDbLine
 10
1264.814910869125
 20
2290.299281226231
 30
0.0
 11
1266.543833178957
 21
2291.223256444916
 31
0.0
  0
LINE
  5
2556
102
{ACAD_REACTORS
330
2562
102
}
330
A
100
AcDbEntity
  8
MODEL
 48
0.05
100
AcDbLine
 10
1266.543833178957
 20
2291.223256444916
 30
0.0
 11
1268.419516653281
 21
2291.792558849419
 31
0.0
  0
LINE
  5
2557
102
{ACAD_REACTORS
330
2562
102
}
330
A
100
AcDbEntity
  8
MODEL
 48
0.05
100
AcDbLine
 10
1268.419516653281
 20
2291.792558849419
 30
0.0
 11
1270.370475513614
 21
2291.984795304314
 31
0.0
  0
CIRCLE
  5
2558
330
A
100
AcDbEntity
  8
HIDDEN
  6
HIDDEN
 48
0.5
100
AcDbCircle
 10
1540.363992589287
 20
2038.555997268472
 30
0.0
 40
22.99933001054558
  0
DIMENSION
  5
2559
330
A
100
AcDbEntity
  8
Dim
  6
Continuous
100
AcDbDimension
  2
*D49
 10
1967.505066711114
 20
1871.984795304314
 30
0.0
 11
1935.505066711114
 21
2081.984795304314
 31
0.0
 70
    32
 71
     5
 42
419.9999999999995
 73
     0
 74
     0
 75
     0
  3
tfrom線あり
100
AcDbAlignedDimension
 13
1845.198971211395
 23
2291.984795304314
 33
0.0
 14
1845.198971211395
 24
1871.984795304314
 34
0.0
 50
90.0
100
AcDbRotatedDimension
  0
DIMENSION
  5
255A
330
A
100
AcDbEntity
  8
Dim
  6
Continuous
100
AcDbDimension
  2
*D50
 10
1820.369136004484
 20
1727.099089731957
 30
0.0
 11
1540.369849255475
 21
1759.099089731957
 31
0.0
 70
    32
 71
     5
 42
559.9985734980169
 73
     0
 74
     0
 75
     0
  3
tfrom線あり
100
AcDbAlignedDimension
 13
1260.370562506467
 23
1843.196225626258
 33
0.0
 14
1820.369136004484
 24
1843.196225626258
 34
0.0
100
AcDbRotatedDimension
  0
ARC
  5
255B
102
{ACAD_REACTORS
330
2562
102
}
330
A
100
AcDbEntity
  8
LOGO
  6
Continuous
100
AcDbCircle
 10
1270.370475513614
 20
1881.9858651808
 30
0.0
 40
10.0
100
AcDbArc
 50
179.761009998922
 51
270.0
  0
MTEXT
  5
255C
102
{ACAD_REACTORS
330
255D
102
}
330
A
100
AcDbEntity
  8
Dim
  6
Continuous
100
AcDbMText
 10
1197.514880580768
 20
1967.989715898105
 30
0.0
 40
24.0
 41
0.0
 46
0.0
 71
     9
 72
     1
  1
R10
  7
ＭＳ ゴシック
 73
     1
 44
0.25
  0
LEADER
  5
255D
102
{ACAD_XDICTIONARY
360
255E
102
}
330
A
100
AcDbEntity
  8
Dim
  6
Continuous
100
AcDbLeader
  3
tfrom線あり
 73
     0
 40
24.0
 41
44.112
 76
     3
 10
1264.267464323761
 20
1874.929560022655
 30
0.0
 10
1218.598852646549
 20
1947.989715898105
 30
0.0
 10
1217.514880580768
 20
1947.989715898105
 30
0.0
340
255C
  0
DIMENSION
  5
255F
330
A
100
AcDbEntity
  8
Dim
  6
Continuous
100
AcDbDimension
  2
*D51
 10
1389.386567756093
 20
2311.983071024618
 30
0.0
 11
1389.386567756093
 21
2361.135071024618
 31
0.0
 70
   160
 71
     5
 42
15.05817779027529
 73
     0
 74
     1
 75
     1
  3
tfrom線あり
100
AcDbAlignedDimension
 13
1428.476691429526
 23
2296.924893234343
 33
0.0
 14
1426.452394540794
 24
2311.983071024618
 34
0.0
 50
90.0
100
AcDbRotatedDimension
  0
DIMENSION
  5
2560
330
A
100
AcDbEntity
  8
Dim
  6
Continuous
100
AcDbDimension
  2
*D52
 10
1650.370806176853
 20
2420.691022236508
 30
0.0
 11
1540.370806176853
 21
2452.691022236508
 31
0.0
 70
    32
 71
     5
 42
220.0
 73
     0
 74
     0
 75
     0
  3
tfrom線あり
100
AcDbAlignedDimension
 13
1430.370806176853
 23
2313.469446065793
 33
0.0
 14
1650.370806176853
 24
2313.469446065793
 34
0.0
100
AcDbRotatedDimension
  0
DIMENSION
  5
2561
330
A
100
AcDbEntity
  8
Dim
  6
Continuous
100
AcDbDimension
  2
*D53
 10
1967.505066711114
 20
2311.984795304314
 30
0.0
 11
1967.505066711114
 21
2364.240795304315
 31
0.0
 70
   160
 71
     5
 42
20.0
 73
     0
 74
     0
 75
     0
  3
tfrom線あり
100
AcDbAlignedDimension
 13
1845.198971211395
 23
2291.984795304314
 33
0.0
 14
1845.198971211395
 24
2311.984795304314
 34
0.0
 50
90.0
100
AcDbRotatedDimension
1001
ACAD
1000
DSTYLE
1002
{
1070
   172
1070
     1
1002
}
  0
HATCH
  5
2562
330
A
100
AcDbEntity
  8
Dim
  6
Continuous
100
AcDbHatch
 10
0.0
 20
0.0
 30
0.0
210
0.0
220
0.0
230
1.0
  2
ANSI31
 70
     0
 71
     1
 91
        1
 92
        1
 93
       71
 72
     1
 10
1810.37146231088
 20
2291.984795304314
 11
1697.369844281306
 21
2291.984795304314
 72
     1
 10
1810.37146231088
 20
2291.984795304314
 11
1812.322421171213
 21
2291.792558849419
 72
     1
 10
1812.322421171213
 20
2291.792558849419
 11
1814.198965919974
 21
2291.223256444916
 72
     1
 10
1814.198965919974
 20
2291.223256444916
 11
1815.92771597492
 21
2290.299281226231
 72
     1
 10
1815.92771597492
 20
2290.299281226231
 11
1817.441147419992
 21
2289.055773190494
 72
     1
 10
1817.441147419992
 20
2289.055773190494
 11
1818.686550259496
 21
2287.540446941655
 72
     1
 10
1818.686550259496
 20
2287.540446941655
 11
1819.610869987957
 21
2285.811524631822
 72
     1
 10
1819.610869987957
 20
2285.811524631822
 11
1820.178966608245
 21
2283.935496647724
 72
     1
 10
1820.178966608245
 20
2283.935496647724
 11
1820.369136004484
 21
2281.984710042278
 72
     1
 10
1820.369136004484
 20
1881.983538874405
 11
1820.369136004484
 21
2281.984710042278
 72
     1
 10
1697.369844281306
 20
2291.984795304314
 11
1683.37137856138
 21
2291.984795304314
 72
     1
 10
1683.37137856138
 20
2291.984795304314
 11
1669.736370654919
 21
2291.984795304314
 72
     1
 10
1669.10522874566
 20
2292.004604616421
 11
1669.736370654919
 21
2291.984795304314
 72
     1
 10
1668.477187424383
 20
2292.064204807634
 11
1669.10522874566
 21
2292.004604616421
 72
     1
 10
1667.852935710641
 20
2292.163768132839
 11
1668.477187424383
 21
2292.064204807634
 72
     1
 10
1667.235574192415
 20
2292.302261062709
 11
1667.852935710641
 21
2292.163768132839
 72
     1
 10
1666.628547967462
 20
2292.479339087469
 11
1667.235574192415
 21
2292.302261062709
 72
     1
 10
1666.035991153093
 20
2292.694313187566
 11
1666.628547967462
 21
2292.479339087469
 72
     1
 10
1665.45755923953
 20
2292.946494343448
 11
1666.035991153093
 21
2292.694313187566
 72
     1
 10
1664.892907717001
 20
2293.234676770902
 11
1665.45755923953
 21
2292.946494343448
 72
     1
 10
1664.892907717001
 20
2293.234676770902
 11
1663.210321972012
 21
2294.09939630815
 72
     1
 10
1663.210321972012
 20
2294.09939630815
 11
1661.470892114018
 21
2294.855423011135
 72
     1
 10
1661.470892114018
 20
2294.855423011135
 11
1659.689432063376
 21
2295.500689821201
 72
     1
 10
1659.689432063376
 20
2295.500689821201
 11
1657.869042408069
 21
2296.031923895479
 72
     1
 10
1657.869042408069
 20
2296.031923895479
 11
1656.020747460921
 21
2296.447402685089
 72
     1
 10
1656.020747460921
 20
2296.447402685089
 11
1654.150748397899
 21
2296.74557589604
 72
     1
 10
1654.150748397899
 20
2296.74557589604
 11
1652.263179336313
 21
2296.924893234343
 72
     1
 10
1652.263179336313
 20
2296.924893234343
 11
1650.369064588986
 21
2296.98483793533
 72
     1
 10
1650.369064588986
 20
2296.98483793533
 11
1430.370806176853
 21
2296.98483793533
 72
     1
 10
1430.370806176853
 20
2296.98483793533
 11
1428.476691429526
 21
2296.924893234343
 72
     1
 10
1428.476691429526
 20
2296.924893234343
 11
1426.590328152154
 21
2296.74557589604
 72
     1
 10
1426.590328152154
 20
2296.74557589604
 11
1424.719295559805
 21
2296.447402685089
 72
     1
 10
1424.719295559805
 20
2296.447402685089
 11
1422.870656102883
 21
2296.031923895479
 72
     1
 10
1422.870656102883
 20
2296.031923895479
 11
1421.051816741567
 21
2295.500689821201
 72
     1
 10
1421.051816741567
 20
2295.500689821201
 11
1419.270184436037
 21
2294.855423011135
 72
     1
 10
1419.270184436037
 20
2294.855423011135
 11
1417.532821636697
 21
2294.09939630815
 72
     1
 10
1417.532821636697
 20
2294.09939630815
 11
1415.846963048838
 21
2293.234676770902
 72
     1
 10
1415.284895349627
 20
2292.946494343448
 11
1415.846963048838
 21
2293.234676770902
 72
     1
 10
1414.705602161625
 20
2292.694313187566
 11
1415.284895349627
 21
2292.946494343448
 72
     1
 10
1414.111839563041
 20
2292.479339087469
 11
1414.705602161625
 21
2292.694313187566
 72
     1
 10
1413.505846867415
 20
2292.302261062709
 11
1414.111839563041
 21
2292.479339087469
 72
     1
 10
1412.889518878515
 20
2292.163768132839
 11
1413.505846867415
 21
2292.302261062709
 72
     1
 10
1412.265783929437
 20
2292.064204807634
 11
1412.889518878515
 21
2292.163768132839
 72
     1
 10
1411.63688133372
 20
2292.004604616421
 11
1412.265783929437
 21
2292.064204807634
 72
     1
 10
1411.005739424463
 20
2291.984795304314
 11
1411.63688133372
 21
2292.004604616421
 72
     1
 10
1411.005739424463
 20
2291.984795304314
 11
1397.370559263114
 21
2291.984795304314
 72
     1
 10
1397.370559263114
 20
2291.984795304314
 11
1383.370543249197
 21
2291.984795304314
 72
     1
 10
1383.370543249197
 20
2291.984795304314
 11
1270.370475513614
 21
2291.984795304314
 72
     1
 10
1268.419516653281
 20
2291.792558849419
 11
1270.370475513614
 21
2291.984795304314
 72
     1
 10
1266.543833178957
 20
2291.223256444916
 11
1268.419516653281
 21
2291.792558849419
 72
     1
 10
1264.814910869125
 20
2290.299281226231
 11
1266.543833178957
 21
2291.223256444916
 72
     1
 10
1263.299412365398
 20
2289.055773190494
 11
1264.814910869125
 21
2290.299281226231
 72
     1
 10
1262.055732074774
 20
2287.540446941655
 11
1263.299412365398
 21
2289.055773190494
 72
     1
 10
1261.131929110976
 20
2285.811524631822
 11
1262.055732074774
 21
2287.540446941655
 72
     1
 10
1260.562454451585
 20
2283.935496647724
 11
1261.131929110976
 21
2285.811524631822
 72
     1
 10
1260.370562506467
 20
2281.984710042278
 11
1260.562454451585
 21
2283.935496647724
 72
     1
 10
1260.370562506467
 20
2281.984710042278
 11
1260.370562506467
 21
2238.984550121391
 72
     1
 10
1260.370562506467
 20
2238.984550121391
 11
1260.370562506467
 21
2224.984534107474
 72
     1
 10
1260.370562506467
 20
2224.984534107474
 11
1260.370562506467
 21
1938.985437358087
 72
     1
 10
1260.370562506467
 20
1938.985437358087
 11
1260.370562506467
 21
1924.983526540402
 72
     1
 10
1260.370562506467
 20
1924.983526540402
 11
1260.370562506467
 21
1881.983538874405
 72
     1
 10
1820.369136004484
 20
1881.983538874405
 11
1820.178966608245
 21
1880.032580014072
 72
     1
 10
1820.178966608245
 20
1880.032580014072
 11
1819.610869987957
 21
1878.155690755534
 72
     1
 10
1819.610869987957
 20
1878.155690755534
 11
1818.686550259496
 21
1876.427285210364
 72
     1
 10
1818.686550259496
 20
1876.427285210364
 11
1817.441147419992
 21
1874.913853765291
 72
     1
 10
1817.441147419992
 20
1874.913853765291
 11
1815.92771597492
 21
1873.668450925788
 72
     1
 10
1815.92771597492
 20
1873.668450925788
 11
1814.198965919974
 21
1872.744131197328
 72
     1
 10
1814.198965919974
 20
1872.744131197328
 11
1812.322421171213
 21
1872.17603457704
 72
     1
 10
1812.322421171213
 20
1872.17603457704
 11
1810.37146231088
 21
1871.9858651808
 72
     1
 10
1270.370475513614
 20
1871.9858651808
 11
1810.37146231088
 21
1871.9858651808
 72
     2
 10
1270.370475513614
 20
1881.9858651808
 40
10.0
 50
179.761009998922
 51
270.0
 73
     1
 97
       71
330
2512
330
253F
330
2540
330
2541
330
2542
330
2543
330
2544
330
2545
330
2546
330
251D
330
2513
330
2514
330
253E
330
253D
330
253C
330
253B
330
253A
330
2539
330
2538
330
2537
330
252F
330
2530
330
2531
330
2532
330
2533
330
2534
330
2535
330
2536
330
252E
330
2526
330
2527
330
2528
330
2529
330
252A
330
252B
330
252C
330
252D
330
2525
330
2524
330
2523
330
2522
330
2521
330
2520
330
251F
330
251E
330
2515
330
2516
330
2517
330
2557
330
2556
330
2555
330
2554
330
2553
330
2552
330
2551
330
2550
330
2518
330
2519
330
251A
330
251B
330
251C
330
2547
330
2548
330
2549
330
254A
330
254B
330
254C
330
254D
330
254E
330
254F
330
255B
 75
     0
 76
     1
 52
0.0
 41
5.0
 77
     0
 78
     1
 53
45.0
 43
22.73756802977164
 44
8847.045044925111
 45
-11.22532015133644
 46
11.22532015133644
 79
     0
 98
        1
 10
22.73756802977164
 20
8847.045044925111
1001
ACAD
1010
0.0
1020
0.0
1030
0.0
  0
MTEXT
  5
2564
330
A
100
AcDbEntity
  8
Dim
390
1D
100
AcDbMText
 10
1280.552344333702
 20
1609.39400817915
 30
0.0
 40
24.0
 41
790.0
 46
151.9402781481255
 71
     1
 72
     1
  1
{\fＭＳ ゴシック|b0|i0|c1|p0;※こちらの切込寸法は参考寸法です。\P　製品に付属している型紙とは\P　一部寸法が異なりますので、\P　加工を行う際はご注意ください。}
  7
ＭＳ ゴシック
 73
     1
 44
1.043768984567712
1001
ACAD
1000
ACAD_MTEXT_DEFINED_HEIGHT_BEGIN
1070
    46
1040
151.9402781481255
1000
ACAD_MTEXT_DEFINED_HEIGHT_END
  0
LINE
  5
25F9
102
{ACAD_REACTORS
330
2603
102
}
330
A
100
AcDbEntity
  8
MODEL
100
AcDbLine
 10
539.6089871891977
 20
930.3420443937769
 30
0.0
 11
592.9198604674586
 21
930.3420443937769
 31
0.0
  0
LINE
  5
25FA
102
{ACAD_REACTORS
330
2603
102
}
330
A
100
AcDbEntity
  8
MODEL
  6
Continuous
100
AcDbLine
 10
592.9198604674586
 20
933.5086725418084
 30
0.0
 11
592.9198604674586
 21
930.3420443937769
 31
0.0
  0
LINE
  5
25FB
102
{ACAD_REACTORS
330
2603
102
}
330
A
100
AcDbEntity
  8
MODEL
  6
Continuous
100
AcDbLine
 10
539.6089871891977
 20
933.5086725418084
 30
0.0
 11
592.9198604674586
 21
933.5086725418084
 31
0.0
  0
LINE
  5
25FC
102
{ACAD_REACTORS
330
2603
102
}
330
A
100
AcDbEntity
  8
MODEL
  6
Continuous
100
AcDbLine
 10
539.6089871891977
 20
933.5086725418084
 30
0.0
 11
539.6089871891977
 21
930.3420443937769
 31
0.0
  0
LINE
  5
25FD
102
{ACAD_REACTORS
330
2603
102
}
330
A
100
AcDbEntity
  8
MODEL
100
AcDbLine
 10
541.8257609386633
 20
930.3420443937769
 30
0.0
 11
541.8257609386633
 21
901.67530068984
 31
0.0
  0
LINE
  5
25FE
102
{ACAD_REACTORS
330
2603
102
}
330
A
100
AcDbEntity
  8
MODEL
100
AcDbLine
 10
590.7030867179928
 20
930.3420443937769
 30
0.0
 11
590.7030867179928
 21
901.67530068984
 31
0.0
  0
LINE
  5
25FF
102
{ACAD_REACTORS
330
2603
102
}
330
A
100
AcDbEntity
  8
MODEL
  6
Continuous
100
AcDbLine
 10
592.9198604674586
 20
898.5086725418084
 30
0.0
 11
539.6089871891977
 21
898.5086725418084
 31
0.0
  0
LINE
  5
2600
102
{ACAD_REACTORS
330
2603
102
}
330
A
100
AcDbEntity
  8
MODEL
100
AcDbLine
 10
539.6089871891977
 20
901.67530068984
 30
0.0
 11
592.9198604674586
 21
901.67530068984
 31
0.0
  0
LINE
  5
2601
102
{ACAD_REACTORS
330
2603
102
}
330
A
100
AcDbEntity
  8
MODEL
  6
Continuous
100
AcDbLine
 10
592.9198604674586
 20
901.67530068984
 30
0.0
 11
592.9198604674586
 21
898.5086725418084
 31
0.0
  0
LINE
  5
2602
102
{ACAD_REACTORS
330
2603
102
}
330
A
100
AcDbEntity
  8
MODEL
  6
Continuous
100
AcDbLine
 10
539.6089871891977
 20
901.67530068984
 30
0.0
 11
539.6089871891977
 21
898.5086725418084
 31
0.0
  0
SPLINE
  5
280E
330
A
100
AcDbEntity
  8
MODEL
100
AcDbSpline
210
0.0
220
0.0
230
1.0
 70
     8
 71
     3
 72
    15
 73
    11
 74
     0
 42
0.000000001
 43
0.0000000001
 40
53.1749453289097
 40
53.1749453289097
 40
53.1749453289097
 40
53.1749453289097
 40
62.5587017453351
 40
106.645917750752
 40
156.1323496700648
 40
199.6003782288182
 40
236.7081225696147
 40
259.9472263444102
 40
278.8302802810854
 40
295.3178911199043
 40
295.3178911199043
 40
295.3178911199043
 40
295.3178911199043
 10
301.1848493551856
 20
1042.598857036606
 30
0.0
 10
318.192984945853
 20
1029.398026523015
 30
0.0
 10
335.5836354309554
 20
1016.299933788501
 30
0.0
 10
362.5690967236947
 20
999.2296916373114
 30
0.0
 10
395.2679775341785
 20
983.0238474785831
 30
0.0
 10
438.6823590324775
 20
966.6523000393573
 30
0.0
 10
467.9573019731897
 20
957.9484956715773
 30
0.0
 10
494.222735894992
 20
951.4332334417139
 30
0.0
 10
513.029322639747
 20
947.6868844958856
 30
0.0
 10
523.45389026491
 20
946.0258085919116
 30
0.0
 10
529.8432373848125
 20
944.4876222458993
 30
0.0
  0
SPLINE
  5
280F
330
A
100
AcDbEntity
  8
HIDDEN
 48
0.5
100
AcDbSpline
210
0.0
220
0.0
230
1.0
 70
  1064
 71
     3
 72
    10
 73
     6
 74
     4
 42
0.000000001
 43
0.0000000001
 44
0.0
 40
0.0
 40
0.0
 40
0.0
 40
0.0
 40
11.04687910116336
 40
26.22761034963882
 40
32.47566662872811
 40
32.47566662872811
 40
32.47566662872811
 40
32.47566662872811
 10
301.1848493551856
 20
1042.598857036606
 30
0.0
 10
298.0646475608472
 20
1044.521093880265
 30
0.0
 10
290.6566333946081
 20
1049.084887733127
 30
0.0
 10
281.4006951801728
 20
1055.297488280108
 30
0.0
 10
274.2800908988553
 20
1056.305072961163
 30
0.0
 10
272.2039148093979
 20
1056.598857468806
 30
0.0
 11
301.1848493551856
 21
1042.598857036606
 31
0.0
 11
291.8123302384189
 21
1048.446029283219
 31
0.0
 11
278.346310004031
 21
1055.454659697608
 31
0.0
 11
272.2039148093979
 21
1056.598857468806
 31
0.0
  0
LINE
  5
2895
330
A
100
AcDbEntity
  8
HIDDEN
 48
0.25
100
AcDbLine
 10
1700.743052464203
 20
1042.598857036606
 30
0.0
 11
1707.463168194953
 21
1056.598857468806
 31
0.0
  0
LINE
  5
2896
330
A
100
AcDbEntity
  8
HIDDEN
 48
0.25
100
AcDbLine
 10
1385.435404637581
 20
1042.598857036606
 30
0.0
 11
1376.090866313858
 21
1056.598857468806
 31
0.0
  0
DIMENSION
  5
29A1
102
{ACAD_XDICTIONARY
360
29A2
102
}
330
A
100
AcDbEntity
  8
Dim
  6
Continuous
100
AcDbDimension
  2
*D56
 10
168.4831310122198
 20
2312.484304195348
 30
0.0
 11
146.2668224184698
 21
2259.984304195348
 31
0.0
 70
    32
 71
     5
 42
105.0
 73
     0
 74
     0
 75
     0
  3
JIS
100
AcDbAlignedDimension
 13
244.2687828257981
 23
2207.484304195348
 33
0.0
 14
259.3700743245291
 24
2312.484304195348
 34
0.0
 50
90.0
100
AcDbRotatedDimension
1001
ACAD
1000
DSTYLE
1002
{
1070
   144
1040
1.0
1070
   179
1070
     0
1070
   271
1070
     0
1070
    43
1040
25.0
1070
    44
1040
0.0
1070
    42
1040
25.0
1002
}
  0
VIEWPORT
  5
349
330
B
100
AcDbEntity
 67
     1
  8
0
100
AcDbViewport
 10
202.5
 20
128.5
 30
0.0
 40
486.0
 41
308.4
 68
     1
 69
     1
 12
202.5
 22
128.5
 13
0.0
 23
0.0
 14
0.5
 24
0.5
 15
0.0
 25
0.0
 16
0.0
 26
0.0
 36
1.0
 17
0.0
 27
0.0
 37
0.0
 42
50.0
 43
0.0
 44
0.0
 45
308.4
 50
0.0
 51
0.0
 72
   100
 90
   557152
  1

281
     0
 71
     1
 74
     0
110
0.0
120
0.0
130
0.0
111
1.0
121
0.0
131
0.0
112
0.0
122
1.0
132
0.0
 79
     0
146
0.0
170
     0
 61
     5
348
26C
292
     1
282
     1
141
0.0
142
0.0
 63
   256
  0
VIEWPORT
  5
34A
330
B
100
AcDbEntity
 67
     1
  8
0
100
AcDbViewport
 10
202.5
 20
128.5
 30
0.0
 40
324.0
 41
205.6
 68
     2
 69
     2
 12
986.6781359294573
 22
1427.077061889956
 13
0.0
 23
0.0
 14
0.5
 24
0.5
 15
0.0
 25
0.0
 16
0.0
 26
0.0
 36
1.0
 17
0.0
 27
0.0
 37
0.0
 42
50.0
 43
0.0
 44
0.0
 45
2890.021615685494
 50
0.0
 51
0.0
 72
   100
 90
   557152
  1

281
     0
 71
     1
 74
     0
110
0.0
120
0.0
130
0.0
111
1.0
121
0.0
131
0.0
112
0.0
122
1.0
132
0.0
 79
     0
146
0.0
170
     0
 61
     5
348
26C
292
     1
282
     1
141
0.0
142
0.0
 63
   256
  0
ENDSEC
  0
SECTION
  2
OBJECTS
  0
DICTIONARY
  5
19
330
0
100
AcDbDictionary
281
     1
  3
ACAD_COLOR
350
38F
  3
ACAD_DETAILVIEWSTYLE
350
8CF
  3
ACAD_FIELDLIST
350
BA6
  3
ACAD_GROUP
350
1A
  3
ACAD_IMAGE_VARS
350
27B
  3
ACAD_LAYOUT
350
1E
  3
ACAD_MATERIAL
350
263
  3
ACAD_MLEADERSTYLE
350
336
  3
ACAD_MLINESTYLE
350
1B
  3
ACAD_PLOTSETTINGS
350
22
  3
ACAD_PLOTSTYLENAME
350
1F
  3
ACAD_SCALELIST
350
241
  3
ACAD_SECTIONVIEWSTYLE
350
8D0
  3
ACAD_TABLESTYLE
350
278
  3
ACAD_VISUALSTYLE
350
267
  3
ACDB_RECOMPOSE_DATA
350
29BE
  3
AcDbVariableDictionary
350
330
  3
APPDATA
350
27A
  3
DimOffsetDictionary
350
C08
  0
SUN
  5
8C2
330
15
100
AcDbSun
 90
        1
290
     0
 63
     7
421
 16777215
 40
1.0
291
     1
 91
  2455826
 92
 54000000
292
     0
 70
     2
 71
   256
280
     1
  0
DICTIONARY
  5
2E1
330
2
100
AcDbDictionary
280
     1
281
     1
  3
ACAD_LAYERSTATES
360
2E2
  3
ACLYDICTIONARY
360
BFE
  0
DICTIONARY
  5
2893
330
A
100
AcDbDictionary
280
     1
281
     1
  3
ACAD_SORTENTS
360
2894
  0
DICTIONARY
  5
BDC
330
BDB
100
AcDbDictionary
280
     1
281
     1
  3
ACAD_FIELD
360
2671
  0
DICTIONARY
  5
1EEF
330
1EEE
100
AcDbDictionary
280
     1
281
     1
  3
ACAD_DIMASSOC
360
1EF0
  0
DICTIONARY
  5
255E
330
255D
100
AcDbDictionary
280
     1
281
     1
  0
DICTIONARY
  5
29A2
330
29A1
100
AcDbDictionary
280
     1
281
     1
  0
DICTIONARY
  5
38F
102
{ACAD_REACTORS
330
19
102
}
330
19
100
AcDbDictionary
281
     1
  0
DICTIONARY
  5
8CF
102
{ACAD_REACTORS
330
19
102
}
330
19
100
AcDbDictionary
281
     1
  0
FIELDLIST
  5
BA6
102
{ACAD_REACTORS
330
19
102
}
330
19
100
AcDbIdSet
 90
        2
330
BDF
330
BDE
100
AcDbFieldList
  0
DICTIONARY
  5
1A
102
{ACAD_REACTORS
330
19
102
}
330
19
100
AcDbDictionary
281
     1
  3
*A1
350
224C
  3
*A2
350
2603
  0
RASTERVARIABLES
  5
27B
102
{ACAD_REACTORS
330
19
102
}
330
19
100
AcDbRasterVariables
 90
        0
 70
     1
 71
     1
 72
     1
  0
DICTIONARY
  5
1E
102
{ACAD_REACTORS
330
19
102
}
330
19
100
AcDbDictionary
281
     1
  3
Layout1
350
21
  3
Model
350
20
  0
DICTIONARY
  5
263
102
{ACAD_REACTORS
330
19
102
}
330
19
100
AcDbDictionary
281
     1
  3
ByBlock
350
1AFC
  3
ByLayer
350
264
  3
Global
350
266
  0
DICTIONARY
  5
336
102
{ACAD_REACTORS
330
19
102
}
330
19
100
AcDbDictionary
281
     1
  3
Standard
350
8D1
  0
DICTIONARY
  5
1B
102
{ACAD_REACTORS
330
19
102
}
330
19
100
AcDbDictionary
281
     1
  3
Standard
350
1C
  0
DICTIONARY
  5
22
102
{ACAD_REACTORS
330
19
102
}
330
19
100
AcDbDictionary
281
     1
  0
ACDBDICTIONARYWDFLT
  5
1F
102
{ACAD_REACTORS
330
19
102
}
330
19
100
AcDbDictionary
281
     1
  3
Normal
350
1D
100
AcDbDictionaryWithDefault
340
1D
  0
DICTIONARY
  5
241
102
{ACAD_REACTORS
330
19
102
}
330
19
100
AcDbDictionary
281
     1
  3
A0
350
242
  3
A1
350
243
  3
A2
350
244
  3
A3
350
245
  3
A4
350
246
  3
A5
350
247
  3
A6
350
248
  3
A7
350
249
  3
A8
350
24A
  3
A9
350
24B
  3
B0
350
24C
  3
B1
350
24D
  3
B2
350
24E
  3
B3
350
24F
  3
B4
350
250
  3
B5
350
251
  3
B6
350
252
  3
B7
350
253
  3
B8
350
254
  3
B9
350
255
  3
C0
350
256
  3
C1
350
257
  3
C2
350
258
  3
C3
350
259
  3
C4
350
25A
  3
C5
350
25B
  3
C6
350
25C
  3
C7
350
25D
  3
C8
350
25E
  3
C9
350
25F
  3
D0
350
260
  3
D1
350
261
  3
D2
350
262
  0
DICTIONARY
  5
8D0
102
{ACAD_REACTORS
330
19
102
}
330
19
100
AcDbDictionary
281
     1
  0
DICTIONARY
  5
278
102
{ACAD_REACTORS
330
19
102
}
330
19
100
AcDbDictionary
281
     1
  3
Standard
350
279
  0
DICTIONARY
  5
267
102
{ACAD_REACTORS
330
19
102
}
330
19
100
AcDbDictionary
281
     1
  3
2dWireframe
350
26C
  3
3D Hidden
350
26E
  3
3dWireframe
350
26D
  3
Basic
350
26F
  3
Brighten
350
273
  3
ColorChange
350
277
  3
Conceptual
350
271
  3
Dim
350
272
  3
EdgeColorOff
350
8BC
  3
Facepattern
350
276
  3
Flat
350
268
  3
FlatWithEdges
350
269
  3
Gouraud
350
26A
  3
GouraudWithEdges
350
26B
  3
Hidden
350
8B9
  3
JitterOff
350
8BA
  3
Linepattern
350
275
  3
OverhangOff
350
8BB
  3
Realistic
350
270
  3
Shaded
350
8C1
  3
Shaded with edges
350
8C0
  3
Shades of Gray
350
8BD
  3
Sketchy
350
8BE
  3
Thicken
350
274
  3
Wireframe
350
8B8
  3
X-Ray
350
8BF
  0
XRECORD
  5
29BE
102
{ACAD_REACTORS
330
19
102
}
330
19
100
AcDbXrecord
280
     1
 90
        1
330
279
  0
DICTIONARY
  5
330
102
{ACAD_REACTORS
330
19
102
}
330
19
100
AcDbDictionary
281
     1
  3
CANNOSCALE
350
331
  3
CMLEADERSTYLE
350
8DA
  3
CTABLESTYLE
350
335
  3
HPTRANSPARENCY
350
C07
  3
XCLIPFRAME
350
64A
  0
DICTIONARY
  5
27A
102
{ACAD_REACTORS
330
19
102
}
330
19
100
AcDbDictionary
281
     1
  0
DICTIONARY
  5
C08
102
{ACAD_REACTORS
330
19
102
}
330
19
100
AcDbDictionary
281
     1
  3
DIMRAILANGLE
350
C0B
  3
DIMRAILFIRSTOFFSET
350
C09
  3
DIMRAILOFFSET
350
C0A
  3
DIMRAILSENABLED
350
C0C
  0
DICTIONARY
  5
2E2
102
{ACAD_REACTORS
330
2E1
102
}
330
2E1
100
AcDbDictionary
281
     1
  0
DICTIONARY
  5
BFE
102
{ACAD_REACTORS
330
2E1
102
}
330
2E1
100
AcDbDictionary
281
     1
1001
ACAD
1000
<All
  0
SORTENTSTABLE
  5
2894
102
{ACAD_REACTORS
330
2893
102
}
330
2893
100
AcDbSortentsTable
330
A
331
0
  5
1CE7
331
177
  5
1CCB
331
178
  5
1CCC
331
179
  5
1CCD
331
17A
  5
1CCE
331
17B
  5
1CCF
331
17C
  5
1CD0
331
17E
  5
1CD1
331
180
  5
1CD2
331
181
  5
1CD3
331
182
  5
1CD4
331
183
  5
1CD5
331
184
  5
1CD6
331
185
  5
1CD7
331
186
  5
1CD8
331
187
  5
1CD9
331
188
  5
1CDA
331
189
  5
1CDB
331
18A
  5
1CDC
331
1A6
  5
1CDD
331
374
  5
1CDE
331
3D0
  5
1CDF
331
BDB
  5
1CE0
331
BEE
  5
1CE1
331
1273
  5
1CE2
331
127B
  5
1CE3
331
127C
  5
1CE4
331
13DA
  5
1CE5
331
142C
  5
1CE6
331
1CBA
  5
1CE8
331
1CBB
  5
1CEB
331
1CBC
  5
1CEC
331
1CBD
  5
1CED
331
1CBE
  5
1CEE
331
1CBF
  5
1CEF
331
1CC0
  5
1CF0
331
1CC1
  5
1CF1
331
1CC2
  5
1CF2
331
1CC3
  5
1CF3
331
1CC4
  5
1CF4
331
1CC5
  5
1CF5
331
1CC6
  5
1CF6
331
1CC7
  5
1CF7
331
1CC8
  5
1CF8
331
1CC9
  5
1CF9
331
1CCA
  5
1CFA
331
1CCB
  5
1CFB
331
1CCC
  5
1CFC
331
1CCD
  5
1CFD
331
1CCE
  5
1CFE
331
1CCF
  5
1CFF
331
1CD0
  5
1D00
331
1CD1
  5
1D01
331
1CD2
  5
1D02
331
1CD3
  5
1D03
331
1CD4
  5
1D04
331
1CD5
  5
1D05
331
1CD6
  5
1D06
331
1CD7
  5
1D07
331
1CD8
  5
1D08
331
1CD9
  5
1D09
331
1CDA
  5
1D0A
331
1CDB
  5
1D0B
331
1CDC
  5
1D0C
331
1CDD
  5
1D0D
331
1CDE
  5
1D0E
331
1CDF
  5
1D8F
331
1CE0
  5
1D90
331
1CE1
  5
1D91
331
1CE2
  5
1D92
331
1CE3
  5
1D95
331
1CE4
  5
1D96
331
1CE5
  5
1D97
331
1CE6
  5
1D98
331
1CE7
  5
1D99
331
1CE8
  5
1D9A
331
1CEB
  5
1D9B
331
1CEC
  5
1D9C
331
1CED
  5
1D9D
331
1CEE
  5
1D9E
331
1CEF
  5
1D9F
331
1CF0
  5
1DA0
331
1CF1
  5
1DA1
331
1CF2
  5
1DA2
331
1CF3
  5
1DA3
331
1CF4
  5
1DA4
331
1CF5
  5
1DA5
331
1CF6
  5
1DA6
331
1CF7
  5
1DA7
331
1CF8
  5
1DA8
331
1CF9
  5
1DA9
331
1CFA
  5
1DAA
331
1CFB
  5
1DAB
331
1CFC
  5
1DAC
331
1CFD
  5
1DAD
331
1CFE
  5
1DAE
331
1CFF
  5
1DAF
331
1D00
  5
1DB0
331
1D01
  5
1DB1
331
1D02
  5
1DB2
331
1D03
  5
1DB3
331
1D04
  5
1DB4
331
1D05
  5
1DB5
331
1D06
  5
1DB6
331
1D07
  5
1DB7
331
1D08
  5
1DB8
331
1D09
  5
1DB9
331
1D0A
  5
1DBA
331
1D0B
  5
1DBB
331
1D0C
  5
1DBC
331
1D0D
  5
1DBD
331
1D0E
  5
1DBE
331
1D8F
  5
1DBF
331
1D90
  5
1DC0
331
1D91
  5
1DC1
331
1D92
  5
1DC2
331
1D95
  5
1DC3
331
1D96
  5
1DC4
331
1D97
  5
1DC5
331
1D98
  5
1DC6
331
1D99
  5
1DC7
331
1D9A
  5
1DC8
331
1D9B
  5
1DC9
331
1D9C
  5
1DCA
331
1D9D
  5
1DCB
331
1D9E
  5
1DCC
331
1D9F
  5
1DCD
331
1DA0
  5
1DCE
331
1DA1
  5
1DCF
331
1DA2
  5
1DD0
331
1DA3
  5
1DD1
331
1DA4
  5
1DD2
331
1DA5
  5
1DD3
331
1DA6
  5
1DD4
331
1DA7
  5
1DD5
331
1DA8
  5
1DD6
331
1DA9
  5
1DD7
331
1DAA
  5
1DD8
331
1DAB
  5
1DD9
331
1DAC
  5
1DDA
331
1DAD
  5
1DDB
331
1DAE
  5
1DDC
331
1DAF
  5
1DDD
331
1DB0
  5
1DDE
331
1DB1
  5
1DDF
331
1DB2
  5
1DE0
331
1DB3
  5
1DE1
331
1DB4
  5
1DE2
331
1DB6
  5
1DE4
331
1DB8
  5
1E8E
331
1DB9
  5
1E9B
331
1DBA
  5
1ED8
331
1DBB
  5
1EEE
331
1DBC
  5
1F00
331
1DC1
  5
1F6C
331
1DC2
  5
1F6D
331
1DC3
  5
1FA3
331
1DC4
  5
1FA4
331
1DC5
  5
1FA5
331
1DC6
  5
1FA6
331
1DC7
  5
1FAA
331
1DC8
  5
1FAB
331
1DC9
  5
1FAC
331
1DCA
  5
1FAD
331
1DCB
  5
1FAE
331
1DCC
  5
1FAF
331
1DCD
  5
1FB0
331
1DCE
  5
1FB1
331
1DCF
  5
1FB2
331
1DD0
  5
1FB3
331
1DD1
  5
1FB4
331
1DD2
  5
1FB5
331
1DD3
  5
1FB6
331
1DD4
  5
1FB7
331
1DD5
  5
1FB8
331
1DD6
  5
1FB9
331
1DD7
  5
1FBA
331
1DD8
  5
1FBB
331
1DD9
  5
1FBC
331
1DDA
  5
1FBD
331
1DDB
  5
1FBE
331
1DDC
  5
1FBF
331
1DDD
  5
1FC0
331
1DDE
  5
1FC1
331
1DDF
  5
1FC2
331
1DE0
  5
1FC3
331
1DE1
  5
1FC4
331
1DE2
  5
1FC5
331
1DE3
  5
1FC6
331
1DE4
  5
1FC7
331
1DE5
  5
1FC8
331
1E8E
  5
1FC9
331
1E9B
  5
1FCA
331
1ED8
  5
1FCB
331
1EEE
  5
1FCC
331
1F00
  5
1FCD
331
1F14
  5
1FCE
331
1F2F
  5
1FCF
331
1F6A
  5
1FD0
331
1F6B
  5
1FD1
331
1F6C
  5
1FD2
331
1F6D
  5
2031
331
1FA3
  5
203B
331
1FA4
  5
2048
331
1FA5
  5
2049
331
1FA6
  5
21AA
331
1FAA
  5
221E
331
1FAB
  5
221F
331
1FAC
  5
2220
331
1FAD
  5
2221
331
1FAE
  5
2222
331
1FAF
  5
2223
331
1FB0
  5
2224
331
1FB1
  5
2225
331
1FB2
  5
2226
331
1FB3
  5
2227
331
1FB4
  5
2228
331
1FB5
  5
2229
331
1FB6
  5
222A
331
1FB7
  5
222B
331
1FB8
  5
222C
331
1FB9
  5
222D
331
1FBA
  5
222E
331
1FBB
  5
222F
331
1FBC
  5
2230
331
1FBD
  5
2231
331
1FBE
  5
2232
331
1FBF
  5
2233
331
1FC0
  5
2272
331
1FC1
  5
2279
331
1FC2
  5
228F
331
1FC3
  5
2313
331
1FC4
  5
23E8
331
1FC5
  5
23E9
331
1FC6
  5
2425
331
1FC7
  5
2426
331
1FC8
  5
2509
331
1FC9
  5
250A
331
1FCA
  5
250B
331
1FCB
  5
250C
331
1FCC
  5
250D
331
1FCD
  5
250E
331
1FCE
  5
250F
331
1FCF
  5
2510
331
1FD0
  5
2511
331
1FD1
  5
2512
331
1FD2
  5
2513
331
203B
  5
2515
331
2049
  5
2517
331
21AA
  5
2518
331
221E
  5
2519
331
221F
  5
251A
331
2220
  5
251B
331
2221
  5
251C
331
2222
  5
251D
331
2223
  5
251E
331
2224
  5
251F
331
2225
  5
2520
331
2226
  5
2521
331
2227
  5
2522
331
2228
  5
2523
331
2229
  5
2524
331
222A
  5
2525
331
222B
  5
2526
331
222C
  5
2527
331
222D
  5
2528
331
222E
  5
2529
331
222F
  5
252A
331
2230
  5
252B
331
2231
  5
252C
331
2232
  5
252D
331
2233
  5
252E
331
2272
  5
252F
331
2279
  5
2530
331
228F
  5
2531
331
2313
  5
2532
331
23E8
  5
2533
331
23E9
  5
2534
331
2425
  5
2535
331
2426
  5
2536
331
2509
  5
2537
331
250A
  5
2538
331
250B
  5
2539
331
250C
  5
253A
331
250D
  5
253B
331
250E
  5
253C
331
250F
  5
253D
331
2510
  5
253E
331
2511
  5
253F
331
2512
  5
2540
331
2513
  5
2541
331
2514
  5
2542
331
2515
  5
2543
331
2516
  5
2544
331
2517
  5
2545
331
2518
  5
2546
331
2519
  5
2547
331
251A
  5
2548
331
251B
  5
2549
331
251C
  5
254A
331
251D
  5
254B
331
251E
  5
254C
331
251F
  5
254D
331
2520
  5
254E
331
2521
  5
254F
331
2522
  5
2550
331
2523
  5
2551
331
2524
  5
2552
331
2525
  5
2553
331
2526
  5
2554
331
2527
  5
2555
331
2528
  5
2556
331
2529
  5
2557
331
252A
  5
2558
331
252B
  5
2559
331
252C
  5
255A
331
252D
  5
255B
331
252E
  5
255C
331
252F
  5
255D
331
2530
  5
255F
331
2531
  5
2560
331
2532
  5
2561
331
2533
  5
2562
331
2534
  5
2564
331
2535
  5
25F9
331
2536
  5
25FA
331
2537
  5
25FB
331
2538
  5
25FC
331
2539
  5
25FD
331
253A
  5
25FE
331
253B
  5
25FF
331
253C
  5
2600
331
253D
  5
2601
331
253E
  5
2602
331
253F
  5
2756
331
2540
  5
2757
331
2541
  5
2758
331
2542
  5
2759
331
2543
  5
275A
331
2544
  5
275B
331
2545
  5
275C
331
2546
  5
275D
331
2547
  5
275E
331
2548
  5
275F
331
2549
  5
2760
331
254A
  5
2761
331
254B
  5
2762
331
254C
  5
2763
331
254D
  5
2764
331
254E
  5
2765
331
254F
  5
2766
331
2550
  5
2767
331
2551
  5
2768
331
2552
  5
2769
331
2553
  5
276A
331
2554
  5
276B
331
2555
  5
276C
331
2556
  5
276D
331
2557
  5
276E
331
2558
  5
276F
331
2559
  5
2770
331
255A
  5
2771
331
255B
  5
2772
331
255C
  5
2773
331
255D
  5
2774
331
255F
  5
2775
331
2560
  5
2776
331
2561
  5
2777
331
2562
  5
2778
331
2564
  5
2779
331
25F9
  5
277A
331
25FA
  5
277B
331
25FB
  5
277C
331
25FC
  5
277D
331
25FD
  5
277E
331
25FE
  5
277F
331
25FF
  5
2780
331
2600
  5
2781
331
2601
  5
2782
331
2602
  5
2783
331
280E
  5
288E
331
280F
  5
288F
  0
DICTIONARY
  5
2671
102
{ACAD_REACTORS
330
BDC
102
}
330
BDC
100
AcDbDictionary
280
     1
281
     1
  3
TEXT
360
BDE
  0
DIMASSOC
  5
1EF0
102
{ACAD_REACTORS
330
1EEF
102
}
330
1EEF
100
AcDbDimAssoc
330
1EEE
 90
        3
 70
     0
 71
     1
  1
AcDbOsnapPointRef
 72
    13
331
1D0A
 73
     0
 91
        0
 40
0.0
 10
0.0
 20
0.0
 30
0.0
 75
     0
  1
AcDbOsnapPointRef
 72
    13
331
1D07
 73
     0
 91
        0
 40
0.0
 10
0.0
 20
0.0
 30
0.0
 75
     0
  0
GROUP
  5
224C
102
{ACAD_REACTORS
330
1A
102
}
330
1A
100
AcDbGroup
300

 70
     1
 71
     1
340
222B
340
222C
340
222D
340
222E
340
222F
340
2230
340
2231
340
2232
340
2233
  0
GROUP
  5
2603
102
{ACAD_REACTORS
330
1A
102
}
330
1A
100
AcDbGroup
300

 70
     1
 71
     1
340
25F9
340
25FA
340
25FB
340
25FC
340
25FD
340
25FE
340
25FF
340
2600
340
2601
340
2602
  0
LAYOUT
  5
21
102
{ACAD_REACTORS
330
1E
102
}
330
1E
100
AcDbPlotSettings
  1

  2
none_device
  4
ISO_A3_(420.00_x_297.00_MM)
  6

 40
7.5
 41
20.0
 42
7.5
 43
20.0
 44
420.0
 45
297.0
 46
0.0
 47
0.0
 48
0.0
 49
0.0
140
0.0
141
0.0
142
1.0
143
1.0
 70
     0
 72
     1
 73
     0
 74
     0
  7

 75
     0
 76
     0
 77
     2
 78
   300
147
1.0
148
0.0
149
0.0
100
AcDbLayout
  1
Layout1
 70
     0
 71
     0
 10
0.0
 20
0.0
 11
0.0
 21
0.0
 12
0.0
 22
0.0
 32
0.0
 14
0.0
 24
0.0
 34
0.0
 15
0.0
 25
0.0
 35
0.0
146
0.0
 13
0.0
 23
0.0
 33
0.0
 16
0.0
 26
0.0
 36
0.0
 17
0.0
 27
0.0
 37
0.0
 76
     0
330
B
331
349
  0
LAYOUT
  5
20
102
{ACAD_REACTORS
330
1E
102
}
330
1E
100
AcDbPlotSettings
  1

  2
none_device
  4
ISO_A3_(420.00_x_297.00_MM)
  6

 40
7.5
 41
20.0
 42
7.5
 43
20.0
 44
420.0
 45
297.0
 46
0.0
 47
0.0
 48
0.0
 49
0.0
140
0.0
141
0.0
142
1.0
143
1.0
 70
  1024
 72
     1
 73
     0
 74
     0
  7

 75
     0
 76
     0
 77
     2
 78
   300
147
1.0
148
0.0
149
0.0
100
AcDbLayout
  1
Model
 70
     0
 71
     1
 10
0.0
 20
0.0
 11
2100.0
 21
2970.0
 12
0.0
 22
0.0
 32
0.0
 14
0.0
 24
0.0
 34
0.0
 15
2100.0
 25
2970.0
 35
34.99521132346015
146
0.0
 13
0.0
 23
0.0
 33
0.0
 16
0.0
 26
0.0
 36
0.0
 17
0.0
 27
0.0
 37
0.0
 76
     0
330
A
331
15
  0
MATERIAL
  5
1AFC
102
{ACAD_REACTORS
330
263
102
}
330
263
100
AcDbMaterial
  1
ByBlock
 72
     1
 94
      127
  0
MATERIAL
  5
264
102
{ACAD_REACTORS
330
263
102
}
330
263
100
AcDbMaterial
  1
ByLayer
 72
     1
 94
      127
  0
MATERIAL
  5
266
102
{ACAD_REACTORS
330
263
102
}
330
263
100
AcDbMaterial
  1
Global
 72
     1
 94
      127
  0
MLEADERSTYLE
  5
8D1
102
{ACAD_REACTORS
330
336
102
}
330
336
100
AcDbMLeaderStyle
170
     2
171
     1
172
     0
 90
        2
 40
0.0
 41
0.0
173
     1
 91
-1056964608
340
11
 92
       -2
290
     1
 42
2.0
291
     1
 43
8.0
  3
Standard
341
0
 44
4.0
300

342
17
174
     1
178
     6
175
     1
176
     0
 93
-1056964608
 45
4.0
292
     0
297
     0
 46
4.0
343
0
 94
-1056964608
 47
1.0
 49
1.0
140
1.0
293
     1
141
0.0
294
     1
177
     0
142
1.0
295
     0
296
     0
143
3.75
1001
ACAD_MLEADERVER
1070
     2
  0
MLINESTYLE
  5
1C
102
{ACAD_REACTORS
330
1B
102
}
330
1B
100
AcDbMlineStyle
  2
Standard
 70
     0
  3

 62
     0
 51
90.0
 52
90.0
 71
     2
 49
0.5
 62
   256
  6
BYLAYER
 49
-0.5
 62
   256
  6
BYLAYER
  0
ACDBPLACEHOLDER
  5
1D
102
{ACAD_REACTORS
330
1F
102
}
330
1F
  0
SCALE
  5
242
102
{ACAD_REACTORS
330
241
102
}
330
241
100
AcDbScale
 70
     0
300
1:1
140
1.0
141
1.0
290
     1
  0
SCALE
  5
243
102
{ACAD_REACTORS
330
241
102
}
330
241
100
AcDbScale
 70
     0
300
1:2
140
1.0
141
2.0
290
     0
  0
SCALE
  5
244
102
{ACAD_REACTORS
330
241
102
}
330
241
100
AcDbScale
 70
     0
300
1:4
140
1.0
141
4.0
290
     0
  0
SCALE
  5
245
102
{ACAD_REACTORS
330
241
102
}
330
241
100
AcDbScale
 70
     0
300
1:5
140
1.0
141
5.0
290
     0
  0
SCALE
  5
246
102
{ACAD_REACTORS
330
241
102
}
330
241
100
AcDbScale
 70
     0
300
1:8
140
1.0
141
8.0
290
     0
  0
SCALE
  5
247
102
{ACAD_REACTORS
330
241
102
}
330
241
100
AcDbScale
 70
     0
300
1:10
140
1.0
141
10.0
290
     0
  0
SCALE
  5
248
102
{ACAD_REACTORS
330
241
102
}
330
241
100
AcDbScale
 70
     0
300
1:16
140
1.0
141
16.0
290
     0
  0
SCALE
  5
249
102
{ACAD_REACTORS
330
241
102
}
330
241
100
AcDbScale
 70
     0
300
1:20
140
1.0
141
20.0
290
     0
  0
SCALE
  5
24A
102
{ACAD_REACTORS
330
241
102
}
330
241
100
AcDbScale
 70
     0
300
1:30
140
1.0
141
30.0
290
     0
  0
SCALE
  5
24B
102
{ACAD_REACTORS
330
241
102
}
330
241
100
AcDbScale
 70
     0
300
1:40
140
1.0
141
40.0
290
     0
  0
SCALE
  5
24C
102
{ACAD_REACTORS
330
241
102
}
330
241
100
AcDbScale
 70
     0
300
1:50
140
1.0
141
50.0
290
     0
  0
SCALE
  5
24D
102
{ACAD_REACTORS
330
241
102
}
330
241
100
AcDbScale
 70
     0
300
1:100
140
1.0
141
100.0
290
     0
  0
SCALE
  5
24E
102
{ACAD_REACTORS
330
241
102
}
330
241
100
AcDbScale
 70
     0
300
2:1
140
2.0
141
1.0
290
     0
  0
SCALE
  5
24F
102
{ACAD_REACTORS
330
241
102
}
330
241
100
AcDbScale
 70
     0
300
4:1
140
4.0
141
1.0
290
     0
  0
SCALE
  5
250
102
{ACAD_REACTORS
330
241
102
}
330
241
100
AcDbScale
 70
     0
300
8:1
140
8.0
141
1.0
290
     0
  0
SCALE
  5
251
102
{ACAD_REACTORS
330
241
102
}
330
241
100
AcDbScale
 70
     0
300
10:1
140
10.0
141
1.0
290
     0
  0
SCALE
  5
252
102
{ACAD_REACTORS
330
241
102
}
330
241
100
AcDbScale
 70
     0
300
100:1
140
100.0
141
1.0
290
     0
  0
SCALE
  5
253
102
{ACAD_REACTORS
330
241
102
}
330
241
100
AcDbScale
 70
     0
300
1/128" = 1'-0"
140
0.0078125
141
12.0
290
     0
  0
SCALE
  5
254
102
{ACAD_REACTORS
330
241
102
}
330
241
100
AcDbScale
 70
     0
300
1/64" = 1'-0"
140
0.015625
141
12.0
290
     0
  0
SCALE
  5
255
102
{ACAD_REACTORS
330
241
102
}
330
241
100
AcDbScale
 70
     0
300
1/32" = 1'-0"
140
0.03125
141
12.0
290
     0
  0
SCALE
  5
256
102
{ACAD_REACTORS
330
241
102
}
330
241
100
AcDbScale
 70
     0
300
1/16" = 1'-0"
140
0.0625
141
12.0
290
     0
  0
SCALE
  5
257
102
{ACAD_REACTORS
330
241
102
}
330
241
100
AcDbScale
 70
     0
300
3/32" = 1'-0"
140
0.09375
141
12.0
290
     0
  0
SCALE
  5
258
102
{ACAD_REACTORS
330
241
102
}
330
241
100
AcDbScale
 70
     0
300
1/8" = 1'-0"
140
0.125
141
12.0
290
     0
  0
SCALE
  5
259
102
{ACAD_REACTORS
330
241
102
}
330
241
100
AcDbScale
 70
     0
300
3/16" = 1'-0"
140
0.1875
141
12.0
290
     0
  0
SCALE
  5
25A
102
{ACAD_REACTORS
330
241
102
}
330
241
100
AcDbScale
 70
     0
300
1/4" = 1'-0"
140
0.25
141
12.0
290
     0
  0
SCALE
  5
25B
102
{ACAD_REACTORS
330
241
102
}
330
241
100
AcDbScale
 70
     0
300
3/8" = 1'-0"
140
0.375
141
12.0
290
     0
  0
SCALE
  5
25C
102
{ACAD_REACTORS
330
241
102
}
330
241
100
AcDbScale
 70
     0
300
1/2" = 1'-0"
140
0.5
141
12.0
290
     0
  0
SCALE
  5
25D
102
{ACAD_REACTORS
330
241
102
}
330
241
100
AcDbScale
 70
     0
300
3/4" = 1'-0"
140
0.75
141
12.0
290
     0
  0
SCALE
  5
25E
102
{ACAD_REACTORS
330
241
102
}
330
241
100
AcDbScale
 70
     0
300
1" = 1'-0"
140
1.0
141
12.0
290
     0
  0
SCALE
  5
25F
102
{ACAD_REACTORS
330
241
102
}
330
241
100
AcDbScale
 70
     0
300
1-1/2" = 1'-0"
140
1.5
141
12.0
290
     0
  0
SCALE
  5
260
102
{ACAD_REACTORS
330
241
102
}
330
241
100
AcDbScale
 70
     0
300
3" = 1'-0"
140
3.0
141
12.0
290
     0
  0
SCALE
  5
261
102
{ACAD_REACTORS
330
241
102
}
330
241
100
AcDbScale
 70
     0
300
6" = 1'-0"
140
6.0
141
12.0
290
     0
  0
SCALE
  5
262
102
{ACAD_REACTORS
330
241
102
}
330
241
100
AcDbScale
 70
     0
300
1'-0" = 1'-0"
140
12.0
141
12.0
290
     0
  0
TABLESTYLE
  5
279
102
{ACAD_REACTORS
330
278
102
}
102
{ACAD_XDICTIONARY
360
29BC
102
}
330
278
100
AcDbTableStyle
  3
Standard
 70
     0
 71
     0
 40
0.06
 41
0.06
280
     0
281
     0
  7
Standard
140
4.5
170
     2
 62
     0
 63
   257
283
     0
 90
        4
 91
        0
  1

274
    -2
284
     1
 64
     0
275
    -2
285
     1
 65
     0
276
    -2
286
     1
 66
     0
277
    -2
287
     1
 67
     0
278
    -2
288
     1
 68
     0
279
    -2
289
     1
 69
     0
  7
Standard
140
6.0
170
     5
 62
     0
 63
   257
283
     0
 90
        4
 91
        0
  1

274
    -2
284
     1
 64
     0
275
    -2
285
     1
 65
     0
276
    -2
286
     1
 66
     0
277
    -2
287
     1
 67
     0
278
    -2
288
     1
 68
     0
279
    -2
289
     1
 69
     0
  7
Standard
140
4.5
170
     5
 62
     0
 63
   257
283
     0
 90
        4
 91
        0
  1

274
    -2
284
     1
 64
     0
275
    -2
285
     1
 65
     0
276
    -2
286
     1
 66
     0
277
    -2
287
     1
 67
     0
278
    -2
288
     1
 68
     0
279
    -2
289
     1
 69
     0
  0
VISUALSTYLE
  5
26C
102
{ACAD_REACTORS
330
267
102
}
330
267
100
AcDbVisualStyle
  2
2dWireframe
 70
     4
 71
     0
 72
     2
 73
     0
 90
        0
 40
-0.6
 41
-30.0
 62
     5
 63
     7
421
 16777215
 74
     1
 91
        4
 64
     7
 65
   257
 75
     1
175
     1
 42
1.0
 92
        0
 66
   257
 43
1.0
 76
     1
 77
     6
 78
     2
 67
     7
 79
     5
170
     0
171
     0
290
     0
174
     0
 93
        1
 44
0.0
173
     0
291
     0
 45
0.0
  0
VISUALSTYLE
  5
26E
102
{ACAD_REACTORS
330
267
102
}
330
267
100
AcDbVisualStyle
  2
3D Hidden
 70
     6
 71
     1
 72
     2
 73
     2
 90
        0
 40
-0.6
 41
-30.0
 62
     5
 63
     7
421
 16777215
 74
     2
 91
        2
 64
     7
 65
   257
 75
     2
175
     1
 42
40.0
 92
        0
 66
   257
 43
1.0
 76
     1
 77
     6
 78
     2
 67
     7
 79
     3
170
     0
171
     0
290
     0
174
     0
 93
        1
 44
0.0
173
     0
291
     0
 45
0.0
  0
VISUALSTYLE
  5
26D
102
{ACAD_REACTORS
330
267
102
}
330
267
100
AcDbVisualStyle
  2
3dWireframe
 70
     5
 71
     0
 72
     2
 73
     0
 90
        0
 40
-0.6
 41
-30.0
 62
     5
 63
     7
421
 16777215
 74
     1
 91
        4
 64
     7
 65
   257
 75
     1
175
     1
 42
1.0
 92
        0
 66
   257
 43
1.0
 76
     1
 77
     6
 78
     2
 67
     7
 79
     5
170
     0
171
     0
290
     0
174
     0
 93
        1
 44
0.0
173
     0
291
     0
 45
0.0
  0
VISUALSTYLE
  5
26F
102
{ACAD_REACTORS
330
267
102
}
330
267
100
AcDbVisualStyle
  2
Basic
 70
     7
 71
     1
 72
     0
 73
     1
 90
        0
 40
-0.6
 41
-30.0
 62
     5
 63
     7
421
 16777215
 74
     0
 91
        4
 64
     7
 65
   257
 75
     1
175
     1
 42
1.0
 92
        8
 66
     7
 43
1.0
 76
     1
 77
     6
 78
     2
 67
     7
 79
     5
170
     0
171
     0
290
     0
174
     0
 93
        1
 44
0.0
173
     0
291
     1
 45
0.0
  0
VISUALSTYLE
  5
273
102
{ACAD_REACTORS
330
267
102
}
330
267
100
AcDbVisualStyle
  2
Brighten
 70
    12
 71
     2
 72
     2
 73
     0
 90
        0
 40
-0.6
 41
-30.0
 62
     5
 63
     7
421
 16777215
 74
     1
 91
        4
 64
     7
 65
   257
 75
     1
175
     1
 42
1.0
 92
        8
 66
     7
 43
1.0
 76
     1
 77
     6
 78
     2
 67
     7
 79
     5
170
     0
171
     0
290
     0
174
     0
 93
        1
 44
50.0
173
     0
291
     1
 45
0.0
  0
VISUALSTYLE
  5
277
102
{ACAD_REACTORS
330
267
102
}
330
267
100
AcDbVisualStyle
  2
ColorChange
 70
    16
 71
     2
 72
     2
 73
     3
 90
        0
 40
-0.6
 41
-30.0
 62
     5
 63
     8
421
  8421504
 74
     1
 91
        4
 64
     7
 65
   257
 75
     1
175
     1
 42
1.0
 92
        8
 66
     8
424
  8421504
 43
1.0
 76
     1
 77
     6
 78
     2
 67
     7
 79
     5
170
     0
171
     0
290
     0
174
     0
 93
        1
 44
0.0
173
     0
291
     1
 45
0.0
  0
VISUALSTYLE
  5
271
102
{ACAD_REACTORS
330
267
102
}
330
267
100
AcDbVisualStyle
  2
Conceptual
 70
     9
 71
     3
 72
     2
 73
     0
 90
        0
 40
-0.6
 41
-30.0
 62
     5
 63
     7
421
 16777215
 74
     2
 91
        2
 64
     7
 65
   257
 75
     1
175
     1
 42
40.0
 92
        8
 66
     7
 43
1.0
 76
     1
 77
     6
 78
     2
 67
     7
 79
     3
170
     0
171
     0
290
     0
174
     0
 93
        1
 44
0.0
173
     0
291
     0
 45
0.0
  0
VISUALSTYLE
  5
272
102
{ACAD_REACTORS
330
267
102
}
330
267
100
AcDbVisualStyle
  2
Dim
 70
    11
 71
     2
 72
     2
 73
     0
 90
        0
 40
-0.6
 41
-30.0
 62
     5
 63
     7
421
 16777215
 74
     1
 91
        4
 64
     7
 65
   257
 75
     1
175
     1
 42
1.0
 92
        8
 66
     7
 43
1.0
 76
     1
 77
     6
 78
     2
 67
     7
 79
     5
170
     0
171
     0
290
     0
174
     0
 93
        1
 44
-50.0
173
     0
291
     1
 45
0.0
  0
VISUALSTYLE
  5
8BC
102
{ACAD_REACTORS
330
267
102
}
330
267
100
AcDbVisualStyle
  2
EdgeColorOff
 70
    22
 71
     2
 72
     2
 73
     0
 90
        0
 40
0.6
 41
30.0
 62
     5
 63
     7
421
 16777215
 74
     1
 91
        4
 64
     7
 65
   257
 75
     1
175
     1
 42
1.0
 92
        8
 66
     7
 43
1.0
 76
     1
 77
     6
 78
     2
 67
     7
 79
     5
170
     0
171
     0
290
     0
174
     0
 93
        1
 44
0.0
173
     0
291
     1
 45
0.0
  0
VISUALSTYLE
  5
276
102
{ACAD_REACTORS
330
267
102
}
330
267
100
AcDbVisualStyle
  2
Facepattern
 70
    15
 71
     2
 72
     2
 73
     0
 90
        0
 40
-0.6
 41
-30.0
 62
     5
 63
     7
421
 16777215
 74
     1
 91
        4
 64
     7
 65
   257
 75
     1
175
     1
 42
1.0
 92
        8
 66
     7
 43
1.0
 76
     1
 77
     6
 78
     2
 67
     7
 79
     5
170
     0
171
     0
290
     0
174
     0
 93
        1
 44
0.0
173
     0
291
     1
 45
0.0
  0
VISUALSTYLE
  5
268
102
{ACAD_REACTORS
330
267
102
}
330
267
100
AcDbVisualStyle
  2
Flat
 70
     0
 71
     2
 72
     1
 73
     1
 90
        2
 40
-0.6
 41
30.0
 62
     5
 63
     7
421
 16777215
 74
     0
 91
        4
 64
     7
 65
   257
 75
     1
175
     1
 42
1.0
 92
        8
 66
     7
 43
1.0
 76
     1
 77
     6
 78
     2
 67
     7
 79
     5
170
     0
171
     0
290
     0
174
     0
 93
       13
 44
0.0
173
     0
291
     1
 45
0.0
  0
VISUALSTYLE
  5
269
102
{ACAD_REACTORS
330
267
102
}
330
267
100
AcDbVisualStyle
  2
FlatWithEdges
 70
     1
 71
     2
 72
     1
 73
     1
 90
        2
 40
-0.6
 41
30.0
 62
     5
 63
     7
421
 16777215
 74
     1
 91
        4
 64
     7
 65
   257
 75
     1
175
     1
 42
1.0
 92
        0
 66
   257
 43
1.0
 76
     1
 77
     6
 78
     2
 67
     7
 79
     5
170
     0
171
     0
290
     0
174
     0
 93
       13
 44
0.0
173
     0
291
     1
 45
0.0
  0
VISUALSTYLE
  5
26A
102
{ACAD_REACTORS
330
267
102
}
330
267
100
AcDbVisualStyle
  2
Gouraud
 70
     2
 71
     2
 72
     2
 73
     1
 90
        2
 40
-0.6
 41
30.0
 62
     5
 63
     7
421
 16777215
 74
     0
 91
        4
 64
     7
 65
   257
 75
     1
175
     1
 42
1.0
 92
        0
 66
     7
 43
1.0
 76
     1
 77
     6
 78
     2
 67
     7
 79
     5
170
     0
171
     0
290
     0
174
     0
 93
       13
 44
0.0
173
     0
291
     1
 45
0.0
  0
VISUALSTYLE
  5
26B
102
{ACAD_REACTORS
330
267
102
}
330
267
100
AcDbVisualStyle
  2
GouraudWithEdges
 70
     3
 71
     2
 72
     2
 73
     1
 90
        2
 40
-0.6
 41
30.0
 62
     5
 63
     7
421
 16777215
 74
     1
 91
        4
 64
     7
 65
   257
 75
     1
175
     1
 42
1.0
 92
        0
 66
   257
 43
1.0
 76
     1
 77
     6
 78
     2
 67
     7
 79
     5
170
     0
171
     0
290
     0
174
     0
 93
       13
 44
0.0
173
     0
291
     1
 45
0.0
  0
VISUALSTYLE
  5
8B9
102
{ACAD_REACTORS
330
267
102
}
330
267
100
AcDbVisualStyle
  2
Hidden
 70
     6
 71
     1
 72
     2
 73
     2
 90
        0
 40
0.6
 41
30.0
 62
     5
 63
     7
421
 16777215
 74
     2
 91
        2
 64
     7
 65
   257
 75
     2
175
     1
 42
40.0
 92
        0
 66
   257
 43
1.0
 76
     1
 77
     6
 78
     2
 67
     7
 79
     3
170
     0
171
     0
290
     0
174
     0
 93
        1
 44
0.0
173
     0
291
     0
 45
0.0
  0
VISUALSTYLE
  5
8BA
102
{ACAD_REACTORS
330
267
102
}
330
267
100
AcDbVisualStyle
  2
JitterOff
 70
    20
 71
     2
 72
     2
 73
     0
 90
        0
 40
0.6
 41
30.0
 62
     5
 63
     7
421
 16777215
 74
     1
 91
        4
 64
     7
 65
   257
 75
     1
175
     1
 42
1.0
 92
       10
 66
     7
 43
1.0
 76
     1
 77
     6
 78
     2
 67
     7
 79
     5
170
     0
171
     0
290
     0
174
     0
 93
        1
 44
0.0
173
     0
291
     1
 45
0.0
  0
VISUALSTYLE
  5
275
102
{ACAD_REACTORS
330
267
102
}
330
267
100
AcDbVisualStyle
  2
Linepattern
 70
    14
 71
     2
 72
     2
 73
     0
 90
        0
 40
-0.6
 41
-30.0
 62
     5
 63
     7
421
 16777215
 74
     1
 91
        4
 64
     7
 65
   257
 75
     7
175
     7
 42
1.0
 92
        8
 66
     7
 43
1.0
 76
     1
 77
     6
 78
     2
 67
     7
 79
     5
170
     0
171
     0
290
     0
174
     0
 93
        1
 44
0.0
173
     0
291
     1
 45
0.0
  0
VISUALSTYLE
  5
8BB
102
{ACAD_REACTORS
330
267
102
}
330
267
100
AcDbVisualStyle
  2
OverhangOff
 70
    21
 71
     2
 72
     2
 73
     0
 90
        0
 40
0.6
 41
30.0
 62
     5
 63
     7
421
 16777215
 74
     1
 91
        4
 64
     7
 65
   257
 75
     1
175
     1
 42
1.0
 92
        9
 66
     7
 43
1.0
 76
     1
 77
     6
 78
     2
 67
     7
 79
     5
170
     0
171
     0
290
     0
174
     0
 93
        1
 44
0.0
173
     0
291
     1
 45
0.0
  0
VISUALSTYLE
  5
270
102
{ACAD_REACTORS
330
267
102
}
330
267
100
AcDbVisualStyle
  2
Realistic
 70
     8
 71
     2
 72
     2
 73
     0
 90
        0
 40
-0.6
 41
-30.0
 62
     5
 63
     7
421
 16777215
 74
     1
 91
        0
 64
     7
 65
   257
 75
     1
175
     1
 42
1.0
 92
        8
 66
     8
424
  7895160
 43
1.0
 76
     1
 77
     6
 78
     2
 67
     7
 79
     5
170
     0
171
     0
290
     0
174
     0
 93
       13
 44
0.0
173
     0
291
     0
 45
0.0
  0
VISUALSTYLE
  5
8C1
102
{ACAD_REACTORS
330
267
102
}
330
267
100
AcDbVisualStyle
  2
Shaded
 70
    27
 71
     2
 72
     2
 73
     1
 90
        2
 40
0.6
 41
30.0
 62
     5
 63
     7
421
 16777215
 74
     0
 91
        4
 64
     7
 65
   257
 75
     1
175
     1
 42
1.0
 92
        8
 66
   257
 43
1.0
 76
     1
 77
     6
 78
     2
 67
     8
425
  7895160
 79
     3
170
     0
171
     0
290
     0
174
     0
 93
        5
 44
0.0
173
     0
291
     0
 45
0.0
  0
VISUALSTYLE
  5
8C0
102
{ACAD_REACTORS
330
267
102
}
330
267
100
AcDbVisualStyle
  2
Shaded with edges
 70
    26
 71
     2
 72
     2
 73
     1
 90
        2
 40
0.6
 41
30.0
 62
     5
 63
     7
421
 16777215
 74
     1
 91
       10
 64
     7
 65
   257
 75
     2
175
     1
 42
1.0
 92
        8
 66
   257
 43
1.0
 76
     1
 77
     6
 78
     2
 67
     7
 79
     3
170
     0
171
     0
290
     0
174
     0
 93
        5
 44
0.0
173
     0
291
     0
 45
0.0
  0
VISUALSTYLE
  5
8BD
102
{ACAD_REACTORS
330
267
102
}
330
267
100
AcDbVisualStyle
  2
Shades of Gray
 70
    23
 71
     2
 72
     2
 73
     3
 90
        0
 40
0.6
 41
30.0
 62
     5
 63
     7
421
 16777215
 74
     2
 91
        2
 64
     7
 65
     7
 75
     1
175
     1
 42
40.0
 92
        8
 66
     7
 43
1.0
 76
     1
 77
     6
 78
     2
 67
     7
 79
     3
170
     0
171
     0
290
     0
174
     0
 93
        1
 44
0.0
173
     0
291
     0
 45
0.0
  0
VISUALSTYLE
  5
8BE
102
{ACAD_REACTORS
330
267
102
}
330
267
100
AcDbVisualStyle
  2
Sketchy
 70
    24
 71
     1
 72
     2
 73
     2
 90
        0
 40
0.6
 41
30.0
 62
     5
 63
     7
421
 16777215
 74
     2
 91
        2
 64
     7
 65
     7
 75
     1
175
     1
 42
40.0
 92
       11
 66
     7
 43
1.0
 76
     1
 77
     6
 78
     2
 67
     7
 79
     6
170
     0
171
     0
290
     0
174
     0
 93
        1
 44
0.0
173
     0
291
     0
 45
0.0
  0
VISUALSTYLE
  5
274
102
{ACAD_REACTORS
330
267
102
}
330
267
100
AcDbVisualStyle
  2
Thicken
 70
    13
 71
     2
 72
     2
 73
     0
 90
        0
 40
-0.6
 41
-30.0
 62
     5
 63
     7
421
 16777215
 74
     1
 91
        4
 64
     7
 65
   257
 75
     1
175
     1
 42
1.0
 92
       12
 66
     7
 43
1.0
 76
     1
 77
     6
 78
     2
 67
     7
 79
     5
170
     0
171
     0
290
     0
174
     0
 93
        1
 44
0.0
173
     0
291
     1
 45
0.0
  0
VISUALSTYLE
  5
8B8
102
{ACAD_REACTORS
330
267
102
}
330
267
100
AcDbVisualStyle
  2
Wireframe
 70
     5
 71
     0
 72
     2
 73
     0
 90
        0
 40
0.6
 41
30.0
 62
     5
 63
     7
421
 16777215
 74
     1
 91
        4
 64
     7
 65
   257
 75
     1
175
     1
 42
1.0
 92
        0
 66
   257
 43
1.0
 76
     1
 77
     6
 78
     2
 67
     7
 79
     3
170
     0
171
     0
290
     0
174
     0
 93
        1
 44
0.0
173
     0
291
     0
 45
0.0
  0
VISUALSTYLE
  5
8BF
102
{ACAD_REACTORS
330
267
102
}
330
267
100
AcDbVisualStyle
  2
X-Ray
 70
    25
 71
     2
 72
     2
 73
     1
 90
        1
 40
0.5
 41
30.0
 62
     5
 63
     7
421
 16777215
 74
     1
 91
        0
 64
     7
 65
   257
 75
     1
175
     1
 42
1.0
 92
        8
 66
     7
 43
1.0
 76
     1
 77
     6
 78
     2
 67
     7
 79
     3
170
     0
171
     0
290
     0
174
     0
 93
       13
 44
0.0
173
     0
291
     0
 45
0.0
  0
DICTIONARYVAR
  5
331
102
{ACAD_REACTORS
330
330
102
}
330
330
100
DictionaryVariables
280
     0
  1
1:1
  0
DICTIONARYVAR
  5
8DA
102
{ACAD_REACTORS
330
330
102
}
330
330
100
DictionaryVariables
280
     0
  1
Standard
  0
DICTIONARYVAR
  5
335
102
{ACAD_REACTORS
330
330
102
}
330
330
100
DictionaryVariables
280
     0
  1
Standard
  0
DICTIONARYVAR
  5
C07
102
{ACAD_REACTORS
330
330
102
}
330
330
100
DictionaryVariables
280
     0
  1
ByLayer
  0
DICTIONARYVAR
  5
64A
102
{ACAD_REACTORS
330
330
102
}
330
330
100
DictionaryVariables
280
     0
  1
0
  0
DICTIONARYVAR
  5
C0B
102
{ACAD_REACTORS
330
C08
102
}
330
C08
100
DictionaryVariables
280
     0
  1
0.261799
  0
DICTIONARYVAR
  5
C09
102
{ACAD_REACTORS
330
C08
102
}
330
C08
100
DictionaryVariables
280
     0
  1
0.400000
  0
DICTIONARYVAR
  5
C0A
102
{ACAD_REACTORS
330
C08
102
}
330
C08
100
DictionaryVariables
280
     0
  1
0.250000
  0
DICTIONARYVAR
  5
C0C
102
{ACAD_REACTORS
330
C08
102
}
330
C08
100
DictionaryVariables
280
     0
  1
1
  0
FIELD
  5
BDE
102
{ACAD_REACTORS
330
2671
102
}
330
2671
100
AcDbField
  1
_text
  2
{%<\_FldIdx 0>%N}
 90
        1
360
BDF
 97
        0
 91
       63
 92
        0
 94
       11
 95
        2
 96
        0
300

 93
        1
  6
ACFD_FIELDTEXT_CHECKSUM
 93
        2
 90
        2
140
4553.0
 94
        0
300

302

304
ACVALUE_END
  7
ACFD_FIELD_VALUE
 93
        6
 90
        4
  1
{20180518N}
 94
        0
300

302

304
ACVALUE_END
301
{20180518N}
 98
       11
  0
DICTIONARY
  5
29BC
330
279
100
AcDbDictionary
280
     1
281
     1
  3
ACAD_ROUNDTRIP_2008_TABLESTYLE_CELLSTYLEMAP
360
29BD
  0
FIELD
  5
BDF
330
BDE
100
AcDbField
  1
AcVar
  2
\AcVar Date \f "yyyyMMdd"
 90
        0
 97
        0
 91
       63
 92
        0
 94
        8
 95
       64
 96
        0
300
Variable not supported
 93
        1
  6
Variable
 93
        2
 90
        4
  1
Date
 94
        0
300

302

304
ACVALUE_END
  7
ACFD_FIELD_VALUE
 93
        6
 90
        8
 92
       16
310
E2070500000012000E002A0017000000
 94
        0
300
yyyyMMdd
302

304
ACVALUE_END
301
20180518
 98
        8
  0
CELLSTYLEMAP
  5
29BD
102
{ACAD_REACTORS
330
29BC
102
}
330
29BC
100
AcDbCellStyleMap
 90
        3
300
CELLSTYLE
  1
TABLEFORMAT_BEGIN
 90
        5
170
     1
 91
        0
 92
    32768
 62
   257
 93
        1
300
CONTENTFORMAT
  1
CONTENTFORMAT_BEGIN
 90
        0
 91
        0
 92
        4
 93
        0
300

 40
0.0
140
1.0
 94
        5
 62
     0
340
17
144
6.0
309
CONTENTFORMAT_END
171
     1
301
MARGIN
  1
CELLMARGIN_BEGIN
 40
0.06
 40
0.06
 40
0.06
 40
0.06
 40
0.18
 40
0.18
309
CELLMARGIN_END
 94
        6
 95
        1
302
GRIDFORMAT
  1
GRIDFORMAT_BEGIN
 90
        0
 91
        1
 62
     0
 92
       -2
340
0
 93
        0
 40
0.045
309
GRIDFORMAT_END
 95
        2
302
GRIDFORMAT
  1
GRIDFORMAT_BEGIN
 90
        0
 91
        1
 62
     0
 92
       -2
340
0
 93
        0
 40
0.045
309
GRIDFORMAT_END
 95
        4
302
GRIDFORMAT
  1
GRIDFORMAT_BEGIN
 90
        0
 91
        1
 62
     0
 92
       -2
340
0
 93
        0
 40
0.045
309
GRIDFORMAT_END
 95
        8
302
GRIDFORMAT
  1
GRIDFORMAT_BEGIN
 90
        0
 91
        1
 62
     0
 92
       -2
340
0
 93
        0
 40
0.045
309
GRIDFORMAT_END
 95
       16
302
GRIDFORMAT
  1
GRIDFORMAT_BEGIN
 90
        0
 91
        1
 62
     0
 92
       -2
340
0
 93
        0
 40
0.045
309
GRIDFORMAT_END
 95
       32
302
GRIDFORMAT
  1
GRIDFORMAT_BEGIN
 90
        0
 91
        1
 62
     0
 92
       -2
340
0
 93
        0
 40
0.045
309
GRIDFORMAT_END
309
TABLEFORMAT_END
  1
CELLSTYLE_BEGIN
 90
        1
 91
        1
300
_TITLE
309
CELLSTYLE_END
300
CELLSTYLE
  1
TABLEFORMAT_BEGIN
 90
        5
170
     1
 91
        0
 92
        0
 62
   257
 93
        1
300
CONTENTFORMAT
  1
CONTENTFORMAT_BEGIN
 90
        0
 91
        0
 92
        4
 93
        0
300

 40
0.0
140
1.0
 94
        5
 62
     0
340
17
144
4.5
309
CONTENTFORMAT_END
171
     1
301
MARGIN
  1
CELLMARGIN_BEGIN
 40
0.06
 40
0.06
 40
0.06
 40
0.06
 40
0.18
 40
0.18
309
CELLMARGIN_END
 94
        6
 95
        1
302
GRIDFORMAT
  1
GRIDFORMAT_BEGIN
 90
        0
 91
        1
 62
     0
 92
       -2
340
0
 93
        0
 40
0.045
309
GRIDFORMAT_END
 95
        2
302
GRIDFORMAT
  1
GRIDFORMAT_BEGIN
 90
        0
 91
        1
 62
     0
 92
       -2
340
0
 93
        0
 40
0.045
309
GRIDFORMAT_END
 95
        4
302
GRIDFORMAT
  1
GRIDFORMAT_BEGIN
 90
        0
 91
        1
 62
     0
 92
       -2
340
0
 93
        0
 40
0.045
309
GRIDFORMAT_END
 95
        8
302
GRIDFORMAT
  1
GRIDFORMAT_BEGIN
 90
        0
 91
        1
 62
     0
 92
       -2
340
0
 93
        0
 40
0.045
309
GRIDFORMAT_END
 95
       16
302
GRIDFORMAT
  1
GRIDFORMAT_BEGIN
 90
        0
 91
        1
 62
     0
 92
       -2
340
0
 93
        0
 40
0.045
309
GRIDFORMAT_END
 95
       32
302
GRIDFORMAT
  1
GRIDFORMAT_BEGIN
 90
        0
 91
        1
 62
     0
 92
       -2
340
0
 93
        0
 40
0.045
309
GRIDFORMAT_END
309
TABLEFORMAT_END
  1
CELLSTYLE_BEGIN
 90
        2
 91
        1
300
_HEADER
309
CELLSTYLE_END
300
CELLSTYLE
  1
TABLEFORMAT_BEGIN
 90
        5
170
     1
 91
        0
 92
        0
 62
   257
 93
        1
300
CONTENTFORMAT
  1
CONTENTFORMAT_BEGIN
 90
        0
 91
        0
 92
        4
 93
        0
300

 40
0.0
140
1.0
 94
        2
 62
     0
340
17
144
4.5
309
CONTENTFORMAT_END
171
     1
301
MARGIN
  1
CELLMARGIN_BEGIN
 40
0.06
 40
0.06
 40
0.06
 40
0.06
 40
0.18
 40
0.18
309
CELLMARGIN_END
 94
        6
 95
        1
302
GRIDFORMAT
  1
GRIDFORMAT_BEGIN
 90
        0
 91
        1
 62
     0
 92
       -2
340
0
 93
        0
 40
0.045
309
GRIDFORMAT_END
 95
        2
302
GRIDFORMAT
  1
GRIDFORMAT_BEGIN
 90
        0
 91
        1
 62
     0
 92
       -2
340
0
 93
        0
 40
0.045
309
GRIDFORMAT_END
 95
        4
302
GRIDFORMAT
  1
GRIDFORMAT_BEGIN
 90
        0
 91
        1
 62
     0
 92
       -2
340
0
 93
        0
 40
0.045
309
GRIDFORMAT_END
 95
        8
302
GRIDFORMAT
  1
GRIDFORMAT_BEGIN
 90
        0
 91
        1
 62
     0
 92
       -2
340
0
 93
        0
 40
0.045
309
GRIDFORMAT_END
 95
       16
302
GRIDFORMAT
  1
GRIDFORMAT_BEGIN
 90
        0
 91
        1
 62
     0
 92
       -2
340
0
 93
        0
 40
0.045
309
GRIDFORMAT_END
 95
       32
302
GRIDFORMAT
  1
GRIDFORMAT_BEGIN
 90
        0
 91
        1
 62
     0
 92
       -2
340
0
 93
        0
 40
0.045
309
GRIDFORMAT_END
309
TABLEFORMAT_END
  1
CELLSTYLE_BEGIN
 90
        3
 91
        2
300
_DATA
309
CELLSTYLE_END
  0
ENDSEC
  0
EOF
