  0
SECTION
  2
HEADER
  9
$ACADVER
  1
AC1021
  9
$ACADMAINTVER
 70
    25
  9
$DWGCODEPAGE
  3
ANSI_932
  9
$LASTSAVEDBY
  1
howeNelson
  9
$INSBASE
 10
0.0
 20
0.0
 30
0.0
  9
$EXTMIN
 10
-1950.000000000482
 20
-2854.709050363715
 30
0.0
  9
$EXTMAX
 10
1950.000000000482
 20
2811.999999999999
 30
0.0
  9
$LIMMIN
 10
0.0
 20
0.0
  9
$LIMMAX
 10
0.0
 20
0.0
  9
$ORTHOMODE
 70
     0
  9
$REGENMODE
 70
     1
  9
$FILLMODE
 70
     1
  9
$QTEXTMODE
 70
     0
  9
$MIRRTEXT
 70
     1
  9
$LTSCALE
 40
101.6
  9
$ATTMODE
 70
     1
  9
$TEXTSIZE
 40
0.0
  9
$TRACEWID
 40
1.0
  9
$TEXTSTYLE
  7
Standard
  9
$CLAYER
  8
FLN72-0503
  9
$CELTYPE
  6
Continuous
  9
$CECOLOR
 62
   256
  9
$CELTSCALE
 40
1.0
  9
$DISPSILH
 70
     0
  9
$DIMSCALE
 40
1.0
  9
$DIMASZ
 40
63.5
  9
$DIMEXO
 40
0.0
  9
$DIMDLI
 40
6.99999999999994
  9
$DIMRND
 40
0.0
  9
$DIMDLE
 40
0.0
  9
$DIMEXE
 40
39.9999999999924
  9
$DIMTP
 40
0.0
  9
$DIMTM
 40
0.0
  9
$DIMTXT
 40
43.65625
  9
$DIMCEN
 40
0.0
  9
$DIMTSZ
 40
0.0
  9
$DIMTOL
 70
     0
  9
$DIMLIM
 70
     0
  9
$DIMTIH
 70
     0
  9
$DIMTOH
 70
     0
  9
$DIMSE1
 70
     0
  9
$DIMSE2
 70
     0
  9
$DIMTAD
 70
     1
  9
$DIMZIN
 70
    11
  9
$DIMBLK
  1
VW_FILLEDARROW
  9
$DIMASO
 70
     1
  9
$DIMSHO
 70
     1
  9
$DIMPOST
  1
<>
  9
$DIMAPOST
  1
[]
  9
$DIMALT
 70
     0
  9
$DIMALTD
 70
     3
  9
$DIMALTF
 40
0.0393700787401575
  9
$DIMLFAC
 40
1.0
  9
$DIMTOFL
 70
     0
  9
$DIMTVP
 40
0.0
  9
$DIMTIX
 70
     1
  9
$DIMSOXD
 70
     0
  9
$DIMSAH
 70
     0
  9
$DIMBLK1
  1

  9
$DIMBLK2
  1

  9
$DIMSTYLE
  2
JIS
  9
$DIMCLRD
 70
     0
  9
$DIMCLRE
 70
     0
  9
$DIMCLRT
 70
     0
  9
$DIMTFAC
 40
1.0
  9
$DIMGAP
 40
1.00000000000108
  9
$DIMJUST
 70
     0
  9
$DIMSD1
 70
     0
  9
$DIMSD2
 70
     0
  9
$DIMTOLJ
 70
     1
  9
$DIMTZIN
 70
    11
  9
$DIMALTZ
 70
    15
  9
$DIMALTTZ
 70
    15
  9
$DIMUPT
 70
     0
  9
$DIMDEC
 70
     1
  9
$DIMTDEC
 70
     1
  9
$DIMALTU
 70
     4
  9
$DIMALTTD
 70
     2
  9
$DIMTXSTY
  7
MS UI Gothic
  9
$DIMAUNIT
 70
     0
  9
$DIMADEC
 70
     2
  9
$DIMALTRND
 40
0.0
  9
$DIMAZIN
 70
     0
  9
$DIMDSEP
 70
    46
  9
$DIMATFIT
 70
     0
  9
$DIMFRAC
 70
     2
  9
$DIMLDRBLK
  1

  9
$DIMLUNIT
 70
     2
  9
$DIMLWD
 70
    -2
  9
$DIMLWE
 70
    -2
  9
$DIMTMOVE
 70
     0
  9
$DIMFXL
 40
1.0
  9
$DIMFXLON
 70
     0
  9
$DIMJOGANG
 40
0.7853981633974483
  9
$DIMTFILL
 70
     0
  9
$DIMTFILLCLR
 70
     0
  9
$DIMARCSYM
 70
     0
  9
$DIMLTYPE
  6

  9
$DIMLTEX1
  6

  9
$DIMLTEX2
  6

  9
$LUNITS
 70
     2
  9
$LUPREC
 70
     4
  9
$SKETCHINC
 40
0.1
  9
$FILLETRAD
 40
0.0
  9
$AUNITS
 70
     0
  9
$AUPREC
 70
     0
  9
$MENU
  1
acad
  9
$ELEVATION
 40
0.0
  9
$PELEVATION
 40
0.0
  9
$THICKNESS
 40
0.0
  9
$LIMCHECK
 70
     0
  9
$CHAMFERA
 40
0.0
  9
$CHAMFERB
 40
0.0
  9
$CHAMFERC
 40
0.0
  9
$CHAMFERD
 40
0.0
  9
$SKPOLY
 70
     0
  9
$TDCREATE
 40
2447893.375
  9
$TDUCREATE
 40
0.0
  9
$TDUPDATE
 40
2457798.630801875
  9
$TDUUPDATE
 40
2457798.255801875
  9
$TDINDWG
 40
0.0124726389
  9
$TDUSRTIMER
 40
2457798.255795764
  9
$USRTIMER
 70
     1
  9
$ANGBASE
 50
0.0
  9
$ANGDIR
 70
     0
  9
$PDMODE
 70
     1
  9
$PDSIZE
 40
-2.0
  9
$PLINEWID
 40
0.0
  9
$SPLFRAME
 70
     0
  9
$SPLINETYPE
 70
     6
  9
$SPLINESEGS
 70
     8
  9
$HANDSEED
  5
2F8
  9
$SURFTAB1
 70
     6
  9
$SURFTAB2
 70
     6
  9
$SURFTYPE
 70
     6
  9
$SURFU
 70
     6
  9
$SURFV
 70
     6
  9
$UCSBASE
  2

  9
$UCSNAME
  2

  9
$UCSORG
 10
0.0
 20
0.0
 30
0.0
  9
$UCSXDIR
 10
1.0
 20
0.0
 30
0.0
  9
$UCSYDIR
 10
0.0
 20
1.0
 30
0.0
  9
$UCSORTHOREF
  2

  9
$UCSORTHOVIEW
 70
     0
  9
$UCSORGTOP
 10
0.0
 20
0.0
 30
0.0
  9
$UCSORGBOTTOM
 10
0.0
 20
0.0
 30
0.0
  9
$UCSORGLEFT
 10
0.0
 20
0.0
 30
0.0
  9
$UCSORGRIGHT
 10
0.0
 20
0.0
 30
0.0
  9
$UCSORGFRONT
 10
0.0
 20
0.0
 30
0.0
  9
$UCSORGBACK
 10
0.0
 20
0.0
 30
0.0
  9
$PUCSBASE
  2

  9
$PUCSNAME
  2

  9
$PUCSORG
 10
0.0
 20
0.0
 30
0.0
  9
$PUCSXDIR
 10
1.0
 20
0.0
 30
0.0
  9
$PUCSYDIR
 10
0.0
 20
1.0
 30
0.0
  9
$PUCSORTHOREF
  2

  9
$PUCSORTHOVIEW
 70
     0
  9
$PUCSORGTOP
 10
0.0
 20
0.0
 30
0.0
  9
$PUCSORGBOTTOM
 10
0.0
 20
0.0
 30
0.0
  9
$PUCSORGLEFT
 10
0.0
 20
0.0
 30
0.0
  9
$PUCSORGRIGHT
 10
0.0
 20
0.0
 30
0.0
  9
$PUCSORGFRONT
 10
0.0
 20
0.0
 30
0.0
  9
$PUCSORGBACK
 10
0.0
 20
0.0
 30
0.0
  9
$USERI1
 70
     0
  9
$USERI2
 70
     0
  9
$USERI3
 70
     0
  9
$USERI4
 70
     0
  9
$USERI5
 70
     0
  9
$USERR1
 40
0.0
  9
$USERR2
 40
0.0
  9
$USERR3
 40
0.0
  9
$USERR4
 40
0.0
  9
$USERR5
 40
0.0
  9
$WORLDVIEW
 70
     1
  9
$SHADEDGE
 70
     3
  9
$SHADEDIF
 70
    70
  9
$TILEMODE
 70
     1
  9
$MAXACTVP
 70
    64
  9
$PINSBASE
 10
0.0
 20
0.0
 30
0.0
  9
$PLIMCHECK
 70
     0
  9
$PEXTMIN
 10
1.000000000000000E+20
 20
1.000000000000000E+20
 30
1.000000000000000E+20
  9
$PEXTMAX
 10
-1.000000000000000E+20
 20
-1.000000000000000E+20
 30
-1.000000000000000E+20
  9
$PLIMMIN
 10
-95.87226993865028
 20
-25.69999999999999
  9
$PLIMMAX
 10
201.1277300613497
 20
184.3
  9
$UNITMODE
 70
     0
  9
$VISRETAIN
 70
     0
  9
$PLINEGEN
 70
     1
  9
$PSLTSCALE
 70
     0
  9
$TREEDEPTH
 70
  3020
  9
$CMLSTYLE
  2
Standard
  9
$CMLJUST
 70
     0
  9
$CMLSCALE
 40
1.0
  9
$PROXYGRAPHICS
 70
     0
  9
$MEASUREMENT
 70
     1
  9
$CELWEIGHT
370
     0
  9
$ENDCAPS
280
     0
  9
$JOINSTYLE
280
     0
  9
$LWDISPLAY
290
     1
  9
$INSUNITS
 70
     4
  9
$HYPERLINKBASE
  1

  9
$STYLESHEET
  1

  9
$XEDIT
290
     1
  9
$CEPSNTYPE
380
     0
  9
$PSTYLEMODE
290
     1
  9
$FINGERPRINTGUID
  2

  9
$VERSIONGUID
  2

  9
$EXTNAMES
290
     1
  9
$PSVPSCALE
 40
0.0
  9
$OLESTARTUP
290
     0
  9
$SORTENTS
280
   127
  9
$INDEXCTL
280
     0
  9
$HIDETEXT
280
     1
  9
$XCLIPFRAME
290
     0
  9
$HALOGAP
280
     0
  9
$OBSCOLOR
 70
   257
  9
$OBSLTYPE
280
     0
  9
$INTERSECTIONDISPLAY
280
     0
  9
$INTERSECTIONCOLOR
 70
   257
  9
$DIMASSOC
280
     2
  9
$PROJECTNAME
  1

  9
$CAMERADISPLAY
290
     0
  9
$LENSLENGTH
 40
50.0
  9
$CAMERAHEIGHT
 40
0.0
  9
$STEPSPERSEC
 40
2.0
  9
$STEPSIZE
 40
6.0
  9
$3DDWFPREC
 40
2.0
  9
$PSOLWIDTH
 40
0.25
  9
$PSOLHEIGHT
 40
4.0
  9
$LOFTANG1
 40
1.570796326794897
  9
$LOFTANG2
 40
1.570796326794897
  9
$LOFTMAG1
 40
0.0
  9
$LOFTMAG2
 40
0.0
  9
$LOFTPARAM
 70
     7
  9
$LOFTNORMALS
280
     1
  9
$LATITUDE
 40
37.795
  9
$LONGITUDE
 40
-122.394
  9
$NORTHDIRECTION
 40
0.0
  9
$TIMEZONE
 70
 -8000
  9
$LIGHTGLYPHDISPLAY
280
     1
  9
$TILEMODELIGHTSYNCH
280
     1
  9
$SOLIDHIST
280
     0
  9
$SHOWHIST
280
     1
  9
$DWFFRAME
280
     2
  9
$DGNFRAME
280
     2
  9
$REALWORLDSCALE
290
     1
  9
$INTERFERECOLOR
 62
   256
  9
$CSHADOW
280
     0
  9
$SHADOWPLANELOCATION
 40
0.0
  0
ENDSEC
  0
SECTION
  2
CLASSES
  0
CLASS
  1
LWPOLYLINE
  2
AcDbPolyline
  3
ObjectDBX Classes
 90
        0
 91
        1
280
     0
281
     1
  0
CLASS
  1
IMAGE
  2
AcDbRasterImage
  3
ISM
 90
      127
 91
        6
280
     0
281
     1
  0
CLASS
  1
OLE2FRAME
  2
AcDbOle2Frame
  3
ObjectDBX Classes
 90
        0
 91
        1
280
     0
281
     1
  0
CLASS
  1
HATCH
  2
AcDbHatch
  3
ObjectDBX Classes
 90
        0
 91
        1
280
     0
281
     1
  0
CLASS
  1
DICTIONARYVAR
  2
AcDbDictionaryVar
  3
ObjectDBX Classes
 90
        0
 91
        5
280
     0
281
     0
  0
CLASS
  1
RASTERVARIABLES
  2
AcDbRasterVariables
  3
ISM
 90
        0
 91
        5
280
     0
281
     0
  0
CLASS
  1
IMAGEDEF
  2
AcDbRasterImageDef
  3
ISM
 90
        0
 91
        5
280
     0
281
     0
  0
CLASS
  1
IMAGEDEF_REACTOR
  2
AcDbRasterImageDefReactor
  3
ISM
 90
        1
 91
        5
280
     0
281
     0
  0
CLASS
  1
IDBUFFER
  2
AcDbIdBuffer
  3
ObjectDBX Classes
 90
        0
 91
        5
280
     0
281
     0
  0
CLASS
  1
SPATIAL_FILTER
  2
AcDbSpatialFilter
  3
ObjectDBX Classes
 90
        0
 91
        5
280
     0
281
     0
  0
CLASS
  1
XRECORD
  2
AcDbXrecord
  3
ObjectDBX Classes
 90
        0
 91
        1
280
     0
281
     0
  0
CLASS
  1
SORTENTSTABLE
  2
AcDbSortentsTable
  3
ObjectDBX Classes
 90
        0
 91
        5
280
     0
281
     0
  0
CLASS
  1
LAYER_INDEX
  2
AcDbLayerIndex
  3
ObjectDBX Classes
 90
        0
 91
        5
280
     0
281
     0
  0
CLASS
  1
SPATIAL_INDEX
  2
AcDbSpatialIndex
  3
AutoCAD 2000
 90
        0
 91
        5
280
     0
281
     0
  0
CLASS
  1
OBJECT_PTR
  2
CAseDLPNTableRecord
  3
ASE-LPNTableRecord
 90
        1
 91
        5
280
     0
281
     0
  0
CLASS
  1
LAYOUT
  2
AcDbLayout
  3
ObjectDBX Classes
 90
        0
 91
        1
280
     0
281
     0
  0
CLASS
  1
PLOTSETTINGS
  2
AcDbPlotSettings
  3
ObjectDBX Classes
 90
        0
 91
        5
280
     0
281
     0
  0
CLASS
  1
ACDBDICTIONARYWDFLT
  2
AcDbDictionaryWithDefault
  3
ObjectDBX Classes
 90
        0
 91
        5
280
     0
281
     0
  0
CLASS
  1
ACDBPLACEHOLDER
  2
AcDbPlaceHolder
  3
ObjectDBX Classes
 90
        0
 91
        1
280
     0
281
     0
  0
CLASS
  1
SCALE
  2
AcDbScale
  3
ObjectDBX Classes
 90
     1153
 91
        5
280
     0
281
     0
  0
CLASS
  1
VISUALSTYLE
  2
AcDbVisualStyle
  3
ObjectDBX Classes
 90
     4095
 91
        5
280
     0
281
     0
  0
CLASS
  1
MATERIAL
  2
AcDbMaterial
  3
ObjectDBX Classes
 90
     1153
 91
        5
280
     0
281
     0
  0
CLASS
  1
TABLESTYLE
  2
AcDbTableStyle
  3
ObjectDBX Classes
 90
     4095
 91
        5
280
     0
281
     0
  0
CLASS
  1
MLEADERSTYLE
  2
AcDbMLeaderStyle
  3
ACDB_MLEADERSTYLE_CLASS
 90
     4095
 91
        5
280
     0
281
     0
  0
CLASS
  1
SUN
  2
AcDbSun
  3
SCENEOE
 90
     1153
 91
        5
280
     0
281
     0
  0
CLASS
  1
CELLSTYLEMAP
  2
AcDbCellStyleMap
  3
ObjectDBX Classes
 90
     1152
 91
        4
280
     0
281
     0
  0
ENDSEC
  0
SECTION
  2
TABLES
  0
TABLE
  2
VPORT
  5
7
330
0
100
AcDbSymbolTable
 70
     1
  0
VPORT
  5
15
330
7
100
AcDbSymbolTableRecord
100
AcDbViewportTableRecord
  2
*ACTIVE
 70
     0
 10
0.0
 20
0.0
 11
1.0
 21
1.0
 12
0.0
 22
-21.35452518185775
 13
0.0
 23
0.0
 14
1.0
 24
1.0
 15
0.0
 25
0.0
 16
0.0
 26
0.0
 36
1.0
 17
0.0
 27
0.0
 37
0.0
 40
5780.043231370988
 41
2.301966292134832
 42
50.0
 43
0.0
 44
0.0
 50
0.0
 51
0.0
 71
    16
 72
  2000
 73
     1
 74
     1
 75
     0
 76
     0
 77
     0
 78
     0
281
     0
 65
     0
110
0.0
120
0.0
130
0.0
111
1.0
121
0.0
131
0.0
112
0.0
122
1.0
132
0.0
 79
     0
146
0.0
348
2CA
 60
     3
 61
     5
292
     1
282
     1
141
0.0
142
0.0
 63
   250
361
2E7
  0
ENDTAB
  0
TABLE
  2
LTYPE
  5
4
330
0
100
AcDbSymbolTable
 70
    15
  0
LTYPE
  5
11
330
4
100
AcDbSymbolTableRecord
100
AcDbLinetypeTableRecord
  2
ByBlock
 70
     0
  3

 72
    65
 73
     0
 40
0.0
  0
LTYPE
  5
12
330
4
100
AcDbSymbolTableRecord
100
AcDbLinetypeTableRecord
  2
ByLayer
 70
     0
  3

 72
    65
 73
     0
 40
0.0
  0
LTYPE
  5
13
330
4
100
AcDbSymbolTableRecord
100
AcDbLinetypeTableRecord
  2
Continuous
 70
     0
  3
Solid line
 72
    65
 73
     0
 40
0.0
  0
LTYPE
  5
3A
330
4
100
AcDbSymbolTableRecord
100
AcDbLinetypeTableRecord
  2
STYLE_01
 70
     0
  3

 72
    65
 73
     2
 40
0.41664
 49
0.20828
 74
     0
 49
-0.20836
 74
     0
  0
LTYPE
  5
3B
330
4
100
AcDbSymbolTableRecord
100
AcDbLinetypeTableRecord
  2
STYLE_02
 70
     0
  3

 72
    65
 73
     2
 40
0.6944250000000001
 49
0.48607
 74
     0
 49
-0.2083550000000001
 74
     0
  0
LTYPE
  5
3C
330
4
100
AcDbSymbolTableRecord
100
AcDbLinetypeTableRecord
  2
STYLE_03
 70
     0
  3

 72
    65
 73
     2
 40
1.25
 49
1.04164
 74
     0
 49
-0.2083599999999999
 74
     0
  0
LTYPE
  5
3D
330
4
100
AcDbSymbolTableRecord
100
AcDbLinetypeTableRecord
  2
STYLE_04
 70
     0
  3

 72
    65
 73
     2
 40
1.52771
 49
1.319425
 74
     0
 49
-0.208285
 74
     0
  0
LTYPE
  5
3E
330
4
100
AcDbSymbolTableRecord
100
AcDbLinetypeTableRecord
  2
STYLE_05
 70
     0
  3

 72
    65
 73
     2
 40
0.20828
 49
0.069425
 74
     0
 49
-0.138855
 74
     0
  0
LTYPE
  5
3F
330
4
100
AcDbSymbolTableRecord
100
AcDbLinetypeTableRecord
  2
STYLE_06
 70
     0
  3

 72
    65
 73
     4
 40
1.04164
 49
0.625
 74
     0
 49
-0.20828
 74
     0
 49
0.06943
 74
     0
 49
-0.13893
 74
     0
  0
LTYPE
  5
40
330
4
100
AcDbSymbolTableRecord
100
AcDbLinetypeTableRecord
  2
STYLE_07
 70
     0
  3

 72
    65
 73
     6
 40
1.875
 49
0.625
 74
     0
 49
-0.20828
 74
     0
 49
0.6250000000000001
 74
     0
 49
-0.2083599999999999
 74
     0
 49
0.06943
 74
     0
 49
-0.1389299999999999
 74
     0
  0
LTYPE
  5
41
330
4
100
AcDbSymbolTableRecord
100
AcDbLinetypeTableRecord
  2
STYLE_08
 70
     0
  3

 72
    65
 73
     6
 40
1.25
 49
0.625
 74
     0
 49
-0.20828
 74
     0
 49
0.06943
 74
     0
 49
-0.13893
 74
     0
 49
0.0694299999999999
 74
     0
 49
-0.13893
 74
     0
  0
LTYPE
  5
42
330
4
100
AcDbSymbolTableRecord
100
AcDbLinetypeTableRecord
  2
STYLE_09
 70
     0
  3

 72
    65
 73
     4
 40
5.0
 49
3.75
 74
     0
 49
-0.2777849999999998
 74
     0
 49
0.6944300000000003
 74
     0
 49
-0.2777849999999998
 74
     0
  0
LTYPE
  5
43
330
4
100
AcDbSymbolTableRecord
100
AcDbLinetypeTableRecord
  2
STYLE_10
 70
     0
  3

 72
    65
 73
     6
 40
5.9375
 49
3.75
 74
     0
 49
-0.2777849999999998
 74
     0
 49
0.6944300000000003
 74
     0
 49
-0.2777849999999998
 74
     0
 49
0.625
 74
     0
 49
-0.3125
 74
     0
  0
LTYPE
  5
44
330
4
100
AcDbSymbolTableRecord
100
AcDbLinetypeTableRecord
  2
STYLE_11
 70
     0
  3

 72
    65
 73
     2
 40
0.1388889763779528
 49
0.0694444881889764
 74
     0
 49
-0.0694444881889764
 74
     0
  0
LTYPE
  5
45
330
4
100
AcDbSymbolTableRecord
100
AcDbLinetypeTableRecord
  2
STYLE_12
 70
     0
  3

 72
    65
 73
     4
 40
0.1318369094488189
 49
0.1004965551181102
 74
     0
 49
-0.0072951771653543
 74
     0
 49
0.01675
 74
     0
 49
-0.0072951771653543
 74
     0
  0
LTYPE
  5
46
330
4
100
AcDbSymbolTableRecord
100
AcDbLinetypeTableRecord
  2
STYLE_13
 70
     0
  3

 72
    65
 73
     4
 40
0.1498992125984252
 49
0.1238576771653543
 74
     0
 49
-0.0086805118110236
 74
     0
 49
0.0086805118110236
 74
     0
 49
-0.0086805118110236
 74
     0
  0
LTYPE
  5
47
330
4
100
AcDbSymbolTableRecord
100
AcDbLinetypeTableRecord
  2
STYLE_14
 70
     0
  3

 72
    65
 73
     4
 40
0.2256945866141732
 49
0.0694444881889764
 74
     0
 49
-0.0694444881889764
 74
     0
 49
0.0173611220472441
 74
     0
 49
-0.0694444881889764
 74
     0
  0
ENDTAB
  0
TABLE
  2
LAYER
  5
2
330
0
100
AcDbSymbolTable
 70
     5
  0
LAYER
  5
14
330
2
100
AcDbSymbolTableRecord
100
AcDbLayerTableRecord
  2
0
 70
     0
 62
     7
  6
Continuous
370
    -3
390
1D
347
2E1
  0
LAYER
  5
48
330
2
100
AcDbSymbolTableRecord
100
AcDbLayerTableRecord
  2
Defpoints
 70
     0
 62
     7
  6
Continuous
290
     0
370
    -3
390
1D
347
2E1
  0
LAYER
  5
49
330
2
100
AcDbSymbolTableRecord
100
AcDbLayerTableRecord
  2
template
 70
     0
 62
     7
  6
Continuous
370
    -3
390
1D
347
2E1
  0
LAYER
  5
4A
330
2
100
AcDbSymbolTableRecord
100
AcDbLayerTableRecord
  2
FLN72-0503
 70
     0
 62
     7
  6
Continuous
370
    -3
390
1D
347
2E1
  0
LAYER
  5
4B
330
2
100
AcDbSymbolTableRecord
100
AcDbLayerTableRecord
  2
notes
 70
     0
 62
     7
  6
Continuous
370
    -3
390
1D
347
2E1
  0
ENDTAB
  0
TABLE
  2
STYLE
  5
3
330
0
100
AcDbSymbolTable
 70
     3
  0
STYLE
  5
17
330
3
100
AcDbSymbolTableRecord
100
AcDbTextStyleTableRecord
  2
Standard
 70
     0
 40
0.0
 41
1.0
 50
0.0
 71
     0
 42
0.0
  3
txt
  4
BIGFONT.SHX
  0
STYLE
  5
38
330
3
100
AcDbSymbolTableRecord
100
AcDbTextStyleTableRecord
  2
MS UI Gothic
 70
     0
 40
0.0
 41
1.0
 50
0.0
 71
     0
 42
0.0
  3
msgothic.ttc
  4
MS UI Gothic
1001
ACAD
1000
MS UI Gothic
1071
        0
  0
STYLE
  5
39
330
3
100
AcDbSymbolTableRecord
100
AcDbTextStyleTableRecord
  2
ＭＳ ゴシック
 70
     0
 40
0.0
 41
1.0
 50
0.0
 71
     0
 42
0.0
  3

  4
ＭＳ ゴシック
1001
ACAD
1000
ＭＳ ゴシック
1071
        0
  0
ENDTAB
  0
TABLE
  2
VIEW
  5
5
330
0
100
AcDbSymbolTable
 70
     0
  0
ENDTAB
  0
TABLE
  2
UCS
  5
6
330
0
100
AcDbSymbolTable
 70
     0
  0
ENDTAB
  0
TABLE
  2
APPID
  5
8
330
0
100
AcDbSymbolTable
 70
     2
  0
APPID
  5
16
330
8
100
AcDbSymbolTableRecord
100
AcDbRegAppTableRecord
  2
ACAD
 70
     0
  0
APPID
  5
2F6
330
8
100
AcDbSymbolTableRecord
100
AcDbRegAppTableRecord
  2
ACAD_MLEADERVER
 70
     0
  0
ENDTAB
  0
TABLE
  2
DIMSTYLE
  5
9
330
0
100
AcDbSymbolTable
 70
     4
100
AcDbDimStyleTable
  0
DIMSTYLE
105
18
330
9
100
AcDbSymbolTableRecord
100
AcDbDimStyleTableRecord
  2
Standard
 70
     0
178
     0
340
17
  0
DIMSTYLE
105
54
330
9
100
AcDbSymbolTableRecord
100
AcDbDimStyleTableRecord
  2
Tform長さ固定
 70
     0
  3
<>
  4
[]
 41
7.99951171875
 42
49.99999999999999
 43
0.9999999999999999
 44
0.0
 73
     0
 74
     0
 77
     1
 78
    11
140
43.65625
141
0.0
143
0.0393700787401575
147
0.4999999999999999
171
     3
172
     1
174
     1
178
     0
179
     2
271
     1
272
     1
273
     4
276
     2
284
    11
285
    15
286
    15
289
     0
340
38
341
4C
342
4C
  0
DIMSTYLE
105
55
330
9
100
AcDbSymbolTableRecord
100
AcDbDimStyleTableRecord
  2
T-form線あり
 70
     0
  3
<>
  4
[]
 41
7.99951171875
 42
49.99999999999999
 43
0.9999999999999999
 44
0.0
 73
     0
 74
     0
 77
     1
 78
    11
140
43.65625
141
0.0
143
0.0393700787401575
147
0.4999999999999999
171
     3
172
     1
174
     1
178
     0
179
     2
271
     1
272
     1
273
     4
276
     2
284
    11
285
    15
286
    15
289
     0
340
38
341
4C
342
4C
  0
DIMSTYLE
105
5A
330
9
100
AcDbSymbolTableRecord
100
AcDbDimStyleTableRecord
  2
JIS
 70
     0
  3
<>
  4
[]
 41
63.5
 42
0.0
 43
6.99999999999994
 44
39.9999999999924
 73
     0
 74
     0
 77
     1
 78
    11
140
43.65625
141
0.0
143
0.0393700787401575
147
1.00000000000108
171
     3
174
     1
178
     0
179
     2
271
     1
272
     1
273
     4
276
     2
284
    11
285
    15
286
    15
289
     0
340
38
341
56
342
56
  0
ENDTAB
  0
TABLE
  2
BLOCK_RECORD
  5
1
330
0
100
AcDbSymbolTable
 70
    23
  0
BLOCK_RECORD
  5
A
330
1
100
AcDbSymbolTableRecord
100
AcDbBlockTableRecord
  2
*MODEL_SPACE
340
20
 70
     0
280
     1
281
     0
  0
BLOCK_RECORD
  5
B
330
1
100
AcDbSymbolTableRecord
100
AcDbBlockTableRecord
  2
*PAPER_SPACE
340
21
 70
     0
280
     1
281
     0
  0
BLOCK_RECORD
  5
4C
330
1
100
AcDbSymbolTableRecord
100
AcDbBlockTableRecord
  2
_DOT
340
0
 70
     0
280
     1
281
     0
  0
BLOCK_RECORD
  5
56
330
1
100
AcDbSymbolTableRecord
100
AcDbBlockTableRecord
  2
VW_FILLEDARROW
340
0
 70
     0
280
     1
281
     0
  0
BLOCK_RECORD
  5
23
330
1
100
AcDbSymbolTableRecord
100
AcDbBlockTableRecord
  2
グループ
340
0
102
{BLKREFS
331
64
102
}
 70
     0
280
     1
281
     0
  0
BLOCK_RECORD
  5
24
330
1
100
AcDbSymbolTableRecord
100
AcDbBlockTableRecord
  2
グループ-1
340
0
102
{BLKREFS
331
14D
102
}
 70
     0
280
     1
281
     0
  0
BLOCK_RECORD
  5
25
330
1
100
AcDbSymbolTableRecord
100
AcDbBlockTableRecord
  2
グループ-2
340
0
102
{BLKREFS
331
27B
102
}
 70
     0
280
     1
281
     0
  0
BLOCK_RECORD
  5
26
330
1
100
AcDbSymbolTableRecord
100
AcDbBlockTableRecord
  2
グループ-3
340
0
102
{BLKREFS
331
289
102
}
 70
     0
280
     1
281
     0
  0
BLOCK_RECORD
  5
27
330
1
100
AcDbSymbolTableRecord
100
AcDbBlockTableRecord
  2
グループ-4
340
0
102
{BLKREFS
331
79
102
}
 70
     0
280
     1
281
     0
  0
BLOCK_RECORD
  5
28
330
1
100
AcDbSymbolTableRecord
100
AcDbBlockTableRecord
  2
グループ-5
340
0
102
{BLKREFS
331
28F
102
}
 70
     0
280
     1
281
     0
  0
BLOCK_RECORD
  5
29
330
1
100
AcDbSymbolTableRecord
100
AcDbBlockTableRecord
  2
*D8
340
0
 70
     0
280
     1
281
     0
  0
BLOCK_RECORD
  5
2A
330
1
100
AcDbSymbolTableRecord
100
AcDbBlockTableRecord
  2
*D9
340
0
 70
     0
280
     1
281
     0
  0
BLOCK_RECORD
  5
2B
330
1
100
AcDbSymbolTableRecord
100
AcDbBlockTableRecord
  2
*D10
340
0
 70
     0
280
     1
281
     0
  0
BLOCK_RECORD
  5
2C
330
1
100
AcDbSymbolTableRecord
100
AcDbBlockTableRecord
  2
*D11
340
0
 70
     0
280
     1
281
     0
  0
BLOCK_RECORD
  5
2D
330
1
100
AcDbSymbolTableRecord
100
AcDbBlockTableRecord
  2
*D12
340
0
 70
     0
280
     1
281
     0
  0
BLOCK_RECORD
  5
2E
330
1
100
AcDbSymbolTableRecord
100
AcDbBlockTableRecord
  2
*D13
340
0
 70
     0
280
     1
281
     0
  0
BLOCK_RECORD
  5
2F
330
1
100
AcDbSymbolTableRecord
100
AcDbBlockTableRecord
  2
*D14
340
0
 70
     0
280
     1
281
     0
  0
BLOCK_RECORD
  5
30
330
1
100
AcDbSymbolTableRecord
100
AcDbBlockTableRecord
  2
*D15
340
0
 70
     0
280
     1
281
     0
  0
BLOCK_RECORD
  5
31
330
1
100
AcDbSymbolTableRecord
100
AcDbBlockTableRecord
  2
*D16
340
0
 70
     0
280
     1
281
     0
  0
BLOCK_RECORD
  5
32
330
1
100
AcDbSymbolTableRecord
100
AcDbBlockTableRecord
  2
*D17
340
0
 70
     0
280
     1
281
     0
  0
BLOCK_RECORD
  5
33
330
1
100
AcDbSymbolTableRecord
100
AcDbBlockTableRecord
  2
*D18
340
0
 70
     0
280
     1
281
     0
  0
BLOCK_RECORD
  5
34
330
1
100
AcDbSymbolTableRecord
100
AcDbBlockTableRecord
  2
*D19
340
0
 70
     0
280
     1
281
     0
  0
BLOCK_RECORD
  5
35
330
1
100
AcDbSymbolTableRecord
100
AcDbBlockTableRecord
  2
*D20
340
0
 70
     0
280
     1
281
     0
  0
BLOCK_RECORD
  5
36
330
1
100
AcDbSymbolTableRecord
100
AcDbBlockTableRecord
  2
*D21
340
0
 70
     0
280
     1
281
     0
  0
BLOCK_RECORD
  5
37
330
1
100
AcDbSymbolTableRecord
100
AcDbBlockTableRecord
  2
*D22
340
0
 70
     0
280
     1
281
     0
  0
ENDTAB
  0
ENDSEC
  0
SECTION
  2
BLOCKS
  0
BLOCK
  5
D
330
A
100
AcDbEntity
  8
0
390
1D
100
AcDbBlockBegin
  2
*MODEL_SPACE
 70
     0
 10
0.0
 20
0.0
 30
0.0
  3
*MODEL_SPACE
  1
*MODEL_SPACE
  0
ENDBLK
  5
E
330
A
100
AcDbEntity
  8
0
390
1D
100
AcDbBlockEnd
  0
BLOCK
  5
F
330
B
100
AcDbEntity
 67
     1
  8
0
390
1D
100
AcDbBlockBegin
  2
*PAPER_SPACE
 70
     0
 10
0.0
 20
0.0
 30
0.0
  3
*PAPER_SPACE
  1
*PAPER_SPACE
  0
ENDBLK
  5
10
330
B
100
AcDbEntity
 67
     1
  8
0
390
1D
100
AcDbBlockEnd
  0
BLOCK
  5
4D
330
4C
100
AcDbEntity
  8
0
390
1D
100
AcDbBlockBegin
  2
_DOT
 70
     0
 10
0.0
 20
0.0
 30
0.0
  3
_DOT
  1
_DOT
  0
POLYLINE
  5
4E
330
4C
100
AcDbEntity
  8
0
  6
ByBlock
 62
     0
370
    -2
390
1D
100
AcDb2dPolyline
 66
     1
 10
0.0
 20
0.0
 30
0.0
 70
     1
 40
0.5
 41
0.5
  0
VERTEX
  5
4F
330
4E
100
AcDbEntity
  8
0
  6
ByBlock
 62
     0
370
    -2
390
1D
100
AcDbVertex
100
AcDb2dVertex
 10
-0.25
 20
0.0
 30
0.0
 42
1.0
  0
VERTEX
  5
50
330
4E
100
AcDbEntity
  8
0
  6
ByBlock
 62
     0
370
    -2
390
1D
100
AcDbVertex
100
AcDb2dVertex
 10
0.25
 20
0.0
 30
0.0
 42
1.0
  0
SEQEND
  5
51
330
4E
100
AcDbEntity
  8
0
390
1D
  0
LINE
  5
52
330
4C
100
AcDbEntity
  8
0
  6
ByBlock
 62
     0
370
    -2
390
1D
100
AcDbLine
 10
-0.5
 20
0.0
 30
0.0
 11
-1.0
 21
0.0
 31
0.0
  0
ENDBLK
  5
53
330
4C
100
AcDbEntity
  8
0
390
1D
100
AcDbBlockEnd
  0
BLOCK
  5
57
330
56
100
AcDbEntity
  8
0
  6
ByBlock
 62
     0
370
    -2
390
1D
100
AcDbBlockBegin
  2
VW_FILLEDARROW
 70
     0
 10
0.0
 20
0.0
 30
0.0
  3
VW_FILLEDARROW
  1
VW_FILLEDARROW
  0
SOLID
  5
58
330
56
100
AcDbEntity
  8
0
 62
     0
370
    -2
390
1D
100
AcDbTrace
 10
0.0
 20
0.0
 30
0.0
 11
-0.9921874999999999
 21
-0.2658558393652545
 31
0.0
 12
-0.9921874999999999
 22
0.2658558393652548
 32
0.0
 13
-0.9921874999999999
 23
0.2658558393652548
 33
0.0
  0
ENDBLK
  5
59
330
56
100
AcDbEntity
  8
0
390
1D
100
AcDbBlockEnd
  0
BLOCK
  5
5B
330
23
100
AcDbEntity
  8
template
390
1D
100
AcDbBlockBegin
  2
グループ
 70
     0
 10
0.0
 20
0.0
 30
0.0
  3
グループ
  1
グループ
  0
LWPOLYLINE
  5
5C
330
23
100
AcDbEntity
  8
0
  6
Continuous
 62
     7
370
    15
390
1D
100
AcDbPolyline
 90
        8
 70
   129
 43
0.0
 10
1774.85701560615
 20
-2668.974027329972
 10
1774.85701560615
 20
-2680.968804717123
 10
1755.854621770143
 20
-2680.968804717123
 10
1755.854621770143
 20
-2729.870731244141
 10
1739.143867246577
 20
-2729.870731244141
 10
1739.143867246577
 20
-2680.968804717123
 10
1720.477953353959
 20
-2680.968804717123
 10
1720.477953353959
 20
-2668.974027329972
  0
LWPOLYLINE
  5
5D
330
23
100
AcDbEntity
  8
0
  6
Continuous
 62
     7
370
    15
390
1D
100
AcDbPolyline
 90
      101
 70
   128
 43
0.0
 10
1800.313599267263
 20
-2670.430524315845
 10
1800.344299324834
 20
-2670.421802802474
 42
-0.0222221607812283
 10
1800.924308478176
 20
-2670.284553871985
 10
1800.955896006162
 20
-2670.278547025791
 42
-0.0146883565586854
 10
1801.481301416611
 20
-2670.194540651893
 42
-0.0127458844187406
 10
1802.010579350907
 20
-2670.139466715748
 10
1802.135489507543
 20
-2670.129679870571
 42
-0.0198099018566978
 10
1802.917187726497
 20
-2670.099509555778
 10
1803.020810665384
 20
-2670.099617107108
 42
-0.0147617382765147
 10
1804.010057587327
 20
-2670.129857157598
 10
1804.155440497078
 20
-2670.138602371373
 42
-0.0162624549004703
 10
1804.935747756012
 20
-2670.211068121918
 10
1805.17881253854
 20
-2670.241641239912
 42
-0.0080020874660664
 10
1805.469970600713
 20
-2670.283006934448
 10
1805.546609541897
 20
-2670.295149490069
 42
-0.005382192967833
 10
1805.683577752533
 20
-2670.318364537713
 10
1804.230766354136
 20
-2674.680221449141
 42
0.0108667757394062
 10
1804.096132213866
 20
-2674.653847218699
 10
1804.021196167495
 20
-2674.640851733512
 42
0.017066320330763
 10
1803.734762593667
 20
-2674.601192538929
 10
1803.599011928298
 20
-2674.587098197754
 42
0.0220162375276392
 10
1803.038253112585
 20
-2674.553733476213
 10
1802.882541978483
 20
-2674.55133474168
 42
0.028260691578391
 10
1802.211269331327
 20
-2674.578941295618
 10
1802.123442783782
 20
-2674.587541275626
 42
0.0169677213690595
 10
1801.631593793865
 20
-2674.65261537473
 42
0.0190576269865374
 10
1801.145777868711
 20
-2674.752909118941
 10
1801.133259492483
 20
-2674.755995067161
 42
0.0213685642844021
 10
1800.632490523522
 20
-2674.902395637372
 10
1800.621510733695
 20
-2674.906121629489
 42
0.0237595297591213
 10
1800.114520963892
 20
-2675.105490673282
 10
1800.104316815838
 20
-2675.110074224236
 42
0.0261857468810989
 10
1799.599975263378
 20
-2675.369146898985
 10
1799.579122885206
 20
-2675.381277847921
 42
0.0272553062019101
 10
1799.106263334727
 20
-2675.692022259811
 10
1799.036737307702
 20
-2675.743344556
 42
0.0325996893180971
 10
1798.736426620405
 20
-2675.996840301938
 10
1798.689007762149
 20
-2676.042476358974
 42
0.0138050960639914
 10
1798.505241449739
 20
-2676.229375682067
 42
0.0125280103805281
 10
1798.331556384071
 20
-2676.425702335268
 10
1798.284195494255
 20
-2676.482019331642
 42
0.0205218024729119
 10
1798.033995343231
 20
-2676.805605960095
 10
1797.989062662254
 20
-2676.868925419754
 42
0.0163110129581913
 10
1797.677641903751
 20
-2677.339586289894
 10
1797.672194111649
 20
-2677.348433813865
 42
0.0131897341896935
 10
1797.37859306984
 20
-2677.854697998589
 10
1797.375192879104
 20
-2677.860934476865
 42
0.0107895576059858
 10
1797.09963947469
 20
-2678.39336489612
 10
1797.098173695633
 20
-2678.396353361428
 42
0.0091371507219095
 10
1796.84121379833
 20
-2678.945403756955
 10
1796.781722535515
 20
-2679.078816771265
 42
0.0135418326351206
 10
1796.438294657377
 20
-2679.908692341789
 10
1796.371085040505
 20
-2680.084424626362
 42
0.0092834542409608
 10
1796.028626920662
 20
-2681.032221622976
 10
1795.977392665235
 20
-2681.182703762538
 42
0.0054261043577207
 10
1795.76211636864
 20
-2681.838231708693
 10
1795.727064396227
 20
-2681.949008033338
 42
0.0008225090822161
 10
1795.589724292626
 20
-2682.385545549451
 10
1793.620346028759
 20
-2688.435328135964
 10
1800.085593708906
 20
-2688.435328135964
 10
1799.077208849199
 20
-2692.244284732669
 10
1792.565096285233
 20
-2692.244284732669
 10
1780.906798220525
 20
-2729.870730864679
 10
1777.256602999905
 20
-2729.870730864679
 10
1788.925959070906
 20
-2692.244284732669
 10
1784.115726332826
 20
-2692.244284732669
 10
1785.124111192533
 20
-2688.435328135964
 10
1789.981208814433
 20
-2688.435328135964
 10
1791.70151865081
 20
-2683.162502134567
 42
-0.0005863560650262
 10
1791.774988007062
 20
-2682.928849294475
 10
1791.927163674538
 20
-2682.446864695212
 42
-0.0087522378925693
 10
1792.326099961452
 20
-2681.256312520919
 10
1792.510628512274
 20
-2680.736032183905
 42
-0.0077400953830536
 10
1793.026495830541
 20
-2679.350022828797
 10
1793.058025773694
 20
-2679.269161062036
 42
-0.0082369946330518
 10
1793.552194714922
 20
-2678.061002929633
 42
-0.0085725238363833
 10
1794.086686906931
 20
-2676.870150851052
 10
1794.289946108947
 20
-2676.437308647081
 42
-0.0168109410595879
 10
1794.863834966403
 20
-2675.31489359488
 10
1795.115521747348
 20
-2674.860965528836
 42
-0.0007817726859269
 10
1795.224090447434
 20
-2674.665877038823
 10
1795.224347059469
 20
-2674.66541762135
 42
-0.0036626142157143
 10
1795.334122787511
 20
-2674.472221861413
 42
-0.0080221150679748
 10
1795.448371298323
 20
-2674.28166339191
 10
1795.509771201047
 20
-2674.182881493663
 42
-0.020213932556849
 10
1795.76508268066
 20
-2673.8069182923
 10
1795.873217611036
 20
-2673.660760563819
 42
-0.0249323791798447
 10
1796.391543198474
 20
-2673.02867007951
 10
1796.439822826728
 20
-2672.975441533685
 42
-0.0242132121536684
 10
1797.11918430981
 20
-2672.295674561279
 10
1797.215007455315
 20
-2672.208656288903
 42
-0.025101752785879
 10
1797.782970856595
 20
-2671.742670797375
 10
1797.785861810223
 20
-2671.740532282217
 42
-0.0130868069040762
 10
1798.382383110137
 20
-2671.322971345132
 10
1798.38550674842
 20
-2671.320904464584
 42
-0.0290329526391372
 10
1799.007729031209
 20
-2670.959253461324
 10
1799.067420155192
 20
-2670.929048695639
 42
-0.0160250190043653
 10
1799.59922898271
 20
-2670.681016475218
 42
-0.0267600374781006
 10
1800.149781137653
 20
-2670.479519834119
 10
1800.20325297669
 20
-2670.46313471647
 42
-0.0049981587670053
 10
1800.313599267263
 20
-2670.430524315845
 42
-0.0049981587670053
  0
LWPOLYLINE
  5
5E
330
23
100
AcDbEntity
  8
0
  6
Continuous
 62
     7
370
    15
390
1D
100
AcDbPolyline
 90
      118
 70
   128
 43
0.0
 10
1839.942334396157
 20
-2688.583294791619
 10
1843.692578245156
 20
-2688.583294791619
 10
1842.016500433956
 20
-2693.946427844419
 42
-0.0010587229211422
 10
1842.079412065152
 20
-2693.872618777647
 10
1842.195800246364
 20
-2693.736654265357
 42
-0.0071874740407281
 10
1842.49655068257
 20
-2693.395372881289
 10
1842.779996229085
 20
-2693.082900598672
 42
-0.0148118053512363
 10
1843.680254814515
 20
-2692.147672906642
 10
1843.854699484316
 20
-2691.976878264938
 42
-0.0086273358692412
 10
1844.525797086331
 20
-2691.342126996907
 10
1844.613464518784
 20
-2691.26202770824
 42
-0.0103138323110657
 10
1845.12951192325
 20
-2690.809701433564
 10
1845.221060735881
 20
-2690.732737339062
 42
-0.0060206748566775
 10
1845.566756864128
 20
-2690.449148037535
 10
1845.570819125898
 20
-2690.445896626273
 42
-0.0067069027288388
 10
1845.915404755225
 20
-2690.177595358682
 10
1845.920502287079
 20
-2690.17373501893
 42
-0.0076184352042701
 10
1846.26231281882
 20
-2689.922985268444
 42
-0.0089652861674684
 10
1846.612234744281
 20
-2689.683718747784
 10
1846.684938184584
 20
-2689.63589632081
 42
-0.0156916245935726
 10
1847.076857178899
 20
-2689.395371347864
 42
-0.002329901106332
 10
1847.477381266779
 20
-2689.169015468827
 10
1847.508149531618
 20
-2689.151815478653
 42
-0.0107669341484053
 10
1847.976623181818
 20
-2688.903015211956
 10
1848.021152783971
 20
-2688.880581712054
 42
-0.0078058045895926
 10
1848.588333019874
 20
-2688.605858800778
 10
1848.608147195294
 20
-2688.59664054504
 42
-0.0181829330473932
 10
1849.228766004517
 20
-2688.334913062852
 10
1849.336876889663
 20
-2688.29388282296
 42
-0.0208411536025736
 10
1850.03504682456
 20
-2688.061701897976
 10
1850.063759024814
 20
-2688.053465008069
 42
-0.0222799817135775
 10
1850.721198612649
 20
-2687.896181875788
 10
1850.738976539121
 20
-2687.892757854618
 42
-0.0215509523883926
 10
1851.371918475683
 20
-2687.79892647755
 10
1851.456882397783
 20
-2687.790051423968
 42
-0.0182545924873351
 10
1851.925099956391
 20
-2687.758363773186
 10
1852.003901989091
 20
-2687.755914683027
 42
-0.0072962856529064
 10
1852.315747748465
 20
-2687.750776025983
 10
1852.373947089595
 20
-2687.750666355176
 42
-0.0059227516312887
 10
1852.569446087899
 20
-2687.752613778756
 10
1852.627930522815
 20
-2687.753889311962
 42
-0.0011833111893351
 10
1852.706433090308
 20
-2687.755787320583
 10
1851.115659899093
 20
-2692.833255210781
 42
0.0143932051524636
 10
1851.06285713439
 20
-2692.81285727069
 10
1851.048313189558
 20
-2692.807714832976
 42
0.0234388603494022
 10
1850.964651457693
 20
-2692.782476361545
 10
1850.947288131868
 20
-2692.778114437535
 42
0.0199162742988474
 10
1850.826710463705
 20
-2692.752880966865
 10
1850.785082588096
 20
-2692.745886568008
 42
0.0293643550669223
 10
1850.578932870575
 20
-2692.723586476702
 10
1850.529562509137
 20
-2692.721163242665
 42
0.0214606686870448
 10
1850.223280677234
 20
-2692.71928612183
 10
1850.204536855596
 20
-2692.719975944919
 42
0.0167564054187873
 10
1849.861496473381
 20
-2692.744130029655
 10
1849.844576887861
 20
-2692.745892710509
 42
0.0137677553246399
 10
1849.469870261332
 20
-2692.795391327596
 10
1849.455166782316
 20
-2692.797747167532
 42
0.0118497261481205
 10
1849.054171254111
 20
-2692.87178186791
 10
1849.041871239619
 20
-2692.87435559335
 42
0.0106421143891936
 10
1848.620109465051
 20
-2692.972020344499
 10
1848.61029184827
 20
-2692.97451502987
 42
0.0099746379706426
 10
1848.173374909941
 20
-2693.094864086501
 10
1848.050278829605
 20
-2693.131427843761
 42
0.0191613675860962
 10
1847.378309904576
 20
-2693.359382604334
 10
1847.202190359079
 20
-2693.426756424985
 42
0.0205274080147135
 10
1846.431576815281
 20
-2693.758413240636
 10
1846.31627825131
 20
-2693.813749169784
 42
0.0181256912193595
 10
1845.799724369984
 20
-2694.085116807736
 10
1845.69381360335
 20
-2694.145752034169
 42
0.0140709242412418
 10
1845.403903734099
 20
-2694.322741381035
 10
1845.351405996865
 20
-2694.356855018464
 42
0.0086667884399223
 10
1845.173553673777
 20
-2694.476860354231
 42
0.003640819201488
 10
1844.998687197759
 20
-2694.60122206978
 10
1844.928233448773
 20
-2694.652103961641
 42
0.0052260781283436
 10
1844.615776053971
 20
-2694.882768734924
 10
1844.583362341471
 20
-2694.907224956146
 42
0.0050024435892504
 10
1844.211355655349
 20
-2695.193790092675
 10
1844.180719342324
 20
-2695.217882137562
 42
0.0136138710277092
 10
1843.759836805671
 20
-2695.567815147391
 10
1843.692501054086
 20
-2695.626973092817
 42
0.0172815186909998
 10
1843.163693970763
 20
-2696.124966438061
 10
1843.158569279075
 20
-2696.130138072358
 42
0.0189403857991616
 10
1842.657405681914
 20
-2696.675748601971
 10
1842.592142694845
 20
-2696.752436464962
 42
0.0185044199506342
 10
1842.208229816885
 20
-2697.238933627207
 42
0.0088565243901835
 10
1841.851309603628
 20
-2697.745966467507
 10
1841.832953644331
 20
-2697.773049227027
 42
0.0157195347233255
 10
1841.466512431651
 20
-2698.352093645679
 10
1841.374346547799
 20
-2698.508398039704
 42
0.009545187978228
 10
1841.044175447526
 20
-2699.093587324413
 10
1841.021879609661
 20
-2699.134928668688
 42
0.0100351706259463
 10
1840.757792111348
 20
-2699.649039789659
 42
0.0086935915427105
 10
1840.513129807761
 20
-2700.172706080466
 10
1840.506488324931
 20
-2700.187590726411
 42
0.0072580174868562
 10
1840.265795421039
 20
-2700.748774709582
 10
1840.259272154429
 20
-2700.764614761613
 42
0.0060005122612748
 10
1840.020870817748
 20
-2701.363834102811
 10
1840.01444886106
 20
-2701.380557158633
 42
0.0049017786976095
 10
1839.776648543348
 20
-2702.018415119833
 10
1839.770316930564
 20
-2702.035920994303
 42
0.0039415167601332
 10
1839.531444374452
 20
-2702.713005119127
 10
1839.525182169147
 20
-2702.731211520881
 42
0.0031035838764651
 10
1839.283572597741
 20
-2703.448091244487
 10
1839.2773525087
 20
-2703.466932487177
 42
0.0025070747152459
 10
1839.031549806081
 20
-2704.22422692103
 10
1838.956962013218
 20
-2704.458010251572
 42
0.002908191028505
 10
1838.572925417588
 20
-2705.686337568182
 10
1838.491319080563
 20
-2705.952784052707
 42
0.000926645373586
 10
1837.954484331908
 20
-2707.717232972638
 10
1837.912709386748
 20
-2707.855456730706
 42
-0.0005809993666905
 10
1837.35803602547
 20
-2709.683072944304
 10
1837.225472428933
 20
-2710.11804280859
 42
-0.001201870816555
 10
1836.931503810065
 20
-2711.074368137664
 10
1836.826864106614
 20
-2711.411886420428
 42
-0.0002691059611808
 10
1836.739725144597
 20
-2711.69242166008
 10
1831.073813348019
 20
-2729.870730864679
 10
1827.437835564062
 20
-2729.870730864679
 10
1839.942334396157
 20
-2688.583294791619
  0
SPLINE
  5
5F
330
23
100
AcDbEntity
  8
0
  6
Continuous
 62
     7
370
    15
390
1D
100
AcDbSpline
210
0.0
220
0.0
230
1.0
 70
    15
 71
     2
 72
   782
 73
   779
 74
     0
 42
0.000000001
 43
0.000001
 40
0.0
 40
0.0
 40
0.0
 40
1.0
 40
1.0
 40
2.0
 40
2.0
 40
3.0
 40
3.0
 40
4.0
 40
4.0
 40
5.0
 40
5.0
 40
6.0
 40
6.0
 40
7.0
 40
7.0
 40
8.0
 40
8.0
 40
9.0
 40
9.0
 40
10.0
 40
10.0
 40
11.0
 40
11.0
 40
12.0
 40
12.0
 40
13.0
 40
13.0
 40
14.0
 40
14.0
 40
15.0
 40
15.0
 40
16.0
 40
16.0
 40
17.0
 40
17.0
 40
18.0
 40
18.0
 40
19.0
 40
19.0
 40
20.0
 40
20.0
 40
21.0
 40
21.0
 40
22.0
 40
22.0
 40
23.0
 40
23.0
 40
24.0
 40
24.0
 40
25.0
 40
25.0
 40
26.0
 40
26.0
 40
27.0
 40
27.0
 40
28.0
 40
28.0
 40
29.0
 40
29.0
 40
30.0
 40
30.0
 40
31.0
 40
31.0
 40
32.0
 40
32.0
 40
33.0
 40
33.0
 40
34.0
 40
34.0
 40
35.0
 40
35.0
 40
36.0
 40
36.0
 40
37.0
 40
37.0
 40
38.0
 40
38.0
 40
39.0
 40
39.0
 40
40.0
 40
40.0
 40
41.0
 40
41.0
 40
42.0
 40
42.0
 40
43.0
 40
43.0
 40
44.0
 40
44.0
 40
45.0
 40
45.0
 40
46.0
 40
46.0
 40
47.0
 40
47.0
 40
48.0
 40
48.0
 40
49.0
 40
49.0
 40
50.0
 40
50.0
 40
51.0
 40
51.0
 40
52.0
 40
52.0
 40
53.0
 40
53.0
 40
54.0
 40
54.0
 40
55.0
 40
55.0
 40
56.0
 40
56.0
 40
57.0
 40
57.0
 40
58.0
 40
58.0
 40
59.0
 40
59.0
 40
60.0
 40
60.0
 40
61.0
 40
61.0
 40
62.0
 40
62.0
 40
63.0
 40
63.0
 40
64.0
 40
64.0
 40
65.0
 40
65.0
 40
66.0
 40
66.0
 40
67.0
 40
67.0
 40
68.0
 40
68.0
 40
69.0
 40
69.0
 40
70.0
 40
70.0
 40
71.0
 40
71.0
 40
72.0
 40
72.0
 40
73.0
 40
73.0
 40
74.0
 40
74.0
 40
75.0
 40
75.0
 40
76.0
 40
76.0
 40
77.0
 40
77.0
 40
78.0
 40
78.0
 40
79.0
 40
79.0
 40
80.0
 40
80.0
 40
81.0
 40
81.0
 40
82.0
 40
82.0
 40
83.0
 40
83.0
 40
84.0
 40
84.0
 40
85.0
 40
85.0
 40
86.0
 40
86.0
 40
87.0
 40
87.0
 40
88.0
 40
88.0
 40
89.0
 40
89.0
 40
90.0
 40
90.0
 40
91.0
 40
91.0
 40
92.0
 40
92.0
 40
93.0
 40
93.0
 40
94.0
 40
94.0
 40
95.0
 40
95.0
 40
96.0
 40
96.0
 40
97.0
 40
97.0
 40
98.0
 40
98.0
 40
99.0
 40
99.0
 40
100.0
 40
100.0
 40
101.0
 40
101.0
 40
102.0
 40
102.0
 40
103.0
 40
103.0
 40
104.0
 40
104.0
 40
105.0
 40
105.0
 40
106.0
 40
106.0
 40
107.0
 40
107.0
 40
108.0
 40
108.0
 40
109.0
 40
109.0
 40
110.0
 40
110.0
 40
111.0
 40
111.0
 40
112.0
 40
112.0
 40
113.0
 40
113.0
 40
114.0
 40
114.0
 40
115.0
 40
115.0
 40
116.0
 40
116.0
 40
117.0
 40
117.0
 40
118.0
 40
118.0
 40
119.0
 40
119.0
 40
120.0
 40
120.0
 40
121.0
 40
121.0
 40
122.0
 40
122.0
 40
123.0
 40
123.0
 40
124.0
 40
124.0
 40
125.0
 40
125.0
 40
126.0
 40
126.0
 40
127.0
 40
127.0
 40
128.0
 40
128.0
 40
129.0
 40
129.0
 40
130.0
 40
130.0
 40
131.0
 40
131.0
 40
132.0
 40
132.0
 40
133.0
 40
133.0
 40
134.0
 40
134.0
 40
135.0
 40
135.0
 40
136.0
 40
136.0
 40
137.0
 40
137.0
 40
138.0
 40
138.0
 40
139.0
 40
139.0
 40
140.0
 40
140.0
 40
141.0
 40
141.0
 40
142.0
 40
142.0
 40
143.0
 40
143.0
 40
144.0
 40
144.0
 40
145.0
 40
145.0
 40
146.0
 40
146.0
 40
147.0
 40
147.0
 40
148.0
 40
148.0
 40
149.0
 40
149.0
 40
150.0
 40
150.0
 40
151.0
 40
151.0
 40
152.0
 40
152.0
 40
153.0
 40
153.0
 40
154.0
 40
154.0
 40
155.0
 40
155.0
 40
156.0
 40
156.0
 40
157.0
 40
157.0
 40
158.0
 40
158.0
 40
159.0
 40
159.0
 40
160.0
 40
160.0
 40
161.0
 40
161.0
 40
162.0
 40
162.0
 40
163.0
 40
163.0
 40
164.0
 40
164.0
 40
165.0
 40
165.0
 40
166.0
 40
166.0
 40
167.0
 40
167.0
 40
168.0
 40
168.0
 40
169.0
 40
169.0
 40
170.0
 40
170.0
 40
171.0
 40
171.0
 40
172.0
 40
172.0
 40
173.0
 40
173.0
 40
174.0
 40
174.0
 40
175.0
 40
175.0
 40
176.0
 40
176.0
 40
177.0
 40
177.0
 40
178.0
 40
178.0
 40
179.0
 40
179.0
 40
180.0
 40
180.0
 40
181.0
 40
181.0
 40
182.0
 40
182.0
 40
183.0
 40
183.0
 40
184.0
 40
184.0
 40
185.0
 40
185.0
 40
186.0
 40
186.0
 40
187.0
 40
187.0
 40
188.0
 40
188.0
 40
189.0
 40
189.0
 40
190.0
 40
190.0
 40
191.0
 40
191.0
 40
192.0
 40
192.0
 40
193.0
 40
193.0
 40
194.0
 40
194.0
 40
195.0
 40
195.0
 40
196.0
 40
196.0
 40
197.0
 40
197.0
 40
198.0
 40
198.0
 40
199.0
 40
199.0
 40
200.0
 40
200.0
 40
201.0
 40
201.0
 40
202.0
 40
202.0
 40
203.0
 40
203.0
 40
204.0
 40
204.0
 40
205.0
 40
205.0
 40
206.0
 40
206.0
 40
207.0
 40
207.0
 40
208.0
 40
208.0
 40
209.0
 40
209.0
 40
210.0
 40
210.0
 40
211.0
 40
211.0
 40
212.0
 40
212.0
 40
213.0
 40
213.0
 40
214.0
 40
214.0
 40
215.0
 40
215.0
 40
216.0
 40
216.0
 40
217.0
 40
217.0
 40
218.0
 40
218.0
 40
219.0
 40
219.0
 40
220.0
 40
220.0
 40
221.0
 40
221.0
 40
222.0
 40
222.0
 40
223.0
 40
223.0
 40
224.0
 40
224.0
 40
225.0
 40
225.0
 40
226.0
 40
226.0
 40
227.0
 40
227.0
 40
228.0
 40
228.0
 40
229.0
 40
229.0
 40
230.0
 40
230.0
 40
231.0
 40
231.0
 40
232.0
 40
232.0
 40
233.0
 40
233.0
 40
234.0
 40
234.0
 40
235.0
 40
235.0
 40
236.0
 40
236.0
 40
237.0
 40
237.0
 40
238.0
 40
238.0
 40
239.0
 40
239.0
 40
240.0
 40
240.0
 40
241.0
 40
241.0
 40
242.0
 40
242.0
 40
243.0
 40
243.0
 40
244.0
 40
244.0
 40
245.0
 40
245.0
 40
246.0
 40
246.0
 40
247.0
 40
247.0
 40
248.0
 40
248.0
 40
249.0
 40
249.0
 40
250.0
 40
250.0
 40
251.0
 40
251.0
 40
252.0
 40
252.0
 40
253.0
 40
253.0
 40
254.0
 40
254.0
 40
255.0
 40
255.0
 40
256.0
 40
256.0
 40
257.0
 40
257.0
 40
258.0
 40
258.0
 40
259.0
 40
259.0
 40
260.0
 40
260.0
 40
261.0
 40
261.0
 40
262.0
 40
262.0
 40
263.0
 40
263.0
 40
264.0
 40
264.0
 40
265.0
 40
265.0
 40
266.0
 40
266.0
 40
267.0
 40
267.0
 40
268.0
 40
268.0
 40
269.0
 40
269.0
 40
270.0
 40
270.0
 40
271.0
 40
271.0
 40
272.0
 40
272.0
 40
273.0
 40
273.0
 40
274.0
 40
274.0
 40
275.0
 40
275.0
 40
276.0
 40
276.0
 40
277.0
 40
277.0
 40
278.0
 40
278.0
 40
279.0
 40
279.0
 40
280.0
 40
280.0
 40
281.0
 40
281.0
 40
282.0
 40
282.0
 40
283.0
 40
283.0
 40
284.0
 40
284.0
 40
285.0
 40
285.0
 40
286.0
 40
286.0
 40
287.0
 40
287.0
 40
288.0
 40
288.0
 40
289.0
 40
289.0
 40
290.0
 40
290.0
 40
291.0
 40
291.0
 40
292.0
 40
292.0
 40
293.0
 40
293.0
 40
294.0
 40
294.0
 40
295.0
 40
295.0
 40
296.0
 40
296.0
 40
297.0
 40
297.0
 40
298.0
 40
298.0
 40
299.0
 40
299.0
 40
300.0
 40
300.0
 40
301.0
 40
301.0
 40
302.0
 40
302.0
 40
303.0
 40
303.0
 40
304.0
 40
304.0
 40
305.0
 40
305.0
 40
306.0
 40
306.0
 40
307.0
 40
307.0
 40
308.0
 40
308.0
 40
309.0
 40
309.0
 40
310.0
 40
310.0
 40
311.0
 40
311.0
 40
312.0
 40
312.0
 40
313.0
 40
313.0
 40
314.0
 40
314.0
 40
315.0
 40
315.0
 40
316.0
 40
316.0
 40
317.0
 40
317.0
 40
318.0
 40
318.0
 40
319.0
 40
319.0
 40
320.0
 40
320.0
 40
321.0
 40
321.0
 40
322.0
 40
322.0
 40
323.0
 40
323.0
 40
324.0
 40
324.0
 40
325.0
 40
325.0
 40
326.0
 40
326.0
 40
327.0
 40
327.0
 40
328.0
 40
328.0
 40
329.0
 40
329.0
 40
330.0
 40
330.0
 40
331.0
 40
331.0
 40
332.0
 40
332.0
 40
333.0
 40
333.0
 40
334.0
 40
334.0
 40
335.0
 40
335.0
 40
336.0
 40
336.0
 40
337.0
 40
337.0
 40
338.0
 40
338.0
 40
339.0
 40
339.0
 40
340.0
 40
340.0
 40
341.0
 40
341.0
 40
342.0
 40
342.0
 40
343.0
 40
343.0
 40
344.0
 40
344.0
 40
345.0
 40
345.0
 40
346.0
 40
346.0
 40
347.0
 40
347.0
 40
348.0
 40
348.0
 40
349.0
 40
349.0
 40
350.0
 40
350.0
 40
351.0
 40
351.0
 40
352.0
 40
352.0
 40
353.0
 40
353.0
 40
354.0
 40
354.0
 40
355.0
 40
355.0
 40
356.0
 40
356.0
 40
357.0
 40
357.0
 40
358.0
 40
358.0
 40
359.0
 40
359.0
 40
360.0
 40
360.0
 40
361.0
 40
361.0
 40
362.0
 40
362.0
 40
363.0
 40
363.0
 40
364.0
 40
364.0
 40
365.0
 40
365.0
 40
366.0
 40
366.0
 40
367.0
 40
367.0
 40
368.0
 40
368.0
 40
369.0
 40
369.0
 40
370.0
 40
370.0
 40
371.0
 40
371.0
 40
372.0
 40
372.0
 40
373.0
 40
373.0
 40
374.0
 40
374.0
 40
375.0
 40
375.0
 40
376.0
 40
376.0
 40
377.0
 40
377.0
 40
378.0
 40
378.0
 40
379.0
 40
379.0
 40
380.0
 40
380.0
 40
381.0
 40
381.0
 40
382.0
 40
382.0
 40
383.0
 40
383.0
 40
384.0
 40
384.0
 40
385.0
 40
385.0
 40
386.0
 40
386.0
 40
387.0
 40
387.0
 40
388.0
 40
388.0
 40
389.0
 40
389.0
 40
389.0
 10
1860.599743297623
 20
-2688.561442064894
 30
0.0
 41
1.0
 10
1862.236591515064
 20
-2688.561442064894
 30
0.0
 41
1.0
 10
1863.873439732504
 20
-2688.561442064894
 30
0.0
 41
1.0
 10
1863.045932261471
 20
-2691.246694593394
 30
0.0
 41
1.0
 10
1862.218424790437
 20
-2693.931947121893
 30
0.0
 41
1.0
 10
1862.255103780727
 20
-2693.874545576142
 30
0.0
 41
0.9999957264449635
 10
1862.29211777438
 20
-2693.817359475854
 30
0.0
 41
1.0
 10
1862.352976422682
 20
-2693.72333371906
 30
0.0
 41
1.0
 10
1862.413835070984
 20
-2693.629307962266
 30
0.0
 41
1.0
 10
1862.572566361197
 20
-2693.384070348457
 30
0.0
 41
0.9995394069080581
 10
1862.745883144303
 20
-2693.148914224971
 30
0.0
 41
1.0
 10
1862.81739686882
 20
-2693.051884439788
 30
0.0
 41
1.0
 10
1862.888910593337
 20
-2692.954854654605
 30
0.0
 41
1.0
 10
1863.156363928974
 20
-2692.59197410435
 30
0.0
 41
0.9994460617143366
 10
1863.447364891551
 20
-2692.247689309049
 30
0.0
 41
1.0
 10
1863.456141253504
 20
-2692.237305948281
 30
0.0
 41
1.0
 10
1863.464917615457
 20
-2692.226922587512
 30
0.0
 41
1.0
 10
1863.738365854128
 20
-2691.903404513748
 30
0.0
 41
0.9994359394934378
 10
1864.03291431483
 20
-2691.59897211142
 30
0.0
 41
1.0
 10
1864.037681022741
 20
-2691.59404545067
 30
0.0
 41
1.0
 10
1864.042447730651
 20
-2691.589118789919
 30
0.0
 41
1.0
 10
1864.327462775536
 20
-2691.294539709088
 30
0.0
 41
0.9995293688567949
 10
1864.630006137497
 20
-2691.017993284762
 30
0.0
 41
1.0
 10
1864.668593656024
 20
-2690.98272151346
 30
0.0
 41
1.0
 10
1864.707181174551
 20
-2690.947449742157
 30
0.0
 41
1.0
 10
1864.932549499464
 20
-2690.741446860432
 30
0.0
 41
0.9997087614803569
 10
1865.167595277372
 20
-2690.546558298839
 30
0.0
 41
1.0
 10
1865.205927423742
 20
-2690.514775141806
 30
0.0
 41
1.0
 10
1865.244259570113
 20
-2690.482991984774
 30
0.0
 41
1.0
 10
1865.402641055296
 20
-2690.351669737232
 30
0.0
 41
0.9999595338701152
 10
1865.563359596992
 20
-2690.223218275933
 30
0.0
 41
1.0
 10
1865.724078138722
 20
-2690.094766814608
 30
0.0
 41
0.9999749417497324
 10
1865.886599207416
 20
-2689.968603706709
 30
0.0
 41
1.0
 10
1865.92857149973
 20
-2689.936021132115
 30
0.0
 41
1.0
 10
1865.970543792044
 20
-2689.90343855752
 30
0.0
 41
1.0
 10
1866.139679562647
 20
-2689.772140537838
 30
0.0
 41
0.9999792037126249
 10
1866.310494762194
 20
-2689.643034974545
 30
0.0
 41
1.0
 10
1866.352144414145
 20
-2689.611555329932
 30
0.0
 41
1.0
 10
1866.393794066096
 20
-2689.58007568532
 30
0.0
 41
1.0
 10
1866.481309961855
 20
-2689.513929411165
 30
0.0
 41
0.9999993373911212
 10
1866.568673334019
 20
-2689.44758182041
 30
0.0
 41
1.0
 10
1866.656036706307
 20
-2689.381234229561
 30
0.0
 41
0.9999160953814502
 10
1866.745089528148
 20
-2689.317172099163
 30
0.0
 41
1.0
 10
1866.810733302986
 20
-2689.269949787994
 30
0.0
 41
1.0
 10
1866.876377077823
 20
-2689.222727476826
 30
0.0
 41
1.0
 10
1867.096717449341
 20
-2689.064220724089
 30
0.0
 41
0.9980964527231465
 10
1867.334895436341
 20
-2688.934045778378
 30
0.0
 41
1.0
 10
1867.4089606502
 20
-2688.89356581919
 30
0.0
 41
1.0
 10
1867.483025864059
 20
-2688.853085860002
 30
0.0
 41
1.0
 10
1867.841679890602
 20
-2688.657065358602
 30
0.0
 41
0.998457281057266
 10
1868.219857023318
 20
-2688.50202083591
 30
0.0
 41
1.0
 10
1868.227149562107
 20
-2688.499031051235
 30
0.0
 41
1.0
 10
1868.234442100897
 20
-2688.49604126656
 30
0.0
 41
1.0
 10
1868.598034156033
 20
-2688.346976313218
 30
0.0
 41
0.9987838528033862
 10
1868.974539473154
 20
-2688.234445032886
 30
0.0
 41
1.0
 10
1868.983015371548
 20
-2688.231911725506
 30
0.0
 41
1.0
 10
1868.991491269943
 20
-2688.229378418127
 30
0.0
 41
1.0
 10
1869.351044790269
 20
-2688.121913752555
 30
0.0
 41
0.9990652816207043
 10
1869.718536653704
 20
-2688.04590639347
 30
0.0
 41
1.0
 10
1869.728913455764
 20
-2688.043760187258
 30
0.0
 41
1.0
 10
1869.739290257823
 20
-2688.041613981045
 30
0.0
 41
1.0
 10
1870.086028517132
 20
-2687.969899034386
 30
0.0
 41
0.9992909934270049
 10
1870.437180050053
 20
-2687.924478169453
 30
0.0
 41
1.0
 10
1870.788331582966
 20
-2687.87905730452
 30
0.0
 41
0.9994553539448754
 10
1871.141714449149
 20
-2687.856898696108
 30
0.0
 41
1.0
 10
1871.212583264744
 20
-2687.852454920012
 30
0.0
 41
1.0
 10
1871.28345208034
 20
-2687.848011143916
 30
0.0
 41
1.0
 10
1871.615903613478
 20
-2687.827165019093
 30
0.0
 41
0.999092809829296
 10
1871.948923197282
 20
-2687.834684301562
 30
0.0
 41
1.0
 10
1872.026046867825
 20
-2687.836425684628
 30
0.0
 41
1.0
 10
1872.103170538368
 20
-2687.838167067694
 30
0.0
 41
1.0
 10
1872.281942781087
 20
-2687.842203584031
 30
0.0
 41
0.9998382089205333
 10
1872.46045414666
 20
-2687.852667837087
 30
0.0
 41
1.0
 10
1872.461313959099
 20
-2687.852718238892
 30
0.0
 41
1.0
 10
1872.462173771539
 20
-2687.852768640696
 30
0.0
 41
1.0
 10
1872.638965512232
 20
-2687.863132090143
 30
0.0
 41
0.9997558016758341
 10
1872.815126666634
 20
-2687.881297120876
 30
0.0
 41
1.0
 10
1872.816078943499
 20
-2687.881395315842
 30
0.0
 41
1.0
 10
1872.817031220364
 20
-2687.881493510808
 30
0.0
 41
1.0
 10
1872.991287821041
 20
-2687.89946215161
 30
0.0
 41
0.9996565144181716
 10
1873.16436352772
 20
-2687.926536764987
 30
0.0
 41
1.0
 10
1873.165295378471
 20
-2687.926682536449
 30
0.0
 41
1.0
 10
1873.166227229224
 20
-2687.926828307911
 30
0.0
 41
1.0
 10
1873.3374392344
 20
-2687.953611378364
 30
0.0
 41
0.9995321806867199
 10
1873.50669339506
 20
-2687.990812355224
 30
0.0
 41
1.0
 10
1873.507471784202
 20
-2687.990983440155
 30
0.0
 41
1.0
 10
1873.508250173345
 20
-2687.991154525087
 30
0.0
 41
1.0
 10
1873.675947555715
 20
-2688.028013332082
 30
0.0
 41
0.9993819199219232
 10
1873.840640624108
 20
-2688.076564098604
 30
0.0
 41
1.0
 10
1873.841117491103
 20
-2688.076704676822
 30
0.0
 41
1.0
 10
1873.841594358099
 20
-2688.076845255041
 30
0.0
 41
1.0
 10
1874.005333692499
 20
-2688.125114865124
 30
0.0
 41
0.9992088568504867
 10
1874.164718730477
 20
-2688.186245336714
 30
0.0
 41
1.0
 10
1874.324080712235
 20
-2688.24736453818
 30
0.0
 41
0.9990226101773279
 10
1874.477422052049
 20
-2688.322319401409
 30
0.0
 41
1.0
 10
1874.630740335644
 20
-2688.397262994515
 30
0.0
 41
0.9988424273972591
 10
1874.776147590069
 20
-2688.486592545021
 30
0.0
 41
1.0
 10
1874.776683006828
 20
-2688.486921473166
 30
0.0
 41
1.0
 10
1874.777218423587
 20
-2688.487250401311
 30
0.0
 41
1.0
 10
1874.92369651153
 20
-2688.577237808106
 30
0.0
 41
0.9986928844490697
 10
1875.060222244949
 20
-2688.681709276665
 30
0.0
 41
1.0
 10
1875.061384829394
 20
-2688.682598903121
 30
0.0
 41
1.0
 10
1875.06254741384
 20
-2688.683488529577
 30
0.0
 41
1.0
 10
1875.20139831615
 20
-2688.789739251047
 30
0.0
 41
0.9986007262277985
 10
1875.328250655682
 20
-2688.910060790433
 30
0.0
 41
1.0
 10
1875.330039486598
 20
-2688.911757526104
 30
0.0
 41
1.0
 10
1875.331828317513
 20
-2688.913454261775
 30
0.0
 41
1.0
 10
1875.462258318876
 20
-2689.037169272503
 30
0.0
 41
0.9985581491381195
 10
1875.578673542279
 20
-2689.174154253046
 30
0.0
 41
1.0
 10
1875.59719044947
 20
-2689.195942968449
 30
0.0
 41
1.0
 10
1875.615707356661
 20
-2689.217731683852
 30
0.0
 41
1.0
 10
1875.769156394449
 20
-2689.398294095203
 30
0.0
 41
0.9970460233520636
 10
1875.893140196768
 20
-2689.600228263568
 30
0.0
 41
1.0
 10
1875.922078926927
 20
-2689.64736118173
 30
0.0
 41
1.0
 10
1875.951017657087
 20
-2689.694494099893
 30
0.0
 41
1.0
 10
1876.03049105711
 20
-2689.823933547955
 30
0.0
 41
0.9988468816637008
 10
1876.097183798613
 20
-2689.960398452809
 30
0.0
 41
1.0
 10
1876.111255843597
 20
-2689.989192295086
 30
0.0
 41
1.0
 10
1876.125327888581
 20
-2690.017986137364
 30
0.0
 41
1.0
 10
1876.163876540116
 20
-2690.096863357666
 30
0.0
 41
0.9998431189996929
 10
1876.199607195106
 20
-2690.177056466546
 30
0.0
 41
1.0
 10
1876.23533785013
 20
-2690.257249575505
 30
0.0
 41
0.9999989989972418
 10
1876.271295297016
 20
-2690.337341250767
 30
0.0
 41
1.0
 10
1876.283639920166
 20
-2690.364837684307
 30
0.0
 41
1.0
 10
1876.295984543317
 20
-2690.392334117846
 30
0.0
 41
1.0
 10
1876.356631236533
 20
-2690.527418660252
 30
0.0
 41
0.999879035632118
 10
1876.413046996809
 20
-2690.664324164128
 30
0.0
 41
1.0
 10
1876.42671735938
 20
-2690.697498366989
 30
0.0
 41
1.0
 10
1876.440387721951
 20
-2690.73067256985
 30
0.0
 41
1.0
 10
1876.487503046714
 20
-2690.845008479625
 30
0.0
 41
0.9998227574560588
 10
1876.53028054349
 20
-2690.961037096174
 30
0.0
 41
1.0
 10
1876.573058040269
 20
-2691.077065712732
 30
0.0
 41
0.9996797971041512
 10
1876.609910610186
 20
-2691.195109950963
 30
0.0
 41
1.0
 10
1876.617718215638
 20
-2691.220118867302
 30
0.0
 41
1.0
 10
1876.625525821089
 20
-2691.245127783641
 30
0.0
 41
1.0
 10
1876.67799360191
 20
-2691.413189854553
 30
0.0
 41
0.9979274938734355
 10
1876.708442648868
 20
-2691.586598571874
 30
0.0
 41
1.0
 10
1876.71289002339
 20
-2691.611926573514
 30
0.0
 41
1.0
 10
1876.717337397912
 20
-2691.637254575154
 30
0.0
 41
1.0
 10
1876.739197277309
 20
-2691.761747589736
 30
0.0
 41
0.999498598213714
 10
1876.753133607663
 20
-2691.887374592023
 30
0.0
 41
1.0
 10
1876.767069938017
 20
-2692.013001594297
 30
0.0
 41
0.9996372611201243
 10
1876.774221669552
 20
-2692.139196751662
 30
0.0
 41
1.0
 10
1876.774558824531
 20
-2692.145145985831
 30
0.0
 41
1.0
 10
1876.77489597951
 20
-2692.15109522
 30
0.0
 41
1.0
 10
1876.782722021003
 20
-2692.289188845691
 30
0.0
 41
0.9997730630736228
 10
1876.784658647979
 20
-2692.427490493757
 30
0.0
 41
1.0
 10
1876.784772860815
 20
-2692.435646852042
 30
0.0
 41
1.0
 10
1876.784887073651
 20
-2692.443803210328
 30
0.0
 41
1.0
 10
1876.7870521263
 20
-2692.598417574969
 30
0.0
 41
0.999877261407012
 10
1876.784371952836
 20
-2692.753023868118
 30
0.0
 41
1.0
 10
1876.784193426438
 20
-2692.763322195775
 30
0.0
 41
1.0
 10
1876.784014900041
 20
-2692.773620523432
 30
0.0
 41
1.0
 10
1876.780977673782
 20
-2692.948823471928
 30
0.0
 41
0.9999415567328087
 10
1876.77415305329
 20
-2693.123919795284
 30
0.0
 41
1.0
 10
1876.77367041194
 20
-2693.136302714742
 30
0.0
 41
1.0
 10
1876.77318777059
 20
-2693.1486856342
 30
0.0
 41
1.0
 10
1876.765397867395
 20
-2693.348547796516
 30
0.0
 41
0.9999716810421982
 10
1876.754600701159
 20
-2693.548270072956
 30
0.0
 41
1.0
 10
1876.748175103581
 20
-2693.667128572287
 30
0.0
 41
1.0
 10
1876.741749506003
 20
-2693.785987071618
 30
0.0
 41
1.0
 10
1876.725601687698
 20
-2694.084683874164
 30
0.0
 41
0.9999819129911648
 10
1876.705862104466
 20
-2694.383164829571
 30
0.0
 41
1.0
 10
1876.686122521233
 20
-2694.681645784994
 30
0.0
 41
1.0
 10
1876.681243880105
 20
-2694.756031876692
 30
0.0
 41
1.0
 10
1876.726640347704
 20
-2694.678549882138
 30
0.0
 41
0.9999982128158768
 10
1876.77232946517
 20
-2694.601240094299
 30
0.0
 41
1.0
 10
1876.826148584993
 20
-2694.510173666098
 30
0.0
 41
1.0
 10
1876.879967704817
 20
-2694.419107237896
 30
0.0
 41
1.0
 10
1877.033295061867
 20
-2694.159664593758
 30
0.0
 41
0.9998609190058981
 10
1877.195189687598
 20
-2693.905479829888
 30
0.0
 41
1.0
 10
1877.254486330555
 20
-2693.812380363985
 30
0.0
 41
1.0
 10
1877.313782973511
 20
-2693.719280898082
 30
0.0
 41
1.0
 10
1877.47832741399
 20
-2693.460935758084
 30
0.0
 41
0.9999067609731702
 10
1877.649865432922
 20
-2693.207180379197
 30
0.0
 41
1.0
 10
1877.65467483933
 20
-2693.200065847077
 30
0.0
 41
1.0
 10
1877.659484245739
 20
-2693.192951314958
 30
0.0
 41
1.0
 10
1877.821403451859
 20
-2692.953425000301
 30
0.0
 41
0.9998784952151017
 10
1877.990710671212
 20
-2692.719062566896
 30
0.0
 41
1.0
 10
1878.160017890578
 20
-2692.484700133475
 30
0.0
 41
0.9998532968284247
 10
1878.337253132226
 20
-2692.256274316531
 30
0.0
 41
1.0
 10
1878.377176710207
 20
-2692.204819674493
 30
0.0
 41
1.0
 10
1878.417100288188
 20
-2692.153365032454
 30
0.0
 41
1.0
 10
1878.654068387704
 20
-2691.847953810519
 30
0.0
 41
0.9991551975795382
 10
1878.91531728695
 20
-2691.563034686354
 30
0.0
 41
1.0
 10
1878.922336518916
 20
-2691.555379483098
 30
0.0
 41
1.0
 10
1878.929355750882
 20
-2691.547724279842
 30
0.0
 41
1.0
 10
1879.176566186203
 20
-2691.27811556218
 30
0.0
 41
0.9997418144180776
 10
1879.435770465598
 20
-2691.020016740962
 30
0.0
 41
1.0
 10
1879.694974744997
 20
-2690.761917919738
 30
0.0
 41
0.9989238204632881
 10
1879.976979841497
 20
-2690.528947995662
 30
0.0
 41
1.0
 10
1880.067475197783
 20
-2690.454188012439
 30
0.0
 41
1.0
 10
1880.157970554069
 20
-2690.379428029216
 30
0.0
 41
1.0
 10
1880.438450668508
 20
-2690.147717922638
 30
0.0
 41
0.9990825084096954
 10
1880.73773053371
 20
-2689.940859926976
 30
0.0
 41
1.0
 10
1880.757821261826
 20
-2689.926973500816
 30
0.0
 41
1.0
 10
1880.777911989942
 20
-2689.913087074655
 30
0.0
 41
1.0
 10
1881.037010398917
 20
-2689.734001931311
 30
0.0
 41
0.9998164899825629
 10
1881.30277880567
 20
-2689.564973448278
 30
0.0
 41
1.0
 10
1881.326469926718
 20
-2689.549905915229
 30
0.0
 41
1.0
 10
1881.350161047766
 20
-2689.53483838218
 30
0.0
 41
1.0
 10
1881.568547212422
 20
-2689.395944965245
 30
0.0
 41
0.9997473449130689
 10
1881.792955126922
 20
-2689.267007049613
 30
0.0
 41
1.0
 10
1882.01736304141
 20
-2689.138069133988
 30
0.0
 41
0.999932786114679
 10
1882.244700262938
 20
-2689.014369150625
 30
0.0
 41
1.0
 10
1882.245804268064
 20
-2689.013768433264
 30
0.0
 41
1.0
 10
1882.24690827319
 20
-2689.013167715902
 30
0.0
 41
1.0
 10
1882.476453504963
 20
-2688.888266297822
 30
0.0
 41
0.9996956420484265
 10
1882.711880156647
 20
-2688.774839363871
 30
0.0
 41
1.0
 10
1882.772760966432
 20
-2688.745507410411
 30
0.0
 41
1.0
 10
1882.833641776217
 20
-2688.716175456951
 30
0.0
 41
1.0
 10
1883.039595989702
 20
-2688.616948140065
 30
0.0
 41
0.9998070570176726
 10
1883.249288767581
 20
-2688.525886966265
 30
0.0
 41
1.0
 10
1883.458981545459
 20
-2688.434825792464
 30
0.0
 41
0.9997827436147982
 10
1883.672287418671
 20
-2688.352583449844
 30
0.0
 41
1.0
 10
1883.71073311794
 20
-2688.337760302576
 30
0.0
 41
1.0
 10
1883.749178817208
 20
-2688.322937155309
 30
0.0
 41
1.0
 10
1884.039376088954
 20
-2688.211048518156
 30
0.0
 41
0.9988031841976704
 10
1884.339116814164
 20
-2688.12804838982
 30
0.0
 41
1.0
 10
1884.388951310892
 20
-2688.114248898206
 30
0.0
 41
1.0
 10
1884.43878580762
 20
-2688.100449406592
 30
0.0
 41
1.0
 10
1884.773325858913
 20
-2688.007813121779
 30
0.0
 41
0.9984748040550251
 10
1885.116039676208
 20
-2687.95262465725
 30
0.0
 41
1.0
 10
1885.125517948706
 20
-2687.951098336222
 30
0.0
 41
1.0
 10
1885.134996221205
 20
-2687.949572015196
 30
0.0
 41
1.0
 10
1885.458753493506
 20
-2687.89743619272
 30
0.0
 41
0.9984436495479774
 10
1885.786302980955
 20
-2687.881680285082
 30
0.0
 41
1.0
 10
1885.829697397218
 20
-2687.879592910683
 30
0.0
 41
1.0
 10
1885.873091813481
 20
-2687.877505536284
 30
0.0
 41
1.0
 10
1886.113852468405
 20
-2687.865924377445
 30
0.0
 41
0.9987954789335299
 10
1886.354588958225
 20
-2687.87799743293
 30
0.0
 41
1.0
 10
1886.394518543216
 20
-2687.879999921607
 30
0.0
 41
1.0
 10
1886.434448128208
 20
-2687.882002410284
 30
0.0
 41
1.0
 10
1886.595325448047
 20
-2687.890070488414
 30
0.0
 41
0.9997941595876596
 10
1886.755743004233
 20
-2687.904658620256
 30
0.0
 41
1.0
 10
1886.916160560429
 20
-2687.919246752099
 30
0.0
 41
0.9998589466238764
 10
1887.075997654146
 20
-2687.939214461
 30
0.0
 41
1.0
 10
1887.140810057756
 20
-2687.947311174838
 30
0.0
 41
1.0
 10
1887.205622461365
 20
-2687.955407888675
 30
0.0
 41
1.0
 10
1887.495084362303
 20
-2687.991569025251
 30
0.0
 41
0.9993495063249205
 10
1887.781186849829
 20
-2688.048500444734
 30
0.0
 41
1.0
 10
1887.847054244135
 20
-2688.061607371164
 30
0.0
 41
1.0
 10
1887.912921638441
 20
-2688.074714297594
 30
0.0
 41
1.0
 10
1888.131509284854
 20
-2688.118210965865
 30
0.0
 41
0.9996788715560496
 10
1888.347612428769
 20
-2688.172726564592
 30
0.0
 41
1.0
 10
1888.351738433849
 20
-2688.173767417738
 30
0.0
 41
1.0
 10
1888.355864438928
 20
-2688.174808270884
 30
0.0
 41
1.0
 10
1888.563715572685
 20
-2688.227242163319
 30
0.0
 41
0.9995480654492276
 10
1888.768040043141
 20
-2688.292072076567
 30
0.0
 41
1.0
 10
1888.771419327399
 20
-2688.293144286395
 30
0.0
 41
1.0
 10
1888.774798611657
 20
-2688.294216496223
 30
0.0
 41
1.0
 10
1888.972364513601
 20
-2688.356901989816
 30
0.0
 41
0.9993867959456048
 10
1889.165058830485
 20
-2688.433260728395
 30
0.0
 41
1.0
 10
1889.167544728653
 20
-2688.434245812187
 30
0.0
 41
1.0
 10
1889.170030626821
 20
-2688.435230895979
 30
0.0
 41
1.0
 10
1889.357753147367
 20
-2688.509619466973
 30
0.0
 41
0.9992050256521992
 10
1889.538952497437
 20
-2688.598727265452
 30
0.0
 41
1.0
 10
1889.540421862863
 20
-2688.599449850375
 30
0.0
 41
1.0
 10
1889.54189122829
 20
-2688.600172435297
 30
0.0
 41
1.0
 10
1889.720151847504
 20
-2688.687835063929
 30
0.0
 41
0.999022235074129
 10
1889.889971970291
 20
-2688.790901599326
 30
0.0
 41
1.0
 10
1889.890339740856
 20
-2688.791124805136
 30
0.0
 41
1.0
 10
1889.890707511422
 20
-2688.791348010946
 30
0.0
 41
1.0
 10
1890.059792093078
 20
-2688.893968134723
 30
0.0
 41
0.9988642743805237
 10
1890.218341162316
 20
-2689.012216509773
 30
0.0
 41
1.0
 10
1890.376890231554
 20
-2689.130464884824
 30
0.0
 41
0.9987681233311242
 10
1890.522937800107
 20
-2689.263846267625
 30
0.0
 41
1.0
 10
1890.523595656038
 20
-2689.264447070053
 30
0.0
 41
1.0
 10
1890.52425351197
 20
-2689.265047872482
 30
0.0
 41
1.0
 10
1890.671616792385
 20
-2689.39963086014
 30
0.0
 41
0.9987496570898801
 10
1890.804804403039
 20
-2689.548256488313
 30
0.0
 41
1.0
 10
1890.80634874256
 20
-2689.549979835029
 30
0.0
 41
1.0
 10
1890.807893082081
 20
-2689.551703181745
 30
0.0
 41
1.0
 10
1890.944169371776
 20
-2689.703775503348
 30
0.0
 41
0.9988147669826533
 10
1891.065013880225
 20
-2689.868377517033
 30
0.0
 41
1.0
 10
1891.067252532382
 20
-2689.871426779739
 30
0.0
 41
1.0
 10
1891.069491184538
 20
-2689.874476042445
 30
0.0
 41
1.0
 10
1891.194812997299
 20
-2690.04517658154
 30
0.0
 41
0.9989452636216141
 10
1891.303946823222
 20
-2690.226653959856
 30
0.0
 41
1.0
 10
1891.306644275393
 20
-2690.231139521908
 30
0.0
 41
1.0
 10
1891.309341727565
 20
-2690.23562508396
 30
0.0
 41
1.0
 10
1891.42387045783
 20
-2690.42607358638
 30
0.0
 41
0.9991046436070412
 10
1891.521888884475
 20
-2690.625522452435
 30
0.0
 41
1.0
 10
1891.524816607654
 20
-2690.631479812579
 30
0.0
 41
1.0
 10
1891.527744330833
 20
-2690.637437172722
 30
0.0
 41
1.0
 10
1891.631618203837
 20
-2690.848800759064
 30
0.0
 41
0.9992763831101611
 10
1891.719124460948
 20
-2691.067448882978
 30
0.0
 41
1.0
 10
1891.722083000274
 20
-2691.074841258043
 30
0.0
 41
1.0
 10
1891.7250415396
 20
-2691.082233633109
 30
0.0
 41
1.0
 10
1891.818464875363
 20
-2691.315666507156
 30
0.0
 41
0.9994163472884043
 10
1891.895730937741
 20
-2691.554933684078
 30
0.0
 41
1.0
 10
1891.898207242236
 20
-2691.562601971647
 30
0.0
 41
1.0
 10
1891.900683546731
 20
-2691.570270259217
 30
0.0
 41
1.0
 10
1891.980450668764
 20
-2691.817282382168
 30
0.0
 41
0.9997268055891129
 10
1892.048586780589
 20
-2692.067752446073
 30
0.0
 41
1.0
 10
1892.050447141128
 20
-2692.074591178289
 30
0.0
 41
1.0
 10
1892.052307501666
 20
-2692.081429910505
 30
0.0
 41
1.0
 10
1892.116722892412
 20
-2692.318222509972
 30
0.0
 41
0.9996701319000749
 10
1892.168894125954
 20
-2692.558010416501
 30
0.0
 41
1.0
 10
1892.221065359496
 20
-2692.797798323033
 30
0.0
 41
0.9995785451109355
 10
1892.259232514176
 20
-2693.040209845102
 30
0.0
 41
1.0
 10
1892.267672078522
 20
-2693.093812154624
 30
0.0
 41
1.0
 10
1892.276111642868
 20
-2693.147414464146
 30
0.0
 41
1.0
 10
1892.329261594746
 20
-2693.484986411555
 30
0.0
 41
0.9979925101215773
 10
1892.339312766599
 20
-2693.82656906774
 30
0.0
 41
1.0
 10
1892.340962391448
 20
-2693.882630514707
 30
0.0
 41
1.0
 10
1892.342612016298
 20
-2693.938691961673
 30
0.0
 41
1.0
 10
1892.349363938451
 20
-2694.16815172393
 30
0.0
 41
0.9995314902263372
 10
1892.342063554175
 20
-2694.397594691428
 30
0.0
 41
1.0
 10
1892.334763169897
 20
-2694.62703765893
 30
0.0
 41
0.9996245486944176
 10
1892.314904979636
 20
-2694.85573620118
 30
0.0
 41
1.0
 10
1892.314578883647
 20
-2694.85949171345
 30
0.0
 41
1.0
 10
1892.314252787659
 20
-2694.86324722572
 30
0.0
 41
1.0
 10
1892.293742405419
 20
-2695.099456792514
 30
0.0
 41
0.9997286095000868
 10
1892.262251758276
 20
-2695.334454610305
 30
0.0
 41
1.0
 10
1892.261464772976
 20
-2695.340327459706
 30
0.0
 41
1.0
 10
1892.260677787676
 20
-2695.346200309106
 30
0.0
 41
1.0
 10
1892.227613169934
 20
-2695.592943825691
 30
0.0
 41
0.9998265533969816
 10
1892.185382252468
 20
-2695.838284775268
 30
0.0
 41
1.0
 10
1892.184029168193
 20
-2695.846145532289
 30
0.0
 41
1.0
 10
1892.182676083918
 20
-2695.85400628931
 30
0.0
 41
1.0
 10
1892.137738997903
 20
-2696.115068752923
 30
0.0
 41
0.9999022530851953
 10
1892.085520068682
 20
-2696.374772690202
 30
0.0
 41
1.0
 10
1892.083562786353
 20
-2696.384506974972
 30
0.0
 41
1.0
 10
1892.081605504022
 20
-2696.394241259743
 30
0.0
 41
1.0
 10
1892.025472010136
 20
-2696.673413766592
 30
0.0
 41
0.9999524761938338
 10
1891.963906072467
 20
-2696.951438752919
 30
0.0
 41
1.0
 10
1891.961353858118
 20
-2696.962964271514
 30
0.0
 41
1.0
 10
1891.95880164377
 20
-2696.974489790108
 30
0.0
 41
1.0
 10
1891.892131277397
 20
-2697.275565813651
 30
0.0
 41
0.9999813588717741
 10
1891.821789275812
 20
-2697.575805238936
 30
0.0
 41
1.0
 10
1891.818681424896
 20
-2697.589070419792
 30
0.0
 41
1.0
 10
1891.815573573981
 20
-2697.602335600648
 30
0.0
 41
1.0
 10
1891.739015870562
 20
-2697.929105387651
 30
0.0
 41
0.9999955237627469
 10
1891.660504114599
 20
-2698.255411194873
 30
0.0
 41
1.0
 10
1891.635940843332
 20
-2698.357499575914
 30
0.0
 41
1.0
 10
1891.611377572064
 20
-2698.459587956954
 30
0.0
 41
1.0
 10
1891.483739273568
 20
-2698.990070526249
 30
0.0
 41
0.9999993604774109
 10
1891.354901379274
 20
-2699.520263027446
 30
0.0
 41
1.0
 10
1891.345463708158
 20
-2699.559100843618
 30
0.0
 41
1.0
 10
1891.336026037042
 20
-2699.597938659789
 30
0.0
 41
1.0
 10
1891.188312800515
 20
-2700.205806793328
 30
0.0
 41
0.9999659914736995
 10
1891.030593608747
 20
-2700.811155886438
 30
0.0
 41
1.0
 10
1891.020688230887
 20
-2700.849174160796
 30
0.0
 41
1.0
 10
1891.010782853028
 20
-2700.887192435155
 30
0.0
 41
1.0
 10
1890.83325290554
 20
-2701.568578076984
 30
0.0
 41
0.9999441976030029
 10
1890.641366839614
 20
-2702.246060927577
 30
0.0
 41
1.0
 10
1890.607965802761
 20
-2702.363988352639
 30
0.0
 41
1.0
 10
1890.574564765908
 20
-2702.481915777702
 30
0.0
 41
1.0
 10
1890.315876626284
 20
-2703.395253478391
 30
0.0
 41
0.9999625120733445
 10
1890.041411091637
 20
-2704.303974546385
 30
0.0
 41
1.0
 10
1889.969831205456
 20
-2704.54096659969
 30
0.0
 41
1.0
 10
1889.898251319274
 20
-2704.777958652995
 30
0.0
 41
1.0
 10
1889.749210911206
 20
-2705.271412809153
 30
0.0
 41
0.9999793386319124
 10
1889.593838864942
 20
-2705.762910087587
 30
0.0
 41
1.0
 10
1889.438466818667
 20
-2706.25440736606
 30
0.0
 41
1.0
 10
1889.416907700926
 20
-2706.322443174809
 30
0.0
 41
1.0
 10
1885.716161594388
 20
-2718.096587019744
 30
0.0
 41
1.0
 10
1882.015415487849
 20
-2729.870730864679
 30
0.0
 41
1.0
 10
1880.092902107802
 20
-2729.870730864679
 30
0.0
 41
1.0
 10
1878.170388727755
 20
-2729.870730864679
 30
0.0
 41
1.0
 10
1881.408278285112
 20
-2719.5746738611
 30
0.0
 41
1.0
 10
1884.646167842469
 20
-2709.278616857521
 30
0.0
 41
1.0
 10
1884.736499488828
 20
-2708.990554412946
 30
0.0
 41
1.0
 10
1884.826831135188
 20
-2708.702491968372
 30
0.0
 41
1.0
 10
1885.167439969904
 20
-2707.616309910078
 30
0.0
 41
0.9999911657914182
 10
1885.498905593252
 20
-2706.527302847389
 30
0.0
 41
1.0
 10
1885.558297480256
 20
-2706.332174967277
 30
0.0
 41
1.0
 10
1885.617689367261
 20
-2706.137047087164
 30
0.0
 41
1.0
 10
1885.830371216616
 20
-2705.438295784652
 30
0.0
 41
0.9999952428153767
 10
1886.038738395262
 20
-2704.738245735963
 30
0.0
 41
1.0
 10
1886.048857335911
 20
-2704.704249187468
 30
0.0
 41
1.0
 10
1886.058976276559
 20
-2704.670252638973
 30
0.0
 41
1.0
 10
1886.247105573899
 20
-2704.038195687309
 30
0.0
 41
0.9999931687465478
 10
1886.43055724966
 20
-2703.404765260723
 30
0.0
 41
1.0
 10
1886.440427778578
 20
-2703.370683842183
 30
0.0
 41
1.0
 10
1886.450298307496
 20
-2703.336602423643
 30
0.0
 41
1.0
 10
1886.6140089254
 20
-2702.771334834205
 30
0.0
 41
0.9999893840818839
 10
1886.772503378321
 20
-2702.204582575689
 30
0.0
 41
1.0
 10
1886.93099783123
 20
-2701.63783031721
 30
0.0
 41
0.9999833980091085
 10
1887.082950312707
 20
-2701.06928915118
 30
0.0
 41
1.0
 10
1887.10095818616
 20
-2701.001911394192
 30
0.0
 41
1.0
 10
1887.118966059613
 20
-2700.934533637203
 30
0.0
 41
1.0
 10
1887.256895157345
 20
-2700.41846197261
 30
0.0
 41
0.9999233658068563
 10
1887.382005099781
 20
-2699.899133655183
 30
0.0
 41
1.0
 10
1887.507115042222
 20
-2699.379805337738
 30
0.0
 41
1.0
 10
1887.586081879937
 20
-2699.052192008885
 30
0.0
 41
1.0
 10
1887.596039087885
 20
-2699.010882085169
 30
0.0
 41
1.0
 10
1887.605996295834
 20
-2698.969572161453
 30
0.0
 41
1.0
 10
1887.665048717648
 20
-2698.724578680053
 30
0.0
 41
0.9999868670850101
 10
1887.721586885644
 20
-2698.478992788742
 30
0.0
 41
1.0
 10
1887.729381859969
 20
-2698.445133613867
 30
0.0
 41
1.0
 10
1887.737176834294
 20
-2698.411274438992
 30
0.0
 41
1.0
 10
1887.778125053645
 20
-2698.233406897416
 30
0.0
 41
0.9999778173347331
 10
1887.816700249868
 20
-2698.05500966299
 30
0.0
 41
1.0
 10
1887.8552754461
 20
-2697.876612428523
 30
0.0
 41
0.9999602692868953
 10
1887.890664163365
 20
-2697.697555851653
 30
0.0
 41
1.0
 10
1887.897071827518
 20
-2697.665134941893
 30
0.0
 41
1.0
 10
1887.903479491671
 20
-2697.632714032134
 30
0.0
 41
1.0
 10
1887.951683537244
 20
-2697.388815635735
 30
0.0
 41
0.9995617985319964
 10
1887.985370231681
 20
-2697.14249214032
 30
0.0
 41
1.0
 10
1887.990299211493
 20
-2697.106450505595
 30
0.0
 41
1.0
 10
1887.995228191304
 20
-2697.070408870869
 30
0.0
 41
1.0
 10
1888.035794713401
 20
-2696.773778771465
 30
0.0
 41
0.9991121410639693
 10
1888.051245420578
 20
-2696.474786573849
 30
0.0
 41
1.0
 10
1888.053083000627
 20
-2696.439226900695
 30
0.0
 41
1.0
 10
1888.054920580677
 20
-2696.403667227541
 30
0.0
 41
1.0
 10
1888.066696127755
 20
-2696.175794376233
 30
0.0
 41
0.9989792494904508
 10
1888.05785794352
 20
-2695.94778870444
 30
0.0
 41
1.0
 10
1888.056561999783
 20
-2695.914356212586
 30
0.0
 41
1.0
 10
1888.055266056045
 20
-2695.880923720733
 30
0.0
 41
1.0
 10
1888.049019759285
 20
-2695.71978303265
 30
0.0
 41
0.9997820295394546
 10
1888.036051764534
 20
-2695.559043589155
 30
0.0
 41
1.0
 10
1888.023083769782
 20
-2695.398304145665
 30
0.0
 41
0.9998335105971562
 10
1888.004259378758
 20
-2695.238144912762
 30
0.0
 41
1.0
 10
1888.001069529406
 20
-2695.211005451799
 30
0.0
 41
1.0
 10
1887.997879680054
 20
-2695.183865990835
 30
0.0
 41
1.0
 10
1887.972675590325
 20
-2694.969427836005
 30
0.0
 41
0.9996876457879326
 10
1887.936787764729
 20
-2694.756516980576
 30
0.0
 41
1.0
 10
1887.932324438438
 20
-2694.730037510091
 30
0.0
 41
1.0
 10
1887.927861112148
 20
-2694.703558039606
 30
0.0
 41
1.0
 10
1887.900269469305
 20
-2694.539865751688
 30
0.0
 41
0.9995547496495519
 10
1887.86296282552
 20
-2694.378110757305
 30
0.0
 41
1.0
 10
1887.862214911778
 20
-2694.374867935896
 30
0.0
 41
1.0
 10
1887.861466998036
 20
-2694.371625114487
 30
0.0
 41
1.0
 10
1887.825656181735
 20
-2694.216355762924
 30
0.0
 41
0.9994899427175379
 10
1887.780006364376
 20
-2694.063689197254
 30
0.0
 41
1.0
 10
1887.779089310894
 20
-2694.060622297674
 30
0.0
 41
1.0
 10
1887.778172257411
 20
-2694.057555398095
 30
0.0
 41
1.0
 10
1887.734356547017
 20
-2693.911022631583
 30
0.0
 41
0.999378487759023
 10
1887.680325276804
 20
-2693.767941221266
 30
0.0
 41
1.0
 10
1887.67926189485
 20
-2693.765125255825
 30
0.0
 41
1.0
 10
1887.678198512896
 20
-2693.762309290384
 30
0.0
 41
1.0
 10
1887.626294006591
 20
-2693.624859810947
 30
0.0
 41
0.9992430832254525
 10
1887.563860936272
 20
-2693.491861506812
 30
0.0
 41
1.0
 10
1887.562696704159
 20
-2693.489381396578
 30
0.0
 41
1.0
 10
1887.561532472047
 20
-2693.486901286344
 30
0.0
 41
1.0
 10
1887.501427865954
 20
-2693.358863202676
 30
0.0
 41
0.9990789632799295
 10
1887.4305666124
 20
-2693.236449979176
 30
0.0
 41
1.0
 10
1887.429375200035
 20
-2693.234391807457
 30
0.0
 41
1.0
 10
1887.428183787671
 20
-2693.232333635737
 30
0.0
 41
1.0
 10
1887.359705358845
 20
-2693.114036755673
 30
0.0
 41
0.9988874801120632
 10
1887.280386806783
 20
-2693.002717330841
 30
0.0
 41
1.0
 10
1887.279275754655
 20
-2693.001158027493
 30
0.0
 41
1.0
 10
1887.278164702528
 20
-2692.999598724145
 30
0.0
 41
1.0
 10
1887.201068254721
 20
-2692.891397906008
 30
0.0
 41
0.998676206069311
 10
1887.113263312166
 20
-2692.791690477127
 30
0.0
 41
1.0
 10
1887.112375391503
 20
-2692.790682193495
 30
0.0
 41
1.0
 10
1887.111487470839
 20
-2692.789673909863
 30
0.0
 41
1.0
 10
1887.025458369615
 20
-2692.69198304825
 30
0.0
 41
0.9984621642488807
 10
1886.929143256058
 20
-2692.604416447306
 30
0.0
 41
1.0
 10
1886.928649987025
 20
-2692.60396798298
 30
0.0
 41
1.0
 10
1886.928156717993
 20
-2692.603519518653
 30
0.0
 41
1.0
 10
1886.832828142502
 20
-2692.516849846364
 30
0.0
 41
0.998272469385192
 10
1886.72799087882
 20
-2692.441961145329
 30
0.0
 41
1.0
 10
1886.623153615138
 20
-2692.367072444294
 30
0.0
 41
0.9981399180158652
 10
1886.50998148835
 20
-2692.305499405407
 30
0.0
 41
1.0
 10
1886.509890164193
 20
-2692.305449719092
 30
0.0
 41
1.0
 10
1886.509798840036
 20
-2692.305400032778
 30
0.0
 41
1.0
 10
1886.396444064936
 20
-2692.243727621262
 30
0.0
 41
0.9980927086837029
 10
1886.276353362803
 20
-2692.196494003557
 30
0.0
 41
1.0
 10
1886.27547302338
 20
-2692.196147751807
 30
0.0
 41
1.0
 10
1886.274592683956
 20
-2692.195801500057
 30
0.0
 41
1.0
 10
1886.152741302975
 20
-2692.147875378852
 30
0.0
 41
0.9981411356560805
 10
1886.025964260175
 20
-2692.11513009584
 30
0.0
 41
1.0
 10
1886.024200026773
 20
-2692.11467441143
 30
0.0
 41
1.0
 10
1886.022435793372
 20
-2692.114218727019
 30
0.0
 41
1.0
 10
1885.892130283766
 20
-2692.080562075186
 30
0.0
 41
0.9983031812935216
 10
1885.758795425775
 20
-2692.062283352833
 30
0.0
 41
1.0
 10
1885.741053374972
 20
-2692.059851115491
 30
0.0
 41
1.0
 10
1885.723311324169
 20
-2692.057418878149
 30
0.0
 41
1.0
 10
1885.614612039157
 20
-2692.042517418167
 30
0.0
 41
0.9983887708263813
 10
1885.504924340569
 20
-2692.0400280709
 30
0.0
 41
1.0
 10
1885.488797530141
 20
-2692.03966207515
 30
0.0
 41
1.0
 10
1885.472670719714
 20
-2692.039296079401
 30
0.0
 41
1.0
 10
1885.39523664199
 20
-2692.037538723633
 30
0.0
 41
0.9998869563079831
 10
1885.317784735578
 20
-2692.038110462353
 30
0.0
 41
1.0
 10
1885.240332829085
 20
-2692.038682201072
 30
0.0
 41
0.9999972320085627
 10
1885.162884470573
 20
-2692.039618400132
 30
0.0
 41
1.0
 10
1885.124178437502
 20
-2692.04008628031
 30
0.0
 41
1.0
 10
1885.085472404431
 20
-2692.040554160488
 30
0.0
 41
1.0
 10
1884.930611979687
 20
-2692.042426119903
 30
0.0
 41
0.9997304945087844
 10
1884.77600536721
 20
-2692.051484307475
 30
0.0
 41
1.0
 10
1884.757906083803
 20
-2692.052544719455
 30
0.0
 41
1.0
 10
1884.739806800397
 20
-2692.053605131435
 30
0.0
 41
1.0
 10
1884.549001621103
 20
-2692.064784142967
 30
0.0
 41
0.9997888306415331
 10
1884.358816949416
 20
-2692.083794071946
 30
0.0
 41
1.0
 10
1884.341374826272
 20
-2692.08553750121
 30
0.0
 41
1.0
 10
1884.323932703129
 20
-2692.087280930474
 30
0.0
 41
1.0
 10
1884.098863785151
 20
-2692.10977771798
 30
0.0
 41
0.998417023819027
 10
1883.877745490447
 20
-2692.157409881852
 30
0.0
 41
1.0
 10
1883.804983228475
 20
-2692.173083953464
 30
0.0
 41
1.0
 10
1883.732220966503
 20
-2692.188758025076
 30
0.0
 41
1.0
 10
1883.501838829661
 20
-2692.238385758095
 30
0.0
 41
0.9976592854198687
 10
1883.280382496851
 20
-2692.31898311239
 30
0.0
 41
1.0
 10
1883.058926164039
 20
-2692.399580466685
 30
0.0
 41
0.9993255074351625
 10
1882.843982566454
 20
-2692.496214263671
 30
0.0
 41
1.0
 10
1882.83473220861
 20
-2692.50037301607
 30
0.0
 41
1.0
 10
1882.825481850766
 20
-2692.504531768468
 30
0.0
 41
1.0
 10
1882.592037537491
 20
-2692.609483070252
 30
0.0
 41
0.9976475078274926
 10
1882.375142848869
 20
-2692.745379049569
 30
0.0
 41
1.0
 10
1882.338458060603
 20
-2692.768364007196
 30
0.0
 41
1.0
 10
1882.301773272336
 20
-2692.791348964823
 30
0.0
 41
1.0
 10
1882.133368889231
 20
-2692.896863206361
 30
0.0
 41
0.9995131336406915
 10
1881.971873459312
 20
-2693.01267563027
 30
0.0
 41
1.0
 10
1881.810378029398
 20
-2693.128488054175
 30
0.0
 41
0.9995810107606254
 10
1881.655854733942
 20
-2693.253451419107
 30
0.0
 41
1.0
 10
1881.64991467152
 20
-2693.258255162036
 30
0.0
 41
1.0
 10
1881.6439746091
 20
-2693.263058904966
 30
0.0
 41
1.0
 10
1881.477571188803
 20
-2693.397629755756
 30
0.0
 41
0.9996617837954557
 10
1881.318389814532
 20
-2693.540670666875
 30
0.0
 41
1.0
 10
1881.294128312777
 20
-2693.562472132858
 30
0.0
 41
1.0
 10
1881.269866811021
 20
-2693.58427359884
 30
0.0
 41
1.0
 10
1881.133315756229
 20
-2693.706978829784
 30
0.0
 41
0.9997267750052974
 10
1881.002648739661
 20
-2693.835931902836
 30
0.0
 41
1.0
 10
1880.871981723093
 20
-2693.964884975887
 30
0.0
 41
0.9999667288965898
 10
1880.743435836798
 20
-2694.095952589677
 30
0.0
 41
1.0
 10
1880.605780941249
 20
-2694.236307907193
 30
0.0
 41
1.0
 10
1880.4681260457
 20
-2694.376663224708
 30
0.0
 41
1.0
 10
1880.064270368309
 20
-2694.788441473526
 30
0.0
 41
0.998820533517514
 10
1879.702259134353
 20
-2695.237449937644
 30
0.0
 41
1.0
 10
1879.64097920454
 20
-2695.313456438507
 30
0.0
 41
1.0
 10
1879.579699274728
 20
-2695.389462939371
 30
0.0
 41
1.0
 10
1879.095128181146
 20
-2695.990484405217
 30
0.0
 41
0.9997077826754861
 10
1878.640172278934
 20
-2696.614223993653
 30
0.0
 41
1.0
 10
1878.636725448676
 20
-2696.618949560408
 30
0.0
 41
1.0
 10
1878.633278618418
 20
-2696.623675127163
 30
0.0
 41
1.0
 10
1878.171429055689
 20
-2697.256865849109
 30
0.0
 41
0.9989147567078999
 10
1877.770502049922
 20
-2697.930284771478
 30
0.0
 41
1.0
 10
1877.721019759304
 20
-2698.01339793259
 30
0.0
 41
1.0
 10
1877.671537468686
 20
-2698.096511093702
 30
0.0
 41
1.0
 10
1877.361114871415
 20
-2698.6179138626
 30
0.0
 41
0.9997476598181253
 10
1877.074424896397
 20
-2699.152733359763
 30
0.0
 41
1.0
 10
1876.787734921376
 20
-2699.687552856931
 30
0.0
 41
0.9996258967109511
 10
1876.530718417515
 20
-2700.237248730175
 30
0.0
 41
1.0
 10
1876.504318598615
 20
-2700.293711530367
 30
0.0
 41
1.0
 10
1876.477918779716
 20
-2700.350174330559
 30
0.0
 41
1.0
 10
1876.197501337719
 20
-2700.949919126458
 30
0.0
 41
0.9998735413945121
 10
1875.936298644275
 20
-2701.558278325401
 30
0.0
 41
1.0
 10
1875.929412988152
 20
-2701.574315496335
 30
0.0
 41
1.0
 10
1875.922527332029
 20
-2701.590352667268
 30
0.0
 41
1.0
 10
1875.675095950837
 20
-2702.166637524329
 30
0.0
 41
0.9999377418864015
 10
1875.440586346484
 20
-2702.748300459686
 30
0.0
 41
1.0
 10
1875.206076742131
 20
-2703.329963395046
 30
0.0
 41
0.9999508299509609
 10
1874.983148855376
 20
-2703.916162748691
 30
0.0
 41
1.0
 10
1874.976987318053
 20
-2703.932364800614
 30
0.0
 41
1.0
 10
1874.97082578073
 20
-2703.948566852537
 30
0.0
 41
1.0
 10
1874.735574819329
 20
-2704.567170310024
 30
0.0
 41
0.9999609228431653
 10
1874.511297613591
 20
-2705.189836342028
 30
0.0
 41
1.0
 10
1874.505385592885
 20
-2705.206250022866
 30
0.0
 41
1.0
 10
1874.499473572178
 20
-2705.222663703704
 30
0.0
 41
1.0
 10
1874.263372325026
 20
-2705.878157097391
 30
0.0
 41
0.9999674607402643
 10
1874.03787727289
 20
-2706.53737433738
 30
0.0
 41
1.0
 10
1873.935080491769
 20
-2706.83789272875
 30
0.0
 41
1.0
 10
1873.832283710649
 20
-2707.138411120121
 30
0.0
 41
1.0
 10
1873.600262497131
 20
-2707.816707085132
 30
0.0
 41
0.9999287532307414
 10
1873.384499689188
 20
-2708.500348563088
 30
0.0
 41
1.0
 10
1873.29154517695
 20
-2708.794873651702
 30
0.0
 41
1.0
 10
1873.198590664712
 20
-2709.089398740316
 30
0.0
 41
1.0
 10
1873.168736881332
 20
-2709.183990040769
 30
0.0
 41
0.9999998223906256
 10
1873.138995863786
 20
-2709.278616857521
 30
0.0
 41
1.0
 10
1869.897683590195
 20
-2719.5746738611
 30
0.0
 41
1.0
 10
1866.656371316604
 20
-2729.870730864679
 30
0.0
 41
1.0
 10
1864.845754428822
 20
-2729.870730864679
 30
0.0
 41
1.0
 10
1863.035137541041
 20
-2729.870730864679
 30
0.0
 41
1.0
 10
1866.739306363813
 20
-2718.096587019744
 30
0.0
 41
1.0
 10
1870.443475186585
 20
-2706.322443174809
 30
0.0
 41
1.0
 10
1870.46371870319
 20
-2706.25835674791
 30
0.0
 41
1.0
 10
1870.60893404089
 20
-2705.797757664258
 30
0.0
 41
1.0
 10
1870.754149378593
 20
-2705.337158580593
 30
0.0
 41
0.9999825681973988
 10
1870.893915457021
 20
-2704.874876790449
 30
0.0
 41
1.0
 10
1870.990497581337
 20
-2704.555427623473
 30
0.0
 41
1.0
 10
1871.087079705653
 20
-2704.235978456499
 30
0.0
 41
1.0
 10
1871.281384412282
 20
-2703.593308012964
 30
0.0
 41
0.9999672528966247
 10
1871.465262023534
 20
-2702.947576921776
 30
0.0
 41
1.0
 10
1871.470839790858
 20
-2702.927989231049
 30
0.0
 41
1.0
 10
1871.476417558183
 20
-2702.908401540321
 30
0.0
 41
1.0
 10
1871.649139634773
 20
-2702.30184583063
 30
0.0
 41
0.9999899749146598
 10
1871.81642285385
 20
-2701.693767653699
 30
0.0
 41
1.0
 10
1871.836634691885
 20
-2701.620297178342
 30
0.0
 41
1.0
 10
1871.85684652992
 20
-2701.546826702986
 30
0.0
 41
1.0
 10
1871.983706072918
 20
-2701.085689476799
 30
0.0
 41
0.999921420050221
 10
1872.098964929675
 20
-2700.621516792376
 30
0.0
 41
1.0
 10
1872.124496634041
 20
-2700.518695021563
 30
0.0
 41
1.0
 10
1872.150028338407
 20
-2700.41587325075
 30
0.0
 41
1.0
 10
1872.21422378643
 20
-2700.157344107958
 30
0.0
 41
0.9999828681675399
 10
1872.275388290421
 20
-2699.898081159022
 30
0.0
 41
1.0
 10
1872.336552794407
 20
-2699.638818210108
 30
0.0
 41
0.9999389844483548
 10
1872.391974771981
 20
-2699.378267298329
 30
0.0
 41
1.0
 10
1872.406250259426
 20
-2699.311155090633
 30
0.0
 41
1.0
 10
1872.420525746871
 20
-2699.244042882937
 30
0.0
 41
1.0
 10
1872.504498699334
 20
-2698.849267555771
 30
0.0
 41
0.9998933699441034
 10
1872.576907228138
 20
-2698.452208340253
 30
0.0
 41
1.0
 10
1872.579652878569
 20
-2698.437152298869
 30
0.0
 41
1.0
 10
1872.582398529
 20
-2698.422096257484
 30
0.0
 41
1.0
 10
1872.66029835867
 20
-2697.994924959181
 30
0.0
 41
0.9996850305193759
 10
1872.716665711187
 20
-2697.564382948308
 30
0.0
 41
1.0
 10
1872.720655777926
 20
-2697.533906240067
 30
0.0
 41
1.0
 10
1872.724645844664
 20
-2697.503429531826
 30
0.0
 41
1.0
 10
1872.779461569583
 20
-2697.084739077513
 30
0.0
 41
0.999469793670707
 10
1872.806910688022
 20
-2696.663368686848
 30
0.0
 41
1.0
 10
1872.807864826521
 20
-2696.648721742426
 30
0.0
 41
1.0
 10
1872.808818965021
 20
-2696.634074798005
 30
0.0
 41
1.0
 10
1872.834359806461
 20
-2696.241998296188
 30
0.0
 41
0.999180489313724
 10
1872.828103173916
 20
-2695.84914059624
 30
0.0
 41
1.0
 10
1872.827935416271
 20
-2695.838606993415
 30
0.0
 41
1.0
 10
1872.827767658627
 20
-2695.828073390589
 30
0.0
 41
1.0
 10
1872.82184654137
 20
-2695.456282896293
 30
0.0
 41
0.9988448329321498
 10
1872.780263450123
 20
-2695.086777716626
 30
0.0
 41
1.0
 10
1872.777075302717
 20
-2695.058448005084
 30
0.0
 41
1.0
 10
1872.773887155311
 20
-2695.030118293542
 30
0.0
 41
1.0
 10
1872.738680358875
 20
-2694.717272536961
 30
0.0
 41
0.9985503209458699
 10
1872.670047814276
 20
-2694.410024168781
 30
0.0
 41
1.0
 10
1872.654875830134
 20
-2694.342103513984
 30
0.0
 41
1.0
 10
1872.639703845992
 20
-2694.274182859186
 30
0.0
 41
1.0
 10
1872.601415269678
 20
-2694.102775800608
 30
0.0
 41
0.9991036781371003
 10
1872.548765546374
 20
-2693.935221625953
 30
0.0
 41
1.0
 10
1872.540801095462
 20
-2693.90987530093
 30
0.0
 41
1.0
 10
1872.53283664455
 20
-2693.884528975908
 30
0.0
 41
1.0
 10
1872.496115823071
 20
-2693.767667451301
 30
0.0
 41
0.9998874504368696
 10
1872.455905407715
 20
-2693.651960246856
 30
0.0
 41
1.0
 10
1872.415694992357
 20
-2693.536253042405
 30
0.0
 41
0.9994041637544384
 10
1872.367597766488
 20
-2693.423595634626
 30
0.0
 41
1.0
 10
1872.359204198041
 20
-2693.403935505663
 30
0.0
 41
1.0
 10
1872.350810629593
 20
-2693.384275376701
 30
0.0
 41
1.0
 10
1872.295052967604
 20
-2693.253675044767
 30
0.0
 41
0.9991846840701656
 10
1872.228940254219
 20
-2693.127998982207
 30
0.0
 41
1.0
 10
1872.226667041429
 20
-2693.123677749299
 30
0.0
 41
1.0
 10
1872.224393828639
 20
-2693.119356516391
 30
0.0
 41
1.0
 10
1872.162827540834
 20
-2693.002322919649
 30
0.0
 41
0.9989253167923567
 10
1872.090688692722
 20
-2692.891493062866
 30
0.0
 41
1.0
 10
1872.088580443374
 20
-2692.888254073342
 30
0.0
 41
1.0
 10
1872.086472194026
 20
-2692.885015083818
 30
0.0
 41
1.0
 10
1872.018549844614
 20
-2692.780663206088
 30
0.0
 41
0.9986467172838246
 10
1871.940155539338
 20
-2692.683931138827
 30
0.0
 41
1.0
 10
1871.938407281936
 20
-2692.68177393427
 30
0.0
 41
1.0
 10
1871.936659024535
 20
-2692.679616729714
 30
0.0
 41
1.0
 10
1871.861761234063
 20
-2692.587199071567
 30
0.0
 41
0.998400110426685
 10
1871.776907773029
 20
-2692.50382885683
 30
0.0
 41
1.0
 10
1871.77573349681
 20
-2692.502675107068
 30
0.0
 41
1.0
 10
1871.774559220592
 20
-2692.501521357306
 30
0.0
 41
1.0
 10
1871.692054311996
 20
-2692.420458642094
 30
0.0
 41
0.9982442159082329
 10
1871.600542109323
 20
-2692.349721519572
 30
0.0
 41
1.0
 10
1871.600112518399
 20
-2692.349389454285
 30
0.0
 41
1.0
 10
1871.599682927475
 20
-2692.349057388999
 30
0.0
 41
1.0
 10
1871.509029906652
 20
-2692.278984397052
 30
0.0
 41
0.9982450060837329
 10
1871.410727948508
 20
-2692.220120830984
 30
0.0
 41
1.0
 10
1871.312425990366
 20
-2692.161257264918
 30
0.0
 41
0.9983922639635626
 10
1871.208093378036
 20
-2692.113897995609
 30
0.0
 41
1.0
 10
1871.207639623387
 20
-2692.113692024646
 30
0.0
 41
1.0
 10
1871.207185868737
 20
-2692.113486053684
 30
0.0
 41
1.0
 10
1871.101945747109
 20
-2692.06571484245
 30
0.0
 41
0.9986517147149977
 10
1870.992319801373
 20
-2692.029112604206
 30
0.0
 41
1.0
 10
1870.990963958518
 20
-2692.028659911343
 30
0.0
 41
1.0
 10
1870.989608115663
 20
-2692.02820721848
 30
0.0
 41
1.0
 10
1870.877270484217
 20
-2691.990699594512
 30
0.0
 41
0.9989435598957306
 10
1870.761963709916
 20
-2691.963664190043
 30
0.0
 41
1.0
 10
1870.759803470751
 20
-2691.963157689536
 30
0.0
 41
1.0
 10
1870.757643231585
 20
-2691.96265118903
 30
0.0
 41
1.0
 10
1870.638015978955
 20
-2691.934602783549
 30
0.0
 41
0.9992249241240742
 10
1870.516552961161
 20
-2691.916052098118
 30
0.0
 41
1.0
 10
1870.513725584579
 20
-2691.915620281303
 30
0.0
 41
1.0
 10
1870.510898207997
 20
-2691.915188464487
 30
0.0
 41
1.0
 10
1870.383780437037
 20
-2691.895774145426
 30
0.0
 41
0.9994396597833952
 10
1870.255648563961
 20
-2691.884908300734
 30
0.0
 41
1.0
 10
1870.217367229007
 20
-2691.881661965297
 30
0.0
 41
1.0
 10
1870.179085894053
 20
-2691.87841562986
 30
0.0
 41
1.0
 10
1869.974391351068
 20
-2691.861057114294
 30
0.0
 41
0.9987693403121726
 10
1869.768984103895
 20
-2691.864063241198
 30
0.0
 41
1.0
 10
1869.748475435437
 20
-2691.864363384747
 30
0.0
 41
1.0
 10
1869.727966766979
 20
-2691.864663528295
 30
0.0
 41
1.0
 10
1869.508855234624
 20
-2691.86787021687
 30
0.0
 41
0.9989753644966141
 10
1869.290931234594
 20
-2691.890876230721
 30
0.0
 41
1.0
 10
1869.073007234559
 20
-2691.913882244572
 30
0.0
 41
0.9983190067305373
 10
1868.859209612627
 20
-2691.961952228145
 30
0.0
 41
1.0
 10
1868.841407709416
 20
-2691.965954785271
 30
0.0
 41
1.0
 10
1868.823605806204
 20
-2691.969957342395
 30
0.0
 41
1.0
 10
1868.574204377847
 20
-2692.02603244022
 30
0.0
 41
0.9985539388302972
 10
1868.33226487049
 20
-2692.108559792312
 30
0.0
 41
1.0
 10
1868.32757400857
 20
-2692.110159879943
 30
0.0
 41
1.0
 10
1868.32288314665
 20
-2692.111759967574
 30
0.0
 41
1.0
 10
1868.071561915455
 20
-2692.197487494928
 30
0.0
 41
0.9988468746493737
 10
1867.829621230856
 20
-2692.306923665052
 30
0.0
 41
1.0
 10
1867.823255586877
 20
-2692.309803014173
 30
0.0
 41
1.0
 10
1867.816889942898
 20
-2692.312682363293
 30
0.0
 41
1.0
 10
1867.562217970342
 20
-2692.427877231658
 30
0.0
 41
0.9991322885918755
 10
1867.31801680223
 20
-2692.563867896021
 30
0.0
 41
1.0
 10
1867.28281278014
 20
-2692.583472300002
 30
0.0
 41
1.0
 10
1867.24760875805
 20
-2692.603076703983
 30
0.0
 41
1.0
 10
1867.043255395937
 20
-2692.716876935543
 30
0.0
 41
0.9993860037849144
 10
1866.847373387792
 20
-2692.844708966719
 30
0.0
 41
1.0
 10
1866.836136762086
 20
-2692.85204195611
 30
0.0
 41
1.0
 10
1866.824900136379
 20
-2692.859374945501
 30
0.0
 41
1.0
 10
1866.651491379647
 20
-2692.972540997895
 30
0.0
 41
0.9998821494955138
 10
1866.481638628019
 20
-2693.09097745805
 30
0.0
 41
1.0
 10
1866.311785876385
 20
-2693.20941391821
 30
0.0
 41
0.9997976482744052
 10
1866.146834615568
 20
-2693.334586734301
 30
0.0
 41
1.0
 10
1866.117562085968
 20
-2693.356800113853
 30
0.0
 41
1.0
 10
1866.088289556367
 20
-2693.379013493406
 30
0.0
 41
1.0
 10
1865.864793236351
 20
-2693.5486130686
 30
0.0
 41
0.9998091630800557
 10
1865.648092680307
 20
-2693.726813769993
 30
0.0
 41
1.0
 10
1865.622081175341
 20
-2693.748203970895
 30
0.0
 41
1.0
 10
1865.596069670376
 20
-2693.769594171796
 30
0.0
 41
1.0
 10
1865.327346104412
 20
-2693.990575274982
 30
0.0
 41
0.9995035112317322
 10
1865.07307434889
 20
-2694.228042909007
 30
0.0
 41
1.0
 10
1865.053779728112
 20
-2694.246062401326
 30
0.0
 41
1.0
 10
1865.034485107335
 20
-2694.264081893644
 30
0.0
 41
1.0
 10
1864.787638981805
 20
-2694.494614637156
 30
0.0
 41
0.9994630424299369
 10
1864.556422170237
 20
-2694.740820123626
 30
0.0
 41
1.0
 10
1864.549056492695
 20
-2694.74866328265
 30
0.0
 41
1.0
 10
1864.541690815154
 20
-2694.756506441674
 30
0.0
 41
1.0
 10
1864.325205358671
 20
-2694.987025610094
 30
0.0
 41
0.9995160693749906
 10
1864.123473299605
 20
-2695.230560445842
 30
0.0
 41
1.0
 10
1864.11960585945
 20
-2695.23522929425
 30
0.0
 41
1.0
 10
1864.115738419295
 20
-2695.239898142658
 30
0.0
 41
1.0
 10
1863.921741240546
 20
-2695.47409528158
 30
0.0
 41
0.9996561470514556
 10
1863.740288803209
 20
-2695.718140806485
 30
0.0
 41
1.0
 10
1863.727973471401
 20
-2695.734704384576
 30
0.0
 41
1.0
 10
1863.715658139592
 20
-2695.751267962667
 30
0.0
 41
1.0
 10
1863.558836365869
 20
-2695.962186331395
 30
0.0
 41
0.99983490551725
 10
1863.409781802013
 20
-2696.17866349871
 30
0.0
 41
1.0
 10
1863.260727238141
 20
-2696.395140666048
 30
0.0
 41
0.9999728109573848
 10
1863.114881446332
 20
-2696.613792517142
 30
0.0
 41
1.0
 10
1863.112251015506
 20
-2696.61773605615
 30
0.0
 41
1.0
 10
1863.109620584681
 20
-2696.621679595158
 30
0.0
 41
1.0
 10
1862.958513931233
 20
-2696.848218524251
 30
0.0
 41
0.9999972147395209
 10
1862.808478310502
 20
-2697.075468209895
 30
0.0
 41
1.0
 10
1862.798535225239
 20
-2697.090528386867
 30
0.0
 41
1.0
 10
1862.788592139976
 20
-2697.105588563839
 30
0.0
 41
1.0
 10
1862.618670348751
 20
-2697.362958603381
 30
0.0
 41
0.9999371979007919
 10
1862.454559649947
 20
-2697.624072430928
 30
0.0
 41
1.0
 10
1862.447541881215
 20
-2697.635238287072
 30
0.0
 41
1.0
 10
1862.440524112482
 20
-2697.646404143216
 30
0.0
 41
1.0
 10
1862.262377876224
 20
-2697.929849683036
 30
0.0
 41
0.9998272025611418
 10
1862.094891094463
 20
-2698.219721436515
 30
0.0
 41
1.0
 10
1862.064460750414
 20
-2698.27238766543
 30
0.0
 41
1.0
 10
1862.034030406365
 20
-2698.325053894345
 30
0.0
 41
1.0
 10
1861.805682936504
 20
-2698.720258105658
 30
0.0
 41
0.9995217214838064
 10
1861.602203557392
 20
-2699.128822761383
 30
0.0
 41
1.0
 10
1861.586916432122
 20
-2699.159517660789
 30
0.0
 41
1.0
 10
1861.571629306852
 20
-2699.190212560196
 30
0.0
 41
1.0
 10
1861.397818721673
 20
-2699.539205476356
 30
0.0
 41
0.9998269762607342
 10
1861.23710978913
 20
-2699.894422049802
 30
0.0
 41
1.0
 10
1861.076400856587
 20
-2700.249638623246
 30
0.0
 41
0.9998944747386324
 10
1860.926079267453
 20
-2700.609374074515
 30
0.0
 41
1.0
 10
1860.91617192827
 20
-2700.633083384353
 30
0.0
 41
1.0
 10
1860.906264589086
 20
-2700.656792694191
 30
0.0
 41
1.0
 10
1860.744970467983
 20
-2701.042786574221
 30
0.0
 41
0.999950673441408
 10
1860.591375410178
 20
-2701.431908183928
 30
0.0
 41
1.0
 10
1860.562175479634
 20
-2701.505884027546
 30
0.0
 41
1.0
 10
1860.53297554909
 20
-2701.579859871163
 30
0.0
 41
1.0
 10
1860.437780352364
 20
-2701.821029793658
 30
0.0
 41
0.9999912393922585
 10
1860.344607464326
 20
-2702.062988199032
 30
0.0
 41
1.0
 10
1860.25143457627
 20
-2702.304946604453
 30
0.0
 41
0.9999927113965598
 10
1860.160111987491
 20
-2702.547609419433
 30
0.0
 41
1.0
 10
1860.132175124696
 20
-2702.621843383428
 30
0.0
 41
1.0
 10
1860.104238261902
 20
-2702.696077347423
 30
0.0
 41
1.0
 10
1859.957041947521
 20
-2703.087208090426
 30
0.0
 41
0.9999487550947976
 10
1859.817794697577
 20
-2703.481238820792
 30
0.0
 41
1.0
 10
1859.77060747771
 20
-2703.614765441361
 30
0.0
 41
1.0
 10
1859.723420257842
 20
-2703.748292061929
 30
0.0
 41
1.0
 10
1859.534048989096
 20
-2704.284159731592
 30
0.0
 41
0.9999808436942207
 10
1859.351325811807
 20
-2704.822330594138
 30
0.0
 41
1.0
 10
1859.168602634525
 20
-2705.360501456666
 30
0.0
 41
0.9999873932890966
 10
1858.991293217089
 20
-2705.900480166691
 30
0.0
 41
1.0
 10
1858.95110850335
 20
-2706.022858832198
 30
0.0
 41
1.0
 10
1858.910923789611
 20
-2706.145237497705
 30
0.0
 41
1.0
 10
1858.653244944699
 20
-2706.929973538737
 30
0.0
 41
0.999979488302439
 10
1858.405639374783
 20
-2707.717945951292
 30
0.0
 41
1.0
 10
1858.383334855907
 20
-2707.78892717177
 30
0.0
 41
1.0
 10
1858.361030337031
 20
-2707.859908392249
 30
0.0
 41
1.0
 10
1858.075914009225
 20
-2708.767253896456
 30
0.0
 41
0.9999982761701056
 10
1857.794169129206
 20
-2709.675651940666
 30
0.0
 41
1.0
 10
1854.617888464061
 20
-2719.773191402673
 30
0.0
 41
1.0
 10
1851.441607798915
 20
-2729.870730864679
 30
0.0
 41
1.0
 10
1849.544106575963
 20
-2729.870730864679
 30
0.0
 41
1.0
 10
1847.64660535301
 20
-2729.870730864679
 30
0.0
 41
1.0
 10
1854.123174325316
 20
-2709.216086464787
 30
0.0
 41
1.0
 10
1860.599743297623
 20
-2688.561442064894
 30
0.0
 41
1.0
  0
LWPOLYLINE
  5
60
330
23
100
AcDbEntity
  8
0
  6
Continuous
 62
     7
370
    15
390
1D
100
AcDbPolyline
 90
      232
 70
   128
 43
0.0
 10
1809.192651749968
 20
-2690.730127727925
 42
0.0004370800691959
 10
1809.086897401825
 20
-2690.867461006437
 10
1809.00832893957
 20
-2690.969675232231
 42
0.003048199217171
 10
1808.747651505367
 20
-2691.313118616871
 10
1808.67062816183
 20
-2691.415892184495
 42
0.0042058245764033
 10
1808.262658060464
 20
-2691.969903674679
 10
1808.157847815489
 20
-2692.114769368204
 42
0.0120948898744094
 10
1807.565759981964
 20
-2692.976268577305
 10
1807.373374983723
 20
-2693.271230047751
 42
0.0141601263947062
 10
1806.766086889879
 20
-2694.262568721223
 10
1806.687012355015
 20
-2694.400256656105
 42
0.007113108130372
 10
1806.27646770855
 20
-2695.139262253762
 42
0.0068458791003417
 10
1805.886708654861
 20
-2695.889445380719
 10
1805.873084929948
 20
-2695.916568808162
 42
0.0064120880289223
 10
1805.476800429869
 20
-2696.73141775798
 10
1805.461731058826
 20
-2696.763441471442
 42
0.0058857236448259
 10
1805.056220275083
 20
-2697.652193693511
 10
1805.039870422494
 20
-2697.68917400078
 42
0.0053189741896757
 10
1804.622461797163
 20
-2698.661100948607
 10
1804.604966185796
 20
-2698.703064705008
 42
0.0047503650417849
 10
1804.173018733496
 20
-2699.767463571424
 10
1804.154482236799
 20
-2699.814416323643
 42
0.0042071762169229
 10
1803.705387469343
 20
-2700.980603511783
 10
1803.685888664646
 20
-2701.032535861522
 42
0.003668008648511
 10
1803.216979378022
 20
-2702.309806630586
 10
1803.196563818326
 20
-2702.366703699274
 42
0.0032573142627999
 10
1802.705299246386
 20
-2703.764409018801
 10
1802.567998204706
 20
-2704.163335186904
 42
0.0026133366650121
 10
1801.871107807196
 20
-2706.22306175423
 10
1801.744594232194
 20
-2706.603523425016
 42
0.0020592950739362
 10
1801.31686809426
 20
-2707.907730730242
 10
1801.310764511943
 20
-2707.926603707032
 42
0.0025609928533873
 10
1800.907123508962
 20
-2709.196894151793
 10
1800.901940774703
 20
-2709.213498833694
 42
0.0031362356242951
 10
1800.522959203355
 20
-2710.455024546034
 10
1800.518697117501
 20
-2710.469307158454
 42
0.0037229918030943
 10
1800.165096343647
 20
-2711.687277762404
 10
1800.161739165232
 20
-2711.699171542761
 42
0.0043077623707283
 10
1799.834257561104
 20
-2712.898809006291
 42
0.0047654161821928
 10
1799.528600116072
 20
-2714.104181184098
 10
1799.459670898394
 20
-2714.387304738395
 42
0.0112969368443199
 10
1799.067942182108
 20
-2716.170689059636
 10
1799.011929403914
 20
-2716.456345151839
 42
0.0130056762570148
 10
1798.61025491662
 20
-2718.830227295129
 10
1798.569175416326
 20
-2719.118383522086
 42
0.0138721532145176
 10
1798.36176940725
 20
-2720.932042493735
 10
1798.323178431435
 20
-2721.379037937581
 42
0.0071254697010102
 10
1798.25648513959
 20
-2722.305411955279
 10
1798.246563191261
 20
-2722.477419944433
 42
0.0028881799202717
 10
1798.216286604683
 20
-2723.060903364085
 42
0.0060297297132672
 10
1798.196422205132
 20
-2723.644801236299
 10
1798.194297641798
 20
-2723.74158598019
 42
0.0229523164157624
 10
1798.209759697369
 20
-2724.387095672748
 10
1798.21821124441
 20
-2724.507902740779
 42
0.0123673300666928
 10
1798.256368537447
 20
-2724.91014419113
 42
0.0128577674467638
 10
1798.314759318259
 20
-2725.309939890979
 10
1798.329011065033
 20
-2725.392597520177
 42
0.0285717853763926
 10
1798.457999068425
 20
-2725.948829822803
 10
1798.485336115758
 20
-2726.042139361758
 42
0.0316283099153373
 10
1798.716957275586
 20
-2726.68016836541
 10
1798.723054659097
 20
-2726.694141110061
 42
0.0338984824234845
 10
1799.021918081032
 20
-2727.269273038439
 10
1799.026535539772
 20
-2727.276855096993
 42
0.0350228718351254
 10
1799.391256121118
 20
-2727.790959066345
 10
1799.393026624668
 20
-2727.793117221873
 42
0.0347476747530243
 10
1799.821875999149
 20
-2728.247487316313
 42
0.0331337701909162
 10
1800.308362650642
 20
-2728.639744640469
 10
1800.310562847674
 20
-2728.641290046813
 42
0.0305233319079248
 10
1800.84765223882
 20
-2728.971546386995
 10
1800.854112327823
 20
-2728.974994410721
 42
0.0273744481157507
 10
1801.439219750974
 20
-2729.247270698503
 10
1801.449428821247
 20
-2729.251357867441
 42
0.0240964406197849
 10
1802.080382972542
 20
-2729.469325320005
 10
1802.093549630958
 20
-2729.473174799354
 42
0.0209636179812975
 10
1802.768349936266
 20
-2729.640111095219
 10
1802.783614857161
 20
-2729.643214921221
 42
0.0181388704693399
 10
1803.500259641158
 20
-2729.762047107649
 10
1803.516821337914
 20
-2729.764179475283
 42
0.015608654758589
 10
1804.273196066291
 20
-2729.837651848437
 10
1804.359586570958
 20
-2729.843328853395
 42
0.0137148329026534
 10
1805.014932861543
 20
-2729.868369363897
 10
1805.106805241427
 20
-2729.869358230127
 42
0.0051057823887141
 10
1805.57909641458
 20
-2729.869618738946
 42
0.0052256693311805
 10
1806.051290982149
 20
-2729.860121090017
 10
1806.191744549636
 20
-2729.855827157989
 42
0.0161507179048061
 10
1806.943218705838
 20
-2729.808526417336
 10
1806.983244626585
 20
-2729.804706026761
 42
0.0101216737832719
 10
1807.811299069563
 20
-2729.70872016603
 10
1807.879405648419
 20
-2729.699424772411
 42
0.0245291776397457
 10
1808.832984959518
 20
-2729.521274616259
 10
1809.002631590566
 20
-2729.480882775567
 42
0.014350921255892
 10
1809.715893798449
 20
-2729.289273508009
 42
0.0156557857041937
 10
1810.416325927902
 20
-2729.055251076371
 10
1810.431328356893
 20
-2729.049710752863
 42
0.0170137333631318
 10
1811.144520348257
 20
-2728.75839552312
 10
1811.15872819307
 20
-2728.752019851993
 42
0.0183105364409703
 10
1811.877427529406
 20
-2728.397349768343
 10
1811.89132105868
 20
-2728.389848898601
 42
0.0194899958149863
 10
1812.608282540649
 20
-2727.965890934819
 10
1812.622310299322
 20
-2727.956840250229
 42
0.020486985295207
 10
1813.33033890352
 20
-2727.45780022005
 10
1813.344870120684
 20
-2727.446640089361
 42
0.0212516938555694
 10
1814.0368499829
 20
-2726.866832095571
 10
1814.129883371048
 20
-2726.781897475387
 42
0.0215248918250838
 10
1814.649935708826
 20
-2726.264368917395
 10
1814.739995177578
 20
-2726.166680674705
 42
0.0114578554953019
 10
1815.049579484942
 20
-2725.815034807779
 10
1815.071968556882
 20
-2725.788397280728
 42
0.0061531305117666
 10
1815.324917848904
 20
-2725.479818214077
 42
0.0006325587120629
 10
1815.573674817167
 20
-2725.167811462777
 10
1815.619755087311
 20
-2725.109864421406
 42
0.0041897761554223
 10
1815.956665895241
 20
-2724.678825669302
 10
1816.073590135041
 20
-2724.526622975312
 42
0.0092993880039111
 10
1816.626813989495
 20
-2723.778065447534
 10
1816.791602975881
 20
-2723.546191440414
 42
0.0159321727087909
 10
1817.484815941171
 20
-2722.501842998895
 10
1817.573528211942
 20
-2722.358483870405
 42
0.0085547317020393
 10
1818.0425517426
 20
-2721.570733971946
 42
0.0084601156889796
 10
1818.484504097485
 20
-2720.767480273881
 10
1818.500735045145
 20
-2720.736760909335
 42
0.0081429654285291
 10
1818.947233586023
 20
-2719.857317884248
 10
1818.964953914388
 20
-2719.820960200215
 42
0.0076574581328677
 10
1819.417768935522
 20
-2718.854594449708
 10
1819.436728216969
 20
-2718.812465493103
 42
0.0070682724199216
 10
1819.89761803258
 20
-2717.748390883547
 10
1819.917598600546
 20
-2717.700412505517
 42
0.0064559514449726
 10
1820.388265016913
 20
-2716.527787972468
 10
1820.409083733239
 20
-2716.473918121595
 42
0.0058311413906422
 10
1820.89117720676
 20
-2715.181853932842
 10
1820.91268736154
 20
-2715.122085250507
 42
0.0052312425819601
 10
1821.407849917627
 20
-2713.699680422821
 10
1821.429937590381
 20
-2713.634026998698
 42
0.0046680544797109
 10
1821.939794445844
 20
-2712.070374367206
 10
1822.023778745927
 20
-2711.804407892638
 42
0.004166685644559
 10
1822.430350770727
 20
-2710.478470342593
 10
1822.505675652053
 20
-2710.22530812729
 42
0.0015170975158235
 10
1822.748048808881
 20
-2709.401571424298
 42
-0.0004887993109788
 10
1822.98872835521
 20
-2708.577334599931
 10
1823.141682870117
 20
-2708.055419828332
 42
0.0002583378927851
 10
1823.688112010258
 20
-2706.187306421934
 10
1823.851657709349
 20
-2705.627107902981
 42
0.0006636169672048
 10
1824.239393229422
 20
-2704.292402055634
 10
1824.249586538143
 20
-2704.25713888978
 42
0.001058913132359
 10
1824.612483939949
 20
-2702.991676203776
 10
1824.622448080896
 20
-2702.956650389784
 42
0.0015655524461306
 10
1824.958988495276
 20
-2701.759417031334
 10
1824.968648896112
 20
-2701.724632713438
 42
0.0021640440476036
 10
1825.277228840077
 20
-2700.594578677426
 10
1825.286497278944
 20
-2700.560049217413
 42
0.0028763871852557
 10
1825.565528715043
 20
-2699.496113315744
 10
1825.574300443377
 20
-2699.46186535944
 42
0.0037310511946031
 10
1825.822213827052
 20
-2698.462970171387
 10
1825.830364267626
 20
-2698.429049628913
 42
0.0047652197767401
 10
1826.045612068647
 20
-2697.494094092287
 10
1826.052993267296
 20
-2697.460574981974
 42
0.0060276699306858
 10
1826.2340534656
 20
-2696.588423391698
 10
1826.240490846174
 20
-2696.555420963106
 42
0.0075824337756349
 10
1826.38586946501
 20
-2695.744886634227
 10
1826.391160219769
 20
-2695.712576739336
 42
0.009513062460807
 10
1826.499390691033
 20
-2694.962398033183
 10
1826.513363138798
 20
-2694.850530916949
 42
0.0121054653234112
 10
1826.566545799954
 20
-2694.320739260002
 10
1826.568278779475
 20
-2694.297932374115
 42
0.006905082739061
 10
1826.598456415548
 20
-2693.812049920455
 10
1826.600727014885
 20
-2693.764997406373
 42
0.0169063976692705
 10
1826.606381572846
 20
-2693.372611951764
 10
1826.604040269784
 20
-2693.251940429077
 42
0.0052007732893967
 10
1826.599533372597
 20
-2693.100753648762
 42
0.0054038123292089
 10
1826.559606348922
 20
-2692.860717056757
 10
1826.549434637179
 20
-2692.80340008358
 42
0.0112050460458512
 10
1826.478665913061
 20
-2692.450747206899
 10
1826.44301598898
 20
-2692.29166403346
 42
0.024076446800975
 10
1826.261221256688
 20
-2691.631189962458
 10
1826.224103731062
 20
-2691.517949632472
 42
0.0256812331834053
 10
1825.937377890682
 20
-2690.774501219955
 10
1825.926559039039
 20
-2690.750238549975
 42
0.0268360501217043
 10
1825.58770455734
 20
-2690.088252281934
 10
1825.576631742071
 20
-2690.069212941311
 42
0.0274670231731511
 10
1825.192229789243
 20
-2689.484638191475
 10
1825.181467189318
 20
-2689.470079896392
 42
0.0275035967101781
 10
1824.758321430194
 20
-2688.959048115784
 10
1824.748182428261
 20
-2688.948089940523
 42
0.0269557673526001
 10
1824.293375341382
 20
-2688.506805368598
 10
1824.283889225816
 20
-2688.498545459676
 42
0.0259124802208897
 10
1823.804779562955
 20
-2688.123164405372
 10
1823.79571787259
 20
-2688.116793400711
 42
0.0245162153003859
 10
1823.299885166402
 20
-2687.80332738249
 10
1823.290832073752
 20
-2687.798206988088
 42
0.0229282588838199
 10
1822.785992960098
 20
-2687.542470603091
 10
1822.776431972424
 20
-2687.538166003566
 42
0.0212984135693725
 10
1822.270356067501
 20
-2687.335768169082
 10
1822.259747497564
 20
-2687.332041043563
 42
0.0197555462341033
 10
1821.760190822116
 20
-2687.178410207633
 42
0.0183511896788373
 10
1821.25033337119
 20
-2687.063244393702
 10
1821.077602977745
 20
-2687.030838812932
 42
0.0338057877150354
 10
1820.506588279223
 20
-2686.963222002651
 10
1820.324577469151
 20
-2686.954062692129
 42
0.0091990524488401
 10
1820.112883251872
 20
-2686.947310980284
 42
0.0028333980777237
 10
1819.901055419888
 20
-2686.945654765251
 10
1819.899224513787
 20
-2686.945650825603
 42
-0.0023619827812149
 10
1819.683732483583
 20
-2686.944169143446
 10
1819.610922143223
 20
-2686.94332453052
 42
0.0008824598485377
 10
1819.249810163389
 20
-2686.939772974042
 10
1819.162087298712
 20
-2686.939065050992
 42
0.0038132665768056
 10
1818.625521506983
 20
-2686.938827178858
 10
1818.592454197367
 20
-2686.939064711146
 42
0.0060665569335579
 10
1817.989893214195
 20
-2686.950705309987
 10
1817.961392550134
 20
-2686.951601925923
 42
0.0080356953336903
 10
1817.302475117448
 20
-2686.982937370057
 10
1817.278335087281
 20
-2686.984474535937
 42
0.0098996399105945
 10
1816.572808917975
 20
-2687.043444994334
 10
1816.55271749923
 20
-2687.04552558673
 42
0.0117740981366489
 10
1815.810403782535
 20
-2687.140110081789
 10
1815.793958389567
 20
-2687.142600314931
 42
0.0137435215135065
 10
1815.024780750596
 20
-2687.280794262055
 10
1815.01146667235
 20
-2687.283566054522
 42
0.015835986938262
 10
1814.225472484747
 20
-2687.473350231483
 10
1814.214646111011
 20
-2687.476330113224
 42
0.018055412402713
 10
1813.422016021787
 20
-2687.725606145701
 10
1813.412902445619
 20
-2687.728838218234
 42
0.0203657431282945
 10
1812.623947409998
 20
-2688.045358901265
 10
1812.615660331982
 20
-2688.04908214415
 42
0.022681968465513
 10
1811.840788219576
 20
-2688.440367301491
 10
1811.832388637539
 20
-2688.445098485331
 42
0.0248634984606092
 10
1811.082024755178
 20
-2688.918351777225
 10
1810.985634897607
 20
-2688.986065860878
 42
0.0267044190885524
 10
1810.437049503775
 20
-2689.416946612613
 42
0.0139303002197481
 10
1809.924715171901
 20
-2689.891424294434
 10
1809.915008400456
 20
-2689.900929620158
 42
0.0283460963442526
 10
1809.426863211999
 20
-2690.43639094105
 10
1809.347526201688
 20
-2690.533994095994
 42
0.0070695364826285
 10
1809.192651749968
 20
-2690.730127727925
 42
0.0070695364826285
  0
LWPOLYLINE
  5
61
330
23
100
AcDbEntity
  8
0
  6
Continuous
 62
     7
370
    15
390
1D
100
AcDbPolyline
 90
      226
 70
   128
 43
0.0
 10
1802.135010875476
 20
-2722.173305340293
 42
-0.0026277636607717
 10
1802.134855107876
 20
-2722.039761488712
 10
1802.13528982434
 20
-2721.93345105392
 42
-0.0088680296731272
 10
1802.142843056926
 20
-2721.587419489121
 10
1802.147535775151
 20
-2721.468859438207
 42
-0.0077381705614697
 10
1802.179627996676
 20
-2720.886338446625
 10
1802.181363819023
 20
-2720.86176197924
 42
-0.0068872530537054
 10
1802.234627978516
 20
-2720.231318475136
 10
1802.237036426892
 20
-2720.206836517065
 42
-0.0062130021486449
 10
1802.312223860545
 20
-2719.529097134604
 10
1802.315231667617
 20
-2719.504749390755
 42
-0.005672692966261
 10
1802.413075386624
 20
-2718.780358946512
 10
1802.416622277911
 20
-2718.756171346037
 42
-0.0052341884491334
 10
1802.537843450429
 20
-2717.985784835014
 10
1802.541879427984
 20
-2717.961774975017
 42
-0.0049768450170808
 10
1802.687356790836
 20
-2717.146085840158
 10
1802.73585482028
 20
-2716.88898987414
 42
-0.0089029805624026
 10
1803.010016523871
 20
-2715.565438979288
 10
1803.075507274507
 20
-2715.275376118248
 42
-0.0080318257100698
 10
1803.534604503191
 20
-2713.383956854529
 10
1803.558574356085
 20
-2713.29169558416
 42
-0.0074265721319319
 10
1804.126597433784
 20
-2711.231566427402
 10
1804.166356520012
 20
-2711.095298306241
 42
-0.00697119227034
 10
1804.820965677031
 20
-2708.962762825565
 10
1804.940869571243
 20
-2708.590720108821
 42
-0.005207042289633
 10
1805.399720021761
 20
-2707.216175954761
 10
1805.434282406113
 20
-2707.116121393506
 42
-0.0009167004448166
 10
1805.840466180684
 20
-2705.947209697219
 42
-0.0025162726947047
 10
1806.254661441192
 20
-2704.781127168941
 10
1806.32911066482
 20
-2704.574828077083
 42
-0.0028212681457016
 10
1806.825462502747
 20
-2703.22336681274
 10
1806.84512402826
 20
-2703.170751923354
 42
-0.00319649168192
 10
1807.317708543573
 20
-2701.930342399133
 10
1807.336977451573
 20
-2701.880722418839
 42
-0.0036281836450875
 10
1807.787189373773
 20
-2700.74584105706
 10
1807.806066194091
 20
-2700.699246194046
 42
-0.0041269166833236
 10
1808.235301587406
 20
-2699.664364402098
 10
1808.300567500246
 20
-2699.510607509379
 42
-0.004747221305617
 10
1808.614657111355
 20
-2698.789764573609
 10
1808.628445273775
 20
-2698.758923378936
 42
-0.0025651659996072
 10
1808.925161341472
 20
-2698.104267267448
 42
-0.0057144634997853
 10
1809.232660729013
 20
-2697.454647920726
 10
1809.28872213981
 20
-2697.339631155949
 42
-0.0065388068375537
 10
1809.655656195296
 20
-2696.611166162605
 10
1809.67257310685
 20
-2696.578647003872
 42
-0.0074510843021667
 10
1810.024937598609
 20
-2695.92527044162
 10
1810.041296939676
 20
-2695.895988887075
 42
-0.0084648979862929
 10
1810.380564645871
 20
-2695.31217086516
 10
1810.396276898835
 20
-2695.28615688188
 42
-0.0095638542813491
 10
1810.723947794036
 20
-2694.766379137901
 10
1810.738897681383
 20
-2694.743640414985
 42
-0.0107191626802504
 10
1811.056500842154
 20
-2694.282417945902
 10
1811.070534309615
 20
-2694.262945761175
 42
-0.0118458573901384
 10
1811.379630506642
 20
-2693.854801370552
 42
-0.0129184518193446
 10
1811.708535753844
 20
-2693.462480338213
 10
1811.768825298575
 20
-2693.394228180407
 42
-0.02177425796298
 10
1812.122049943242
 20
-2693.027814639911
 10
1812.143541032151
 20
-2693.007380973516
 42
-0.0097266568651055
 10
1812.475656269874
 20
-2692.703685824631
 42
-0.0187720905728109
 10
1812.824351421643
 20
-2692.41954811786
 10
1812.885763402996
 20
-2692.373229953064
 42
-0.017942820752072
 10
1813.350604842994
 20
-2692.048125598837
 10
1813.357909496828
 20
-2692.04339772906
 42
-0.0170047877699502
 10
1813.829436771886
 20
-2691.760476700759
 10
1813.837002749384
 20
-2691.756280090683
 42
-0.0160190788367999
 10
1814.31081984465
 20
-2691.51297748671
 42
-0.0151102861496382
 10
1814.798883409542
 20
-2691.299611934601
 10
1814.903656413966
 20
-2691.257531668811
 42
-0.0271945441887192
 10
1815.620981532083
 20
-2691.013802047399
 10
1815.759111133062
 20
-2690.975102964866
 42
-0.0237596594021696
 10
1816.590704827104
 20
-2690.784201540903
 10
1816.726830534565
 20
-2690.75969216465
 42
-0.0213715440554983
 10
1817.298580397456
 20
-2690.68179810163
 10
1817.418874729883
 20
-2690.670618672229
 42
-0.0101465655815797
 10
1817.75385979388
 20
-2690.6463315857
 10
1817.772540566271
 20
-2690.645357755706
 42
-0.0100375910879744
 10
1818.070848767401
 20
-2690.635806119855
 10
1818.091367306754
 20
-2690.635561241827
 42
-0.0103625633384108
 10
1818.348783296072
 20
-2690.63782410888
 10
1818.393314598606
 20
-2690.639138825809
 42
-0.0115689250225358
 10
1818.561416073662
 20
-2690.647997838299
 42
-0.0072438037433455
 10
1818.729092632542
 20
-2690.663176237799
 10
1818.762693651486
 20
-2690.666709323247
 42
-0.0217917313134732
 10
1818.995833178109
 20
-2690.701549108688
 10
1819.127033359249
 20
-2690.727042325519
 42
-0.0332943556753419
 10
1819.535817689303
 20
-2690.835122908132
 10
1819.596162826408
 20
-2690.85545906237
 42
-0.0184824084788148
 10
1819.873172939334
 20
-2690.960361093142
 42
-0.0198002050689465
 10
1820.141321620332
 20
-2691.086129213541
 10
1820.145094895086
 20
-2691.0880847873
 42
-0.0212242342982324
 10
1820.409372779892
 20
-2691.239610264888
 10
1820.413003370977
 20
-2691.241901869304
 42
-0.0226090605805313
 10
1820.670011173421
 20
-2691.420861156433
 10
1820.673700056896
 20
-2691.423685662407
 42
-0.0238457052245872
 10
1820.920064219481
 20
-2691.631677454132
 10
1820.923969676599
 20
-2691.635307209664
 42
-0.0248160564157572
 10
1821.1563726912
 20
-2691.873856412081
 10
1821.160579958005
 20
-2691.878627079491
 42
-0.0254109591459934
 10
1821.375790393737
 20
-2692.14920385142
 10
1821.380286437565
 20
-2692.155486948221
 42
-0.0255528488285827
 10
1821.57517979516
 20
-2692.45954105669
 10
1821.579841994992
 20
-2692.467704279904
 42
-0.0252146793219262
 10
1821.75140404701
 20
-2692.806708771899
 10
1821.756008525325
 20
-2692.817072935724
 42
-0.0244265635947783
 10
1821.901317912848
 20
-2693.192566079818
 10
1821.919810715785
 20
-2693.248296916495
 42
-0.0231319612902914
 10
1822.011656273769
 20
-2693.574899010096
 42
-0.0112130424358419
 10
1822.080928318846
 20
-2693.907306210476
 10
1822.08333336907
 20
-2693.920299384248
 42
-0.0210527881241506
 10
1822.134706319812
 20
-2694.282410675131
 10
1822.141727509455
 20
-2694.353221772225
 42
-0.0190029892425786
 10
1822.172610456545
 20
-2694.860293464763
 10
1822.174230409433
 20
-2694.931244693507
 42
-0.0137974553662444
 10
1822.171132703762
 20
-2695.581307506975
 10
1822.169441793851
 20
-2695.63354499615
 42
-0.0081336634214859
 10
1822.139723123405
 20
-2696.244239931359
 42
-0.0073526923576519
 10
1822.091106056657
 20
-2696.853736419926
 10
1822.088583209091
 20
-2696.880409769261
 42
-0.0066886138694153
 10
1822.017112036999
 20
-2697.541581856247
 10
1822.013797858058
 20
-2697.568825094238
 42
-0.0061359187353877
 10
1821.918096653955
 20
-2698.282353054442
 10
1821.91402165181
 20
-2698.310142660097
 42
-0.005669861006001
 10
1821.792720990274
 20
-2699.076699797785
 10
1821.78791012363
 20
-2699.105018036234
 42
-0.0052721077271153
 10
1821.639645722035
 20
-2699.92527271557
 10
1821.634119424348
 20
-2699.954105986362
 42
-0.0049289272177728
 10
1821.457531188148
 20
-2700.828723008603
 10
1821.451306198782
 20
-2700.858060714238
 42
-0.0047415956711864
 10
1821.244830215718
 20
-2701.78765422906
 10
1821.175293794998
 20
-2702.087268419826
 42
-0.0084404470905287
 10
1820.795260907856
 20
-2703.607716468883
 10
1820.783007531883
 20
-2703.653444717195
 42
-0.0039635940257029
 10
1820.340100163315
 20
-2705.255422445689
 10
1820.313346572956
 20
-2705.349285678873
 42
-0.0072475040837385
 10
1819.778452797237
 20
-2707.127725111632
 10
1819.638028143583
 20
-2707.571205811575
 42
-0.0051345458829194
 10
1819.064509399457
 20
-2709.31985618722
 10
1819.021456865913
 20
-2709.446708721508
 42
-0.0019150016601091
 10
1818.510390052189
 20
-2710.933806961933
 10
1818.497454843403
 20
-2710.970981891755
 42
-0.0021524362752816
 10
1818.000498741269
 20
-2712.379633535192
 10
1817.982077899857
 20
-2712.431140691849
 42
-0.0024331286818218
 10
1817.509567381804
 20
-2713.732339308031
 10
1817.4914714767
 20
-2713.781425920748
 42
-0.0027449721789461
 10
1817.042242335032
 20
-2714.979685678588
 10
1817.024462320266
 20
-2715.026330858245
 42
-0.0031083229770231
 10
1816.597377347028
 20
-2716.126178933452
 10
1816.579905083673
 20
-2716.170358365177
 42
-0.0035311343283131
 10
1816.173822712493
 20
-2717.176324616628
 10
1816.156652034198
 20
-2717.218010063647
 42
-0.0040245640948877
 10
1815.770428426609
 20
-2718.134628708834
 10
1815.753556199396
 20
-2718.173787444993
 42
-0.0046015135849637
 10
1815.386043613075
 20
-2719.005597504262
 10
1815.369471257425
 20
-2719.042191783151
 42
-0.0052768638267054
 10
1815.019516219507
 20
-2719.793737551707
 10
1815.00325179826
 20
-2719.82772422878
 42
-0.0060672675646069
 10
1814.669692572721
 20
-2720.503555475022
 10
1814.653753611764
 20
-2720.534885993005
 42
-0.0069904648875863
 10
1814.335416823756
 20
-2721.139557606343
 10
1814.319834024525
 20
-2721.168178704814
 42
-0.0080637022764263
 10
1814.015530303842
 20
-2721.706249311104
 10
1814.00035223858
 20
-2721.732105042305
 42
-0.0093006455662364
 10
1813.708870885517
 20
-2722.208133839312
 10
1813.694169552033
 20
-2722.231169777652
 42
-0.0107060778059551
 10
1813.414272465152
 20
-2722.649710412416
 10
1813.400148928594
 20
-2722.669881497547
 42
-0.012272311141508
 10
1813.130561492197
 20
-2723.035468156526
 10
1813.129909045075
 20
-2723.036308932163
 42
-0.0141836319627482
 10
1812.842745839141
 20
-2723.385448447804
 10
1812.828850327836
 20
-2723.401398448335
 42
-0.0175957477207174
 10
1812.549037991767
 20
-2723.700640225144
 42
-0.0080466359680596
 10
1812.254110461712
 20
-2723.985285281442
 10
1812.162041372672
 20
-2724.071326157628
 42
-0.0269600260395902
 10
1811.655480880707
 20
-2724.495972674646
 10
1811.522346608105
 20
-2724.5958755039
 42
-0.0178362839751624
 10
1811.042457628801
 20
-2724.929911356399
 10
1811.027967686802
 20
-2724.939248380807
 42
-0.0174650732652146
 10
1810.555295291917
 20
-2725.220970310727
 42
-0.0169240130163348
 10
1810.064362800198
 20
-2725.469554830284
 10
1809.972390489086
 20
-2725.512278741417
 42
-0.03188830368418
 10
1809.27168877785
 20
-2725.784955360436
 10
1809.134957707516
 20
-2725.828356601388
 42
-0.0284435909903825
 10
1808.382857454935
 20
-2726.020791472337
 10
1808.312541133933
 20
-2726.034578663995
 42
-0.0243909341014052
 10
1807.6856542121
 20
-2726.126020726054
 10
1807.585092758566
 20
-2726.135711819857
 42
-0.0196639292931304
 10
1807.153901603503
 20
-2726.160208390885
 10
1807.050253461176
 20
-2726.162014912358
 42
-0.0100501510681121
 10
1806.825406897847
 20
-2726.161414115652
 10
1806.762087175092
 20
-2726.15997197188
 42
-0.0019752031102469
 10
1806.663902501796
 20
-2726.157347651462
 10
1806.65838189536
 20
-2726.15717826781
 42
0.0065378751992157
 10
1806.571228745843
 20
-2726.15564448538
 42
-0.0167974694687329
 10
1806.484167099987
 20
-2726.152324688328
 10
1806.476008421455
 20
-2726.151738666537
 42
-0.0081283276280967
 10
1806.372888825975
 20
-2726.142644679262
 10
1806.349409678221
 20
-2726.140188844105
 42
-0.0126703440183889
 10
1806.199973086635
 20
-2726.120719261962
 10
1806.15439735128
 20
-2726.113602750132
 42
-0.0117852088426585
 10
1805.915319379605
 20
-2726.070476759815
 10
1805.804558476089
 20
-2726.047789679348
 42
-0.025177459229294
 10
1805.350870398076
 20
-2725.930793660483
 10
1805.261432018367
 20
-2725.90286002181
 42
-0.014652519988295
 10
1804.888646043295
 20
-2725.774326967416
 42
-0.0166929435854634
 10
1804.524690731042
 20
-2725.622712701307
 10
1804.515377468495
 20
-2725.618462900078
 42
-0.0191684358438663
 10
1804.145010205998
 20
-2725.431990732499
 10
1804.138345034482
 20
-2725.428308237391
 42
-0.0221181781813434
 10
1803.771724426677
 20
-2725.204041240649
 10
1803.767024818661
 20
-2725.200872644668
 42
-0.0254984685387022
 10
1803.41444451789
 20
-2724.936050344728
 10
1803.369480222487
 20
-2724.898545726856
 42
-0.0292492648806343
 10
1803.119942344801
 20
-2724.66436012757
 42
-0.0159048957495093
 10
1802.892262349901
 20
-2724.408320144373
 10
1802.889624768742
 20
-2724.405156918332
 42
-0.0343813379558462
 10
1802.684350245489
 20
-2724.121414266793
 10
1802.621367182766
 20
-2724.020407482602
 42
-0.0369117275698362
 10
1802.449582178973
 20
-2723.693453000708
 42
-0.0191751379920098
 10
1802.315195407859
 20
-2723.348643788696
 10
1802.31166876034
 20
-2723.338457099346
 42
-0.0378178042228349
 10
1802.212079322771
 20
-2722.960575547183
 10
1802.200088731312
 20
-2722.895454310794
 42
-0.0184846046476622
 10
1802.158654332722
 20
-2722.6119486697
 42
-0.0179866351323981
 10
1802.137988322575
 20
-2722.326167043534
 10
1802.137875437683
 20
-2722.323051670312
 42
-0.0085497186109164
 10
1802.135010875476
 20
-2722.173305340293
 42
-0.0085497186109164
  0
ENDBLK
  5
62
330
23
100
AcDbEntity
  8
template
390
1D
100
AcDbBlockEnd
  0
BLOCK
  5
63
330
24
100
AcDbEntity
  8
template
390
1D
100
AcDbBlockBegin
  2
グループ-1
 70
     0
 10
0.0
 20
0.0
 30
0.0
  3
グループ-1
  1
グループ-1
  0
INSERT
  5
64
330
24
100
AcDbEntity
  8
0
 62
     7
390
1D
100
AcDbBlockReference
  2
グループ
 10
0.0
 20
0.0
 30
0.0
  0
ENDBLK
  5
65
330
24
100
AcDbEntity
  8
template
390
1D
100
AcDbBlockEnd
  0
BLOCK
  5
66
330
25
100
AcDbEntity
  8
FLN72-0503
390
1D
100
AcDbBlockBegin
  2
グループ-2
 70
     0
 10
0.0
 20
0.0
 30
0.0
  3
グループ-2
  1
グループ-2
  0
ARC
  5
67
330
25
100
AcDbEntity
  8
0
  6
Continuous
 62
     7
370
    15
390
1D
100
AcDbCircle
 10
-1148.114170742437
 20
-831.46407460551
 30
0.0
 40
502.4031680000002
100
AcDbArc
 50
318.256836
 51
41.74316399999998
  0
ARC
  5
68
330
25
100
AcDbEntity
  8
0
  6
Continuous
 62
     7
370
    15
390
1D
100
AcDbCircle
 10
-957.4462027424361
 20
-1001.59981660551
 30
0.0
 40
246.8640590000005
100
AcDbArc
 50
180.0
 51
318.2566529999999
  0
ARC
  5
69
330
25
100
AcDbEntity
  8
0
  6
Continuous
 62
     7
370
    15
390
1D
100
AcDbCircle
 10
-957.4462027424361
 20
-661.3283326055101
 30
0.0
 40
246.8640589999998
100
AcDbArc
 50
41.7433170000001
 51
179.9999999999999
  0
LINE
  5
6A
330
25
100
AcDbEntity
  8
0
  6
Continuous
 62
     7
370
    15
390
1D
100
AcDbLine
 10
-1204.311436742436
 20
-1001.59981660551
 30
0.0
 11
-1204.311436742436
 21
-661.3283326055101
 31
0.0
  0
ENDBLK
  5
6B
330
25
100
AcDbEntity
  8
FLN72-0503
390
1D
100
AcDbBlockEnd
  0
BLOCK
  5
6C
330
26
100
AcDbEntity
  8
FLN72-0503
390
1D
100
AcDbBlockBegin
  2
グループ-3
 70
     0
 10
0.0
 20
0.0
 30
0.0
  3
グループ-3
  1
グループ-3
  0
ARC
  5
6D
330
26
100
AcDbEntity
  8
0
  6
Continuous
 62
     7
370
    15
390
1D
100
AcDbCircle
 10
-1005.010655742436
 20
-1161.46407460551
 30
0.0
 40
360.0
100
AcDbArc
 50
180.0
 51
308.2672880000001
  0
ARC
  5
6E
330
26
100
AcDbEntity
  8
0
  6
Continuous
 62
     7
370
    15
390
1D
100
AcDbCircle
 10
-1005.010655742436
 20
-501.4640746055101
 30
0.0
 40
359.9999999999995
100
AcDbArc
 50
51.73269700000002
 51
179.9999999999999
  0
ENDBLK
  5
6F
330
26
100
AcDbEntity
  8
FLN72-0503
390
1D
100
AcDbBlockEnd
  0
BLOCK
  5
70
330
27
100
AcDbEntity
  8
FLN72-0503
390
1D
100
AcDbBlockBegin
  2
グループ-4
 70
     0
 10
0.0
 20
0.0
 30
0.0
  3
グループ-4
  1
グループ-4
  0
LINE
  5
71
330
27
100
AcDbEntity
  8
0
  6
STYLE_11
 62
     7
370
    15
390
1D
100
AcDbLine
 10
1106.545924874779
 20
-882.8265777101077
 30
0.0
 11
1096.340846874778
 21
-1272.833413710108
 31
0.0
  0
LINE
  5
72
330
27
100
AcDbEntity
  8
0
  6
STYLE_11
 62
     7
370
    15
390
1D
100
AcDbLine
 10
1106.545924874779
 20
-795.7308747101077
 30
0.0
 11
1096.340846874778
 21
-405.7240387101077
 31
0.0
  0
ARC
  5
73
330
27
100
AcDbEntity
  8
0
  6
STYLE_11
 62
     7
370
    15
390
1D
100
AcDbCircle
 10
382.2685808747792
 20
458.2808442898933
 30
0.0
 40
2002.699829000001
100
AcDbArc
 50
277.826767
 51
286.5070949999999
  0
ARC
  5
74
330
27
100
AcDbEntity
  8
0
  6
STYLE_11
 62
     7
370
    15
390
1D
100
AcDbCircle
 10
893.7099868747791
 20
-1267.530678710108
 30
0.0
 40
202.7001339999998
100
AcDbArc
 50
286.5070039999998
 51
358.5009160000002
  0
ARC
  5
75
330
27
100
AcDbEntity
  8
0
  6
STYLE_11
 62
     7
370
    15
390
1D
100
AcDbCircle
 10
893.7099868747791
 20
-411.0267727101075
 30
0.0
 40
202.7001340000001
100
AcDbArc
 50
1.499053999999879
 51
73.49295000000012
  0
ARC
  5
76
330
27
100
AcDbEntity
  8
0
  6
STYLE_11
 62
     7
370
    15
390
1D
100
AcDbCircle
 10
382.2685808747792
 20
-2136.838296710107
 30
0.0
 40
2002.699828999998
100
AcDbArc
 50
73.49292000000007
 51
82.17321800000009
  0
ENDBLK
  5
77
330
27
100
AcDbEntity
  8
FLN72-0503
390
1D
100
AcDbBlockEnd
  0
BLOCK
  5
78
330
28
100
AcDbEntity
  8
FLN72-0503
390
1D
100
AcDbBlockBegin
  2
グループ-5
 70
     0
 10
0.0
 20
0.0
 30
0.0
  3
グループ-5
  1
グループ-5
  0
INSERT
  5
79
330
28
100
AcDbEntity
  8
0
 62
     7
390
1D
100
AcDbBlockReference
  2
グループ-4
 10
0.0
 20
0.0
 30
0.0
  0
ENDBLK
  5
7A
330
28
100
AcDbEntity
  8
FLN72-0503
390
1D
100
AcDbBlockEnd
  0
BLOCK
  5
7B
330
29
100
AcDbEntity
  8
notes
390
1D
100
AcDbBlockBegin
  2
*D8
 70
     1
 10
0.0
 20
0.0
 30
0.0
  3
*D8
  1
*D8
  0
LINE
  5
7C
330
29
100
AcDbEntity
  8
0
  6
Continuous
 62
     0
370
    -2
390
1D
100
AcDbLine
 10
-1452.010655742436
 20
-81.46407460551006
 30
0.0
 11
-1625.006426218218
 21
-81.46407460551006
 31
0.0
  0
LINE
  5
7D
330
29
100
AcDbEntity
  8
0
  6
Continuous
 62
     0
370
    -2
390
1D
100
AcDbLine
 10
-1452.010655742436
 20
-1581.46407260551
 30
0.0
 11
-1625.006426218218
 21
-1581.46407260551
 31
0.0
  0
LINE
  5
7E
330
29
100
AcDbEntity
  8
0
  6
Continuous
 62
     0
370
    -2
390
1D
100
AcDbLine
 10
-1625.006426218218
 20
-81.46407460551006
 30
0.0
 11
-1625.006426218218
 21
-1581.46407260551
 31
0.0
  0
CIRCLE
  5
7F
102
{ACAD_REACTORS
330
80
102
}
330
29
100
AcDbEntity
  8
0
  6
Continuous
 62
     0
370
    -2
390
1D
100
AcDbCircle
 10
-1625.006426218218
 20
-81.46407460551006
 30
0.0
 40
3.999755859375
  0
HATCH
  5
80
330
29
100
AcDbEntity
  8
0
  6
Continuous
 62
     0
370
    -2
390
1D
100
AcDbHatch
 10
0.0
 20
0.0
 30
0.0
210
0.0
220
0.0
230
1.0
  2
SOLID
 70
     1
 71
     1
 91
        1
 92
        1
 93
        1
 72
     2
 10
-1625.006426218218
 20
-81.46407460551006
 40
3.999755859375
 50
0.0
 51
360.0
 73
     0
 97
        1
330
7F
 75
     0
 76
     1
 98
        1
 10
0.0
 20
0.0
  0
CIRCLE
  5
81
102
{ACAD_REACTORS
330
82
102
}
330
29
100
AcDbEntity
  8
0
  6
Continuous
 62
     0
370
    -2
390
1D
100
AcDbCircle
 10
-1625.006426218218
 20
-1581.46407260551
 30
0.0
 40
3.999755859375
  0
HATCH
  5
82
330
29
100
AcDbEntity
  8
0
  6
Continuous
 62
     0
370
    -2
390
1D
100
AcDbHatch
 10
0.0
 20
0.0
 30
0.0
210
0.0
220
0.0
230
1.0
  2
SOLID
 70
     1
 71
     1
 91
        1
 92
        1
 93
        1
 72
     2
 10
-1625.006426218218
 20
-1581.46407260551
 40
3.999755859375
 50
0.0
 51
360.0
 73
     0
 97
        1
330
81
 75
     0
 76
     1
 98
        1
 10
0.0
 20
0.0
  0
MTEXT
  5
83
330
29
100
AcDbEntity
  8
0
 62
     0
390
1D
100
AcDbMText
 10
-1687.552676218218
 20
-894.9640736055098
 30
0.0
 40
43.65625
 41
0.0
 46
0.0
 71
     1
 72
     1
  1
1500
  7
MS UI Gothic
 11
0.0
 21
1.0
 31
0.0
 73
     1
 44
0.8762322015334064
  0
POINT
  5
84
330
29
100
AcDbEntity
  8
Defpoints
 62
     0
370
     0
390
1D
100
AcDbPoint
 10
-1402.010655742436
 20
-1581.46407260551
 30
0.0
  0
POINT
  5
85
330
29
100
AcDbEntity
  8
Defpoints
 62
     0
370
     0
390
1D
100
AcDbPoint
 10
-1402.010655742436
 20
-81.46407460551006
 30
0.0
  0
POINT
  5
86
330
29
100
AcDbEntity
  8
Defpoints
 62
     0
370
     0
390
1D
100
AcDbPoint
 10
-1625.006426218218
 20
-81.46407460551006
 30
0.0
  0
ENDBLK
  5
87
330
29
100
AcDbEntity
  8
notes
390
1D
100
AcDbBlockEnd
  0
BLOCK
  5
88
330
2A
100
AcDbEntity
  8
notes
390
1D
100
AcDbBlockBegin
  2
*D9
 70
     1
 10
0.0
 20
0.0
 30
0.0
  3
*D9
  1
*D9
  0
LINE
  5
89
330
2A
100
AcDbEntity
  8
0
  6
Continuous
 62
     0
370
    -2
390
1D
100
AcDbLine
 10
-1425.010655742436
 20
-54.46407460551007
 30
0.0
 11
-1425.010655742436
 21
168.5359253944899
 31
0.0
  0
LINE
  5
8A
330
2A
100
AcDbEntity
  8
0
  6
Continuous
 62
     0
370
    -2
390
1D
100
AcDbLine
 10
-625.0127978342662
 20
-54.1711123136837
 30
0.0
 11
-625.0127978342662
 21
168.5359253944899
 31
0.0
  0
LINE
  5
8B
330
2A
100
AcDbEntity
  8
0
  6
Continuous
 62
     0
370
    -2
390
1D
100
AcDbLine
 10
-1425.010655742436
 20
168.5359253944899
 30
0.0
 11
-625.0127978342662
 21
168.5359253944899
 31
0.0
  0
CIRCLE
  5
8C
102
{ACAD_REACTORS
330
8D
102
}
330
2A
100
AcDbEntity
  8
0
  6
Continuous
 62
     0
370
    -2
390
1D
100
AcDbCircle
 10
-1425.010655742436
 20
168.5359253944899
 30
0.0
 40
3.999755859375
  0
HATCH
  5
8D
330
2A
100
AcDbEntity
  8
0
  6
Continuous
 62
     0
370
    -2
390
1D
100
AcDbHatch
 10
0.0
 20
0.0
 30
0.0
210
0.0
220
0.0
230
1.0
  2
SOLID
 70
     1
 71
     1
 91
        1
 92
        1
 93
        1
 72
     2
 10
-1425.010655742436
 20
168.5359253944899
 40
3.999755859375
 50
0.0
 51
360.0
 73
     0
 97
        1
330
8C
 75
     0
 76
     1
 98
        1
 10
0.0
 20
0.0
  0
CIRCLE
  5
8E
102
{ACAD_REACTORS
330
8F
102
}
330
2A
100
AcDbEntity
  8
0
  6
Continuous
 62
     0
370
    -2
390
1D
100
AcDbCircle
 10
-625.0127978342662
 20
168.5359253944899
 30
0.0
 40
3.999755859375
  0
HATCH
  5
8F
330
2A
100
AcDbEntity
  8
0
  6
Continuous
 62
     0
370
    -2
390
1D
100
AcDbHatch
 10
0.0
 20
0.0
 30
0.0
210
0.0
220
0.0
230
1.0
  2
SOLID
 70
     1
 71
     1
 91
        1
 92
        1
 93
        1
 72
     2
 10
-625.0127978342662
 20
168.5359253944899
 40
3.999755859375
 50
0.0
 51
360.0
 73
     0
 97
        1
330
8E
 75
     0
 76
     1
 98
        1
 10
0.0
 20
0.0
  0
MTEXT
  5
90
330
2A
100
AcDbEntity
  8
0
 62
     0
390
1D
100
AcDbMText
 10
-1072.636730152702
 20
231.0821753944899
 30
0.0
 40
43.65625
 41
0.0
 46
0.0
 71
     1
 72
     1
  1
800
  7
MS UI Gothic
 73
     1
 44
0.8762322015334064
  0
POINT
  5
91
330
2A
100
AcDbEntity
  8
Defpoints
 62
     0
370
     0
390
1D
100
AcDbPoint
 10
-625.0127978342662
 20
-104.1711123136837
 30
0.0
  0
POINT
  5
92
330
2A
100
AcDbEntity
  8
Defpoints
 62
     0
370
     0
390
1D
100
AcDbPoint
 10
-1425.010655742436
 20
-104.4640746055101
 30
0.0
  0
POINT
  5
93
330
2A
100
AcDbEntity
  8
Defpoints
 62
     0
370
     0
390
1D
100
AcDbPoint
 10
-1425.010655742436
 20
168.5359253944899
 30
0.0
  0
ENDBLK
  5
94
330
2A
100
AcDbEntity
  8
notes
390
1D
100
AcDbBlockEnd
  0
BLOCK
  5
95
330
2B
100
AcDbEntity
  8
notes
390
1D
100
AcDbBlockBegin
  2
*D10
 70
     1
 10
0.0
 20
0.0
 30
0.0
  3
*D10
  1
*D10
  0
LINE
  5
96
330
2B
100
AcDbEntity
  8
0
  6
Continuous
 62
     0
370
    -2
390
1D
100
AcDbLine
 10
-1425.010653742436
 20
-54.46407460551007
 30
0.0
 11
-1425.010653742436
 21
268.5359253944899
 31
0.0
  0
LINE
  5
97
330
2B
100
AcDbEntity
  8
0
  6
Continuous
 62
     0
370
    -2
390
1D
100
AcDbLine
 10
-425.010655742436
 20
-706.4640746055101
 30
0.0
 11
-425.010655742436
 21
268.5359253944899
 31
0.0
  0
LINE
  5
98
330
2B
100
AcDbEntity
  8
0
  6
Continuous
 62
     0
370
    -2
390
1D
100
AcDbLine
 10
-1425.010653742436
 20
268.5359253944899
 30
0.0
 11
-425.010655742436
 21
268.5359253944899
 31
0.0
  0
CIRCLE
  5
99
102
{ACAD_REACTORS
330
9A
102
}
330
2B
100
AcDbEntity
  8
0
  6
Continuous
 62
     0
370
    -2
390
1D
100
AcDbCircle
 10
-1425.010653742436
 20
268.5359253944899
 30
0.0
 40
3.999755859375
  0
HATCH
  5
9A
330
2B
100
AcDbEntity
  8
0
  6
Continuous
 62
     0
370
    -2
390
1D
100
AcDbHatch
 10
0.0
 20
0.0
 30
0.0
210
0.0
220
0.0
230
1.0
  2
SOLID
 70
     1
 71
     1
 91
        1
 92
        1
 93
        1
 72
     2
 10
-1425.010653742436
 20
268.5359253944899
 40
3.999755859375
 50
0.0
 51
360.0
 73
     0
 97
        1
330
99
 75
     0
 76
     1
 98
        1
 10
0.0
 20
0.0
  0
CIRCLE
  5
9B
102
{ACAD_REACTORS
330
9C
102
}
330
2B
100
AcDbEntity
  8
0
  6
Continuous
 62
     0
370
    -2
390
1D
100
AcDbCircle
 10
-425.010655742436
 20
268.5359253944899
 30
0.0
 40
3.999755859375
  0
HATCH
  5
9C
330
2B
100
AcDbEntity
  8
0
  6
Continuous
 62
     0
370
    -2
390
1D
100
AcDbHatch
 10
0.0
 20
0.0
 30
0.0
210
0.0
220
0.0
230
1.0
  2
SOLID
 70
     1
 71
     1
 91
        1
 92
        1
 93
        1
 72
     2
 10
-425.010655742436
 20
268.5359253944899
 40
3.999755859375
 50
0.0
 51
360.0
 73
     0
 97
        1
330
9B
 75
     0
 76
     1
 98
        1
 10
0.0
 20
0.0
  0
MTEXT
  5
9D
330
2B
100
AcDbEntity
  8
0
 62
     0
390
1D
100
AcDbMText
 10
-988.5106547424361
 20
331.0821753944899
 30
0.0
 40
43.65625
 41
0.0
 46
0.0
 71
     1
 72
     1
  1
1000
  7
MS UI Gothic
 73
     1
 44
0.8762322015334064
  0
POINT
  5
9E
330
2B
100
AcDbEntity
  8
Defpoints
 62
     0
370
     0
390
1D
100
AcDbPoint
 10
-425.010655742436
 20
-756.4640746055101
 30
0.0
  0
POINT
  5
9F
330
2B
100
AcDbEntity
  8
Defpoints
 62
     0
370
     0
390
1D
100
AcDbPoint
 10
-1425.010653742436
 20
-104.4640746055101
 30
0.0
  0
POINT
  5
A0
330
2B
100
AcDbEntity
  8
Defpoints
 62
     0
370
     0
390
1D
100
AcDbPoint
 10
-1425.010653742436
 20
268.5359253944899
 30
0.0
  0
ENDBLK
  5
A1
330
2B
100
AcDbEntity
  8
notes
390
1D
100
AcDbBlockEnd
  0
BLOCK
  5
A2
330
2C
100
AcDbEntity
  8
notes
390
1D
100
AcDbBlockBegin
  2
*D11
 70
     1
 10
0.0
 20
0.0
 30
0.0
  3
*D11
  1
*D11
  0
LINE
  5
A3
330
2C
100
AcDbEntity
  8
0
  6
Continuous
 62
     0
370
    -2
390
1D
100
AcDbLine
 10
-598.010655742436
 20
-81.46407660551006
 30
0.0
 11
-125.0064262182185
 21
-81.46407660551006
 31
0.0
  0
LINE
  5
A4
330
2C
100
AcDbEntity
  8
0
  6
Continuous
 62
     0
370
    -2
390
1D
100
AcDbLine
 10
-639.010655742436
 20
-831.4640746055101
 30
0.0
 11
-125.0064262182185
 21
-831.4640746055101
 31
0.0
  0
LINE
  5
A5
330
2C
100
AcDbEntity
  8
0
  6
Continuous
 62
     0
370
    -2
390
1D
100
AcDbLine
 10
-125.0064262182185
 20
-81.46407660551006
 30
0.0
 11
-125.0064262182185
 21
-831.4640746055101
 31
0.0
  0
CIRCLE
  5
A6
102
{ACAD_REACTORS
330
A7
102
}
330
2C
100
AcDbEntity
  8
0
  6
Continuous
 62
     0
370
    -2
390
1D
100
AcDbCircle
 10
-125.0064262182185
 20
-81.46407660551006
 30
0.0
 40
3.999755859375
  0
HATCH
  5
A7
330
2C
100
AcDbEntity
  8
0
  6
Continuous
 62
     0
370
    -2
390
1D
100
AcDbHatch
 10
0.0
 20
0.0
 30
0.0
210
0.0
220
0.0
230
1.0
  2
SOLID
 70
     1
 71
     1
 91
        1
 92
        1
 93
        1
 72
     2
 10
-125.0064262182185
 20
-81.46407660551006
 40
3.999755859375
 50
0.0
 51
360.0
 73
     0
 97
        1
330
A6
 75
     0
 76
     1
 98
        1
 10
0.0
 20
0.0
  0
CIRCLE
  5
A8
102
{ACAD_REACTORS
330
A9
102
}
330
2C
100
AcDbEntity
  8
0
  6
Continuous
 62
     0
370
    -2
390
1D
100
AcDbCircle
 10
-125.0064262182185
 20
-831.4640746055101
 30
0.0
 40
3.999755859375
  0
HATCH
  5
A9
330
2C
100
AcDbEntity
  8
0
  6
Continuous
 62
     0
370
    -2
390
1D
100
AcDbHatch
 10
0.0
 20
0.0
 30
0.0
210
0.0
220
0.0
230
1.0
  2
SOLID
 70
     1
 71
     1
 91
        1
 92
        1
 93
        1
 72
     2
 10
-125.0064262182185
 20
-831.4640746055101
 40
3.999755859375
 50
0.0
 51
360.0
 73
     0
 97
        1
330
A8
 75
     0
 76
     1
 98
        1
 10
0.0
 20
0.0
  0
MTEXT
  5
AA
330
2C
100
AcDbEntity
  8
0
 62
     0
390
1D
100
AcDbMText
 10
-187.5526762182185
 20
-504.0890789698611
 30
0.0
 40
43.65625
 41
0.0
 46
0.0
 71
     1
 72
     1
  1
750
  7
MS UI Gothic
 11
0.0
 21
1.0
 31
0.0
 73
     1
 44
0.8762322015334064
  0
POINT
  5
AB
330
2C
100
AcDbEntity
  8
Defpoints
 62
     0
370
     0
390
1D
100
AcDbPoint
 10
-689.010655742436
 20
-831.4640746055101
 30
0.0
  0
POINT
  5
AC
330
2C
100
AcDbEntity
  8
Defpoints
 62
     0
370
     0
390
1D
100
AcDbPoint
 10
-648.010655742436
 20
-81.46407660551006
 30
0.0
  0
POINT
  5
AD
330
2C
100
AcDbEntity
  8
Defpoints
 62
     0
370
     0
390
1D
100
AcDbPoint
 10
-125.0064262182185
 20
-81.46407660551006
 30
0.0
  0
ENDBLK
  5
AE
330
2C
100
AcDbEntity
  8
notes
390
1D
100
AcDbBlockEnd
  0
BLOCK
  5
AF
330
2D
100
AcDbEntity
  8
notes
390
1D
100
AcDbBlockBegin
  2
*D12
 70
     1
 10
0.0
 20
0.0
 30
0.0
  3
*D12
  1
*D12
  0
LINE
  5
B0
330
2D
100
AcDbEntity
  8
0
  6
Continuous
 62
     0
370
    -2
390
1D
100
AcDbLine
 10
-689.010655742436
 20
-871.4640746055101
 30
0.0
 11
-689.010655742436
 21
-931.4640746055101
 31
0.0
  0
LINE
  5
B1
330
2D
100
AcDbEntity
  8
0
  6
Continuous
 62
     0
370
    -2
390
1D
100
AcDbLine
 10
-741.010655742436
 20
-871.4640746055101
 30
0.0
 11
-741.010655742436
 21
-931.4640746055101
 31
0.0
  0
LINE
  5
B2
330
2D
100
AcDbEntity
  8
0
  6
Continuous
 62
     0
370
    -2
390
1D
100
AcDbLine
 10
-741.010655742436
 20
-931.4640746055101
 30
0.0
 11
-915.0064262182185
 21
-931.4640746055101
 31
0.0
  0
LINE
  5
B3
330
2D
100
AcDbEntity
  8
0
  6
Continuous
 62
     0
370
    -2
390
1D
100
AcDbLine
 10
-689.010655742436
 20
-931.4640746055101
 30
0.0
 11
-741.010655742436
 21
-931.4640746055101
 31
0.0
  0
CIRCLE
  5
B4
102
{ACAD_REACTORS
330
B5
102
}
330
2D
100
AcDbEntity
  8
0
  6
Continuous
 62
     0
370
    -2
390
1D
100
AcDbCircle
 10
-689.010655742436
 20
-931.4640746055101
 30
0.0
 40
3.999755859375
  0
HATCH
  5
B5
330
2D
100
AcDbEntity
  8
0
  6
Continuous
 62
     0
370
    -2
390
1D
100
AcDbHatch
 10
0.0
 20
0.0
 30
0.0
210
0.0
220
0.0
230
1.0
  2
SOLID
 70
     1
 71
     1
 91
        1
 92
        1
 93
        1
 72
     2
 10
-689.010655742436
 20
-931.4640746055101
 40
3.999755859375
 50
0.0
 51
360.0
 73
     0
 97
        1
330
B4
 75
     0
 76
     1
 98
        1
 10
0.0
 20
0.0
  0
CIRCLE
  5
B6
102
{ACAD_REACTORS
330
B7
102
}
330
2D
100
AcDbEntity
  8
0
  6
Continuous
 62
     0
370
    -2
390
1D
100
AcDbCircle
 10
-741.010655742436
 20
-931.4640746055101
 30
0.0
 40
3.999755859375
  0
HATCH
  5
B7
330
2D
100
AcDbEntity
  8
0
  6
Continuous
 62
     0
370
    -2
390
1D
100
AcDbHatch
 10
0.0
 20
0.0
 30
0.0
210
0.0
220
0.0
230
1.0
  2
SOLID
 70
     1
 71
     1
 91
        1
 92
        1
 93
        1
 72
     2
 10
-741.010655742436
 20
-931.4640746055101
 40
3.999755859375
 50
0.0
 51
360.0
 73
     0
 97
        1
330
B6
 75
     0
 76
     1
 98
        1
 10
0.0
 20
0.0
  0
MTEXT
  5
B8
330
2D
100
AcDbEntity
  8
0
 62
     0
390
1D
100
AcDbMText
 10
-915.0064262182185
 20
-868.9178246055101
 30
0.0
 40
43.65625
 41
0.0
 46
0.0
 71
     1
 72
     1
  1
φ52
  7
MS UI Gothic
 73
     1
 44
0.8762322015334064
  0
POINT
  5
B9
330
2D
100
AcDbEntity
  8
Defpoints
 62
     0
370
     0
390
1D
100
AcDbPoint
 10
-741.010655742436
 20
-831.4640746055101
 30
0.0
  0
POINT
  5
BA
330
2D
100
AcDbEntity
  8
Defpoints
 62
     0
370
     0
390
1D
100
AcDbPoint
 10
-689.010655742436
 20
-831.4640746055101
 30
0.0
  0
POINT
  5
BB
330
2D
100
AcDbEntity
  8
Defpoints
 62
     0
370
     0
390
1D
100
AcDbPoint
 10
-689.010655742436
 20
-931.4640746055101
 30
0.0
  0
ENDBLK
  5
BC
330
2D
100
AcDbEntity
  8
notes
390
1D
100
AcDbBlockEnd
  0
BLOCK
  5
BD
330
2E
100
AcDbEntity
  8
notes
390
1D
100
AcDbBlockBegin
  2
*D13
 70
     1
 10
0.0
 20
0.0
 30
0.0
  3
*D13
  1
*D13
  0
LINE
  5
BE
330
2E
100
AcDbEntity
  8
0
  6
Continuous
 62
     0
370
    -2
390
1D
100
AcDbLine
 10
929.5581460044395
 20
1308.880625211536
 30
0.0
 11
344.9944504999997
 21
1308.880625211536
 31
0.0
  0
LINE
  5
BF
330
2E
100
AcDbEntity
  8
0
  6
Continuous
 62
     0
370
    -2
390
1D
100
AcDbLine
 10
929.5581460044395
 20
1868.88062521154
 30
0.0
 11
344.9944504999997
 21
1868.88062521154
 31
0.0
  0
LINE
  5
C0
330
2E
100
AcDbEntity
  8
0
  6
Continuous
 62
     0
370
    -2
390
1D
100
AcDbLine
 10
344.9944504999997
 20
1308.880625211536
 30
0.0
 11
344.9944504999997
 21
1868.88062521154
 31
0.0
  0
CIRCLE
  5
C1
102
{ACAD_REACTORS
330
C2
102
}
330
2E
100
AcDbEntity
  8
0
  6
Continuous
 62
     0
370
    -2
390
1D
100
AcDbCircle
 10
344.9944504999997
 20
1308.880625211536
 30
0.0
 40
3.999755859375
  0
HATCH
  5
C2
330
2E
100
AcDbEntity
  8
0
  6
Continuous
 62
     0
370
    -2
390
1D
100
AcDbHatch
 10
0.0
 20
0.0
 30
0.0
210
0.0
220
0.0
230
1.0
  2
SOLID
 70
     1
 71
     1
 91
        1
 92
        1
 93
        1
 72
     2
 10
344.9944504999997
 20
1308.880625211536
 40
3.999755859375
 50
0.0
 51
360.0
 73
     0
 97
        1
330
C1
 75
     0
 76
     1
 98
        1
 10
0.0
 20
0.0
  0
CIRCLE
  5
C3
102
{ACAD_REACTORS
330
C4
102
}
330
2E
100
AcDbEntity
  8
0
  6
Continuous
 62
     0
370
    -2
390
1D
100
AcDbCircle
 10
344.9944504999997
 20
1868.88062521154
 30
0.0
 40
3.999755859375
  0
HATCH
  5
C4
330
2E
100
AcDbEntity
  8
0
  6
Continuous
 62
     0
370
    -2
390
1D
100
AcDbHatch
 10
0.0
 20
0.0
 30
0.0
210
0.0
220
0.0
230
1.0
  2
SOLID
 70
     1
 71
     1
 91
        1
 92
        1
 93
        1
 72
     2
 10
344.9944504999997
 20
1868.88062521154
 40
3.999755859375
 50
0.0
 51
360.0
 73
     0
 97
        1
330
C3
 75
     0
 76
     1
 98
        1
 10
0.0
 20
0.0
  0
MTEXT
  5
C5
330
2E
100
AcDbEntity
  8
0
 62
     0
390
1D
100
AcDbMText
 10
282.4482004999998
 20
1541.255621847187
 30
0.0
 40
43.65625
 41
0.0
 46
0.0
 71
     1
 72
     1
  1
560
  7
MS UI Gothic
 11
0.0
 21
1.0
 31
0.0
 73
     1
 44
0.8762322015334064
  0
POINT
  5
C6
330
2E
100
AcDbEntity
  8
Defpoints
 62
     0
370
     0
390
1D
100
AcDbPoint
 10
979.5581460044395
 20
1868.88062521154
 30
0.0
  0
POINT
  5
C7
330
2E
100
AcDbEntity
  8
Defpoints
 62
     0
370
     0
390
1D
100
AcDbPoint
 10
979.5581460044395
 20
1308.880625211536
 30
0.0
  0
POINT
  5
C8
330
2E
100
AcDbEntity
  8
Defpoints
 62
     0
370
     0
390
1D
100
AcDbPoint
 10
344.9944504999997
 20
1308.880625211536
 30
0.0
  0
ENDBLK
  5
C9
330
2E
100
AcDbEntity
  8
notes
390
1D
100
AcDbBlockEnd
  0
BLOCK
  5
CA
330
2F
100
AcDbEntity
  8
notes
390
1D
100
AcDbBlockBegin
  2
*D14
 70
     1
 10
0.0
 20
0.0
 30
0.0
  3
*D14
  1
*D14
  0
LINE
  5
CB
330
2F
100
AcDbEntity
  8
0
  6
Continuous
 62
     0
370
    -2
390
1D
100
AcDbLine
 10
550.9906662130024
 20
1113.554702968702
 30
0.0
 11
244.9944505000004
 21
1113.554702968702
 31
0.0
  0
LINE
  5
CC
330
2F
100
AcDbEntity
  8
0
  6
Continuous
 62
     0
370
    -2
390
1D
100
AcDbLine
 10
550.9906662130024
 20
1993.554702968705
 30
0.0
 11
244.9944505000004
 21
1993.554702968705
 31
0.0
  0
LINE
  5
CD
330
2F
100
AcDbEntity
  8
0
  6
Continuous
 62
     0
370
    -2
390
1D
100
AcDbLine
 10
244.9944505000004
 20
1113.554702968702
 30
0.0
 11
244.9944505000004
 21
1993.554702968705
 31
0.0
  0
CIRCLE
  5
CE
102
{ACAD_REACTORS
330
CF
102
}
330
2F
100
AcDbEntity
  8
0
  6
Continuous
 62
     0
370
    -2
390
1D
100
AcDbCircle
 10
244.9944505000004
 20
1113.554702968702
 30
0.0
 40
3.999755859375
  0
HATCH
  5
CF
330
2F
100
AcDbEntity
  8
0
  6
Continuous
 62
     0
370
    -2
390
1D
100
AcDbHatch
 10
0.0
 20
0.0
 30
0.0
210
0.0
220
0.0
230
1.0
  2
SOLID
 70
     1
 71
     1
 91
        1
 92
        1
 93
        1
 72
     2
 10
244.9944505000004
 20
1113.554702968702
 40
3.999755859375
 50
0.0
 51
360.0
 73
     0
 97
        1
330
CE
 75
     0
 76
     1
 98
        1
 10
0.0
 20
0.0
  0
CIRCLE
  5
D0
102
{ACAD_REACTORS
330
D1
102
}
330
2F
100
AcDbEntity
  8
0
  6
Continuous
 62
     0
370
    -2
390
1D
100
AcDbCircle
 10
244.9944505000004
 20
1993.554702968705
 30
0.0
 40
3.999755859375
  0
HATCH
  5
D1
330
2F
100
AcDbEntity
  8
0
  6
Continuous
 62
     0
370
    -2
390
1D
100
AcDbHatch
 10
0.0
 20
0.0
 30
0.0
210
0.0
220
0.0
230
1.0
  2
SOLID
 70
     1
 71
     1
 91
        1
 92
        1
 93
        1
 72
     2
 10
244.9944505000004
 20
1993.554702968705
 40
3.999755859375
 50
0.0
 51
360.0
 73
     0
 97
        1
330
D0
 75
     0
 76
     1
 98
        1
 10
0.0
 20
0.0
  0
MTEXT
  5
D2
330
2F
100
AcDbEntity
  8
0
 62
     0
390
1D
100
AcDbMText
 10
182.4482005000004
 20
1541.255621847187
 30
0.0
 40
43.65625
 41
0.0
 46
0.0
 71
     1
 72
     1
  1
880
  7
MS UI Gothic
 11
0.0
 21
1.0
 31
0.0
 73
     1
 44
0.8762322015334064
  0
POINT
  5
D3
330
2F
100
AcDbEntity
  8
Defpoints
 62
     0
370
     0
390
1D
100
AcDbPoint
 10
600.9906662130024
 20
1993.554702968705
 30
0.0
  0
POINT
  5
D4
330
2F
100
AcDbEntity
  8
Defpoints
 62
     0
370
     0
390
1D
100
AcDbPoint
 10
600.9906662130024
 20
1113.554702968702
 30
0.0
  0
POINT
  5
D5
330
2F
100
AcDbEntity
  8
Defpoints
 62
     0
370
     0
390
1D
100
AcDbPoint
 10
244.9944505000004
 20
1113.554702968702
 30
0.0
  0
ENDBLK
  5
D6
330
2F
100
AcDbEntity
  8
notes
390
1D
100
AcDbBlockEnd
  0
BLOCK
  5
D7
330
30
100
AcDbEntity
  8
notes
390
1D
100
AcDbBlockBegin
  2
*D15
 70
     1
 10
0.0
 20
0.0
 30
0.0
  3
*D15
  1
*D15
  0
LINE
  5
D8
330
30
100
AcDbEntity
  8
0
  6
Continuous
 62
     0
370
    -2
390
1D
100
AcDbLine
 10
1244.990220975783
 20
18.63592539448995
 30
0.0
 11
1244.990220975783
 21
268.5359253944899
 31
0.0
  0
LINE
  5
D9
330
30
100
AcDbEntity
  8
0
  6
Continuous
 62
     0
370
    -2
390
1D
100
AcDbLine
 10
604.9935737817814
 20
-37.37940790826497
 30
0.0
 11
604.9935737817814
 21
268.5359253944899
 31
0.0
  0
LINE
  5
DA
330
30
100
AcDbEntity
  8
0
  6
Continuous
 62
     0
370
    -2
390
1D
100
AcDbLine
 10
1244.990220975783
 20
268.5359253944899
 30
0.0
 11
604.9935737817814
 21
268.5359253944899
 31
0.0
  0
CIRCLE
  5
DB
102
{ACAD_REACTORS
330
DC
102
}
330
30
100
AcDbEntity
  8
0
  6
Continuous
 62
     0
370
    -2
390
1D
100
AcDbCircle
 10
1244.990220975783
 20
268.5359253944899
 30
0.0
 40
3.999755859375
  0
HATCH
  5
DC
330
30
100
AcDbEntity
  8
0
  6
Continuous
 62
     0
370
    -2
390
1D
100
AcDbHatch
 10
0.0
 20
0.0
 30
0.0
210
0.0
220
0.0
230
1.0
  2
SOLID
 70
     1
 71
     1
 91
        1
 92
        1
 93
        1
 72
     2
 10
1244.990220975783
 20
268.5359253944899
 40
3.999755859375
 50
0.0
 51
360.0
 73
     0
 97
        1
330
DB
 75
     0
 76
     1
 98
        1
 10
0.0
 20
0.0
  0
CIRCLE
  5
DD
102
{ACAD_REACTORS
330
DE
102
}
330
30
100
AcDbEntity
  8
0
  6
Continuous
 62
     0
370
    -2
390
1D
100
AcDbCircle
 10
604.9935737817814
 20
268.5359253944899
 30
0.0
 40
3.999755859375
  0
HATCH
  5
DE
330
30
100
AcDbEntity
  8
0
  6
Continuous
 62
     0
370
    -2
390
1D
100
AcDbHatch
 10
0.0
 20
0.0
 30
0.0
210
0.0
220
0.0
230
1.0
  2
SOLID
 70
     1
 71
     1
 91
        1
 92
        1
 93
        1
 72
     2
 10
604.9935737817814
 20
268.5359253944899
 40
3.999755859375
 50
0.0
 51
360.0
 73
     0
 97
        1
330
DD
 75
     0
 76
     1
 98
        1
 10
0.0
 20
0.0
  0
MTEXT
  5
DF
330
30
100
AcDbEntity
  8
0
 62
     0
390
1D
100
AcDbMText
 10
877.3668940144311
 20
331.0821753944899
 30
0.0
 40
43.65625
 41
0.0
 46
0.0
 71
     1
 72
     1
  1
640
  7
MS UI Gothic
 73
     1
 44
0.8762322015334064
  0
POINT
  5
E0
330
30
100
AcDbEntity
  8
Defpoints
 62
     0
370
     0
390
1D
100
AcDbPoint
 10
604.9935737817814
 20
-87.37940790826497
 30
0.0
  0
POINT
  5
E1
330
30
100
AcDbEntity
  8
Defpoints
 62
     0
370
     0
390
1D
100
AcDbPoint
 10
1244.990220975783
 20
-31.36407460551004
 30
0.0
  0
POINT
  5
E2
330
30
100
AcDbEntity
  8
Defpoints
 62
     0
370
     0
390
1D
100
AcDbPoint
 10
1244.990220975783
 20
268.5359253944899
 30
0.0
  0
ENDBLK
  5
E3
330
30
100
AcDbEntity
  8
notes
390
1D
100
AcDbBlockEnd
  0
BLOCK
  5
E4
330
31
100
AcDbEntity
  8
notes
390
1D
100
AcDbBlockBegin
  2
*D16
 70
     1
 10
0.0
 20
0.0
 30
0.0
  3
*D16
  1
*D16
  0
LINE
  5
E5
330
31
100
AcDbEntity
  8
0
  6
Continuous
 62
     0
370
    -2
390
1D
100
AcDbLine
 10
929.9935737817814
 20
-231.3653526600483
 30
0.0
 11
344.9944505000002
 21
-231.3653526600483
 31
0.0
  0
LINE
  5
E6
330
31
100
AcDbEntity
  8
0
  6
Continuous
 62
     0
370
    -2
390
1D
100
AcDbLine
 10
929.9935737817814
 20
-1431.365352660048
 30
0.0
 11
344.9944505000002
 21
-1431.365352660048
 31
0.0
  0
LINE
  5
E7
330
31
100
AcDbEntity
  8
0
  6
Continuous
 62
     0
370
    -2
390
1D
100
AcDbLine
 10
344.9944505000002
 20
-231.3653526600483
 30
0.0
 11
344.9944505000002
 21
-1431.365352660048
 31
0.0
  0
CIRCLE
  5
E8
102
{ACAD_REACTORS
330
E9
102
}
330
31
100
AcDbEntity
  8
0
  6
Continuous
 62
     0
370
    -2
390
1D
100
AcDbCircle
 10
344.9944505000002
 20
-231.3653526600483
 30
0.0
 40
3.999755859375
  0
HATCH
  5
E9
330
31
100
AcDbEntity
  8
0
  6
Continuous
 62
     0
370
    -2
390
1D
100
AcDbHatch
 10
0.0
 20
0.0
 30
0.0
210
0.0
220
0.0
230
1.0
  2
SOLID
 70
     1
 71
     1
 91
        1
 92
        1
 93
        1
 72
     2
 10
344.9944505000002
 20
-231.3653526600483
 40
3.999755859375
 50
0.0
 51
360.0
 73
     0
 97
        1
330
E8
 75
     0
 76
     1
 98
        1
 10
0.0
 20
0.0
  0
CIRCLE
  5
EA
102
{ACAD_REACTORS
330
EB
102
}
330
31
100
AcDbEntity
  8
0
  6
Continuous
 62
     0
370
    -2
390
1D
100
AcDbCircle
 10
344.9944505000002
 20
-1431.365352660048
 30
0.0
 40
3.999755859375
  0
HATCH
  5
EB
330
31
100
AcDbEntity
  8
0
  6
Continuous
 62
     0
370
    -2
390
1D
100
AcDbHatch
 10
0.0
 20
0.0
 30
0.0
210
0.0
220
0.0
230
1.0
  2
SOLID
 70
     1
 71
     1
 91
        1
 92
        1
 93
        1
 72
     2
 10
344.9944505000002
 20
-1431.365352660048
 40
3.999755859375
 50
0.0
 51
360.0
 73
     0
 97
        1
330
EA
 75
     0
 76
     1
 98
        1
 10
0.0
 20
0.0
  0
MTEXT
  5
EC
330
31
100
AcDbEntity
  8
0
 62
     0
390
1D
100
AcDbMText
 10
282.4482005000002
 20
-894.8653526600483
 30
0.0
 40
43.65625
 41
0.0
 46
0.0
 71
     1
 72
     1
  1
1200
  7
MS UI Gothic
 11
0.0
 21
1.0
 31
0.0
 73
     1
 44
0.8762322015334064
  0
POINT
  5
ED
330
31
100
AcDbEntity
  8
Defpoints
 62
     0
370
     0
390
1D
100
AcDbPoint
 10
979.9935737817814
 20
-1431.365352660048
 30
0.0
  0
POINT
  5
EE
330
31
100
AcDbEntity
  8
Defpoints
 62
     0
370
     0
390
1D
100
AcDbPoint
 10
979.9935737817814
 20
-231.3653526600483
 30
0.0
  0
POINT
  5
EF
330
31
100
AcDbEntity
  8
Defpoints
 62
     0
370
     0
390
1D
100
AcDbPoint
 10
344.9944505000002
 20
-231.3653526600483
 30
0.0
  0
ENDBLK
  5
F0
330
31
100
AcDbEntity
  8
notes
390
1D
100
AcDbBlockEnd
  0
BLOCK
  5
F1
330
32
100
AcDbEntity
  8
notes
390
1D
100
AcDbBlockBegin
  2
*D17
 70
     1
 10
0.0
 20
0.0
 30
0.0
  3
*D17
  1
*D17
  0
LINE
  5
F2
330
32
100
AcDbEntity
  8
notes
  6
Continuous
 62
     0
370
    -2
100
AcDbLine
 10
550.7909991503266
 20
-1521.379407908265
 30
0.0
 11
244.9944505000001
 21
-1521.379407908265
 31
0.0
  0
LINE
  5
F3
330
32
100
AcDbEntity
  8
notes
  6
Continuous
 62
     0
370
    -2
100
AcDbLine
 10
550.7909991503266
 20
-141.379407908265
 30
0.0
 11
244.9944505000002
 21
-141.3794079082649
 31
0.0
  0
LINE
  5
F4
330
32
100
AcDbEntity
  8
notes
  6
Continuous
 62
     0
370
    -2
100
AcDbLine
 10
244.9944505000001
 20
-1513.379896189515
 30
0.0
 11
244.9944505000002
 21
-149.3789196270149
 31
0.0
  0
INSERT
  5
F5
102
{ACAD_REACTORS
330
F6
102
}
330
32
100
AcDbEntity
  8
notes
 62
     0
370
    -2
100
AcDbBlockReference
  2
_DOT
 10
244.9944505000001
 20
-1521.379407908265
 30
0.0
 41
7.99951171875
 42
7.99951171875
 43
7.99951171875
 50
270.0
  0
INSERT
  5
F6
330
32
100
AcDbEntity
  8
notes
 62
     0
370
    -2
100
AcDbBlockReference
  2
_DOT
 10
244.9944505000002
 20
-141.3794079082649
 30
0.0
 41
7.99951171875
 42
7.99951171875
 43
7.99951171875
 50
90.0
  0
MTEXT
  5
F7
102
{ACAD_REACTORS
330
F8
102
}
330
32
100
AcDbEntity
  8
notes
  6
Continuous
 62
     0
370
     5
100
AcDbMText
 10
213.0571848750001
 20
-831.379407908265
 30
0.0
 40
43.65625
 41
0.0
 46
0.0
 71
     5
 72
     1
  1
\A1;1380
  7
MS UI Gothic
 11
6.178632484870436E-17
 21
1.0
 31
0.0
 73
     1
 44
1.0
  0
POINT
  5
F8
330
32
100
AcDbEntity
  8
Defpoints
 62
     0
100
AcDbPoint
 10
600.7909991503266
 20
-1521.379407908265
 30
0.0
  0
POINT
  5
F9
330
32
100
AcDbEntity
  8
Defpoints
 62
     0
100
AcDbPoint
 10
600.7909991503266
 20
-141.379407908265
 30
0.0
  0
POINT
  5
FA
330
32
100
AcDbEntity
  8
Defpoints
 62
     0
100
AcDbPoint
 10
244.9944505000002
 20
-141.3794079082649
 30
0.0
  0
ENDBLK
  5
FD
330
32
100
AcDbEntity
  8
notes
390
1D
100
AcDbBlockEnd
  0
BLOCK
  5
FE
330
33
100
AcDbEntity
  8
notes
390
1D
100
AcDbBlockBegin
  2
*D18
 70
     1
 10
0.0
 20
0.0
 30
0.0
  3
*D18
  1
*D18
  0
LINE
  5
FF
330
33
100
AcDbEntity
  8
0
  6
Continuous
 62
     0
370
    -2
390
1D
100
AcDbLine
 10
624.9935737817814
 20
-805.3794079082649
 30
0.0
 11
532.0134226796207
 21
-805.3794079082649
 31
0.0
  0
LINE
  5
100
330
33
100
AcDbEntity
  8
0
  6
Continuous
 62
     0
370
    -2
390
1D
100
AcDbLine
 10
624.9935737817814
 20
-857.3794079082646
 30
0.0
 11
532.0134226796207
 21
-857.3794079082646
 31
0.0
  0
LINE
  5
101
330
33
100
AcDbEntity
  8
0
  6
Continuous
 62
     0
370
    -2
390
1D
100
AcDbLine
 10
532.0134226796207
 20
-805.3794079082649
 30
0.0
 11
532.0134226796207
 21
-629.4640746055101
 31
0.0
  0
LINE
  5
102
330
33
100
AcDbEntity
  8
0
  6
Continuous
 62
     0
370
    -2
390
1D
100
AcDbLine
 10
532.0134226796207
 20
-805.3794079082649
 30
0.0
 11
532.0134226796207
 21
-857.3794079082646
 31
0.0
  0
CIRCLE
  5
103
102
{ACAD_REACTORS
330
104
102
}
330
33
100
AcDbEntity
  8
0
  6
Continuous
 62
     0
370
    -2
390
1D
100
AcDbCircle
 10
532.0134226796207
 20
-805.3794079082649
 30
0.0
 40
3.999755859375
  0
HATCH
  5
104
330
33
100
AcDbEntity
  8
0
  6
Continuous
 62
     0
370
    -2
390
1D
100
AcDbHatch
 10
0.0
 20
0.0
 30
0.0
210
0.0
220
0.0
230
1.0
  2
SOLID
 70
     1
 71
     1
 91
        1
 92
        1
 93
        1
 72
     2
 10
532.0134226796207
 20
-805.3794079082649
 40
3.999755859375
 50
0.0
 51
360.0
 73
     0
 97
        1
330
103
 75
     0
 76
     1
 98
        1
 10
0.0
 20
0.0
  0
CIRCLE
  5
105
102
{ACAD_REACTORS
330
106
102
}
330
33
100
AcDbEntity
  8
0
  6
Continuous
 62
     0
370
    -2
390
1D
100
AcDbCircle
 10
532.0134226796207
 20
-857.3794079082646
 30
0.0
 40
3.999755859375
  0
HATCH
  5
106
330
33
100
AcDbEntity
  8
0
  6
Continuous
 62
     0
370
    -2
390
1D
100
AcDbHatch
 10
0.0
 20
0.0
 30
0.0
210
0.0
220
0.0
230
1.0
  2
SOLID
 70
     1
 71
     1
 91
        1
 92
        1
 93
        1
 72
     2
 10
532.0134226796207
 20
-857.3794079082646
 40
3.999755859375
 50
0.0
 51
360.0
 73
     0
 97
        1
330
105
 75
     0
 76
     1
 98
        1
 10
0.0
 20
0.0
  0
MTEXT
  5
107
330
33
100
AcDbEntity
  8
0
 62
     0
390
1D
100
AcDbMText
 10
469.4671726796207
 20
-756.4640746055101
 30
0.0
 40
43.65625
 41
0.0
 46
0.0
 71
     1
 72
     1
  1
φ52
  7
MS UI Gothic
 11
0.0
 21
1.0
 31
0.0
 73
     1
 44
0.8762322015334064
  0
POINT
  5
108
330
33
100
AcDbEntity
  8
Defpoints
 62
     0
370
     0
390
1D
100
AcDbPoint
 10
674.9935737817814
 20
-857.3794079082646
 30
0.0
  0
POINT
  5
109
330
33
100
AcDbEntity
  8
Defpoints
 62
     0
370
     0
390
1D
100
AcDbPoint
 10
674.9935737817814
 20
-805.3794079082649
 30
0.0
  0
POINT
  5
10A
330
33
100
AcDbEntity
  8
Defpoints
 62
     0
370
     0
390
1D
100
AcDbPoint
 10
532.0134226796207
 20
-805.3794079082649
 30
0.0
  0
ENDBLK
  5
10B
330
33
100
AcDbEntity
  8
notes
390
1D
100
AcDbBlockEnd
  0
BLOCK
  5
10C
330
34
100
AcDbEntity
  8
notes
390
1D
100
AcDbBlockBegin
  2
*D19
 70
     1
 10
0.0
 20
0.0
 30
0.0
  3
*D19
  1
*D19
  0
LINE
  5
10D
330
34
100
AcDbEntity
  8
0
  6
Continuous
 62
     0
370
    -2
390
1D
100
AcDbLine
 10
697.9902209757829
 20
-790.4640746055101
 30
0.0
 11
697.9902209757829
 21
-730.4640746055101
 31
0.0
  0
LINE
  5
10E
330
34
100
AcDbEntity
  8
0
  6
Continuous
 62
     0
370
    -2
390
1D
100
AcDbLine
 10
604.9902209757829
 20
-790.4640746055101
 30
0.0
 11
604.9902209757829
 21
-730.4640746055101
 31
0.0
  0
LINE
  5
10F
330
34
100
AcDbEntity
  8
0
  6
Continuous
 62
     0
370
    -2
390
1D
100
AcDbLine
 10
697.9902209757829
 20
-730.4640746055101
 30
0.0
 11
941.8444612659239
 21
-730.4640746055101
 31
0.0
  0
LINE
  5
110
330
34
100
AcDbEntity
  8
0
  6
Continuous
 62
     0
370
    -2
390
1D
100
AcDbLine
 10
697.9902209757829
 20
-730.4640746055101
 30
0.0
 11
604.9902209757829
 21
-730.4640746055101
 31
0.0
  0
CIRCLE
  5
111
102
{ACAD_REACTORS
330
112
102
}
330
34
100
AcDbEntity
  8
0
  6
Continuous
 62
     0
370
    -2
390
1D
100
AcDbCircle
 10
697.9902209757829
 20
-730.4640746055101
 30
0.0
 40
3.999755859375
  0
HATCH
  5
112
330
34
100
AcDbEntity
  8
0
  6
Continuous
 62
     0
370
    -2
390
1D
100
AcDbHatch
 10
0.0
 20
0.0
 30
0.0
210
0.0
220
0.0
230
1.0
  2
SOLID
 70
     1
 71
     1
 91
        1
 92
        1
 93
        1
 72
     2
 10
697.9902209757829
 20
-730.4640746055101
 40
3.999755859375
 50
0.0
 51
360.0
 73
     0
 97
        1
330
111
 75
     0
 76
     1
 98
        1
 10
0.0
 20
0.0
  0
CIRCLE
  5
113
102
{ACAD_REACTORS
330
114
102
}
330
34
100
AcDbEntity
  8
0
  6
Continuous
 62
     0
370
    -2
390
1D
100
AcDbCircle
 10
604.9902209757829
 20
-730.4640746055101
 30
0.0
 40
3.999755859375
  0
HATCH
  5
114
330
34
100
AcDbEntity
  8
0
  6
Continuous
 62
     0
370
    -2
390
1D
100
AcDbHatch
 10
0.0
 20
0.0
 30
0.0
210
0.0
220
0.0
230
1.0
  2
SOLID
 70
     1
 71
     1
 91
        1
 92
        1
 93
        1
 72
     2
 10
604.9902209757829
 20
-730.4640746055101
 40
3.999755859375
 50
0.0
 51
360.0
 73
     0
 97
        1
330
113
 75
     0
 76
     1
 98
        1
 10
0.0
 20
0.0
  0
MTEXT
  5
115
330
34
100
AcDbEntity
  8
0
 62
     0
390
1D
100
AcDbMText
 10
744.9944505000004
 20
-667.9178246055101
 30
0.0
 40
43.65625
 41
0.0
 46
0.0
 71
     1
 72
     1
  1
93(※1)
  7
MS UI Gothic
 73
     1
 44
0.8762322015334064
  0
POINT
  5
116
330
34
100
AcDbEntity
  8
Defpoints
 62
     0
370
     0
390
1D
100
AcDbPoint
 10
604.9902209757829
 20
-820.4640746055101
 30
0.0
  0
POINT
  5
117
330
34
100
AcDbEntity
  8
Defpoints
 62
     0
370
     0
390
1D
100
AcDbPoint
 10
697.9902209757829
 20
-836.3794079082649
 30
0.0
  0
POINT
  5
118
330
34
100
AcDbEntity
  8
Defpoints
 62
     0
370
     0
390
1D
100
AcDbPoint
 10
697.9902209757829
 20
-730.4640746055101
 30
0.0
  0
ENDBLK
  5
119
330
34
100
AcDbEntity
  8
notes
390
1D
100
AcDbBlockEnd
  0
BLOCK
  5
11A
330
35
100
AcDbEntity
  8
notes
390
1D
100
AcDbBlockBegin
  2
*D20
 70
     1
 10
0.0
 20
0.0
 30
0.0
  3
*D20
  1
*D20
  0
LINE
  5
11B
330
35
100
AcDbEntity
  8
0
  6
Continuous
 62
     0
370
    -2
390
1D
100
AcDbLine
 10
604.9922238317549
 20
2078.53592539449
 30
0.0
 11
604.9922238317549
 21
2268.53592539449
 31
0.0
  0
LINE
  5
11C
330
35
100
AcDbEntity
  8
0
  6
Continuous
 62
     0
370
    -2
390
1D
100
AcDbLine
 10
654.9922238315594
 20
2078.535826558457
 30
0.0
 11
654.9922238315594
 21
2268.53592539449
 31
0.0
  0
LINE
  5
11D
330
35
100
AcDbEntity
  8
0
  6
Continuous
 62
     0
370
    -2
390
1D
100
AcDbLine
 10
604.9922238317549
 20
2268.53592539449
 30
0.0
 11
520.4944505000003
 21
2268.53592539449
 31
0.0
  0
LINE
  5
11E
330
35
100
AcDbEntity
  8
0
  6
Continuous
 62
     0
370
    -2
390
1D
100
AcDbLine
 10
604.9922238317549
 20
2268.53592539449
 30
0.0
 11
654.9922238315594
 21
2268.53592539449
 31
0.0
  0
CIRCLE
  5
11F
102
{ACAD_REACTORS
330
120
102
}
330
35
100
AcDbEntity
  8
0
  6
Continuous
 62
     0
370
    -2
390
1D
100
AcDbCircle
 10
604.9922238317549
 20
2268.53592539449
 30
0.0
 40
3.999755859375
  0
HATCH
  5
120
330
35
100
AcDbEntity
  8
0
  6
Continuous
 62
     0
370
    -2
390
1D
100
AcDbHatch
 10
0.0
 20
0.0
 30
0.0
210
0.0
220
0.0
230
1.0
  2
SOLID
 70
     1
 71
     1
 91
        1
 92
        1
 93
        1
 72
     2
 10
604.9922238317549
 20
2268.53592539449
 40
3.999755859375
 50
0.0
 51
360.0
 73
     0
 97
        1
330
11F
 75
     0
 76
     1
 98
        1
 10
0.0
 20
0.0
  0
CIRCLE
  5
121
102
{ACAD_REACTORS
330
122
102
}
330
35
100
AcDbEntity
  8
0
  6
Continuous
 62
     0
370
    -2
390
1D
100
AcDbCircle
 10
654.9922238315594
 20
2268.53592539449
 30
0.0
 40
3.999755859375
  0
HATCH
  5
122
330
35
100
AcDbEntity
  8
0
  6
Continuous
 62
     0
370
    -2
390
1D
100
AcDbHatch
 10
0.0
 20
0.0
 30
0.0
210
0.0
220
0.0
230
1.0
  2
SOLID
 70
     1
 71
     1
 91
        1
 92
        1
 93
        1
 72
     2
 10
654.9922238315594
 20
2268.53592539449
 40
3.999755859375
 50
0.0
 51
360.0
 73
     0
 97
        1
330
121
 75
     0
 76
     1
 98
        1
 10
0.0
 20
0.0
  0
MTEXT
  5
123
330
35
100
AcDbEntity
  8
0
 62
     0
390
1D
100
AcDbMText
 10
520.4944505000003
 20
2331.08217539449
 30
0.0
 40
43.65625
 41
0.0
 46
0.0
 71
     1
 72
     1
  1
50
  7
MS UI Gothic
 73
     1
 44
0.8762322015334064
  0
POINT
  5
124
330
35
100
AcDbEntity
  8
Defpoints
 62
     0
370
     0
390
1D
100
AcDbPoint
 10
654.9922238315594
 20
2028.535826558458
 30
0.0
  0
POINT
  5
125
330
35
100
AcDbEntity
  8
Defpoints
 62
     0
370
     0
390
1D
100
AcDbPoint
 10
604.9922238317549
 20
2028.53592539449
 30
0.0
  0
POINT
  5
126
330
35
100
AcDbEntity
  8
Defpoints
 62
     0
370
     0
390
1D
100
AcDbPoint
 10
604.9922238317549
 20
2268.53592539449
 30
0.0
  0
ENDBLK
  5
127
330
35
100
AcDbEntity
  8
notes
390
1D
100
AcDbBlockEnd
  0
BLOCK
  5
128
330
36
100
AcDbEntity
  8
notes
390
1D
100
AcDbBlockBegin
  2
*D21
 70
     1
 10
0.0
 20
0.0
 30
0.0
  3
*D21
  1
*D21
  0
LINE
  5
129
330
36
100
AcDbEntity
  8
0
  6
Continuous
 62
     0
370
    -2
390
1D
100
AcDbLine
 10
1099.993573781781
 20
-405.4640746055101
 30
0.0
 11
1099.993573781781
 21
168.5359253944899
 31
0.0
  0
LINE
  5
12A
330
36
100
AcDbEntity
  8
0
  6
Continuous
 62
     0
370
    -2
390
1D
100
AcDbLine
 10
604.9935737817814
 20
-41.46407460551013
 30
0.0
 11
604.9935737817814
 21
168.5359253944899
 31
0.0
  0
LINE
  5
12B
330
36
100
AcDbEntity
  8
0
  6
Continuous
 62
     0
370
    -2
390
1D
100
AcDbLine
 10
1099.993573781781
 20
168.5359253944899
 30
0.0
 11
604.9935737817814
 21
168.5359253944899
 31
0.0
  0
CIRCLE
  5
12C
102
{ACAD_REACTORS
330
12D
102
}
330
36
100
AcDbEntity
  8
0
  6
Continuous
 62
     0
370
    -2
390
1D
100
AcDbCircle
 10
1099.993573781781
 20
168.5359253944899
 30
0.0
 40
3.999755859375
  0
HATCH
  5
12D
330
36
100
AcDbEntity
  8
0
  6
Continuous
 62
     0
370
    -2
390
1D
100
AcDbHatch
 10
0.0
 20
0.0
 30
0.0
210
0.0
220
0.0
230
1.0
  2
SOLID
 70
     1
 71
     1
 91
        1
 92
        1
 93
        1
 72
     2
 10
1099.993573781781
 20
168.5359253944899
 40
3.999755859375
 50
0.0
 51
360.0
 73
     0
 97
        1
330
12C
 75
     0
 76
     1
 98
        1
 10
0.0
 20
0.0
  0
CIRCLE
  5
12E
102
{ACAD_REACTORS
330
12F
102
}
330
36
100
AcDbEntity
  8
0
  6
Continuous
 62
     0
370
    -2
390
1D
100
AcDbCircle
 10
604.9935737817814
 20
168.5359253944899
 30
0.0
 40
3.999755859375
  0
HATCH
  5
12F
330
36
100
AcDbEntity
  8
0
  6
Continuous
 62
     0
370
    -2
390
1D
100
AcDbHatch
 10
0.0
 20
0.0
 30
0.0
210
0.0
220
0.0
230
1.0
  2
SOLID
 70
     1
 71
     1
 91
        1
 92
        1
 93
        1
 72
     2
 10
604.9935737817814
 20
168.5359253944899
 40
3.999755859375
 50
0.0
 51
360.0
 73
     0
 97
        1
330
12E
 75
     0
 76
     1
 98
        1
 10
0.0
 20
0.0
  0
MTEXT
  5
130
330
36
100
AcDbEntity
  8
0
 62
     0
390
1D
100
AcDbMText
 10
804.8685704174303
 20
231.08217539449
 30
0.0
 40
43.65625
 41
0.0
 46
0.0
 71
     1
 72
     1
  1
495
  7
MS UI Gothic
 73
     1
 44
0.8762322015334064
  0
POINT
  5
131
330
36
100
AcDbEntity
  8
Defpoints
 62
     0
370
     0
390
1D
100
AcDbPoint
 10
604.9935737817814
 20
-91.46407460551012
 30
0.0
  0
POINT
  5
132
330
36
100
AcDbEntity
  8
Defpoints
 62
     0
370
     0
390
1D
100
AcDbPoint
 10
1099.993573781781
 20
-455.4640746055101
 30
0.0
  0
POINT
  5
133
330
36
100
AcDbEntity
  8
Defpoints
 62
     0
370
     0
390
1D
100
AcDbPoint
 10
1099.993573781781
 20
168.5359253944899
 30
0.0
  0
ENDBLK
  5
134
330
36
100
AcDbEntity
  8
notes
390
1D
100
AcDbBlockEnd
  0
BLOCK
  5
135
330
37
100
AcDbEntity
  8
notes
390
1D
100
AcDbBlockBegin
  2
*D22
 70
     1
 10
0.0
 20
0.0
 30
0.0
  3
*D22
  1
*D22
  0
LINE
  5
136
330
37
100
AcDbEntity
  8
0
  6
Continuous
 62
     0
370
    -2
390
1D
100
AcDbLine
 10
697.9902209757829
 20
-790.4640746055101
 30
0.0
 11
697.9902209757829
 21
-730.4640746055101
 31
0.0
  0
LINE
  5
137
330
37
100
AcDbEntity
  8
0
  6
Continuous
 62
     0
370
    -2
390
1D
100
AcDbLine
 10
604.9902209757829
 20
-790.4640746055101
 30
0.0
 11
604.9902209757829
 21
-730.4640746055101
 31
0.0
  0
LINE
  5
138
330
37
100
AcDbEntity
  8
0
  6
Continuous
 62
     0
370
    -2
390
1D
100
AcDbLine
 10
697.9902209757829
 20
-730.4640746055101
 30
0.0
 11
941.8444612659239
 21
-730.4640746055101
 31
0.0
  0
LINE
  5
139
330
37
100
AcDbEntity
  8
0
  6
Continuous
 62
     0
370
    -2
390
1D
100
AcDbLine
 10
697.9902209757829
 20
-730.4640746055101
 30
0.0
 11
604.9902209757829
 21
-730.4640746055101
 31
0.0
  0
CIRCLE
  5
13A
102
{ACAD_REACTORS
330
13B
102
}
330
37
100
AcDbEntity
  8
0
  6
Continuous
 62
     0
370
    -2
390
1D
100
AcDbCircle
 10
697.9902209757829
 20
-730.4640746055101
 30
0.0
 40
3.999755859375
  0
HATCH
  5
13B
330
37
100
AcDbEntity
  8
0
  6
Continuous
 62
     0
370
    -2
390
1D
100
AcDbHatch
 10
0.0
 20
0.0
 30
0.0
210
0.0
220
0.0
230
1.0
  2
SOLID
 70
     1
 71
     1
 91
        1
 92
        1
 93
        1
 72
     2
 10
697.9902209757829
 20
-730.4640746055101
 40
3.999755859375
 50
0.0
 51
360.0
 73
     0
 97
        1
330
13A
 75
     0
 76
     1
 98
        1
 10
0.0
 20
0.0
  0
CIRCLE
  5
13C
102
{ACAD_REACTORS
330
13D
102
}
330
37
100
AcDbEntity
  8
0
  6
Continuous
 62
     0
370
    -2
390
1D
100
AcDbCircle
 10
604.9902209757829
 20
-730.4640746055101
 30
0.0
 40
3.999755859375
  0
HATCH
  5
13D
330
37
100
AcDbEntity
  8
0
  6
Continuous
 62
     0
370
    -2
390
1D
100
AcDbHatch
 10
0.0
 20
0.0
 30
0.0
210
0.0
220
0.0
230
1.0
  2
SOLID
 70
     1
 71
     1
 91
        1
 92
        1
 93
        1
 72
     2
 10
604.9902209757829
 20
-730.4640746055101
 40
3.999755859375
 50
0.0
 51
360.0
 73
     0
 97
        1
330
13C
 75
     0
 76
     1
 98
        1
 10
0.0
 20
0.0
  0
MTEXT
  5
13E
330
37
100
AcDbEntity
  8
0
 62
     0
390
1D
100
AcDbMText
 10
744.9944505000004
 20
-667.9178246055101
 30
0.0
 40
43.65625
 41
0.0
 46
0.0
 71
     1
 72
     1
  1
93(※1)
  7
MS UI Gothic
 73
     1
 44
0.8762322015334064
  0
POINT
  5
13F
330
37
100
AcDbEntity
  8
Defpoints
 62
     0
370
     0
390
1D
100
AcDbPoint
 10
604.9902209757829
 20
-820.4640746055101
 30
0.0
  0
POINT
  5
140
330
37
100
AcDbEntity
  8
Defpoints
 62
     0
370
     0
390
1D
100
AcDbPoint
 10
697.9902209757829
 20
-836.3794079082649
 30
0.0
  0
POINT
  5
141
330
37
100
AcDbEntity
  8
Defpoints
 62
     0
370
     0
390
1D
100
AcDbPoint
 10
697.9902209757829
 20
-730.4640746055101
 30
0.0
  0
ENDBLK
  5
142
330
37
100
AcDbEntity
  8
notes
390
1D
100
AcDbBlockEnd
  0
ENDSEC
  0
SECTION
  2
ENTITIES
  0
MTEXT
  5
143
330
A
100
AcDbEntity
  8
template
 62
     7
390
1D
100
AcDbMText
 10
-1935.999999999518
 20
-2294.829843750001
 30
0.0
 40
32.57682291666666
 41
0.0
 46
0.0
 71
     1
 72
     1
  1
品名
  7
ＭＳ ゴシック
 73
     1
 44
0.7828267384257843
  0
MTEXT
  5
144
330
A
100
AcDbEntity
  8
template
 62
     7
390
1D
100
AcDbMText
 10
-1935.999999999518
 20
-2464.829843750001
 30
0.0
 40
32.57682291666666
 41
0.0
 46
0.0
 71
     1
 72
     1
  1
仕様
  7
ＭＳ ゴシック
 73
     1
 44
0.7828267384257843
  0
MTEXT
  5
145
330
A
100
AcDbEntity
  8
template
 62
     7
390
1D
100
AcDbMText
 10
-1829.999999999518
 20
-2351.994765625001
 30
0.0
 40
48.86523437500001
 41
0.0
 46
0.0
 71
     1
 72
     1
  1
鋼板ホーローバス -KALDEWEI,Duo Pool-
  7
ＭＳ ゴシック
 73
     1
 44
0.7828267384257843
  0
LINE
  5
146
330
A
100
AcDbEntity
  8
template
  6
Continuous
 62
     7
370
     5
390
1D
100
AcDbLine
 10
1949.999999999518
 20
-2448.000000000001
 30
0.0
 11
-1950.000000000482
 21
-2448.000000000001
 31
0.0
  0
LWPOLYLINE
  5
147
330
A
100
AcDbEntity
  8
template
  6
Continuous
 62
     7
370
     5
390
1D
100
AcDbPolyline
 90
        5
 70
   128
 43
0.0
 10
1950.000000000482
 20
2811.999999999999
 10
-1949.999999999518
 20
2811.999999999999
 10
-1949.999999999518
 20
-2788.000000000001
 10
1950.000000000482
 20
-2788.000000000001
 10
1950.000000000482
 20
2811.999999999999
  0
LINE
  5
148
330
A
100
AcDbEntity
  8
template
  6
Continuous
 62
     7
370
     5
390
1D
100
AcDbLine
 10
1949.999999999518
 20
-2278.000000000001
 30
0.0
 11
-1950.000000000482
 21
-2278.000000000001
 31
0.0
  0
LINE
  5
149
330
A
100
AcDbEntity
  8
template
  6
Continuous
 62
     7
370
     5
390
1D
100
AcDbLine
 10
1950.000000000482
 20
-2618.000000000001
 30
0.0
 11
444.0000000004825
 21
-2618.000000000001
 31
0.0
  0
MTEXT
  5
14A
330
A
100
AcDbEntity
  8
template
 62
     7
390
1D
100
AcDbMText
 10
-1829.999999999518
 20
-2521.994765625001
 30
0.0
 40
48.86523437500001
 41
0.0
 46
0.0
 71
     1
 72
     1
  1
エプロン付き/アンチスリップ,イージークリーンフィニッシュ付き/\Pバス用ポップアップ排水金具,専用設置用脚付属,\Pエプロン部ポリウレタ ン樹脂（フロント）/ホワイト
  7
ＭＳ ゴシック
 73
     1
 44
1.130749733281688
  0
MTEXT
  5
14B
330
A
100
AcDbEntity
  8
template
 62
     7
390
1D
100
AcDbMText
 10
-1949.999999999112
 20
-2811.707644113715
 30
0.0
 40
43.43576388888889
 41
0.0
 46
0.0
 71
     1
 72
     1
  1
100706HH
  7
ＭＳ ゴシック
 73
     1
 44
0.7828267384257843
  0
MTEXT
  5
14C
330
A
100
AcDbEntity
  8
template
 62
     7
390
1D
100
AcDbMText
 10
503.7428125050018
 20
-2677.820788946616
 30
0.0
 40
48.86523437500001
 41
0.0
 46
0.0
 71
     1
 72
     1
  1
大洋金物株式会社 ティーフォルム事業部
  7
ＭＳ ゴシック
 73
     1
 44
0.7828267384257843
  0
INSERT
  5
14D
330
A
100
AcDbEntity
  8
template
 62
     7
390
1D
100
AcDbBlockReference
  2
グループ-1
 10
0.0
 20
0.0
 30
0.0
  0
MTEXT
  5
14E
330
A
100
AcDbEntity
  8
template
 62
     7
390
1D
100
AcDbMText
 10
1568.000000001
 20
-2521.994765625001
 30
0.0
 40
48.86523437500001
 41
0.0
 46
0.0
 71
     1
 72
     1
  1
1:20
  7
ＭＳ ゴシック
 73
     1
 44
0.7828267384257843
  0
MTEXT
  5
14F
330
A
100
AcDbEntity
  8
template
 62
     7
390
1D
100
AcDbMText
 10
1462.000000001
 20
-2464.829843750001
 30
0.0
 40
32.57682291666666
 41
0.0
 46
0.0
 71
     1
 72
     1
  1
縮尺
  7
ＭＳ ゴシック
 73
     1
 44
0.7828267384257843
  0
LINE
  5
150
330
A
100
AcDbEntity
  8
template
  6
Continuous
 62
     7
370
     5
390
1D
100
AcDbLine
 10
1448.000000001
 20
-2618.000000000001
 30
0.0
 11
1448.000000001
 21
-2448.000000000001
 31
0.0
  0
MTEXT
  5
151
330
A
100
AcDbEntity
  8
template
 62
     7
390
1D
100
AcDbMText
 10
960.000000001
 20
-2464.829843750001
 30
0.0
 40
32.57682291666666
 41
0.0
 46
0.0
 71
     1
 72
     1
  1
容量
  7
ＭＳ ゴシック
 73
     1
 44
0.7828267384257843
  0
MTEXT
  5
152
330
A
100
AcDbEntity
  8
template
 62
     7
390
1D
100
AcDbMText
 10
1066.000000001
 20
-2521.994765625001
 30
0.0
 40
48.86523437500001
 41
0.0
 46
0.0
 71
     1
 72
     1
  1
310L
  7
ＭＳ ゴシック
 73
     1
 44
0.7828267384257843
  0
LINE
  5
153
330
A
100
AcDbEntity
  8
template
  6
Continuous
 62
     7
370
     5
390
1D
100
AcDbLine
 10
946.000000001
 20
-2618.000000000001
 30
0.0
 11
946.000000001
 21
-2448.000000000001
 31
0.0
  0
MTEXT
  5
154
330
A
100
AcDbEntity
  8
template
 62
     7
390
1D
100
AcDbMText
 10
458.000000001
 20
-2294.829843750001
 30
0.0
 40
32.57682291666666
 41
0.0
 46
0.0
 71
     1
 72
     1
  1
品番
  7
ＭＳ ゴシック
 73
     1
 44
0.7828267384257843
  0
MTEXT
  5
155
330
A
100
AcDbEntity
  8
template
 62
     7
390
1D
100
AcDbMText
 10
458.000000001
 20
-2464.829843750001
 30
0.0
 40
32.57682291666666
 41
0.0
 46
0.0
 71
     1
 72
     1
  1
重量
  7
ＭＳ ゴシック
 73
     1
 44
0.7828267384257843
  0
MTEXT
  5
156
330
A
100
AcDbEntity
  8
template
 62
     7
390
1D
100
AcDbMText
 10
564.000000001
 20
-2351.994765625001
 30
0.0
 40
48.86523437500001
 41
0.0
 46
0.0
 71
     1
 72
     1
  1
FLN72-0503
  7
ＭＳ ゴシック
 73
     1
 44
0.7828267384257843
  0
MTEXT
  5
157
330
A
100
AcDbEntity
  8
template
 62
     7
390
1D
100
AcDbMText
 10
564.000000001
 20
-2521.994765625001
 30
0.0
 40
48.86523437500001
 41
0.0
 46
0.0
 71
     1
 72
     1
  1
54kg
  7
ＭＳ ゴシック
 73
     1
 44
0.7828267384257843
  0
LINE
  5
158
330
A
100
AcDbEntity
  8
template
  6
Continuous
 62
     7
370
     5
390
1D
100
AcDbLine
 10
444.000000001
 20
-2788.000000000001
 30
0.0
 11
444.000000001
 21
-2278.000000000001
 31
0.0
  0
MTEXT
  5
159
330
A
100
AcDbEntity
  8
template
 62
     7
390
1D
100
AcDbMText
 10
570.3318616337264
 20
-2464.829843750001
 30
0.0
 40
32.57682291666666
 41
0.0
 46
0.0
 71
     1
 72
     1
  1
(エプロン部除く)
  7
ＭＳ ゴシック
 73
     1
 44
0.7828267384257843
  0
LINE
  5
15A
330
A
100
AcDbEntity
  8
FLN72-0503
  6
Continuous
 62
     7
370
    15
390
1D
100
AcDbLine
 10
-494.0614367424359
 20
-857.4640746055101
 30
0.0
 11
-494.0614367424359
 21
-805.4640746055101
 31
0.0
  0
LINE
  5
15B
330
A
100
AcDbEntity
  8
FLN72-0503
  6
Continuous
 62
     7
370
    15
390
1D
100
AcDbLine
 10
-1425.010655742436
 20
-1558.46407460551
 30
0.0
 11
-1425.010655742436
 21
-104.4640746055101
 31
0.0
  0
LINE
  5
15C
330
A
100
AcDbEntity
  8
FLN72-0503
  6
Continuous
 62
     7
370
    15
390
1D
100
AcDbLine
 10
-1402.010655742436
 20
-81.46407460551006
 30
0.0
 11
-648.010655742436
 21
-81.46407460551006
 31
0.0
  0
LINE
  5
15D
330
A
100
AcDbEntity
  8
FLN72-0503
  6
Continuous
 62
     7
370
    15
390
1D
100
AcDbLine
 10
-1365.010655742436
 20
-1161.46407460551
 30
0.0
 11
-1365.010655742436
 21
-501.4640746055101
 31
0.0
  0
LINE
  5
15E
330
A
100
AcDbEntity
  8
FLN72-0503
  6
Continuous
 62
     7
370
    15
390
1D
100
AcDbLine
 10
-648.010655742436
 20
-1581.46407460551
 30
0.0
 11
-1402.010655742436
 21
-1581.46407460551
 31
0.0
  0
ARC
  5
15F
330
A
100
AcDbEntity
  8
FLN72-0503
  6
Continuous
 62
     7
370
    15
390
1D
100
AcDbCircle
 10
-1402.010655742436
 20
-1558.46407460551
 30
0.0
 40
22.99999800000023
100
AcDbArc
 50
180.0
 51
270.0
  0
ARC
  5
160
330
A
100
AcDbEntity
  8
FLN72-0503
  6
Continuous
 62
     7
370
    15
390
1D
100
AcDbCircle
 10
-1402.010655742436
 20
-104.4640746055101
 30
0.0
 40
22.99999800000001
100
AcDbArc
 50
90.0
 51
180.0
  0
ARC
  5
161
330
A
100
AcDbEntity
  8
FLN72-0503
  6
Continuous
 62
     7
370
    15
390
1D
100
AcDbCircle
 10
-1275.010655742436
 20
-831.4640746055101
 30
0.0
 40
849.9999999999999
100
AcDbArc
 50
329.5457309999999
 51
30.45425399999993
  0
ARC
  5
162
330
A
100
AcDbEntity
  8
FLN72-0503
  6
Continuous
 62
     7
370
    15
390
1D
100
AcDbCircle
 10
-1265.323155742436
 20
-831.46407460551
 30
0.0
 40
780.3123780000002
100
AcDbArc
 50
308.267288
 51
51.73269699999992
  0
ARC
  5
163
330
A
100
AcDbEntity
  8
FLN72-0503
  6
Continuous
 62
     7
370
    15
390
1D
100
AcDbCircle
 10
-648.010655742436
 20
-1558.46407460551
 30
0.0
 40
22.99999799999978
100
AcDbArc
 50
270.0
 51
359.2701420000001
  0
ARC
  5
164
330
A
100
AcDbEntity
  8
FLN72-0503
  6
Continuous
 62
     7
370
    15
390
1D
100
AcDbCircle
 10
-25.06143674243594
 20
-1566.39669160551
 30
0.0
 40
600.0
100
AcDbArc
 50
149.545746
 51
179.270447
  0
ARC
  5
165
330
A
100
AcDbEntity
  8
FLN72-0503
  6
Continuous
 62
     7
370
    15
390
1D
100
AcDbCircle
 10
-648.010655742436
 20
-104.4640746055101
 30
0.0
 40
22.99999799999977
100
AcDbArc
 50
0.72982799999988
 51
90.0
  0
ARC
  5
166
330
A
100
AcDbEntity
  8
FLN72-0503
  6
Continuous
 62
     7
370
    15
390
1D
100
AcDbCircle
 10
-25.06143674243594
 20
-96.53145760551013
 30
0.0
 40
599.9999999999998
100
AcDbArc
 50
180.729553
 51
210.454262
  0
CIRCLE
  5
167
330
A
100
AcDbEntity
  8
FLN72-0503
  6
Continuous
 62
     7
370
    15
390
1D
100
AcDbCircle
 10
-715.010655742436
 20
-831.4640746055101
 30
0.0
 40
26.0
  0
POLYLINE
  5
168
330
A
100
AcDbEntity
  8
FLN72-0503
  6
Continuous
 62
     7
370
    15
390
1D
100
AcDb2dPolyline
 66
     1
 10
0.0
 20
0.0
 30
0.0
 75
     5
  0
VERTEX
  5
169
330
168
100
AcDbEntity
  8
FLN72-0503
  6
Continuous
 62
     7
370
    15
390
1D
100
AcDbVertex
100
AcDb2dVertex
 10
-494.0614367424359
 20
-805.4640746055101
 30
0.0
  0
VERTEX
  5
16A
330
168
100
AcDbEntity
  8
FLN72-0503
  6
Continuous
 62
     7
370
    15
390
1D
100
AcDbVertex
100
AcDb2dVertex
 10
-494.3348737424367
 20
-805.5158326055101
 30
0.0
  0
VERTEX
  5
16B
330
168
100
AcDbEntity
  8
FLN72-0503
  6
Continuous
 62
     7
370
    15
390
1D
100
AcDbVertex
100
AcDb2dVertex
 10
-494.606358742436
 20
-805.66915260551
 30
0.0
  0
VERTEX
  5
16C
330
168
100
AcDbEntity
  8
FLN72-0503
  6
Continuous
 62
     7
370
    15
390
1D
100
AcDbVertex
100
AcDb2dVertex
 10
-494.8758897424359
 20
-805.92501260551
 30
0.0
  0
VERTEX
  5
16D
330
168
100
AcDbEntity
  8
FLN72-0503
  6
Continuous
 62
     7
370
    15
390
1D
100
AcDbVertex
100
AcDb2dVertex
 10
-495.1434677424368
 20
-806.28048060551
 30
0.0
  0
VERTEX
  5
16E
330
168
100
AcDbEntity
  8
FLN72-0503
  6
Continuous
 62
     7
370
    15
390
1D
100
AcDbVertex
100
AcDb2dVertex
 10
-495.4071397424359
 20
-806.7365356055101
 30
0.0
  0
VERTEX
  5
16F
330
168
100
AcDbEntity
  8
FLN72-0503
  6
Continuous
 62
     7
370
    15
390
1D
100
AcDbVertex
100
AcDb2dVertex
 10
-495.6629987424367
 20
-807.2902466055101
 30
0.0
  0
VERTEX
  5
170
330
168
100
AcDbEntity
  8
FLN72-0503
  6
Continuous
 62
     7
370
    15
390
1D
100
AcDbVertex
100
AcDb2dVertex
 10
-495.9149527424361
 20
-807.93868460551
 30
0.0
  0
VERTEX
  5
171
330
168
100
AcDbEntity
  8
FLN72-0503
  6
Continuous
 62
     7
370
    15
390
1D
100
AcDbVertex
100
AcDb2dVertex
 10
-496.1590927424368
 20
-808.6798956055101
 30
0.0
  0
VERTEX
  5
172
330
168
100
AcDbEntity
  8
FLN72-0503
  6
Continuous
 62
     7
370
    15
390
1D
100
AcDbVertex
100
AcDb2dVertex
 10
-496.3934677424368
 20
-809.51192660551
 30
0.0
  0
VERTEX
  5
173
330
168
100
AcDbEntity
  8
FLN72-0503
  6
Continuous
 62
     7
370
    15
390
1D
100
AcDbVertex
100
AcDb2dVertex
 10
-496.620030742436
 20
-810.4298956055101
 30
0.0
  0
VERTEX
  5
174
330
168
100
AcDbEntity
  8
FLN72-0503
  6
Continuous
 62
     7
370
    15
390
1D
100
AcDbVertex
100
AcDb2dVertex
 10
-496.8368277424361
 20
-811.4308716055101
 30
0.0
  0
VERTEX
  5
175
330
168
100
AcDbEntity
  8
FLN72-0503
  6
Continuous
 62
     7
370
    15
390
1D
100
AcDbVertex
100
AcDb2dVertex
 10
-497.041905742436
 20
-812.5109496055101
 30
0.0
  0
VERTEX
  5
176
330
168
100
AcDbEntity
  8
FLN72-0503
  6
Continuous
 62
     7
370
    15
390
1D
100
AcDbVertex
100
AcDb2dVertex
 10
-497.2352647424359
 20
-813.66622360551
 30
0.0
  0
VERTEX
  5
177
330
168
100
AcDbEntity
  8
FLN72-0503
  6
Continuous
 62
     7
370
    15
390
1D
100
AcDbVertex
100
AcDb2dVertex
 10
-497.416905742436
 20
-814.8908326055101
 30
0.0
  0
VERTEX
  5
178
330
168
100
AcDbEntity
  8
FLN72-0503
  6
Continuous
 62
     7
370
    15
390
1D
100
AcDbVertex
100
AcDb2dVertex
 10
-497.5848737424367
 20
-816.18184860551
 30
0.0
  0
VERTEX
  5
179
330
168
100
AcDbEntity
  8
FLN72-0503
  6
Continuous
 62
     7
370
    15
390
1D
100
AcDbVertex
100
AcDb2dVertex
 10
-497.7372177424368
 20
-817.53243460551
 30
0.0
  0
VERTEX
  5
17A
330
168
100
AcDbEntity
  8
FLN72-0503
  6
Continuous
 62
     7
370
    15
390
1D
100
AcDbVertex
100
AcDb2dVertex
 10
-497.8778427424368
 20
-818.93868460551
 30
0.0
  0
VERTEX
  5
17B
330
168
100
AcDbEntity
  8
FLN72-0503
  6
Continuous
 62
     7
370
    15
390
1D
100
AcDbVertex
100
AcDb2dVertex
 10
-498.0008897424359
 20
-820.39376260551
 30
0.0
  0
VERTEX
  5
17C
330
168
100
AcDbEntity
  8
FLN72-0503
  6
Continuous
 62
     7
370
    15
390
1D
100
AcDbVertex
100
AcDb2dVertex
 10
-498.1102647424359
 20
-821.8927856055101
 30
0.0
  0
VERTEX
  5
17D
330
168
100
AcDbEntity
  8
FLN72-0503
  6
Continuous
 62
     7
370
    15
390
1D
100
AcDbVertex
100
AcDb2dVertex
 10
-498.2020617424359
 20
-823.4298956055101
 30
0.0
  0
VERTEX
  5
17E
330
168
100
AcDbEntity
  8
FLN72-0503
  6
Continuous
 62
     7
370
    15
390
1D
100
AcDbVertex
100
AcDb2dVertex
 10
-498.278233742436
 20
-824.9982546055102
 30
0.0
  0
VERTEX
  5
17F
330
168
100
AcDbEntity
  8
FLN72-0503
  6
Continuous
 62
     7
370
    15
390
1D
100
AcDbVertex
100
AcDb2dVertex
 10
-498.338780742436
 20
-826.5920046055102
 30
0.0
  0
VERTEX
  5
180
330
168
100
AcDbEntity
  8
FLN72-0503
  6
Continuous
 62
     7
370
    15
390
1D
100
AcDbVertex
100
AcDb2dVertex
 10
-498.3817487424367
 20
-828.2052856055101
 30
0.0
  0
VERTEX
  5
181
330
168
100
AcDbEntity
  8
FLN72-0503
  6
Continuous
 62
     7
370
    15
390
1D
100
AcDbVertex
100
AcDb2dVertex
 10
-498.4071397424359
 20
-829.83126260551
 30
0.0
  0
VERTEX
  5
182
330
168
100
AcDbEntity
  8
FLN72-0503
  6
Continuous
 62
     7
370
    15
390
1D
100
AcDbVertex
100
AcDb2dVertex
 10
-498.4149527424361
 20
-831.4640746055101
 30
0.0
  0
VERTEX
  5
183
330
168
100
AcDbEntity
  8
FLN72-0503
  6
Continuous
 62
     7
370
    15
390
1D
100
AcDbVertex
100
AcDb2dVertex
 10
-498.4071397424359
 20
-833.09688760551
 30
0.0
  0
VERTEX
  5
184
330
168
100
AcDbEntity
  8
FLN72-0503
  6
Continuous
 62
     7
370
    15
390
1D
100
AcDbVertex
100
AcDb2dVertex
 10
-498.3817487424367
 20
-834.72286360551
 30
0.0
  0
VERTEX
  5
185
330
168
100
AcDbEntity
  8
FLN72-0503
  6
Continuous
 62
     7
370
    15
390
1D
100
AcDbVertex
100
AcDb2dVertex
 10
-498.338780742436
 20
-836.3361456055101
 30
0.0
  0
VERTEX
  5
186
330
168
100
AcDbEntity
  8
FLN72-0503
  6
Continuous
 62
     7
370
    15
390
1D
100
AcDbVertex
100
AcDb2dVertex
 10
-498.278233742436
 20
-837.9298956055101
 30
0.0
  0
VERTEX
  5
187
330
168
100
AcDbEntity
  8
FLN72-0503
  6
Continuous
 62
     7
370
    15
390
1D
100
AcDbVertex
100
AcDb2dVertex
 10
-498.2020617424359
 20
-839.4982546055102
 30
0.0
  0
VERTEX
  5
188
330
168
100
AcDbEntity
  8
FLN72-0503
  6
Continuous
 62
     7
370
    15
390
1D
100
AcDbVertex
100
AcDb2dVertex
 10
-498.1102647424359
 20
-841.03536360551
 30
0.0
  0
VERTEX
  5
189
330
168
100
AcDbEntity
  8
FLN72-0503
  6
Continuous
 62
     7
370
    15
390
1D
100
AcDbVertex
100
AcDb2dVertex
 10
-498.0008897424359
 20
-842.53438760551
 30
0.0
  0
VERTEX
  5
18A
330
168
100
AcDbEntity
  8
FLN72-0503
  6
Continuous
 62
     7
370
    15
390
1D
100
AcDbVertex
100
AcDb2dVertex
 10
-497.8778427424368
 20
-843.9894656055102
 30
0.0
  0
VERTEX
  5
18B
330
168
100
AcDbEntity
  8
FLN72-0503
  6
Continuous
 62
     7
370
    15
390
1D
100
AcDbVertex
100
AcDb2dVertex
 10
-497.7372177424368
 20
-845.3957156055102
 30
0.0
  0
VERTEX
  5
18C
330
168
100
AcDbEntity
  8
FLN72-0503
  6
Continuous
 62
     7
370
    15
390
1D
100
AcDbVertex
100
AcDb2dVertex
 10
-497.5848737424367
 20
-846.74630160551
 30
0.0
  0
VERTEX
  5
18D
330
168
100
AcDbEntity
  8
FLN72-0503
  6
Continuous
 62
     7
370
    15
390
1D
100
AcDbVertex
100
AcDb2dVertex
 10
-497.416905742436
 20
-848.03731660551
 30
0.0
  0
VERTEX
  5
18E
330
168
100
AcDbEntity
  8
FLN72-0503
  6
Continuous
 62
     7
370
    15
390
1D
100
AcDbVertex
100
AcDb2dVertex
 10
-497.2352647424359
 20
-849.26192660551
 30
0.0
  0
VERTEX
  5
18F
330
168
100
AcDbEntity
  8
FLN72-0503
  6
Continuous
 62
     7
370
    15
390
1D
100
AcDbVertex
100
AcDb2dVertex
 10
-497.041905742436
 20
-850.4171996055101
 30
0.0
  0
VERTEX
  5
190
330
168
100
AcDbEntity
  8
FLN72-0503
  6
Continuous
 62
     7
370
    15
390
1D
100
AcDbVertex
100
AcDb2dVertex
 10
-496.8368277424361
 20
-851.49727760551
 30
0.0
  0
VERTEX
  5
191
330
168
100
AcDbEntity
  8
FLN72-0503
  6
Continuous
 62
     7
370
    15
390
1D
100
AcDbVertex
100
AcDb2dVertex
 10
-496.620030742436
 20
-852.4982546055102
 30
0.0
  0
VERTEX
  5
192
330
168
100
AcDbEntity
  8
FLN72-0503
  6
Continuous
 62
     7
370
    15
390
1D
100
AcDbVertex
100
AcDb2dVertex
 10
-496.3934677424368
 20
-853.41622360551
 30
0.0
  0
VERTEX
  5
193
330
168
100
AcDbEntity
  8
FLN72-0503
  6
Continuous
 62
     7
370
    15
390
1D
100
AcDbVertex
100
AcDb2dVertex
 10
-496.1590927424368
 20
-854.2482546055102
 30
0.0
  0
VERTEX
  5
194
330
168
100
AcDbEntity
  8
FLN72-0503
  6
Continuous
 62
     7
370
    15
390
1D
100
AcDbVertex
100
AcDb2dVertex
 10
-495.9149527424361
 20
-854.9894656055102
 30
0.0
  0
VERTEX
  5
195
330
168
100
AcDbEntity
  8
FLN72-0503
  6
Continuous
 62
     7
370
    15
390
1D
100
AcDbVertex
100
AcDb2dVertex
 10
-495.6629987424367
 20
-855.63790260551
 30
0.0
  0
VERTEX
  5
196
330
168
100
AcDbEntity
  8
FLN72-0503
  6
Continuous
 62
     7
370
    15
390
1D
100
AcDbVertex
100
AcDb2dVertex
 10
-495.4071397424359
 20
-856.19161360551
 30
0.0
  0
VERTEX
  5
197
330
168
100
AcDbEntity
  8
FLN72-0503
  6
Continuous
 62
     7
370
    15
390
1D
100
AcDbVertex
100
AcDb2dVertex
 10
-495.1434677424368
 20
-856.6476686055101
 30
0.0
  0
VERTEX
  5
198
330
168
100
AcDbEntity
  8
FLN72-0503
  6
Continuous
 62
     7
370
    15
390
1D
100
AcDbVertex
100
AcDb2dVertex
 10
-494.8758897424359
 20
-857.00313760551
 30
0.0
  0
SEQEND
  5
199
330
168
100
AcDbEntity
  8
FLN72-0503
  6
Continuous
 62
     7
370
    15
390
1D
  0
POLYLINE
  5
19A
330
A
100
AcDbEntity
  8
FLN72-0503
  6
Continuous
 62
     7
370
    15
390
1D
100
AcDb2dPolyline
 66
     1
 10
0.0
 20
0.0
 30
0.0
 75
     5
  0
VERTEX
  5
19B
330
19A
100
AcDbEntity
  8
FLN72-0503
  6
Continuous
 62
     7
370
    15
390
1D
100
AcDbVertex
100
AcDb2dVertex
 10
-494.8758897424359
 20
-857.00313760551
 30
0.0
  0
VERTEX
  5
19C
330
19A
100
AcDbEntity
  8
FLN72-0503
  6
Continuous
 62
     7
370
    15
390
1D
100
AcDbVertex
100
AcDb2dVertex
 10
-494.606358742436
 20
-857.2589966055101
 30
0.0
  0
VERTEX
  5
19D
330
19A
100
AcDbEntity
  8
FLN72-0503
  6
Continuous
 62
     7
370
    15
390
1D
100
AcDbVertex
100
AcDb2dVertex
 10
-494.3348737424367
 20
-857.41231660551
 30
0.0
  0
VERTEX
  5
19E
330
19A
100
AcDbEntity
  8
FLN72-0503
  6
Continuous
 62
     7
370
    15
390
1D
100
AcDbVertex
100
AcDb2dVertex
 10
-494.0614367424359
 20
-857.4640746055101
 30
0.0
  0
VERTEX
  5
19F
330
19A
100
AcDbEntity
  8
FLN72-0503
  6
Continuous
 62
     7
370
    15
390
1D
100
AcDbVertex
100
AcDb2dVertex
 10
-493.7860457424367
 20
-857.41231660551
 30
0.0
  0
VERTEX
  5
1A0
330
19A
100
AcDbEntity
  8
FLN72-0503
  6
Continuous
 62
     7
370
    15
390
1D
100
AcDbVertex
100
AcDb2dVertex
 10
-493.5145617424359
 20
-857.2589966055101
 30
0.0
  0
VERTEX
  5
1A1
330
19A
100
AcDbEntity
  8
FLN72-0503
  6
Continuous
 62
     7
370
    15
390
1D
100
AcDbVertex
100
AcDb2dVertex
 10
-493.245030742436
 20
-857.00313760551
 30
0.0
  0
VERTEX
  5
1A2
330
19A
100
AcDbEntity
  8
FLN72-0503
  6
Continuous
 62
     7
370
    15
390
1D
100
AcDbVertex
100
AcDb2dVertex
 10
-492.9774527424361
 20
-856.6476686055101
 30
0.0
  0
VERTEX
  5
1A3
330
19A
100
AcDbEntity
  8
FLN72-0503
  6
Continuous
 62
     7
370
    15
390
1D
100
AcDbVertex
100
AcDb2dVertex
 10
-492.715733742436
 20
-856.19161360551
 30
0.0
  0
VERTEX
  5
1A4
330
19A
100
AcDbEntity
  8
FLN72-0503
  6
Continuous
 62
     7
370
    15
390
1D
100
AcDbVertex
100
AcDb2dVertex
 10
-492.4579207424367
 20
-855.63790260551
 30
0.0
  0
VERTEX
  5
1A5
330
19A
100
AcDbEntity
  8
FLN72-0503
  6
Continuous
 62
     7
370
    15
390
1D
100
AcDbVertex
100
AcDb2dVertex
 10
-492.2059677424368
 20
-854.9894656055102
 30
0.0
  0
VERTEX
  5
1A6
330
19A
100
AcDbEntity
  8
FLN72-0503
  6
Continuous
 62
     7
370
    15
390
1D
100
AcDbVertex
100
AcDb2dVertex
 10
-491.9618277424361
 20
-854.2482546055102
 30
0.0
  0
VERTEX
  5
1A7
330
19A
100
AcDbEntity
  8
FLN72-0503
  6
Continuous
 62
     7
370
    15
390
1D
100
AcDbVertex
100
AcDb2dVertex
 10
-491.7274527424361
 20
-853.41622360551
 30
0.0
  0
VERTEX
  5
1A8
330
19A
100
AcDbEntity
  8
FLN72-0503
  6
Continuous
 62
     7
370
    15
390
1D
100
AcDbVertex
100
AcDb2dVertex
 10
-491.5008897424359
 20
-852.4982546055102
 30
0.0
  0
VERTEX
  5
1A9
330
19A
100
AcDbEntity
  8
FLN72-0503
  6
Continuous
 62
     7
370
    15
390
1D
100
AcDbVertex
100
AcDb2dVertex
 10
-491.2840927424368
 20
-851.49727760551
 30
0.0
  0
VERTEX
  5
1AA
330
19A
100
AcDbEntity
  8
FLN72-0503
  6
Continuous
 62
     7
370
    15
390
1D
100
AcDbVertex
100
AcDb2dVertex
 10
-491.0790147424359
 20
-850.4171996055101
 30
0.0
  0
VERTEX
  5
1AB
330
19A
100
AcDbEntity
  8
FLN72-0503
  6
Continuous
 62
     7
370
    15
390
1D
100
AcDbVertex
100
AcDb2dVertex
 10
-490.885655742436
 20
-849.26192660551
 30
0.0
  0
VERTEX
  5
1AC
330
19A
100
AcDbEntity
  8
FLN72-0503
  6
Continuous
 62
     7
370
    15
390
1D
100
AcDbVertex
100
AcDb2dVertex
 10
-490.7059677424368
 20
-848.03731660551
 30
0.0
  0
VERTEX
  5
1AD
330
19A
100
AcDbEntity
  8
FLN72-0503
  6
Continuous
 62
     7
370
    15
390
1D
100
AcDbVertex
100
AcDb2dVertex
 10
-490.5379987424367
 20
-846.74630160551
 30
0.0
  0
VERTEX
  5
1AE
330
19A
100
AcDbEntity
  8
FLN72-0503
  6
Continuous
 62
     7
370
    15
390
1D
100
AcDbVertex
100
AcDb2dVertex
 10
-490.3837027424361
 20
-845.3957156055102
 30
0.0
  0
VERTEX
  5
1AF
330
19A
100
AcDbEntity
  8
FLN72-0503
  6
Continuous
 62
     7
370
    15
390
1D
100
AcDbVertex
100
AcDb2dVertex
 10
-490.245030742436
 20
-843.9894656055102
 30
0.0
  0
VERTEX
  5
1B0
330
19A
100
AcDbEntity
  8
FLN72-0503
  6
Continuous
 62
     7
370
    15
390
1D
100
AcDbVertex
100
AcDb2dVertex
 10
-490.120030742436
 20
-842.53438760551
 30
0.0
  0
VERTEX
  5
1B1
330
19A
100
AcDbEntity
  8
FLN72-0503
  6
Continuous
 62
     7
370
    15
390
1D
100
AcDbVertex
100
AcDb2dVertex
 10
-490.010655742436
 20
-841.03536360551
 30
0.0
  0
VERTEX
  5
1B2
330
19A
100
AcDbEntity
  8
FLN72-0503
  6
Continuous
 62
     7
370
    15
390
1D
100
AcDbVertex
100
AcDb2dVertex
 10
-489.918858742436
 20
-839.4982546055102
 30
0.0
  0
VERTEX
  5
1B3
330
19A
100
AcDbEntity
  8
FLN72-0503
  6
Continuous
 62
     7
370
    15
390
1D
100
AcDbVertex
100
AcDb2dVertex
 10
-489.8426867424359
 20
-837.9298956055101
 30
0.0
  0
VERTEX
  5
1B4
330
19A
100
AcDbEntity
  8
FLN72-0503
  6
Continuous
 62
     7
370
    15
390
1D
100
AcDbVertex
100
AcDb2dVertex
 10
-489.7821397424359
 20
-836.3361456055101
 30
0.0
  0
VERTEX
  5
1B5
330
19A
100
AcDbEntity
  8
FLN72-0503
  6
Continuous
 62
     7
370
    15
390
1D
100
AcDbVertex
100
AcDb2dVertex
 10
-489.7391707424367
 20
-834.72286360551
 30
0.0
  0
VERTEX
  5
1B6
330
19A
100
AcDbEntity
  8
FLN72-0503
  6
Continuous
 62
     7
370
    15
390
1D
100
AcDbVertex
100
AcDb2dVertex
 10
-489.713780742436
 20
-833.09688760551
 30
0.0
  0
VERTEX
  5
1B7
330
19A
100
AcDbEntity
  8
FLN72-0503
  6
Continuous
 62
     7
370
    15
390
1D
100
AcDbVertex
100
AcDb2dVertex
 10
-489.7059677424368
 20
-831.4640746055101
 30
0.0
  0
VERTEX
  5
1B8
330
19A
100
AcDbEntity
  8
FLN72-0503
  6
Continuous
 62
     7
370
    15
390
1D
100
AcDbVertex
100
AcDb2dVertex
 10
-489.713780742436
 20
-829.83126260551
 30
0.0
  0
VERTEX
  5
1B9
330
19A
100
AcDbEntity
  8
FLN72-0503
  6
Continuous
 62
     7
370
    15
390
1D
100
AcDbVertex
100
AcDb2dVertex
 10
-489.7391707424367
 20
-828.2052856055101
 30
0.0
  0
VERTEX
  5
1BA
330
19A
100
AcDbEntity
  8
FLN72-0503
  6
Continuous
 62
     7
370
    15
390
1D
100
AcDbVertex
100
AcDb2dVertex
 10
-489.7821397424359
 20
-826.5920046055102
 30
0.0
  0
VERTEX
  5
1BB
330
19A
100
AcDbEntity
  8
FLN72-0503
  6
Continuous
 62
     7
370
    15
390
1D
100
AcDbVertex
100
AcDb2dVertex
 10
-489.8426867424359
 20
-824.9982546055102
 30
0.0
  0
VERTEX
  5
1BC
330
19A
100
AcDbEntity
  8
FLN72-0503
  6
Continuous
 62
     7
370
    15
390
1D
100
AcDbVertex
100
AcDb2dVertex
 10
-489.918858742436
 20
-823.4298956055101
 30
0.0
  0
VERTEX
  5
1BD
330
19A
100
AcDbEntity
  8
FLN72-0503
  6
Continuous
 62
     7
370
    15
390
1D
100
AcDbVertex
100
AcDb2dVertex
 10
-490.010655742436
 20
-821.8927856055101
 30
0.0
  0
VERTEX
  5
1BE
330
19A
100
AcDbEntity
  8
FLN72-0503
  6
Continuous
 62
     7
370
    15
390
1D
100
AcDbVertex
100
AcDb2dVertex
 10
-490.120030742436
 20
-820.39376260551
 30
0.0
  0
VERTEX
  5
1BF
330
19A
100
AcDbEntity
  8
FLN72-0503
  6
Continuous
 62
     7
370
    15
390
1D
100
AcDbVertex
100
AcDb2dVertex
 10
-490.245030742436
 20
-818.93868460551
 30
0.0
  0
VERTEX
  5
1C0
330
19A
100
AcDbEntity
  8
FLN72-0503
  6
Continuous
 62
     7
370
    15
390
1D
100
AcDbVertex
100
AcDb2dVertex
 10
-490.3837027424361
 20
-817.53243460551
 30
0.0
  0
VERTEX
  5
1C1
330
19A
100
AcDbEntity
  8
FLN72-0503
  6
Continuous
 62
     7
370
    15
390
1D
100
AcDbVertex
100
AcDb2dVertex
 10
-490.5379987424367
 20
-816.18184860551
 30
0.0
  0
VERTEX
  5
1C2
330
19A
100
AcDbEntity
  8
FLN72-0503
  6
Continuous
 62
     7
370
    15
390
1D
100
AcDbVertex
100
AcDb2dVertex
 10
-490.7059677424368
 20
-814.8908326055101
 30
0.0
  0
VERTEX
  5
1C3
330
19A
100
AcDbEntity
  8
FLN72-0503
  6
Continuous
 62
     7
370
    15
390
1D
100
AcDbVertex
100
AcDb2dVertex
 10
-490.885655742436
 20
-813.66622360551
 30
0.0
  0
VERTEX
  5
1C4
330
19A
100
AcDbEntity
  8
FLN72-0503
  6
Continuous
 62
     7
370
    15
390
1D
100
AcDbVertex
100
AcDb2dVertex
 10
-491.0790147424359
 20
-812.5109496055101
 30
0.0
  0
VERTEX
  5
1C5
330
19A
100
AcDbEntity
  8
FLN72-0503
  6
Continuous
 62
     7
370
    15
390
1D
100
AcDbVertex
100
AcDb2dVertex
 10
-491.2840927424368
 20
-811.4308716055101
 30
0.0
  0
VERTEX
  5
1C6
330
19A
100
AcDbEntity
  8
FLN72-0503
  6
Continuous
 62
     7
370
    15
390
1D
100
AcDbVertex
100
AcDb2dVertex
 10
-491.5008897424359
 20
-810.4298956055101
 30
0.0
  0
VERTEX
  5
1C7
330
19A
100
AcDbEntity
  8
FLN72-0503
  6
Continuous
 62
     7
370
    15
390
1D
100
AcDbVertex
100
AcDb2dVertex
 10
-491.7274527424361
 20
-809.51192660551
 30
0.0
  0
VERTEX
  5
1C8
330
19A
100
AcDbEntity
  8
FLN72-0503
  6
Continuous
 62
     7
370
    15
390
1D
100
AcDbVertex
100
AcDb2dVertex
 10
-491.9618277424361
 20
-808.6798956055101
 30
0.0
  0
VERTEX
  5
1C9
330
19A
100
AcDbEntity
  8
FLN72-0503
  6
Continuous
 62
     7
370
    15
390
1D
100
AcDbVertex
100
AcDb2dVertex
 10
-492.2059677424368
 20
-807.93868460551
 30
0.0
  0
VERTEX
  5
1CA
330
19A
100
AcDbEntity
  8
FLN72-0503
  6
Continuous
 62
     7
370
    15
390
1D
100
AcDbVertex
100
AcDb2dVertex
 10
-492.4579207424367
 20
-807.2902466055101
 30
0.0
  0
SEQEND
  5
1CB
330
19A
100
AcDbEntity
  8
FLN72-0503
  6
Continuous
 62
     7
370
    15
390
1D
  0
POLYLINE
  5
1CC
330
A
100
AcDbEntity
  8
FLN72-0503
  6
Continuous
 62
     7
370
    15
390
1D
100
AcDb2dPolyline
 66
     1
 10
0.0
 20
0.0
 30
0.0
 75
     5
  0
VERTEX
  5
1CD
330
1CC
100
AcDbEntity
  8
FLN72-0503
  6
Continuous
 62
     7
370
    15
390
1D
100
AcDbVertex
100
AcDb2dVertex
 10
-492.4579207424367
 20
-807.2902466055101
 30
0.0
  0
VERTEX
  5
1CE
330
1CC
100
AcDbEntity
  8
FLN72-0503
  6
Continuous
 62
     7
370
    15
390
1D
100
AcDbVertex
100
AcDb2dVertex
 10
-492.715733742436
 20
-806.7365356055101
 30
0.0
  0
VERTEX
  5
1CF
330
1CC
100
AcDbEntity
  8
FLN72-0503
  6
Continuous
 62
     7
370
    15
390
1D
100
AcDbVertex
100
AcDb2dVertex
 10
-492.9774527424361
 20
-806.28048060551
 30
0.0
  0
VERTEX
  5
1D0
330
1CC
100
AcDbEntity
  8
FLN72-0503
  6
Continuous
 62
     7
370
    15
390
1D
100
AcDbVertex
100
AcDb2dVertex
 10
-493.245030742436
 20
-805.92501260551
 30
0.0
  0
VERTEX
  5
1D1
330
1CC
100
AcDbEntity
  8
FLN72-0503
  6
Continuous
 62
     7
370
    15
390
1D
100
AcDbVertex
100
AcDb2dVertex
 10
-493.5145617424359
 20
-805.66915260551
 30
0.0
  0
VERTEX
  5
1D2
330
1CC
100
AcDbEntity
  8
FLN72-0503
  6
Continuous
 62
     7
370
    15
390
1D
100
AcDbVertex
100
AcDb2dVertex
 10
-493.7860457424367
 20
-805.5158326055101
 30
0.0
  0
VERTEX
  5
1D3
330
1CC
100
AcDbEntity
  8
FLN72-0503
  6
Continuous
 62
     7
370
    15
390
1D
100
AcDbVertex
100
AcDb2dVertex
 10
-494.0614367424359
 20
-805.4640746055101
 30
0.0
  0
SEQEND
  5
1D4
330
1CC
100
AcDbEntity
  8
FLN72-0503
  6
Continuous
 62
     7
370
    15
390
1D
  0
POLYLINE
  5
1D5
330
A
100
AcDbEntity
  8
FLN72-0503
  6
Continuous
 62
     7
370
    15
390
1D
100
AcDb2dPolyline
 66
     1
 10
0.0
 20
0.0
 30
0.0
 75
     5
  0
VERTEX
  5
1D6
330
1D5
100
AcDbEntity
  8
FLN72-0503
  6
Continuous
 62
     7
370
    15
390
1D
100
AcDbVertex
100
AcDb2dVertex
 10
-492.278233742436
 20
-807.2892706055101
 30
0.0
  0
VERTEX
  5
1D7
330
1D5
100
AcDbEntity
  8
FLN72-0503
  6
Continuous
 62
     7
370
    15
390
1D
100
AcDbVertex
100
AcDb2dVertex
 10
-492.4754987424367
 20
-806.73751260551
 30
0.0
  0
VERTEX
  5
1D8
330
1D5
100
AcDbEntity
  8
FLN72-0503
  6
Continuous
 62
     7
370
    15
390
1D
100
AcDbVertex
100
AcDb2dVertex
 10
-492.6766707424367
 20
-806.28048060551
 30
0.0
  0
VERTEX
  5
1D9
330
1D5
100
AcDbEntity
  8
FLN72-0503
  6
Continuous
 62
     7
370
    15
390
1D
100
AcDbVertex
100
AcDb2dVertex
 10
-492.8837027424361
 20
-805.9240356055101
 30
0.0
  0
VERTEX
  5
1DA
330
1D5
100
AcDbEntity
  8
FLN72-0503
  6
Continuous
 62
     7
370
    15
390
1D
100
AcDbVertex
100
AcDb2dVertex
 10
-493.090733742436
 20
-805.66915260551
 30
0.0
  0
VERTEX
  5
1DB
330
1D5
100
AcDbEntity
  8
FLN72-0503
  6
Continuous
 62
     7
370
    15
390
1D
100
AcDbVertex
100
AcDb2dVertex
 10
-493.2997177424368
 20
-805.51485560551
 30
0.0
  0
VERTEX
  5
1DC
330
1D5
100
AcDbEntity
  8
FLN72-0503
  6
Continuous
 62
     7
370
    15
390
1D
100
AcDbVertex
100
AcDb2dVertex
 10
-493.510655742436
 20
-805.46505160551
 30
0.0
  0
SEQEND
  5
1DD
330
1D5
100
AcDbEntity
  8
FLN72-0503
  6
Continuous
 62
     7
370
    15
390
1D
  0
POLYLINE
  5
1DE
330
A
100
AcDbEntity
  8
FLN72-0503
  6
Continuous
 62
     7
370
    15
390
1D
100
AcDb2dPolyline
 66
     1
 10
0.0
 20
0.0
 30
0.0
 75
     5
  0
VERTEX
  5
1DF
330
1DE
100
AcDbEntity
  8
FLN72-0503
  6
Continuous
 62
     7
370
    15
390
1D
100
AcDbVertex
100
AcDb2dVertex
 10
-493.510655742436
 20
-805.46505160551
 30
0.0
  0
VERTEX
  5
1E0
330
1DE
100
AcDbEntity
  8
FLN72-0503
  6
Continuous
 62
     7
370
    15
390
1D
100
AcDbVertex
100
AcDb2dVertex
 10
-493.7215927424368
 20
-805.51485560551
 30
0.0
  0
VERTEX
  5
1E1
330
1DE
100
AcDbEntity
  8
FLN72-0503
  6
Continuous
 62
     7
370
    15
390
1D
100
AcDbVertex
100
AcDb2dVertex
 10
-493.9305777424361
 20
-805.66915260551
 30
0.0
  0
VERTEX
  5
1E2
330
1DE
100
AcDbEntity
  8
FLN72-0503
  6
Continuous
 62
     7
370
    15
390
1D
100
AcDbVertex
100
AcDb2dVertex
 10
-494.137608742436
 20
-805.9240356055101
 30
0.0
  0
VERTEX
  5
1E3
330
1DE
100
AcDbEntity
  8
FLN72-0503
  6
Continuous
 62
     7
370
    15
390
1D
100
AcDbVertex
100
AcDb2dVertex
 10
-494.3426867424359
 20
-806.28048060551
 30
0.0
  0
VERTEX
  5
1E4
330
1DE
100
AcDbEntity
  8
FLN72-0503
  6
Continuous
 62
     7
370
    15
390
1D
100
AcDbVertex
100
AcDb2dVertex
 10
-494.5458117424359
 20
-806.73751260551
 30
0.0
  0
VERTEX
  5
1E5
330
1DE
100
AcDbEntity
  8
FLN72-0503
  6
Continuous
 62
     7
370
    15
390
1D
100
AcDbVertex
100
AcDb2dVertex
 10
-494.745030742436
 20
-807.2892706055101
 30
0.0
  0
VERTEX
  5
1E6
330
1DE
100
AcDbEntity
  8
FLN72-0503
  6
Continuous
 62
     7
370
    15
390
1D
100
AcDbVertex
100
AcDb2dVertex
 10
-494.9364367424359
 20
-807.9377076055101
 30
0.0
  0
VERTEX
  5
1E7
330
1DE
100
AcDbEntity
  8
FLN72-0503
  6
Continuous
 62
     7
370
    15
390
1D
100
AcDbVertex
100
AcDb2dVertex
 10
-495.1239367424359
 20
-808.6798956055101
 30
0.0
  0
VERTEX
  5
1E8
330
1DE
100
AcDbEntity
  8
FLN72-0503
  6
Continuous
 62
     7
370
    15
390
1D
100
AcDbVertex
100
AcDb2dVertex
 10
-495.3055777424361
 20
-809.5109496055101
 30
0.0
  0
VERTEX
  5
1E9
330
1DE
100
AcDbEntity
  8
FLN72-0503
  6
Continuous
 62
     7
370
    15
390
1D
100
AcDbVertex
100
AcDb2dVertex
 10
-495.479405742436
 20
-810.4298956055101
 30
0.0
  0
VERTEX
  5
1EA
330
1DE
100
AcDbEntity
  8
FLN72-0503
  6
Continuous
 62
     7
370
    15
390
1D
100
AcDbVertex
100
AcDb2dVertex
 10
-495.6454207424367
 20
-811.4308716055101
 30
0.0
  0
VERTEX
  5
1EB
330
1DE
100
AcDbEntity
  8
FLN72-0503
  6
Continuous
 62
     7
370
    15
390
1D
100
AcDbVertex
100
AcDb2dVertex
 10
-495.8036237424367
 20
-812.5109496055101
 30
0.0
  0
VERTEX
  5
1EC
330
1DE
100
AcDbEntity
  8
FLN72-0503
  6
Continuous
 62
     7
370
    15
390
1D
100
AcDbVertex
100
AcDb2dVertex
 10
-495.9520617424359
 20
-813.66622360551
 30
0.0
  0
VERTEX
  5
1ED
330
1DE
100
AcDbEntity
  8
FLN72-0503
  6
Continuous
 62
     7
370
    15
390
1D
100
AcDbVertex
100
AcDb2dVertex
 10
-496.0926867424359
 20
-814.89180960551
 30
0.0
  0
VERTEX
  5
1EE
330
1DE
100
AcDbEntity
  8
FLN72-0503
  6
Continuous
 62
     7
370
    15
390
1D
100
AcDbVertex
100
AcDb2dVertex
 10
-496.2215927424368
 20
-816.1828246055101
 30
0.0
  0
VERTEX
  5
1EF
330
1DE
100
AcDbEntity
  8
FLN72-0503
  6
Continuous
 62
     7
370
    15
390
1D
100
AcDbVertex
100
AcDb2dVertex
 10
-496.338780742436
 20
-817.53243460551
 30
0.0
  0
VERTEX
  5
1F0
330
1DE
100
AcDbEntity
  8
FLN72-0503
  6
Continuous
 62
     7
370
    15
390
1D
100
AcDbVertex
100
AcDb2dVertex
 10
-496.4462027424361
 20
-818.9377076055101
 30
0.0
  0
VERTEX
  5
1F1
330
1DE
100
AcDbEntity
  8
FLN72-0503
  6
Continuous
 62
     7
370
    15
390
1D
100
AcDbVertex
100
AcDb2dVertex
 10
-496.541905742436
 20
-820.39376260551
 30
0.0
  0
VERTEX
  5
1F2
330
1DE
100
AcDbEntity
  8
FLN72-0503
  6
Continuous
 62
     7
370
    15
390
1D
100
AcDbVertex
100
AcDb2dVertex
 10
-496.6258897424359
 20
-821.89180960551
 30
0.0
  0
VERTEX
  5
1F3
330
1DE
100
AcDbEntity
  8
FLN72-0503
  6
Continuous
 62
     7
370
    15
390
1D
100
AcDbVertex
100
AcDb2dVertex
 10
-496.6962027424361
 20
-823.4298956055101
 30
0.0
  0
VERTEX
  5
1F4
330
1DE
100
AcDbEntity
  8
FLN72-0503
  6
Continuous
 62
     7
370
    15
390
1D
100
AcDbVertex
100
AcDb2dVertex
 10
-496.7547957424367
 20
-824.99727760551
 30
0.0
  0
VERTEX
  5
1F5
330
1DE
100
AcDbEntity
  8
FLN72-0503
  6
Continuous
 62
     7
370
    15
390
1D
100
AcDbVertex
100
AcDb2dVertex
 10
-496.8016707424367
 20
-826.5920046055102
 30
0.0
  0
VERTEX
  5
1F6
330
1DE
100
AcDbEntity
  8
FLN72-0503
  6
Continuous
 62
     7
370
    15
390
1D
100
AcDbVertex
100
AcDb2dVertex
 10
-496.8348737424367
 20
-828.20430960551
 30
0.0
  0
VERTEX
  5
1F7
330
1DE
100
AcDbEntity
  8
FLN72-0503
  6
Continuous
 62
     7
370
    15
390
1D
100
AcDbVertex
100
AcDb2dVertex
 10
-496.854405742436
 20
-829.83126260551
 30
0.0
  0
VERTEX
  5
1F8
330
1DE
100
AcDbEntity
  8
FLN72-0503
  6
Continuous
 62
     7
370
    15
390
1D
100
AcDbVertex
100
AcDb2dVertex
 10
-496.8602647424359
 20
-831.4640746055101
 30
0.0
  0
VERTEX
  5
1F9
330
1DE
100
AcDbEntity
  8
FLN72-0503
  6
Continuous
 62
     7
370
    15
390
1D
100
AcDbVertex
100
AcDb2dVertex
 10
-496.854405742436
 20
-833.09688760551
 30
0.0
  0
VERTEX
  5
1FA
330
1DE
100
AcDbEntity
  8
FLN72-0503
  6
Continuous
 62
     7
370
    15
390
1D
100
AcDbVertex
100
AcDb2dVertex
 10
-496.8348737424367
 20
-834.7238406055102
 30
0.0
  0
VERTEX
  5
1FB
330
1DE
100
AcDbEntity
  8
FLN72-0503
  6
Continuous
 62
     7
370
    15
390
1D
100
AcDbVertex
100
AcDb2dVertex
 10
-496.8016707424367
 20
-836.3361456055101
 30
0.0
  0
VERTEX
  5
1FC
330
1DE
100
AcDbEntity
  8
FLN72-0503
  6
Continuous
 62
     7
370
    15
390
1D
100
AcDbVertex
100
AcDb2dVertex
 10
-496.7547957424367
 20
-837.9308716055101
 30
0.0
  0
VERTEX
  5
1FD
330
1DE
100
AcDbEntity
  8
FLN72-0503
  6
Continuous
 62
     7
370
    15
390
1D
100
AcDbVertex
100
AcDb2dVertex
 10
-496.6962027424361
 20
-839.4982546055102
 30
0.0
  0
VERTEX
  5
1FE
330
1DE
100
AcDbEntity
  8
FLN72-0503
  6
Continuous
 62
     7
370
    15
390
1D
100
AcDbVertex
100
AcDb2dVertex
 10
-496.6258897424359
 20
-841.0363406055102
 30
0.0
  0
VERTEX
  5
1FF
330
1DE
100
AcDbEntity
  8
FLN72-0503
  6
Continuous
 62
     7
370
    15
390
1D
100
AcDbVertex
100
AcDb2dVertex
 10
-496.541905742436
 20
-842.53438760551
 30
0.0
  0
VERTEX
  5
200
330
1DE
100
AcDbEntity
  8
FLN72-0503
  6
Continuous
 62
     7
370
    15
390
1D
100
AcDbVertex
100
AcDb2dVertex
 10
-496.4462027424361
 20
-843.99044160551
 30
0.0
  0
VERTEX
  5
201
330
1DE
100
AcDbEntity
  8
FLN72-0503
  6
Continuous
 62
     7
370
    15
390
1D
100
AcDbVertex
100
AcDb2dVertex
 10
-496.338780742436
 20
-845.3957156055102
 30
0.0
  0
VERTEX
  5
202
330
1DE
100
AcDbEntity
  8
FLN72-0503
  6
Continuous
 62
     7
370
    15
390
1D
100
AcDbVertex
100
AcDb2dVertex
 10
-496.2215927424368
 20
-846.74727760551
 30
0.0
  0
VERTEX
  5
203
330
1DE
100
AcDbEntity
  8
FLN72-0503
  6
Continuous
 62
     7
370
    15
390
1D
100
AcDbVertex
100
AcDb2dVertex
 10
-496.0926867424359
 20
-848.0363406055102
 30
0.0
  0
VERTEX
  5
204
330
1DE
100
AcDbEntity
  8
FLN72-0503
  6
Continuous
 62
     7
370
    15
390
1D
100
AcDbVertex
100
AcDb2dVertex
 10
-495.9520617424359
 20
-849.26192660551
 30
0.0
  0
VERTEX
  5
205
330
1DE
100
AcDbEntity
  8
FLN72-0503
  6
Continuous
 62
     7
370
    15
390
1D
100
AcDbVertex
100
AcDb2dVertex
 10
-495.8036237424367
 20
-850.4171996055101
 30
0.0
  0
VERTEX
  5
206
330
1DE
100
AcDbEntity
  8
FLN72-0503
  6
Continuous
 62
     7
370
    15
390
1D
100
AcDbVertex
100
AcDb2dVertex
 10
-495.6454207424367
 20
-851.49727760551
 30
0.0
  0
VERTEX
  5
207
330
1DE
100
AcDbEntity
  8
FLN72-0503
  6
Continuous
 62
     7
370
    15
390
1D
100
AcDbVertex
100
AcDb2dVertex
 10
-495.479405742436
 20
-852.4982546055102
 30
0.0
  0
VERTEX
  5
208
330
1DE
100
AcDbEntity
  8
FLN72-0503
  6
Continuous
 62
     7
370
    15
390
1D
100
AcDbVertex
100
AcDb2dVertex
 10
-495.3055777424361
 20
-853.4171996055101
 30
0.0
  0
VERTEX
  5
209
330
1DE
100
AcDbEntity
  8
FLN72-0503
  6
Continuous
 62
     7
370
    15
390
1D
100
AcDbVertex
100
AcDb2dVertex
 10
-495.1239367424359
 20
-854.2482546055102
 30
0.0
  0
VERTEX
  5
20A
330
1DE
100
AcDbEntity
  8
FLN72-0503
  6
Continuous
 62
     7
370
    15
390
1D
100
AcDbVertex
100
AcDb2dVertex
 10
-494.9364367424359
 20
-854.99044160551
 30
0.0
  0
VERTEX
  5
20B
330
1DE
100
AcDbEntity
  8
FLN72-0503
  6
Continuous
 62
     7
370
    15
390
1D
100
AcDbVertex
100
AcDb2dVertex
 10
-494.745030742436
 20
-855.6388796055102
 30
0.0
  0
VERTEX
  5
20C
330
1DE
100
AcDbEntity
  8
FLN72-0503
  6
Continuous
 62
     7
370
    15
390
1D
100
AcDbVertex
100
AcDb2dVertex
 10
-494.5458117424359
 20
-856.19063760551
 30
0.0
  0
VERTEX
  5
20D
330
1DE
100
AcDbEntity
  8
FLN72-0503
  6
Continuous
 62
     7
370
    15
390
1D
100
AcDbVertex
100
AcDb2dVertex
 10
-494.3426867424359
 20
-856.6476686055101
 30
0.0
  0
VERTEX
  5
20E
330
1DE
100
AcDbEntity
  8
FLN72-0503
  6
Continuous
 62
     7
370
    15
390
1D
100
AcDbVertex
100
AcDb2dVertex
 10
-494.137608742436
 20
-857.00411360551
 30
0.0
  0
SEQEND
  5
20F
330
1DE
100
AcDbEntity
  8
FLN72-0503
  6
Continuous
 62
     7
370
    15
390
1D
  0
POLYLINE
  5
210
330
A
100
AcDbEntity
  8
FLN72-0503
  6
Continuous
 62
     7
370
    15
390
1D
100
AcDb2dPolyline
 66
     1
 10
0.0
 20
0.0
 30
0.0
 75
     5
  0
VERTEX
  5
211
330
210
100
AcDbEntity
  8
FLN72-0503
  6
Continuous
 62
     7
370
    15
390
1D
100
AcDbVertex
100
AcDb2dVertex
 10
-494.137608742436
 20
-857.00411360551
 30
0.0
  0
VERTEX
  5
212
330
210
100
AcDbEntity
  8
FLN72-0503
  6
Continuous
 62
     7
370
    15
390
1D
100
AcDbVertex
100
AcDb2dVertex
 10
-493.9305777424361
 20
-857.2589966055101
 30
0.0
  0
VERTEX
  5
213
330
210
100
AcDbEntity
  8
FLN72-0503
  6
Continuous
 62
     7
370
    15
390
1D
100
AcDbVertex
100
AcDb2dVertex
 10
-493.7215927424368
 20
-857.4132936055101
 30
0.0
  0
VERTEX
  5
214
330
210
100
AcDbEntity
  8
FLN72-0503
  6
Continuous
 62
     7
370
    15
390
1D
100
AcDbVertex
100
AcDb2dVertex
 10
-493.510655742436
 20
-857.46309860551
 30
0.0
  0
VERTEX
  5
215
330
210
100
AcDbEntity
  8
FLN72-0503
  6
Continuous
 62
     7
370
    15
390
1D
100
AcDbVertex
100
AcDb2dVertex
 10
-493.2997177424368
 20
-857.4132936055101
 30
0.0
  0
VERTEX
  5
216
330
210
100
AcDbEntity
  8
FLN72-0503
  6
Continuous
 62
     7
370
    15
390
1D
100
AcDbVertex
100
AcDb2dVertex
 10
-493.090733742436
 20
-857.2589966055101
 30
0.0
  0
VERTEX
  5
217
330
210
100
AcDbEntity
  8
FLN72-0503
  6
Continuous
 62
     7
370
    15
390
1D
100
AcDbVertex
100
AcDb2dVertex
 10
-492.8837027424361
 20
-857.00411360551
 30
0.0
  0
VERTEX
  5
218
330
210
100
AcDbEntity
  8
FLN72-0503
  6
Continuous
 62
     7
370
    15
390
1D
100
AcDbVertex
100
AcDb2dVertex
 10
-492.6766707424367
 20
-856.6476686055101
 30
0.0
  0
VERTEX
  5
219
330
210
100
AcDbEntity
  8
FLN72-0503
  6
Continuous
 62
     7
370
    15
390
1D
100
AcDbVertex
100
AcDb2dVertex
 10
-492.4754987424367
 20
-856.19063760551
 30
0.0
  0
VERTEX
  5
21A
330
210
100
AcDbEntity
  8
FLN72-0503
  6
Continuous
 62
     7
370
    15
390
1D
100
AcDbVertex
100
AcDb2dVertex
 10
-492.278233742436
 20
-855.6388796055102
 30
0.0
  0
VERTEX
  5
21B
330
210
100
AcDbEntity
  8
FLN72-0503
  6
Continuous
 62
     7
370
    15
390
1D
100
AcDbVertex
100
AcDb2dVertex
 10
-492.0848737424367
 20
-854.99044160551
 30
0.0
  0
VERTEX
  5
21C
330
210
100
AcDbEntity
  8
FLN72-0503
  6
Continuous
 62
     7
370
    15
390
1D
100
AcDbVertex
100
AcDb2dVertex
 10
-491.8973737424367
 20
-854.2482546055102
 30
0.0
  0
VERTEX
  5
21D
330
210
100
AcDbEntity
  8
FLN72-0503
  6
Continuous
 62
     7
370
    15
390
1D
100
AcDbVertex
100
AcDb2dVertex
 10
-491.715733742436
 20
-853.4171996055101
 30
0.0
  0
VERTEX
  5
21E
330
210
100
AcDbEntity
  8
FLN72-0503
  6
Continuous
 62
     7
370
    15
390
1D
100
AcDbVertex
100
AcDb2dVertex
 10
-491.541905742436
 20
-852.4982546055102
 30
0.0
  0
VERTEX
  5
21F
330
210
100
AcDbEntity
  8
FLN72-0503
  6
Continuous
 62
     7
370
    15
390
1D
100
AcDbVertex
100
AcDb2dVertex
 10
-491.3758897424359
 20
-851.49727760551
 30
0.0
  0
VERTEX
  5
220
330
210
100
AcDbEntity
  8
FLN72-0503
  6
Continuous
 62
     7
370
    15
390
1D
100
AcDbVertex
100
AcDb2dVertex
 10
-491.2176867424359
 20
-850.4171996055101
 30
0.0
  0
VERTEX
  5
221
330
210
100
AcDbEntity
  8
FLN72-0503
  6
Continuous
 62
     7
370
    15
390
1D
100
AcDbVertex
100
AcDb2dVertex
 10
-491.0692487424367
 20
-849.26192660551
 30
0.0
  0
VERTEX
  5
222
330
210
100
AcDbEntity
  8
FLN72-0503
  6
Continuous
 62
     7
370
    15
390
1D
100
AcDbVertex
100
AcDb2dVertex
 10
-490.9286237424367
 20
-848.0363406055102
 30
0.0
  0
VERTEX
  5
223
330
210
100
AcDbEntity
  8
FLN72-0503
  6
Continuous
 62
     7
370
    15
390
1D
100
AcDbVertex
100
AcDb2dVertex
 10
-490.7997177424368
 20
-846.74727760551
 30
0.0
  0
VERTEX
  5
224
330
210
100
AcDbEntity
  8
FLN72-0503
  6
Continuous
 62
     7
370
    15
390
1D
100
AcDbVertex
100
AcDb2dVertex
 10
-490.682530742436
 20
-845.3957156055102
 30
0.0
  0
VERTEX
  5
225
330
210
100
AcDbEntity
  8
FLN72-0503
  6
Continuous
 62
     7
370
    15
390
1D
100
AcDbVertex
100
AcDb2dVertex
 10
-490.575108742436
 20
-843.99044160551
 30
0.0
  0
VERTEX
  5
226
330
210
100
AcDbEntity
  8
FLN72-0503
  6
Continuous
 62
     7
370
    15
390
1D
100
AcDbVertex
100
AcDb2dVertex
 10
-490.479405742436
 20
-842.53438760551
 30
0.0
  0
VERTEX
  5
227
330
210
100
AcDbEntity
  8
FLN72-0503
  6
Continuous
 62
     7
370
    15
390
1D
100
AcDbVertex
100
AcDb2dVertex
 10
-490.3954207424367
 20
-841.0363406055102
 30
0.0
  0
VERTEX
  5
228
330
210
100
AcDbEntity
  8
FLN72-0503
  6
Continuous
 62
     7
370
    15
390
1D
100
AcDbVertex
100
AcDb2dVertex
 10
-490.325108742436
 20
-839.4982546055102
 30
0.0
  0
VERTEX
  5
229
330
210
100
AcDbEntity
  8
FLN72-0503
  6
Continuous
 62
     7
370
    15
390
1D
100
AcDbVertex
100
AcDb2dVertex
 10
-490.2665147424359
 20
-837.9308716055101
 30
0.0
  0
VERTEX
  5
22A
330
210
100
AcDbEntity
  8
FLN72-0503
  6
Continuous
 62
     7
370
    15
390
1D
100
AcDbVertex
100
AcDb2dVertex
 10
-490.2196397424359
 20
-836.3361456055101
 30
0.0
  0
VERTEX
  5
22B
330
210
100
AcDbEntity
  8
FLN72-0503
  6
Continuous
 62
     7
370
    15
390
1D
100
AcDbVertex
100
AcDb2dVertex
 10
-490.1864367424359
 20
-834.7238406055102
 30
0.0
  0
VERTEX
  5
22C
330
210
100
AcDbEntity
  8
FLN72-0503
  6
Continuous
 62
     7
370
    15
390
1D
100
AcDbVertex
100
AcDb2dVertex
 10
-490.166905742436
 20
-833.09688760551
 30
0.0
  0
VERTEX
  5
22D
330
210
100
AcDbEntity
  8
FLN72-0503
  6
Continuous
 62
     7
370
    15
390
1D
100
AcDbVertex
100
AcDb2dVertex
 10
-490.1610457424367
 20
-831.4640746055101
 30
0.0
  0
VERTEX
  5
22E
330
210
100
AcDbEntity
  8
FLN72-0503
  6
Continuous
 62
     7
370
    15
390
1D
100
AcDbVertex
100
AcDb2dVertex
 10
-490.166905742436
 20
-829.83126260551
 30
0.0
  0
VERTEX
  5
22F
330
210
100
AcDbEntity
  8
FLN72-0503
  6
Continuous
 62
     7
370
    15
390
1D
100
AcDbVertex
100
AcDb2dVertex
 10
-490.1864367424359
 20
-828.20430960551
 30
0.0
  0
VERTEX
  5
230
330
210
100
AcDbEntity
  8
FLN72-0503
  6
Continuous
 62
     7
370
    15
390
1D
100
AcDbVertex
100
AcDb2dVertex
 10
-490.2196397424359
 20
-826.5920046055102
 30
0.0
  0
VERTEX
  5
231
330
210
100
AcDbEntity
  8
FLN72-0503
  6
Continuous
 62
     7
370
    15
390
1D
100
AcDbVertex
100
AcDb2dVertex
 10
-490.2665147424359
 20
-824.99727760551
 30
0.0
  0
VERTEX
  5
232
330
210
100
AcDbEntity
  8
FLN72-0503
  6
Continuous
 62
     7
370
    15
390
1D
100
AcDbVertex
100
AcDb2dVertex
 10
-490.325108742436
 20
-823.4298956055101
 30
0.0
  0
VERTEX
  5
233
330
210
100
AcDbEntity
  8
FLN72-0503
  6
Continuous
 62
     7
370
    15
390
1D
100
AcDbVertex
100
AcDb2dVertex
 10
-490.3954207424367
 20
-821.89180960551
 30
0.0
  0
VERTEX
  5
234
330
210
100
AcDbEntity
  8
FLN72-0503
  6
Continuous
 62
     7
370
    15
390
1D
100
AcDbVertex
100
AcDb2dVertex
 10
-490.479405742436
 20
-820.39376260551
 30
0.0
  0
VERTEX
  5
235
330
210
100
AcDbEntity
  8
FLN72-0503
  6
Continuous
 62
     7
370
    15
390
1D
100
AcDbVertex
100
AcDb2dVertex
 10
-490.575108742436
 20
-818.9377076055101
 30
0.0
  0
VERTEX
  5
236
330
210
100
AcDbEntity
  8
FLN72-0503
  6
Continuous
 62
     7
370
    15
390
1D
100
AcDbVertex
100
AcDb2dVertex
 10
-490.682530742436
 20
-817.53243460551
 30
0.0
  0
VERTEX
  5
237
330
210
100
AcDbEntity
  8
FLN72-0503
  6
Continuous
 62
     7
370
    15
390
1D
100
AcDbVertex
100
AcDb2dVertex
 10
-490.7997177424368
 20
-816.1828246055101
 30
0.0
  0
VERTEX
  5
238
330
210
100
AcDbEntity
  8
FLN72-0503
  6
Continuous
 62
     7
370
    15
390
1D
100
AcDbVertex
100
AcDb2dVertex
 10
-490.9286237424367
 20
-814.89180960551
 30
0.0
  0
VERTEX
  5
239
330
210
100
AcDbEntity
  8
FLN72-0503
  6
Continuous
 62
     7
370
    15
390
1D
100
AcDbVertex
100
AcDb2dVertex
 10
-491.0692487424367
 20
-813.66622360551
 30
0.0
  0
VERTEX
  5
23A
330
210
100
AcDbEntity
  8
FLN72-0503
  6
Continuous
 62
     7
370
    15
390
1D
100
AcDbVertex
100
AcDb2dVertex
 10
-491.2176867424359
 20
-812.5109496055101
 30
0.0
  0
VERTEX
  5
23B
330
210
100
AcDbEntity
  8
FLN72-0503
  6
Continuous
 62
     7
370
    15
390
1D
100
AcDbVertex
100
AcDb2dVertex
 10
-491.3758897424359
 20
-811.4308716055101
 30
0.0
  0
VERTEX
  5
23C
330
210
100
AcDbEntity
  8
FLN72-0503
  6
Continuous
 62
     7
370
    15
390
1D
100
AcDbVertex
100
AcDb2dVertex
 10
-491.541905742436
 20
-810.4298956055101
 30
0.0
  0
VERTEX
  5
23D
330
210
100
AcDbEntity
  8
FLN72-0503
  6
Continuous
 62
     7
370
    15
390
1D
100
AcDbVertex
100
AcDb2dVertex
 10
-491.715733742436
 20
-809.5109496055101
 30
0.0
  0
VERTEX
  5
23E
330
210
100
AcDbEntity
  8
FLN72-0503
  6
Continuous
 62
     7
370
    15
390
1D
100
AcDbVertex
100
AcDb2dVertex
 10
-491.8973737424367
 20
-808.6798956055101
 30
0.0
  0
VERTEX
  5
23F
330
210
100
AcDbEntity
  8
FLN72-0503
  6
Continuous
 62
     7
370
    15
390
1D
100
AcDbVertex
100
AcDb2dVertex
 10
-492.0848737424367
 20
-807.9377076055101
 30
0.0
  0
VERTEX
  5
240
330
210
100
AcDbEntity
  8
FLN72-0503
  6
Continuous
 62
     7
370
    15
390
1D
100
AcDbVertex
100
AcDb2dVertex
 10
-492.278233742436
 20
-807.2892706055101
 30
0.0
  0
SEQEND
  5
241
330
210
100
AcDbEntity
  8
FLN72-0503
  6
Continuous
 62
     7
370
    15
390
1D
  0
LINE
  5
242
330
A
100
AcDbEntity
  8
FLN72-0503
  6
Continuous
 62
     7
370
    15
390
1D
100
AcDbLine
 10
1244.990220975783
 20
-1631.36407460551
 30
0.0
 11
1244.990220975783
 21
-31.36407460551004
 31
0.0
  0
LINE
  5
243
330
A
100
AcDbEntity
  8
FLN72-0503
  6
Continuous
 62
     7
370
    15
390
1D
100
AcDbLine
 10
1244.990220975783
 20
2085.503641839952
 30
0.0
 11
1244.990220975783
 21
990.8580334057078
 31
0.0
  0
LINE
  5
244
330
A
100
AcDbEntity
  8
FLN72-0503
  6
Continuous
 62
     7
370
    15
390
1D
100
AcDbLine
 10
676.1050166820587
 20
2005.652020153928
 30
0.0
 11
673.5718136820578
 21
1990.382489153928
 31
0.0
  0
LINE
  5
245
330
A
100
AcDbEntity
  8
FLN72-0503
  6
Continuous
 62
     7
370
    15
390
1D
100
AcDbLine
 10
604.9956416820587
 20
2061.441083153928
 30
0.0
 11
604.9936886820578
 21
1073.441083153925
 31
0.0
  0
LINE
  5
246
330
A
100
AcDbEntity
  8
FLN72-0503
  6
Continuous
 62
     7
370
    15
390
1D
100
AcDbLine
 10
610.9956416820587
 20
2067.441083153928
 30
0.0
 11
648.9956416820587
 21
2067.441083153928
 31
0.0
  0
LINE
  5
247
330
A
100
AcDbEntity
  8
FLN72-0503
  6
Continuous
 62
     7
370
    15
390
1D
100
AcDbLine
 10
654.9936886820578
 20
1073.441083153925
 30
0.0
 11
654.9956416820587
 21
2061.441083153928
 31
0.0
  0
LINE
  5
248
330
A
100
AcDbEntity
  8
FLN72-0503
  6
Continuous
 62
     7
370
    15
390
1D
100
AcDbLine
 10
610.9936886820578
 20
1067.441083153925
 30
0.0
 11
648.9936886820578
 21
1067.441083153925
 31
0.0
  0
LINE
  5
249
330
A
100
AcDbEntity
  8
FLN72-0503
  6
Continuous
 62
     7
370
    15
390
1D
100
AcDbLine
 10
1095.101110682059
 20
1296.582685153924
 30
0.0
 11
1105.062048682059
 21
1777.440106153928
 31
0.0
  0
LINE
  5
24A
330
A
100
AcDbEntity
  8
FLN72-0503
  6
Continuous
 62
     7
370
    15
390
1D
100
AcDbLine
 10
1114.995641682059
 20
1751.440106153928
 30
0.0
 11
1114.995641682059
 21
1748.249677153928
 31
0.0
  0
LINE
  5
24B
330
A
100
AcDbEntity
  8
FLN72-0503
  6
Continuous
 62
     7
370
    15
390
1D
100
AcDbLine
 10
1103.853063682058
 20
1835.838544153927
 30
0.0
 11
1105.062048682059
 21
1777.440106153928
 31
0.0
  0
LINE
  5
24C
330
A
100
AcDbEntity
  8
FLN72-0503
  6
Continuous
 62
     7
370
    15
390
1D
100
AcDbLine
 10
1114.995641682059
 20
1751.440106153928
 30
0.0
 11
1114.995641682059
 21
1806.631513153927
 31
0.0
  0
ARC
  5
24D
330
A
100
AcDbEntity
  8
FLN72-0503
  6
Continuous
 62
     7
370
    15
390
1D
100
AcDbCircle
 10
648.9956416820587
 20
2061.441083153928
 30
0.0
 40
6.0
100
AcDbArc
 50
0.0
 51
90.0
  0
ARC
  5
24E
330
A
100
AcDbEntity
  8
FLN72-0503
  6
Continuous
 62
     7
370
    15
390
1D
100
AcDbCircle
 10
610.9956416820587
 20
2061.441083153928
 30
0.0
 40
6.0
100
AcDbArc
 50
90.0
 51
180.0
  0
ARC
  5
24F
330
A
100
AcDbEntity
  8
FLN72-0503
  6
Continuous
 62
     7
370
    15
390
1D
100
AcDbCircle
 10
648.9936886820578
 20
1073.441083153925
 30
0.0
 40
6.0
100
AcDbArc
 50
270.0
 51
0.0
  0
ARC
  5
250
330
A
100
AcDbEntity
  8
FLN72-0503
  6
Continuous
 62
     7
370
    15
390
1D
100
AcDbCircle
 10
610.9936886820578
 20
1073.441083153925
 30
0.0
 40
6.0
100
AcDbArc
 50
180.0
 51
270.0
  0
ARC
  5
251
330
A
100
AcDbEntity
  8
FLN72-0503
  6
Continuous
 62
     7
370
    15
390
1D
100
AcDbCircle
 10
279.6265016820589
 20
4109.745282153927
 30
0.0
 40
3002.699951000002
100
AcDbArc
 50
277.1813199999999
 51
284.228622
  0
ARC
  5
252
330
A
100
AcDbEntity
  8
FLN72-0503
  6
Continuous
 62
     7
370
    15
390
1D
100
AcDbCircle
 10
992.423376682058
 20
1298.709638153924
 30
0.0
 40
102.699814
100
AcDbArc
 50
284.2281340000002
 51
358.499908
  0
ARC
  5
253
330
A
100
AcDbEntity
  8
FLN72-0503
  6
Continuous
 62
     7
370
    15
390
1D
100
AcDbCircle
 10
1107.296423682059
 20
1748.249677153928
 30
0.0
 40
7.700000000000267
100
AcDbArc
 50
290.4741669999927
 51
0.0
  0
ARC
  5
254
330
A
100
AcDbEntity
  8
FLN72-0503
  6
Continuous
 62
     7
370
    15
390
1D
100
AcDbCircle
 10
1107.296423682059
 20
1806.631513153927
 30
0.0
 40
7.699999999998909
100
AcDbArc
 50
0.0
 51
69.5430300000001
  0
ARC
  5
255
330
A
100
AcDbEntity
  8
FLN72-0503
  6
Continuous
 62
     7
370
    15
390
1D
100
AcDbCircle
 10
1113.136266682059
 20
1732.604169153927
 30
0.0
 40
9.000000000000433
100
AcDbArc
 50
110.465269000003
 51
178.8124619999972
  0
ARC
  5
256
330
A
100
AcDbEntity
  8
FLN72-0503
  6
STYLE_11
 62
     7
370
    15
390
1D
100
AcDbCircle
 10
1000.874548682059
 20
1833.705731153928
 30
0.0
 40
103.0000000000001
100
AcDbArc
 50
13.13619753649574
 51
75.5975040000003
  0
ARC
  5
257
330
A
100
AcDbEntity
  8
FLN72-0503
  6
STYLE_11
 62
     7
370
    15
390
1D
100
AcDbCircle
 10
279.6167356820588
 20
-974.8606748460722
 30
0.0
 40
3002.699951
100
AcDbArc
 50
75.59732100000004
 51
82.81845099999992
  0
ARC
  5
258
330
A
100
AcDbEntity
  8
FLN72-0503
  6
Continuous
 62
     7
370
    15
390
1D
100
AcDbCircle
 10
1113.136266682059
 20
1822.277997153928
 30
0.0
 40
9.000000000000535
100
AcDbArc
 50
181.1937480000036
 51
249.5234529999998
  0
LINE
  5
259
330
A
100
AcDbEntity
  8
FLN72-0503
  6
Continuous
 62
     7
370
    15
390
1D
100
AcDbLine
 10
1245.039227781781
 20
2085.503641839952
 30
0.0
 11
1245.039227781781
 21
990.8580334057078
 31
0.0
  0
ARC
  5
25A
330
A
100
AcDbEntity
  8
FLN72-0503
  6
Continuous
 62
     7
370
    15
390
1D
100
AcDbCircle
 10
1000.874548682059
 20
1833.705731153928
 30
0.0
 40
102.9999999999994
100
AcDbArc
 50
1.186493000000058
 51
13.13619753649585
  0
LINE
  5
25B
330
A
100
AcDbEntity
  8
FLN72-0503
  6
Continuous
 62
     7
370
    15
390
1D
100
AcDbLine
 10
604.9935737817814
 20
-1575.379407908265
 30
0.0
 11
604.9935737817814
 21
-87.37940790826497
 31
0.0
  0
LINE
  5
25C
330
A
100
AcDbEntity
  8
FLN72-0503
  6
Continuous
 62
     7
370
    15
390
1D
100
AcDbLine
 10
648.9935737817814
 20
-1581.379407908265
 30
0.0
 11
610.9935737817814
 21
-1581.379407908265
 31
0.0
  0
LINE
  5
25D
330
A
100
AcDbEntity
  8
FLN72-0503
  6
Continuous
 62
     7
370
    15
390
1D
100
AcDbLine
 10
654.9935737817814
 20
-1575.379407908265
 30
0.0
 11
654.9935737817814
 21
-87.37940790826497
 31
0.0
  0
LINE
  5
25E
330
A
100
AcDbEntity
  8
FLN72-0503
  6
Continuous
 62
     7
370
    15
390
1D
100
AcDbLine
 10
610.9935737817814
 20
-81.37940790826497
 30
0.0
 11
648.9935737817814
 21
-81.37940790826497
 31
0.0
  0
LINE
  5
25F
330
A
100
AcDbEntity
  8
FLN72-0503
  6
STYLE_11
 62
     7
370
    15
390
1D
100
AcDbLine
 10
1106.546308781781
 20
-874.9272599082649
 30
0.0
 11
1106.546308781781
 21
-787.8315569082648
 31
0.0
  0
LINE
  5
260
330
A
100
AcDbEntity
  8
FLN72-0503
  6
STYLE_11
 62
     7
370
    15
390
1D
100
AcDbLine
 10
1114.835370781781
 20
-860.5698379082648
 30
0.0
 11
1114.835370781781
 21
-802.1889789082649
 31
0.0
  0
ARC
  5
261
330
A
100
AcDbEntity
  8
FLN72-0503
  6
Continuous
 62
     7
370
    15
390
1D
100
AcDbCircle
 10
648.9935737817814
 20
-1575.379407908265
 30
0.0
 40
6.0
100
AcDbArc
 50
270.0
 51
0.0
  0
ARC
  5
262
330
A
100
AcDbEntity
  8
FLN72-0503
  6
Continuous
 62
     7
370
    15
390
1D
100
AcDbCircle
 10
610.9935737817814
 20
-1575.379407908265
 30
0.0
 40
6.0
100
AcDbArc
 50
180.0
 51
270.0
  0
ARC
  5
263
330
A
100
AcDbEntity
  8
FLN72-0503
  6
STYLE_11
 62
     7
370
    15
390
1D
100
AcDbCircle
 10
1107.136151781781
 20
-860.5698379082648
 30
0.0
 40
7.7
100
AcDbArc
 50
300.8073430000002
 51
0.0
  0
ARC
  5
264
330
A
100
AcDbEntity
  8
FLN72-0503
  6
STYLE_11
 62
     7
370
    15
390
1D
100
AcDbCircle
 10
1107.136151781781
 20
-802.188978908265
 30
0.0
 40
7.699999999999818
100
AcDbArc
 50
0.0
 51
59.19262699999831
  0
ARC
  5
265
330
A
100
AcDbEntity
  8
FLN72-0503
  6
Continuous
 62
     7
370
    15
390
1D
100
AcDbCircle
 10
648.9935737817814
 20
-87.37940790826497
 30
0.0
 40
6.0
100
AcDbArc
 50
0.0
 51
90.0
  0
ARC
  5
266
330
A
100
AcDbEntity
  8
FLN72-0503
  6
Continuous
 62
     7
370
    15
390
1D
100
AcDbCircle
 10
610.9935737817814
 20
-87.37940790826497
 30
0.0
 40
6.0
100
AcDbArc
 50
90.0
 51
180.0
  0
ARC
  5
267
330
A
100
AcDbEntity
  8
FLN72-0503
  6
STYLE_11
 62
     7
370
    15
390
1D
100
AcDbCircle
 10
1115.843183781781
 20
-787.588392908265
 30
0.0
 40
9.30000199999984
100
AcDbArc
 50
181.4982529999998
 51
239.1879120000063
  0
ARC
  5
268
330
A
100
AcDbEntity
  8
FLN72-0503
  6
STYLE_11
 62
     7
370
    15
390
1D
100
AcDbCircle
 10
1115.843183781781
 20
-875.1704239082649
 30
0.0
 40
9.299993999999508
100
AcDbArc
 50
120.8120779999975
 51
178.5017470000008
  0
POLYLINE
  5
269
330
A
100
AcDbEntity
  8
FLN72-0503
  6
Continuous
 62
     7
370
    15
390
1D
100
AcDb2dPolyline
 66
     1
 10
0.0
 20
0.0
 30
0.0
 70
     1
 75
     5
  0
VERTEX
  5
26A
330
269
100
AcDbEntity
  8
FLN72-0503
  6
Continuous
 62
     7
370
    15
390
1D
100
AcDbVertex
100
AcDb2dVertex
 10
657.9935737817814
 20
-81.3699421600486
 30
0.0
  0
VERTEX
  5
26B
330
269
100
AcDbEntity
  8
FLN72-0503
  6
Continuous
 62
     7
370
    15
390
1D
100
AcDbVertex
100
AcDb2dVertex
 10
1109.993573781781
 20
-81.3699421600486
 30
0.0
  0
VERTEX
  5
26C
330
269
100
AcDbEntity
  8
FLN72-0503
  6
Continuous
 62
     7
370
    15
390
1D
100
AcDbVertex
100
AcDb2dVertex
 10
1109.993573781781
 20
-1581.369942160049
 30
0.0
  0
VERTEX
  5
26D
330
269
100
AcDbEntity
  8
FLN72-0503
  6
Continuous
 62
     7
370
    15
390
1D
100
AcDbVertex
100
AcDb2dVertex
 10
657.9935737817814
 20
-1581.369942160049
 30
0.0
  0
SEQEND
  5
26E
330
269
100
AcDbEntity
  8
FLN72-0503
  6
Continuous
 62
     7
370
    15
390
1D
  0
LINE
  5
26F
330
A
100
AcDbEntity
  8
FLN72-0503
  6
Continuous
 62
     7
370
    15
390
1D
100
AcDbLine
 10
1109.993573781781
 20
-1581.369942160049
 30
0.0
 11
1244.993573781781
 21
-1581.369942160049
 31
0.0
  0
LINE
  5
270
330
A
100
AcDbEntity
  8
FLN72-0503
  6
Continuous
 62
     7
370
    15
390
1D
100
AcDbLine
 10
1109.993573781781
 20
-81.3699421600486
 30
0.0
 11
1244.993573781781
 21
-81.3699421600486
 31
0.0
  0
LINE
  5
271
330
A
100
AcDbEntity
  8
FLN72-0503
  6
Continuous
 62
     7
370
    15
390
1D
100
AcDbLine
 10
1244.993573781781
 20
-1581.369942160049
 30
0.0
 11
1244.993573781781
 21
-81.3699421600486
 31
0.0
  0
LINE
  5
272
330
A
100
AcDbEntity
  8
FLN72-0503
  6
Continuous
 62
     7
370
    15
390
1D
100
AcDbLine
 10
654.9935737817814
 20
-84.3699421600486
 30
0.0
 11
654.9935737817814
 21
-1578.369942160049
 31
0.0
  0
ARC
  5
273
330
A
100
AcDbEntity
  8
FLN72-0503
  6
Continuous
 62
     7
370
    15
390
1D
100
AcDbCircle
 10
660.5916499931345
 20
-1575.771865948695
 30
0.0
 40
6.171584664259019
100
AcDbArc
 50
204.8960906389821
 51
245.1039093610179
  0
ARC
  5
274
330
A
100
AcDbEntity
  8
FLN72-0503
  6
Continuous
 62
     7
370
    15
390
1D
100
AcDbCircle
 10
660.5916499931345
 20
-86.96801837140174
 30
0.0
 40
6.171584664259019
100
AcDbArc
 50
114.8960906389821
 51
155.1039093610179
  0
POINT
  5
275
330
A
100
AcDbEntity
  8
FLN72-0503
  6
Continuous
 62
     7
370
     5
390
1D
100
AcDbPoint
 10
979.9935737817814
 20
-231.3653526600483
 30
0.0
  0
POINT
  5
276
330
A
100
AcDbEntity
  8
FLN72-0503
  6
Continuous
 62
     7
370
     5
390
1D
100
AcDbPoint
 10
979.9935737817814
 20
-1431.365352660048
 30
0.0
  0
POINT
  5
277
330
A
100
AcDbEntity
  8
FLN72-0503
  6
Continuous
 62
     7
370
     5
390
1D
100
AcDbPoint
 10
1045.255566003814
 20
1868.88062521154
 30
0.0
  0
POINT
  5
278
330
A
100
AcDbEntity
  8
FLN72-0503
  6
Continuous
 62
     7
370
     5
390
1D
100
AcDbPoint
 10
1045.255566003814
 20
1308.880625211536
 30
0.0
  0
POINT
  5
279
330
A
100
AcDbEntity
  8
FLN72-0503
  6
Continuous
 62
     7
370
     5
390
1D
100
AcDbPoint
 10
604.9906662130024
 20
1993.554702968705
 30
0.0
  0
POINT
  5
27A
330
A
100
AcDbEntity
  8
FLN72-0503
  6
Continuous
 62
     7
370
     5
390
1D
100
AcDbPoint
 10
604.9906662130024
 20
1113.554702968702
 30
0.0
  0
INSERT
  5
27B
330
A
100
AcDbEntity
  8
FLN72-0503
 62
     7
390
1D
100
AcDbBlockReference
  2
グループ-2
 10
0.0
 20
0.0
 30
0.0
  0
LINE
  5
27C
330
A
100
AcDbEntity
  8
FLN72-0503
  6
Continuous
 62
     7
370
    15
390
1D
100
AcDbLine
 10
604.9935737817814
 20
-536.4640746055101
 30
0.0
 11
1099.993573781781
 21
-536.4640746055101
 31
0.0
  0
POLYLINE
  5
27D
330
A
100
AcDbEntity
  8
FLN72-0503
  6
Continuous
 62
     7
370
    15
390
1D
100
AcDb2dPolyline
 66
     1
 10
0.0
 20
0.0
 30
0.0
 70
     1
 75
     5
  0
VERTEX
  5
27E
330
27D
100
AcDbEntity
  8
FLN72-0503
  6
Continuous
 62
     7
370
    15
390
1D
100
AcDbVertex
100
AcDb2dVertex
 10
655.6373039931341
 20
2067.430057839952
 30
0.0
  0
VERTEX
  5
27F
330
27D
100
AcDbEntity
  8
FLN72-0503
  6
Continuous
 62
     7
370
    15
390
1D
100
AcDbVertex
100
AcDb2dVertex
 10
1107.637303993135
 20
2067.430057839952
 30
0.0
  0
VERTEX
  5
280
330
27D
100
AcDbEntity
  8
FLN72-0503
  6
Continuous
 62
     7
370
    15
390
1D
100
AcDbVertex
100
AcDb2dVertex
 10
1107.637303993135
 20
1857.430057839951
 30
0.0
  0
VERTEX
  5
281
330
27D
100
AcDbEntity
  8
FLN72-0503
  6
Continuous
 62
     7
370
    15
390
1D
100
AcDbVertex
100
AcDb2dVertex
 10
655.6373039931341
 20
1857.430057839951
 30
0.0
  0
SEQEND
  5
282
330
27D
100
AcDbEntity
  8
FLN72-0503
  6
Continuous
 62
     7
370
    15
390
1D
  0
POLYLINE
  5
283
330
A
100
AcDbEntity
  8
FLN72-0503
  6
Continuous
 62
     7
370
    15
390
1D
100
AcDb2dPolyline
 66
     1
 10
0.0
 20
0.0
 30
0.0
 70
     1
 75
     5
  0
VERTEX
  5
284
330
283
100
AcDbEntity
  8
FLN72-0503
  6
Continuous
 62
     7
370
    15
390
1D
100
AcDbVertex
100
AcDb2dVertex
 10
1107.637303993135
 20
2042.430057839952
 30
0.0
  0
VERTEX
  5
285
330
283
100
AcDbEntity
  8
FLN72-0503
  6
Continuous
 62
     7
370
    15
390
1D
100
AcDbVertex
100
AcDb2dVertex
 10
1245.037303993135
 20
2042.430057839952
 30
0.0
  0
VERTEX
  5
286
330
283
100
AcDbEntity
  8
FLN72-0503
  6
Continuous
 62
     7
370
    15
390
1D
100
AcDbVertex
100
AcDb2dVertex
 10
1245.037303993135
 20
1842.430057839951
 30
0.0
  0
VERTEX
  5
287
330
283
100
AcDbEntity
  8
FLN72-0503
  6
Continuous
 62
     7
370
    15
390
1D
100
AcDbVertex
100
AcDb2dVertex
 10
1107.637303993135
 20
1842.430057839951
 30
0.0
  0
SEQEND
  5
288
330
283
100
AcDbEntity
  8
FLN72-0503
  6
Continuous
 62
     7
370
    15
390
1D
  0
INSERT
  5
289
330
A
100
AcDbEntity
  8
FLN72-0503
 62
     7
390
1D
100
AcDbBlockReference
  2
グループ-3
 10
0.0
 20
0.0
 30
0.0
  0
POINT
  5
28A
330
A
100
AcDbEntity
  8
FLN72-0503
  6
Continuous
 62
     7
370
     5
390
1D
100
AcDbPoint
 10
697.9902209757829
 20
-836.3794079082649
 30
0.0
  0
POINT
  5
28B
330
A
100
AcDbEntity
  8
FLN72-0503
  6
Continuous
 62
     7
370
     5
390
1D
100
AcDbPoint
 10
1099.993573781781
 20
-661.4640746055101
 30
0.0
  0
POINT
  5
28C
330
A
100
AcDbEntity
  8
FLN72-0503
  6
Continuous
 62
     7
370
     5
390
1D
100
AcDbPoint
 10
609.9935737817814
 20
-181.379407908265
 30
0.0
  0
POINT
  5
28D
330
A
100
AcDbEntity
  8
FLN72-0503
  6
Continuous
 62
     7
370
     5
390
1D
100
AcDbPoint
 10
609.9935737817814
 20
-1481.379407908265
 30
0.0
  0
ARC
  5
28E
330
A
100
AcDbEntity
  8
FLN72-0503
  6
STYLE_11
 62
     7
370
    15
390
1D
100
AcDbCircle
 10
678.0459421998867
 20
-831.36407460551
 30
0.0
 40
25.99999999999998
100
AcDbArc
 50
219.7151372318262
 51
140.2848627681739
  0
INSERT
  5
28F
330
A
100
AcDbEntity
  8
FLN72-0503
 62
     7
390
1D
100
AcDbBlockReference
  2
グループ-5
 10
0.0
 20
0.0
 30
0.0
  0
POINT
  5
290
330
A
100
AcDbEntity
  8
FLN72-0503
  6
Continuous
 62
     7
370
     5
390
1D
100
AcDbPoint
 10
-424.9900277796942
 20
-831.4272343498006
 30
0.0
  0
POINT
  5
291
330
A
100
AcDbEntity
  8
FLN72-0503
  6
Continuous
 62
     7
370
     5
390
1D
100
AcDbPoint
 10
1245.0
 20
-831.4272343498006
 30
0.0
  0
POINT
  5
292
330
A
100
AcDbEntity
  8
FLN72-0503
  6
Continuous
 62
     7
370
     5
390
1D
100
AcDbPoint
 10
1245.0
 20
1567.43593339449
 30
0.0
  0
DIMENSION
  5
293
330
A
100
AcDbEntity
  8
notes
  6
Continuous
 62
     7
370
     5
390
1D
100
AcDbDimension
  2
*D8
 10
-1625.006426218218
 20
-81.46407460551006
 30
0.0
 11
-1625.006426218218
 21
-831.46407360551
 31
0.0
 70
    32
 71
     5
 42
0.0
 73
     0
 74
     0
 75
     0
  3
T-form線あり
100
AcDbAlignedDimension
 13
-1402.010655742436
 23
-1581.46407260551
 33
0.0
 14
-1402.010655742436
 24
-81.46407460551006
 34
0.0
 50
90.0
100
AcDbRotatedDimension
1001
ACAD
1000
DSTYLE
1002
{
1070
   279
1070
     2
1070
   340
1005
38
1070
   147
1040
10.0
1002
}
  0
DIMENSION
  5
294
330
A
100
AcDbEntity
  8
notes
  6
Continuous
 62
     7
370
     5
390
1D
100
AcDbDimension
  2
*D9
 10
-1425.010655742436
 20
168.5359253944899
 30
0.0
 11
-1025.011726788351
 21
168.5359253944899
 31
0.0
 70
    32
 71
     5
 42
0.0
 73
     0
 74
     0
 75
     0
  3
T-form線あり
100
AcDbAlignedDimension
 13
-625.0127978342662
 23
-104.1711123136837
 33
0.0
 14
-1425.010655742436
 24
-104.4640746055101
 34
0.0
100
AcDbRotatedDimension
1001
ACAD
1000
DSTYLE
1002
{
1070
   279
1070
     2
1070
   340
1005
38
1070
   147
1040
10.0
1002
}
  0
DIMENSION
  5
295
330
A
100
AcDbEntity
  8
notes
  6
Continuous
 62
     7
370
     5
390
1D
100
AcDbDimension
  2
*D10
 10
-1425.010653742436
 20
268.5359253944899
 30
0.0
 11
-925.0106547424361
 21
268.5359253944899
 31
0.0
 70
    32
 71
     5
 42
0.0
 73
     0
 74
     0
 75
     0
  3
T-form線あり
100
AcDbAlignedDimension
 13
-425.010655742436
 23
-756.4640746055101
 33
0.0
 14
-1425.010653742436
 24
-104.4640746055101
 34
0.0
100
AcDbRotatedDimension
1001
ACAD
1000
DSTYLE
1002
{
1070
   279
1070
     2
1070
   340
1005
38
1070
   147
1040
10.0
1002
}
  0
DIMENSION
  5
296
330
A
100
AcDbEntity
  8
notes
  6
Continuous
 62
     7
370
     5
390
1D
100
AcDbDimension
  2
*D11
 10
-125.0064262182185
 20
-81.46407660551006
 30
0.0
 11
-125.0064262182185
 21
-456.4640756055101
 31
0.0
 70
    32
 71
     5
 42
0.0
 73
     0
 74
     0
 75
     0
  3
T-form線あり
100
AcDbAlignedDimension
 13
-689.010655742436
 23
-831.4640746055101
 33
0.0
 14
-648.010655742436
 24
-81.46407660551006
 34
0.0
 50
90.0
100
AcDbRotatedDimension
1001
ACAD
1000
DSTYLE
1002
{
1070
   279
1070
     2
1070
   340
1005
38
1070
   147
1040
10.0
1002
}
  0
DIMENSION
  5
297
330
A
100
AcDbEntity
  8
notes
  6
Continuous
 62
     7
370
     5
390
1D
100
AcDbDimension
  2
*D12
 10
-689.010655742436
 20
-931.4640746055101
 30
0.0
 11
-788.0064262182185
 21
-921.4640746055101
 31
0.0
 70
   128
 71
     5
 42
0.0
 73
     0
 74
     0
 75
     0
  3
Tform長さ固定
100
AcDbAlignedDimension
 13
-741.010655742436
 23
-831.4640746055101
 33
0.0
 14
-689.010655742436
 24
-831.4640746055101
 34
0.0
100
AcDbRotatedDimension
1001
ACAD
1000
DSTYLE
1002
{
1070
   279
1070
     2
1070
   340
1005
38
1070
     3
1000
φ<>
1070
   174
1070
     0
1070
   147
1040
10.0
1002
}
  0
DIMENSION
  5
298
330
A
100
AcDbEntity
  8
notes
  6
Continuous
 62
     7
370
     5
390
1D
100
AcDbDimension
  2
*D13
 10
344.9944504999997
 20
1308.880625211536
 30
0.0
 11
344.9944504999997
 21
1588.880625211538
 31
0.0
 70
    32
 71
     5
 42
0.0
 73
     0
 74
     0
 75
     0
  3
T-form線あり
100
AcDbAlignedDimension
 13
979.5581460044395
 23
1868.88062521154
 33
0.0
 14
979.5581460044395
 24
1308.880625211536
 34
0.0
 50
90.0
100
AcDbRotatedDimension
1001
ACAD
1000
DSTYLE
1002
{
1070
   279
1070
     2
1070
   340
1005
38
1070
   147
1040
10.0
1002
}
  0
DIMENSION
  5
299
330
A
100
AcDbEntity
  8
notes
  6
Continuous
 62
     7
370
     5
390
1D
100
AcDbDimension
  2
*D14
 10
244.9944505000004
 20
1113.554702968702
 30
0.0
 11
234.9944505000004
 21
1588.880625211538
 31
0.0
 70
   128
 71
     5
 42
0.0
 73
     0
 74
     0
 75
     0
  3
T-form線あり
100
AcDbAlignedDimension
 13
600.9906662130024
 23
1993.554702968705
 33
0.0
 14
600.9906662130024
 24
1113.554702968702
 34
0.0
 50
90.0
100
AcDbRotatedDimension
1001
ACAD
1000
DSTYLE
1002
{
1070
   279
1070
     2
1070
   340
1005
38
1070
   147
1040
10.0
1002
}
  0
DIMENSION
  5
29A
330
A
100
AcDbEntity
  8
notes
  6
Continuous
 62
     7
370
     5
390
1D
100
AcDbDimension
  2
*D15
 10
1244.990220975783
 20
268.5359253944899
 30
0.0
 11
924.9918973787821
 21
268.5359253944899
 31
0.0
 70
    32
 71
     5
 42
0.0
 73
     0
 74
     0
 75
     0
  3
T-form線あり
100
AcDbAlignedDimension
 13
604.9935737817814
 23
-87.37940790826497
 33
0.0
 14
1244.990220975783
 24
-31.36407460551004
 34
0.0
100
AcDbRotatedDimension
1001
ACAD
1000
DSTYLE
1002
{
1070
   279
1070
     2
1070
   340
1005
38
1070
   147
1040
10.0
1002
}
  0
DIMENSION
  5
29B
330
A
100
AcDbEntity
  8
notes
  6
Continuous
 62
     7
370
     5
390
1D
100
AcDbDimension
  2
*D16
 10
344.9944505000002
 20
-231.3653526600483
 30
0.0
 11
344.9944505000002
 21
-831.3653526600483
 31
0.0
 70
    32
 71
     5
 42
0.0
 73
     0
 74
     0
 75
     0
  3
T-form線あり
100
AcDbAlignedDimension
 13
979.9935737817814
 23
-1431.365352660048
 33
0.0
 14
979.9935737817814
 24
-231.3653526600483
 34
0.0
 50
90.0
100
AcDbRotatedDimension
1001
ACAD
1000
DSTYLE
1002
{
1070
   279
1070
     2
1070
   340
1005
38
1070
   147
1040
10.0
1002
}
  0
DIMENSION
  5
29C
330
A
100
AcDbEntity
  8
notes
  6
Continuous
 62
     7
370
     5
390
1D
100
AcDbDimension
  2
*D17
 10
244.9944505000002
 20
-141.3794079082649
 30
0.0
 11
213.0571848750001
 21
-831.379407908265
 31
0.0
 70
    32
 71
     5
 42
1380.0
 73
     0
 74
     0
 75
     0
  3
T-form線あり
100
AcDbAlignedDimension
 13
600.7909991503266
 23
-1521.379407908265
 33
0.0
 14
600.7909991503266
 24
-141.379407908265
 34
0.0
 50
90.0
100
AcDbRotatedDimension
1001
ACAD
1000
DSTYLE
1002
{
1070
   279
1070
     2
1070
   340
1005
38
1070
   147
1040
10.0
1002
}
  0
DIMENSION
  5
29D
330
A
100
AcDbEntity
  8
notes
  6
Continuous
 62
     7
370
     5
390
1D
100
AcDbDimension
  2
*D18
 10
532.0134226796207
 20
-805.3794079082649
 30
0.0
 11
522.0134226796207
 21
-756.4640746055101
 31
0.0
 70
   128
 71
     5
 42
0.0
 73
     0
 74
     0
 75
     0
  3
T-form線あり
100
AcDbAlignedDimension
 13
674.9935737817814
 23
-857.3794079082646
 33
0.0
 14
674.9935737817814
 24
-805.3794079082649
 34
0.0
 50
90.0
100
AcDbRotatedDimension
1001
ACAD
1000
DSTYLE
1002
{
1070
   279
1070
     2
1070
   340
1005
38
1070
     3
1000
φ<>
1070
   174
1070
     0
1070
   147
1040
10.0
1002
}
  0
DIMENSION
  5
29E
330
A
100
AcDbEntity
  8
notes
  6
Continuous
 62
     7
370
    15
390
1D
100
AcDbDimension
  2
*D19
 10
697.9902209757829
 20
-730.4640746055101
 30
0.0
 11
744.9944505000004
 21
-720.4640746055101
 31
0.0
 70
   128
 71
     5
 42
0.0
 73
     0
 74
     0
 75
     0
  3
Tform長さ固定
100
AcDbAlignedDimension
 13
604.9902209757829
 23
-820.4640746055101
 33
0.0
 14
697.9902209757829
 24
-836.3794079082649
 34
0.0
100
AcDbRotatedDimension
1001
ACAD
1000
DSTYLE
1002
{
1070
   279
1070
     2
1070
   340
1005
38
1070
     3
1000
<>(※1)
1070
   174
1070
     0
1070
   147
1040
10.0
1002
}
  0
DIMENSION
  5
29F
330
A
100
AcDbEntity
  8
notes
  6
Continuous
 62
     7
370
     5
390
1D
100
AcDbDimension
  2
*D20
 10
604.9922238317549
 20
2268.53592539449
 30
0.0
 11
583.9944505000003
 21
2278.53592539449
 31
0.0
 70
   128
 71
     5
 42
0.0
 73
     0
 74
     0
 75
     0
  3
T-form線あり
100
AcDbAlignedDimension
 13
654.9922238315594
 23
2028.535826558458
 33
0.0
 14
604.9922238317549
 24
2028.53592539449
 34
0.0
100
AcDbRotatedDimension
1001
ACAD
1000
DSTYLE
1002
{
1070
   279
1070
     2
1070
   340
1005
38
1070
   174
1070
     0
1070
   147
1040
10.0
1002
}
  0
DIMENSION
  5
2A0
330
A
100
AcDbEntity
  8
notes
  6
Continuous
 62
     7
370
     5
390
1D
100
AcDbDimension
  2
*D21
 10
1099.993573781781
 20
168.5359253944899
 30
0.0
 11
852.4935737817814
 21
168.5359253944899
 31
0.0
 70
    32
 71
     5
 42
0.0
 73
     0
 74
     0
 75
     0
  3
T-form線あり
100
AcDbAlignedDimension
 13
604.9935737817814
 23
-91.46407460551012
 33
0.0
 14
1099.993573781781
 24
-455.4640746055101
 34
0.0
100
AcDbRotatedDimension
1001
ACAD
1000
DSTYLE
1002
{
1070
   279
1070
     2
1070
   340
1005
38
1070
   147
1040
10.0
1002
}
  0
DIMENSION
  5
2A1
330
A
100
AcDbEntity
  8
notes
  6
Continuous
 62
     7
370
     5
390
1D
100
AcDbDimension
  2
*D22
 10
697.9902209757829
 20
-730.4640746055101
 30
0.0
 11
744.9944505000004
 21
-720.4640746055101
 31
0.0
 70
   128
 71
     5
 42
0.0
 73
     0
 74
     0
 75
     0
  3
Tform長さ固定
100
AcDbAlignedDimension
 13
604.9902209757829
 23
-820.4640746055101
 33
0.0
 14
697.9902209757829
 24
-836.3794079082649
 34
0.0
100
AcDbRotatedDimension
1001
ACAD
1000
DSTYLE
1002
{
1070
   279
1070
     2
1070
   340
1005
38
1070
     3
1000
<>(※1)
1070
   174
1070
     0
1070
   147
1040
10.0
1002
}
  0
MTEXT
  5
2A2
330
A
100
AcDbEntity
  8
notes
 62
     7
390
1D
100
AcDbMText
 10
1464.161982944782
 20
-1465.840182934853
 30
0.0
 40
48.86523437500001
 41
0.0
 46
0.0
 71
     1
 72
     1
  1
※1：オーバーフロー使用時の満水位置
  7
ＭＳ ゴシック
 11
0.0
 21
1.0
 31
0.0
 73
     1
 44
0.7828267384257843
  0
ENDSEC
  0
SECTION
  2
OBJECTS
  0
DICTIONARY
  5
19
330
0
100
AcDbDictionary
281
     1
  3
ACAD_DETAILVIEWSTYLE
350
2F2
  3
ACAD_GROUP
350
1A
  3
ACAD_IMAGE_VARS
350
2E8
  3
ACAD_LAYOUT
350
1E
  3
ACAD_MATERIAL
350
2DE
  3
ACAD_MLEADERSTYLE
350
2E4
  3
ACAD_MLINESTYLE
350
1B
  3
ACAD_PLOTSETTINGS
350
22
  3
ACAD_PLOTSTYLENAME
350
1F
  3
ACAD_SCALELIST
350
2A3
  3
ACAD_SECTIONVIEWSTYLE
350
2F3
  3
ACAD_TABLESTYLE
350
2E2
  3
ACAD_VISUALSTYLE
350
2C5
  3
ACDB_RECOMPOSE_DATA
350
2F7
  3
AcDbVariableDictionary
350
2E9
  3
APPDATA
350
2E6
  0
SUN
  5
2E7
330
15
100
AcDbSun
 90
        1
290
     0
 63
     7
421
 16777215
 40
1.0
291
     1
 91
  2455826
 92
 54000000
292
     0
 70
     2
 71
   256
280
     1
  0
DICTIONARY
  5
2F2
102
{ACAD_REACTORS
330
19
102
}
330
19
100
AcDbDictionary
281
     1
  0
DICTIONARY
  5
1A
102
{ACAD_REACTORS
330
19
102
}
330
19
100
AcDbDictionary
281
     1
  0
RASTERVARIABLES
  5
2E8
102
{ACAD_REACTORS
330
19
102
}
330
19
100
AcDbRasterVariables
 90
        0
 70
     1
 71
     1
 72
     1
  0
DICTIONARY
  5
1E
102
{ACAD_REACTORS
330
19
102
}
330
19
100
AcDbDictionary
281
     1
  3
Layout1
350
21
  3
Model
350
20
  0
DICTIONARY
  5
2DE
102
{ACAD_REACTORS
330
19
102
}
330
19
100
AcDbDictionary
281
     1
  3
ByBlock
350
2E0
  3
ByLayer
350
2DF
  3
Global
350
2E1
  0
DICTIONARY
  5
2E4
102
{ACAD_REACTORS
330
19
102
}
330
19
100
AcDbDictionary
281
     1
  3
Standard
350
2E5
  0
DICTIONARY
  5
1B
102
{ACAD_REACTORS
330
19
102
}
330
19
100
AcDbDictionary
281
     1
  3
Standard
350
1C
  0
DICTIONARY
  5
22
102
{ACAD_REACTORS
330
19
102
}
330
19
100
AcDbDictionary
281
     1
  0
ACDBDICTIONARYWDFLT
  5
1F
102
{ACAD_REACTORS
330
19
102
}
330
19
100
AcDbDictionary
281
     1
  3
Normal
350
1D
100
AcDbDictionaryWithDefault
340
1D
  0
DICTIONARY
  5
2A3
102
{ACAD_REACTORS
330
19
102
}
330
19
100
AcDbDictionary
281
     1
  3
A0
350
2A4
  3
A1
350
2A5
  3
A2
350
2A6
  3
A3
350
2A7
  3
A4
350
2A8
  3
A5
350
2A9
  3
A6
350
2AA
  3
A7
350
2AB
  3
A8
350
2AC
  3
A9
350
2AD
  3
B0
350
2AE
  3
B1
350
2AF
  3
B2
350
2B0
  3
B3
350
2B1
  3
B4
350
2B2
  3
B5
350
2B3
  3
B6
350
2B4
  3
B7
350
2B5
  3
B8
350
2B6
  3
B9
350
2B7
  3
C0
350
2B8
  3
C1
350
2B9
  3
C2
350
2BA
  3
C3
350
2BB
  3
C4
350
2BC
  3
C5
350
2BD
  3
C6
350
2BE
  3
C7
350
2BF
  3
C8
350
2C0
  3
C9
350
2C1
  3
D0
350
2C2
  3
D1
350
2C3
  3
D2
350
2C4
  0
DICTIONARY
  5
2F3
102
{ACAD_REACTORS
330
19
102
}
330
19
100
AcDbDictionary
281
     1
  0
DICTIONARY
  5
2E2
102
{ACAD_REACTORS
330
19
102
}
330
19
100
AcDbDictionary
281
     1
  3
Standard
350
2E3
  0
DICTIONARY
  5
2C5
102
{ACAD_REACTORS
330
19
102
}
330
19
100
AcDbDictionary
281
     1
  3
2dWireframe
350
2CA
  3
Basic
350
2CD
  3
Brighten
350
2D1
  3
ColorChange
350
2D5
  3
Conceptual
350
2CF
  3
Dim
350
2D0
  3
EdgeColorOff
350
2D8
  3
Facepattern
350
2D4
  3
Flat
350
2C6
  3
FlatWithEdges
350
2C7
  3
Gouraud
350
2C8
  3
GouraudWithEdges
350
2C9
  3
Hidden
350
2CC
  3
JitterOff
350
2D6
  3
Linepattern
350
2D3
  3
OverhangOff
350
2D7
  3
Realistic
350
2CE
  3
Shaded
350
2DD
  3
Shaded with edges
350
2DC
  3
Shades of Gray
350
2D9
  3
Sketchy
350
2DA
  3
Thicken
350
2D2
  3
Wireframe
350
2CB
  3
X-Ray
350
2DB
  0
XRECORD
  5
2F7
102
{ACAD_REACTORS
330
19
102
}
330
19
100
AcDbXrecord
280
     1
 90
        1
330
2E3
  0
DICTIONARY
  5
2E9
102
{ACAD_REACTORS
330
19
102
}
330
19
100
AcDbDictionary
281
     1
  3
CANNOSCALE
350
2EA
  3
CMLEADERSTYLE
350
2F0
  3
CTABLESTYLE
350
2EF
  3
MSLTSCALE
350
2F1
  0
DICTIONARY
  5
2E6
102
{ACAD_REACTORS
330
19
102
}
330
19
100
AcDbDictionary
281
     1
  0
LAYOUT
  5
21
102
{ACAD_REACTORS
330
1E
102
}
330
1E
100
AcDbPlotSettings
  1

  2

  4

  6

 40
0.0
 41
0.0
 42
0.0
 43
0.0
 44
0.0
 45
0.0
 46
0.0
 47
0.0
 48
0.0
 49
0.0
140
0.0
141
0.0
142
1.0
143
1.0
 70
     0
 72
     0
 73
     0
 74
     0
  7

 75
     0
 76
     0
 77
     2
 78
   300
147
1.0
148
0.0
149
0.0
100
AcDbLayout
  1
Layout1
 70
     0
 71
     0
 10
0.0
 20
0.0
 11
0.0
 21
0.0
 12
0.0
 22
0.0
 32
0.0
 14
0.0
 24
0.0
 34
0.0
 15
0.0
 25
0.0
 35
0.0
146
0.0
 13
0.0
 23
0.0
 33
0.0
 16
0.0
 26
0.0
 36
0.0
 17
0.0
 27
0.0
 37
0.0
 76
     0
330
B
  0
LAYOUT
  5
20
102
{ACAD_REACTORS
330
1E
102
}
330
1E
100
AcDbPlotSettings
  1

  2

  4

  6

 40
0.0
 41
0.0
 42
0.0
 43
0.0
 44
0.0
 45
0.0
 46
0.0
 47
0.0
 48
0.0
 49
0.0
140
0.0
141
0.0
142
1.0
143
1.0
 70
  1024
 72
     0
 73
     0
 74
     0
  7

 75
     0
 76
     0
 77
     2
 78
   300
147
1.0
148
0.0
149
0.0
100
AcDbLayout
  1
Model
 70
     0
 71
     1
 10
0.0
 20
0.0
 11
0.0
 21
0.0
 12
0.0
 22
0.0
 32
0.0
 14
-1950.000000000482
 24
-2854.709050363715
 34
0.0
 15
1950.000000000482
 25
2811.999999999999
 35
0.0
146
0.0
 13
0.0
 23
0.0
 33
0.0
 16
0.0
 26
0.0
 36
0.0
 17
0.0
 27
0.0
 37
0.0
 76
     0
330
A
331
15
  0
MATERIAL
  5
2E0
102
{ACAD_REACTORS
330
2DE
102
}
330
2DE
100
AcDbMaterial
  1
ByBlock
 72
     1
 94
      127
  0
MATERIAL
  5
2DF
102
{ACAD_REACTORS
330
2DE
102
}
330
2DE
100
AcDbMaterial
  1
ByLayer
 72
     1
 94
      127
  0
MATERIAL
  5
2E1
102
{ACAD_REACTORS
330
2DE
102
}
330
2DE
100
AcDbMaterial
  1
Global
 72
     1
 94
      127
  0
MLEADERSTYLE
  5
2E5
102
{ACAD_REACTORS
330
2E4
102
}
330
2E4
100
AcDbMLeaderStyle
170
     2
171
     1
172
     0
 90
        2
 40
0.0
 41
0.0
173
     1
 91
-1056964608
340
11
 92
       -2
290
     1
 42
2.0
291
     1
 43
8.0
  3
Standard
341
0
 44
4.0
300

342
17
174
     1
178
     6
175
     1
176
     0
 93
-1056964608
 45
4.0
292
     0
297
     0
 46
4.0
343
0
 94
-1056964608
 47
1.0
 49
1.0
140
1.0
293
     1
141
0.0
294
     1
177
     0
142
1.0
295
     0
296
     0
143
3.75
1001
ACAD_MLEADERVER
1070
     2
  0
MLINESTYLE
  5
1C
102
{ACAD_REACTORS
330
1B
102
}
330
1B
100
AcDbMlineStyle
  2
Standard
 70
     0
  3

 62
     0
 51
90.0
 52
90.0
 71
     2
 49
0.5
 62
   256
  6
BYLAYER
 49
-0.5
 62
   256
  6
BYLAYER
  0
ACDBPLACEHOLDER
  5
1D
102
{ACAD_REACTORS
330
1F
102
}
330
1F
  0
SCALE
  5
2A4
102
{ACAD_REACTORS
330
2A3
102
}
330
2A3
100
AcDbScale
 70
     0
300
1:1
140
1.0
141
1.0
290
     1
  0
SCALE
  5
2A5
102
{ACAD_REACTORS
330
2A3
102
}
330
2A3
100
AcDbScale
 70
     0
300
1:2
140
1.0
141
2.0
290
     0
  0
SCALE
  5
2A6
102
{ACAD_REACTORS
330
2A3
102
}
330
2A3
100
AcDbScale
 70
     0
300
1:4
140
1.0
141
4.0
290
     0
  0
SCALE
  5
2A7
102
{ACAD_REACTORS
330
2A3
102
}
330
2A3
100
AcDbScale
 70
     0
300
1:5
140
1.0
141
5.0
290
     0
  0
SCALE
  5
2A8
102
{ACAD_REACTORS
330
2A3
102
}
330
2A3
100
AcDbScale
 70
     0
300
1:8
140
1.0
141
8.0
290
     0
  0
SCALE
  5
2A9
102
{ACAD_REACTORS
330
2A3
102
}
330
2A3
100
AcDbScale
 70
     0
300
1:10
140
1.0
141
10.0
290
     0
  0
SCALE
  5
2AA
102
{ACAD_REACTORS
330
2A3
102
}
330
2A3
100
AcDbScale
 70
     0
300
1:16
140
1.0
141
16.0
290
     0
  0
SCALE
  5
2AB
102
{ACAD_REACTORS
330
2A3
102
}
330
2A3
100
AcDbScale
 70
     0
300
1:20
140
1.0
141
20.0
290
     0
  0
SCALE
  5
2AC
102
{ACAD_REACTORS
330
2A3
102
}
330
2A3
100
AcDbScale
 70
     0
300
1:30
140
1.0
141
30.0
290
     0
  0
SCALE
  5
2AD
102
{ACAD_REACTORS
330
2A3
102
}
330
2A3
100
AcDbScale
 70
     0
300
1:40
140
1.0
141
40.0
290
     0
  0
SCALE
  5
2AE
102
{ACAD_REACTORS
330
2A3
102
}
330
2A3
100
AcDbScale
 70
     0
300
1:50
140
1.0
141
50.0
290
     0
  0
SCALE
  5
2AF
102
{ACAD_REACTORS
330
2A3
102
}
330
2A3
100
AcDbScale
 70
     0
300
1:100
140
1.0
141
100.0
290
     0
  0
SCALE
  5
2B0
102
{ACAD_REACTORS
330
2A3
102
}
330
2A3
100
AcDbScale
 70
     0
300
2:1
140
2.0
141
1.0
290
     0
  0
SCALE
  5
2B1
102
{ACAD_REACTORS
330
2A3
102
}
330
2A3
100
AcDbScale
 70
     0
300
4:1
140
4.0
141
1.0
290
     0
  0
SCALE
  5
2B2
102
{ACAD_REACTORS
330
2A3
102
}
330
2A3
100
AcDbScale
 70
     0
300
8:1
140
8.0
141
1.0
290
     0
  0
SCALE
  5
2B3
102
{ACAD_REACTORS
330
2A3
102
}
330
2A3
100
AcDbScale
 70
     0
300
10:1
140
10.0
141
1.0
290
     0
  0
SCALE
  5
2B4
102
{ACAD_REACTORS
330
2A3
102
}
330
2A3
100
AcDbScale
 70
     0
300
100:1
140
100.0
141
1.0
290
     0
  0
SCALE
  5
2B5
102
{ACAD_REACTORS
330
2A3
102
}
330
2A3
100
AcDbScale
 70
     0
300
1/128" = 1'-0"
140
0.0078125
141
12.0
290
     0
  0
SCALE
  5
2B6
102
{ACAD_REACTORS
330
2A3
102
}
330
2A3
100
AcDbScale
 70
     0
300
1/64" = 1'-0"
140
0.015625
141
12.0
290
     0
  0
SCALE
  5
2B7
102
{ACAD_REACTORS
330
2A3
102
}
330
2A3
100
AcDbScale
 70
     0
300
1/32" = 1'-0"
140
0.03125
141
12.0
290
     0
  0
SCALE
  5
2B8
102
{ACAD_REACTORS
330
2A3
102
}
330
2A3
100
AcDbScale
 70
     0
300
1/16" = 1'-0"
140
0.0625
141
12.0
290
     0
  0
SCALE
  5
2B9
102
{ACAD_REACTORS
330
2A3
102
}
330
2A3
100
AcDbScale
 70
     0
300
3/32" = 1'-0"
140
0.09375
141
12.0
290
     0
  0
SCALE
  5
2BA
102
{ACAD_REACTORS
330
2A3
102
}
330
2A3
100
AcDbScale
 70
     0
300
1/8" = 1'-0"
140
0.125
141
12.0
290
     0
  0
SCALE
  5
2BB
102
{ACAD_REACTORS
330
2A3
102
}
330
2A3
100
AcDbScale
 70
     0
300
3/16" = 1'-0"
140
0.1875
141
12.0
290
     0
  0
SCALE
  5
2BC
102
{ACAD_REACTORS
330
2A3
102
}
330
2A3
100
AcDbScale
 70
     0
300
1/4" = 1'-0"
140
0.25
141
12.0
290
     0
  0
SCALE
  5
2BD
102
{ACAD_REACTORS
330
2A3
102
}
330
2A3
100
AcDbScale
 70
     0
300
3/8" = 1'-0"
140
0.375
141
12.0
290
     0
  0
SCALE
  5
2BE
102
{ACAD_REACTORS
330
2A3
102
}
330
2A3
100
AcDbScale
 70
     0
300
1/2" = 1'-0"
140
0.5
141
12.0
290
     0
  0
SCALE
  5
2BF
102
{ACAD_REACTORS
330
2A3
102
}
330
2A3
100
AcDbScale
 70
     0
300
3/4" = 1'-0"
140
0.75
141
12.0
290
     0
  0
SCALE
  5
2C0
102
{ACAD_REACTORS
330
2A3
102
}
330
2A3
100
AcDbScale
 70
     0
300
1" = 1'-0"
140
1.0
141
12.0
290
     0
  0
SCALE
  5
2C1
102
{ACAD_REACTORS
330
2A3
102
}
330
2A3
100
AcDbScale
 70
     0
300
1-1/2" = 1'-0"
140
1.5
141
12.0
290
     0
  0
SCALE
  5
2C2
102
{ACAD_REACTORS
330
2A3
102
}
330
2A3
100
AcDbScale
 70
     0
300
3" = 1'-0"
140
3.0
141
12.0
290
     0
  0
SCALE
  5
2C3
102
{ACAD_REACTORS
330
2A3
102
}
330
2A3
100
AcDbScale
 70
     0
300
6" = 1'-0"
140
6.0
141
12.0
290
     0
  0
SCALE
  5
2C4
102
{ACAD_REACTORS
330
2A3
102
}
330
2A3
100
AcDbScale
 70
     0
300
1'-0" = 1'-0"
140
12.0
141
12.0
290
     0
  0
TABLESTYLE
  5
2E3
102
{ACAD_REACTORS
330
2E2
102
}
102
{ACAD_XDICTIONARY
360
2F4
102
}
330
2E2
100
AcDbTableStyle
  3
Standard
 70
     0
 71
     0
 40
0.06
 41
0.06
280
     0
281
     0
  7
Standard
140
4.5
170
     2
 62
     0
 63
   257
283
     0
 90
        4
 91
        0
  1

274
    -2
284
     1
 64
     0
275
    -2
285
     1
 65
     0
276
    -2
286
     1
 66
     0
277
    -2
287
     1
 67
     0
278
    -2
288
     1
 68
     0
279
    -2
289
     1
 69
     0
  7
Standard
140
6.0
170
     5
 62
     0
 63
   257
283
     0
 90
        4
 91
        0
  1

274
    -2
284
     1
 64
     0
275
    -2
285
     1
 65
     0
276
    -2
286
     1
 66
     0
277
    -2
287
     1
 67
     0
278
    -2
288
     1
 68
     0
279
    -2
289
     1
 69
     0
  7
Standard
140
4.5
170
     5
 62
     0
 63
   257
283
     0
 90
        4
 91
        0
  1

274
    -2
284
     1
 64
     0
275
    -2
285
     1
 65
     0
276
    -2
286
     1
 66
     0
277
    -2
287
     1
 67
     0
278
    -2
288
     1
 68
     0
279
    -2
289
     1
 69
     0
  0
VISUALSTYLE
  5
2CA
102
{ACAD_REACTORS
330
2C5
102
}
330
2C5
100
AcDbVisualStyle
  2
2dWireframe
 70
     4
 71
     0
 72
     2
 73
     0
 90
        0
 40
0.6
 41
30.0
 62
     5
 63
     7
421
 16777215
 74
     1
 91
        4
 64
     7
 65
   257
 75
     1
175
     1
 42
1.0
 92
        0
 66
   257
 43
1.0
 76
     1
 77
     6
 78
     2
 67
     7
 79
     5
170
     0
171
     0
290
     0
174
     0
 93
        1
 44
0.0
173
     0
291
     0
 45
0.0
  0
VISUALSTYLE
  5
2CD
102
{ACAD_REACTORS
330
2C5
102
}
330
2C5
100
AcDbVisualStyle
  2
Basic
 70
     7
 71
     1
 72
     0
 73
     1
 90
        0
 40
0.6
 41
30.0
 62
     5
 63
     7
421
 16777215
 74
     0
 91
        4
 64
     7
 65
   257
 75
     1
175
     1
 42
1.0
 92
        8
 66
     7
 43
1.0
 76
     1
 77
     6
 78
     2
 67
     7
 79
     5
170
     0
171
     0
290
     0
174
     0
 93
        1
 44
0.0
173
     0
291
     1
 45
0.0
  0
VISUALSTYLE
  5
2D1
102
{ACAD_REACTORS
330
2C5
102
}
330
2C5
100
AcDbVisualStyle
  2
Brighten
 70
    12
 71
     2
 72
     2
 73
     0
 90
        0
 40
0.6
 41
30.0
 62
     5
 63
     7
421
 16777215
 74
     1
 91
        4
 64
     7
 65
   257
 75
     1
175
     1
 42
1.0
 92
        8
 66
     7
 43
1.0
 76
     1
 77
     6
 78
     2
 67
     7
 79
     5
170
     0
171
     0
290
     0
174
     0
 93
        1
 44
50.0
173
     0
291
     1
 45
0.0
  0
VISUALSTYLE
  5
2D5
102
{ACAD_REACTORS
330
2C5
102
}
330
2C5
100
AcDbVisualStyle
  2
ColorChange
 70
    16
 71
     2
 72
     2
 73
     3
 90
        0
 40
0.6
 41
30.0
 62
     5
 63
     8
421
  8421504
 74
     1
 91
        4
 64
     7
 65
   257
 75
     1
175
     1
 42
1.0
 92
        8
 66
     8
424
  8421504
 43
1.0
 76
     1
 77
     6
 78
     2
 67
     7
 79
     5
170
     0
171
     0
290
     0
174
     0
 93
        1
 44
0.0
173
     0
291
     1
 45
0.0
  0
VISUALSTYLE
  5
2CF
102
{ACAD_REACTORS
330
2C5
102
}
330
2C5
100
AcDbVisualStyle
  2
Conceptual
 70
     9
 71
     3
 72
     2
 73
     0
 90
        0
 40
0.6
 41
30.0
 62
     5
 63
     7
421
 16777215
 74
     2
 91
        2
 64
     7
 65
   257
 75
     1
175
     1
 42
179.0
 92
        8
 66
     7
 43
1.0
 76
     1
 77
     6
 78
     2
 67
     7
 79
     3
170
     0
171
     0
290
     0
174
     0
 93
        1
 44
0.0
173
     0
291
     0
 45
0.0
  0
VISUALSTYLE
  5
2D0
102
{ACAD_REACTORS
330
2C5
102
}
330
2C5
100
AcDbVisualStyle
  2
Dim
 70
    11
 71
     2
 72
     2
 73
     0
 90
        0
 40
0.6
 41
30.0
 62
     5
 63
     7
421
 16777215
 74
     1
 91
        4
 64
     7
 65
   257
 75
     1
175
     1
 42
1.0
 92
        8
 66
     7
 43
1.0
 76
     1
 77
     6
 78
     2
 67
     7
 79
     5
170
     0
171
     0
290
     0
174
     0
 93
        1
 44
-50.0
173
     0
291
     1
 45
0.0
  0
VISUALSTYLE
  5
2D8
102
{ACAD_REACTORS
330
2C5
102
}
330
2C5
100
AcDbVisualStyle
  2
EdgeColorOff
 70
    22
 71
     2
 72
     2
 73
     0
 90
        0
 40
0.6
 41
30.0
 62
     5
 63
     7
421
 16777215
 74
     1
 91
        4
 64
     7
 65
   257
 75
     1
175
     1
 42
1.0
 92
        8
 66
     7
 43
1.0
 76
     1
 77
     6
 78
     2
 67
     7
 79
     5
170
     0
171
     0
290
     0
174
     0
 93
        1
 44
0.0
173
     0
291
     1
 45
0.0
  0
VISUALSTYLE
  5
2D4
102
{ACAD_REACTORS
330
2C5
102
}
330
2C5
100
AcDbVisualStyle
  2
Facepattern
 70
    15
 71
     2
 72
     2
 73
     0
 90
        0
 40
0.6
 41
30.0
 62
     5
 63
     7
421
 16777215
 74
     1
 91
        4
 64
     7
 65
   257
 75
     1
175
     1
 42
1.0
 92
        8
 66
     7
 43
1.0
 76
     1
 77
     6
 78
     2
 67
     7
 79
     5
170
     0
171
     0
290
     0
174
     0
 93
        1
 44
0.0
173
     0
291
     1
 45
0.0
  0
VISUALSTYLE
  5
2C6
102
{ACAD_REACTORS
330
2C5
102
}
330
2C5
100
AcDbVisualStyle
  2
Flat
 70
     0
 71
     2
 72
     1
 73
     1
 90
        2
 40
0.6
 41
30.0
 62
     5
 63
     7
421
 16777215
 74
     0
 91
        0
 64
     7
 65
   257
 75
     1
175
     1
 42
1.0
 92
        8
 66
     7
 43
1.0
 76
     1
 77
     6
 78
     2
 67
     7
 79
     5
170
     0
171
     0
290
     0
174
     0
 93
       13
 44
0.0
173
     0
291
     1
 45
0.0
  0
VISUALSTYLE
  5
2C7
102
{ACAD_REACTORS
330
2C5
102
}
330
2C5
100
AcDbVisualStyle
  2
FlatWithEdges
 70
     1
 71
     2
 72
     1
 73
     1
 90
        2
 40
0.6
 41
30.0
 62
     5
 63
     7
421
 16777215
 74
     1
 91
        0
 64
     7
 65
   257
 75
     1
175
     1
 42
1.0
 92
        0
 66
   257
 43
1.0
 76
     1
 77
     6
 78
     2
 67
     7
 79
     5
170
     0
171
     0
290
     0
174
     0
 93
       13
 44
0.0
173
     0
291
     1
 45
0.0
  0
VISUALSTYLE
  5
2C8
102
{ACAD_REACTORS
330
2C5
102
}
330
2C5
100
AcDbVisualStyle
  2
Gouraud
 70
     2
 71
     2
 72
     2
 73
     1
 90
        2
 40
0.6
 41
30.0
 62
     5
 63
     7
421
 16777215
 74
     0
 91
        0
 64
     7
 65
   257
 75
     1
175
     1
 42
1.0
 92
        0
 66
     7
 43
1.0
 76
     1
 77
     6
 78
     2
 67
     7
 79
     5
170
     0
171
     0
290
     0
174
     0
 93
       13
 44
0.0
173
     0
291
     1
 45
0.0
  0
VISUALSTYLE
  5
2C9
102
{ACAD_REACTORS
330
2C5
102
}
330
2C5
100
AcDbVisualStyle
  2
GouraudWithEdges
 70
     3
 71
     2
 72
     2
 73
     1
 90
        2
 40
0.6
 41
30.0
 62
     5
 63
     7
421
 16777215
 74
     1
 91
        0
 64
     7
 65
   257
 75
     1
175
     1
 42
1.0
 92
        0
 66
   257
 43
1.0
 76
     1
 77
     6
 78
     2
 67
     7
 79
     5
170
     0
171
     0
290
     0
174
     0
 93
       13
 44
0.0
173
     0
291
     1
 45
0.0
  0
VISUALSTYLE
  5
2CC
102
{ACAD_REACTORS
330
2C5
102
}
330
2C5
100
AcDbVisualStyle
  2
Hidden
 70
     6
 71
     1
 72
     2
 73
     2
 90
        0
 40
0.6
 41
30.0
 62
     5
 63
     7
421
 16777215
 74
     2
 91
        2
 64
     7
 65
   257
 75
     2
175
     1
 42
40.0
 92
        0
 66
   257
 43
1.0
 76
     1
 77
     6
 78
     2
 67
     7
 79
     3
170
     0
171
     0
290
     0
174
     0
 93
        1
 44
0.0
173
     0
291
     0
 45
0.0
  0
VISUALSTYLE
  5
2D6
102
{ACAD_REACTORS
330
2C5
102
}
330
2C5
100
AcDbVisualStyle
  2
JitterOff
 70
    20
 71
     2
 72
     2
 73
     0
 90
        0
 40
0.6
 41
30.0
 62
     5
 63
     7
421
 16777215
 74
     1
 91
        4
 64
     7
 65
   257
 75
     1
175
     1
 42
1.0
 92
       10
 66
     7
 43
1.0
 76
     1
 77
     6
 78
     2
 67
     7
 79
     5
170
     0
171
     0
290
     0
174
     0
 93
        1
 44
0.0
173
     0
291
     1
 45
0.0
  0
VISUALSTYLE
  5
2D3
102
{ACAD_REACTORS
330
2C5
102
}
330
2C5
100
AcDbVisualStyle
  2
Linepattern
 70
    14
 71
     2
 72
     2
 73
     0
 90
        0
 40
0.6
 41
30.0
 62
     5
 63
     7
421
 16777215
 74
     1
 91
        4
 64
     7
 65
   257
 75
     7
175
     7
 42
1.0
 92
        8
 66
     7
 43
1.0
 76
     1
 77
     6
 78
     2
 67
     7
 79
     5
170
     0
171
     0
290
     0
174
     0
 93
        1
 44
0.0
173
     0
291
     1
 45
0.0
  0
VISUALSTYLE
  5
2D7
102
{ACAD_REACTORS
330
2C5
102
}
330
2C5
100
AcDbVisualStyle
  2
OverhangOff
 70
    21
 71
     2
 72
     2
 73
     0
 90
        0
 40
0.6
 41
30.0
 62
     5
 63
     7
421
 16777215
 74
     1
 91
        4
 64
     7
 65
   257
 75
     1
175
     1
 42
1.0
 92
        9
 66
     7
 43
1.0
 76
     1
 77
     6
 78
     2
 67
     7
 79
     5
170
     0
171
     0
290
     0
174
     0
 93
        1
 44
0.0
173
     0
291
     1
 45
0.0
  0
VISUALSTYLE
  5
2CE
102
{ACAD_REACTORS
330
2C5
102
}
330
2C5
100
AcDbVisualStyle
  2
Realistic
 70
     8
 71
     2
 72
     3
 73
     0
 90
        2
 40
0.6
 41
30.0
 62
     5
 63
     7
421
 16777215
 74
     0
 91
        0
 64
     7
 65
   257
 75
     1
175
     1
 42
1.0
 92
        8
 66
   257
 43
1.0
 76
     1
 77
     6
 78
     2
 67
     7
 79
     3
170
     0
171
     0
290
     0
174
     0
 93
       13
 44
0.0
173
     0
291
     0
 45
0.0
  0
VISUALSTYLE
  5
2DD
102
{ACAD_REACTORS
330
2C5
102
}
330
2C5
100
AcDbVisualStyle
  2
Shaded
 70
    27
 71
     2
 72
     2
 73
     1
 90
        2
 40
0.6
 41
30.0
 62
     5
 63
     7
421
 16777215
 74
     0
 91
        4
 64
     7
 65
   257
 75
     1
175
     1
 42
1.0
 92
        8
 66
   257
 43
1.0
 76
     1
 77
     6
 78
     2
 67
     8
425
  7895160
 79
     3
170
     0
171
     0
290
     0
174
     0
 93
        5
 44
0.0
173
     0
291
     0
 45
0.0
  0
VISUALSTYLE
  5
2DC
102
{ACAD_REACTORS
330
2C5
102
}
330
2C5
100
AcDbVisualStyle
  2
Shaded with edges
 70
    26
 71
     2
 72
     2
 73
     1
 90
        2
 40
0.6
 41
30.0
 62
     5
 63
     7
421
 16777215
 74
     1
 91
       10
 64
     7
 65
   257
 75
     2
175
     1
 42
1.0
 92
        8
 66
   257
 43
1.0
 76
     1
 77
     6
 78
     2
 67
     7
 79
     3
170
     0
171
     0
290
     0
174
     0
 93
        5
 44
0.0
173
     0
291
     0
 45
0.0
  0
VISUALSTYLE
  5
2D9
102
{ACAD_REACTORS
330
2C5
102
}
330
2C5
100
AcDbVisualStyle
  2
Shades of Gray
 70
    23
 71
     2
 72
     2
 73
     3
 90
        0
 40
0.6
 41
30.0
 62
     5
 63
     7
421
 16777215
 74
     2
 91
        2
 64
     7
 65
     7
 75
     1
175
     1
 42
40.0
 92
        8
 66
     7
 43
1.0
 76
     1
 77
     6
 78
     2
 67
     7
 79
     3
170
     0
171
     0
290
     0
174
     0
 93
        1
 44
0.0
173
     0
291
     0
 45
0.0
  0
VISUALSTYLE
  5
2DA
102
{ACAD_REACTORS
330
2C5
102
}
330
2C5
100
AcDbVisualStyle
  2
Sketchy
 70
    24
 71
     1
 72
     2
 73
     2
 90
        0
 40
0.6
 41
30.0
 62
     5
 63
     7
421
 16777215
 74
     2
 91
        2
 64
     7
 65
     7
 75
     1
175
     1
 42
40.0
 92
       11
 66
     7
 43
1.0
 76
     1
 77
     6
 78
     2
 67
     7
 79
     6
170
     0
171
     0
290
     0
174
     0
 93
        1
 44
0.0
173
     0
291
     0
 45
0.0
  0
VISUALSTYLE
  5
2D2
102
{ACAD_REACTORS
330
2C5
102
}
330
2C5
100
AcDbVisualStyle
  2
Thicken
 70
    13
 71
     2
 72
     2
 73
     0
 90
        0
 40
0.6
 41
30.0
 62
     5
 63
     7
421
 16777215
 74
     1
 91
        4
 64
     7
 65
   257
 75
     1
175
     1
 42
1.0
 92
       12
 66
     7
 43
1.0
 76
     1
 77
     6
 78
     2
 67
     7
 79
     5
170
     0
171
     0
290
     0
174
     0
 93
        1
 44
0.0
173
     0
291
     1
 45
0.0
  0
VISUALSTYLE
  5
2CB
102
{ACAD_REACTORS
330
2C5
102
}
330
2C5
100
AcDbVisualStyle
  2
Wireframe
 70
     5
 71
     0
 72
     2
 73
     0
 90
        0
 40
0.6
 41
30.0
 62
     5
 63
     7
421
 16777215
 74
     1
 91
        4
 64
     7
 65
   257
 75
     1
175
     1
 42
1.0
 92
        0
 66
   257
 43
1.0
 76
     1
 77
     6
 78
     2
 67
     7
 79
     3
170
     0
171
     0
290
     0
174
     0
 93
        1
 44
0.0
173
     0
291
     0
 45
0.0
  0
VISUALSTYLE
  5
2DB
102
{ACAD_REACTORS
330
2C5
102
}
330
2C5
100
AcDbVisualStyle
  2
X-Ray
 70
    25
 71
     2
 72
     2
 73
     1
 90
        1
 40
0.5
 41
30.0
 62
     5
 63
     7
421
 16777215
 74
     1
 91
        0
 64
     7
 65
   257
 75
     1
175
     1
 42
1.0
 92
        8
 66
     7
 43
1.0
 76
     1
 77
     6
 78
     2
 67
     7
 79
     3
170
     0
171
     0
290
     0
174
     0
 93
       13
 44
0.0
173
     0
291
     0
 45
0.0
  0
DICTIONARYVAR
  5
2EA
102
{ACAD_REACTORS
330
2E9
102
}
330
2E9
100
DictionaryVariables
280
     0
  1
1:1
  0
DICTIONARYVAR
  5
2F0
102
{ACAD_REACTORS
330
2E9
102
}
330
2E9
100
DictionaryVariables
280
     0
  1
Standard
  0
DICTIONARYVAR
  5
2EF
102
{ACAD_REACTORS
330
2E9
102
}
330
2E9
100
DictionaryVariables
280
     0
  1
Standard
  0
DICTIONARYVAR
  5
2F1
102
{ACAD_REACTORS
330
2E9
102
}
330
2E9
100
DictionaryVariables
280
     0
  1
0
  0
DICTIONARY
  5
2F4
330
2E3
100
AcDbDictionary
280
     1
281
     1
  3
ACAD_ROUNDTRIP_2008_TABLESTYLE_CELLSTYLEMAP
360
2F5
  0
CELLSTYLEMAP
  5
2F5
102
{ACAD_REACTORS
330
2F4
102
}
330
2F4
100
AcDbCellStyleMap
 90
        3
300
CELLSTYLE
  1
TABLEFORMAT_BEGIN
 90
        5
170
     1
 91
        0
 92
    32768
 62
   257
 93
        1
300
CONTENTFORMAT
  1
CONTENTFORMAT_BEGIN
 90
        0
 91
        0
 92
        4
 93
        0
300

 40
0.0
140
1.0
 94
        5
 62
     0
340
17
144
6.0
309
CONTENTFORMAT_END
171
     1
301
MARGIN
  1
CELLMARGIN_BEGIN
 40
1.5
 40
1.5
 40
1.5
 40
1.5
 40
1.5
 40
1.5
309
CELLMARGIN_END
 94
        6
 95
        1
302
GRIDFORMAT
  1
GRIDFORMAT_BEGIN
 90
        0
 91
        1
 62
     0
 92
       -2
340
11
 93
        0
 40
0.045
309
GRIDFORMAT_END
 95
        2
302
GRIDFORMAT
  1
GRIDFORMAT_BEGIN
 90
        0
 91
        1
 62
     0
 92
       -2
340
11
 93
        0
 40
0.045
309
GRIDFORMAT_END
 95
        4
302
GRIDFORMAT
  1
GRIDFORMAT_BEGIN
 90
        0
 91
        1
 62
     0
 92
       -2
340
11
 93
        0
 40
0.045
309
GRIDFORMAT_END
 95
        8
302
GRIDFORMAT
  1
GRIDFORMAT_BEGIN
 90
        0
 91
        1
 62
     0
 92
       -2
340
11
 93
        0
 40
0.045
309
GRIDFORMAT_END
 95
       16
302
GRIDFORMAT
  1
GRIDFORMAT_BEGIN
 90
        0
 91
        1
 62
     0
 92
       -2
340
11
 93
        0
 40
0.045
309
GRIDFORMAT_END
 95
       32
302
GRIDFORMAT
  1
GRIDFORMAT_BEGIN
 90
        0
 91
        1
 62
     0
 92
       -2
340
11
 93
        0
 40
0.045
309
GRIDFORMAT_END
309
TABLEFORMAT_END
  1
CELLSTYLE_BEGIN
 90
        1
 91
        1
300
_TITLE
309
CELLSTYLE_END
300
CELLSTYLE
  1
TABLEFORMAT_BEGIN
 90
        5
170
     1
 91
        0
 92
        0
 62
   257
 93
        1
300
CONTENTFORMAT
  1
CONTENTFORMAT_BEGIN
 90
        0
 91
        0
 92
        4
 93
        0
300

 40
0.0
140
1.0
 94
        5
 62
     0
340
17
144
4.5
309
CONTENTFORMAT_END
171
     1
301
MARGIN
  1
CELLMARGIN_BEGIN
 40
1.5
 40
1.5
 40
1.5
 40
1.5
 40
1.5
 40
1.5
309
CELLMARGIN_END
 94
        6
 95
        1
302
GRIDFORMAT
  1
GRIDFORMAT_BEGIN
 90
        0
 91
        1
 62
     0
 92
       -2
340
11
 93
        0
 40
0.045
309
GRIDFORMAT_END
 95
        2
302
GRIDFORMAT
  1
GRIDFORMAT_BEGIN
 90
        0
 91
        1
 62
     0
 92
       -2
340
11
 93
        0
 40
0.045
309
GRIDFORMAT_END
 95
        4
302
GRIDFORMAT
  1
GRIDFORMAT_BEGIN
 90
        0
 91
        1
 62
     0
 92
       -2
340
11
 93
        0
 40
0.045
309
GRIDFORMAT_END
 95
        8
302
GRIDFORMAT
  1
GRIDFORMAT_BEGIN
 90
        0
 91
        1
 62
     0
 92
       -2
340
11
 93
        0
 40
0.045
309
GRIDFORMAT_END
 95
       16
302
GRIDFORMAT
  1
GRIDFORMAT_BEGIN
 90
        0
 91
        1
 62
     0
 92
       -2
340
11
 93
        0
 40
0.045
309
GRIDFORMAT_END
 95
       32
302
GRIDFORMAT
  1
GRIDFORMAT_BEGIN
 90
        0
 91
        1
 62
     0
 92
       -2
340
11
 93
        0
 40
0.045
309
GRIDFORMAT_END
309
TABLEFORMAT_END
  1
CELLSTYLE_BEGIN
 90
        2
 91
        1
300
_HEADER
309
CELLSTYLE_END
300
CELLSTYLE
  1
TABLEFORMAT_BEGIN
 90
        5
170
     1
 91
        0
 92
        0
 62
   257
 93
        1
300
CONTENTFORMAT
  1
CONTENTFORMAT_BEGIN
 90
        0
 91
        0
 92
        4
 93
        0
300

 40
0.0
140
1.0
 94
        2
 62
     0
340
17
144
4.5
309
CONTENTFORMAT_END
171
     1
301
MARGIN
  1
CELLMARGIN_BEGIN
 40
1.5
 40
1.5
 40
1.5
 40
1.5
 40
1.5
 40
1.5
309
CELLMARGIN_END
 94
        6
 95
        1
302
GRIDFORMAT
  1
GRIDFORMAT_BEGIN
 90
        0
 91
        1
 62
     0
 92
       -2
340
11
 93
        0
 40
0.045
309
GRIDFORMAT_END
 95
        2
302
GRIDFORMAT
  1
GRIDFORMAT_BEGIN
 90
        0
 91
        1
 62
     0
 92
       -2
340
11
 93
        0
 40
0.045
309
GRIDFORMAT_END
 95
        4
302
GRIDFORMAT
  1
GRIDFORMAT_BEGIN
 90
        0
 91
        1
 62
     0
 92
       -2
340
11
 93
        0
 40
0.045
309
GRIDFORMAT_END
 95
        8
302
GRIDFORMAT
  1
GRIDFORMAT_BEGIN
 90
        0
 91
        1
 62
     0
 92
       -2
340
11
 93
        0
 40
0.045
309
GRIDFORMAT_END
 95
       16
302
GRIDFORMAT
  1
GRIDFORMAT_BEGIN
 90
        0
 91
        1
 62
     0
 92
       -2
340
11
 93
        0
 40
0.045
309
GRIDFORMAT_END
 95
       32
302
GRIDFORMAT
  1
GRIDFORMAT_BEGIN
 90
        0
 91
        1
 62
     0
 92
       -2
340
11
 93
        0
 40
0.045
309
GRIDFORMAT_END
309
TABLEFORMAT_END
  1
CELLSTYLE_BEGIN
 90
        3
 91
        2
300
_DATA
309
CELLSTYLE_END
  0
ENDSEC
  0
EOF
