  0
SECTION
  2
HEADER
  9
$ACADVER
  1
AC1021
  9
$ACADMAINTVER
 70
    25
  9
$DWGCODEPAGE
  3
ANSI_932
  9
$LASTSAVEDBY
  1
howeNelson
  9
$INSBASE
 10
0.0
 20
0.0
 30
0.0
  9
$EXTMIN
 10
144.5094110644077
 20
137.690537338739
 30
-0.0000000000002274
  9
$EXTMAX
 10
4044.509411065372
 20
5804.399587702454
 30
0.0
  9
$LIMMIN
 10
0.0
 20
0.0
  9
$LIMMAX
 10
4200.000000000001
 20
5940.000000000001
  9
$ORTHOMODE
 70
     0
  9
$REGENMODE
 70
     1
  9
$FILLMODE
 70
     1
  9
$QTEXTMODE
 70
     0
  9
$MIRRTEXT
 70
     1
  9
$LTSCALE
 40
50.8
  9
$ATTMODE
 70
     1
  9
$TEXTSIZE
 40
533.0403732820173
  9
$TRACEWID
 40
1.0
  9
$TEXTSTYLE
  7
Standard
  9
$CLAYER
  8
DIM
  9
$CELTYPE
  6
Continuous
  9
$CECOLOR
 62
   256
  9
$CELTSCALE
 40
1.0
  9
$DISPSILH
 70
     0
  9
$DIMSCALE
 40
1.0
  9
$DIMASZ
 40
18.0
  9
$DIMEXO
 40
25.0
  9
$DIMDLI
 40
25.0
  9
$DIMRND
 40
0.0
  9
$DIMDLE
 40
0.0
  9
$DIMEXE
 40
0.0
  9
$DIMTP
 40
0.0
  9
$DIMTM
 40
0.0
  9
$DIMTXT
 40
48.0
  9
$DIMCEN
 40
0.0
  9
$DIMTSZ
 40
0.0
  9
$DIMTOL
 70
     0
  9
$DIMLIM
 70
     0
  9
$DIMTIH
 70
     0
  9
$DIMTOH
 70
     0
  9
$DIMSE1
 70
     0
  9
$DIMSE2
 70
     0
  9
$DIMTAD
 70
     1
  9
$DIMZIN
 70
    11
  9
$DIMBLK
  1
DOT
  9
$DIMASO
 70
     1
  9
$DIMSHO
 70
     1
  9
$DIMPOST
  1
<>
  9
$DIMAPOST
  1
[]
  9
$DIMALT
 70
     0
  9
$DIMALTD
 70
     1
  9
$DIMALTF
 40
1.0
  9
$DIMLFAC
 40
1.0
  9
$DIMTOFL
 70
     0
  9
$DIMTVP
 40
0.0
  9
$DIMTIX
 70
     1
  9
$DIMSOXD
 70
     0
  9
$DIMSAH
 70
     0
  9
$DIMBLK1
  1

  9
$DIMBLK2
  1

  9
$DIMSTYLE
  2
JIS
  9
$DIMCLRD
 70
     0
  9
$DIMCLRE
 70
     0
  9
$DIMCLRT
 70
     0
  9
$DIMTFAC
 40
1.0
  9
$DIMGAP
 40
30.0
  9
$DIMJUST
 70
     0
  9
$DIMSD1
 70
     0
  9
$DIMSD2
 70
     0
  9
$DIMTOLJ
 70
     1
  9
$DIMTZIN
 70
    11
  9
$DIMALTZ
 70
    11
  9
$DIMALTTZ
 70
    11
  9
$DIMUPT
 70
     0
  9
$DIMDEC
 70
     0
  9
$DIMTDEC
 70
     1
  9
$DIMALTU
 70
     2
  9
$DIMALTTD
 70
     2
  9
$DIMTXSTY
  7
ＭＳ ゴシック
  9
$DIMAUNIT
 70
     0
  9
$DIMADEC
 70
     0
  9
$DIMALTRND
 40
0.0
  9
$DIMAZIN
 70
     0
  9
$DIMDSEP
 70
    46
  9
$DIMATFIT
 70
     0
  9
$DIMFRAC
 70
     2
  9
$DIMLDRBLK
  1
DOT
  9
$DIMLUNIT
 70
     2
  9
$DIMLWD
 70
    -2
  9
$DIMLWE
 70
    -2
  9
$DIMTMOVE
 70
     0
  9
$DIMFXL
 40
1.0
  9
$DIMFXLON
 70
     0
  9
$DIMJOGANG
 40
0.7853981633974483
  9
$DIMTFILL
 70
     0
  9
$DIMTFILLCLR
 70
     0
  9
$DIMARCSYM
 70
     0
  9
$DIMLTYPE
  6

  9
$DIMLTEX1
  6

  9
$DIMLTEX2
  6

  9
$LUNITS
 70
     2
  9
$LUPREC
 70
     0
  9
$SKETCHINC
 40
0.1
  9
$FILLETRAD
 40
0.0
  9
$AUNITS
 70
     0
  9
$AUPREC
 70
     0
  9
$MENU
  1
acad
  9
$ELEVATION
 40
0.0
  9
$PELEVATION
 40
0.0
  9
$THICKNESS
 40
0.0
  9
$LIMCHECK
 70
     0
  9
$CHAMFERA
 40
0.0
  9
$CHAMFERB
 40
0.0
  9
$CHAMFERC
 40
0.0
  9
$CHAMFERD
 40
0.0
  9
$SKPOLY
 70
     0
  9
$TDCREATE
 40
2447893.375
  9
$TDUCREATE
 40
0.0
  9
$TDUPDATE
 40
2458381.681535174
  9
$TDUUPDATE
 40
2458381.306535174
  9
$TDINDWG
 40
0.0
  9
$TDUSRTIMER
 40
0.0
  9
$USRTIMER
 70
     1
  9
$ANGBASE
 50
0.0
  9
$ANGDIR
 70
     0
  9
$PDMODE
 70
     1
  9
$PDSIZE
 40
-2.0
  9
$PLINEWID
 40
0.0
  9
$SPLFRAME
 70
     0
  9
$SPLINETYPE
 70
     6
  9
$SPLINESEGS
 70
     8
  9
$HANDSEED
  5
3105
  9
$SURFTAB1
 70
     6
  9
$SURFTAB2
 70
     6
  9
$SURFTYPE
 70
     6
  9
$SURFU
 70
     6
  9
$SURFV
 70
     6
  9
$UCSBASE
  2

  9
$UCSNAME
  2

  9
$UCSORG
 10
0.0
 20
0.0
 30
0.0
  9
$UCSXDIR
 10
1.0
 20
0.0
 30
0.0
  9
$UCSYDIR
 10
0.0
 20
1.0
 30
0.0
  9
$UCSORTHOREF
  2

  9
$UCSORTHOVIEW
 70
     0
  9
$UCSORGTOP
 10
0.0
 20
0.0
 30
0.0
  9
$UCSORGBOTTOM
 10
0.0
 20
0.0
 30
0.0
  9
$UCSORGLEFT
 10
0.0
 20
0.0
 30
0.0
  9
$UCSORGRIGHT
 10
0.0
 20
0.0
 30
0.0
  9
$UCSORGFRONT
 10
0.0
 20
0.0
 30
0.0
  9
$UCSORGBACK
 10
0.0
 20
0.0
 30
0.0
  9
$PUCSBASE
  2

  9
$PUCSNAME
  2

  9
$PUCSORG
 10
0.0
 20
0.0
 30
0.0
  9
$PUCSXDIR
 10
1.0
 20
0.0
 30
0.0
  9
$PUCSYDIR
 10
0.0
 20
1.0
 30
0.0
  9
$PUCSORTHOREF
  2

  9
$PUCSORTHOVIEW
 70
     0
  9
$PUCSORGTOP
 10
0.0
 20
0.0
 30
0.0
  9
$PUCSORGBOTTOM
 10
0.0
 20
0.0
 30
0.0
  9
$PUCSORGLEFT
 10
0.0
 20
0.0
 30
0.0
  9
$PUCSORGRIGHT
 10
0.0
 20
0.0
 30
0.0
  9
$PUCSORGFRONT
 10
0.0
 20
0.0
 30
0.0
  9
$PUCSORGBACK
 10
0.0
 20
0.0
 30
0.0
  9
$USERI1
 70
     0
  9
$USERI2
 70
     0
  9
$USERI3
 70
     0
  9
$USERI4
 70
     0
  9
$USERI5
 70
     0
  9
$USERR1
 40
0.0
  9
$USERR2
 40
0.0
  9
$USERR3
 40
0.0
  9
$USERR4
 40
0.0
  9
$USERR5
 40
0.0
  9
$WORLDVIEW
 70
     1
  9
$SHADEDGE
 70
     3
  9
$SHADEDIF
 70
    70
  9
$TILEMODE
 70
     1
  9
$MAXACTVP
 70
    64
  9
$PINSBASE
 10
0.0
 20
0.0
 30
0.0
  9
$PLIMCHECK
 70
     0
  9
$PEXTMIN
 10
0.0
 20
0.0
 30
0.0
  9
$PEXTMAX
 10
0.0
 20
0.0
 30
0.0
  9
$PLIMMIN
 10
-7.5
 20
-20.0
  9
$PLIMMAX
 10
412.5
 20
277.0
  9
$UNITMODE
 70
     0
  9
$VISRETAIN
 70
     0
  9
$PLINEGEN
 70
     1
  9
$PSLTSCALE
 70
     0
  9
$TREEDEPTH
 70
  3020
  9
$CMLSTYLE
  2
Standard
  9
$CMLJUST
 70
     0
  9
$CMLSCALE
 40
1.0
  9
$PROXYGRAPHICS
 70
     0
  9
$MEASUREMENT
 70
     1
  9
$CELWEIGHT
370
    -1
  9
$ENDCAPS
280
     0
  9
$JOINSTYLE
280
     0
  9
$LWDISPLAY
290
     1
  9
$INSUNITS
 70
     4
  9
$HYPERLINKBASE
  1

  9
$STYLESHEET
  1

  9
$XEDIT
290
     1
  9
$CEPSNTYPE
380
     0
  9
$PSTYLEMODE
290
     1
  9
$FINGERPRINTGUID
  2

  9
$VERSIONGUID
  2

  9
$EXTNAMES
290
     1
  9
$PSVPSCALE
 40
0.0
  9
$OLESTARTUP
290
     0
  9
$SORTENTS
280
   127
  9
$INDEXCTL
280
     0
  9
$HIDETEXT
280
     1
  9
$XCLIPFRAME
290
     0
  9
$HALOGAP
280
     0
  9
$OBSCOLOR
 70
   257
  9
$OBSLTYPE
280
     0
  9
$INTERSECTIONDISPLAY
280
     0
  9
$INTERSECTIONCOLOR
 70
   257
  9
$DIMASSOC
280
     2
  9
$PROJECTNAME
  1

  9
$CAMERADISPLAY
290
     0
  9
$LENSLENGTH
 40
50.0
  9
$CAMERAHEIGHT
 40
0.0
  9
$STEPSPERSEC
 40
2.0
  9
$STEPSIZE
 40
6.0
  9
$3DDWFPREC
 40
2.0
  9
$PSOLWIDTH
 40
0.25
  9
$PSOLHEIGHT
 40
4.0
  9
$LOFTANG1
 40
1.570796326794897
  9
$LOFTANG2
 40
1.570796326794897
  9
$LOFTMAG1
 40
0.0
  9
$LOFTMAG2
 40
0.0
  9
$LOFTPARAM
 70
     7
  9
$LOFTNORMALS
280
     1
  9
$LATITUDE
 40
37.795
  9
$LONGITUDE
 40
-122.394
  9
$NORTHDIRECTION
 40
0.0
  9
$TIMEZONE
 70
 -8000
  9
$LIGHTGLYPHDISPLAY
280
     1
  9
$TILEMODELIGHTSYNCH
280
     1
  9
$SOLIDHIST
280
     1
  9
$SHOWHIST
280
     1
  9
$DWFFRAME
280
     2
  9
$DGNFRAME
280
     2
  9
$REALWORLDSCALE
290
     1
  9
$INTERFERECOLOR
 62
   256
  9
$CSHADOW
280
     0
  9
$SHADOWPLANELOCATION
 40
0.0
  0
ENDSEC
  0
SECTION
  2
CLASSES
  0
CLASS
  1
LWPOLYLINE
  2
AcDbPolyline
  3
ObjectDBX Classes
 90
        0
 91
        1
280
     0
281
     1
  0
CLASS
  1
IMAGE
  2
AcDbRasterImage
  3
ISM
 90
      127
 91
        7
280
     0
281
     1
  0
CLASS
  1
OLE2FRAME
  2
AcDbOle2Frame
  3
ObjectDBX Classes
 90
        0
 91
        1
280
     0
281
     1
  0
CLASS
  1
HATCH
  2
AcDbHatch
  3
ObjectDBX Classes
 90
        0
 91
        1
280
     0
281
     1
  0
CLASS
  1
DICTIONARYVAR
  2
AcDbDictionaryVar
  3
ObjectDBX Classes
 90
        0
 91
        6
280
     0
281
     0
  0
CLASS
  1
RASTERVARIABLES
  2
AcDbRasterVariables
  3
ISM
 90
        0
 91
        6
280
     0
281
     0
  0
CLASS
  1
IMAGEDEF
  2
AcDbRasterImageDef
  3
ISM
 90
        0
 91
        6
280
     0
281
     0
  0
CLASS
  1
IMAGEDEF_REACTOR
  2
AcDbRasterImageDefReactor
  3
ISM
 90
        1
 91
        6
280
     0
281
     0
  0
CLASS
  1
IDBUFFER
  2
AcDbIdBuffer
  3
ObjectDBX Classes
 90
        0
 91
        6
280
     0
281
     0
  0
CLASS
  1
SPATIAL_FILTER
  2
AcDbSpatialFilter
  3
ObjectDBX Classes
 90
        0
 91
        6
280
     0
281
     0
  0
CLASS
  1
XRECORD
  2
AcDbXrecord
  3
ObjectDBX Classes
 90
        0
 91
        1
280
     0
281
     0
  0
CLASS
  1
SORTENTSTABLE
  2
AcDbSortentsTable
  3
ObjectDBX Classes
 90
        0
 91
        6
280
     0
281
     0
  0
CLASS
  1
LAYER_INDEX
  2
AcDbLayerIndex
  3
ObjectDBX Classes
 90
        0
 91
        6
280
     0
281
     0
  0
CLASS
  1
SPATIAL_INDEX
  2
AcDbSpatialIndex
  3
AutoCAD 2000
 90
        0
 91
        6
280
     0
281
     0
  0
CLASS
  1
OBJECT_PTR
  2
CAseDLPNTableRecord
  3
ASE-LPNTableRecord
 90
        1
 91
        6
280
     0
281
     0
  0
CLASS
  1
LAYOUT
  2
AcDbLayout
  3
ObjectDBX Classes
 90
        0
 91
        1
280
     0
281
     0
  0
CLASS
  1
PLOTSETTINGS
  2
AcDbPlotSettings
  3
ObjectDBX Classes
 90
        0
 91
        6
280
     0
281
     0
  0
CLASS
  1
ACDBDICTIONARYWDFLT
  2
AcDbDictionaryWithDefault
  3
ObjectDBX Classes
 90
        0
 91
        6
280
     0
281
     0
  0
CLASS
  1
ACDBPLACEHOLDER
  2
AcDbPlaceHolder
  3
ObjectDBX Classes
 90
        0
 91
        1
280
     0
281
     0
  0
CLASS
  1
SCALE
  2
AcDbScale
  3
ObjectDBX Classes
 90
     1153
 91
        6
280
     0
281
     0
  0
CLASS
  1
MATERIAL
  2
AcDbMaterial
  3
ObjectDBX Classes
 90
     1153
 91
        6
280
     0
281
     0
  0
CLASS
  1
VISUALSTYLE
  2
AcDbVisualStyle
  3
ObjectDBX Classes
 90
     4095
 91
        6
280
     0
281
     0
  0
CLASS
  1
TABLESTYLE
  2
AcDbTableStyle
  3
ObjectDBX Classes
 90
     4095
 91
        6
280
     0
281
     0
  0
CLASS
  1
DIMASSOC
  2
AcDbDimAssoc
  3
"AcDbDimAssoc|Product Desc:     AcDim ARX App For Dimension|Company:          Autodesk, Inc.|WEB Address:      www.autodesk.com"
 90
        0
 91
        6
280
     0
281
     0
  0
CLASS
  1
CELLSTYLEMAP
  2
AcDbCellStyleMap
  3
ObjectDBX Classes
 90
     1152
 91
        6
280
     0
281
     0
  0
CLASS
  1
SUN
  2
AcDbSun
  3
SCENEOE
 90
     1153
 91
        6
280
     0
281
     0
  0
CLASS
  1
MLEADERSTYLE
  2
AcDbMLeaderStyle
  3
ACDB_MLEADERSTYLE_CLASS
 90
     4095
 91
        6
280
     0
281
     0
  0
ENDSEC
  0
SECTION
  2
TABLES
  0
TABLE
  2
VPORT
  5
7
330
0
100
AcDbSymbolTable
 70
     1
  0
VPORT
  5
15
330
7
100
AcDbSymbolTableRecord
100
AcDbViewportTableRecord
  2
*ACTIVE
 70
     0
 10
0.0
 20
0.0
 11
1.0
 21
1.0
 12
1562.555834238858
 22
3025.953813623274
 13
0.0
 23
0.0
 14
1.0
 24
1.0
 15
0.0
 25
0.0
 16
0.0
 26
0.0
 36
1.0
 17
531.9535768260321
 27
-54.90875110267734
 37
-796.100446371116
 40
5780.043231370989
 41
2.389057750759878
 42
50.0
 43
0.0
 44
0.0
 50
0.0
 51
0.0
 71
    16
 72
  2000
 73
     1
 74
     1
 75
     0
 76
     0
 77
     0
 78
     0
281
     0
 65
     1
110
0.0
120
0.0
130
0.0
111
1.0
121
0.0
131
0.0
112
0.0
122
1.0
132
0.0
 79
     0
146
0.0
348
26C
 60
     3
 61
     5
292
     1
282
     1
141
0.0
142
0.0
 63
   256
361
BE4
  0
ENDTAB
  0
TABLE
  2
LTYPE
  5
4
330
0
100
AcDbSymbolTable
 70
     3
  0
LTYPE
  5
11
330
4
100
AcDbSymbolTableRecord
100
AcDbLinetypeTableRecord
  2
ByBlock
 70
     0
  3

 72
    65
 73
     0
 40
0.0
  0
LTYPE
  5
12
330
4
100
AcDbSymbolTableRecord
100
AcDbLinetypeTableRecord
  2
ByLayer
 70
     0
  3

 72
    65
 73
     0
 40
0.0
  0
LTYPE
  5
13
330
4
100
AcDbSymbolTableRecord
100
AcDbLinetypeTableRecord
  2
Continuous
 70
     0
  3
Solid line
 72
    65
 73
     0
 40
0.0
  0
LTYPE
  5
45
330
4
100
AcDbSymbolTableRecord
100
AcDbLinetypeTableRecord
  2
STYLE_12
 70
     0
  3

 72
    65
 73
     2
 40
0.3937007874015748
 49
0.1968503937007874
 74
     0
 49
-0.1968503937007874
 74
     0
  0
LTYPE
  5
16B1
330
4
100
AcDbSymbolTableRecord
100
AcDbLinetypeTableRecord
  2
HIDDEN
 70
     0
  3
Hidden _ _ _ _ _ _ _ _ _ _ _ _ _ _ _ _ _ _ _ _ 
 72
    65
 73
     2
 40
9.524999999999999
 49
6.35
 74
     0
 49
-3.175
 74
     0
  0
ENDTAB
  0
TABLE
  2
LAYER
  5
2
102
{ACAD_XDICTIONARY
360
2E1
102
}
330
0
100
AcDbSymbolTable
 70
     6
  0
LAYER
  5
14
330
2
100
AcDbSymbolTableRecord
100
AcDbLayerTableRecord
  2
0
 70
     0
 62
     7
  6
Continuous
370
    -3
390
1D
347
266
  0
LAYER
  5
4A
330
2
100
AcDbSymbolTableRecord
100
AcDbLayerTableRecord
  2
Defpoints
 70
     0
 62
     7
  6
Continuous
290
     0
370
     9
390
1D
347
266
  0
LAYER
  5
4B
330
2
100
AcDbSymbolTableRecord
100
AcDbLayerTableRecord
  2
TEMPLATE
 70
     0
 62
     7
  6
Continuous
370
    20
390
1D
347
266
  0
LAYER
  5
4D
330
2
100
AcDbSymbolTableRecord
100
AcDbLayerTableRecord
  2
MODEL
 70
     0
 62
     7
  6
Continuous
370
    20
390
1D
347
266
  0
LAYER
  5
382
330
2
100
AcDbSymbolTableRecord
100
AcDbLayerTableRecord
  2
LOGO
 70
     0
 62
     7
  6
Continuous
370
    -3
390
1D
347
266
  0
LAYER
  5
B7A
330
2
100
AcDbSymbolTableRecord
100
AcDbLayerTableRecord
  2
DIM
 70
     0
 62
     7
  6
Continuous
370
    13
390
1D
347
266
1001
AcAecLayerStandard
1000

1000

  0
ENDTAB
  0
TABLE
  2
STYLE
  5
3
330
0
100
AcDbSymbolTable
 70
     2
  0
STYLE
  5
17
330
3
100
AcDbSymbolTableRecord
100
AcDbTextStyleTableRecord
  2
Standard
 70
     0
 40
0.0
 41
1.0
 50
0.0
 71
     0
 42
533.0403732820173
  3
txt
  4
BIGFONT.SHX
  0
STYLE
  5
39
330
3
100
AcDbSymbolTableRecord
100
AcDbTextStyleTableRecord
  2
ＭＳ ゴシック
 70
     0
 40
0.0
 41
1.0
 50
0.0
 71
     0
 42
533.0403732820173
  3
msgothic.ttc
  4
ＭＳ ゴシック
1001
ACAD
1000
ＭＳ ゴシック
1071
        0
  0
ENDTAB
  0
TABLE
  2
VIEW
  5
5
330
0
100
AcDbSymbolTable
 70
     0
  0
ENDTAB
  0
TABLE
  2
UCS
  5
6
330
0
100
AcDbSymbolTable
 70
     0
  0
ENDTAB
  0
TABLE
  2
APPID
  5
8
330
0
100
AcDbSymbolTable
 70
     6
  0
APPID
  5
16
330
8
100
AcDbSymbolTableRecord
100
AcDbRegAppTableRecord
  2
ACAD
 70
     0
  0
APPID
  5
5C5
330
8
100
AcDbSymbolTableRecord
100
AcDbRegAppTableRecord
  2
AcAecLayerStandard
 70
     0
  0
APPID
  5
694
330
8
100
AcDbSymbolTableRecord
100
AcDbRegAppTableRecord
  2
ACAD_DSTYLE_DIMJAG
 70
     0
  0
APPID
  5
695
330
8
100
AcDbSymbolTableRecord
100
AcDbRegAppTableRecord
  2
ACAD_DSTYLE_DIMTALN
 70
     0
  0
APPID
  5
69A
330
8
100
AcDbSymbolTableRecord
100
AcDbRegAppTableRecord
  2
ACAD_PSEXT
 70
     0
  0
APPID
  5
30DA
330
8
100
AcDbSymbolTableRecord
100
AcDbRegAppTableRecord
  2
ACAD_MLEADERVER
 70
     0
  0
ENDTAB
  0
TABLE
  2
DIMSTYLE
  5
9
330
0
100
AcDbSymbolTable
 70
     3
100
AcDbDimStyleTable
  0
DIMSTYLE
105
18
330
9
100
AcDbSymbolTableRecord
100
AcDbDimStyleTableRecord
  2
Standard
 70
     0
178
     0
340
17
  0
DIMSTYLE
105
57
102
{ACAD_REACTORS
330
163A
330
163B
330
163C
330
1662
102
}
330
9
100
AcDbSymbolTableRecord
100
AcDbDimStyleTableRecord
  2
tfrom線あり
 70
     0
  3
<>
  4
[]
 41
9.999389648437498
 42
25.0
 43
0.9999999999999999
 44
0.0
 73
     0
 74
     0
 77
     1
 78
    11
140
24.4326171875
141
0.0
143
1.0
147
30.0
171
     1
174
     1
178
     0
179
     2
271
     1
272
     1
276
     2
284
    11
285
    11
286
    11
289
     0
340
39
341
4E
342
4E
  0
DIMSTYLE
105
5C
102
{ACAD_REACTORS
330
15AA
330
15AD
330
15AE
330
15AF
330
15B0
330
15B3
330
15B6
330
1611
330
1614
330
1615
330
168F
330
169E
330
16F1
102
}
330
9
100
AcDbSymbolTableRecord
100
AcDbDimStyleTableRecord
  2
JIS
 70
     0
  3
<>
  4
[]
 41
9.0
 42
0.0
 43
6.99999999999994
 44
19.9999999999962
 73
     0
 74
     0
 77
     1
 78
    11
140
24.4326171875
141
0.0
143
1.0
147
10.0
171
     1
174
     1
178
     0
179
     2
271
     1
272
     1
276
     2
284
    11
285
    11
286
    11
289
     0
340
39
341
4E
342
4E
  0
ENDTAB
  0
TABLE
  2
BLOCK_RECORD
  5
1
330
0
100
AcDbSymbolTable
 70
    22
  0
BLOCK_RECORD
  5
A
330
1
100
AcDbSymbolTableRecord
100
AcDbBlockTableRecord
  2
*MODEL_SPACE
340
20
 70
     0
280
     1
281
     0
  0
BLOCK_RECORD
  5
B
330
1
100
AcDbSymbolTableRecord
100
AcDbBlockTableRecord
  2
*PAPER_SPACE
340
21
 70
     0
280
     1
281
     0
  0
BLOCK_RECORD
  5
4E
330
1
100
AcDbSymbolTableRecord
100
AcDbBlockTableRecord
  2
_DOT
340
0
102
{BLKREFS
331
15C0
331
15C1
331
15CC
331
15CD
331
15D8
331
15D9
331
15E4
331
15E5
331
15F0
331
15F1
331
15FC
331
15FD
331
1608
331
1609
331
161C
331
161D
331
1628
331
1629
331
1634
331
1635
331
1643
331
1644
331
164F
331
1650
331
165B
331
165C
331
1669
331
166A
331
1698
331
1699
331
16A7
331
16A8
102
}
 70
     0
280
     1
281
     0
  0
BLOCK_RECORD
  5
3A5
330
1
100
AcDbSymbolTableRecord
100
AcDbBlockTableRecord
  2
名称未設定-1
340
0
102
{BLKREFS
331
3D0
102
}
 70
     1
280
     1
281
     0
  0
BLOCK_RECORD
  5
3A8
330
1
100
AcDbSymbolTableRecord
100
AcDbBlockTableRecord
  2
block 2
340
0
102
{BLKREFS
331
3A7
102
}
 70
     0
280
     1
281
     0
  0
BLOCK_RECORD
  5
3AB
330
1
100
AcDbSymbolTableRecord
100
AcDbBlockTableRecord
  2
block 3
340
0
102
{BLKREFS
331
3AA
102
}
 70
     0
280
     1
281
     0
  0
BLOCK_RECORD
  5
3AE
330
1
100
AcDbSymbolTableRecord
100
AcDbBlockTableRecord
  2
block 4
340
0
102
{BLKREFS
331
3AD
102
}
 70
     0
280
     1
281
     0
  0
BLOCK_RECORD
  5
3BD
330
1
100
AcDbSymbolTableRecord
100
AcDbBlockTableRecord
  2
block 5
340
0
102
{BLKREFS
331
3BC
102
}
 70
     0
280
     1
281
     0
  0
BLOCK_RECORD
  5
15B9
330
1
100
AcDbSymbolTableRecord
100
AcDbBlockTableRecord
  2
*D6
340
0
 70
     0
280
     1
281
     0
  0
BLOCK_RECORD
  5
15C6
330
1
100
AcDbSymbolTableRecord
100
AcDbBlockTableRecord
  2
*D7
340
0
 70
     0
280
     1
281
     0
  0
BLOCK_RECORD
  5
15D2
330
1
100
AcDbSymbolTableRecord
100
AcDbBlockTableRecord
  2
*D8
340
0
 70
     0
280
     1
281
     0
  0
BLOCK_RECORD
  5
15DE
330
1
100
AcDbSymbolTableRecord
100
AcDbBlockTableRecord
  2
*D9
340
0
 70
     0
280
     1
281
     0
  0
BLOCK_RECORD
  5
15EA
330
1
100
AcDbSymbolTableRecord
100
AcDbBlockTableRecord
  2
*D10
340
0
 70
     0
280
     1
281
     0
  0
BLOCK_RECORD
  5
15F6
330
1
100
AcDbSymbolTableRecord
100
AcDbBlockTableRecord
  2
*D11
340
0
 70
     0
280
     1
281
     0
  0
BLOCK_RECORD
  5
1602
330
1
100
AcDbSymbolTableRecord
100
AcDbBlockTableRecord
  2
*D12
340
0
 70
     0
280
     1
281
     0
  0
BLOCK_RECORD
  5
1616
330
1
100
AcDbSymbolTableRecord
100
AcDbBlockTableRecord
  2
*D13
340
0
 70
     0
280
     1
281
     0
  0
BLOCK_RECORD
  5
1622
330
1
100
AcDbSymbolTableRecord
100
AcDbBlockTableRecord
  2
*D14
340
0
 70
     0
280
     1
281
     0
  0
BLOCK_RECORD
  5
162E
330
1
100
AcDbSymbolTableRecord
100
AcDbBlockTableRecord
  2
*D15
340
0
 70
     0
280
     1
281
     0
  0
BLOCK_RECORD
  5
163D
330
1
100
AcDbSymbolTableRecord
100
AcDbBlockTableRecord
  2
*D16
340
0
 70
     0
280
     1
281
     0
  0
BLOCK_RECORD
  5
1649
330
1
100
AcDbSymbolTableRecord
100
AcDbBlockTableRecord
  2
*D17
340
0
 70
     0
280
     1
281
     0
  0
BLOCK_RECORD
  5
1655
330
1
100
AcDbSymbolTableRecord
100
AcDbBlockTableRecord
  2
*D18
340
0
 70
     0
280
     1
281
     0
  0
BLOCK_RECORD
  5
1663
330
1
100
AcDbSymbolTableRecord
100
AcDbBlockTableRecord
  2
*D19
340
0
 70
     0
280
     1
281
     0
  0
BLOCK_RECORD
  5
1692
330
1
100
AcDbSymbolTableRecord
100
AcDbBlockTableRecord
  2
*D20
340
0
 70
     0
280
     1
281
     0
  0
BLOCK_RECORD
  5
16A1
330
1
100
AcDbSymbolTableRecord
100
AcDbBlockTableRecord
  2
*D21
340
0
 70
     0
280
     1
281
     0
  0
ENDTAB
  0
ENDSEC
  0
SECTION
  2
BLOCKS
  0
BLOCK
  5
D
330
A
100
AcDbEntity
  8
0
390
1D
100
AcDbBlockBegin
  2
*MODEL_SPACE
 70
     0
 10
0.0
 20
0.0
 30
0.0
  3
*MODEL_SPACE
  1
*MODEL_SPACE
  0
ENDBLK
  5
E
330
A
100
AcDbEntity
  8
0
390
1D
100
AcDbBlockEnd
  0
BLOCK
  5
F
330
B
100
AcDbEntity
 67
     1
  8
0
390
1D
100
AcDbBlockBegin
  2
*PAPER_SPACE
 70
     0
 10
0.0
 20
0.0
 30
0.0
  3
*PAPER_SPACE
  1
*PAPER_SPACE
  0
ENDBLK
  5
10
330
B
100
AcDbEntity
 67
     1
  8
0
390
1D
100
AcDbBlockEnd
  0
BLOCK
  5
E45
330
4E
100
AcDbEntity
  8
0
390
1D
100
AcDbBlockBegin
  2
_DOT
 70
     0
 10
0.0
 20
0.0
 30
0.0
  3
_DOT
  1
_DOT
  0
POLYLINE
  5
E47
330
4E
100
AcDbEntity
  8
0
  6
ByBlock
 62
     0
370
    -2
390
1D
100
AcDb2dPolyline
 66
     1
 10
0.0
 20
0.0
 30
0.0
 70
     1
 40
0.5
 41
0.5
  0
VERTEX
  5
E48
330
E47
100
AcDbEntity
  8
0
  6
ByBlock
 62
     0
370
    -2
390
1D
100
AcDbVertex
100
AcDb2dVertex
 10
-0.25
 20
0.0
 30
0.0
 42
1.0
  0
VERTEX
  5
E49
330
E47
100
AcDbEntity
  8
0
  6
ByBlock
 62
     0
370
    -2
390
1D
100
AcDbVertex
100
AcDb2dVertex
 10
0.25
 20
0.0
 30
0.0
 42
1.0
  0
SEQEND
  5
E4A
330
E47
100
AcDbEntity
  8
0
390
1D
  0
LINE
  5
E4B
330
4E
100
AcDbEntity
  8
0
  6
ByBlock
 62
     0
370
    -2
390
1D
100
AcDbLine
 10
-0.5
 20
0.0
 30
0.0
 11
-1.0
 21
0.0
 31
0.0
  0
ENDBLK
  5
E4C
330
4E
100
AcDbEntity
  8
0
390
1D
100
AcDbBlockEnd
  0
BLOCK
  5
3A6
330
3A5
100
AcDbEntity
  8
0
100
AcDbBlockBegin
  2
名称未設定-1
 70
     0
 10
0.0
 20
0.0
 30
0.0
  3
名称未設定-1
  1
名称未設定-1
  0
INSERT
  5
3A7
330
3A5
100
AcDbEntity
  8
LOGO
100
AcDbBlockReference
  2
block 2
 10
0.0
 20
0.0
 30
0.0
  0
ENDBLK
  5
3CC
330
3A5
100
AcDbEntity
  8
0
100
AcDbBlockEnd
  0
BLOCK
  5
3A9
330
3A8
100
AcDbEntity
  8
0
100
AcDbBlockBegin
  2
block 2
 70
     0
 10
0.0
 20
0.0
 30
0.0
  3
block 2
  1
block 2
  0
INSERT
  5
3AA
330
3A8
100
AcDbEntity
  8
LOGO
100
AcDbBlockReference
  2
block 3
 10
0.0
 20
0.0
 30
0.0
  0
ENDBLK
  5
3CB
330
3A8
100
AcDbEntity
  8
0
100
AcDbBlockEnd
  0
BLOCK
  5
3AC
330
3AB
100
AcDbEntity
  8
0
100
AcDbBlockBegin
  2
block 3
 70
     0
 10
0.0
 20
0.0
 30
0.0
  3
block 3
  1
block 3
  0
INSERT
  5
3AD
330
3AB
100
AcDbEntity
  8
LOGO
100
AcDbBlockReference
  2
block 4
 10
0.0
 20
0.0
 30
0.0
  0
ENDBLK
  5
3CA
330
3AB
100
AcDbEntity
  8
0
100
AcDbBlockEnd
  0
BLOCK
  5
3AF
330
3AE
100
AcDbEntity
  8
0
100
AcDbBlockBegin
  2
block 4
 70
     0
 10
0.0
 20
0.0
 30
0.0
  3
block 4
  1
block 4
  0
POLYLINE
  5
3B0
330
3AE
100
AcDbEntity
  8
LOGO
370
     0
100
AcDb2dPolyline
 66
     1
 10
0.0
 20
0.0
 30
0.0
  0
VERTEX
  5
3B1
330
3B0
100
AcDbEntity
  8
LOGO
370
     0
100
AcDbVertex
100
AcDb2dVertex
 10
83.79545727667795
 20
167.6444858234922
 30
0.0
  0
VERTEX
  5
3B2
330
3B0
100
AcDbEntity
  8
LOGO
370
     0
100
AcDbVertex
100
AcDb2dVertex
 10
83.79545727667795
 20
159.7968976406313
 30
0.0
  0
VERTEX
  5
3B3
330
3B0
100
AcDbEntity
  8
LOGO
370
     0
100
AcDbVertex
100
AcDb2dVertex
 10
71.3631329975216
 20
159.7968976406313
 30
0.0
  0
VERTEX
  5
3B4
330
3B0
100
AcDbEntity
  8
LOGO
370
     0
100
AcDbVertex
100
AcDb2dVertex
 10
71.3631329975216
 20
127.8027915271048
 30
0.0
  0
VERTEX
  5
3B5
330
3B0
100
AcDbEntity
  8
LOGO
370
     0
100
AcDbVertex
100
AcDb2dVertex
 10
60.43011526263018
 20
127.8027915271048
 30
0.0
  0
VERTEX
  5
3B6
330
3B0
100
AcDbEntity
  8
LOGO
370
     0
100
AcDbVertex
100
AcDb2dVertex
 10
60.43011526263018
 20
159.7968976406313
 30
0.0
  0
VERTEX
  5
3B7
330
3B0
100
AcDbEntity
  8
LOGO
370
     0
100
AcDbVertex
100
AcDb2dVertex
 10
48.21793273020759
 20
159.7968976406313
 30
0.0
  0
VERTEX
  5
3B8
330
3B0
100
AcDbEntity
  8
LOGO
370
     0
100
AcDbVertex
100
AcDb2dVertex
 10
48.21793273020759
 20
167.6444858234922
 30
0.0
  0
VERTEX
  5
3B9
330
3B0
100
AcDbEntity
  8
LOGO
370
     0
100
AcDbVertex
100
AcDb2dVertex
 10
83.79545727667795
 20
167.6444858234922
 30
0.0
  0
SEQEND
  5
3BA
330
3B0
100
AcDbEntity
  8
LOGO
370
     0
  0
HATCH
  5
3BB
330
3AE
100
AcDbEntity
  8
LOGO
 62
   250
420
  2234388
100
AcDbHatch
 10
0.0
 20
0.0
 30
0.0
210
0.0
220
0.0
230
1.0
  2
SOLID
 70
     1
 71
     0
 91
        1
 92
        1
 93
        8
 72
     1
 10
83.79545727667795
 20
167.6444858234922
 11
83.79545727667795
 21
159.7968976406313
 72
     1
 10
83.79545727667795
 20
159.7968976406313
 11
71.3631329975216
 21
159.7968976406313
 72
     1
 10
71.3631329975216
 20
159.7968976406313
 11
71.3631329975216
 21
127.8027915271048
 72
     1
 10
71.3631329975216
 20
127.8027915271048
 11
60.43011526263018
 21
127.8027915271048
 72
     1
 10
60.43011526263018
 20
127.8027915271048
 11
60.43011526263018
 21
159.7968976406313
 72
     1
 10
60.43011526263018
 20
159.7968976406313
 11
48.21793273020759
 21
159.7968976406313
 72
     1
 10
48.21793273020759
 20
159.7968976406313
 11
48.21793273020759
 21
167.6444858234922
 72
     1
 10
48.21793273020759
 20
167.6444858234922
 11
83.79545727667795
 21
167.6444858234922
 97
        0
 75
     2
 76
     1
 98
        0
  0
INSERT
  5
3BC
330
3AE
100
AcDbEntity
  8
LOGO
100
AcDbBlockReference
  2
block 5
 10
0.0
 20
0.0
 30
0.0
  0
ENDBLK
  5
3C9
330
3AE
100
AcDbEntity
  8
0
100
AcDbBlockEnd
  0
BLOCK
  5
3BE
330
3BD
100
AcDbEntity
  8
0
100
AcDbBlockBegin
  2
block 5
 70
     0
 10
0.0
 20
0.0
 30
0.0
  3
block 5
  1
block 5
  0
SPLINE
  5
3BF
330
3BD
100
AcDbEntity
  8
LOGO
370
     0
100
AcDbSpline
210
0.0
220
0.0
230
1.0
 70
    11
 71
     3
 72
    56
 73
    52
 74
     0
 42
0.000000001
 43
0.0000000001
 40
0.0
 40
0.0
 40
0.0
 40
0.0
 40
1.0
 40
1.0
 40
1.0
 40
2.0
 40
2.0
 40
2.0
 40
3.0
 40
3.0
 40
3.0
 40
4.0
 40
4.0
 40
4.0
 40
5.0
 40
5.0
 40
5.0
 40
6.0
 40
6.0
 40
6.0
 40
7.0
 40
7.0
 40
7.0
 40
8.0
 40
8.0
 40
8.0
 40
9.0
 40
9.0
 40
9.0
 40
10.0
 40
10.0
 40
10.0
 40
11.0
 40
11.0
 40
11.0
 40
12.0
 40
12.0
 40
12.0
 40
13.0
 40
13.0
 40
13.0
 40
14.0
 40
14.0
 40
14.0
 40
15.0
 40
15.0
 40
15.0
 40
16.0
 40
16.0
 40
16.0
 40
17.0
 40
17.0
 40
17.0
 40
17.0
 10
100.4504378777679
 20
166.69157178364
 30
0.0
 10
101.9848844191641
 20
167.1313385124438
 30
0.0
 10
103.9637485713373
 20
166.7649523658846
 30
0.0
 10
103.9637485713373
 20
166.7649523658846
 30
0.0
 10
103.9637485713373
 20
166.7649523658846
 30
0.0
 10
103.0132460999156
 20
163.911205638077
 30
0.0
 10
103.0132460999156
 20
163.911205638077
 30
0.0
 10
103.0132460999156
 20
163.911205638077
 30
0.0
 10
101.0674548862189
 20
164.3601018759394
 30
0.0
 10
99.57090442016032
 20
163.1805004036133
 30
0.0
 10
98.40508333886608
 20
162.258247733807
 30
0.0
 10
97.65301849830304
 20
159.804132345923
 30
0.0
 10
97.3598406791005
 20
158.8699940888517
 30
0.0
 10
97.3598406791005
 20
158.8699940888517
 30
0.0
 10
96.07137411762282
 20
154.9119212747295
 30
0.0
 10
96.07137411762282
 20
154.9119212747295
 30
0.0
 10
96.07137411762282
 20
154.9119212747295
 30
0.0
 10
100.3012651448482
 20
154.9119212747295
 30
0.0
 10
100.3012651448482
 20
154.9119212747295
 30
0.0
 10
100.3012651448482
 20
154.9119212747295
 30
0.0
 10
99.64152892419852
 20
152.4199098115079
 30
0.0
 10
99.64152892419852
 20
152.4199098115079
 30
0.0
 10
99.64152892419852
 20
152.4199098115079
 30
0.0
 10
95.38097652692731
 20
152.4199098115079
 30
0.0
 10
95.38097652692731
 20
152.4199098115079
 30
0.0
 10
95.38097652692731
 20
152.4199098115079
 30
0.0
 10
87.75353009080013
 20
127.8027915271048
 30
0.0
 10
87.75353009080013
 20
127.8027915271048
 30
0.0
 10
87.75353009080013
 20
127.8027915271048
 30
0.0
 10
85.36538832498108
 20
127.8027915271048
 30
0.0
 10
85.36538832498108
 20
127.8027915271048
 30
0.0
 10
85.36538832498108
 20
127.8027915271048
 30
0.0
 10
93.00006946639998
 20
152.4199098115079
 30
0.0
 10
93.00006946639998
 20
152.4199098115079
 30
0.0
 10
93.00006946639998
 20
152.4199098115079
 30
0.0
 10
89.85297266450198
 20
152.4199098115079
 30
0.0
 10
89.85297266450198
 20
152.4199098115079
 30
0.0
 10
89.85297266450198
 20
152.4199098115079
 30
0.0
 10
90.51270888515164
 20
154.9119212747295
 30
0.0
 10
90.51270888515164
 20
154.9119212747295
 30
0.0
 10
90.51270888515164
 20
154.9119212747295
 30
0.0
 10
93.6904670570955
 20
154.9119212747295
 30
0.0
 10
93.6904670570955
 20
154.9119212747295
 30
0.0
 10
93.6904670570955
 20
154.9119212747295
 30
0.0
 10
94.81598049462158
 20
158.3616699146644
 30
0.0
 10
94.81598049462158
 20
158.3616699146644
 30
0.0
 10
95.7237637538445
 20
161.2605474231013
 30
0.0
 10
96.4968436907311
 20
162.8139420021662
 30
0.0
 10
97.15657991138076
 20
163.9844139654337
 30
0.0
 10
97.81183750494507
 20
165.1523021053827
 30
0.0
 10
99.1047826935081
 20
166.3084769129547
 30
0.0
 10
100.4504378777679
 20
166.69157178364
 30
0.0
  0
HATCH
  5
3C0
330
3BD
100
AcDbEntity
  8
LOGO
 62
   250
420
  2234388
100
AcDbHatch
 10
0.0
 20
0.0
 30
0.0
210
0.0
220
0.0
230
1.0
  2
SOLID
 70
     1
 71
     0
 91
        1
 92
        1
 93
        1
 72
     4
 94
        3
 73
     0
 74
     1
 95
       56
 96
       52
 40
0.0
 40
0.0
 40
0.0
 40
0.0
 40
1.0
 40
1.0
 40
1.0
 40
2.0
 40
2.0
 40
2.0
 40
3.0
 40
3.0
 40
3.0
 40
4.0
 40
4.0
 40
4.0
 40
5.0
 40
5.0
 40
5.0
 40
6.0
 40
6.0
 40
6.0
 40
7.0
 40
7.0
 40
7.0
 40
8.0
 40
8.0
 40
8.0
 40
9.0
 40
9.0
 40
9.0
 40
10.0
 40
10.0
 40
10.0
 40
11.0
 40
11.0
 40
11.0
 40
12.0
 40
12.0
 40
12.0
 40
13.0
 40
13.0
 40
13.0
 40
14.0
 40
14.0
 40
14.0
 40
15.0
 40
15.0
 40
15.0
 40
16.0
 40
16.0
 40
16.0
 40
17.0
 40
17.0
 40
17.0
 40
17.0
 10
100.4504378777679
 20
166.69157178364
 10
101.9848844191641
 20
167.1313385124438
 10
103.9637485713373
 20
166.7649523658846
 10
103.9637485713373
 20
166.7649523658846
 10
103.9637485713373
 20
166.7649523658846
 10
103.0132460999156
 20
163.911205638077
 10
103.0132460999156
 20
163.911205638077
 10
103.0132460999156
 20
163.911205638077
 10
101.0674548862189
 20
164.3601018759394
 10
99.57090442016032
 20
163.1805004036133
 10
98.40508333886608
 20
162.258247733807
 10
97.65301849830304
 20
159.804132345923
 10
97.3598406791005
 20
158.8699940888517
 10
97.3598406791005
 20
158.8699940888517
 10
96.07137411762282
 20
154.9119212747295
 10
96.07137411762282
 20
154.9119212747295
 10
96.07137411762282
 20
154.9119212747295
 10
100.3012651448482
 20
154.9119212747295
 10
100.3012651448482
 20
154.9119212747295
 10
100.3012651448482
 20
154.9119212747295
 10
99.64152892419852
 20
152.4199098115079
 10
99.64152892419852
 20
152.4199098115079
 10
99.64152892419852
 20
152.4199098115079
 10
95.38097652692731
 20
152.4199098115079
 10
95.38097652692731
 20
152.4199098115079
 10
95.38097652692731
 20
152.4199098115079
 10
87.75353009080013
 20
127.8027915271048
 10
87.75353009080013
 20
127.8027915271048
 10
87.75353009080013
 20
127.8027915271048
 10
85.36538832498108
 20
127.8027915271048
 10
85.36538832498108
 20
127.8027915271048
 10
85.36538832498108
 20
127.8027915271048
 10
93.00006946639998
 20
152.4199098115079
 10
93.00006946639998
 20
152.4199098115079
 10
93.00006946639998
 20
152.4199098115079
 10
89.85297266450198
 20
152.4199098115079
 10
89.85297266450198
 20
152.4199098115079
 10
89.85297266450198
 20
152.4199098115079
 10
90.51270888515164
 20
154.9119212747295
 10
90.51270888515164
 20
154.9119212747295
 10
90.51270888515164
 20
154.9119212747295
 10
93.6904670570955
 20
154.9119212747295
 10
93.6904670570955
 20
154.9119212747295
 10
93.6904670570955
 20
154.9119212747295
 10
94.81598049462158
 20
158.3616699146644
 10
94.81598049462158
 20
158.3616699146644
 10
95.7237637538445
 20
161.2605474231013
 10
96.4968436907311
 20
162.8139420021662
 10
97.15657991138076
 20
163.9844139654337
 10
97.81183750494507
 20
165.1523021053827
 10
99.1047826935081
 20
166.3084769129547
 10
100.4504378777679
 20
166.69157178364
 97
        0
 75
     2
 76
     1
 98
        0
  0
SPLINE
  5
3C1
330
3BD
100
AcDbEntity
  8
LOGO
370
     0
100
AcDbSpline
210
0.0
220
0.0
230
1.0
 70
    11
 71
     3
 72
    38
 73
    34
 74
     0
 42
0.000000001
 43
0.0000000001
 40
0.0
 40
0.0
 40
0.0
 40
0.0
 40
1.0
 40
1.0
 40
1.0
 40
2.0
 40
2.0
 40
2.0
 40
3.0
 40
3.0
 40
3.0
 40
4.0
 40
4.0
 40
4.0
 40
5.0
 40
5.0
 40
5.0
 40
6.0
 40
6.0
 40
6.0
 40
7.0
 40
7.0
 40
7.0
 40
8.0
 40
8.0
 40
8.0
 40
9.0
 40
9.0
 40
9.0
 40
10.0
 40
10.0
 40
10.0
 40
11.0
 40
11.0
 40
11.0
 40
11.0
 10
126.377554584636
 20
154.8151140277308
 30
0.0
 10
126.377554584636
 20
154.8151140277308
 30
0.0
 10
128.8311532078563
 20
154.8151140277308
 30
0.0
 10
128.8311532078563
 20
154.8151140277308
 30
0.0
 10
128.8311532078563
 20
154.8151140277308
 30
0.0
 10
127.7345785914971
 20
151.3062819612468
 30
0.0
 10
127.7345785914971
 20
151.3062819612468
 30
0.0
 10
128.571392836906
 20
152.2922689395754
 30
0.0
 10
129.8860421413442
 20
153.604506675583
 30
0.0
 10
131.0163787157314
 20
154.2664822097754
 30
0.0
 10
132.7044766171327
 20
155.2500576196734
 30
0.0
 10
133.6642808525008
 20
155.3847609420097
 30
0.0
 10
134.7284715499351
 20
155.3565111403944
 30
0.0
 10
134.7284715499351
 20
155.3565111403944
 30
0.0
 10
133.6877075172549
 20
152.0345756272799
 30
0.0
 10
133.6877075172549
 20
152.0345756272799
 30
0.0
 10
133.011434827367
 20
152.3184516825359
 30
0.0
 10
130.930940291334
 20
151.7768823149844
 30
0.0
 10
129.739280976855
 20
150.9162968950455
 30
0.0
 10
128.66613302525
 20
150.1454562717016
 30
0.0
 10
127.9192358313239
 20
149.4857200510519
 30
0.0
 10
127.0393578639405
 20
147.8282835196966
 30
0.0
 10
126.164647543194
 20
146.1699857139017
 30
0.0
 10
125.4742499524985
 20
143.5262176944419
 30
0.0
 10
124.2822461282437
 20
139.6959580071401
 30
0.0
 10
124.2822461282437
 20
139.6959580071401
 30
0.0
 10
120.5753209406769
 20
127.8027915271048
 30
0.0
 10
120.5753209406769
 20
127.8027915271048
 30
0.0
 10
120.5753209406769
 20
127.8027915271048
 30
0.0
 10
118.1964809388044
 20
127.8027915271048
 30
0.0
 10
118.1964809388044
 20
127.8027915271048
 30
0.0
 10
118.1964809388044
 20
127.8027915271048
 30
0.0
 10
126.377554584636
 20
154.8151140277308
 30
0.0
 10
126.377554584636
 20
154.8151140277308
 30
0.0
  0
HATCH
  5
3C2
330
3BD
100
AcDbEntity
  8
LOGO
 62
   250
420
  2234388
100
AcDbHatch
 10
0.0
 20
0.0
 30
0.0
210
0.0
220
0.0
230
1.0
  2
SOLID
 70
     1
 71
     0
 91
        1
 92
        1
 93
        1
 72
     4
 94
        3
 73
     0
 74
     1
 95
       38
 96
       34
 40
0.0
 40
0.0
 40
0.0
 40
0.0
 40
1.0
 40
1.0
 40
1.0
 40
2.0
 40
2.0
 40
2.0
 40
3.0
 40
3.0
 40
3.0
 40
4.0
 40
4.0
 40
4.0
 40
5.0
 40
5.0
 40
5.0
 40
6.0
 40
6.0
 40
6.0
 40
7.0
 40
7.0
 40
7.0
 40
8.0
 40
8.0
 40
8.0
 40
9.0
 40
9.0
 40
9.0
 40
10.0
 40
10.0
 40
10.0
 40
11.0
 40
11.0
 40
11.0
 40
11.0
 10
126.377554584636
 20
154.8151140277308
 10
126.377554584636
 20
154.8151140277308
 10
128.8311532078563
 20
154.8151140277308
 10
128.8311532078563
 20
154.8151140277308
 10
128.8311532078563
 20
154.8151140277308
 10
127.7345785914971
 20
151.3062819612468
 10
127.7345785914971
 20
151.3062819612468
 10
128.571392836906
 20
152.2922689395754
 10
129.8860421413442
 20
153.604506675583
 10
131.0163787157314
 20
154.2664822097754
 10
132.7044766171327
 20
155.2500576196734
 10
133.6642808525008
 20
155.3847609420097
 10
134.7284715499351
 20
155.3565111403944
 10
134.7284715499351
 20
155.3565111403944
 10
133.6877075172549
 20
152.0345756272799
 10
133.6877075172549
 20
152.0345756272799
 10
133.011434827367
 20
152.3184516825359
 10
130.930940291334
 20
151.7768823149844
 10
129.739280976855
 20
150.9162968950455
 10
128.66613302525
 20
150.1454562717016
 10
127.9192358313239
 20
149.4857200510519
 10
127.0393578639405
 20
147.8282835196966
 10
126.164647543194
 20
146.1699857139017
 10
125.4742499524985
 20
143.5262176944419
 10
124.2822461282437
 20
139.6959580071401
 10
124.2822461282437
 20
139.6959580071401
 10
120.5753209406769
 20
127.8027915271048
 10
120.5753209406769
 20
127.8027915271048
 10
120.5753209406769
 20
127.8027915271048
 10
118.1964809388044
 20
127.8027915271048
 10
118.1964809388044
 20
127.8027915271048
 10
118.1964809388044
 20
127.8027915271048
 10
126.377554584636
 20
154.8151140277308
 10
126.377554584636
 20
154.8151140277308
 97
        0
 75
     2
 76
     1
 98
        0
  0
SPLINE
  5
3C3
330
3BD
100
AcDbEntity
  8
LOGO
370
     0
100
AcDbSpline
210
0.0
220
0.0
230
1.0
 70
    11
 71
     3
 72
   104
 73
   100
 74
     0
 42
0.000000001
 43
0.0000000001
 40
0.0
 40
0.0
 40
0.0
 40
0.0
 40
1.0
 40
1.0
 40
1.0
 40
2.0
 40
2.0
 40
2.0
 40
3.0
 40
3.0
 40
3.0
 40
4.0
 40
4.0
 40
4.0
 40
5.0
 40
5.0
 40
5.0
 40
6.0
 40
6.0
 40
6.0
 40
7.0
 40
7.0
 40
7.0
 40
8.0
 40
8.0
 40
8.0
 40
9.0
 40
9.0
 40
9.0
 40
10.0
 40
10.0
 40
10.0
 40
11.0
 40
11.0
 40
11.0
 40
12.0
 40
12.0
 40
12.0
 40
13.0
 40
13.0
 40
13.0
 40
14.0
 40
14.0
 40
14.0
 40
15.0
 40
15.0
 40
15.0
 40
16.0
 40
16.0
 40
16.0
 40
17.0
 40
17.0
 40
17.0
 40
18.0
 40
18.0
 40
18.0
 40
19.0
 40
19.0
 40
19.0
 40
20.0
 40
20.0
 40
20.0
 40
21.0
 40
21.0
 40
21.0
 40
22.0
 40
22.0
 40
22.0
 40
23.0
 40
23.0
 40
23.0
 40
24.0
 40
24.0
 40
24.0
 40
25.0
 40
25.0
 40
25.0
 40
26.0
 40
26.0
 40
26.0
 40
27.0
 40
27.0
 40
27.0
 40
28.0
 40
28.0
 40
28.0
 40
29.0
 40
29.0
 40
29.0
 40
30.0
 40
30.0
 40
30.0
 40
31.0
 40
31.0
 40
31.0
 40
32.0
 40
32.0
 40
32.0
 40
33.0
 40
33.0
 40
33.0
 40
33.0
 10
139.8926730891197
 20
154.8294111834263
 30
0.0
 10
139.8926730891197
 20
154.8294111834263
 30
0.0
 10
142.0344903652445
 20
154.8294111834263
 30
0.0
 10
142.0344903652445
 20
154.8294111834263
 30
0.0
 10
142.0344903652445
 20
154.8294111834263
 30
0.0
 10
140.9516961399171
 20
151.3157559800812
 30
0.0
 10
140.9516961399171
 20
151.3157559800812
 30
0.0
 10
141.8928968473923
 20
152.7887075264977
 30
0.0
 10
142.7341897198865
 20
153.4484437471474
 30
0.0
 10
143.8552245303272
 20
154.2926649527359
 30
0.0
 10
144.9803934580775
 20
155.1296514530327
 30
0.0
 10
146.3139908001845
 20
155.3044901642492
 30
0.0
 10
147.241066606852
 20
155.3044901642492
 30
0.0
 10
148.3855280820469
 20
155.3044901642492
 30
0.0
 10
149.4969166187653
 20
155.0752189084569
 30
0.0
 10
150.0784491203092
 20
153.8172414621372
 30
0.0
 10
150.5228667310863
 20
152.833838307127
 30
0.0
 10
150.5414702589793
 20
152.7201500811143
 30
0.0
 10
150.4140016419347
 20
150.7765981809602
 30
0.0
 10
151.5818897818837
 20
152.7699317437168
 30
0.0
 10
152.4424752018226
 20
153.6256940267945
 30
0.0
 10
153.9038856707499
 20
154.4507949398263
 30
0.0
 10
155.4455669174378
 20
155.3044901642492
 30
0.0
 10
156.339225275853
 20
155.3659851592288
 30
0.0
 10
157.3748216618963
 20
155.2147453676543
 30
0.0
 10
158.911679771723
 20
154.9877134254046
 30
0.0
 10
159.8859534176746
 20
154.4390816074493
 30
0.0
 10
160.3965169054045
 20
152.7816450760939
 30
0.0
 10
160.9070803931344
 20
151.1219692311958
 30
0.0
 10
160.6328506116007
 20
150.2303779314354
 30
0.0
 10
159.9992971339115
 20
147.597634224801
 30
0.0
 10
159.7105979417943
 20
146.4014962832367
 30
0.0
 10
159.2947746424084
 20
144.9400858143094
 30
0.0
 10
158.7463150793409
 20
143.2092687007094
 30
0.0
 10
158.7463150793409
 20
143.2092687007094
 30
0.0
 10
153.9038856707499
 20
127.8027915271048
 30
0.0
 10
153.9038856707499
 20
127.8027915271048
 30
0.0
 10
153.9038856707499
 20
127.8027915271048
 30
0.0
 10
151.3882752878863
 20
127.8027915271048
 30
0.0
 10
151.3882752878863
 20
127.8027915271048
 30
0.0
 10
151.3882752878863
 20
127.8027915271048
 30
0.0
 10
155.6250565106276
 20
141.2751908193897
 30
0.0
 10
155.6250565106276
 20
141.2751908193897
 30
0.0
 10
156.5094131050963
 20
144.0936252951782
 30
0.0
 10
157.109893644309
 20
146.1506931664571
 30
0.0
 10
157.4220195011804
 20
147.4415712963654
 30
0.0
 10
157.8095929989511
 20
149.0530157726519
 30
0.0
 10
157.9656559273867
 20
149.5826995529385
 30
0.0
 10
157.7816877071116
 20
150.7529992613181
 30
0.0
 10
157.6111553680925
 20
151.8430281919372
 30
0.0
 10
157.0582171779396
 20
152.5547853887321
 30
0.0
 10
156.1170164704645
 20
152.5547853887321
 30
0.0
 10
155.1096698860365
 20
152.5547853887321
 30
0.0
 10
154.2962823053817
 20
152.4412694176073
 30
0.0
 10
153.156643967048
 20
151.2945686288697
 30
0.0
 10
152.0170056287143
 20
150.1476955852443
 30
0.0
 10
151.076149431015
 20
148.7930831468137
 30
0.0
 10
150.3337308641742
 20
147.2290087646991
 30
0.0
 10
149.5957909244188
 20
145.6683794803425
 30
0.0
 10
148.8530278478023
 20
143.6822806228776
 30
0.0
 10
148.0964843801539
 20
141.2751908193897
 30
0.0
 10
148.0964843801539
 20
141.2751908193897
 30
0.0
 10
143.8552245303272
 20
127.8027915271048
 30
0.0
 10
143.8552245303272
 20
127.8027915271048
 30
0.0
 10
143.8552245303272
 20
127.8027915271048
 30
0.0
 10
141.486030802177
 20
127.8027915271048
 30
0.0
 10
141.486030802177
 20
127.8027915271048
 30
0.0
 10
141.486030802177
 20
127.8027915271048
 30
0.0
 10
146.3329388378533
 20
143.2092687007094
 30
0.0
 10
146.3329388378533
 20
143.2092687007094
 30
0.0
 10
146.8483254624444
 20
144.8408669988801
 30
0.0
 10
147.2314203331297
 20
146.1837661049335
 30
0.0
 10
147.4867020769946
 20
147.224185627838
 30
0.0
 10
147.9169947869641
 20
149.0197705792876
 30
0.0
 10
148.0306830129768
 20
150.2400242051577
 30
0.0
 10
147.709255392159
 20
151.3157559800812
 30
0.0
 10
147.3874832615654
 20
152.3916600098926
 30
0.0
 10
146.8245542879144
 20
152.6683013598569
 30
0.0
 10
145.8840425999909
 20
152.6683013598569
 30
0.0
 10
145.0989048209514
 20
152.6683013598569
 30
0.0
 10
144.3282364524954
 20
152.3275811915945
 30
0.0
 10
143.4531816219731
 20
151.6538923250251
 30
0.0
 10
142.34627171234
 20
150.8074318058939
 30
0.0
 10
141.901854101563
 20
150.1097995099067
 30
0.0
 10
141.3578731655808
 20
149.289521733736
 30
0.0
 10
140.6299240093235
 20
148.192602607601
 30
0.0
 10
140.2850697237515
 20
147.455696197173
 30
0.0
 10
139.6652966370942
 20
145.8385673095858
 30
0.0
 10
139.0506911970739
 20
144.2214384219986
 30
0.0
 10
138.463991048893
 20
142.3252566160164
 30
0.0
 10
138.0571250036777
 20
141.0154304484394
 30
0.0
 10
138.0571250036777
 20
141.0154304484394
 30
0.0
 10
133.9009590684727
 20
127.8027915271048
 30
0.0
 10
133.9009590684727
 20
127.8027915271048
 30
0.0
 10
133.9009590684727
 20
127.8027915271048
 30
0.0
 10
131.4180771143097
 20
127.8027915271048
 30
0.0
 10
131.4180771143097
 20
127.8027915271048
 30
0.0
 10
131.4180771143097
 20
127.8027915271048
 30
0.0
 10
139.8926730891197
 20
154.8294111834263
 30
0.0
 10
139.8926730891197
 20
154.8294111834263
 30
0.0
  0
HATCH
  5
3C4
330
3BD
100
AcDbEntity
  8
LOGO
 62
   250
420
  2234388
100
AcDbHatch
 10
0.0
 20
0.0
 30
0.0
210
0.0
220
0.0
230
1.0
  2
SOLID
 70
     1
 71
     0
 91
        1
 92
        1
 93
        1
 72
     4
 94
        3
 73
     0
 74
     1
 95
      104
 96
      100
 40
0.0
 40
0.0
 40
0.0
 40
0.0
 40
1.0
 40
1.0
 40
1.0
 40
2.0
 40
2.0
 40
2.0
 40
3.0
 40
3.0
 40
3.0
 40
4.0
 40
4.0
 40
4.0
 40
5.0
 40
5.0
 40
5.0
 40
6.0
 40
6.0
 40
6.0
 40
7.0
 40
7.0
 40
7.0
 40
8.0
 40
8.0
 40
8.0
 40
9.0
 40
9.0
 40
9.0
 40
10.0
 40
10.0
 40
10.0
 40
11.0
 40
11.0
 40
11.0
 40
12.0
 40
12.0
 40
12.0
 40
13.0
 40
13.0
 40
13.0
 40
14.0
 40
14.0
 40
14.0
 40
15.0
 40
15.0
 40
15.0
 40
16.0
 40
16.0
 40
16.0
 40
17.0
 40
17.0
 40
17.0
 40
18.0
 40
18.0
 40
18.0
 40
19.0
 40
19.0
 40
19.0
 40
20.0
 40
20.0
 40
20.0
 40
21.0
 40
21.0
 40
21.0
 40
22.0
 40
22.0
 40
22.0
 40
23.0
 40
23.0
 40
23.0
 40
24.0
 40
24.0
 40
24.0
 40
25.0
 40
25.0
 40
25.0
 40
26.0
 40
26.0
 40
26.0
 40
27.0
 40
27.0
 40
27.0
 40
28.0
 40
28.0
 40
28.0
 40
29.0
 40
29.0
 40
29.0
 40
30.0
 40
30.0
 40
30.0
 40
31.0
 40
31.0
 40
31.0
 40
32.0
 40
32.0
 40
32.0
 40
33.0
 40
33.0
 40
33.0
 40
33.0
 10
139.8926730891197
 20
154.8294111834263
 10
139.8926730891197
 20
154.8294111834263
 10
142.0344903652445
 20
154.8294111834263
 10
142.0344903652445
 20
154.8294111834263
 10
142.0344903652445
 20
154.8294111834263
 10
140.9516961399171
 20
151.3157559800812
 10
140.9516961399171
 20
151.3157559800812
 10
141.8928968473923
 20
152.7887075264977
 10
142.7341897198865
 20
153.4484437471474
 10
143.8552245303272
 20
154.2926649527359
 10
144.9803934580775
 20
155.1296514530327
 10
146.3139908001845
 20
155.3044901642492
 10
147.241066606852
 20
155.3044901642492
 10
148.3855280820469
 20
155.3044901642492
 10
149.4969166187653
 20
155.0752189084569
 10
150.0784491203092
 20
153.8172414621372
 10
150.5228667310863
 20
152.833838307127
 10
150.5414702589793
 20
152.7201500811143
 10
150.4140016419347
 20
150.7765981809602
 10
151.5818897818837
 20
152.7699317437168
 10
152.4424752018226
 20
153.6256940267945
 10
153.9038856707499
 20
154.4507949398263
 10
155.4455669174378
 20
155.3044901642492
 10
156.339225275853
 20
155.3659851592288
 10
157.3748216618963
 20
155.2147453676543
 10
158.911679771723
 20
154.9877134254046
 10
159.8859534176746
 20
154.4390816074493
 10
160.3965169054045
 20
152.7816450760939
 10
160.9070803931344
 20
151.1219692311958
 10
160.6328506116007
 20
150.2303779314354
 10
159.9992971339115
 20
147.597634224801
 10
159.7105979417943
 20
146.4014962832367
 10
159.2947746424084
 20
144.9400858143094
 10
158.7463150793409
 20
143.2092687007094
 10
158.7463150793409
 20
143.2092687007094
 10
153.9038856707499
 20
127.8027915271048
 10
153.9038856707499
 20
127.8027915271048
 10
153.9038856707499
 20
127.8027915271048
 10
151.3882752878863
 20
127.8027915271048
 10
151.3882752878863
 20
127.8027915271048
 10
151.3882752878863
 20
127.8027915271048
 10
155.6250565106276
 20
141.2751908193897
 10
155.6250565106276
 20
141.2751908193897
 10
156.5094131050963
 20
144.0936252951782
 10
157.109893644309
 20
146.1506931664571
 10
157.4220195011804
 20
147.4415712963654
 10
157.8095929989511
 20
149.0530157726519
 10
157.9656559273867
 20
149.5826995529385
 10
157.7816877071116
 20
150.7529992613181
 10
157.6111553680925
 20
151.8430281919372
 10
157.0582171779396
 20
152.5547853887321
 10
156.1170164704645
 20
152.5547853887321
 10
155.1096698860365
 20
152.5547853887321
 10
154.2962823053817
 20
152.4412694176073
 10
153.156643967048
 20
151.2945686288697
 10
152.0170056287143
 20
150.1476955852443
 10
151.076149431015
 20
148.7930831468137
 10
150.3337308641742
 20
147.2290087646991
 10
149.5957909244188
 20
145.6683794803425
 10
148.8530278478023
 20
143.6822806228776
 10
148.0964843801539
 20
141.2751908193897
 10
148.0964843801539
 20
141.2751908193897
 10
143.8552245303272
 20
127.8027915271048
 10
143.8552245303272
 20
127.8027915271048
 10
143.8552245303272
 20
127.8027915271048
 10
141.486030802177
 20
127.8027915271048
 10
141.486030802177
 20
127.8027915271048
 10
141.486030802177
 20
127.8027915271048
 10
146.3329388378533
 20
143.2092687007094
 10
146.3329388378533
 20
143.2092687007094
 10
146.8483254624444
 20
144.8408669988801
 10
147.2314203331297
 20
146.1837661049335
 10
147.4867020769946
 20
147.224185627838
 10
147.9169947869641
 20
149.0197705792876
 10
148.0306830129768
 20
150.2400242051577
 10
147.709255392159
 20
151.3157559800812
 10
147.3874832615654
 20
152.3916600098926
 10
146.8245542879144
 20
152.6683013598569
 10
145.8840425999909
 20
152.6683013598569
 10
145.0989048209514
 20
152.6683013598569
 10
144.3282364524954
 20
152.3275811915945
 10
143.4531816219731
 20
151.6538923250251
 10
142.34627171234
 20
150.8074318058939
 10
141.901854101563
 20
150.1097995099067
 10
141.3578731655808
 20
149.289521733736
 10
140.6299240093235
 20
148.192602607601
 10
140.2850697237515
 20
147.455696197173
 10
139.6652966370942
 20
145.8385673095858
 10
139.0506911970739
 20
144.2214384219986
 10
138.463991048893
 20
142.3252566160164
 10
138.0571250036777
 20
141.0154304484394
 10
138.0571250036777
 20
141.0154304484394
 10
133.9009590684727
 20
127.8027915271048
 10
133.9009590684727
 20
127.8027915271048
 10
133.9009590684727
 20
127.8027915271048
 10
131.4180771143097
 20
127.8027915271048
 10
131.4180771143097
 20
127.8027915271048
 10
131.4180771143097
 20
127.8027915271048
 10
139.8926730891197
 20
154.8294111834263
 10
139.8926730891197
 20
154.8294111834263
 97
        0
 75
     2
 76
     1
 98
        0
  0
SPLINE
  5
3C5
330
3BD
100
AcDbEntity
  8
LOGO
370
     0
100
AcDbSpline
210
0.0
220
0.0
230
1.0
 70
    11
 71
     3
 72
    29
 73
    25
 74
     0
 42
0.000000001
 43
0.0000000001
 40
0.0
 40
0.0
 40
0.0
 40
0.0
 40
1.0
 40
1.0
 40
1.0
 40
2.0
 40
2.0
 40
2.0
 40
3.0
 40
3.0
 40
3.0
 40
4.0
 40
4.0
 40
4.0
 40
5.0
 40
5.0
 40
5.0
 40
6.0
 40
6.0
 40
6.0
 40
7.0
 40
7.0
 40
7.0
 40
8.0
 40
8.0
 40
8.0
 40
8.0
 10
101.6420971922469
 20
132.8388354296931
 30
0.0
 10
101.630039350094
 20
134.7164137077823
 30
0.0
 10
102.2236296937908
 20
138.0598810818841
 30
0.0
 10
103.7487744712405
 20
142.5378191476827
 30
0.0
 10
105.819967243327
 20
148.5896501242061
 30
0.0
 10
107.0602024361932
 20
150.8074318058939
 30
0.0
 10
108.1522984254671
 20
151.8833358357054
 30
0.0
 10
109.741177511439
 20
153.4532668840085
 30
0.0
 10
111.8740375333931
 20
153.5290590346837
 30
0.0
 10
112.5075910110823
 20
153.4532668840085
 30
0.0
 10
113.4012493694975
 20
153.3490526768302
 30
0.0
 10
114.6683563248758
 20
152.7580461564518
 30
0.0
 10
114.7493161221879
 20
150.7838328862519
 30
0.0
 10
114.8106388622796
 20
149.0909118479895
 30
0.0
 10
114.3186789024427
 20
145.9191825971221
 30
0.0
 10
112.6164561002338
 20
140.9489400617108
 30
0.0
 10
110.6444821435766
 20
135.1746117095912
 30
0.0
 10
109.4669477299053
 20
132.8960240524753
 30
0.0
 10
108.5212683953448
 20
131.9072809959403
 30
0.0
 10
106.7346406980658
 20
130.0538184021569
 30
0.0
 10
104.8222669326213
 20
130.2336525051225
 30
0.0
 10
104.5408024457958
 20
130.2336525051225
 30
0.0
 10
104.1721769856939
 20
130.2336525051225
 30
0.0
 10
101.6465758193322
 20
130.6305277668397
 30
0.0
 10
101.6420971922469
 20
132.8388354296931
 30
0.0
  0
SPLINE
  5
3C6
330
3BD
100
AcDbEntity
  8
LOGO
370
     0
100
AcDbSpline
210
0.0
220
0.0
230
1.0
 70
    11
 71
     3
 72
    32
 73
    28
 74
     0
 42
0.000000001
 43
0.0000000001
 40
0.0
 40
0.0
 40
0.0
 40
0.0
 40
1.0
 40
1.0
 40
1.0
 40
2.0
 40
2.0
 40
2.0
 40
3.0
 40
3.0
 40
3.0
 40
4.0
 40
4.0
 40
4.0
 40
5.0
 40
5.0
 40
5.0
 40
6.0
 40
6.0
 40
6.0
 40
7.0
 40
7.0
 40
7.0
 40
8.0
 40
8.0
 40
8.0
 40
9.0
 40
9.0
 40
9.0
 40
9.0
 10
106.2595617172429
 20
153.4105476718098
 30
0.0
 10
104.8222669326213
 20
151.5474388043041
 30
0.0
 10
103.7177685914188
 20
149.8758773721411
 30
0.0
 10
101.9232171692965
 20
144.6141795664062
 30
0.0
 10
100.2754269116635
 20
139.7999999594306
 30
0.0
 10
99.22777268346732
 20
136.3052927937542
 30
0.0
 10
99.06964269637689
 20
132.039572749846
 30
0.0
 10
98.94665270641765
 20
128.8673267343149
 30
0.0
 10
100.8807305877373
 20
127.8027915271048
 30
0.0
 10
103.7129454545577
 20
127.8027915271048
 30
0.0
 10
104.9352661390825
 20
127.8027915271048
 30
0.0
 10
108.0151835347002
 20
127.8827177950895
 30
0.0
 10
110.2045431598849
 20
130.5926316915021
 30
0.0
 10
111.7417457794874
 20
132.4984597712065
 30
0.0
 10
113.155269389579
 20
134.475256864725
 30
0.0
 10
115.0562743324223
 20
140.9489400617108
 30
0.0
 10
116.6361961642235
 20
146.3680788349845
 30
0.0
 10
117.7282921534974
 20
149.8639917848761
 30
0.0
 10
117.6480213757369
 20
151.8595646611754
 30
0.0
 10
117.6480213757369
 20
151.8595646611754
 30
0.0
 10
117.6480213757369
 20
151.8595646611754
 30
0.0
 10
117.6480213757369
 20
151.8595646611754
 30
0.0
 10
117.13229024137
 20
155.18150017429
 30
0.0
 10
114.7162431837115
 20
155.886194920681
 30
0.0
 10
113.3351034925446
 20
155.886194920681
 30
0.0
 10
111.9829026225447
 20
155.886194920681
 30
0.0
 10
108.3414342923792
 20
156.1251124501957
 30
0.0
 10
106.2595617172429
 20
153.4105476718098
 30
0.0
  0
HATCH
  5
3C7
330
3BD
100
AcDbEntity
  8
LOGO
 62
   250
420
  2234388
100
AcDbHatch
 10
0.0
 20
0.0
 30
0.0
210
0.0
220
0.0
230
1.0
  2
SOLID
 70
     1
 71
     0
 91
        2
 92
        1
 93
        1
 72
     4
 94
        3
 73
     0
 74
     1
 95
       29
 96
       25
 40
0.0
 40
0.0
 40
0.0
 40
0.0
 40
1.0
 40
1.0
 40
1.0
 40
2.0
 40
2.0
 40
2.0
 40
3.0
 40
3.0
 40
3.0
 40
4.0
 40
4.0
 40
4.0
 40
5.0
 40
5.0
 40
5.0
 40
6.0
 40
6.0
 40
6.0
 40
7.0
 40
7.0
 40
7.0
 40
8.0
 40
8.0
 40
8.0
 40
8.0
 10
101.6420971922469
 20
132.8388354296931
 10
101.630039350094
 20
134.7164137077823
 10
102.2236296937908
 20
138.0598810818841
 10
103.7487744712405
 20
142.5378191476827
 10
105.819967243327
 20
148.5896501242061
 10
107.0602024361932
 20
150.8074318058939
 10
108.1522984254671
 20
151.8833358357054
 10
109.741177511439
 20
153.4532668840085
 10
111.8740375333931
 20
153.5290590346837
 10
112.5075910110823
 20
153.4532668840085
 10
113.4012493694975
 20
153.3490526768302
 10
114.6683563248758
 20
152.7580461564518
 10
114.7493161221879
 20
150.7838328862519
 10
114.8106388622796
 20
149.0909118479895
 10
114.3186789024427
 20
145.9191825971221
 10
112.6164561002338
 20
140.9489400617108
 10
110.6444821435766
 20
135.1746117095912
 10
109.4669477299053
 20
132.8960240524753
 10
108.5212683953448
 20
131.9072809959403
 10
106.7346406980658
 20
130.0538184021569
 10
104.8222669326213
 20
130.2336525051225
 10
104.5408024457958
 20
130.2336525051225
 10
104.1721769856939
 20
130.2336525051225
 10
101.6465758193322
 20
130.6305277668397
 10
101.6420971922469
 20
132.8388354296931
 97
        0
 92
        1
 93
        1
 72
     4
 94
        3
 73
     0
 74
     1
 95
       32
 96
       28
 40
0.0
 40
0.0
 40
0.0
 40
0.0
 40
1.0
 40
1.0
 40
1.0
 40
2.0
 40
2.0
 40
2.0
 40
3.0
 40
3.0
 40
3.0
 40
4.0
 40
4.0
 40
4.0
 40
5.0
 40
5.0
 40
5.0
 40
6.0
 40
6.0
 40
6.0
 40
7.0
 40
7.0
 40
7.0
 40
8.0
 40
8.0
 40
8.0
 40
9.0
 40
9.0
 40
9.0
 40
9.0
 10
106.2595617172429
 20
153.4105476718098
 10
104.8222669326213
 20
151.5474388043041
 10
103.7177685914188
 20
149.8758773721411
 10
101.9232171692965
 20
144.6141795664062
 10
100.2754269116635
 20
139.7999999594306
 10
99.22777268346732
 20
136.3052927937542
 10
99.06964269637689
 20
132.039572749846
 10
98.94665270641765
 20
128.8673267343149
 10
100.8807305877373
 20
127.8027915271048
 10
103.7129454545577
 20
127.8027915271048
 10
104.9352661390825
 20
127.8027915271048
 10
108.0151835347002
 20
127.8827177950895
 10
110.2045431598849
 20
130.5926316915021
 10
111.7417457794874
 20
132.4984597712065
 10
113.155269389579
 20
134.475256864725
 10
115.0562743324223
 20
140.9489400617108
 10
116.6361961642235
 20
146.3680788349845
 10
117.7282921534974
 20
149.8639917848761
 10
117.6480213757369
 20
151.8595646611754
 10
117.6480213757369
 20
151.8595646611754
 10
117.6480213757369
 20
151.8595646611754
 10
117.6480213757369
 20
151.8595646611754
 10
117.13229024137
 20
155.18150017429
 10
114.7162431837115
 20
155.886194920681
 10
113.3351034925446
 20
155.886194920681
 10
111.9829026225447
 20
155.886194920681
 10
108.3414342923792
 20
156.1251124501957
 10
106.2595617172429
 20
153.4105476718098
 97
        0
 75
     2
 76
     1
 98
        0
  0
ENDBLK
  5
3C8
330
3BD
100
AcDbEntity
  8
0
100
AcDbBlockEnd
  0
BLOCK
  5
15BA
330
15B9
100
AcDbEntity
  8
0
100
AcDbBlockBegin
  2
*D6
 70
     1
 10
0.0
 20
0.0
 30
0.0
  3
*D6
  1
*D118
  0
LINE
  5
15BC
330
15B9
100
AcDbEntity
  8
DIM
 62
     0
370
    -2
100
AcDbLine
 10
2779.529464602597
 20
2157.2505969685
 30
0.0
 11
2779.529464602597
 21
2302.325147306609
 31
0.0
  0
LINE
  5
15BD
330
15B9
100
AcDbEntity
  8
DIM
 62
     0
370
    -2
100
AcDbLine
 10
2686.529468417295
 20
2157.250574080343
 30
0.0
 11
2686.529468417295
 21
2302.325147306609
 31
0.0
  0
LINE
  5
15BE
330
15B9
100
AcDbEntity
  8
DIM
 62
     0
370
    -2
100
AcDbLine
 10
2779.529464602597
 20
2302.325147306609
 30
0.0
 11
3094.721464602597
 21
2302.325147306609
 31
0.0
  0
LINE
  5
15BF
330
15B9
100
AcDbEntity
  8
DIM
 62
     0
370
    -2
100
AcDbLine
 10
2761.529464602597
 20
2302.325147306609
 30
0.0
 11
2704.529468417295
 21
2302.325147306609
 31
0.0
  0
INSERT
  5
15C0
330
15B9
100
AcDbEntity
  8
DIM
 62
     0
370
    -2
100
AcDbBlockReference
  2
_DOT
 10
2779.529464602597
 20
2302.325147306609
 30
0.0
 41
18.0
 42
18.0
 43
18.0
  0
INSERT
  5
15C1
330
15B9
100
AcDbEntity
  8
DIM
 62
     0
370
    -2
100
AcDbBlockReference
  2
_DOT
 10
2686.529468417295
 20
2302.325147306609
 30
0.0
 41
18.0
 42
18.0
 43
18.0
 50
180.0
  0
MTEXT
  5
15C2
330
15B9
100
AcDbEntity
  8
DIM
  6
Continuous
 62
     0
100
AcDbMText
 10
2964.425464602597
 20
2360.333147306609
 30
0.0
 40
48.0
 41
0.0
 46
0.0
 71
     5
 72
     1
  1
\A1;93(※1)
  7
ＭＳ ゴシック
 73
     1
 44
1.0
  0
POINT
  5
15C3
330
15B9
100
AcDbEntity
  8
Defpoints
 62
     0
100
AcDbPoint
 10
2779.529464602597
 20
2132.2505969685
 30
0.0
  0
POINT
  5
15C4
330
15B9
100
AcDbEntity
  8
Defpoints
 62
     0
100
AcDbPoint
 10
2686.529468417295
 20
2132.250574080343
 30
0.0
  0
POINT
  5
15C5
330
15B9
100
AcDbEntity
  8
Defpoints
 62
     0
100
AcDbPoint
 10
2686.529468417295
 20
2302.325147306609
 30
0.0
  0
ENDBLK
  5
15BB
330
15B9
100
AcDbEntity
  8
0
100
AcDbBlockEnd
  0
BLOCK
  5
15C7
330
15C6
100
AcDbEntity
  8
0
100
AcDbBlockBegin
  2
*D7
 70
     1
 10
0.0
 20
0.0
 30
0.0
  3
*D7
  1
*D119
  0
LINE
  5
15C9
330
15C6
100
AcDbEntity
  8
DIM
 62
     0
370
    -2
100
AcDbLine
 10
2664.120643782647
 20
1292.533569283417
 30
0.0
 11
2378.112225265766
 21
1292.533569283417
 31
0.0
  0
LINE
  5
15CA
330
15C6
100
AcDbEntity
  8
DIM
 62
     0
370
    -2
100
AcDbLine
 10
2669.432377239498
 20
2972.250617949312
 30
0.0
 11
2378.112225265766
 21
2972.250617949312
 31
0.0
  0
LINE
  5
15CB
330
15C6
100
AcDbEntity
  8
DIM
 62
     0
370
    -2
100
AcDbLine
 10
2378.112225265766
 20
1310.533569283417
 30
0.0
 11
2378.112225265766
 21
2954.250617949312
 31
0.0
  0
INSERT
  5
15CC
330
15C6
100
AcDbEntity
  8
DIM
 62
     0
370
    -2
100
AcDbBlockReference
  2
_DOT
 10
2378.112225265766
 20
1292.533569283417
 30
0.0
 41
18.0
 42
18.0
 43
18.0
 50
270.0
  0
INSERT
  5
15CD
330
15C6
100
AcDbEntity
  8
DIM
 62
     0
370
    -2
100
AcDbBlockReference
  2
_DOT
 10
2378.112225265766
 20
2972.250617949312
 30
0.0
 41
18.0
 42
18.0
 43
18.0
 50
89.99999999999999
  0
MTEXT
  5
15CE
330
15C6
100
AcDbEntity
  8
DIM
  6
Continuous
 62
     0
100
AcDbMText
 10
2324.112225265766
 20
2132.250617949312
 30
0.0
 40
48.0
 41
0.0
 46
0.0
 71
     5
 72
     1
  1
\A1;1680
  7
ＭＳ ゴシック
 11
2.707285439816453E-16
 21
1.0
 31
0.0
 73
     1
 44
1.0
  0
POINT
  5
15CF
330
15C6
100
AcDbEntity
  8
Defpoints
 62
     0
100
AcDbPoint
 10
2689.120643782647
 20
1292.533569283417
 30
0.0
  0
POINT
  5
15D0
330
15C6
100
AcDbEntity
  8
Defpoints
 62
     0
100
AcDbPoint
 10
2694.432377239498
 20
2972.250617949312
 30
0.0
  0
POINT
  5
15D1
330
15C6
100
AcDbEntity
  8
Defpoints
 62
     0
100
AcDbPoint
 10
2378.112225265766
 20
2972.250617949312
 30
0.0
  0
ENDBLK
  5
15C8
330
15C6
100
AcDbEntity
  8
0
100
AcDbBlockEnd
  0
BLOCK
  5
15D3
330
15D2
100
AcDbEntity
  8
0
100
AcDbBlockBegin
  2
*D8
 70
     1
 10
0.0
 20
0.0
 30
0.0
  3
*D8
  1
*D120
  0
LINE
  5
15D5
330
15D2
100
AcDbEntity
  8
DIM
 62
     0
370
    -2
100
AcDbLine
 10
3053.908342381368
 20
1517.250617949312
 30
0.0
 11
2530.033549769325
 21
1517.250617949312
 31
0.0
  0
LINE
  5
15D6
330
15D2
100
AcDbEntity
  8
DIM
 62
     0
370
    -2
100
AcDbLine
 10
3053.90834238137
 20
2747.250617949312
 30
0.0
 11
2530.033549769325
 21
2747.250617949312
 31
0.0
  0
LINE
  5
15D7
330
15D2
100
AcDbEntity
  8
DIM
 62
     0
370
    -2
100
AcDbLine
 10
2530.033549769325
 20
1535.250617949312
 30
0.0
 11
2530.033549769325
 21
2729.250617949312
 31
0.0
  0
INSERT
  5
15D8
330
15D2
100
AcDbEntity
  8
DIM
 62
     0
370
    -2
100
AcDbBlockReference
  2
_DOT
 10
2530.033549769325
 20
1517.250617949312
 30
0.0
 41
18.0
 42
18.0
 43
18.0
 50
270.0
  0
INSERT
  5
15D9
330
15D2
100
AcDbEntity
  8
DIM
 62
     0
370
    -2
100
AcDbBlockReference
  2
_DOT
 10
2530.033549769325
 20
2747.250617949312
 30
0.0
 41
18.0
 42
18.0
 43
18.0
 50
89.99999999999999
  0
MTEXT
  5
15DA
330
15D2
100
AcDbEntity
  8
DIM
  6
Continuous
 62
     0
100
AcDbMText
 10
2476.033549769325
 20
2132.250617949312
 30
0.0
 40
48.0
 41
0.0
 46
0.0
 71
     5
 72
     1
  1
\A1;1230
  7
ＭＳ ゴシック
 11
3.697132934036294E-16
 21
1.0
 31
0.0
 73
     1
 44
1.0
  0
POINT
  5
15DB
330
15D2
100
AcDbEntity
  8
Defpoints
 62
     0
100
AcDbPoint
 10
3078.908342381368
 20
1517.250617949312
 30
0.0
  0
POINT
  5
15DC
330
15D2
100
AcDbEntity
  8
Defpoints
 62
     0
100
AcDbPoint
 10
3078.90834238137
 20
2747.250617949312
 30
0.0
  0
POINT
  5
15DD
330
15D2
100
AcDbEntity
  8
Defpoints
 62
     0
100
AcDbPoint
 10
2530.033549769325
 20
2747.250617949312
 30
0.0
  0
ENDBLK
  5
15D4
330
15D2
100
AcDbEntity
  8
0
100
AcDbBlockEnd
  0
BLOCK
  5
15DF
330
15DE
100
AcDbEntity
  8
0
100
AcDbBlockBegin
  2
*D9
 70
     1
 10
0.0
 20
0.0
 30
0.0
  3
*D9
  1
*D121
  0
LINE
  5
15E1
330
15DE
100
AcDbEntity
  8
DIM
 62
     0
370
    -2
100
AcDbLine
 10
2731.529348254343
 20
2106.250600783196
 30
0.0
 11
2643.356270031052
 21
2106.250600783196
 31
0.0
  0
LINE
  5
15E2
330
15DE
100
AcDbEntity
  8
DIM
 62
     0
370
    -2
100
AcDbLine
 10
2731.529348254343
 20
2158.250593153803
 30
0.0
 11
2643.356270031052
 21
2158.250593153803
 31
0.0
  0
LINE
  5
15E3
330
15DE
100
AcDbEntity
  8
DIM
 62
     0
370
    -2
100
AcDbLine
 10
2643.356270031052
 20
2124.250600783196
 30
0.0
 11
2643.356270031052
 21
2140.250593153803
 31
0.0
  0
INSERT
  5
15E4
330
15DE
100
AcDbEntity
  8
DIM
 62
     0
370
    -2
100
AcDbBlockReference
  2
_DOT
 10
2643.356270031052
 20
2106.250600783196
 30
0.0
 41
18.0
 42
18.0
 43
18.0
 50
270.0
  0
INSERT
  5
15E5
330
15DE
100
AcDbEntity
  8
DIM
 62
     0
370
    -2
100
AcDbBlockReference
  2
_DOT
 10
2643.356270031052
 20
2158.250593153803
 30
0.0
 41
18.0
 42
18.0
 43
18.0
 50
90.0
  0
MTEXT
  5
15E6
330
15DE
100
AcDbEntity
  8
DIM
  6
Continuous
 62
     0
100
AcDbMText
 10
2589.116270031052
 20
2132.250596968499
 30
0.0
 40
48.0
 41
0.0
 46
0.0
 71
     5
 72
     1
  1
\A1;%%c52
  7
ＭＳ ゴシック
 11
0.0
 21
1.0
 31
0.0
 73
     1
 44
1.0
  0
POINT
  5
15E7
330
15DE
100
AcDbEntity
  8
Defpoints
 62
     0
100
AcDbPoint
 10
2756.529348254343
 20
2106.250600783196
 30
0.0
  0
POINT
  5
15E8
330
15DE
100
AcDbEntity
  8
Defpoints
 62
     0
100
AcDbPoint
 10
2756.529348254343
 20
2158.250593153803
 30
0.0
  0
POINT
  5
15E9
330
15DE
100
AcDbEntity
  8
Defpoints
 62
     0
100
AcDbPoint
 10
2643.356270031052
 20
2158.250593153803
 30
0.0
  0
ENDBLK
  5
15E0
330
15DE
100
AcDbEntity
  8
0
100
AcDbBlockEnd
  0
BLOCK
  5
15EB
330
15EA
100
AcDbEntity
  8
0
100
AcDbBlockBegin
  2
*D10
 70
     1
 10
0.0
 20
0.0
 30
0.0
  3
*D10
  1
*D122
  0
LINE
  5
15ED
330
15EA
100
AcDbEntity
  8
DIM
 62
     0
370
    -2
100
AcDbLine
 10
3321.529348254343
 20
1232.250822035636
 30
0.0
 11
3515.140497433601
 21
1232.250822035636
 31
0.0
  0
LINE
  5
15EE
330
15EA
100
AcDbEntity
  8
DIM
 62
     0
370
    -2
100
AcDbLine
 10
3321.529348254343
 20
3032.25061985673
 30
0.0
 11
3515.140497433602
 21
3032.25061985673
 31
0.0
  0
LINE
  5
15EF
330
15EA
100
AcDbEntity
  8
DIM
 62
     0
370
    -2
100
AcDbLine
 10
3515.140497433601
 20
1250.250822035636
 30
0.0
 11
3515.140497433602
 21
3014.25061985673
 31
0.0
  0
INSERT
  5
15F0
330
15EA
100
AcDbEntity
  8
DIM
 62
     0
370
    -2
100
AcDbBlockReference
  2
_DOT
 10
3515.140497433601
 20
1232.250822035636
 30
0.0
 41
18.0
 42
18.0
 43
18.0
 50
270.0
  0
INSERT
  5
15F1
330
15EA
100
AcDbEntity
  8
DIM
 62
     0
370
    -2
100
AcDbBlockReference
  2
_DOT
 10
3515.140497433602
 20
3032.25061985673
 30
0.0
 41
18.0
 42
18.0
 43
18.0
 50
89.99999999999999
  0
MTEXT
  5
15F2
330
15EA
100
AcDbEntity
  8
DIM
  6
Continuous
 62
     0
100
AcDbMText
 10
3461.140497433602
 20
2132.250720946183
 30
0.0
 40
48.0
 41
0.0
 46
0.0
 71
     5
 72
     1
  1
\A1;1800
  7
ＭＳ ゴシック
 11
2.526374455357925E-16
 21
1.0
 31
0.0
 73
     1
 44
1.0
  0
POINT
  5
15F3
330
15EA
100
AcDbEntity
  8
Defpoints
 62
     0
100
AcDbPoint
 10
3296.529348254343
 20
1232.250822035636
 30
0.0
  0
POINT
  5
15F4
330
15EA
100
AcDbEntity
  8
Defpoints
 62
     0
100
AcDbPoint
 10
3296.529348254343
 20
3032.25061985673
 30
0.0
  0
POINT
  5
15F5
330
15EA
100
AcDbEntity
  8
Defpoints
 62
     0
100
AcDbPoint
 10
3515.140497433602
 20
3032.25061985673
 30
0.0
  0
ENDBLK
  5
15EC
330
15EA
100
AcDbEntity
  8
0
100
AcDbBlockEnd
  0
BLOCK
  5
15F7
330
15F6
100
AcDbEntity
  8
0
100
AcDbBlockBegin
  2
*D11
 70
     1
 10
0.0
 20
0.0
 30
0.0
  3
*D11
  1
*D123
  0
LINE
  5
15F9
330
15F6
100
AcDbEntity
  8
DIM
 62
     0
370
    -2
100
AcDbLine
 10
2686.543732530784
 20
3051.663845715947
 30
0.0
 11
2686.543732530784
 21
3487.676301352377
 31
0.0
  0
LINE
  5
15FA
330
15F6
100
AcDbEntity
  8
DIM
 62
     0
370
    -2
100
AcDbLine
 10
3296.543730623436
 20
3066.663845715947
 30
0.0
 11
3296.543730623436
 21
3487.676301352377
 31
0.0
  0
LINE
  5
15FB
330
15F6
100
AcDbEntity
  8
DIM
 62
     0
370
    -2
100
AcDbLine
 10
2704.543732530784
 20
3487.676301352377
 30
0.0
 11
3278.543730623436
 21
3487.676301352377
 31
0.0
  0
INSERT
  5
15FC
330
15F6
100
AcDbEntity
  8
DIM
 62
     0
370
    -2
100
AcDbBlockReference
  2
_DOT
 10
2686.543732530784
 20
3487.676301352377
 30
0.0
 41
18.0
 42
18.0
 43
18.0
 50
180.0
  0
INSERT
  5
15FD
330
15F6
100
AcDbEntity
  8
DIM
 62
     0
370
    -2
100
AcDbBlockReference
  2
_DOT
 10
3296.543730623436
 20
3487.676301352377
 30
0.0
 41
18.0
 42
18.0
 43
18.0
  0
MTEXT
  5
15FE
330
15F6
100
AcDbEntity
  8
DIM
  6
Continuous
 62
     0
100
AcDbMText
 10
2991.529349208018
 20
3541.676301352377
 30
0.0
 40
48.0
 41
0.0
 46
0.0
 71
     5
 72
     1
  1
\A1;610
  7
ＭＳ ゴシック
 73
     1
 44
1.0
  0
POINT
  5
15FF
330
15F6
100
AcDbEntity
  8
Defpoints
 62
     0
100
AcDbPoint
 10
2686.543732530784
 20
3026.663845715947
 30
0.0
  0
POINT
  5
1600
330
15F6
100
AcDbEntity
  8
Defpoints
 62
     0
100
AcDbPoint
 10
3296.543730623436
 20
3041.663845715947
 30
0.0
  0
POINT
  5
1601
330
15F6
100
AcDbEntity
  8
Defpoints
 62
     0
100
AcDbPoint
 10
3296.543730623436
 20
3487.676301352377
 30
0.0
  0
ENDBLK
  5
15F8
330
15F6
100
AcDbEntity
  8
0
100
AcDbBlockEnd
  0
BLOCK
  5
1603
330
1602
100
AcDbEntity
  8
0
100
AcDbBlockBegin
  2
*D12
 70
     1
 10
0.0
 20
0.0
 30
0.0
  3
*D12
  1
*D124
  0
LINE
  5
1605
330
1602
100
AcDbEntity
  8
DIM
 62
     0
370
    -2
100
AcDbLine
 10
2686.531423449644
 20
3051.093187300489
 30
0.0
 11
2686.531423449644
 21
3201.642958723567
 31
0.0
  0
LINE
  5
1606
330
1602
100
AcDbEntity
  8
DIM
 62
     0
370
    -2
100
AcDbLine
 10
3135.250051379343
 20
2691.111619917689
 30
0.0
 11
3135.250051379343
 21
3201.642958723567
 31
0.0
  0
LINE
  5
1607
330
1602
100
AcDbEntity
  8
DIM
 62
     0
370
    -2
100
AcDbLine
 10
2704.531423449644
 20
3201.642958723567
 30
0.0
 11
3117.250051379343
 21
3201.642958723567
 31
0.0
  0
INSERT
  5
1608
330
1602
100
AcDbEntity
  8
DIM
 62
     0
370
    -2
100
AcDbBlockReference
  2
_DOT
 10
2686.531423449644
 20
3201.642958723567
 30
0.0
 41
18.0
 42
18.0
 43
18.0
 50
180.0
  0
INSERT
  5
1609
330
1602
100
AcDbEntity
  8
DIM
 62
     0
370
    -2
100
AcDbBlockReference
  2
_DOT
 10
3135.250051379343
 20
3201.642958723567
 30
0.0
 41
18.0
 42
18.0
 43
18.0
  0
MTEXT
  5
160A
330
1602
100
AcDbEntity
  8
DIM
  6
Continuous
 62
     0
100
AcDbMText
 10
2929.043732530786
 20
3255.642958723567
 30
0.0
 40
48.0
 41
0.0
 46
0.0
 71
     5
 72
     1
  1
\A1;460
  7
ＭＳ ゴシック
 73
     1
 44
1.0
  0
POINT
  5
160B
330
1602
100
AcDbEntity
  8
Defpoints
 62
     0
100
AcDbPoint
 10
2686.531423449644
 20
3026.093187300489
 30
0.0
  0
POINT
  5
160C
330
1602
100
AcDbEntity
  8
Defpoints
 62
     0
100
AcDbPoint
 10
3135.250051379343
 20
2666.111619917689
 30
0.0
  0
POINT
  5
160D
330
1602
100
AcDbEntity
  8
Defpoints
 62
     0
100
AcDbPoint
 10
3135.250051379343
 20
3201.642958723567
 30
0.0
  0
ENDBLK
  5
1604
330
1602
100
AcDbEntity
  8
0
100
AcDbBlockEnd
  0
BLOCK
  5
1617
330
1616
100
AcDbEntity
  8
0
100
AcDbBlockBegin
  2
*D13
 70
     1
 10
0.0
 20
0.0
 30
0.0
  3
*D13
  1
*D125
  0
LINE
  5
1619
330
1616
100
AcDbEntity
  8
DIM
 62
     0
370
    -2
100
AcDbLine
 10
3321.531421542295
 20
4171.436874309855
 30
0.0
 11
3515.142570721554
 21
4171.436874309855
 31
0.0
  0
LINE
  5
161A
330
1616
100
AcDbEntity
  8
DIM
 62
     0
370
    -2
100
AcDbLine
 10
3321.531421542295
 20
4971.436630169159
 30
0.0
 11
3515.142570721554
 21
4971.436630169159
 31
0.0
  0
LINE
  5
161B
330
1616
100
AcDbEntity
  8
DIM
 62
     0
370
    -2
100
AcDbLine
 10
3515.142570721554
 20
4189.436874309855
 30
0.0
 11
3515.142570721554
 21
4953.436630169159
 31
0.0
  0
INSERT
  5
161C
330
1616
100
AcDbEntity
  8
DIM
 62
     0
370
    -2
100
AcDbBlockReference
  2
_DOT
 10
3515.142570721554
 20
4171.436874309855
 30
0.0
 41
18.0
 42
18.0
 43
18.0
 50
270.0
  0
INSERT
  5
161D
330
1616
100
AcDbEntity
  8
DIM
 62
     0
370
    -2
100
AcDbBlockReference
  2
_DOT
 10
3515.142570721554
 20
4971.436630169159
 30
0.0
 41
18.0
 42
18.0
 43
18.0
 50
90.0
  0
MTEXT
  5
161E
330
1616
100
AcDbEntity
  8
DIM
  6
Continuous
 62
     0
100
AcDbMText
 10
3461.142570721554
 20
4571.436752239507
 30
0.0
 40
48.0
 41
0.0
 46
0.0
 71
     5
 72
     1
  1
\A1;800
  7
ＭＳ ゴシック
 11
0.0
 21
1.0
 31
0.0
 73
     1
 44
1.0
  0
POINT
  5
161F
330
1616
100
AcDbEntity
  8
Defpoints
 62
     0
100
AcDbPoint
 10
3296.531421542295
 20
4171.436874309855
 30
0.0
  0
POINT
  5
1620
330
1616
100
AcDbEntity
  8
Defpoints
 62
     0
100
AcDbPoint
 10
3296.531421542295
 20
4971.436630169159
 30
0.0
  0
POINT
  5
1621
330
1616
100
AcDbEntity
  8
Defpoints
 62
     0
100
AcDbPoint
 10
3515.142570721554
 20
4971.436630169159
 30
0.0
  0
ENDBLK
  5
1618
330
1616
100
AcDbEntity
  8
0
100
AcDbBlockEnd
  0
BLOCK
  5
1623
330
1622
100
AcDbEntity
  8
0
100
AcDbBlockBegin
  2
*D14
 70
     1
 10
0.0
 20
0.0
 30
0.0
  3
*D14
  1
*D126
  0
LINE
  5
1625
330
1622
100
AcDbEntity
  8
DIM
 62
     0
370
    -2
100
AcDbLine
 10
2645.62639512041
 20
4231.436752239508
 30
0.0
 11
2378.114298553719
 21
4231.436752239508
 31
0.0
  0
LINE
  5
1626
330
1622
100
AcDbEntity
  8
DIM
 62
     0
370
    -2
100
AcDbLine
 10
2645.62639512041
 20
4911.436752239508
 30
0.0
 11
2378.114298553719
 21
4911.436752239508
 31
0.0
  0
LINE
  5
1627
330
1622
100
AcDbEntity
  8
DIM
 62
     0
370
    -2
100
AcDbLine
 10
2378.114298553719
 20
4249.436752239508
 30
0.0
 11
2378.114298553719
 21
4893.436752239508
 31
0.0
  0
INSERT
  5
1628
330
1622
100
AcDbEntity
  8
DIM
 62
     0
370
    -2
100
AcDbBlockReference
  2
_DOT
 10
2378.114298553719
 20
4231.436752239508
 30
0.0
 41
18.0
 42
18.0
 43
18.0
 50
270.0
  0
INSERT
  5
1629
330
1622
100
AcDbEntity
  8
DIM
 62
     0
370
    -2
100
AcDbBlockReference
  2
_DOT
 10
2378.114298553719
 20
4911.436752239508
 30
0.0
 41
18.0
 42
18.0
 43
18.0
 50
90.0
  0
MTEXT
  5
162A
330
1622
100
AcDbEntity
  8
DIM
  6
Continuous
 62
     0
100
AcDbMText
 10
2324.114298553719
 20
4571.436752239508
 30
0.0
 40
48.0
 41
0.0
 46
0.0
 71
     5
 72
     1
  1
\A1;680
  7
ＭＳ ゴシック
 11
0.0
 21
1.0
 31
0.0
 73
     1
 44
1.0
  0
POINT
  5
162B
330
1622
100
AcDbEntity
  8
Defpoints
 62
     0
100
AcDbPoint
 10
2670.62639512041
 20
4231.436752239508
 30
0.0
  0
POINT
  5
162C
330
1622
100
AcDbEntity
  8
Defpoints
 62
     0
100
AcDbPoint
 10
2670.62639512041
 20
4911.436752239508
 30
0.0
  0
POINT
  5
162D
330
1622
100
AcDbEntity
  8
Defpoints
 62
     0
100
AcDbPoint
 10
2378.114298553719
 20
4911.436752239508
 30
0.0
  0
ENDBLK
  5
1624
330
1622
100
AcDbEntity
  8
0
100
AcDbBlockEnd
  0
BLOCK
  5
162F
330
162E
100
AcDbEntity
  8
0
100
AcDbBlockBegin
  2
*D15
 70
     1
 10
0.0
 20
0.0
 30
0.0
  3
*D15
  1
*D127
  0
LINE
  5
1631
330
162E
100
AcDbEntity
  8
DIM
 62
     0
370
    -2
100
AcDbLine
 10
2996.488808324497
 20
4291.436752239508
 30
0.0
 11
2530.035623057277
 21
4291.436752239508
 31
0.0
  0
LINE
  5
1632
330
162E
100
AcDbEntity
  8
DIM
 62
     0
370
    -2
100
AcDbLine
 10
2996.488808324497
 20
4851.436752239508
 30
0.0
 11
2530.035623057277
 21
4851.436752239508
 31
0.0
  0
LINE
  5
1633
330
162E
100
AcDbEntity
  8
DIM
 62
     0
370
    -2
100
AcDbLine
 10
2530.035623057277
 20
4309.436752239508
 30
0.0
 11
2530.035623057277
 21
4833.436752239508
 31
0.0
  0
INSERT
  5
1634
330
162E
100
AcDbEntity
  8
DIM
 62
     0
370
    -2
100
AcDbBlockReference
  2
_DOT
 10
2530.035623057277
 20
4291.436752239508
 30
0.0
 41
18.0
 42
18.0
 43
18.0
 50
270.0
  0
INSERT
  5
1635
330
162E
100
AcDbEntity
  8
DIM
 62
     0
370
    -2
100
AcDbBlockReference
  2
_DOT
 10
2530.035623057277
 20
4851.436752239508
 30
0.0
 41
18.0
 42
18.0
 43
18.0
 50
90.0
  0
MTEXT
  5
1636
330
162E
100
AcDbEntity
  8
DIM
  6
Continuous
 62
     0
100
AcDbMText
 10
2476.035623057277
 20
4571.436752239508
 30
0.0
 40
48.0
 41
0.0
 46
0.0
 71
     5
 72
     1
  1
\A1;560
  7
ＭＳ ゴシック
 11
0.0
 21
1.0
 31
0.0
 73
     1
 44
1.0
  0
POINT
  5
1637
330
162E
100
AcDbEntity
  8
Defpoints
 62
     0
100
AcDbPoint
 10
3021.488808324497
 20
4291.436752239508
 30
0.0
  0
POINT
  5
1638
330
162E
100
AcDbEntity
  8
Defpoints
 62
     0
100
AcDbPoint
 10
3021.488808324497
 20
4851.436752239508
 30
0.0
  0
POINT
  5
1639
330
162E
100
AcDbEntity
  8
Defpoints
 62
     0
100
AcDbPoint
 10
2530.035623057277
 20
4851.436752239508
 30
0.0
  0
ENDBLK
  5
1630
330
162E
100
AcDbEntity
  8
0
100
AcDbBlockEnd
  0
BLOCK
  5
163E
330
163D
100
AcDbEntity
  8
0
100
AcDbBlockBegin
  2
*D16
 70
     1
 10
0.0
 20
0.0
 30
0.0
  3
*D16
  1
*D128
  0
LINE
  5
1640
330
163D
100
AcDbEntity
  8
DIM
 62
     0
370
    -2
100
AcDbLine
 10
1333.30512013867
 20
2132.2505969685
 30
0.0
 11
1903.137917584029
 21
2132.2505969685
 31
0.0
  0
LINE
  5
1641
330
163D
100
AcDbEntity
  8
DIM
 62
     0
370
    -2
100
AcDbLine
 10
1333.305074362289
 20
3032.250474898238
 30
0.0
 11
1903.137917584029
 21
3032.250474898238
 31
0.0
  0
LINE
  5
1642
330
163D
100
AcDbEntity
  8
DIM
 62
     0
370
    -2
100
AcDbLine
 10
1903.137917584029
 20
2150.2505969685
 30
0.0
 11
1903.137917584029
 21
3014.250474898238
 31
0.0
  0
INSERT
  5
1643
330
163D
100
AcDbEntity
  8
DIM
 62
     0
370
    -2
100
AcDbBlockReference
  2
_DOT
 10
1903.137917584029
 20
2132.2505969685
 30
0.0
 41
18.0
 42
18.0
 43
18.0
 50
270.0
  0
INSERT
  5
1644
330
163D
100
AcDbEntity
  8
DIM
 62
     0
370
    -2
100
AcDbBlockReference
  2
_DOT
 10
1903.137917584029
 20
3032.250474898238
 30
0.0
 41
18.0
 42
18.0
 43
18.0
 50
89.99999999999999
  0
MTEXT
  5
1645
330
163D
100
AcDbEntity
  8
DIM
  6
Continuous
 62
     0
100
AcDbMText
 10
1849.137917584029
 20
2557.250535933369
 30
0.0
 40
48.0
 41
0.0
 46
0.0
 71
     5
 72
     1
  1
\A1;900
  7
ＭＳ ゴシック
 11
2.526374514252799E-16
 21
1.0
 31
0.0
 73
     1
 44
1.0
  0
POINT
  5
1646
330
163D
100
AcDbEntity
  8
Defpoints
 62
     0
100
AcDbPoint
 10
1308.30512013867
 20
2132.2505969685
 30
0.0
  0
POINT
  5
1647
330
163D
100
AcDbEntity
  8
Defpoints
 62
     0
100
AcDbPoint
 10
1308.305074362289
 20
3032.250474898238
 30
0.0
  0
POINT
  5
1648
330
163D
100
AcDbEntity
  8
Defpoints
 62
     0
100
AcDbPoint
 10
1903.137917584029
 20
3032.250474898238
 30
0.0
  0
ENDBLK
  5
163F
330
163D
100
AcDbEntity
  8
0
100
AcDbBlockEnd
  0
BLOCK
  5
164A
330
1649
100
AcDbEntity
  8
0
100
AcDbBlockBegin
  2
*D17
 70
     1
 10
0.0
 20
0.0
 30
0.0
  3
*D17
  1
*D129
  0
LINE
  5
164C
330
1649
100
AcDbEntity
  8
DIM
 62
     0
370
    -2
100
AcDbLine
 10
838.7294269431311
 20
2718.833540775066
 30
0.0
 11
838.729426943131
 21
3298.782762875026
 31
0.0
  0
LINE
  5
164D
330
1649
100
AcDbEntity
  8
DIM
 62
     0
370
    -2
100
AcDbLine
 10
1638.729365907971
 20
2718.833540775066
 30
0.0
 11
1638.729365907971
 21
3298.782762875026
 31
0.0
  0
LINE
  5
164E
330
1649
100
AcDbEntity
  8
DIM
 62
     0
370
    -2
100
AcDbLine
 10
856.729426943131
 20
3298.782762875026
 30
0.0
 11
1620.729365907971
 21
3298.782762875026
 31
0.0
  0
INSERT
  5
164F
330
1649
100
AcDbEntity
  8
DIM
 62
     0
370
    -2
100
AcDbBlockReference
  2
_DOT
 10
838.729426943131
 20
3298.782762875026
 30
0.0
 41
18.0
 42
18.0
 43
18.0
 50
180.0
  0
INSERT
  5
1650
330
1649
100
AcDbEntity
  8
DIM
 62
     0
370
    -2
100
AcDbBlockReference
  2
_DOT
 10
1638.729365907971
 20
3298.782762875026
 30
0.0
 41
18.0
 42
18.0
 43
18.0
  0
MTEXT
  5
1651
330
1649
100
AcDbEntity
  8
DIM
  6
Continuous
 62
     0
100
AcDbMText
 10
1238.729396425553
 20
3352.782762875026
 30
0.0
 40
48.0
 41
0.0
 46
0.0
 71
     5
 72
     1
  1
\A1;800
  7
ＭＳ ゴシック
 73
     1
 44
1.0
  0
POINT
  5
1652
330
1649
100
AcDbEntity
  8
Defpoints
 62
     0
100
AcDbPoint
 10
838.7294269431311
 20
2693.833540775066
 30
0.0
  0
POINT
  5
1653
330
1649
100
AcDbEntity
  8
Defpoints
 62
     0
100
AcDbPoint
 10
1638.729365907971
 20
2693.833540775066
 30
0.0
  0
POINT
  5
1654
330
1649
100
AcDbEntity
  8
Defpoints
 62
     0
100
AcDbPoint
 10
1638.729365907971
 20
3298.782762875026
 30
0.0
  0
ENDBLK
  5
164B
330
1649
100
AcDbEntity
  8
0
100
AcDbBlockEnd
  0
BLOCK
  5
1656
330
1655
100
AcDbEntity
  8
0
100
AcDbBlockBegin
  2
*D18
 70
     1
 10
0.0
 20
0.0
 30
0.0
  3
*D18
  1
*D130
  0
LINE
  5
1658
330
1655
100
AcDbEntity
  8
DIM
 62
     0
370
    -2
100
AcDbLine
 10
1036.431537102562
 20
1232.250677077146
 30
0.0
 11
636.7352913311981
 21
1232.250677077147
 31
0.0
  0
LINE
  5
1659
330
1655
100
AcDbEntity
  8
DIM
 62
     0
370
    -2
100
AcDbLine
 10
1057.520698148275
 20
3032.250474898238
 30
0.0
 11
636.7352913311986
 21
3032.250474898238
 31
0.0
  0
LINE
  5
165A
330
1655
100
AcDbEntity
  8
DIM
 62
     0
370
    -2
100
AcDbLine
 10
636.7352913311981
 20
1250.250677077147
 30
0.0
 11
636.7352913311986
 21
3014.250474898238
 31
0.0
  0
INSERT
  5
165B
330
1655
100
AcDbEntity
  8
DIM
 62
     0
370
    -2
100
AcDbBlockReference
  2
_DOT
 10
636.7352913311981
 20
1232.250677077147
 30
0.0
 41
18.0
 42
18.0
 43
18.0
 50
270.0
  0
INSERT
  5
165C
330
1655
100
AcDbEntity
  8
DIM
 62
     0
370
    -2
100
AcDbBlockReference
  2
_DOT
 10
636.7352913311986
 20
3032.250474898238
 30
0.0
 41
18.0
 42
18.0
 43
18.0
 50
89.99999999999999
  0
MTEXT
  5
165D
330
1655
100
AcDbEntity
  8
DIM
  6
Continuous
 62
     0
100
AcDbMText
 10
582.7352913311984
 20
2132.250575987692
 30
0.0
 40
48.0
 41
0.0
 46
0.0
 71
     5
 72
     1
  1
\A1;1800
  7
ＭＳ ゴシック
 11
2.526374455357928E-16
 21
1.0
 31
0.0
 73
     1
 44
1.0
  0
POINT
  5
165E
330
1655
100
AcDbEntity
  8
Defpoints
 62
     0
100
AcDbPoint
 10
1061.431537102562
 20
1232.250677077146
 30
0.0
  0
POINT
  5
165F
330
1655
100
AcDbEntity
  8
Defpoints
 62
     0
100
AcDbPoint
 10
1082.520698148275
 20
3032.250474898238
 30
0.0
  0
POINT
  5
1660
330
1655
100
AcDbEntity
  8
Defpoints
 62
     0
100
AcDbPoint
 10
636.7352913311986
 20
3032.250474898238
 30
0.0
  0
ENDBLK
  5
1657
330
1655
100
AcDbEntity
  8
0
100
AcDbBlockEnd
  0
BLOCK
  5
1664
330
1663
100
AcDbEntity
  8
0
100
AcDbBlockBegin
  2
*D19
 70
     1
 10
0.0
 20
0.0
 30
0.0
  3
*D19
  1
*D131
  0
LINE
  5
1666
330
1663
100
AcDbEntity
  8
DIM
  6
Continuous
 62
     0
370
    -2
100
AcDbLine
 10
1212.729430757827
 20
2107.2505969685
 30
0.0
 11
1212.729430757827
 21
2041.470329162242
 31
0.0
  0
LINE
  5
1667
330
1663
100
AcDbEntity
  8
DIM
  6
Continuous
 62
     0
370
    -2
100
AcDbLine
 10
1264.729423128432
 20
2107.2505969685
 30
0.0
 11
1264.729423128432
 21
2041.470329162242
 31
0.0
  0
LINE
  5
1668
330
1663
100
AcDbEntity
  8
DIM
  6
Continuous
 62
     0
370
    -2
100
AcDbLine
 10
1230.729430757827
 20
2041.470329162242
 30
0.0
 11
1246.729423128432
 21
2041.470329162242
 31
0.0
  0
INSERT
  5
1669
330
1663
100
AcDbEntity
  8
DIM
 62
     0
370
    -2
100
AcDbBlockReference
  2
_DOT
 10
1212.729430757827
 20
2041.470329162242
 30
0.0
 41
18.0
 42
18.0
 43
18.0
 50
180.0
  0
INSERT
  5
166A
330
1663
100
AcDbEntity
  8
DIM
 62
     0
370
    -2
100
AcDbBlockReference
  2
_DOT
 10
1264.729423128432
 20
2041.470329162242
 30
0.0
 41
18.0
 42
18.0
 43
18.0
  0
MTEXT
  5
166B
330
1663
100
AcDbEntity
  8
DIM
  6
Continuous
 62
     0
100
AcDbMText
 10
1240.013609485477
 20
1987.230329162242
 30
0.0
 40
48.0
 41
0.0
 46
0.0
 71
     5
 72
     1
  1
\A1;%%c52
  7
ＭＳ ゴシック
 73
     1
 44
1.0
  0
POINT
  5
166C
330
1663
100
AcDbEntity
  8
Defpoints
 62
     0
100
AcDbPoint
 10
1212.729430757827
 20
2132.2505969685
 30
0.0
  0
POINT
  5
166D
330
1663
100
AcDbEntity
  8
Defpoints
 62
     0
100
AcDbPoint
 10
1264.729423128432
 20
2132.2505969685
 30
0.0
  0
POINT
  5
166E
330
1663
100
AcDbEntity
  8
Defpoints
 62
     0
100
AcDbPoint
 10
1264.729423128432
 20
2041.470329162242
 30
0.0
  0
ENDBLK
  5
1665
330
1663
100
AcDbEntity
  8
0
100
AcDbBlockEnd
  0
BLOCK
  5
1693
330
1692
100
AcDbEntity
  8
0
100
AcDbBlockBegin
  2
*D20
 70
     1
 10
0.0
 20
0.0
 30
0.0
  3
*D20
  1
*D20
  0
LINE
  5
1695
330
1692
100
AcDbEntity
  8
DIM
  6
Continuous
 62
     0
370
    -2
100
AcDbLine
 10
3169.616185069211
 20
4672.780679886424
 30
0.0
 11
3169.616185069211
 21
5134.832078107254
 31
0.0
  0
LINE
  5
1696
330
1692
100
AcDbEntity
  8
DIM
  6
Continuous
 62
     0
370
    -2
100
AcDbLine
 10
2686.533496737596
 20
5037.453531448924
 30
0.0
 11
2686.533496737596
 21
5134.832078107254
 31
0.0
  0
LINE
  5
1697
330
1692
100
AcDbEntity
  8
DIM
  6
Continuous
 62
     0
370
    -2
100
AcDbLine
 10
3151.616185069211
 20
5134.832078107254
 30
0.0
 11
2704.533496737596
 21
5134.832078107254
 31
0.0
  0
INSERT
  5
1698
330
1692
100
AcDbEntity
  8
DIM
 62
     0
370
    -2
100
AcDbBlockReference
  2
_DOT
 10
3169.616185069211
 20
5134.832078107254
 30
0.0
 41
18.0
 42
18.0
 43
18.0
  0
INSERT
  5
1699
330
1692
100
AcDbEntity
  8
DIM
 62
     0
370
    -2
100
AcDbBlockReference
  2
_DOT
 10
2686.533496737596
 20
5134.832078107254
 30
0.0
 41
18.0
 42
18.0
 43
18.0
 50
180.0
  0
MTEXT
  5
169A
330
1692
100
AcDbEntity
  8
DIM
  6
Continuous
 62
     0
100
AcDbMText
 10
2928.074840903404
 20
5188.832078107254
 30
0.0
 40
48.0
 41
0.0
 46
0.0
 71
     5
 72
     1
  1
\A1;485
  7
ＭＳ ゴシック
 73
     1
 44
1.0
  0
POINT
  5
169B
330
1692
100
AcDbEntity
  8
Defpoints
 62
     0
100
AcDbPoint
 10
3169.616185069211
 20
4647.780679886424
 30
0.0
  0
POINT
  5
169C
330
1692
100
AcDbEntity
  8
Defpoints
 62
     0
100
AcDbPoint
 10
2686.533496737596
 20
5012.453531448924
 30
0.0
  0
POINT
  5
169D
330
1692
100
AcDbEntity
  8
Defpoints
 62
     0
100
AcDbPoint
 10
2686.533496737596
 20
5134.832078107254
 30
0.0
  0
ENDBLK
  5
1694
330
1692
100
AcDbEntity
  8
0
100
AcDbBlockEnd
  0
BLOCK
  5
16A2
330
16A1
100
AcDbEntity
  8
0
100
AcDbBlockBegin
  2
*D21
 70
     1
 10
0.0
 20
0.0
 30
0.0
  3
*D21
  1
*D21
  0
LINE
  5
16A4
330
16A1
100
AcDbEntity
  8
DIM
  6
Continuous
 62
     0
370
    -2
100
AcDbLine
 10
1188.72942694313
 20
2157.2505969685
 30
0.0
 11
1188.72942694313
 21
2237.200889406414
 31
0.0
  0
LINE
  5
16A5
330
16A1
100
AcDbEntity
  8
DIM
  6
Continuous
 62
     0
370
    -2
100
AcDbLine
 10
1288.72942694313
 20
2157.2505969685
 30
0.0
 11
1288.72942694313
 21
2237.200889406414
 31
0.0
  0
LINE
  5
16A6
330
16A1
100
AcDbEntity
  8
DIM
  6
Continuous
 62
     0
370
    -2
100
AcDbLine
 10
1206.72942694313
 20
2237.200889406414
 30
0.0
 11
1270.72942694313
 21
2237.200889406414
 31
0.0
  0
INSERT
  5
16A7
330
16A1
100
AcDbEntity
  8
DIM
 62
     0
370
    -2
100
AcDbBlockReference
  2
_DOT
 10
1188.72942694313
 20
2237.200889406414
 30
0.0
 41
18.0
 42
18.0
 43
18.0
 50
180.0
  0
INSERT
  5
16A8
330
16A1
100
AcDbEntity
  8
DIM
 62
     0
370
    -2
100
AcDbBlockReference
  2
_DOT
 10
1288.72942694313
 20
2237.200889406414
 30
0.0
 41
18.0
 42
18.0
 43
18.0
  0
MTEXT
  5
16A9
330
16A1
100
AcDbEntity
  8
DIM
  6
Continuous
 62
     0
100
AcDbMText
 10
1238.72942694313
 20
2291.440889406414
 30
0.0
 40
48.0
 41
0.0
 46
0.0
 71
     5
 72
     1
  1
\A1;%%c100
  7
ＭＳ ゴシック
 73
     1
 44
1.0
  0
POINT
  5
16AA
330
16A1
100
AcDbEntity
  8
Defpoints
 62
     0
100
AcDbPoint
 10
1188.72942694313
 20
2132.2505969685
 30
0.0
  0
POINT
  5
16AB
330
16A1
100
AcDbEntity
  8
Defpoints
 62
     0
100
AcDbPoint
 10
1288.72942694313
 20
2132.2505969685
 30
0.0
  0
POINT
  5
16AC
330
16A1
100
AcDbEntity
  8
Defpoints
 62
     0
100
AcDbPoint
 10
1288.72942694313
 20
2237.200889406414
 30
0.0
  0
ENDBLK
  5
16A3
330
16A1
100
AcDbEntity
  8
0
100
AcDbBlockEnd
  0
ENDSEC
  0
SECTION
  2
ENTITIES
  0
MTEXT
  5
177
330
A
100
AcDbEntity
  8
TEMPLATE
390
1D
100
AcDbMText
 10
158.5094110653718
 20
697.5697439524535
 30
0.0
 40
32.57682291666666
 41
0.0
 46
0.0
 71
     1
 72
     1
  1
品名
  7
ＭＳ ゴシック
 73
     1
 44
0.7828267384257843
  0
MTEXT
  5
178
330
A
100
AcDbEntity
  8
TEMPLATE
390
1D
100
AcDbMText
 10
158.5094110653718
 20
527.5697439524531
 30
0.0
 40
32.57682291666666
 41
0.0
 46
0.0
 71
     1
 72
     1
  1
仕様
  7
ＭＳ ゴシック
 73
     1
 44
0.7828267384257843
  0
LINE
  5
179
330
A
100
AcDbEntity
  8
TEMPLATE
390
1D
100
AcDbLine
 10
4044.509411064408
 20
544.3995877024532
 30
0.0
 11
144.5094110644077
 21
544.3995877024532
 31
0.0
  0
LWPOLYLINE
  5
17A
330
A
100
AcDbEntity
  8
TEMPLATE
390
1D
100
AcDbPolyline
 90
        5
 70
   128
 43
0.0
 10
4044.509411064408
 20
5804.399587702454
 10
144.5094110644077
 20
5804.399587702454
 10
144.5094110644077
 20
204.3995877024531
 10
4044.509411064408
 20
204.3995877024531
 10
4044.509411064408
 20
5804.399587702454
  0
LINE
  5
17B
330
A
100
AcDbEntity
  8
TEMPLATE
390
1D
100
AcDbLine
 10
4044.509411064408
 20
714.399587702453
 30
0.0
 11
144.5094110644077
 21
714.399587702453
 31
0.0
  0
LINE
  5
17C
330
A
100
AcDbEntity
  8
TEMPLATE
390
1D
100
AcDbLine
 10
4044.509411065372
 20
374.3995877024532
 30
0.0
 11
2538.509411065372
 21
374.3995877024532
 31
0.0
  0
MTEXT
  5
17D
330
A
100
AcDbEntity
  8
TEMPLATE
390
1D
100
AcDbMText
 10
144.5094110657792
 20
180.6919435887389
 30
0.0
 40
43.4357638888889
 41
0.0
 46
43.4357638888889
 71
     1
 72
     1
  1
{181909N}
  7
ＭＳ ゴシック
 73
     1
 44
0.7828267384257843
1001
ACAD
1000
ACAD_MTEXT_DEFINED_HEIGHT_BEGIN
1070
    46
1040
43.4357638888889
1000
ACAD_MTEXT_DEFINED_HEIGHT_END
  0
MTEXT
  5
17E
330
A
100
AcDbEntity
  8
TEMPLATE
390
1D
100
AcDbMText
 10
2598.252223569894
 20
314.5787987558371
 30
0.0
 40
48.865234375
 41
0.0
 46
0.0
 71
     1
 72
     1
  1
大洋金物株式会社 ティーフォルム事業部
  7
ＭＳ ゴシック
 73
     1
 44
0.7828267384257843
  0
MTEXT
  5
180
330
A
100
AcDbEntity
  8
TEMPLATE
390
1D
100
AcDbMText
 10
3662.509411065892
 20
470.404822077453
 30
0.0
 40
48.865234375
 41
0.0
 46
24.4326171875
 71
     1
 72
     1
  1
{1:20}
  7
ＭＳ ゴシック
 73
     1
 44
0.7828267384257843
1001
ACAD
1000
ACAD_MTEXT_DEFINED_HEIGHT_BEGIN
1070
    46
1040
24.4326171875
1000
ACAD_MTEXT_DEFINED_HEIGHT_END
  0
MTEXT
  5
181
330
A
100
AcDbEntity
  8
TEMPLATE
390
1D
100
AcDbMText
 10
3556.509411065892
 20
527.5697439524531
 30
0.0
 40
32.57682291666666
 41
0.0
 46
0.0
 71
     1
 72
     1
  1
縮尺
  7
ＭＳ ゴシック
 73
     1
 44
0.7828267384257843
  0
LINE
  5
182
330
A
100
AcDbEntity
  8
TEMPLATE
390
1D
100
AcDbLine
 10
3542.509411065892
 20
374.3995877024532
 30
0.0
 11
3542.509411065892
 21
544.3995877024532
 31
0.0
  0
MTEXT
  5
183
330
A
100
AcDbEntity
  8
TEMPLATE
390
1D
100
AcDbMText
 10
3054.509411065892
 20
527.5697439524531
 30
0.0
 40
32.57682291666666
 41
0.0
 46
0.0
 71
     1
 72
     1
  1
容量
  7
ＭＳ ゴシック
 73
     1
 44
0.7828267384257843
  0
LINE
  5
184
330
A
100
AcDbEntity
  8
TEMPLATE
390
1D
100
AcDbLine
 10
3040.509411065892
 20
374.3995877024532
 30
0.0
 11
3040.509411065892
 21
544.3995877024532
 31
0.0
  0
MTEXT
  5
185
330
A
100
AcDbEntity
  8
TEMPLATE
390
1D
100
AcDbMText
 10
2552.509411065892
 20
697.5697439524535
 30
0.0
 40
32.57682291666666
 41
0.0
 46
0.0
 71
     1
 72
     1
  1
品番
  7
ＭＳ ゴシック
 73
     1
 44
0.7828267384257843
  0
MTEXT
  5
186
330
A
100
AcDbEntity
  8
TEMPLATE
390
1D
100
AcDbMText
 10
2552.509411065892
 20
527.5697439524531
 30
0.0
 40
32.57682291666666
 41
0.0
 46
0.0
 71
     1
 72
     1
  1
重量
  7
ＭＳ ゴシック
 73
     1
 44
0.7828267384257843
  0
MTEXT
  5
187
330
A
100
AcDbEntity
  8
TEMPLATE
390
1D
100
AcDbMText
 10
2658.509411065892
 20
640.404822077453
 30
0.0
 40
48.865234375
 41
0.0
 46
48.865234375
 71
     1
 72
     1
  1
{FLN72-6021}
  7
ＭＳ ゴシック
 73
     1
 44
0.7828267384257843
1001
ACAD
1000
ACAD_MTEXT_DEFINED_HEIGHT_BEGIN
1070
    46
1040
48.865234375
1000
ACAD_MTEXT_DEFINED_HEIGHT_END
  0
LINE
  5
188
330
A
100
AcDbEntity
  8
TEMPLATE
390
1D
100
AcDbLine
 10
2538.509411065892
 20
204.3995877024531
 30
0.0
 11
2538.509411065892
 21
714.399587702453
 31
0.0
  0
MTEXT
  5
189
330
A
100
AcDbEntity
  8
TEMPLATE
390
1D
100
AcDbMText
 10
264.5094110653717
 20
640.404822077453
 30
0.0
 40
48.865234375
 41
0.0
 46
55.071119140625
 71
     1
 72
     1
  1
{鋼板ホーローバス -KALDEWEI,Meisterstück Centro Duo Oval-}
  7
ＭＳ ゴシック
 73
     1
 44
0.7828267384257843
1001
ACAD
1000
ACAD_MTEXT_DEFINED_HEIGHT_BEGIN
1070
    46
1040
55.071119140625
1000
ACAD_MTEXT_DEFINED_HEIGHT_END
  0
MTEXT
  5
18A
330
A
100
AcDbEntity
  8
TEMPLATE
390
1D
100
AcDbMText
 10
264.5094110653717
 20
509.5733518788759
 30
0.0
 40
48.865234375
 41
0.0
 46
263.629768757321
 71
     1
 72
     1
  1
{フリースタンディング/イージークリーンフィニッシュ付き/排水金具付属/\P本体、エプロン: ホーロー/\Pホワイト}
  7
ＭＳ ゴシック
 73
     1
 44
1.304711230709641
1001
ACAD
1000
ACAD_MTEXT_DEFINED_HEIGHT_BEGIN
1070
    46
1040
263.629768757321
1000
ACAD_MTEXT_DEFINED_HEIGHT_END
  0
INSERT
  5
3D0
330
A
100
AcDbEntity
  8
TEMPLATE
100
AcDbBlockReference
  2
名称未設定-1
 10
3741.627912174218
 20
61.99977220290424
 30
0.0
 41
1.524
 42
1.524
 43
1.524
  0
MTEXT
  5
C6B
330
A
100
AcDbEntity
  8
TEMPLATE
390
1D
100
AcDbMText
 10
3160.509411065892
 20
470.404822077453
 30
0.0
 40
48.865234375
 41
0.0
 46
48.865234375
 71
     1
 72
     1
  1
{265L}
  7
ＭＳ ゴシック
 73
     1
 44
0.7828267384257843
1001
ACAD
1000
ACAD_MTEXT_DEFINED_HEIGHT_BEGIN
1070
    46
1040
48.865234375
1000
ACAD_MTEXT_DEFINED_HEIGHT_END
  0
LINE
  5
1549
330
A
100
AcDbEntity
  8
MODEL
  6
STYLE_12
 48
1.5
100
AcDbLine
 10
3149.230520129343
 20
2132.2505969685
 30
0.0
 11
3135.250051379343
 21
1598.389665572009
 31
0.0
  0
LINE
  5
154A
330
A
100
AcDbEntity
  8
MODEL
  6
STYLE_12
 48
1.5
100
AcDbLine
 10
3149.230520129343
 20
2132.2505969685
 30
0.0
 11
3135.250051379343
 21
2666.111619917689
 31
0.0
  0
LINE
  5
154B
330
A
100
AcDbEntity
  8
MODEL
  6
STYLE_12
 48
1.5
100
AcDbLine
 10
3152.906301379343
 20
2075.23643681225
 30
0.0
 11
3150.660207629343
 21
2075.039903609119
 31
0.0
  0
LINE
  5
154C
330
A
100
AcDbEntity
  8
MODEL
  6
STYLE_12
 48
1.5
100
AcDbLine
 10
3171.648488879343
 20
2161.4205188435
 30
0.0
 11
3171.646535754343
 21
2103.0806750935
 31
0.0
  0
LINE
  5
154D
330
A
100
AcDbEntity
  8
MODEL
  6
STYLE_12
 48
1.5
100
AcDbLine
 10
3152.906301379343
 20
2189.26475712475
 30
0.0
 11
3150.660207629343
 21
2189.46104618725
 31
0.0
  0
LINE
  5
154E
330
A
100
AcDbEntity
  8
MODEL
  6
STYLE_12
 48
1.5
100
AcDbLine
 10
3150.875171542295
 20
4628.450424114508
 30
0.0
 11
3148.629077792295
 21
4628.647201458307
 31
0.0
  0
LINE
  5
154F
330
A
100
AcDbEntity
  8
MODEL
  6
STYLE_12
 48
1.5
100
AcDbLine
 10
3150.875171542295
 20
4514.422592083307
 30
0.0
 11
3148.629077792295
 21
4514.226058880207
 31
0.0
  0
LINE
  5
1550
330
A
100
AcDbEntity
  8
MODEL
  6
STYLE_12
 48
1.5
100
AcDbLine
 10
3169.615405917295
 20
4542.266830364508
 30
0.0
 11
3169.615405917295
 21
4600.606674114508
 31
0.0
  0
LINE
  5
1551
330
A
100
AcDbEntity
  8
MODEL
  6
STYLE_12
 48
1.5
100
AcDbLine
 10
2686.531423449644
 20
3026.093187300489
 30
0.0
 11
2687.568532824644
 21
2986.495042769289
 31
0.0
  0
LINE
  5
1552
330
A
100
AcDbEntity
  8
MODEL
  6
STYLE_12
 48
1.5
100
AcDbLine
 10
2686.533496737596
 20
4965.279525677008
 30
0.0
 11
2687.492481112596
 21
4928.668685833307
 31
0.0
  0
LINE
  5
1553
330
A
100
AcDbEntity
  8
MODEL
  6
STYLE_12
 48
1.5
100
AcDbLine
 10
2686.533496737596
 20
4177.593734661408
 30
0.0
 11
2687.492481112596
 21
4214.204574505207
 31
0.0
  0
LINE
  5
1554
330
A
100
AcDbEntity
  8
MODEL
  6
STYLE_12
 48
1.5
100
AcDbLine
 10
2686.531423449644
 20
1238.408044783439
 30
0.0
 11
2687.568532824644
 21
1278.006181685294
 31
0.0
  0
CIRCLE
  5
1555
330
A
100
AcDbEntity
  8
MODEL
  6
HIDDEN
 48
0.05
100
AcDbCircle
 10
2756.529470324644
 20
2132.2505969685
 30
0.0
 40
25.999994277954
  0
ARC
  5
1556
330
A
100
AcDbEntity
  8
MODEL
  6
STYLE_12
 48
1.5
100
AcDbCircle
 10
3046.642749667295
 20
4765.537826458307
 30
0.0
 40
89.999977111816
100
AcDbArc
 50
5.832646875100169
 51
77.70949962641059
  0
ARC
  5
1557
330
A
100
AcDbEntity
  8
MODEL
  6
STYLE_12
 48
1.5
100
AcDbCircle
 10
2427.234790682895
 20
1922.224868694612
 30
0.0
 40
2999.9992675781
100
AcDbArc
 50
77.71025928173994
 51
84.67539640769004
  0
ARC
  5
1558
330
A
100
AcDbEntity
  8
MODEL
  6
STYLE_12
 48
1.5
100
AcDbCircle
 10
3046.642749667295
 20
4377.335433880207
 30
0.0
 40
89.999977111816
100
AcDbArc
 50
282.2905334586098
 51
354.1671985033403
  0
ARC
  5
1559
330
A
100
AcDbEntity
  8
MODEL
  6
STYLE_12
 48
1.5
100
AcDbCircle
 10
1146.531909823595
 20
4571.436752239508
 30
0.0
 40
1999.9995117188
100
AcDbArc
 50
354.1673088802098
 51
5.832669890690006
  0
ARC
  5
155A
330
A
100
AcDbEntity
  8
MODEL
  6
STYLE_12
 48
1.5
100
AcDbCircle
 10
1925.844045519943
 20
1121.480707136955
 30
0.0
 40
2002.6994628906
100
AcDbArc
 50
54.45129068042996
 51
67.26481785337002
  0
ARC
  5
155B
330
A
100
AcDbEntity
  8
MODEL
  6
STYLE_12
 48
1.5
100
AcDbCircle
 10
3027.587942004343
 20
2663.292283980189
 30
0.0
 40
107.69997406006
100
AcDbArc
 50
1.500055513930263
 51
54.45188164504942
  0
ARC
  5
155C
330
A
100
AcDbEntity
  8
MODEL
  6
STYLE_12
 48
1.5
100
AcDbCircle
 10
3150.947317004343
 20
2071.7525500935
 30
0.0
 40
3.299987077713
100
AcDbArc
 50
94.9914070208856
 51
180.0
  0
ARC
  5
155D
330
A
100
AcDbEntity
  8
MODEL
  6
STYLE_12
 48
1.5
100
AcDbCircle
 10
3152.148488879343
 20
2083.90342899975
 30
0.0
 40
8.7000465393066
100
AcDbArc
 50
274.9970407469062
 51
359.6269523739
  0
ARC
  5
155E
330
A
100
AcDbEntity
  8
MODEL
  6
STYLE_12
 48
1.5
100
AcDbCircle
 10
3175.847707629343
 20
2083.749620406
 30
0.0
 40
14.999996185303
100
AcDbArc
 50
121.6158109672283
 51
179.6288508905375
  0
ARC
  5
155F
330
A
100
AcDbEntity
  8
MODEL
  6
STYLE_12
 48
1.5
100
AcDbCircle
 10
3163.947317004343
 20
2103.0806750935
 30
0.0
 40
7.6999979019165
100
AcDbArc
 50
301.6208315786909
 51
0.0
  0
ARC
  5
1560
330
A
100
AcDbEntity
  8
MODEL
  6
STYLE_12
 48
1.5
100
AcDbCircle
 10
3163.947317004343
 20
2161.4205188435
 30
0.0
 40
7.6999979019165
100
AcDbArc
 50
0.0
 51
58.37916842130914
  0
ARC
  5
1561
330
A
100
AcDbEntity
  8
MODEL
  6
STYLE_12
 48
1.5
100
AcDbCircle
 10
3175.847707629343
 20
2180.751329390369
 30
0.0
 40
14.999996185303
100
AcDbArc
 50
180.3711491094625
 51
238.3841890327717
  0
ARC
  5
1562
330
A
100
AcDbEntity
  8
MODEL
  6
STYLE_12
 48
1.5
100
AcDbCircle
 10
3152.148488879343
 20
2180.59776493725
 30
0.0
 40
8.7000465393066
100
AcDbArc
 50
0.3714397073346121
 51
85.00295925309383
  0
ARC
  5
1563
330
A
100
AcDbEntity
  8
MODEL
  6
STYLE_12
 48
1.5
100
AcDbCircle
 10
3150.947317004343
 20
2192.7486438435
 30
0.0
 40
3.299987077713
100
AcDbArc
 50
180.0
 51
265.0085929791144
  0
ARC
  5
1564
330
A
100
AcDbEntity
  8
MODEL
  6
STYLE_12
 48
1.5
100
AcDbCircle
 10
3161.916187167295
 20
4600.606674114508
 30
0.0
 40
7.6999979019165
100
AcDbArc
 50
0.0
 51
58.37916842130914
  0
ARC
  5
1565
330
A
100
AcDbEntity
  8
MODEL
  6
STYLE_12
 48
1.5
100
AcDbCircle
 10
3148.916187167295
 20
4631.934799114508
 30
0.0
 40
3.299987077713
100
AcDbArc
 50
180.0
 51
265.0089617741667
  0
ARC
  5
1566
330
A
100
AcDbEntity
  8
MODEL
  6
STYLE_12
 48
1.5
100
AcDbCircle
 10
3173.816577792295
 20
4619.937728802008
 30
0.0
 40
14.999996185303
100
AcDbArc
 50
180.3730141277955
 51
238.3841890327726
  0
ARC
  5
1567
330
A
100
AcDbEntity
  8
MODEL
  6
STYLE_12
 48
1.5
100
AcDbCircle
 10
3150.117359042295
 20
4619.783431927008
 30
0.0
 40
8.7000465393066
100
AcDbArc
 50
0.3730476261000393
 51
85.00295925309383
  0
ARC
  5
1568
330
A
100
AcDbEntity
  8
MODEL
  6
STYLE_12
 48
1.5
100
AcDbCircle
 10
3161.916187167295
 20
4542.266830364508
 30
0.0
 40
7.6999979019165
100
AcDbArc
 50
301.6208315786909
 51
0.0
  0
ARC
  5
1569
330
A
100
AcDbEntity
  8
MODEL
  6
STYLE_12
 48
1.5
100
AcDbCircle
 10
3148.916187167295
 20
4510.938705364508
 30
0.0
 40
3.299987077713
100
AcDbArc
 50
94.9914070208856
 51
180.0
  0
ARC
  5
156A
330
A
100
AcDbEntity
  8
MODEL
  6
STYLE_12
 48
1.5
100
AcDbCircle
 10
3173.816577792295
 20
4522.936019817707
 30
0.0
 40
14.999996185303
100
AcDbArc
 50
121.6158109672274
 51
179.6288508905375
  0
ARC
  5
156B
330
A
100
AcDbEntity
  8
MODEL
  6
STYLE_12
 48
1.5
100
AcDbCircle
 10
3150.117359042295
 20
4523.089584270807
 30
0.0
 40
8.7000465393066
100
AcDbArc
 50
274.9970407469062
 51
359.6285602926654
  0
ARC
  5
156C
330
A
100
AcDbEntity
  8
MODEL
  6
STYLE_12
 48
1.5
100
AcDbCircle
 10
2707.560720324644
 20
2987.018724409889
 30
0.0
 40
19.999996185303
100
AcDbArc
 50
181.5004805318715
 51
247.2675829213784
  0
ARC
  5
156D
330
A
100
AcDbEntity
  8
MODEL
  6
STYLE_12
 48
1.5
100
AcDbCircle
 10
2707.484668612596
 20
4929.192611614508
 30
0.0
 40
19.999996185303
100
AcDbArc
 50
181.5011797365784
 51
264.6767734900419
  0
ARC
  5
156E
330
A
100
AcDbEntity
  8
MODEL
  6
STYLE_12
 48
1.5
100
AcDbCircle
 10
2427.234790682896
 20
7220.647933880207
 30
0.0
 40
2999.9992675781
100
AcDbArc
 50
275.32460353823
 51
282.2897428721499
  0
ARC
  5
156F
330
A
100
AcDbEntity
  8
MODEL
  6
STYLE_12
 48
1.5
100
AcDbCircle
 10
2707.484668612596
 20
4213.680648723908
 30
0.0
 40
19.999996185303
100
AcDbArc
 50
95.32316162284515
 51
178.4988202634216
  0
ARC
  5
1570
330
A
100
AcDbEntity
  8
MODEL
  6
STYLE_12
 48
1.5
100
AcDbCircle
 10
1925.844045519944
 20
3143.020677534889
 30
0.0
 40
2002.6994628906
100
AcDbArc
 50
292.73518172485
 51
305.5487086850599
  0
ARC
  5
1571
330
A
100
AcDbEntity
  8
MODEL
  6
STYLE_12
 48
1.5
100
AcDbCircle
 10
3027.587942004343
 20
1601.208970991939
 30
0.0
 40
107.69997406006
100
AcDbArc
 50
305.5480900382004
 51
358.4999607158305
  0
ARC
  5
1572
330
A
100
AcDbEntity
  8
MODEL
  6
STYLE_12
 48
1.5
100
AcDbCircle
 10
2707.560720324644
 20
1277.482500044669
 30
0.0
 40
19.999996185303
100
AcDbArc
 50
112.7322819425729
 51
178.4995194681286
  0
LINE
  5
1575
330
A
100
AcDbEntity
  8
MODEL
100
AcDbLine
 10
1444.729365907969
 20
2460.050584761489
 30
0.0
 11
1444.729365907969
 21
1804.450609175529
 31
0.0
  0
LINE
  5
1576
330
A
100
AcDbEntity
  8
MODEL
100
AcDbLine
 10
1032.729426943129
 20
2460.050584761489
 30
0.0
 11
1032.729426943129
 21
1804.450609175529
 31
0.0
  0
ARC
  5
157E
330
A
100
AcDbEntity
  8
MODEL
100
AcDbCircle
 10
1238.72942694313
 20
1804.450609175529
 30
0.0
 40
205.99995422363
100
AcDbArc
 50
180.0
 51
0.0
  0
ARC
  5
157F
330
A
100
AcDbEntity
  8
MODEL
100
AcDbCircle
 10
1238.72942694313
 20
2460.050584761489
 30
0.0
 40
205.99995422363
100
AcDbArc
 50
0.0
 51
180.0
  0
CIRCLE
  5
1580
102
{ACAD_REACTORS
330
16A0
102
}
330
A
100
AcDbEntity
  8
MODEL
100
AcDbCircle
 10
1238.72942694313
 20
2132.2505969685
 30
0.0
 40
50.0
  0
LINE
  5
1585
330
A
100
AcDbEntity
  8
MODEL
100
AcDbLine
 10
2686.529470324644
 20
1238.250822035636
 30
0.0
 11
2686.529470324644
 21
3026.250413862989
 31
0.0
  0
LINE
  5
1586
330
A
100
AcDbEntity
  8
MODEL
100
AcDbLine
 10
2686.531543612596
 20
4177.436752239508
 30
0.0
 11
2686.531543612596
 21
4965.436752239508
 31
0.0
  0
LINE
  5
1587
330
A
100
AcDbEntity
  8
MODEL
100
AcDbLine
 10
838.7294879782801
 20
1632.250719038809
 30
0.0
 11
838.7294879782801
 21
2632.250535933389
 31
0.0
  0
LINE
  5
1589
330
A
100
AcDbEntity
  8
MODEL
100
AcDbLine
 10
1638.72930487282
 20
2632.250535933389
 30
0.0
 11
1638.72930487282
 21
1632.250719038809
 31
0.0
  0
LINE
  5
158B
330
A
100
AcDbEntity
  8
MODEL
100
AcDbLine
 10
2692.529470324644
 20
1232.250822035636
 30
0.0
 11
3290.529348254343
 21
1232.250822035636
 31
0.0
  0
LINE
  5
158C
330
A
100
AcDbEntity
  8
MODEL
100
AcDbLine
 10
3296.529348254343
 20
1238.250822035636
 30
0.0
 11
3296.529348254343
 21
3026.250413862989
 31
0.0
  0
LINE
  5
158D
330
A
100
AcDbEntity
  8
MODEL
100
AcDbLine
 10
2692.529470324644
 20
3032.250413862989
 30
0.0
 11
3290.529348254343
 21
3032.250413862989
 31
0.0
  0
LINE
  5
158E
330
A
100
AcDbEntity
  8
MODEL
100
AcDbLine
 10
3290.531421542295
 20
4171.436752239508
 30
0.0
 11
2692.531543612596
 21
4171.436752239508
 31
0.0
  0
LINE
  5
158F
330
A
100
AcDbEntity
  8
MODEL
100
AcDbLine
 10
3296.531421542295
 20
4177.436752239508
 30
0.0
 11
3296.531421542295
 21
4965.436752239508
 31
0.0
  0
LINE
  5
1590
330
A
100
AcDbEntity
  8
MODEL
100
AcDbLine
 10
3290.531421542295
 20
4971.436752239508
 30
0.0
 11
2692.531543612596
 21
4971.436752239508
 31
0.0
  0
ARC
  5
1591
330
A
100
AcDbEntity
  8
MODEL
100
AcDbCircle
 10
1238.72942694313
 20
2632.250535933389
 30
0.0
 40
399.99990844727
100
AcDbArc
 50
0.0
 51
180.0
  0
ARC
  5
1592
330
A
100
AcDbEntity
  8
MODEL
100
AcDbCircle
 10
1238.72942694313
 20
1632.250719038809
 30
0.0
 40
399.99990844727
100
AcDbArc
 50
180.0
 51
0.0
  0
ARC
  5
1595
330
A
100
AcDbEntity
  8
MODEL
100
AcDbCircle
 10
2692.529470324644
 20
3026.250413862989
 30
0.0
 40
5.9999985694885
100
AcDbArc
 50
90.0
 51
180.0
  0
ARC
  5
1596
330
A
100
AcDbEntity
  8
MODEL
100
AcDbCircle
 10
2692.531543612596
 20
4177.436752239508
 30
0.0
 40
5.9999985694885
100
AcDbArc
 50
180.0
 51
270.0
  0
ARC
  5
1597
330
A
100
AcDbEntity
  8
MODEL
100
AcDbCircle
 10
2692.531543612596
 20
4965.436752239508
 30
0.0
 40
5.9999985694885
100
AcDbArc
 50
90.0
 51
180.0
  0
ARC
  5
1598
330
A
100
AcDbEntity
  8
MODEL
100
AcDbCircle
 10
2692.529470324644
 20
1238.250822035636
 30
0.0
 40
5.9999985694885
100
AcDbArc
 50
180.0
 51
270.0
  0
ARC
  5
1599
330
A
100
AcDbEntity
  8
MODEL
100
AcDbCircle
 10
3290.529348254343
 20
1238.250822035636
 30
0.0
 40
5.9999985694885
100
AcDbArc
 50
270.0
 51
0.0
  0
ARC
  5
159A
330
A
100
AcDbEntity
  8
MODEL
100
AcDbCircle
 10
3290.529348254343
 20
3026.250413862989
 30
0.0
 40
5.9999985694885
100
AcDbArc
 50
0.0
 51
90.0
  0
ARC
  5
159B
330
A
100
AcDbEntity
  8
MODEL
100
AcDbCircle
 10
3290.531421542295
 20
4177.436752239508
 30
0.0
 40
5.9999985694885
100
AcDbArc
 50
270.0
 51
0.0
  0
ARC
  5
159C
330
A
100
AcDbEntity
  8
MODEL
100
AcDbCircle
 10
3290.531421542295
 20
4965.436752239508
 30
0.0
 40
5.9999985694885
100
AcDbArc
 50
0.0
 51
90.0
  0
LWPOLYLINE
  5
159D
330
A
100
AcDbEntity
  8
MODEL
100
AcDbPolyline
 90
       48
 70
     0
 43
0.0
 10
1570.5301166404
 20
2106.2505969685
 10
1569.7371478904
 20
2107.058946577869
 10
1569.0730853904
 20
2109.099962202869
 10
1568.5808978904
 20
2111.630479781
 10
1568.2371478904
 20
2114.107042281
 10
1568.0027728904
 20
2116.29698368725
 10
1567.8406635154
 20
2118.154649702869
 10
1567.7254291404
 20
2119.709825484119
 10
1567.6433978904
 20
2121.01182743725
 10
1567.5828510154
 20
2122.10850712475
 10
1567.5359760154
 20
2123.040391890369
 10
1567.5008197654
 20
2123.840196577869
 10
1567.4734760154
 20
2124.532579390369
 10
1567.4519916404
 20
2125.13780399975
 10
1567.4344135154
 20
2125.671495406
 10
1567.4187885154
 20
2126.145860640369
 10
1567.4070697654
 20
2126.570177046619
 10
1567.3973041404
 20
2126.952989546619
 10
1567.3875385154
 20
2127.300401656
 10
1567.3797260154
 20
2127.61729618725
 10
1567.3738666404
 20
2127.908067671619
 10
1567.3680072654
 20
2128.176134077869
 10
1567.3641010154
 20
2128.424669234119
 10
1567.3601947654
 20
2128.655626265369
 10
1567.3484760154
 20
2129.445665327869
 10
1567.3406635154
 20
2130.083360640369
 10
1567.3328510154
 20
2130.8677844685
 10
1567.3289447654
 20
2131.846544234119
 10
1567.3308978904
 20
2132.860704390369
 10
1567.3367572654
 20
2134.005723921619
 10
1567.3465228904
 20
2134.884141890369
 10
1567.3562885154
 20
2135.629259077869
 10
1567.3738666404
 20
2136.593126265369
 10
1567.3797260154
 20
2136.88389774975
 10
1567.3875385154
 20
2137.200792281
 10
1567.3973041404
 20
2137.548204390369
 10
1567.4070697654
 20
2137.931016890369
 10
1567.4187885154
 20
2138.355333296619
 10
1567.4344135154
 20
2138.829698531
 10
1567.4519916404
 20
2139.36338993725
 10
1567.4734760154
 20
2139.968614546619
 10
1567.5008197654
 20
2140.660997359119
 10
1567.5359760154
 20
2141.460802046619
 10
1567.5828510154
 20
2142.39268681225
 10
1567.6433978904
 20
2143.48936649975
 10
1567.7254291404
 20
2144.791368452869
 10
1567.8406635154
 20
2146.346544234119
 10
1568.0027728904
 20
2148.20421024975
  0
LWPOLYLINE
  5
159E
330
A
100
AcDbEntity
  8
MODEL
100
AcDbPolyline
 90
       48
 70
     0
 43
0.0
 10
1568.0027728904
 20
2148.20421024975
 10
1568.2371478904
 20
2150.394395796619
 10
1568.5808978904
 20
2152.870958296619
 10
1569.0730853904
 20
2155.401231734119
 10
1569.7371478904
 20
2157.442247359119
 10
1570.5301166404
 20
2158.2505969685
 10
1571.3211322654
 20
2157.442247359119
 10
1571.9851947654
 20
2155.401231734119
 10
1572.4793353904
 20
2152.870470015369
 10
1572.8211322654
 20
2150.393907515369
 10
1573.0555072654
 20
2148.203966109119
 10
1573.2176166404
 20
2146.346544234119
 10
1573.3328510154
 20
2144.791368452869
 10
1573.4148822654
 20
2143.48936649975
 10
1573.4754291404
 20
2142.392442671619
 10
1573.5223041404
 20
2141.460802046619
 10
1573.5574603904
 20
2140.660997359119
 10
1573.5848041404
 20
2139.968614546619
 10
1573.6062885154
 20
2139.36338993725
 10
1573.6258197654
 20
2138.829698531
 10
1573.6394916404
 20
2138.355333296619
 10
1573.6512103904
 20
2137.93077274975
 10
1573.6629291404
 20
2137.548204390369
 10
1573.6707416404
 20
2137.200792281
 10
1573.6785541404
 20
2136.88389774975
 10
1573.6844135154
 20
2136.593126265369
 10
1573.6902728904
 20
2136.325059859119
 10
1573.6941791404
 20
2136.076524702869
 10
1573.6980853904
 20
2135.845567671619
 10
1573.7098041404
 20
2135.0552844685
 10
1573.7176166404
 20
2134.417833296619
 10
1573.7254291404
 20
2133.6334094685
 10
1573.7293353904
 20
2132.757188765369
 10
1573.7293353904
 20
2131.744005171619
 10
1573.7234760154
 20
2130.623399702869
 10
1573.7098041404
 20
2129.445665327869
 10
1573.6980853904
 20
2128.655626265369
 10
1573.6941791404
 20
2128.424669234119
 10
1573.6902728904
 20
2128.176134077869
 10
1573.6844135154
 20
2127.908067671619
 10
1573.6785541404
 20
2127.617052046619
 10
1573.6707416404
 20
2127.300401656
 10
1573.6629291404
 20
2126.952989546619
 10
1573.6512103904
 20
2126.570177046619
 10
1573.6394916404
 20
2126.145860640369
 10
1573.6258197654
 20
2125.671495406
 10
1573.6062885154
 20
2125.13780399975
 10
1573.5848041404
 20
2124.532579390369
  0
LWPOLYLINE
  5
159F
330
A
100
AcDbEntity
  8
MODEL
100
AcDbPolyline
 90
       13
 70
     0
 43
0.0
 10
1573.5848041404
 20
2124.532579390369
 10
1573.5574603904
 20
2123.83995243725
 10
1573.5223041404
 20
2123.040391890369
 10
1573.4754291404
 20
2122.10850712475
 10
1573.4148822654
 20
2121.011583296619
 10
1573.3328510154
 20
2119.709825484119
 10
1573.2176166404
 20
2118.154649702869
 10
1573.0555072654
 20
2116.296739546619
 10
1572.8211322654
 20
2114.106798140369
 10
1572.4793353904
 20
2111.630235640369
 10
1571.9851947654
 20
2109.099962202869
 10
1571.3211322654
 20
2107.058946577869
 10
1570.5301166404
 20
2106.2505969685
  0
CIRCLE
  5
15A0
330
A
100
AcDbEntity
  8
MODEL
  6
HIDDEN
 48
0.05
100
AcDbCircle
 10
1238.72942694313
 20
2132.2505969685
 30
0.0
 40
25.999994277954
  0
DIMENSION
  5
15AA
330
A
100
AcDbEntity
  8
DIM
100
AcDbDimension
  2
*D6
 10
2686.529468417295
 20
2302.325147306609
 30
0.0
 11
2964.425464602597
 21
2302.325147306609
 31
0.0
 70
   160
 71
     5
 42
92.99999618530182
 73
     0
 74
     1
 75
     1
 52
-270.0
  3
JIS
100
AcDbAlignedDimension
 13
2779.529464602597
 23
2132.2505969685
 33
0.0
 14
2686.529468417295
 24
2132.250574080343
 34
0.0
 50
180.0
100
AcDbRotatedDimension
1001
ACAD
1000
DSTYLE
1002
{
1070
   172
1070
     1
1070
   174
1070
     1
1070
     3
1000
<>(※1)
1070
   179
1070
     0
1070
    41
1040
18.0
1070
   271
1070
     0
1070
    43
1040
25.0
1070
    44
1040
0.0
1070
    42
1040
25.0
1070
   147
1040
30.0
1070
   140
1040
48.0
1002
}
  0
DIMENSION
  5
15AD
330
A
100
AcDbEntity
  8
DIM
100
AcDbDimension
  2
*D7
 10
2378.112225265766
 20
2972.250617949312
 30
0.0
 11
2378.112225265766
 21
2132.250617949312
 31
0.0
 70
   160
 71
     5
 42
1679.717048665895
 73
     0
 74
     0
 75
     0
  3
JIS
100
AcDbAlignedDimension
 13
2689.120643782647
 23
1292.533569283417
 33
0.0
 14
2694.432377239498
 24
2972.250617949312
 34
0.0
 50
89.99999999999999
100
AcDbRotatedDimension
1001
ACAD
1000
DSTYLE
1002
{
1070
   179
1070
     0
1070
    41
1040
18.0
1070
   271
1070
     0
1070
    43
1040
25.0
1070
    44
1040
0.0
1070
    42
1040
25.0
1070
   147
1040
30.0
1070
   140
1040
48.0
1002
}
  0
DIMENSION
  5
15AE
330
A
100
AcDbEntity
  8
DIM
100
AcDbDimension
  2
*D8
 10
2530.033549769325
 20
2747.250617949312
 30
0.0
 11
2530.033549769325
 21
2132.250617949312
 31
0.0
 70
   160
 71
     5
 42
1230.0
 73
     0
 74
     0
 75
     0
  3
JIS
100
AcDbAlignedDimension
 13
3078.908342381368
 23
1517.250617949312
 33
0.0
 14
3078.90834238137
 24
2747.250617949312
 34
0.0
 50
89.99999999999999
100
AcDbRotatedDimension
1001
ACAD
1000
DSTYLE
1002
{
1070
   179
1070
     0
1070
    41
1040
18.0
1070
   271
1070
     0
1070
    43
1040
25.0
1070
    44
1040
0.0
1070
    42
1040
25.0
1070
   147
1040
30.0
1070
   140
1040
48.0
1002
}
  0
DIMENSION
  5
15AF
330
A
100
AcDbEntity
  8
DIM
100
AcDbDimension
  2
*D9
 10
2643.356270031052
 20
2158.250593153803
 30
0.0
 11
2643.356270031052
 21
2132.250596968499
 31
0.0
 70
   160
 71
     5
 42
51.99999237060683
 73
     0
 74
     0
 75
     0
  3
JIS
100
AcDbAlignedDimension
 13
2756.529348254343
 23
2106.250600783196
 33
0.0
 14
2756.529348254343
 24
2158.250593153803
 34
0.0
 50
89.99999999999999
100
AcDbRotatedDimension
1001
ACAD
1000
DSTYLE
1002
{
1070
     3
1000
%%c<>
1070
   179
1070
     0
1070
    41
1040
18.0
1070
   271
1070
     0
1070
    43
1040
25.0
1070
    44
1040
0.0
1070
    42
1040
25.0
1070
   147
1040
30.0
1070
   140
1040
48.0
1002
}
  0
DIMENSION
  5
15B0
330
A
100
AcDbEntity
  8
DIM
100
AcDbDimension
  2
*D10
 10
3515.140497433602
 20
3032.25061985673
 30
0.0
 11
3461.140497433602
 21
2132.250720946183
 31
0.0
 70
    32
 71
     5
 42
1799.999797821094
 73
     0
 74
     0
 75
     0
  3
JIS
100
AcDbAlignedDimension
 13
3296.529348254343
 23
1232.250822035636
 33
0.0
 14
3296.529348254343
 24
3032.25061985673
 34
0.0
 50
89.99999999999999
100
AcDbRotatedDimension
1001
ACAD
1000
DSTYLE
1002
{
1070
   179
1070
     0
1070
    41
1040
18.0
1070
   271
1070
     0
1070
    43
1040
25.0
1070
    44
1040
0.0
1070
    42
1040
25.0
1070
   147
1040
30.0
1070
   140
1040
48.0
1002
}
  0
DIMENSION
  5
15B3
330
A
100
AcDbEntity
  8
DIM
100
AcDbDimension
  2
*D11
 10
3296.543730623436
 20
3487.676301352377
 30
0.0
 11
2991.529349208018
 21
3487.676301352377
 31
0.0
 70
   160
 71
     5
 42
609.9999980926523
 73
     0
 74
     0
 75
     0
 52
-270.0
  3
JIS
100
AcDbAlignedDimension
 13
2686.543732530784
 23
3026.663845715947
 33
0.0
 14
3296.543730623436
 24
3041.663845715947
 34
0.0
 50
180.0
100
AcDbRotatedDimension
1001
ACAD
1000
DSTYLE
1002
{
1070
   179
1070
     0
1070
    41
1040
18.0
1070
   271
1070
     0
1070
    43
1040
25.0
1070
    44
1040
0.0
1070
    42
1040
25.0
1070
   147
1040
30.0
1070
   140
1040
48.0
1002
}
  0
DIMENSION
  5
15B6
330
A
100
AcDbEntity
  8
DIM
100
AcDbDimension
  2
*D12
 10
3135.250051379343
 20
3201.642958723567
 30
0.0
 11
2929.043732530786
 21
3201.642958723567
 31
0.0
 70
   160
  1
460
 71
     5
 42
448.7186279296994
 73
     0
 74
     0
 75
     0
 52
-270.0
  3
JIS
100
AcDbAlignedDimension
 13
2686.531423449644
 23
3026.093187300489
 33
0.0
 14
3135.250051379343
 24
2666.111619917689
 34
0.0
 50
180.0
100
AcDbRotatedDimension
1001
ACAD
1000
DSTYLE
1002
{
1070
   179
1070
     0
1070
    41
1040
18.0
1070
   271
1070
     0
1070
    43
1040
25.0
1070
    44
1040
0.0
1070
    42
1040
25.0
1070
   147
1040
30.0
1070
   140
1040
48.0
1002
}
  0
DIMENSION
  5
1611
330
A
100
AcDbEntity
  8
DIM
100
AcDbDimension
  2
*D13
 10
3515.142570721554
 20
4971.436630169159
 30
0.0
 11
3461.142570721554
 21
4571.436752239507
 31
0.0
 70
    32
 71
     5
 42
799.9997558593041
 73
     0
 74
     0
 75
     0
  3
JIS
100
AcDbAlignedDimension
 13
3296.531421542295
 23
4171.436874309855
 33
0.0
 14
3296.531421542295
 24
4971.436630169159
 34
0.0
 50
89.99999999999999
100
AcDbRotatedDimension
1001
ACAD
1000
DSTYLE
1002
{
1070
   179
1070
     0
1070
    41
1040
18.0
1070
   271
1070
     0
1070
    43
1040
25.0
1070
    44
1040
0.0
1070
    42
1040
25.0
1070
   147
1040
30.0
1070
   140
1040
48.0
1002
}
  0
DIMENSION
  5
1614
330
A
100
AcDbEntity
  8
DIM
100
AcDbDimension
  2
*D14
 10
2378.114298553719
 20
4911.436752239508
 30
0.0
 11
2324.114298553719
 21
4571.436752239508
 31
0.0
 70
    32
 71
     5
 42
680.0
 73
     0
 74
     0
 75
     0
  3
JIS
100
AcDbAlignedDimension
 13
2670.62639512041
 23
4231.436752239508
 33
0.0
 14
2670.62639512041
 24
4911.436752239508
 34
0.0
 50
89.99999999999999
100
AcDbRotatedDimension
1001
ACAD
1000
DSTYLE
1002
{
1070
   179
1070
     0
1070
    41
1040
18.0
1070
   271
1070
     0
1070
    43
1040
25.0
1070
    44
1040
0.0
1070
    42
1040
25.0
1070
   147
1040
30.0
1070
   140
1040
48.0
1002
}
  0
DIMENSION
  5
1615
330
A
100
AcDbEntity
  8
DIM
100
AcDbDimension
  2
*D15
 10
2530.035623057277
 20
4851.436752239508
 30
0.0
 11
2476.035623057277
 21
4571.436752239508
 31
0.0
 70
    32
 71
     5
 42
560.0
 73
     0
 74
     0
 75
     0
  3
JIS
100
AcDbAlignedDimension
 13
3021.488808324497
 23
4291.436752239508
 33
0.0
 14
3021.488808324497
 24
4851.436752239508
 34
0.0
 50
89.99999999999999
100
AcDbRotatedDimension
1001
ACAD
1000
DSTYLE
1002
{
1070
   179
1070
     0
1070
    41
1040
18.0
1070
   271
1070
     0
1070
    43
1040
25.0
1070
    44
1040
0.0
1070
    42
1040
25.0
1070
   147
1040
30.0
1070
   140
1040
48.0
1002
}
  0
DIMENSION
  5
163A
330
A
100
AcDbEntity
  8
DIM
100
AcDbDimension
  2
*D16
 10
1903.137917584029
 20
3032.250474898238
 30
0.0
 11
1903.137917584029
 21
2557.250535933369
 31
0.0
 70
   160
 71
     5
 42
899.999877929738
 73
     0
 74
     0
 75
     0
  3
tfrom線あり
100
AcDbAlignedDimension
 13
1308.30512013867
 23
2132.2505969685
 33
0.0
 14
1308.305074362289
 24
3032.250474898238
 34
0.0
 50
89.99999999999999
100
AcDbRotatedDimension
1001
ACAD
1000
DSTYLE
1002
{
1070
   147
1040
30.0
1070
   179
1070
     0
1070
    41
1040
18.0
1070
   271
1070
     0
1070
    43
1040
25.0
1070
    44
1040
0.0
1070
    42
1040
25.0
1070
   140
1040
48.0
1002
}
  0
DIMENSION
  5
163B
330
A
100
AcDbEntity
  8
DIM
100
AcDbDimension
  2
*D17
 10
1638.729365907971
 20
3298.782762875026
 30
0.0
 11
1238.729396425553
 21
3298.782762875026
 31
0.0
 70
   160
 71
     5
 42
799.9999389648403
 73
     0
 74
     0
 75
     0
 52
-270.0
  3
tfrom線あり
100
AcDbAlignedDimension
 13
838.7294269431311
 23
2693.833540775066
 33
0.0
 14
1638.729365907971
 24
2693.833540775066
 34
0.0
 50
180.0
100
AcDbRotatedDimension
1001
ACAD
1000
DSTYLE
1002
{
1070
   179
1070
     0
1070
    41
1040
18.0
1070
   271
1070
     0
1070
    43
1040
25.0
1070
    44
1040
0.0
1070
    42
1040
25.0
1070
   140
1040
48.0
1002
}
  0
DIMENSION
  5
163C
330
A
100
AcDbEntity
  8
DIM
100
AcDbDimension
  2
*D18
 10
636.7352913311986
 20
3032.250474898238
 30
0.0
 11
582.7352913311984
 21
2132.250575987692
 31
0.0
 70
    32
 71
     5
 42
1799.999797821092
 73
     0
 74
     0
 75
     0
  3
tfrom線あり
100
AcDbAlignedDimension
 13
1061.431537102562
 23
1232.250677077146
 33
0.0
 14
1082.520698148275
 24
3032.250474898238
 34
0.0
 50
89.99999999999999
100
AcDbRotatedDimension
1001
ACAD
1000
DSTYLE
1002
{
1070
   179
1070
     0
1070
    41
1040
18.0
1070
   271
1070
     0
1070
    43
1040
25.0
1070
    44
1040
0.0
1070
    42
1040
25.0
1070
   140
1040
48.0
1002
}
  0
MTEXT
  5
1661
330
A
100
AcDbEntity
  8
TEMPLATE
390
1D
100
AcDbMText
 10
3673.635652075988
 20
1228.163538056699
 30
0.0
 40
48.865234375
 41
0.0
 46
48.865234375
 71
     1
 72
     1
  1
{\fメイリオ|b0|i0|c0|p0;\H0.8795x;※\fＭＳ ゴシック|b0|i0|c0|p0;1:オーバーフロー使用時の満水位置}
  7
ＭＳ ゴシック
 11
3.061616997868383E-16
 21
1.0
 31
0.0
 73
     1
 44
0.7828267384257843
1001
ACAD
1000
ACAD_MTEXT_DEFINED_HEIGHT_BEGIN
1070
    46
1040
48.865234375
1000
ACAD_MTEXT_DEFINED_HEIGHT_END
  0
DIMENSION
  5
1662
330
A
100
AcDbEntity
  8
DIM
  6
Continuous
100
AcDbDimension
  2
*D19
 10
1264.729423128432
 20
2041.470329162242
 30
0.0
 11
1240.013609485477
 21
2041.470329162242
 31
0.0
 70
   160
 71
     5
 42
51.99999237060501
 73
     0
 74
     0
 75
     0
 52
-270.0
  3
tfrom線あり
100
AcDbAlignedDimension
 13
1212.729430757827
 23
2132.2505969685
 33
0.0
 14
1264.729423128432
 24
2132.2505969685
 34
0.0
 50
180.0
100
AcDbRotatedDimension
1001
ACAD
1000
DSTYLE
1002
{
1070
    77
1070
     2
1070
     3
1000
%%c<>
1070
   179
1070
     0
1070
    41
1040
18.0
1070
   271
1070
     0
1070
    43
1040
25.0
1070
    44
1040
0.0
1070
    42
1040
25.0
1070
   140
1040
48.0
1002
}
  0
DIMENSION
  5
168F
330
A
100
AcDbEntity
  8
DIM
  6
Continuous
100
AcDbDimension
  2
*D20
 10
2686.533496737596
 20
5134.832078107254
 30
0.0
 11
2928.074840903404
 21
5188.832078107254
 31
0.0
 70
    32
  1
485
 71
     5
 42
483.0826883316158
 73
     0
 74
     0
 75
     0
  3
JIS
100
AcDbAlignedDimension
 13
3169.616185069211
 23
4647.780679886424
 33
0.0
 14
2686.533496737596
 24
5012.453531448924
 34
0.0
100
AcDbRotatedDimension
1001
ACAD
1000
DSTYLE
1002
{
1070
   179
1070
     0
1070
    41
1040
18.0
1070
   271
1070
     0
1070
    43
1040
25.0
1070
    44
1040
0.0
1070
    42
1040
25.0
1070
   147
1040
30.0
1070
   140
1040
48.0
1002
}
  0
DIMENSION
  5
169E
102
{ACAD_REACTORS
330
16A0
102
}
102
{ACAD_XDICTIONARY
360
169F
102
}
330
A
100
AcDbEntity
  8
DIM
  6
Continuous
100
AcDbDimension
  2
*D21
 10
1288.72942694313
 20
2237.200889406414
 30
0.0
 11
1238.72942694313
 21
2237.200889406414
 31
0.0
 70
   160
 71
     5
 42
100.0
 73
     0
 74
     0
 75
     0
  3
JIS
100
AcDbAlignedDimension
 13
1188.72942694313
 23
2132.2505969685
 33
0.0
 14
1288.72942694313
 24
2132.2505969685
 34
0.0
100
AcDbRotatedDimension
1001
ACAD
1000
DSTYLE
1002
{
1070
     3
1000
%%c<>
1070
   179
1070
     0
1070
    41
1040
18.0
1070
   271
1070
     0
1070
    43
1040
25.0
1070
    44
1040
0.0
1070
    42
1040
25.0
1070
   147
1040
30.0
1070
   140
1040
48.0
1002
}
  0
LINE
  5
16EF
330
A
100
AcDbEntity
  8
DIM
  6
Continuous
100
AcDbLine
 10
1292.747303770008
 20
1949.321198707708
 30
0.0
 11
960.4782196373758
 21
1949.321198707708
 31
0.0
  0
MTEXT
  5
16F0
330
A
100
AcDbEntity
  8
TEMPLATE
390
1D
100
AcDbMText
 10
972.9629228171011
 20
2014.743483586785
 30
0.0
 40
48.865234375
 41
429.0367578125001
 46
48.865234375
 71
     1
 72
     1
  1
{排水口}
  7
ＭＳ ゴシック
 73
     1
 44
0.7828267384257843
1001
ACAD
1000
ACAD_MTEXT_DEFINED_HEIGHT_BEGIN
1070
    46
1040
48.865234375
1000
ACAD_MTEXT_DEFINED_HEIGHT_END
  0
LEADER
  5
16F1
102
{ACAD_XDICTIONARY
360
16F2
102
}
330
A
100
AcDbEntity
  8
DIM
  6
Continuous
100
AcDbLeader
  3
JIS
 76
     3
 10
1575.957478013759
 20
2131.749295409143
 30
0.0
 10
1771.649671107916
 20
1952.316149978497
 30
0.0
 10
1771.649671107916
 20
1503.750946907336
 30
0.0
1001
ACAD
1000
DSTYLE
1002
{
1070
   179
1070
     0
1070
    41
1040
10.0
1070
   271
1070
     0
1070
    43
1040
25.0
1070
    44
1040
0.0
1070
    42
1040
25.0
1070
   147
1040
30.0
1070
   140
1040
48.0
1002
}
  0
MTEXT
  5
16F4
330
A
100
AcDbEntity
  8
TEMPLATE
390
1D
100
AcDbMText
 10
1686.879625154022
 20
1513.067322221209
 30
0.0
 40
48.865234375
 41
0.0
 46
48.865234375
 71
     1
 72
     1
  1
{オーバーフロー}
  7
ＭＳ ゴシック
 11
6.123233995736766E-17
 21
1.0
 31
0.0
 73
     1
 44
0.7828267384257843
1001
ACAD
1000
ACAD_MTEXT_DEFINED_HEIGHT_BEGIN
1070
    46
1040
48.865234375
1000
ACAD_MTEXT_DEFINED_HEIGHT_END
  0
MTEXT
  5
30B8
330
A
100
AcDbEntity
  8
TEMPLATE
390
1D
100
AcDbMText
 10
2658.509411065372
 20
470.404822077453
 30
0.0
 40
48.865234375
 41
0.0
 46
48.865234375
 71
     1
 72
     1
  1
{136kg}
  7
ＭＳ ゴシック
 73
     1
 44
0.7828267384257843
1001
ACAD
1000
ACAD_MTEXT_DEFINED_HEIGHT_BEGIN
1070
    46
1040
48.865234375
1000
ACAD_MTEXT_DEFINED_HEIGHT_END
  0
ARC
  5
30F2
330
A
100
AcDbEntity
  8
MODEL
100
AcDbCircle
 10
1238.72942694313
 20
1632.250719038809
 30
0.0
 40
339.99990844727
100
AcDbArc
 50
180.0
 51
0.0
  0
LINE
  5
30F3
330
A
100
AcDbEntity
  8
MODEL
100
AcDbLine
 10
898.7294879782801
 20
1632.250719038809
 30
0.0
 11
898.7294879782801
 21
2632.250535933389
 31
0.0
  0
ARC
  5
30F4
330
A
100
AcDbEntity
  8
MODEL
100
AcDbCircle
 10
1238.72942694313
 20
2632.250535933389
 30
0.0
 40
339.99990844727
100
AcDbArc
 50
0.0
 51
180.0
  0
LINE
  5
30F5
330
A
100
AcDbEntity
  8
MODEL
100
AcDbLine
 10
1578.72930487282
 20
2632.250535933389
 30
0.0
 11
1578.72930487282
 21
1632.250719038809
 31
0.0
  0
VIEWPORT
  5
349
330
B
100
AcDbEntity
 67
     1
  8
0
100
AcDbViewport
 10
202.5
 20
128.5
 30
0.0
 40
486.0
 41
308.4
 68
     1
 69
     1
 12
202.5
 22
128.5
 13
0.0
 23
0.0
 14
0.5
 24
0.5
 15
0.0
 25
0.0
 16
0.0
 26
0.0
 36
1.0
 17
0.0
 27
0.0
 37
0.0
 42
50.0
 43
0.0
 44
0.0
 45
308.4
 50
0.0
 51
0.0
 72
   100
 90
   557152
  1

281
     0
 71
     1
 74
     0
110
0.0
120
0.0
130
0.0
111
1.0
121
0.0
131
0.0
112
0.0
122
1.0
132
0.0
 79
     0
146
0.0
170
     0
 61
     5
348
26C
292
     1
282
     1
141
0.0
142
0.0
 63
   256
  0
VIEWPORT
  5
34A
330
B
100
AcDbEntity
 67
     1
  8
0
100
AcDbViewport
 10
202.5
 20
128.5
 30
0.0
 40
324.0
 41
205.6
 68
     2
 69
     2
 12
986.6781359294573
 22
1427.077061889956
 13
0.0
 23
0.0
 14
0.5
 24
0.5
 15
0.0
 25
0.0
 16
0.0
 26
0.0
 36
1.0
 17
0.0
 27
0.0
 37
0.0
 42
50.0
 43
0.0
 44
0.0
 45
2890.021615685494
 50
0.0
 51
0.0
 72
   100
 90
   557152
  1

281
     0
 71
     1
 74
     0
110
0.0
120
0.0
130
0.0
111
1.0
121
0.0
131
0.0
112
0.0
122
1.0
132
0.0
 79
     0
146
0.0
170
     0
 61
     5
348
26C
292
     1
282
     1
141
0.0
142
0.0
 63
   256
  0
ENDSEC
  0
SECTION
  2
OBJECTS
  0
DICTIONARY
  5
19
330
0
100
AcDbDictionary
281
     1
  3
ACAD_COLOR
350
38F
  3
ACAD_DETAILVIEWSTYLE
350
BE8
  3
ACAD_GROUP
350
1A
  3
ACAD_IMAGE_VARS
350
27B
  3
ACAD_LAYOUT
350
1E
  3
ACAD_MATERIAL
350
263
  3
ACAD_MLEADERSTYLE
350
336
  3
ACAD_MLINESTYLE
350
1B
  3
ACAD_PLOTSETTINGS
350
22
  3
ACAD_PLOTSTYLENAME
350
1F
  3
ACAD_SCALELIST
350
241
  3
ACAD_SECTIONVIEWSTYLE
350
BE9
  3
ACAD_TABLESTYLE
350
278
  3
ACAD_VISUALSTYLE
350
267
  3
ACDB_RECOMPOSE_DATA
350
3104
  3
AcDbVariableDictionary
350
330
  3
APPDATA
350
27A
  0
SUN
  5
BE4
330
15
100
AcDbSun
 90
        1
290
     0
 63
     7
421
 16777215
 40
1.0
291
     1
 91
  2455826
 92
 54000000
292
     0
 70
     2
 71
   256
280
     1
  0
DICTIONARY
  5
2E1
330
2
100
AcDbDictionary
280
     1
281
     1
  3
ACAD_LAYERSTATES
360
2E2
  3
ACLYDICTIONARY
360
C3B
  0
DICTIONARY
  5
169F
330
169E
100
AcDbDictionary
280
     1
281
     1
  3
ACAD_DIMASSOC
360
16A0
  0
DICTIONARY
  5
16F2
330
16F1
100
AcDbDictionary
280
     1
281
     1
  0
DICTIONARY
  5
38F
102
{ACAD_REACTORS
330
19
102
}
330
19
100
AcDbDictionary
281
     1
  0
DICTIONARY
  5
BE8
102
{ACAD_REACTORS
330
19
102
}
330
19
100
AcDbDictionary
281
     1
  0
DICTIONARY
  5
1A
102
{ACAD_REACTORS
330
19
102
}
330
19
100
AcDbDictionary
281
     1
  0
RASTERVARIABLES
  5
27B
102
{ACAD_REACTORS
330
19
102
}
330
19
100
AcDbRasterVariables
 90
        0
 70
     1
 71
     1
 72
     1
  0
DICTIONARY
  5
1E
102
{ACAD_REACTORS
330
19
102
}
330
19
100
AcDbDictionary
281
     1
  3
Layout1
350
21
  3
Model
350
20
  0
DICTIONARY
  5
263
102
{ACAD_REACTORS
330
19
102
}
330
19
100
AcDbDictionary
281
     1
  3
ByBlock
350
30DE
  3
ByLayer
350
264
  3
Global
350
266
  0
DICTIONARY
  5
336
102
{ACAD_REACTORS
330
19
102
}
330
19
100
AcDbDictionary
281
     1
  3
Standard
350
30D4
  0
DICTIONARY
  5
1B
102
{ACAD_REACTORS
330
19
102
}
330
19
100
AcDbDictionary
281
     1
  3
Standard
350
1C
  0
DICTIONARY
  5
22
102
{ACAD_REACTORS
330
19
102
}
330
19
100
AcDbDictionary
281
     1
  0
ACDBDICTIONARYWDFLT
  5
1F
102
{ACAD_REACTORS
330
19
102
}
330
19
100
AcDbDictionary
281
     1
  3
Normal
350
1D
100
AcDbDictionaryWithDefault
340
1D
  0
DICTIONARY
  5
241
102
{ACAD_REACTORS
330
19
102
}
330
19
100
AcDbDictionary
281
     1
  3
A0
350
242
  3
A1
350
243
  3
A2
350
244
  3
A3
350
245
  3
A4
350
246
  3
A5
350
247
  3
A6
350
248
  3
A7
350
249
  3
A8
350
24A
  3
A9
350
24B
  3
B0
350
24C
  3
B1
350
24D
  3
B2
350
24E
  3
B3
350
24F
  3
B4
350
250
  3
B5
350
251
  3
B6
350
252
  3
B7
350
253
  3
B8
350
254
  3
B9
350
255
  3
C0
350
256
  3
C1
350
257
  3
C2
350
258
  3
C3
350
259
  3
C4
350
25A
  3
C5
350
25B
  3
C6
350
25C
  3
C7
350
25D
  3
C8
350
25E
  3
C9
350
25F
  3
D0
350
260
  3
D1
350
261
  3
D2
350
262
  0
DICTIONARY
  5
BE9
102
{ACAD_REACTORS
330
19
102
}
330
19
100
AcDbDictionary
281
     1
  0
DICTIONARY
  5
278
102
{ACAD_REACTORS
330
19
102
}
330
19
100
AcDbDictionary
281
     1
  3
Standard
350
279
  0
DICTIONARY
  5
267
102
{ACAD_REACTORS
330
19
102
}
330
19
100
AcDbDictionary
281
     1
  3
2dWireframe
350
26C
  3
3D Hidden
350
26E
  3
3dWireframe
350
26D
  3
Basic
350
26F
  3
Brighten
350
273
  3
ColorChange
350
277
  3
Conceptual
350
271
  3
Dim
350
272
  3
EdgeColorOff
350
BDE
  3
Facepattern
350
276
  3
Flat
350
268
  3
FlatWithEdges
350
269
  3
Gouraud
350
26A
  3
GouraudWithEdges
350
26B
  3
Hidden
350
BDB
  3
JitterOff
350
BDC
  3
Linepattern
350
275
  3
OverhangOff
350
BDD
  3
Realistic
350
270
  3
Shaded
350
BE3
  3
Shaded with edges
350
BE2
  3
Shades of Gray
350
BDF
  3
Sketchy
350
BE0
  3
Thicken
350
274
  3
Wireframe
350
BDA
  3
X-Ray
350
BE1
  0
XRECORD
  5
3104
102
{ACAD_REACTORS
330
19
102
}
330
19
100
AcDbXrecord
280
     1
 90
        1
330
279
  0
DICTIONARY
  5
330
102
{ACAD_REACTORS
330
19
102
}
330
19
100
AcDbDictionary
281
     1
  3
CANNOSCALE
350
331
  3
CMLEADERSTYLE
350
30D9
  3
CTABLESTYLE
350
335
  3
HPTRANSPARENCY
350
C00
  3
XCLIPFRAME
350
64A
  0
DICTIONARY
  5
27A
102
{ACAD_REACTORS
330
19
102
}
330
19
100
AcDbDictionary
281
     1
  0
DICTIONARY
  5
2E2
102
{ACAD_REACTORS
330
2E1
102
}
330
2E1
100
AcDbDictionary
281
     1
  0
DICTIONARY
  5
C3B
102
{ACAD_REACTORS
330
2E1
102
}
330
2E1
100
AcDbDictionary
281
     1
1001
ACAD
1000
<All
  0
DIMASSOC
  5
16A0
102
{ACAD_REACTORS
330
169F
102
}
330
169F
100
AcDbDimAssoc
330
169E
 90
        3
 70
     0
 71
     1
  1
AcDbOsnapPointRef
 72
     5
331
1580
 73
     0
 91
        0
 40
3.141592653589793
 10
0.0
 20
0.0
 30
0.0
 75
     0
  1
AcDbOsnapPointRef
 72
     5
331
1580
 73
     0
 91
        0
 40
0.0
 10
0.0
 20
0.0
 30
0.0
 75
     0
  0
LAYOUT
  5
21
102
{ACAD_REACTORS
330
1E
102
}
330
1E
100
AcDbPlotSettings
  1

  2
none_device
  4
ISO_A3_(420.00_x_297.00_MM)
  6

 40
7.5
 41
20.0
 42
7.5
 43
20.0
 44
420.0
 45
297.0
 46
0.0
 47
0.0
 48
0.0
 49
0.0
140
0.0
141
0.0
142
1.0
143
1.0
 70
     0
 72
     1
 73
     0
 74
     0
  7

 75
     0
 76
     0
 77
     2
 78
   300
147
1.0
148
0.0
149
0.0
100
AcDbLayout
  1
Layout1
 70
     0
 71
     0
 10
0.0
 20
0.0
 11
0.0
 21
0.0
 12
0.0
 22
0.0
 32
0.0
 14
0.0
 24
0.0
 34
0.0
 15
0.0
 25
0.0
 35
0.0
146
0.0
 13
0.0
 23
0.0
 33
0.0
 16
0.0
 26
0.0
 36
0.0
 17
0.0
 27
0.0
 37
0.0
 76
     0
330
B
331
349
  0
LAYOUT
  5
20
102
{ACAD_REACTORS
330
1E
102
}
330
1E
100
AcDbPlotSettings
  1

  2
none_device
  4
ISO_A3_(420.00_x_297.00_MM)
  6

 40
7.5
 41
20.0
 42
7.5
 43
20.0
 44
420.0
 45
297.0
 46
0.0
 47
0.0
 48
0.0
 49
0.0
140
0.0
141
0.0
142
1.0
143
1.0
 70
  1024
 72
     1
 73
     0
 74
     0
  7

 75
     0
 76
     0
 77
     2
 78
   300
147
1.0
148
0.0
149
0.0
100
AcDbLayout
  1
Model
 70
     0
 71
     1
 10
0.0
 20
0.0
 11
4200.000000000001
 21
5940.000000000001
 12
0.0
 22
0.0
 32
0.0
 14
144.5094110644077
 24
137.690537338739
 34
-0.0000000000002274
 15
4044.509411065372
 25
5804.399587702454
 35
0.0
146
0.0
 13
0.0
 23
0.0
 33
0.0
 16
0.0
 26
0.0
 36
0.0
 17
0.0
 27
0.0
 37
0.0
 76
     0
330
A
331
15
  0
MATERIAL
  5
30DE
102
{ACAD_REACTORS
330
263
102
}
330
263
100
AcDbMaterial
  1
ByBlock
 72
     1
 94
      127
  0
MATERIAL
  5
264
102
{ACAD_REACTORS
330
263
102
}
330
263
100
AcDbMaterial
  1
ByLayer
 72
     1
 94
      127
  0
MATERIAL
  5
266
102
{ACAD_REACTORS
330
263
102
}
330
263
100
AcDbMaterial
  1
Global
 72
     1
 94
      127
  0
MLEADERSTYLE
  5
30D4
102
{ACAD_REACTORS
330
336
102
}
330
336
100
AcDbMLeaderStyle
170
     2
171
     1
172
     0
 90
        2
 40
0.0
 41
0.0
173
     1
 91
-1056964608
340
11
 92
       -2
290
     1
 42
2.0
291
     1
 43
8.0
  3
Standard
341
0
 44
4.0
300

342
17
174
     1
178
     6
175
     1
176
     0
 93
-1056964608
 45
4.0
292
     0
297
     0
 46
4.0
343
0
 94
-1056964608
 47
1.0
 49
1.0
140
1.0
293
     1
141
0.0
294
     1
177
     0
142
1.0
295
     0
296
     0
143
3.75
1001
ACAD_MLEADERVER
1070
     2
  0
MLINESTYLE
  5
1C
102
{ACAD_REACTORS
330
1B
102
}
330
1B
100
AcDbMlineStyle
  2
Standard
 70
     0
  3

 62
     0
 51
90.0
 52
90.0
 71
     2
 49
0.5
 62
   256
  6
BYLAYER
 49
-0.5
 62
   256
  6
BYLAYER
  0
ACDBPLACEHOLDER
  5
1D
102
{ACAD_REACTORS
330
1F
102
}
330
1F
  0
SCALE
  5
242
102
{ACAD_REACTORS
330
241
102
}
330
241
100
AcDbScale
 70
     0
300
1:1
140
1.0
141
1.0
290
     1
  0
SCALE
  5
243
102
{ACAD_REACTORS
330
241
102
}
330
241
100
AcDbScale
 70
     0
300
1:2
140
1.0
141
2.0
290
     0
  0
SCALE
  5
244
102
{ACAD_REACTORS
330
241
102
}
330
241
100
AcDbScale
 70
     0
300
1:4
140
1.0
141
4.0
290
     0
  0
SCALE
  5
245
102
{ACAD_REACTORS
330
241
102
}
330
241
100
AcDbScale
 70
     0
300
1:5
140
1.0
141
5.0
290
     0
  0
SCALE
  5
246
102
{ACAD_REACTORS
330
241
102
}
330
241
100
AcDbScale
 70
     0
300
1:8
140
1.0
141
8.0
290
     0
  0
SCALE
  5
247
102
{ACAD_REACTORS
330
241
102
}
330
241
100
AcDbScale
 70
     0
300
1:10
140
1.0
141
10.0
290
     0
  0
SCALE
  5
248
102
{ACAD_REACTORS
330
241
102
}
330
241
100
AcDbScale
 70
     0
300
1:16
140
1.0
141
16.0
290
     0
  0
SCALE
  5
249
102
{ACAD_REACTORS
330
241
102
}
330
241
100
AcDbScale
 70
     0
300
1:20
140
1.0
141
20.0
290
     0
  0
SCALE
  5
24A
102
{ACAD_REACTORS
330
241
102
}
330
241
100
AcDbScale
 70
     0
300
1:30
140
1.0
141
30.0
290
     0
  0
SCALE
  5
24B
102
{ACAD_REACTORS
330
241
102
}
330
241
100
AcDbScale
 70
     0
300
1:40
140
1.0
141
40.0
290
     0
  0
SCALE
  5
24C
102
{ACAD_REACTORS
330
241
102
}
330
241
100
AcDbScale
 70
     0
300
1:50
140
1.0
141
50.0
290
     0
  0
SCALE
  5
24D
102
{ACAD_REACTORS
330
241
102
}
330
241
100
AcDbScale
 70
     0
300
1:100
140
1.0
141
100.0
290
     0
  0
SCALE
  5
24E
102
{ACAD_REACTORS
330
241
102
}
330
241
100
AcDbScale
 70
     0
300
2:1
140
2.0
141
1.0
290
     0
  0
SCALE
  5
24F
102
{ACAD_REACTORS
330
241
102
}
330
241
100
AcDbScale
 70
     0
300
4:1
140
4.0
141
1.0
290
     0
  0
SCALE
  5
250
102
{ACAD_REACTORS
330
241
102
}
330
241
100
AcDbScale
 70
     0
300
8:1
140
8.0
141
1.0
290
     0
  0
SCALE
  5
251
102
{ACAD_REACTORS
330
241
102
}
330
241
100
AcDbScale
 70
     0
300
10:1
140
10.0
141
1.0
290
     0
  0
SCALE
  5
252
102
{ACAD_REACTORS
330
241
102
}
330
241
100
AcDbScale
 70
     0
300
100:1
140
100.0
141
1.0
290
     0
  0
SCALE
  5
253
102
{ACAD_REACTORS
330
241
102
}
330
241
100
AcDbScale
 70
     0
300
1/128" = 1'-0"
140
0.0078125
141
12.0
290
     0
  0
SCALE
  5
254
102
{ACAD_REACTORS
330
241
102
}
330
241
100
AcDbScale
 70
     0
300
1/64" = 1'-0"
140
0.015625
141
12.0
290
     0
  0
SCALE
  5
255
102
{ACAD_REACTORS
330
241
102
}
330
241
100
AcDbScale
 70
     0
300
1/32" = 1'-0"
140
0.03125
141
12.0
290
     0
  0
SCALE
  5
256
102
{ACAD_REACTORS
330
241
102
}
330
241
100
AcDbScale
 70
     0
300
1/16" = 1'-0"
140
0.0625
141
12.0
290
     0
  0
SCALE
  5
257
102
{ACAD_REACTORS
330
241
102
}
330
241
100
AcDbScale
 70
     0
300
3/32" = 1'-0"
140
0.09375
141
12.0
290
     0
  0
SCALE
  5
258
102
{ACAD_REACTORS
330
241
102
}
330
241
100
AcDbScale
 70
     0
300
1/8" = 1'-0"
140
0.125
141
12.0
290
     0
  0
SCALE
  5
259
102
{ACAD_REACTORS
330
241
102
}
330
241
100
AcDbScale
 70
     0
300
3/16" = 1'-0"
140
0.1875
141
12.0
290
     0
  0
SCALE
  5
25A
102
{ACAD_REACTORS
330
241
102
}
330
241
100
AcDbScale
 70
     0
300
1/4" = 1'-0"
140
0.25
141
12.0
290
     0
  0
SCALE
  5
25B
102
{ACAD_REACTORS
330
241
102
}
330
241
100
AcDbScale
 70
     0
300
3/8" = 1'-0"
140
0.375
141
12.0
290
     0
  0
SCALE
  5
25C
102
{ACAD_REACTORS
330
241
102
}
330
241
100
AcDbScale
 70
     0
300
1/2" = 1'-0"
140
0.5
141
12.0
290
     0
  0
SCALE
  5
25D
102
{ACAD_REACTORS
330
241
102
}
330
241
100
AcDbScale
 70
     0
300
3/4" = 1'-0"
140
0.75
141
12.0
290
     0
  0
SCALE
  5
25E
102
{ACAD_REACTORS
330
241
102
}
330
241
100
AcDbScale
 70
     0
300
1" = 1'-0"
140
1.0
141
12.0
290
     0
  0
SCALE
  5
25F
102
{ACAD_REACTORS
330
241
102
}
330
241
100
AcDbScale
 70
     0
300
1-1/2" = 1'-0"
140
1.5
141
12.0
290
     0
  0
SCALE
  5
260
102
{ACAD_REACTORS
330
241
102
}
330
241
100
AcDbScale
 70
     0
300
3" = 1'-0"
140
3.0
141
12.0
290
     0
  0
SCALE
  5
261
102
{ACAD_REACTORS
330
241
102
}
330
241
100
AcDbScale
 70
     0
300
6" = 1'-0"
140
6.0
141
12.0
290
     0
  0
SCALE
  5
262
102
{ACAD_REACTORS
330
241
102
}
330
241
100
AcDbScale
 70
     0
300
1'-0" = 1'-0"
140
12.0
141
12.0
290
     0
  0
TABLESTYLE
  5
279
102
{ACAD_REACTORS
330
278
102
}
102
{ACAD_XDICTIONARY
360
3102
102
}
330
278
100
AcDbTableStyle
  3
Standard
 70
     0
 71
     0
 40
0.06
 41
0.06
280
     0
281
     0
  7
Standard
140
4.5
170
     2
 62
     0
 63
   257
283
     0
 90
        4
 91
        0
  1

274
    -2
284
     1
 64
     0
275
    -2
285
     1
 65
     0
276
    -2
286
     1
 66
     0
277
    -2
287
     1
 67
     0
278
    -2
288
     1
 68
     0
279
    -2
289
     1
 69
     0
  7
Standard
140
6.0
170
     5
 62
     0
 63
   257
283
     0
 90
        4
 91
        0
  1

274
    -2
284
     1
 64
     0
275
    -2
285
     1
 65
     0
276
    -2
286
     1
 66
     0
277
    -2
287
     1
 67
     0
278
    -2
288
     1
 68
     0
279
    -2
289
     1
 69
     0
  7
Standard
140
4.5
170
     5
 62
     0
 63
   257
283
     0
 90
        4
 91
        0
  1

274
    -2
284
     1
 64
     0
275
    -2
285
     1
 65
     0
276
    -2
286
     1
 66
     0
277
    -2
287
     1
 67
     0
278
    -2
288
     1
 68
     0
279
    -2
289
     1
 69
     0
  0
VISUALSTYLE
  5
26C
102
{ACAD_REACTORS
330
267
102
}
330
267
100
AcDbVisualStyle
  2
2dWireframe
 70
     4
 71
     0
 72
     2
 73
     0
 90
        0
 40
-0.6
 41
-30.0
 62
     5
 63
     7
421
 16777215
 74
     1
 91
        4
 64
     7
 65
   257
 75
     1
175
     1
 42
1.0
 92
        0
 66
   257
 43
1.0
 76
     1
 77
     6
 78
     2
 67
     7
 79
     5
170
     0
171
     0
290
     0
174
     0
 93
        1
 44
0.0
173
     0
291
     0
 45
0.0
  0
VISUALSTYLE
  5
26E
102
{ACAD_REACTORS
330
267
102
}
330
267
100
AcDbVisualStyle
  2
3D Hidden
 70
     6
 71
     1
 72
     2
 73
     2
 90
        0
 40
-0.6
 41
-30.0
 62
     5
 63
     7
421
 16777215
 74
     2
 91
        2
 64
     7
 65
   257
 75
     2
175
     1
 42
40.0
 92
        0
 66
   257
 43
1.0
 76
     1
 77
     6
 78
     2
 67
     7
 79
     3
170
     0
171
     0
290
     0
174
     0
 93
        1
 44
0.0
173
     0
291
     0
 45
0.0
  0
VISUALSTYLE
  5
26D
102
{ACAD_REACTORS
330
267
102
}
330
267
100
AcDbVisualStyle
  2
3dWireframe
 70
     5
 71
     0
 72
     2
 73
     0
 90
        0
 40
-0.6
 41
-30.0
 62
     5
 63
     7
421
 16777215
 74
     1
 91
        4
 64
     7
 65
   257
 75
     1
175
     1
 42
1.0
 92
        0
 66
   257
 43
1.0
 76
     1
 77
     6
 78
     2
 67
     7
 79
     5
170
     0
171
     0
290
     0
174
     0
 93
        1
 44
0.0
173
     0
291
     0
 45
0.0
  0
VISUALSTYLE
  5
26F
102
{ACAD_REACTORS
330
267
102
}
330
267
100
AcDbVisualStyle
  2
Basic
 70
     7
 71
     1
 72
     0
 73
     1
 90
        0
 40
-0.6
 41
-30.0
 62
     5
 63
     7
421
 16777215
 74
     0
 91
        4
 64
     7
 65
   257
 75
     1
175
     1
 42
1.0
 92
        8
 66
     7
 43
1.0
 76
     1
 77
     6
 78
     2
 67
     7
 79
     5
170
     0
171
     0
290
     0
174
     0
 93
        1
 44
0.0
173
     0
291
     1
 45
0.0
  0
VISUALSTYLE
  5
273
102
{ACAD_REACTORS
330
267
102
}
330
267
100
AcDbVisualStyle
  2
Brighten
 70
    12
 71
     2
 72
     2
 73
     0
 90
        0
 40
-0.6
 41
-30.0
 62
     5
 63
     7
421
 16777215
 74
     1
 91
        4
 64
     7
 65
   257
 75
     1
175
     1
 42
1.0
 92
        8
 66
     7
 43
1.0
 76
     1
 77
     6
 78
     2
 67
     7
 79
     5
170
     0
171
     0
290
     0
174
     0
 93
        1
 44
50.0
173
     0
291
     1
 45
0.0
  0
VISUALSTYLE
  5
277
102
{ACAD_REACTORS
330
267
102
}
330
267
100
AcDbVisualStyle
  2
ColorChange
 70
    16
 71
     2
 72
     2
 73
     3
 90
        0
 40
-0.6
 41
-30.0
 62
     5
 63
     8
421
  8421504
 74
     1
 91
        4
 64
     7
 65
   257
 75
     1
175
     1
 42
1.0
 92
        8
 66
     8
424
  8421504
 43
1.0
 76
     1
 77
     6
 78
     2
 67
     7
 79
     5
170
     0
171
     0
290
     0
174
     0
 93
        1
 44
0.0
173
     0
291
     1
 45
0.0
  0
VISUALSTYLE
  5
271
102
{ACAD_REACTORS
330
267
102
}
330
267
100
AcDbVisualStyle
  2
Conceptual
 70
     9
 71
     3
 72
     2
 73
     0
 90
        0
 40
-0.6
 41
-30.0
 62
     5
 63
     7
421
 16777215
 74
     2
 91
        2
 64
     7
 65
   257
 75
     1
175
     1
 42
40.0
 92
        8
 66
     7
 43
1.0
 76
     1
 77
     6
 78
     2
 67
     7
 79
     3
170
     0
171
     0
290
     0
174
     0
 93
        1
 44
0.0
173
     0
291
     0
 45
0.0
  0
VISUALSTYLE
  5
272
102
{ACAD_REACTORS
330
267
102
}
330
267
100
AcDbVisualStyle
  2
Dim
 70
    11
 71
     2
 72
     2
 73
     0
 90
        0
 40
-0.6
 41
-30.0
 62
     5
 63
     7
421
 16777215
 74
     1
 91
        4
 64
     7
 65
   257
 75
     1
175
     1
 42
1.0
 92
        8
 66
     7
 43
1.0
 76
     1
 77
     6
 78
     2
 67
     7
 79
     5
170
     0
171
     0
290
     0
174
     0
 93
        1
 44
-50.0
173
     0
291
     1
 45
0.0
  0
VISUALSTYLE
  5
BDE
102
{ACAD_REACTORS
330
267
102
}
330
267
100
AcDbVisualStyle
  2
EdgeColorOff
 70
    22
 71
     2
 72
     2
 73
     0
 90
        0
 40
0.6
 41
30.0
 62
     5
 63
     7
421
 16777215
 74
     1
 91
        4
 64
     7
 65
   257
 75
     1
175
     1
 42
1.0
 92
        8
 66
     7
 43
1.0
 76
     1
 77
     6
 78
     2
 67
     7
 79
     5
170
     0
171
     0
290
     0
174
     0
 93
        1
 44
0.0
173
     0
291
     1
 45
0.0
  0
VISUALSTYLE
  5
276
102
{ACAD_REACTORS
330
267
102
}
330
267
100
AcDbVisualStyle
  2
Facepattern
 70
    15
 71
     2
 72
     2
 73
     0
 90
        0
 40
-0.6
 41
-30.0
 62
     5
 63
     7
421
 16777215
 74
     1
 91
        4
 64
     7
 65
   257
 75
     1
175
     1
 42
1.0
 92
        8
 66
     7
 43
1.0
 76
     1
 77
     6
 78
     2
 67
     7
 79
     5
170
     0
171
     0
290
     0
174
     0
 93
        1
 44
0.0
173
     0
291
     1
 45
0.0
  0
VISUALSTYLE
  5
268
102
{ACAD_REACTORS
330
267
102
}
330
267
100
AcDbVisualStyle
  2
Flat
 70
     0
 71
     2
 72
     1
 73
     1
 90
        2
 40
-0.6
 41
30.0
 62
     5
 63
     7
421
 16777215
 74
     0
 91
        4
 64
     7
 65
   257
 75
     1
175
     1
 42
1.0
 92
        8
 66
     7
 43
1.0
 76
     1
 77
     6
 78
     2
 67
     7
 79
     5
170
     0
171
     0
290
     0
174
     0
 93
       13
 44
0.0
173
     0
291
     1
 45
0.0
  0
VISUALSTYLE
  5
269
102
{ACAD_REACTORS
330
267
102
}
330
267
100
AcDbVisualStyle
  2
FlatWithEdges
 70
     1
 71
     2
 72
     1
 73
     1
 90
        2
 40
-0.6
 41
30.0
 62
     5
 63
     7
421
 16777215
 74
     1
 91
        4
 64
     7
 65
   257
 75
     1
175
     1
 42
1.0
 92
        0
 66
   257
 43
1.0
 76
     1
 77
     6
 78
     2
 67
     7
 79
     5
170
     0
171
     0
290
     0
174
     0
 93
       13
 44
0.0
173
     0
291
     1
 45
0.0
  0
VISUALSTYLE
  5
26A
102
{ACAD_REACTORS
330
267
102
}
330
267
100
AcDbVisualStyle
  2
Gouraud
 70
     2
 71
     2
 72
     2
 73
     1
 90
        2
 40
-0.6
 41
30.0
 62
     5
 63
     7
421
 16777215
 74
     0
 91
        4
 64
     7
 65
   257
 75
     1
175
     1
 42
1.0
 92
        0
 66
     7
 43
1.0
 76
     1
 77
     6
 78
     2
 67
     7
 79
     5
170
     0
171
     0
290
     0
174
     0
 93
       13
 44
0.0
173
     0
291
     1
 45
0.0
  0
VISUALSTYLE
  5
26B
102
{ACAD_REACTORS
330
267
102
}
330
267
100
AcDbVisualStyle
  2
GouraudWithEdges
 70
     3
 71
     2
 72
     2
 73
     1
 90
        2
 40
-0.6
 41
30.0
 62
     5
 63
     7
421
 16777215
 74
     1
 91
        4
 64
     7
 65
   257
 75
     1
175
     1
 42
1.0
 92
        0
 66
   257
 43
1.0
 76
     1
 77
     6
 78
     2
 67
     7
 79
     5
170
     0
171
     0
290
     0
174
     0
 93
       13
 44
0.0
173
     0
291
     1
 45
0.0
  0
VISUALSTYLE
  5
BDB
102
{ACAD_REACTORS
330
267
102
}
330
267
100
AcDbVisualStyle
  2
Hidden
 70
     6
 71
     1
 72
     2
 73
     2
 90
        0
 40
0.6
 41
30.0
 62
     5
 63
     7
421
 16777215
 74
     2
 91
        2
 64
     7
 65
   257
 75
     2
175
     1
 42
40.0
 92
        0
 66
   257
 43
1.0
 76
     1
 77
     6
 78
     2
 67
     7
 79
     3
170
     0
171
     0
290
     0
174
     0
 93
        1
 44
0.0
173
     0
291
     0
 45
0.0
  0
VISUALSTYLE
  5
BDC
102
{ACAD_REACTORS
330
267
102
}
330
267
100
AcDbVisualStyle
  2
JitterOff
 70
    20
 71
     2
 72
     2
 73
     0
 90
        0
 40
0.6
 41
30.0
 62
     5
 63
     7
421
 16777215
 74
     1
 91
        4
 64
     7
 65
   257
 75
     1
175
     1
 42
1.0
 92
       10
 66
     7
 43
1.0
 76
     1
 77
     6
 78
     2
 67
     7
 79
     5
170
     0
171
     0
290
     0
174
     0
 93
        1
 44
0.0
173
     0
291
     1
 45
0.0
  0
VISUALSTYLE
  5
275
102
{ACAD_REACTORS
330
267
102
}
330
267
100
AcDbVisualStyle
  2
Linepattern
 70
    14
 71
     2
 72
     2
 73
     0
 90
        0
 40
-0.6
 41
-30.0
 62
     5
 63
     7
421
 16777215
 74
     1
 91
        4
 64
     7
 65
   257
 75
     7
175
     7
 42
1.0
 92
        8
 66
     7
 43
1.0
 76
     1
 77
     6
 78
     2
 67
     7
 79
     5
170
     0
171
     0
290
     0
174
     0
 93
        1
 44
0.0
173
     0
291
     1
 45
0.0
  0
VISUALSTYLE
  5
BDD
102
{ACAD_REACTORS
330
267
102
}
330
267
100
AcDbVisualStyle
  2
OverhangOff
 70
    21
 71
     2
 72
     2
 73
     0
 90
        0
 40
0.6
 41
30.0
 62
     5
 63
     7
421
 16777215
 74
     1
 91
        4
 64
     7
 65
   257
 75
     1
175
     1
 42
1.0
 92
        9
 66
     7
 43
1.0
 76
     1
 77
     6
 78
     2
 67
     7
 79
     5
170
     0
171
     0
290
     0
174
     0
 93
        1
 44
0.0
173
     0
291
     1
 45
0.0
  0
VISUALSTYLE
  5
270
102
{ACAD_REACTORS
330
267
102
}
330
267
100
AcDbVisualStyle
  2
Realistic
 70
     8
 71
     2
 72
     2
 73
     0
 90
        0
 40
-0.6
 41
-30.0
 62
     5
 63
     7
421
 16777215
 74
     1
 91
        0
 64
     7
 65
   257
 75
     1
175
     1
 42
1.0
 92
        8
 66
     8
424
  7895160
 43
1.0
 76
     1
 77
     6
 78
     2
 67
     7
 79
     5
170
     0
171
     0
290
     0
174
     0
 93
       13
 44
0.0
173
     0
291
     0
 45
0.0
  0
VISUALSTYLE
  5
BE3
102
{ACAD_REACTORS
330
267
102
}
330
267
100
AcDbVisualStyle
  2
Shaded
 70
    27
 71
     2
 72
     2
 73
     1
 90
        2
 40
0.6
 41
30.0
 62
     5
 63
     7
421
 16777215
 74
     0
 91
        4
 64
     7
 65
   257
 75
     1
175
     1
 42
1.0
 92
        8
 66
   257
 43
1.0
 76
     1
 77
     6
 78
     2
 67
     8
425
  7895160
 79
     3
170
     0
171
     0
290
     0
174
     0
 93
        5
 44
0.0
173
     0
291
     0
 45
0.0
  0
VISUALSTYLE
  5
BE2
102
{ACAD_REACTORS
330
267
102
}
330
267
100
AcDbVisualStyle
  2
Shaded with edges
 70
    26
 71
     2
 72
     2
 73
     1
 90
        2
 40
0.6
 41
30.0
 62
     5
 63
     7
421
 16777215
 74
     1
 91
       10
 64
     7
 65
   257
 75
     2
175
     1
 42
1.0
 92
        8
 66
   257
 43
1.0
 76
     1
 77
     6
 78
     2
 67
     7
 79
     3
170
     0
171
     0
290
     0
174
     0
 93
        5
 44
0.0
173
     0
291
     0
 45
0.0
  0
VISUALSTYLE
  5
BDF
102
{ACAD_REACTORS
330
267
102
}
330
267
100
AcDbVisualStyle
  2
Shades of Gray
 70
    23
 71
     2
 72
     2
 73
     3
 90
        0
 40
0.6
 41
30.0
 62
     5
 63
     7
421
 16777215
 74
     2
 91
        2
 64
     7
 65
     7
 75
     1
175
     1
 42
40.0
 92
        8
 66
     7
 43
1.0
 76
     1
 77
     6
 78
     2
 67
     7
 79
     3
170
     0
171
     0
290
     0
174
     0
 93
        1
 44
0.0
173
     0
291
     0
 45
0.0
  0
VISUALSTYLE
  5
BE0
102
{ACAD_REACTORS
330
267
102
}
330
267
100
AcDbVisualStyle
  2
Sketchy
 70
    24
 71
     1
 72
     2
 73
     2
 90
        0
 40
0.6
 41
30.0
 62
     5
 63
     7
421
 16777215
 74
     2
 91
        2
 64
     7
 65
     7
 75
     1
175
     1
 42
40.0
 92
       11
 66
     7
 43
1.0
 76
     1
 77
     6
 78
     2
 67
     7
 79
     6
170
     0
171
     0
290
     0
174
     0
 93
        1
 44
0.0
173
     0
291
     0
 45
0.0
  0
VISUALSTYLE
  5
274
102
{ACAD_REACTORS
330
267
102
}
330
267
100
AcDbVisualStyle
  2
Thicken
 70
    13
 71
     2
 72
     2
 73
     0
 90
        0
 40
-0.6
 41
-30.0
 62
     5
 63
     7
421
 16777215
 74
     1
 91
        4
 64
     7
 65
   257
 75
     1
175
     1
 42
1.0
 92
       12
 66
     7
 43
1.0
 76
     1
 77
     6
 78
     2
 67
     7
 79
     5
170
     0
171
     0
290
     0
174
     0
 93
        1
 44
0.0
173
     0
291
     1
 45
0.0
  0
VISUALSTYLE
  5
BDA
102
{ACAD_REACTORS
330
267
102
}
330
267
100
AcDbVisualStyle
  2
Wireframe
 70
     5
 71
     0
 72
     2
 73
     0
 90
        0
 40
0.6
 41
30.0
 62
     5
 63
     7
421
 16777215
 74
     1
 91
        4
 64
     7
 65
   257
 75
     1
175
     1
 42
1.0
 92
        0
 66
   257
 43
1.0
 76
     1
 77
     6
 78
     2
 67
     7
 79
     3
170
     0
171
     0
290
     0
174
     0
 93
        1
 44
0.0
173
     0
291
     0
 45
0.0
  0
VISUALSTYLE
  5
BE1
102
{ACAD_REACTORS
330
267
102
}
330
267
100
AcDbVisualStyle
  2
X-Ray
 70
    25
 71
     2
 72
     2
 73
     1
 90
        1
 40
0.5
 41
30.0
 62
     5
 63
     7
421
 16777215
 74
     1
 91
        0
 64
     7
 65
   257
 75
     1
175
     1
 42
1.0
 92
        8
 66
     7
 43
1.0
 76
     1
 77
     6
 78
     2
 67
     7
 79
     3
170
     0
171
     0
290
     0
174
     0
 93
       13
 44
0.0
173
     0
291
     0
 45
0.0
  0
DICTIONARYVAR
  5
331
102
{ACAD_REACTORS
330
330
102
}
330
330
100
DictionaryVariables
280
     0
  1
1:1
  0
DICTIONARYVAR
  5
30D9
102
{ACAD_REACTORS
330
330
102
}
330
330
100
DictionaryVariables
280
     0
  1
Standard
  0
DICTIONARYVAR
  5
335
102
{ACAD_REACTORS
330
330
102
}
330
330
100
DictionaryVariables
280
     0
  1
Standard
  0
DICTIONARYVAR
  5
C00
102
{ACAD_REACTORS
330
330
102
}
330
330
100
DictionaryVariables
280
     0
  1
ByLayer
  0
DICTIONARYVAR
  5
64A
102
{ACAD_REACTORS
330
330
102
}
330
330
100
DictionaryVariables
280
     0
  1
0
  0
DICTIONARY
  5
3102
330
279
100
AcDbDictionary
280
     1
281
     1
  3
ACAD_ROUNDTRIP_2008_TABLESTYLE_CELLSTYLEMAP
360
3103
  0
CELLSTYLEMAP
  5
3103
102
{ACAD_REACTORS
330
3102
102
}
330
3102
100
AcDbCellStyleMap
 90
        3
300
CELLSTYLE
  1
TABLEFORMAT_BEGIN
 90
        5
170
     1
 91
        0
 92
    32768
 62
   257
 93
        1
300
CONTENTFORMAT
  1
CONTENTFORMAT_BEGIN
 90
        0
 91
        0
 92
        4
 93
        0
300

 40
0.0
140
1.0
 94
        5
 62
     0
340
17
144
6.0
309
CONTENTFORMAT_END
171
     1
301
MARGIN
  1
CELLMARGIN_BEGIN
 40
0.06
 40
0.06
 40
0.06
 40
0.06
 40
0.18
 40
0.18
309
CELLMARGIN_END
 94
        6
 95
        1
302
GRIDFORMAT
  1
GRIDFORMAT_BEGIN
 90
        0
 91
        1
 62
     0
 92
       -2
340
0
 93
        0
 40
0.045
309
GRIDFORMAT_END
 95
        2
302
GRIDFORMAT
  1
GRIDFORMAT_BEGIN
 90
        0
 91
        1
 62
     0
 92
       -2
340
0
 93
        0
 40
0.045
309
GRIDFORMAT_END
 95
        4
302
GRIDFORMAT
  1
GRIDFORMAT_BEGIN
 90
        0
 91
        1
 62
     0
 92
       -2
340
0
 93
        0
 40
0.045
309
GRIDFORMAT_END
 95
        8
302
GRIDFORMAT
  1
GRIDFORMAT_BEGIN
 90
        0
 91
        1
 62
     0
 92
       -2
340
0
 93
        0
 40
0.045
309
GRIDFORMAT_END
 95
       16
302
GRIDFORMAT
  1
GRIDFORMAT_BEGIN
 90
        0
 91
        1
 62
     0
 92
       -2
340
0
 93
        0
 40
0.045
309
GRIDFORMAT_END
 95
       32
302
GRIDFORMAT
  1
GRIDFORMAT_BEGIN
 90
        0
 91
        1
 62
     0
 92
       -2
340
0
 93
        0
 40
0.045
309
GRIDFORMAT_END
309
TABLEFORMAT_END
  1
CELLSTYLE_BEGIN
 90
        1
 91
        1
300
_TITLE
309
CELLSTYLE_END
300
CELLSTYLE
  1
TABLEFORMAT_BEGIN
 90
        5
170
     1
 91
        0
 92
        0
 62
   257
 93
        1
300
CONTENTFORMAT
  1
CONTENTFORMAT_BEGIN
 90
        0
 91
        0
 92
        4
 93
        0
300

 40
0.0
140
1.0
 94
        5
 62
     0
340
17
144
4.5
309
CONTENTFORMAT_END
171
     1
301
MARGIN
  1
CELLMARGIN_BEGIN
 40
0.06
 40
0.06
 40
0.06
 40
0.06
 40
0.18
 40
0.18
309
CELLMARGIN_END
 94
        6
 95
        1
302
GRIDFORMAT
  1
GRIDFORMAT_BEGIN
 90
        0
 91
        1
 62
     0
 92
       -2
340
0
 93
        0
 40
0.045
309
GRIDFORMAT_END
 95
        2
302
GRIDFORMAT
  1
GRIDFORMAT_BEGIN
 90
        0
 91
        1
 62
     0
 92
       -2
340
0
 93
        0
 40
0.045
309
GRIDFORMAT_END
 95
        4
302
GRIDFORMAT
  1
GRIDFORMAT_BEGIN
 90
        0
 91
        1
 62
     0
 92
       -2
340
0
 93
        0
 40
0.045
309
GRIDFORMAT_END
 95
        8
302
GRIDFORMAT
  1
GRIDFORMAT_BEGIN
 90
        0
 91
        1
 62
     0
 92
       -2
340
0
 93
        0
 40
0.045
309
GRIDFORMAT_END
 95
       16
302
GRIDFORMAT
  1
GRIDFORMAT_BEGIN
 90
        0
 91
        1
 62
     0
 92
       -2
340
0
 93
        0
 40
0.045
309
GRIDFORMAT_END
 95
       32
302
GRIDFORMAT
  1
GRIDFORMAT_BEGIN
 90
        0
 91
        1
 62
     0
 92
       -2
340
0
 93
        0
 40
0.045
309
GRIDFORMAT_END
309
TABLEFORMAT_END
  1
CELLSTYLE_BEGIN
 90
        2
 91
        1
300
_HEADER
309
CELLSTYLE_END
300
CELLSTYLE
  1
TABLEFORMAT_BEGIN
 90
        5
170
     1
 91
        0
 92
        0
 62
   257
 93
        1
300
CONTENTFORMAT
  1
CONTENTFORMAT_BEGIN
 90
        0
 91
        0
 92
        4
 93
        0
300

 40
0.0
140
1.0
 94
        2
 62
     0
340
17
144
4.5
309
CONTENTFORMAT_END
171
     1
301
MARGIN
  1
CELLMARGIN_BEGIN
 40
0.06
 40
0.06
 40
0.06
 40
0.06
 40
0.18
 40
0.18
309
CELLMARGIN_END
 94
        6
 95
        1
302
GRIDFORMAT
  1
GRIDFORMAT_BEGIN
 90
        0
 91
        1
 62
     0
 92
       -2
340
0
 93
        0
 40
0.045
309
GRIDFORMAT_END
 95
        2
302
GRIDFORMAT
  1
GRIDFORMAT_BEGIN
 90
        0
 91
        1
 62
     0
 92
       -2
340
0
 93
        0
 40
0.045
309
GRIDFORMAT_END
 95
        4
302
GRIDFORMAT
  1
GRIDFORMAT_BEGIN
 90
        0
 91
        1
 62
     0
 92
       -2
340
0
 93
        0
 40
0.045
309
GRIDFORMAT_END
 95
        8
302
GRIDFORMAT
  1
GRIDFORMAT_BEGIN
 90
        0
 91
        1
 62
     0
 92
       -2
340
0
 93
        0
 40
0.045
309
GRIDFORMAT_END
 95
       16
302
GRIDFORMAT
  1
GRIDFORMAT_BEGIN
 90
        0
 91
        1
 62
     0
 92
       -2
340
0
 93
        0
 40
0.045
309
GRIDFORMAT_END
 95
       32
302
GRIDFORMAT
  1
GRIDFORMAT_BEGIN
 90
        0
 91
        1
 62
     0
 92
       -2
340
0
 93
        0
 40
0.045
309
GRIDFORMAT_END
309
TABLEFORMAT_END
  1
CELLSTYLE_BEGIN
 90
        3
 91
        2
300
_DATA
309
CELLSTYLE_END
  0
ENDSEC
  0
EOF
