  0
SECTION
  2
HEADER
  9
$ACADVER
  1
AC1021
  9
$ACADMAINTVER
 70
    25
  9
$DWGCODEPAGE
  3
ANSI_932
  9
$LASTSAVEDBY
  1
T-HOWE-PC
  9
$INSBASE
 10
0.0
 20
0.0
 30
0.0
  9
$EXTMIN
 10
14.44042890944974
 20
11.35727006514173
 30
-0.0000000000000071
  9
$EXTMAX
 10
404.4404289095462
 20
579.4293347012853
 30
0.0000000000000071
  9
$LIMMIN
 10
0.0
 20
0.0
  9
$LIMMAX
 10
420.0000000000001
 20
594.0000000000001
  9
$ORTHOMODE
 70
     1
  9
$REGENMODE
 70
     1
  9
$FILLMODE
 70
     1
  9
$QTEXTMODE
 70
     0
  9
$MIRRTEXT
 70
     1
  9
$LTSCALE
 40
50.8
  9
$ATTMODE
 70
     1
  9
$TEXTSIZE
 40
2.5
  9
$TRACEWID
 40
1.0
  9
$TEXTSTYLE
  7
ＭＳ ゴシック
  9
$CLAYER
  8
DIM
  9
$CELTYPE
  6
ByLayer
  9
$CECOLOR
 62
   256
  9
$CELTSCALE
 40
1.0
  9
$DISPSILH
 70
     0
  9
$DIMSCALE
 40
1.0
  9
$DIMASZ
 40
2.0
  9
$DIMEXO
 40
5.0
  9
$DIMDLI
 40
0.0
  9
$DIMRND
 40
0.0
  9
$DIMDLE
 40
0.0
  9
$DIMEXE
 40
0.0
  9
$DIMTP
 40
0.0
  9
$DIMTM
 40
0.0
  9
$DIMTXT
 40
5.0
  9
$DIMCEN
 40
0.0
  9
$DIMTSZ
 40
0.0
  9
$DIMTOL
 70
     0
  9
$DIMLIM
 70
     0
  9
$DIMTIH
 70
     0
  9
$DIMTOH
 70
     0
  9
$DIMSE1
 70
     0
  9
$DIMSE2
 70
     0
  9
$DIMTAD
 70
     1
  9
$DIMZIN
 70
    11
  9
$DIMBLK
  1
DOT
  9
$DIMASO
 70
     1
  9
$DIMSHO
 70
     1
  9
$DIMPOST
  1
<>
  9
$DIMAPOST
  1
[]
  9
$DIMALT
 70
     0
  9
$DIMALTD
 70
     1
  9
$DIMALTF
 40
1.0
  9
$DIMLFAC
 40
1.0
  9
$DIMTOFL
 70
     0
  9
$DIMTVP
 40
0.0
  9
$DIMTIX
 70
     1
  9
$DIMSOXD
 70
     0
  9
$DIMSAH
 70
     0
  9
$DIMBLK1
  1

  9
$DIMBLK2
  1

  9
$DIMSTYLE
  2
tfrom線あり
  9
$DIMCLRD
 70
     0
  9
$DIMCLRE
 70
     0
  9
$DIMCLRT
 70
     0
  9
$DIMTFAC
 40
1.0
  9
$DIMGAP
 40
5.0
  9
$DIMJUST
 70
     0
  9
$DIMSD1
 70
     0
  9
$DIMSD2
 70
     0
  9
$DIMTOLJ
 70
     1
  9
$DIMTZIN
 70
    11
  9
$DIMALTZ
 70
    11
  9
$DIMALTTZ
 70
    11
  9
$DIMUPT
 70
     0
  9
$DIMDEC
 70
     0
  9
$DIMTDEC
 70
     1
  9
$DIMALTU
 70
     2
  9
$DIMALTTD
 70
     2
  9
$DIMTXSTY
  7
ＭＳ ゴシック
  9
$DIMAUNIT
 70
     0
  9
$DIMADEC
 70
     2
  9
$DIMALTRND
 40
0.0
  9
$DIMAZIN
 70
     0
  9
$DIMDSEP
 70
    46
  9
$DIMATFIT
 70
     0
  9
$DIMFRAC
 70
     2
  9
$DIMLDRBLK
  1
DOT
  9
$DIMLUNIT
 70
     2
  9
$DIMLWD
 70
    -2
  9
$DIMLWE
 70
    -2
  9
$DIMTMOVE
 70
     0
  9
$DIMFXL
 40
1.0
  9
$DIMFXLON
 70
     0
  9
$DIMJOGANG
 40
0.7853981633974483
  9
$DIMTFILL
 70
     0
  9
$DIMTFILLCLR
 70
     0
  9
$DIMARCSYM
 70
     0
  9
$DIMLTYPE
  6

  9
$DIMLTEX1
  6

  9
$DIMLTEX2
  6

  9
$LUNITS
 70
     2
  9
$LUPREC
 70
     0
  9
$SKETCHINC
 40
0.1
  9
$FILLETRAD
 40
0.0
  9
$AUNITS
 70
     0
  9
$AUPREC
 70
     0
  9
$MENU
  1
acad
  9
$ELEVATION
 40
0.0
  9
$PELEVATION
 40
0.0
  9
$THICKNESS
 40
0.0
  9
$LIMCHECK
 70
     0
  9
$CHAMFERA
 40
0.0
  9
$CHAMFERB
 40
0.0
  9
$CHAMFERC
 40
0.0
  9
$CHAMFERD
 40
0.0
  9
$SKPOLY
 70
     0
  9
$TDCREATE
 40
2447893.375
  9
$TDUCREATE
 40
0.0
  9
$TDUPDATE
 40
2459165.438209722
  9
$TDUUPDATE
 40
2459165.063209722
  9
$TDINDWG
 40
0.4234877315
  9
$TDUSRTIMER
 40
0.0012729514
  9
$USRTIMER
 70
     1
  9
$ANGBASE
 50
0.0
  9
$ANGDIR
 70
     0
  9
$PDMODE
 70
     1
  9
$PDSIZE
 40
-2.0
  9
$PLINEWID
 40
0.0
  9
$SPLFRAME
 70
     0
  9
$SPLINETYPE
 70
     6
  9
$SPLINESEGS
 70
     8
  9
$HANDSEED
  5
18CE
  9
$SURFTAB1
 70
     6
  9
$SURFTAB2
 70
     6
  9
$SURFTYPE
 70
     6
  9
$SURFU
 70
     6
  9
$SURFV
 70
     6
  9
$UCSBASE
  2

  9
$UCSNAME
  2

  9
$UCSORG
 10
0.0
 20
0.0
 30
0.0
  9
$UCSXDIR
 10
1.0
 20
0.0
 30
0.0
  9
$UCSYDIR
 10
0.0
 20
1.0
 30
0.0
  9
$UCSORTHOREF
  2

  9
$UCSORTHOVIEW
 70
     0
  9
$UCSORGTOP
 10
0.0
 20
0.0
 30
0.0
  9
$UCSORGBOTTOM
 10
0.0
 20
0.0
 30
0.0
  9
$UCSORGLEFT
 10
0.0
 20
0.0
 30
0.0
  9
$UCSORGRIGHT
 10
0.0
 20
0.0
 30
0.0
  9
$UCSORGFRONT
 10
0.0
 20
0.0
 30
0.0
  9
$UCSORGBACK
 10
0.0
 20
0.0
 30
0.0
  9
$PUCSBASE
  2

  9
$PUCSNAME
  2

  9
$PUCSORG
 10
0.0
 20
0.0
 30
0.0
  9
$PUCSXDIR
 10
1.0
 20
0.0
 30
0.0
  9
$PUCSYDIR
 10
0.0
 20
1.0
 30
0.0
  9
$PUCSORTHOREF
  2

  9
$PUCSORTHOVIEW
 70
     0
  9
$PUCSORGTOP
 10
0.0
 20
0.0
 30
0.0
  9
$PUCSORGBOTTOM
 10
0.0
 20
0.0
 30
0.0
  9
$PUCSORGLEFT
 10
0.0
 20
0.0
 30
0.0
  9
$PUCSORGRIGHT
 10
0.0
 20
0.0
 30
0.0
  9
$PUCSORGFRONT
 10
0.0
 20
0.0
 30
0.0
  9
$PUCSORGBACK
 10
0.0
 20
0.0
 30
0.0
  9
$USERI1
 70
     0
  9
$USERI2
 70
     0
  9
$USERI3
 70
     0
  9
$USERI4
 70
     0
  9
$USERI5
 70
     0
  9
$USERR1
 40
0.0
  9
$USERR2
 40
0.0
  9
$USERR3
 40
0.0
  9
$USERR4
 40
0.0
  9
$USERR5
 40
0.0
  9
$WORLDVIEW
 70
     1
  9
$SHADEDGE
 70
     3
  9
$SHADEDIF
 70
    70
  9
$TILEMODE
 70
     1
  9
$MAXACTVP
 70
    64
  9
$PINSBASE
 10
0.0
 20
0.0
 30
0.0
  9
$PLIMCHECK
 70
     0
  9
$PEXTMIN
 10
0.0
 20
0.0
 30
0.0
  9
$PEXTMAX
 10
0.0
 20
0.0
 30
0.0
  9
$PLIMMIN
 10
-7.5
 20
-20.0
  9
$PLIMMAX
 10
412.5
 20
277.0
  9
$UNITMODE
 70
     0
  9
$VISRETAIN
 70
     0
  9
$PLINEGEN
 70
     1
  9
$PSLTSCALE
 70
     0
  9
$TREEDEPTH
 70
  3020
  9
$CMLSTYLE
  2
Standard
  9
$CMLJUST
 70
     0
  9
$CMLSCALE
 40
1.0
  9
$PROXYGRAPHICS
 70
     0
  9
$MEASUREMENT
 70
     1
  9
$CELWEIGHT
370
    -1
  9
$ENDCAPS
280
     0
  9
$JOINSTYLE
280
     0
  9
$LWDISPLAY
290
     1
  9
$INSUNITS
 70
     4
  9
$HYPERLINKBASE
  1

  9
$STYLESHEET
  1

  9
$XEDIT
290
     1
  9
$CEPSNTYPE
380
     0
  9
$PSTYLEMODE
290
     1
  9
$FINGERPRINTGUID
  2

  9
$VERSIONGUID
  2

  9
$EXTNAMES
290
     1
  9
$PSVPSCALE
 40
0.0
  9
$OLESTARTUP
290
     0
  9
$SORTENTS
280
   127
  9
$INDEXCTL
280
     0
  9
$HIDETEXT
280
     1
  9
$XCLIPFRAME
290
     0
  9
$HALOGAP
280
     0
  9
$OBSCOLOR
 70
   257
  9
$OBSLTYPE
280
     0
  9
$INTERSECTIONDISPLAY
280
     0
  9
$INTERSECTIONCOLOR
 70
   257
  9
$DIMASSOC
280
     2
  9
$PROJECTNAME
  1

  9
$CAMERADISPLAY
290
     0
  9
$LENSLENGTH
 40
50.0
  9
$CAMERAHEIGHT
 40
0.0
  9
$STEPSPERSEC
 40
2.0
  9
$STEPSIZE
 40
6.0
  9
$3DDWFPREC
 40
2.0
  9
$PSOLWIDTH
 40
0.25
  9
$PSOLHEIGHT
 40
4.0
  9
$LOFTANG1
 40
1.570796326794897
  9
$LOFTANG2
 40
1.570796326794897
  9
$LOFTMAG1
 40
0.0
  9
$LOFTMAG2
 40
0.0
  9
$LOFTPARAM
 70
     7
  9
$LOFTNORMALS
280
     1
  9
$LATITUDE
 40
37.795
  9
$LONGITUDE
 40
-122.394
  9
$NORTHDIRECTION
 40
0.0
  9
$TIMEZONE
 70
 -8000
  9
$LIGHTGLYPHDISPLAY
280
     1
  9
$TILEMODELIGHTSYNCH
280
     1
  9
$SOLIDHIST
280
     1
  9
$SHOWHIST
280
     1
  9
$DWFFRAME
280
     2
  9
$DGNFRAME
280
     2
  9
$REALWORLDSCALE
290
     1
  9
$INTERFERECOLOR
 62
   256
  9
$CSHADOW
280
     0
  9
$SHADOWPLANELOCATION
 40
0.0
  0
ENDSEC
  0
SECTION
  2
CLASSES
  0
CLASS
  1
LWPOLYLINE
  2
AcDbPolyline
  3
ObjectDBX Classes
 90
        0
 91
        1
280
     0
281
     1
  0
CLASS
  1
IMAGE
  2
AcDbRasterImage
  3
ISM
 90
      127
 91
        4
280
     0
281
     1
  0
CLASS
  1
OLE2FRAME
  2
AcDbOle2Frame
  3
ObjectDBX Classes
 90
        0
 91
        1
280
     0
281
     1
  0
CLASS
  1
HATCH
  2
AcDbHatch
  3
ObjectDBX Classes
 90
        0
 91
        1
280
     0
281
     1
  0
CLASS
  1
DICTIONARYVAR
  2
AcDbDictionaryVar
  3
ObjectDBX Classes
 90
        0
 91
        3
280
     0
281
     0
  0
CLASS
  1
RASTERVARIABLES
  2
AcDbRasterVariables
  3
ISM
 90
        0
 91
        3
280
     0
281
     0
  0
CLASS
  1
IMAGEDEF
  2
AcDbRasterImageDef
  3
ISM
 90
        0
 91
        3
280
     0
281
     0
  0
CLASS
  1
IMAGEDEF_REACTOR
  2
AcDbRasterImageDefReactor
  3
ISM
 90
        1
 91
        3
280
     0
281
     0
  0
CLASS
  1
IDBUFFER
  2
AcDbIdBuffer
  3
ObjectDBX Classes
 90
        0
 91
        3
280
     0
281
     0
  0
CLASS
  1
SPATIAL_FILTER
  2
AcDbSpatialFilter
  3
ObjectDBX Classes
 90
        0
 91
        3
280
     0
281
     0
  0
CLASS
  1
XRECORD
  2
AcDbXrecord
  3
ObjectDBX Classes
 90
        0
 91
        1
280
     0
281
     0
  0
CLASS
  1
SORTENTSTABLE
  2
AcDbSortentsTable
  3
ObjectDBX Classes
 90
        0
 91
        3
280
     0
281
     0
  0
CLASS
  1
LAYER_INDEX
  2
AcDbLayerIndex
  3
ObjectDBX Classes
 90
        0
 91
        3
280
     0
281
     0
  0
CLASS
  1
SPATIAL_INDEX
  2
AcDbSpatialIndex
  3
AutoCAD 2000
 90
        0
 91
        3
280
     0
281
     0
  0
CLASS
  1
OBJECT_PTR
  2
CAseDLPNTableRecord
  3
ASE-LPNTableRecord
 90
        1
 91
        3
280
     0
281
     0
  0
CLASS
  1
LAYOUT
  2
AcDbLayout
  3
ObjectDBX Classes
 90
        0
 91
        1
280
     0
281
     0
  0
CLASS
  1
PLOTSETTINGS
  2
AcDbPlotSettings
  3
ObjectDBX Classes
 90
        0
 91
        3
280
     0
281
     0
  0
CLASS
  1
ACDBDICTIONARYWDFLT
  2
AcDbDictionaryWithDefault
  3
ObjectDBX Classes
 90
        0
 91
        3
280
     0
281
     0
  0
CLASS
  1
ACDBPLACEHOLDER
  2
AcDbPlaceHolder
  3
ObjectDBX Classes
 90
        0
 91
        1
280
     0
281
     0
  0
CLASS
  1
SCALE
  2
AcDbScale
  3
ObjectDBX Classes
 90
     1153
 91
        3
280
     0
281
     0
  0
CLASS
  1
MATERIAL
  2
AcDbMaterial
  3
ObjectDBX Classes
 90
     1153
 91
        3
280
     0
281
     0
  0
CLASS
  1
VISUALSTYLE
  2
AcDbVisualStyle
  3
ObjectDBX Classes
 90
     4095
 91
        3
280
     0
281
     0
  0
CLASS
  1
TABLESTYLE
  2
AcDbTableStyle
  3
ObjectDBX Classes
 90
     4095
 91
        3
280
     0
281
     0
  0
CLASS
  1
DIMASSOC
  2
AcDbDimAssoc
  3
"AcDbDimAssoc|Product Desc:     AcDim ARX App For Dimension|Company:          Autodesk, Inc.|WEB Address:      www.autodesk.com"
 90
        0
 91
        3
280
     0
281
     0
  0
CLASS
  1
CELLSTYLEMAP
  2
AcDbCellStyleMap
  3
ObjectDBX Classes
 90
     1152
 91
        3
280
     0
281
     0
  0
CLASS
  1
SUN
  2
AcDbSun
  3
SCENEOE
 90
     1153
 91
        3
280
     0
281
     0
  0
CLASS
  1
MLEADERSTYLE
  2
AcDbMLeaderStyle
  3
ACDB_MLEADERSTYLE_CLASS
 90
     4095
 91
        3
280
     0
281
     0
  0
CLASS
  1
FIELD
  2
AcDbField
  3
ObjectDBX Classes
 90
     1152
 91
        3
280
     0
281
     0
  0
CLASS
  1
FIELDLIST
  2
AcDbFieldList
  3
ObjectDBX Classes
 90
     1152
 91
        3
280
     0
281
     0
  0
ENDSEC
  0
SECTION
  2
TABLES
  0
TABLE
  2
VPORT
  5
7
330
0
100
AcDbSymbolTable
 70
     1
  0
VPORT
  5
15
330
7
100
AcDbSymbolTableRecord
100
AcDbViewportTableRecord
  2
*ACTIVE
 70
     0
 10
0.0
 20
0.0
 11
1.0
 21
1.0
 12
300.4605645804002
 22
221.7945878530475
 13
0.0
 23
0.0
 14
1.0
 24
1.0
 15
0.0
 25
0.0
 16
0.0
 26
0.0
 36
1.0
 17
-91.02013567090219
 27
73.59871453016598
 37
-46.86809886248109
 40
579.4335059288665
 41
2.333333333333333
 42
50.0
 43
0.0
 44
0.0
 50
0.0
 51
0.0
 71
    16
 72
  2000
 73
     1
 74
     1
 75
     0
 76
     0
 77
     0
 78
     0
281
     0
 65
     1
110
0.0
120
0.0
130
0.0
111
1.0
121
0.0
131
0.0
112
0.0
122
1.0
132
0.0
 79
     0
146
0.0
348
26C
 60
     3
 61
     5
292
     1
282
     1
141
0.0
142
0.0
 63
   256
361
904
  0
ENDTAB
  0
TABLE
  2
LTYPE
  5
4
330
0
100
AcDbSymbolTable
 70
     2
  0
LTYPE
  5
11
330
4
100
AcDbSymbolTableRecord
100
AcDbLinetypeTableRecord
  2
ByBlock
 70
     0
  3

 72
    65
 73
     0
 40
0.0
  0
LTYPE
  5
12
330
4
100
AcDbSymbolTableRecord
100
AcDbLinetypeTableRecord
  2
ByLayer
 70
     0
  3

 72
    65
 73
     0
 40
0.0
  0
LTYPE
  5
13
330
4
100
AcDbSymbolTableRecord
100
AcDbLinetypeTableRecord
  2
Continuous
 70
     0
  3
Solid line
 72
    65
 73
     0
 40
0.0
  0
LTYPE
  5
1813
330
4
100
AcDbSymbolTableRecord
100
AcDbLinetypeTableRecord
  2
HIDDEN
 70
     0
  3
Hidden _ _ _ _ _ _ _ _ _ _ _ _ _ _ _ _ _ _ _ _ 
 72
    65
 73
     2
 40
9.524999999999999
 49
6.35
 74
     0
 49
-3.175
 74
     0
  0
ENDTAB
  0
TABLE
  2
LAYER
  5
2
102
{ACAD_XDICTIONARY
360
2E1
102
}
330
0
100
AcDbSymbolTable
 70
     7
  0
LAYER
  5
14
330
2
100
AcDbSymbolTableRecord
100
AcDbLayerTableRecord
  2
0
 70
     0
 62
     7
  6
Continuous
370
    -3
390
1D
347
266
  0
LAYER
  5
4B
330
2
100
AcDbSymbolTableRecord
100
AcDbLayerTableRecord
  2
TEMPLATE
 70
     0
 62
     7
  6
Continuous
370
    20
390
1D
347
266
  0
LAYER
  5
4C
330
2
100
AcDbSymbolTableRecord
100
AcDbLayerTableRecord
  2
DIM
 70
     0
 62
     3
  6
Continuous
370
    13
390
1D
347
266
  0
LAYER
  5
4D
330
2
100
AcDbSymbolTableRecord
100
AcDbLayerTableRecord
  2
MODEL
 70
     0
 62
     7
  6
Continuous
370
    20
390
1D
347
266
  0
LAYER
  5
667
330
2
100
AcDbSymbolTableRecord
100
AcDbLayerTableRecord
  2
LOGO
 70
     0
 62
     7
  6
Continuous
370
    -3
390
1D
347
266
  0
LAYER
  5
DDE
330
2
100
AcDbSymbolTableRecord
100
AcDbLayerTableRecord
  2
Defpoints
 70
     0
 62
     7
  6
Continuous
290
     0
370
    -3
390
1D
347
266
  0
LAYER
  5
1812
330
2
100
AcDbSymbolTableRecord
100
AcDbLayerTableRecord
  2
HIDDEN
 70
     0
 62
     8
  6
HIDDEN
370
    20
390
1D
347
266
1001
AcAecLayerStandard
1000

1000

  0
ENDTAB
  0
TABLE
  2
STYLE
  5
3
330
0
100
AcDbSymbolTable
 70
     2
  0
STYLE
  5
17
330
3
100
AcDbSymbolTableRecord
100
AcDbTextStyleTableRecord
  2
Standard
 70
     0
 40
0.0
 41
1.0
 50
0.0
 71
     0
 42
2.5
  3
txt
  4
BIGFONT.SHX
  0
STYLE
  5
39
330
3
100
AcDbSymbolTableRecord
100
AcDbTextStyleTableRecord
  2
ＭＳ ゴシック
 70
     0
 40
0.0
 41
1.0
 50
0.0
 71
     0
 42
2.5
  3
msgothic.ttc
  4
ＭＳ ゴシック
1001
ACAD
1000
ＭＳ ゴシック
1071
        0
  0
ENDTAB
  0
TABLE
  2
VIEW
  5
5
330
0
100
AcDbSymbolTable
 70
     0
  0
ENDTAB
  0
TABLE
  2
UCS
  5
6
330
0
100
AcDbSymbolTable
 70
     0
  0
ENDTAB
  0
TABLE
  2
APPID
  5
8
330
0
100
AcDbSymbolTable
 70
     4
  0
APPID
  5
16
330
8
100
AcDbSymbolTableRecord
100
AcDbRegAppTableRecord
  2
ACAD
 70
     0
  0
APPID
  5
7AC
330
8
100
AcDbSymbolTableRecord
100
AcDbRegAppTableRecord
  2
AcAecLayerStandard
 70
     0
  0
APPID
  5
11AB
330
8
100
AcDbSymbolTableRecord
100
AcDbRegAppTableRecord
  2
ACAD_MLEADERVER
 70
     0
  0
APPID
  5
1868
330
8
100
AcDbSymbolTableRecord
100
AcDbRegAppTableRecord
  2
PLOTTRANSPARENCY
 70
     0
  0
ENDTAB
  0
TABLE
  2
DIMSTYLE
  5
9
330
0
100
AcDbSymbolTable
 70
     2
100
AcDbDimStyleTable
  0
DIMSTYLE
105
18
330
9
100
AcDbSymbolTableRecord
100
AcDbDimStyleTableRecord
  2
Standard
 70
     0
178
     0
340
17
  0
DIMSTYLE
105
57
102
{ACAD_REACTORS
330
174E
330
176C
330
179F
102
}
330
9
100
AcDbSymbolTableRecord
100
AcDbDimStyleTableRecord
  2
tfrom線あり
 70
     0
  3
<>
  4
[]
 41
2.0
 42
5.0
 43
0.0
 44
0.0
 73
     0
 74
     0
 77
     1
 78
    11
140
5.0
141
0.0
143
1.0
147
5.0
171
     1
174
     1
178
     0
179
     2
271
     0
272
     1
276
     2
284
    11
285
    11
286
    11
289
     0
340
39
341
4E
342
4E
  0
ENDTAB
  0
TABLE
  2
BLOCK_RECORD
  5
1
330
0
100
AcDbSymbolTable
 70
    26
  0
BLOCK_RECORD
  5
A
330
1
100
AcDbSymbolTableRecord
100
AcDbBlockTableRecord
  2
*MODEL_SPACE
340
20
 70
     0
280
     1
281
     0
  0
BLOCK_RECORD
  5
B
330
1
100
AcDbSymbolTableRecord
100
AcDbBlockTableRecord
  2
*PAPER_SPACE
340
21
 70
     0
280
     1
281
     0
  0
BLOCK_RECORD
  5
4E
330
1
100
AcDbSymbolTableRecord
100
AcDbBlockTableRecord
  2
_DOT
340
0
102
{BLKREFS
331
115A
331
115B
331
116B
331
116C
331
117A
331
117B
331
1189
331
118A
331
1197
331
1198
331
167E
331
167F
331
168B
331
168C
331
169A
331
169B
331
16A9
331
16AA
331
16B8
331
16B9
331
16C7
331
16C8
331
16D4
331
16D5
331
16E1
331
16E2
331
16F0
331
16F1
331
16FF
331
1700
331
1722
331
1723
331
1757
331
1758
331
1766
331
1767
331
1773
331
1774
331
17A8
331
17A9
102
}
 70
     0
280
     1
281
     0
  0
BLOCK_RECORD
  5
68A
330
1
100
AcDbSymbolTableRecord
100
AcDbBlockTableRecord
  2
名称未設定-1
340
0
 70
     1
280
     1
281
     0
  0
BLOCK_RECORD
  5
68D
330
1
100
AcDbSymbolTableRecord
100
AcDbBlockTableRecord
  2
block 2
340
0
102
{BLKREFS
331
68C
102
}
 70
     0
280
     1
281
     0
  0
BLOCK_RECORD
  5
690
330
1
100
AcDbSymbolTableRecord
100
AcDbBlockTableRecord
  2
block 3
340
0
102
{BLKREFS
331
68F
102
}
 70
     0
280
     1
281
     0
  0
BLOCK_RECORD
  5
693
330
1
100
AcDbSymbolTableRecord
100
AcDbBlockTableRecord
  2
block 4
340
0
102
{BLKREFS
331
692
102
}
 70
     0
280
     1
281
     0
  0
BLOCK_RECORD
  5
6A2
330
1
100
AcDbSymbolTableRecord
100
AcDbBlockTableRecord
  2
block 5
340
0
102
{BLKREFS
331
6A1
102
}
 70
     0
280
     1
281
     0
  0
BLOCK_RECORD
  5
1154
330
1
100
AcDbSymbolTableRecord
100
AcDbBlockTableRecord
  2
*D6
340
0
 70
     0
280
     1
281
     0
  0
BLOCK_RECORD
  5
1165
330
1
100
AcDbSymbolTableRecord
100
AcDbBlockTableRecord
  2
*D7
340
0
 70
     0
280
     1
281
     0
  0
BLOCK_RECORD
  5
1174
330
1
100
AcDbSymbolTableRecord
100
AcDbBlockTableRecord
  2
*D8
340
0
 70
     0
280
     1
281
     0
  0
BLOCK_RECORD
  5
1183
330
1
100
AcDbSymbolTableRecord
100
AcDbBlockTableRecord
  2
*D9
340
0
 70
     0
280
     1
281
     0
  0
BLOCK_RECORD
  5
1192
330
1
100
AcDbSymbolTableRecord
100
AcDbBlockTableRecord
  2
*D10
340
0
 70
     0
280
     1
281
     0
  0
BLOCK_RECORD
  5
1678
330
1
100
AcDbSymbolTableRecord
100
AcDbBlockTableRecord
  2
*D11
340
0
 70
     0
280
     1
281
     0
  0
BLOCK_RECORD
  5
1685
330
1
100
AcDbSymbolTableRecord
100
AcDbBlockTableRecord
  2
*D12
340
0
 70
     0
280
     1
281
     0
  0
BLOCK_RECORD
  5
1694
330
1
100
AcDbSymbolTableRecord
100
AcDbBlockTableRecord
  2
*D13
340
0
 70
     0
280
     1
281
     0
  0
BLOCK_RECORD
  5
16A3
330
1
100
AcDbSymbolTableRecord
100
AcDbBlockTableRecord
  2
*D14
340
0
 70
     0
280
     1
281
     0
  0
BLOCK_RECORD
  5
16B2
330
1
100
AcDbSymbolTableRecord
100
AcDbBlockTableRecord
  2
*D15
340
0
 70
     0
280
     1
281
     0
  0
BLOCK_RECORD
  5
16C1
330
1
100
AcDbSymbolTableRecord
100
AcDbBlockTableRecord
  2
*D16
340
0
 70
     0
280
     1
281
     0
  0
BLOCK_RECORD
  5
16CE
330
1
100
AcDbSymbolTableRecord
100
AcDbBlockTableRecord
  2
*D17
340
0
 70
     0
280
     1
281
     0
  0
BLOCK_RECORD
  5
16DB
330
1
100
AcDbSymbolTableRecord
100
AcDbBlockTableRecord
  2
*D18
340
0
 70
     0
280
     1
281
     0
  0
BLOCK_RECORD
  5
16EA
330
1
100
AcDbSymbolTableRecord
100
AcDbBlockTableRecord
  2
*D19
340
0
 70
     0
280
     1
281
     0
  0
BLOCK_RECORD
  5
16F9
330
1
100
AcDbSymbolTableRecord
100
AcDbBlockTableRecord
  2
*D20
340
0
 70
     0
280
     1
281
     0
  0
BLOCK_RECORD
  5
171C
330
1
100
AcDbSymbolTableRecord
100
AcDbBlockTableRecord
  2
*D21
340
0
 70
     0
280
     1
281
     0
  0
BLOCK_RECORD
  5
1751
330
1
100
AcDbSymbolTableRecord
100
AcDbBlockTableRecord
  2
*D22
340
0
 70
     0
280
     1
281
     0
  0
BLOCK_RECORD
  5
1760
330
1
100
AcDbSymbolTableRecord
100
AcDbBlockTableRecord
  2
*D23
340
0
 70
     0
280
     1
281
     0
  0
BLOCK_RECORD
  5
176D
330
1
100
AcDbSymbolTableRecord
100
AcDbBlockTableRecord
  2
*D24
340
0
 70
     0
280
     1
281
     0
  0
BLOCK_RECORD
  5
17A2
330
1
100
AcDbSymbolTableRecord
100
AcDbBlockTableRecord
  2
*D25
340
0
 70
     0
280
     1
281
     0
  0
ENDTAB
  0
ENDSEC
  0
SECTION
  2
BLOCKS
  0
BLOCK
  5
D
330
A
100
AcDbEntity
  8
0
390
1D
100
AcDbBlockBegin
  2
*MODEL_SPACE
 70
     0
 10
0.0
 20
0.0
 30
0.0
  3
*MODEL_SPACE
  1
*MODEL_SPACE
  0
ENDBLK
  5
E
330
A
100
AcDbEntity
  8
0
390
1D
100
AcDbBlockEnd
  0
BLOCK
  5
F
330
B
100
AcDbEntity
 67
     1
  8
0
390
1D
100
AcDbBlockBegin
  2
*PAPER_SPACE
 70
     0
 10
0.0
 20
0.0
 30
0.0
  3
*PAPER_SPACE
  1
*PAPER_SPACE
  0
ENDBLK
  5
10
330
B
100
AcDbEntity
 67
     1
  8
0
390
1D
100
AcDbBlockEnd
  0
BLOCK
  5
186C
330
4E
100
AcDbEntity
  8
0
390
1D
100
AcDbBlockBegin
  2
_DOT
 70
     0
 10
0.0
 20
0.0
 30
0.0
  3
_DOT
  1
_DOT
  0
POLYLINE
  5
186E
330
4E
100
AcDbEntity
  8
0
  6
ByBlock
 62
     0
370
    -2
390
1D
100
AcDb2dPolyline
 66
     1
 10
0.0
 20
0.0
 30
0.0
 70
     1
 40
0.5
 41
0.5
  0
VERTEX
  5
186F
330
186E
100
AcDbEntity
  8
0
  6
ByBlock
 62
     0
370
    -2
390
1D
100
AcDbVertex
100
AcDb2dVertex
 10
-0.25
 20
0.0
 30
0.0
 42
1.0
  0
VERTEX
  5
1870
330
186E
100
AcDbEntity
  8
0
  6
ByBlock
 62
     0
370
    -2
390
1D
100
AcDbVertex
100
AcDb2dVertex
 10
0.25
 20
0.0
 30
0.0
 42
1.0
  0
SEQEND
  5
1871
330
186E
100
AcDbEntity
  8
0
390
1D
  0
LINE
  5
1872
330
4E
100
AcDbEntity
  8
0
  6
ByBlock
 62
     0
370
    -2
390
1D
100
AcDbLine
 10
-0.5
 20
0.0
 30
0.0
 11
-1.0
 21
0.0
 31
0.0
  0
ENDBLK
  5
1873
330
4E
100
AcDbEntity
  8
0
390
1D
100
AcDbBlockEnd
  0
BLOCK
  5
68B
330
68A
100
AcDbEntity
  8
0
100
AcDbBlockBegin
  2
名称未設定-1
 70
     0
 10
0.0
 20
0.0
 30
0.0
  3
名称未設定-1
  1
名称未設定-1
  0
INSERT
  5
68F
330
68A
100
AcDbEntity
  8
LOGO
100
AcDbBlockReference
  2
block 3
 10
0.0
 20
0.0
 30
0.0
  0
ENDBLK
  5
6B1
330
68A
100
AcDbEntity
  8
0
100
AcDbBlockEnd
  0
BLOCK
  5
68E
330
68D
100
AcDbEntity
  8
0
100
AcDbBlockBegin
  2
block 2
 70
     0
 10
0.0
 20
0.0
 30
0.0
  3
block 2
  1
block 2
  0
ENDBLK
  5
6B0
330
68D
100
AcDbEntity
  8
0
100
AcDbBlockEnd
  0
BLOCK
  5
691
330
690
100
AcDbEntity
  8
0
100
AcDbBlockBegin
  2
block 3
 70
     0
 10
0.0
 20
0.0
 30
0.0
  3
block 3
  1
block 3
  0
INSERT
  5
692
330
690
100
AcDbEntity
  8
LOGO
100
AcDbBlockReference
  2
block 4
 10
0.0
 20
0.0
 30
0.0
  0
INSERT
  5
6A1
330
690
100
AcDbEntity
  8
LOGO
100
AcDbBlockReference
  2
block 5
 10
0.0
 20
0.0
 30
0.0
  0
ENDBLK
  5
6AF
330
690
100
AcDbEntity
  8
0
100
AcDbBlockEnd
  0
BLOCK
  5
694
330
693
100
AcDbEntity
  8
0
100
AcDbBlockBegin
  2
block 4
 70
     0
 10
0.0
 20
0.0
 30
0.0
  3
block 4
  1
block 4
  0
POLYLINE
  5
695
330
693
100
AcDbEntity
  8
LOGO
370
     0
100
AcDb2dPolyline
 66
     1
 10
0.0
 20
0.0
 30
0.0
  0
VERTEX
  5
696
330
695
100
AcDbEntity
  8
LOGO
370
     0
100
AcDbVertex
100
AcDb2dVertex
 10
83.79545727667795
 20
167.6444858234922
 30
0.0
  0
VERTEX
  5
697
330
695
100
AcDbEntity
  8
LOGO
370
     0
100
AcDbVertex
100
AcDb2dVertex
 10
83.79545727667795
 20
159.7968976406313
 30
0.0
  0
VERTEX
  5
698
330
695
100
AcDbEntity
  8
LOGO
370
     0
100
AcDbVertex
100
AcDb2dVertex
 10
71.3631329975216
 20
159.7968976406313
 30
0.0
  0
VERTEX
  5
699
330
695
100
AcDbEntity
  8
LOGO
370
     0
100
AcDbVertex
100
AcDb2dVertex
 10
71.3631329975216
 20
127.8027915271048
 30
0.0
  0
VERTEX
  5
69A
330
695
100
AcDbEntity
  8
LOGO
370
     0
100
AcDbVertex
100
AcDb2dVertex
 10
60.43011526263018
 20
127.8027915271048
 30
0.0
  0
VERTEX
  5
69B
330
695
100
AcDbEntity
  8
LOGO
370
     0
100
AcDbVertex
100
AcDb2dVertex
 10
60.43011526263018
 20
159.7968976406313
 30
0.0
  0
VERTEX
  5
69C
330
695
100
AcDbEntity
  8
LOGO
370
     0
100
AcDbVertex
100
AcDb2dVertex
 10
48.21793273020759
 20
159.7968976406313
 30
0.0
  0
VERTEX
  5
69D
330
695
100
AcDbEntity
  8
LOGO
370
     0
100
AcDbVertex
100
AcDb2dVertex
 10
48.21793273020759
 20
167.6444858234922
 30
0.0
  0
VERTEX
  5
69E
330
695
100
AcDbEntity
  8
LOGO
370
     0
100
AcDbVertex
100
AcDb2dVertex
 10
83.79545727667795
 20
167.6444858234922
 30
0.0
  0
SEQEND
  5
69F
330
695
100
AcDbEntity
  8
LOGO
370
     0
  0
HATCH
  5
6A0
330
693
100
AcDbEntity
  8
LOGO
 62
   250
420
  2234388
100
AcDbHatch
 10
0.0
 20
0.0
 30
0.0
210
0.0
220
0.0
230
1.0
  2
SOLID
 70
     1
 71
     0
 91
        1
 92
        1
 93
        8
 72
     1
 10
83.79545727667795
 20
167.6444858234922
 11
83.79545727667795
 21
159.7968976406313
 72
     1
 10
83.79545727667795
 20
159.7968976406313
 11
71.3631329975216
 21
159.7968976406313
 72
     1
 10
71.3631329975216
 20
159.7968976406313
 11
71.3631329975216
 21
127.8027915271048
 72
     1
 10
71.3631329975216
 20
127.8027915271048
 11
60.43011526263018
 21
127.8027915271048
 72
     1
 10
60.43011526263018
 20
127.8027915271048
 11
60.43011526263018
 21
159.7968976406313
 72
     1
 10
60.43011526263018
 20
159.7968976406313
 11
48.21793273020759
 21
159.7968976406313
 72
     1
 10
48.21793273020759
 20
159.7968976406313
 11
48.21793273020759
 21
167.6444858234922
 72
     1
 10
48.21793273020759
 20
167.6444858234922
 11
83.79545727667795
 21
167.6444858234922
 97
        0
 75
     2
 76
     1
 98
        0
  0
ENDBLK
  5
6AE
330
693
100
AcDbEntity
  8
0
100
AcDbBlockEnd
  0
BLOCK
  5
6A3
330
6A2
100
AcDbEntity
  8
0
100
AcDbBlockBegin
  2
block 5
 70
     0
 10
0.0
 20
0.0
 30
0.0
  3
block 5
  1
block 5
  0
SPLINE
  5
6A4
330
6A2
100
AcDbEntity
  8
LOGO
370
     0
100
AcDbSpline
210
0.0
220
0.0
230
1.0
 70
    11
 71
     3
 72
    56
 73
    52
 74
     0
 42
0.000000001
 43
0.0000000001
 40
0.0
 40
0.0
 40
0.0
 40
0.0
 40
1.0
 40
1.0
 40
1.0
 40
2.0
 40
2.0
 40
2.0
 40
3.0
 40
3.0
 40
3.0
 40
4.0
 40
4.0
 40
4.0
 40
5.0
 40
5.0
 40
5.0
 40
6.0
 40
6.0
 40
6.0
 40
7.0
 40
7.0
 40
7.0
 40
8.0
 40
8.0
 40
8.0
 40
9.0
 40
9.0
 40
9.0
 40
10.0
 40
10.0
 40
10.0
 40
11.0
 40
11.0
 40
11.0
 40
12.0
 40
12.0
 40
12.0
 40
13.0
 40
13.0
 40
13.0
 40
14.0
 40
14.0
 40
14.0
 40
15.0
 40
15.0
 40
15.0
 40
16.0
 40
16.0
 40
16.0
 40
17.0
 40
17.0
 40
17.0
 40
17.0
 10
100.4504378777679
 20
166.69157178364
 30
0.0
 10
101.9848844191641
 20
167.1313385124438
 30
0.0
 10
103.9637485713373
 20
166.7649523658846
 30
0.0
 10
103.9637485713373
 20
166.7649523658846
 30
0.0
 10
103.9637485713373
 20
166.7649523658846
 30
0.0
 10
103.0132460999156
 20
163.911205638077
 30
0.0
 10
103.0132460999156
 20
163.911205638077
 30
0.0
 10
103.0132460999156
 20
163.911205638077
 30
0.0
 10
101.0674548862189
 20
164.3601018759394
 30
0.0
 10
99.57090442016032
 20
163.1805004036133
 30
0.0
 10
98.40508333886608
 20
162.258247733807
 30
0.0
 10
97.65301849830304
 20
159.804132345923
 30
0.0
 10
97.3598406791005
 20
158.8699940888517
 30
0.0
 10
97.3598406791005
 20
158.8699940888517
 30
0.0
 10
96.07137411762282
 20
154.9119212747295
 30
0.0
 10
96.07137411762282
 20
154.9119212747295
 30
0.0
 10
96.07137411762282
 20
154.9119212747295
 30
0.0
 10
100.3012651448482
 20
154.9119212747295
 30
0.0
 10
100.3012651448482
 20
154.9119212747295
 30
0.0
 10
100.3012651448482
 20
154.9119212747295
 30
0.0
 10
99.64152892419852
 20
152.4199098115079
 30
0.0
 10
99.64152892419852
 20
152.4199098115079
 30
0.0
 10
99.64152892419852
 20
152.4199098115079
 30
0.0
 10
95.38097652692731
 20
152.4199098115079
 30
0.0
 10
95.38097652692731
 20
152.4199098115079
 30
0.0
 10
95.38097652692731
 20
152.4199098115079
 30
0.0
 10
87.75353009080013
 20
127.8027915271048
 30
0.0
 10
87.75353009080013
 20
127.8027915271048
 30
0.0
 10
87.75353009080013
 20
127.8027915271048
 30
0.0
 10
85.36538832498108
 20
127.8027915271048
 30
0.0
 10
85.36538832498108
 20
127.8027915271048
 30
0.0
 10
85.36538832498108
 20
127.8027915271048
 30
0.0
 10
93.00006946639998
 20
152.4199098115079
 30
0.0
 10
93.00006946639998
 20
152.4199098115079
 30
0.0
 10
93.00006946639998
 20
152.4199098115079
 30
0.0
 10
89.85297266450198
 20
152.4199098115079
 30
0.0
 10
89.85297266450198
 20
152.4199098115079
 30
0.0
 10
89.85297266450198
 20
152.4199098115079
 30
0.0
 10
90.51270888515164
 20
154.9119212747295
 30
0.0
 10
90.51270888515164
 20
154.9119212747295
 30
0.0
 10
90.51270888515164
 20
154.9119212747295
 30
0.0
 10
93.6904670570955
 20
154.9119212747295
 30
0.0
 10
93.6904670570955
 20
154.9119212747295
 30
0.0
 10
93.6904670570955
 20
154.9119212747295
 30
0.0
 10
94.81598049462158
 20
158.3616699146644
 30
0.0
 10
94.81598049462158
 20
158.3616699146644
 30
0.0
 10
95.7237637538445
 20
161.2605474231013
 30
0.0
 10
96.4968436907311
 20
162.8139420021662
 30
0.0
 10
97.15657991138076
 20
163.9844139654337
 30
0.0
 10
97.81183750494507
 20
165.1523021053827
 30
0.0
 10
99.1047826935081
 20
166.3084769129547
 30
0.0
 10
100.4504378777679
 20
166.69157178364
 30
0.0
  0
HATCH
  5
6A5
330
6A2
100
AcDbEntity
  8
LOGO
 62
   250
420
  2234388
100
AcDbHatch
 10
0.0
 20
0.0
 30
0.0
210
0.0
220
0.0
230
1.0
  2
SOLID
 70
     1
 71
     0
 91
        1
 92
        1
 93
        1
 72
     4
 94
        3
 73
     0
 74
     1
 95
       56
 96
       52
 40
0.0
 40
0.0
 40
0.0
 40
0.0
 40
1.0
 40
1.0
 40
1.0
 40
2.0
 40
2.0
 40
2.0
 40
3.0
 40
3.0
 40
3.0
 40
4.0
 40
4.0
 40
4.0
 40
5.0
 40
5.0
 40
5.0
 40
6.0
 40
6.0
 40
6.0
 40
7.0
 40
7.0
 40
7.0
 40
8.0
 40
8.0
 40
8.0
 40
9.0
 40
9.0
 40
9.0
 40
10.0
 40
10.0
 40
10.0
 40
11.0
 40
11.0
 40
11.0
 40
12.0
 40
12.0
 40
12.0
 40
13.0
 40
13.0
 40
13.0
 40
14.0
 40
14.0
 40
14.0
 40
15.0
 40
15.0
 40
15.0
 40
16.0
 40
16.0
 40
16.0
 40
17.0
 40
17.0
 40
17.0
 40
17.0
 10
100.4504378777679
 20
166.69157178364
 10
101.9848844191641
 20
167.1313385124438
 10
103.9637485713373
 20
166.7649523658846
 10
103.9637485713373
 20
166.7649523658846
 10
103.9637485713373
 20
166.7649523658846
 10
103.0132460999156
 20
163.911205638077
 10
103.0132460999156
 20
163.911205638077
 10
103.0132460999156
 20
163.911205638077
 10
101.0674548862189
 20
164.3601018759394
 10
99.57090442016032
 20
163.1805004036133
 10
98.40508333886608
 20
162.258247733807
 10
97.65301849830304
 20
159.804132345923
 10
97.3598406791005
 20
158.8699940888517
 10
97.3598406791005
 20
158.8699940888517
 10
96.07137411762282
 20
154.9119212747295
 10
96.07137411762282
 20
154.9119212747295
 10
96.07137411762282
 20
154.9119212747295
 10
100.3012651448482
 20
154.9119212747295
 10
100.3012651448482
 20
154.9119212747295
 10
100.3012651448482
 20
154.9119212747295
 10
99.64152892419852
 20
152.4199098115079
 10
99.64152892419852
 20
152.4199098115079
 10
99.64152892419852
 20
152.4199098115079
 10
95.38097652692731
 20
152.4199098115079
 10
95.38097652692731
 20
152.4199098115079
 10
95.38097652692731
 20
152.4199098115079
 10
87.75353009080013
 20
127.8027915271048
 10
87.75353009080013
 20
127.8027915271048
 10
87.75353009080013
 20
127.8027915271048
 10
85.36538832498108
 20
127.8027915271048
 10
85.36538832498108
 20
127.8027915271048
 10
85.36538832498108
 20
127.8027915271048
 10
93.00006946639998
 20
152.4199098115079
 10
93.00006946639998
 20
152.4199098115079
 10
93.00006946639998
 20
152.4199098115079
 10
89.85297266450198
 20
152.4199098115079
 10
89.85297266450198
 20
152.4199098115079
 10
89.85297266450198
 20
152.4199098115079
 10
90.51270888515164
 20
154.9119212747295
 10
90.51270888515164
 20
154.9119212747295
 10
90.51270888515164
 20
154.9119212747295
 10
93.6904670570955
 20
154.9119212747295
 10
93.6904670570955
 20
154.9119212747295
 10
93.6904670570955
 20
154.9119212747295
 10
94.81598049462158
 20
158.3616699146644
 10
94.81598049462158
 20
158.3616699146644
 10
95.7237637538445
 20
161.2605474231013
 10
96.4968436907311
 20
162.8139420021662
 10
97.15657991138076
 20
163.9844139654337
 10
97.81183750494507
 20
165.1523021053827
 10
99.1047826935081
 20
166.3084769129547
 10
100.4504378777679
 20
166.69157178364
 97
        0
 75
     2
 76
     1
 98
        0
  0
SPLINE
  5
6A6
330
6A2
100
AcDbEntity
  8
LOGO
370
     0
100
AcDbSpline
210
0.0
220
0.0
230
1.0
 70
    11
 71
     3
 72
    38
 73
    34
 74
     0
 42
0.000000001
 43
0.0000000001
 40
0.0
 40
0.0
 40
0.0
 40
0.0
 40
1.0
 40
1.0
 40
1.0
 40
2.0
 40
2.0
 40
2.0
 40
3.0
 40
3.0
 40
3.0
 40
4.0
 40
4.0
 40
4.0
 40
5.0
 40
5.0
 40
5.0
 40
6.0
 40
6.0
 40
6.0
 40
7.0
 40
7.0
 40
7.0
 40
8.0
 40
8.0
 40
8.0
 40
9.0
 40
9.0
 40
9.0
 40
10.0
 40
10.0
 40
10.0
 40
11.0
 40
11.0
 40
11.0
 40
11.0
 10
126.377554584636
 20
154.8151140277308
 30
0.0
 10
126.377554584636
 20
154.8151140277308
 30
0.0
 10
128.8311532078563
 20
154.8151140277308
 30
0.0
 10
128.8311532078563
 20
154.8151140277308
 30
0.0
 10
128.8311532078563
 20
154.8151140277308
 30
0.0
 10
127.7345785914971
 20
151.3062819612468
 30
0.0
 10
127.7345785914971
 20
151.3062819612468
 30
0.0
 10
128.571392836906
 20
152.2922689395754
 30
0.0
 10
129.8860421413442
 20
153.604506675583
 30
0.0
 10
131.0163787157314
 20
154.2664822097754
 30
0.0
 10
132.7044766171327
 20
155.2500576196734
 30
0.0
 10
133.6642808525008
 20
155.3847609420097
 30
0.0
 10
134.7284715499351
 20
155.3565111403944
 30
0.0
 10
134.7284715499351
 20
155.3565111403944
 30
0.0
 10
133.6877075172549
 20
152.0345756272799
 30
0.0
 10
133.6877075172549
 20
152.0345756272799
 30
0.0
 10
133.011434827367
 20
152.3184516825359
 30
0.0
 10
130.930940291334
 20
151.7768823149844
 30
0.0
 10
129.739280976855
 20
150.9162968950455
 30
0.0
 10
128.66613302525
 20
150.1454562717016
 30
0.0
 10
127.9192358313239
 20
149.4857200510519
 30
0.0
 10
127.0393578639405
 20
147.8282835196966
 30
0.0
 10
126.164647543194
 20
146.1699857139017
 30
0.0
 10
125.4742499524985
 20
143.5262176944419
 30
0.0
 10
124.2822461282437
 20
139.6959580071401
 30
0.0
 10
124.2822461282437
 20
139.6959580071401
 30
0.0
 10
120.5753209406769
 20
127.8027915271048
 30
0.0
 10
120.5753209406769
 20
127.8027915271048
 30
0.0
 10
120.5753209406769
 20
127.8027915271048
 30
0.0
 10
118.1964809388044
 20
127.8027915271048
 30
0.0
 10
118.1964809388044
 20
127.8027915271048
 30
0.0
 10
118.1964809388044
 20
127.8027915271048
 30
0.0
 10
126.377554584636
 20
154.8151140277308
 30
0.0
 10
126.377554584636
 20
154.8151140277308
 30
0.0
  0
HATCH
  5
6A7
330
6A2
100
AcDbEntity
  8
LOGO
 62
   250
420
  2234388
100
AcDbHatch
 10
0.0
 20
0.0
 30
0.0
210
0.0
220
0.0
230
1.0
  2
SOLID
 70
     1
 71
     0
 91
        1
 92
        1
 93
        1
 72
     4
 94
        3
 73
     0
 74
     1
 95
       38
 96
       34
 40
0.0
 40
0.0
 40
0.0
 40
0.0
 40
1.0
 40
1.0
 40
1.0
 40
2.0
 40
2.0
 40
2.0
 40
3.0
 40
3.0
 40
3.0
 40
4.0
 40
4.0
 40
4.0
 40
5.0
 40
5.0
 40
5.0
 40
6.0
 40
6.0
 40
6.0
 40
7.0
 40
7.0
 40
7.0
 40
8.0
 40
8.0
 40
8.0
 40
9.0
 40
9.0
 40
9.0
 40
10.0
 40
10.0
 40
10.0
 40
11.0
 40
11.0
 40
11.0
 40
11.0
 10
126.377554584636
 20
154.8151140277308
 10
126.377554584636
 20
154.8151140277308
 10
128.8311532078563
 20
154.8151140277308
 10
128.8311532078563
 20
154.8151140277308
 10
128.8311532078563
 20
154.8151140277308
 10
127.7345785914971
 20
151.3062819612468
 10
127.7345785914971
 20
151.3062819612468
 10
128.571392836906
 20
152.2922689395754
 10
129.8860421413442
 20
153.604506675583
 10
131.0163787157314
 20
154.2664822097754
 10
132.7044766171327
 20
155.2500576196734
 10
133.6642808525008
 20
155.3847609420097
 10
134.7284715499351
 20
155.3565111403944
 10
134.7284715499351
 20
155.3565111403944
 10
133.6877075172549
 20
152.0345756272799
 10
133.6877075172549
 20
152.0345756272799
 10
133.011434827367
 20
152.3184516825359
 10
130.930940291334
 20
151.7768823149844
 10
129.739280976855
 20
150.9162968950455
 10
128.66613302525
 20
150.1454562717016
 10
127.9192358313239
 20
149.4857200510519
 10
127.0393578639405
 20
147.8282835196966
 10
126.164647543194
 20
146.1699857139017
 10
125.4742499524985
 20
143.5262176944419
 10
124.2822461282437
 20
139.6959580071401
 10
124.2822461282437
 20
139.6959580071401
 10
120.5753209406769
 20
127.8027915271048
 10
120.5753209406769
 20
127.8027915271048
 10
120.5753209406769
 20
127.8027915271048
 10
118.1964809388044
 20
127.8027915271048
 10
118.1964809388044
 20
127.8027915271048
 10
118.1964809388044
 20
127.8027915271048
 10
126.377554584636
 20
154.8151140277308
 10
126.377554584636
 20
154.8151140277308
 97
        0
 75
     2
 76
     1
 98
        0
  0
SPLINE
  5
6A8
330
6A2
100
AcDbEntity
  8
LOGO
370
     0
100
AcDbSpline
210
0.0
220
0.0
230
1.0
 70
    11
 71
     3
 72
   104
 73
   100
 74
     0
 42
0.000000001
 43
0.0000000001
 40
0.0
 40
0.0
 40
0.0
 40
0.0
 40
1.0
 40
1.0
 40
1.0
 40
2.0
 40
2.0
 40
2.0
 40
3.0
 40
3.0
 40
3.0
 40
4.0
 40
4.0
 40
4.0
 40
5.0
 40
5.0
 40
5.0
 40
6.0
 40
6.0
 40
6.0
 40
7.0
 40
7.0
 40
7.0
 40
8.0
 40
8.0
 40
8.0
 40
9.0
 40
9.0
 40
9.0
 40
10.0
 40
10.0
 40
10.0
 40
11.0
 40
11.0
 40
11.0
 40
12.0
 40
12.0
 40
12.0
 40
13.0
 40
13.0
 40
13.0
 40
14.0
 40
14.0
 40
14.0
 40
15.0
 40
15.0
 40
15.0
 40
16.0
 40
16.0
 40
16.0
 40
17.0
 40
17.0
 40
17.0
 40
18.0
 40
18.0
 40
18.0
 40
19.0
 40
19.0
 40
19.0
 40
20.0
 40
20.0
 40
20.0
 40
21.0
 40
21.0
 40
21.0
 40
22.0
 40
22.0
 40
22.0
 40
23.0
 40
23.0
 40
23.0
 40
24.0
 40
24.0
 40
24.0
 40
25.0
 40
25.0
 40
25.0
 40
26.0
 40
26.0
 40
26.0
 40
27.0
 40
27.0
 40
27.0
 40
28.0
 40
28.0
 40
28.0
 40
29.0
 40
29.0
 40
29.0
 40
30.0
 40
30.0
 40
30.0
 40
31.0
 40
31.0
 40
31.0
 40
32.0
 40
32.0
 40
32.0
 40
33.0
 40
33.0
 40
33.0
 40
33.0
 10
139.8926730891197
 20
154.8294111834263
 30
0.0
 10
139.8926730891197
 20
154.8294111834263
 30
0.0
 10
142.0344903652445
 20
154.8294111834263
 30
0.0
 10
142.0344903652445
 20
154.8294111834263
 30
0.0
 10
142.0344903652445
 20
154.8294111834263
 30
0.0
 10
140.9516961399171
 20
151.3157559800812
 30
0.0
 10
140.9516961399171
 20
151.3157559800812
 30
0.0
 10
141.8928968473923
 20
152.7887075264977
 30
0.0
 10
142.7341897198865
 20
153.4484437471474
 30
0.0
 10
143.8552245303272
 20
154.2926649527359
 30
0.0
 10
144.9803934580775
 20
155.1296514530327
 30
0.0
 10
146.3139908001845
 20
155.3044901642492
 30
0.0
 10
147.241066606852
 20
155.3044901642492
 30
0.0
 10
148.3855280820469
 20
155.3044901642492
 30
0.0
 10
149.4969166187653
 20
155.0752189084569
 30
0.0
 10
150.0784491203092
 20
153.8172414621372
 30
0.0
 10
150.5228667310863
 20
152.833838307127
 30
0.0
 10
150.5414702589793
 20
152.7201500811143
 30
0.0
 10
150.4140016419347
 20
150.7765981809602
 30
0.0
 10
151.5818897818837
 20
152.7699317437168
 30
0.0
 10
152.4424752018226
 20
153.6256940267945
 30
0.0
 10
153.9038856707499
 20
154.4507949398263
 30
0.0
 10
155.4455669174378
 20
155.3044901642492
 30
0.0
 10
156.339225275853
 20
155.3659851592288
 30
0.0
 10
157.3748216618963
 20
155.2147453676543
 30
0.0
 10
158.911679771723
 20
154.9877134254046
 30
0.0
 10
159.8859534176746
 20
154.4390816074493
 30
0.0
 10
160.3965169054045
 20
152.7816450760939
 30
0.0
 10
160.9070803931344
 20
151.1219692311958
 30
0.0
 10
160.6328506116007
 20
150.2303779314354
 30
0.0
 10
159.9992971339115
 20
147.597634224801
 30
0.0
 10
159.7105979417943
 20
146.4014962832367
 30
0.0
 10
159.2947746424084
 20
144.9400858143094
 30
0.0
 10
158.7463150793409
 20
143.2092687007094
 30
0.0
 10
158.7463150793409
 20
143.2092687007094
 30
0.0
 10
153.9038856707499
 20
127.8027915271048
 30
0.0
 10
153.9038856707499
 20
127.8027915271048
 30
0.0
 10
153.9038856707499
 20
127.8027915271048
 30
0.0
 10
151.3882752878863
 20
127.8027915271048
 30
0.0
 10
151.3882752878863
 20
127.8027915271048
 30
0.0
 10
151.3882752878863
 20
127.8027915271048
 30
0.0
 10
155.6250565106276
 20
141.2751908193897
 30
0.0
 10
155.6250565106276
 20
141.2751908193897
 30
0.0
 10
156.5094131050963
 20
144.0936252951782
 30
0.0
 10
157.109893644309
 20
146.1506931664571
 30
0.0
 10
157.4220195011804
 20
147.4415712963654
 30
0.0
 10
157.8095929989511
 20
149.0530157726519
 30
0.0
 10
157.9656559273867
 20
149.5826995529385
 30
0.0
 10
157.7816877071116
 20
150.7529992613181
 30
0.0
 10
157.6111553680925
 20
151.8430281919372
 30
0.0
 10
157.0582171779396
 20
152.5547853887321
 30
0.0
 10
156.1170164704645
 20
152.5547853887321
 30
0.0
 10
155.1096698860365
 20
152.5547853887321
 30
0.0
 10
154.2962823053817
 20
152.4412694176073
 30
0.0
 10
153.156643967048
 20
151.2945686288697
 30
0.0
 10
152.0170056287143
 20
150.1476955852443
 30
0.0
 10
151.076149431015
 20
148.7930831468137
 30
0.0
 10
150.3337308641742
 20
147.2290087646991
 30
0.0
 10
149.5957909244188
 20
145.6683794803425
 30
0.0
 10
148.8530278478023
 20
143.6822806228776
 30
0.0
 10
148.0964843801539
 20
141.2751908193897
 30
0.0
 10
148.0964843801539
 20
141.2751908193897
 30
0.0
 10
143.8552245303272
 20
127.8027915271048
 30
0.0
 10
143.8552245303272
 20
127.8027915271048
 30
0.0
 10
143.8552245303272
 20
127.8027915271048
 30
0.0
 10
141.486030802177
 20
127.8027915271048
 30
0.0
 10
141.486030802177
 20
127.8027915271048
 30
0.0
 10
141.486030802177
 20
127.8027915271048
 30
0.0
 10
146.3329388378533
 20
143.2092687007094
 30
0.0
 10
146.3329388378533
 20
143.2092687007094
 30
0.0
 10
146.8483254624444
 20
144.8408669988801
 30
0.0
 10
147.2314203331297
 20
146.1837661049335
 30
0.0
 10
147.4867020769946
 20
147.224185627838
 30
0.0
 10
147.9169947869641
 20
149.0197705792876
 30
0.0
 10
148.0306830129768
 20
150.2400242051577
 30
0.0
 10
147.709255392159
 20
151.3157559800812
 30
0.0
 10
147.3874832615654
 20
152.3916600098926
 30
0.0
 10
146.8245542879144
 20
152.6683013598569
 30
0.0
 10
145.8840425999909
 20
152.6683013598569
 30
0.0
 10
145.0989048209514
 20
152.6683013598569
 30
0.0
 10
144.3282364524954
 20
152.3275811915945
 30
0.0
 10
143.4531816219731
 20
151.6538923250251
 30
0.0
 10
142.34627171234
 20
150.8074318058939
 30
0.0
 10
141.901854101563
 20
150.1097995099067
 30
0.0
 10
141.3578731655808
 20
149.289521733736
 30
0.0
 10
140.6299240093235
 20
148.192602607601
 30
0.0
 10
140.2850697237515
 20
147.455696197173
 30
0.0
 10
139.6652966370942
 20
145.8385673095858
 30
0.0
 10
139.0506911970739
 20
144.2214384219986
 30
0.0
 10
138.463991048893
 20
142.3252566160164
 30
0.0
 10
138.0571250036777
 20
141.0154304484394
 30
0.0
 10
138.0571250036777
 20
141.0154304484394
 30
0.0
 10
133.9009590684727
 20
127.8027915271048
 30
0.0
 10
133.9009590684727
 20
127.8027915271048
 30
0.0
 10
133.9009590684727
 20
127.8027915271048
 30
0.0
 10
131.4180771143097
 20
127.8027915271048
 30
0.0
 10
131.4180771143097
 20
127.8027915271048
 30
0.0
 10
131.4180771143097
 20
127.8027915271048
 30
0.0
 10
139.8926730891197
 20
154.8294111834263
 30
0.0
 10
139.8926730891197
 20
154.8294111834263
 30
0.0
  0
HATCH
  5
6A9
330
6A2
100
AcDbEntity
  8
LOGO
 62
   250
420
  2234388
100
AcDbHatch
 10
0.0
 20
0.0
 30
0.0
210
0.0
220
0.0
230
1.0
  2
SOLID
 70
     1
 71
     0
 91
        1
 92
        1
 93
        1
 72
     4
 94
        3
 73
     0
 74
     1
 95
      104
 96
      100
 40
0.0
 40
0.0
 40
0.0
 40
0.0
 40
1.0
 40
1.0
 40
1.0
 40
2.0
 40
2.0
 40
2.0
 40
3.0
 40
3.0
 40
3.0
 40
4.0
 40
4.0
 40
4.0
 40
5.0
 40
5.0
 40
5.0
 40
6.0
 40
6.0
 40
6.0
 40
7.0
 40
7.0
 40
7.0
 40
8.0
 40
8.0
 40
8.0
 40
9.0
 40
9.0
 40
9.0
 40
10.0
 40
10.0
 40
10.0
 40
11.0
 40
11.0
 40
11.0
 40
12.0
 40
12.0
 40
12.0
 40
13.0
 40
13.0
 40
13.0
 40
14.0
 40
14.0
 40
14.0
 40
15.0
 40
15.0
 40
15.0
 40
16.0
 40
16.0
 40
16.0
 40
17.0
 40
17.0
 40
17.0
 40
18.0
 40
18.0
 40
18.0
 40
19.0
 40
19.0
 40
19.0
 40
20.0
 40
20.0
 40
20.0
 40
21.0
 40
21.0
 40
21.0
 40
22.0
 40
22.0
 40
22.0
 40
23.0
 40
23.0
 40
23.0
 40
24.0
 40
24.0
 40
24.0
 40
25.0
 40
25.0
 40
25.0
 40
26.0
 40
26.0
 40
26.0
 40
27.0
 40
27.0
 40
27.0
 40
28.0
 40
28.0
 40
28.0
 40
29.0
 40
29.0
 40
29.0
 40
30.0
 40
30.0
 40
30.0
 40
31.0
 40
31.0
 40
31.0
 40
32.0
 40
32.0
 40
32.0
 40
33.0
 40
33.0
 40
33.0
 40
33.0
 10
139.8926730891197
 20
154.8294111834263
 10
139.8926730891197
 20
154.8294111834263
 10
142.0344903652445
 20
154.8294111834263
 10
142.0344903652445
 20
154.8294111834263
 10
142.0344903652445
 20
154.8294111834263
 10
140.9516961399171
 20
151.3157559800812
 10
140.9516961399171
 20
151.3157559800812
 10
141.8928968473923
 20
152.7887075264977
 10
142.7341897198865
 20
153.4484437471474
 10
143.8552245303272
 20
154.2926649527359
 10
144.9803934580775
 20
155.1296514530327
 10
146.3139908001845
 20
155.3044901642492
 10
147.241066606852
 20
155.3044901642492
 10
148.3855280820469
 20
155.3044901642492
 10
149.4969166187653
 20
155.0752189084569
 10
150.0784491203092
 20
153.8172414621372
 10
150.5228667310863
 20
152.833838307127
 10
150.5414702589793
 20
152.7201500811143
 10
150.4140016419347
 20
150.7765981809602
 10
151.5818897818837
 20
152.7699317437168
 10
152.4424752018226
 20
153.6256940267945
 10
153.9038856707499
 20
154.4507949398263
 10
155.4455669174378
 20
155.3044901642492
 10
156.339225275853
 20
155.3659851592288
 10
157.3748216618963
 20
155.2147453676543
 10
158.911679771723
 20
154.9877134254046
 10
159.8859534176746
 20
154.4390816074493
 10
160.3965169054045
 20
152.7816450760939
 10
160.9070803931344
 20
151.1219692311958
 10
160.6328506116007
 20
150.2303779314354
 10
159.9992971339115
 20
147.597634224801
 10
159.7105979417943
 20
146.4014962832367
 10
159.2947746424084
 20
144.9400858143094
 10
158.7463150793409
 20
143.2092687007094
 10
158.7463150793409
 20
143.2092687007094
 10
153.9038856707499
 20
127.8027915271048
 10
153.9038856707499
 20
127.8027915271048
 10
153.9038856707499
 20
127.8027915271048
 10
151.3882752878863
 20
127.8027915271048
 10
151.3882752878863
 20
127.8027915271048
 10
151.3882752878863
 20
127.8027915271048
 10
155.6250565106276
 20
141.2751908193897
 10
155.6250565106276
 20
141.2751908193897
 10
156.5094131050963
 20
144.0936252951782
 10
157.109893644309
 20
146.1506931664571
 10
157.4220195011804
 20
147.4415712963654
 10
157.8095929989511
 20
149.0530157726519
 10
157.9656559273867
 20
149.5826995529385
 10
157.7816877071116
 20
150.7529992613181
 10
157.6111553680925
 20
151.8430281919372
 10
157.0582171779396
 20
152.5547853887321
 10
156.1170164704645
 20
152.5547853887321
 10
155.1096698860365
 20
152.5547853887321
 10
154.2962823053817
 20
152.4412694176073
 10
153.156643967048
 20
151.2945686288697
 10
152.0170056287143
 20
150.1476955852443
 10
151.076149431015
 20
148.7930831468137
 10
150.3337308641742
 20
147.2290087646991
 10
149.5957909244188
 20
145.6683794803425
 10
148.8530278478023
 20
143.6822806228776
 10
148.0964843801539
 20
141.2751908193897
 10
148.0964843801539
 20
141.2751908193897
 10
143.8552245303272
 20
127.8027915271048
 10
143.8552245303272
 20
127.8027915271048
 10
143.8552245303272
 20
127.8027915271048
 10
141.486030802177
 20
127.8027915271048
 10
141.486030802177
 20
127.8027915271048
 10
141.486030802177
 20
127.8027915271048
 10
146.3329388378533
 20
143.2092687007094
 10
146.3329388378533
 20
143.2092687007094
 10
146.8483254624444
 20
144.8408669988801
 10
147.2314203331297
 20
146.1837661049335
 10
147.4867020769946
 20
147.224185627838
 10
147.9169947869641
 20
149.0197705792876
 10
148.0306830129768
 20
150.2400242051577
 10
147.709255392159
 20
151.3157559800812
 10
147.3874832615654
 20
152.3916600098926
 10
146.8245542879144
 20
152.6683013598569
 10
145.8840425999909
 20
152.6683013598569
 10
145.0989048209514
 20
152.6683013598569
 10
144.3282364524954
 20
152.3275811915945
 10
143.4531816219731
 20
151.6538923250251
 10
142.34627171234
 20
150.8074318058939
 10
141.901854101563
 20
150.1097995099067
 10
141.3578731655808
 20
149.289521733736
 10
140.6299240093235
 20
148.192602607601
 10
140.2850697237515
 20
147.455696197173
 10
139.6652966370942
 20
145.8385673095858
 10
139.0506911970739
 20
144.2214384219986
 10
138.463991048893
 20
142.3252566160164
 10
138.0571250036777
 20
141.0154304484394
 10
138.0571250036777
 20
141.0154304484394
 10
133.9009590684727
 20
127.8027915271048
 10
133.9009590684727
 20
127.8027915271048
 10
133.9009590684727
 20
127.8027915271048
 10
131.4180771143097
 20
127.8027915271048
 10
131.4180771143097
 20
127.8027915271048
 10
131.4180771143097
 20
127.8027915271048
 10
139.8926730891197
 20
154.8294111834263
 10
139.8926730891197
 20
154.8294111834263
 97
        0
 75
     2
 76
     1
 98
        0
  0
SPLINE
  5
6AA
330
6A2
100
AcDbEntity
  8
LOGO
370
     0
100
AcDbSpline
210
0.0
220
0.0
230
1.0
 70
    11
 71
     3
 72
    29
 73
    25
 74
     0
 42
0.000000001
 43
0.0000000001
 40
0.0
 40
0.0
 40
0.0
 40
0.0
 40
1.0
 40
1.0
 40
1.0
 40
2.0
 40
2.0
 40
2.0
 40
3.0
 40
3.0
 40
3.0
 40
4.0
 40
4.0
 40
4.0
 40
5.0
 40
5.0
 40
5.0
 40
6.0
 40
6.0
 40
6.0
 40
7.0
 40
7.0
 40
7.0
 40
8.0
 40
8.0
 40
8.0
 40
8.0
 10
101.6420971922469
 20
132.8388354296931
 30
0.0
 10
101.630039350094
 20
134.7164137077823
 30
0.0
 10
102.2236296937908
 20
138.0598810818841
 30
0.0
 10
103.7487744712405
 20
142.5378191476827
 30
0.0
 10
105.819967243327
 20
148.5896501242061
 30
0.0
 10
107.0602024361932
 20
150.8074318058939
 30
0.0
 10
108.1522984254671
 20
151.8833358357054
 30
0.0
 10
109.741177511439
 20
153.4532668840085
 30
0.0
 10
111.8740375333931
 20
153.5290590346837
 30
0.0
 10
112.5075910110823
 20
153.4532668840085
 30
0.0
 10
113.4012493694975
 20
153.3490526768302
 30
0.0
 10
114.6683563248758
 20
152.7580461564518
 30
0.0
 10
114.7493161221879
 20
150.7838328862519
 30
0.0
 10
114.8106388622796
 20
149.0909118479895
 30
0.0
 10
114.3186789024427
 20
145.9191825971221
 30
0.0
 10
112.6164561002338
 20
140.9489400617108
 30
0.0
 10
110.6444821435766
 20
135.1746117095912
 30
0.0
 10
109.4669477299053
 20
132.8960240524753
 30
0.0
 10
108.5212683953448
 20
131.9072809959403
 30
0.0
 10
106.7346406980658
 20
130.0538184021569
 30
0.0
 10
104.8222669326213
 20
130.2336525051225
 30
0.0
 10
104.5408024457958
 20
130.2336525051225
 30
0.0
 10
104.1721769856939
 20
130.2336525051225
 30
0.0
 10
101.6465758193322
 20
130.6305277668397
 30
0.0
 10
101.6420971922469
 20
132.8388354296931
 30
0.0
  0
SPLINE
  5
6AB
330
6A2
100
AcDbEntity
  8
LOGO
370
     0
100
AcDbSpline
210
0.0
220
0.0
230
1.0
 70
    11
 71
     3
 72
    32
 73
    28
 74
     0
 42
0.000000001
 43
0.0000000001
 40
0.0
 40
0.0
 40
0.0
 40
0.0
 40
1.0
 40
1.0
 40
1.0
 40
2.0
 40
2.0
 40
2.0
 40
3.0
 40
3.0
 40
3.0
 40
4.0
 40
4.0
 40
4.0
 40
5.0
 40
5.0
 40
5.0
 40
6.0
 40
6.0
 40
6.0
 40
7.0
 40
7.0
 40
7.0
 40
8.0
 40
8.0
 40
8.0
 40
9.0
 40
9.0
 40
9.0
 40
9.0
 10
106.2595617172429
 20
153.4105476718098
 30
0.0
 10
104.8222669326213
 20
151.5474388043041
 30
0.0
 10
103.7177685914188
 20
149.8758773721411
 30
0.0
 10
101.9232171692965
 20
144.6141795664062
 30
0.0
 10
100.2754269116635
 20
139.7999999594306
 30
0.0
 10
99.22777268346732
 20
136.3052927937542
 30
0.0
 10
99.06964269637689
 20
132.039572749846
 30
0.0
 10
98.94665270641765
 20
128.8673267343149
 30
0.0
 10
100.8807305877373
 20
127.8027915271048
 30
0.0
 10
103.7129454545577
 20
127.8027915271048
 30
0.0
 10
104.9352661390825
 20
127.8027915271048
 30
0.0
 10
108.0151835347002
 20
127.8827177950895
 30
0.0
 10
110.2045431598849
 20
130.5926316915021
 30
0.0
 10
111.7417457794874
 20
132.4984597712065
 30
0.0
 10
113.155269389579
 20
134.475256864725
 30
0.0
 10
115.0562743324223
 20
140.9489400617108
 30
0.0
 10
116.6361961642235
 20
146.3680788349845
 30
0.0
 10
117.7282921534974
 20
149.8639917848761
 30
0.0
 10
117.6480213757369
 20
151.8595646611754
 30
0.0
 10
117.6480213757369
 20
151.8595646611754
 30
0.0
 10
117.6480213757369
 20
151.8595646611754
 30
0.0
 10
117.6480213757369
 20
151.8595646611754
 30
0.0
 10
117.13229024137
 20
155.18150017429
 30
0.0
 10
114.7162431837115
 20
155.886194920681
 30
0.0
 10
113.3351034925446
 20
155.886194920681
 30
0.0
 10
111.9829026225447
 20
155.886194920681
 30
0.0
 10
108.3414342923792
 20
156.1251124501957
 30
0.0
 10
106.2595617172429
 20
153.4105476718098
 30
0.0
  0
HATCH
  5
6AC
330
6A2
100
AcDbEntity
  8
LOGO
 62
   250
420
  2234388
100
AcDbHatch
 10
0.0
 20
0.0
 30
0.0
210
0.0
220
0.0
230
1.0
  2
SOLID
 70
     1
 71
     0
 91
        2
 92
        1
 93
        1
 72
     4
 94
        3
 73
     0
 74
     1
 95
       29
 96
       25
 40
0.0
 40
0.0
 40
0.0
 40
0.0
 40
1.0
 40
1.0
 40
1.0
 40
2.0
 40
2.0
 40
2.0
 40
3.0
 40
3.0
 40
3.0
 40
4.0
 40
4.0
 40
4.0
 40
5.0
 40
5.0
 40
5.0
 40
6.0
 40
6.0
 40
6.0
 40
7.0
 40
7.0
 40
7.0
 40
8.0
 40
8.0
 40
8.0
 40
8.0
 10
101.6420971922469
 20
132.8388354296931
 10
101.630039350094
 20
134.7164137077823
 10
102.2236296937908
 20
138.0598810818841
 10
103.7487744712405
 20
142.5378191476827
 10
105.819967243327
 20
148.5896501242061
 10
107.0602024361932
 20
150.8074318058939
 10
108.1522984254671
 20
151.8833358357054
 10
109.741177511439
 20
153.4532668840085
 10
111.8740375333931
 20
153.5290590346837
 10
112.5075910110823
 20
153.4532668840085
 10
113.4012493694975
 20
153.3490526768302
 10
114.6683563248758
 20
152.7580461564518
 10
114.7493161221879
 20
150.7838328862519
 10
114.8106388622796
 20
149.0909118479895
 10
114.3186789024427
 20
145.9191825971221
 10
112.6164561002338
 20
140.9489400617108
 10
110.6444821435766
 20
135.1746117095912
 10
109.4669477299053
 20
132.8960240524753
 10
108.5212683953448
 20
131.9072809959403
 10
106.7346406980658
 20
130.0538184021569
 10
104.8222669326213
 20
130.2336525051225
 10
104.5408024457958
 20
130.2336525051225
 10
104.1721769856939
 20
130.2336525051225
 10
101.6465758193322
 20
130.6305277668397
 10
101.6420971922469
 20
132.8388354296931
 97
        0
 92
        1
 93
        1
 72
     4
 94
        3
 73
     0
 74
     1
 95
       32
 96
       28
 40
0.0
 40
0.0
 40
0.0
 40
0.0
 40
1.0
 40
1.0
 40
1.0
 40
2.0
 40
2.0
 40
2.0
 40
3.0
 40
3.0
 40
3.0
 40
4.0
 40
4.0
 40
4.0
 40
5.0
 40
5.0
 40
5.0
 40
6.0
 40
6.0
 40
6.0
 40
7.0
 40
7.0
 40
7.0
 40
8.0
 40
8.0
 40
8.0
 40
9.0
 40
9.0
 40
9.0
 40
9.0
 10
106.2595617172429
 20
153.4105476718098
 10
104.8222669326213
 20
151.5474388043041
 10
103.7177685914188
 20
149.8758773721411
 10
101.9232171692965
 20
144.6141795664062
 10
100.2754269116635
 20
139.7999999594306
 10
99.22777268346732
 20
136.3052927937542
 10
99.06964269637689
 20
132.039572749846
 10
98.94665270641765
 20
128.8673267343149
 10
100.8807305877373
 20
127.8027915271048
 10
103.7129454545577
 20
127.8027915271048
 10
104.9352661390825
 20
127.8027915271048
 10
108.0151835347002
 20
127.8827177950895
 10
110.2045431598849
 20
130.5926316915021
 10
111.7417457794874
 20
132.4984597712065
 10
113.155269389579
 20
134.475256864725
 10
115.0562743324223
 20
140.9489400617108
 10
116.6361961642235
 20
146.3680788349845
 10
117.7282921534974
 20
149.8639917848761
 10
117.6480213757369
 20
151.8595646611754
 10
117.6480213757369
 20
151.8595646611754
 10
117.6480213757369
 20
151.8595646611754
 10
117.6480213757369
 20
151.8595646611754
 10
117.13229024137
 20
155.18150017429
 10
114.7162431837115
 20
155.886194920681
 10
113.3351034925446
 20
155.886194920681
 10
111.9829026225447
 20
155.886194920681
 10
108.3414342923792
 20
156.1251124501957
 10
106.2595617172429
 20
153.4105476718098
 97
        0
 75
     2
 76
     1
 98
        0
  0
ENDBLK
  5
6AD
330
6A2
100
AcDbEntity
  8
0
100
AcDbBlockEnd
  0
BLOCK
  5
1155
330
1154
100
AcDbEntity
  8
0
100
AcDbBlockBegin
  2
*D6
 70
     1
 10
0.0
 20
0.0
 30
0.0
  3
*D6
  1
*D13
  0
LINE
  5
1157
330
1154
100
AcDbEntity
  8
DIM
 62
     0
370
    -2
100
AcDbLine
 10
108.7065276556123
 20
235.3036471589895
 30
0.0
 11
108.7065276556123
 21
211.0741729205512
 31
0.0
  0
LINE
  5
1158
330
1154
100
AcDbEntity
  8
DIM
 62
     0
370
    -2
100
AcDbLine
 10
184.2065279238332
 20
235.3036471589895
 30
0.0
 11
184.2065279238332
 21
211.0741729205512
 31
0.0
  0
LINE
  5
1159
330
1154
100
AcDbEntity
  8
DIM
 62
     0
370
    -2
100
AcDbLine
 10
110.7065276556123
 20
211.0741729205512
 30
0.0
 11
182.2065279238332
 21
211.0741729205512
 31
0.0
  0
INSERT
  5
115A
330
1154
100
AcDbEntity
  8
DIM
 62
     0
370
    -2
100
AcDbBlockReference
  2
_DOT
 10
108.7065276556123
 20
211.0741729205512
 30
0.0
 41
2.0
 42
2.0
 43
2.0
 50
180.0
  0
INSERT
  5
115B
330
1154
100
AcDbEntity
  8
DIM
 62
     0
370
    -2
100
AcDbBlockReference
  2
_DOT
 10
184.2065279238332
 20
211.0741729205512
 30
0.0
 41
2.0
 42
2.0
 43
2.0
  0
MTEXT
  5
115C
330
1154
100
AcDbEntity
  8
DIM
 62
     0
100
AcDbMText
 10
146.4565277897227
 20
219.5601729205512
 30
0.0
 40
6.0
 41
0.0
 46
0.0
 71
     5
 72
     1
  1
\A1;φ75.5
  7
ＭＳ ゴシック
 73
     1
 44
1.0
  0
POINT
  5
115D
330
1154
100
AcDbEntity
  8
Defpoints
 62
     0
100
AcDbPoint
 10
108.7065276556123
 20
240.3036471589895
 30
0.0
  0
POINT
  5
115E
330
1154
100
AcDbEntity
  8
Defpoints
 62
     0
100
AcDbPoint
 10
184.2065279238332
 20
240.3036471589895
 30
0.0
  0
POINT
  5
115F
330
1154
100
AcDbEntity
  8
Defpoints
 62
     0
100
AcDbPoint
 10
184.2065279238332
 20
211.0741729205512
 30
0.0
  0
ENDBLK
  5
1156
330
1154
100
AcDbEntity
  8
0
100
AcDbBlockEnd
  0
BLOCK
  5
1166
330
1165
100
AcDbEntity
  8
0
100
AcDbBlockBegin
  2
*D7
 70
     1
 10
0.0
 20
0.0
 30
0.0
  3
*D7
  1
*D14
  0
LINE
  5
1168
330
1165
100
AcDbEntity
  8
DIM
 62
     0
370
    -2
100
AcDbLine
 10
128.9565266721356
 20
397.5260003137828
 30
0.0
 11
72.56785447995857
 21
397.5260003137828
 31
0.0
  0
LINE
  5
1169
330
1165
100
AcDbEntity
  8
DIM
 62
     0
370
    -2
100
AcDbLine
 10
104.2065286688913
 20
238.3036470639946
 30
0.0
 11
72.56785447995856
 21
238.3036470639946
 31
0.0
  0
LINE
  5
116A
330
1165
100
AcDbEntity
  8
DIM
 62
     0
370
    -2
100
AcDbLine
 10
72.56785447995857
 20
395.5260003137828
 30
0.0
 11
72.56785447995856
 21
240.3036470639946
 31
0.0
  0
INSERT
  5
116B
330
1165
100
AcDbEntity
  8
DIM
 62
     0
370
    -2
100
AcDbBlockReference
  2
_DOT
 10
72.56785447995857
 20
397.5260003137828
 30
0.0
 41
2.0
 42
2.0
 43
2.0
 50
90.0
  0
INSERT
  5
116C
330
1165
100
AcDbEntity
  8
DIM
 62
     0
370
    -2
100
AcDbBlockReference
  2
_DOT
 10
72.56785447995856
 20
238.3036470639946
 30
0.0
 41
2.0
 42
2.0
 43
2.0
 50
270.0
  0
MTEXT
  5
116D
330
1165
100
AcDbEntity
  8
DIM
 62
     0
100
AcDbMText
 10
64.56785447995856
 20
317.9148236888886
 30
0.0
 40
6.0
 41
0.0
 46
0.0
 71
     5
 72
     1
  1
\A1;159.22
  7
ＭＳ ゴシック
 11
8.925163097487949E-17
 21
1.0
 31
0.0
 73
     1
 44
1.0
  0
POINT
  5
116E
330
1165
100
AcDbEntity
  8
Defpoints
 62
     0
100
AcDbPoint
 10
133.9565266721356
 20
397.5260003137828
 30
0.0
  0
POINT
  5
116F
330
1165
100
AcDbEntity
  8
Defpoints
 62
     0
100
AcDbPoint
 10
109.2065286688913
 20
238.3036470639946
 30
0.0
  0
POINT
  5
1170
330
1165
100
AcDbEntity
  8
Defpoints
 62
     0
100
AcDbPoint
 10
72.56785447995856
 20
238.3036470639946
 30
0.0
  0
ENDBLK
  5
1167
330
1165
100
AcDbEntity
  8
0
100
AcDbBlockEnd
  0
BLOCK
  5
1175
330
1174
100
AcDbEntity
  8
0
100
AcDbBlockBegin
  2
*D8
 70
     1
 10
0.0
 20
0.0
 30
0.0
  3
*D8
  1
*D15
  0
LINE
  5
1177
330
1174
100
AcDbEntity
  8
DIM
 62
     0
370
    -2
100
AcDbLine
 10
265.4354510149801
 20
402.5260019199274
 30
0.0
 11
265.4354510149801
 21
440.0317343428313
 31
0.0
  0
LINE
  5
1178
330
1174
100
AcDbEntity
  8
DIM
 62
     0
370
    -2
100
AcDbLine
 10
337.9354510149801
 20
386.0260019199275
 30
0.0
 11
337.9354510149801
 21
440.0317343428313
 31
0.0
  0
LINE
  5
1179
330
1174
100
AcDbEntity
  8
DIM
 62
     0
370
    -2
100
AcDbLine
 10
267.4354510149801
 20
440.0317343428313
 30
0.0
 11
335.9354510149801
 21
440.0317343428313
 31
0.0
  0
INSERT
  5
117A
330
1174
100
AcDbEntity
  8
DIM
 62
     0
370
    -2
100
AcDbBlockReference
  2
_DOT
 10
265.4354510149801
 20
440.0317343428313
 30
0.0
 41
2.0
 42
2.0
 43
2.0
 50
180.0
  0
INSERT
  5
117B
330
1174
100
AcDbEntity
  8
DIM
 62
     0
370
    -2
100
AcDbBlockReference
  2
_DOT
 10
337.9354510149801
 20
440.0317343428313
 30
0.0
 41
2.0
 42
2.0
 43
2.0
  0
MTEXT
  5
117C
330
1174
100
AcDbEntity
  8
DIM
 62
     0
100
AcDbMText
 10
301.6854510149801
 20
448.0317343428313
 30
0.0
 40
6.0
 41
0.0
 46
0.0
 71
     5
 72
     1
  1
\A1;72.5
  7
ＭＳ ゴシック
 73
     1
 44
1.0
  0
POINT
  5
117D
330
1174
100
AcDbEntity
  8
Defpoints
 62
     0
100
AcDbPoint
 10
265.4354510149801
 20
397.5260019199274
 30
0.0
  0
POINT
  5
117E
330
1174
100
AcDbEntity
  8
Defpoints
 62
     0
100
AcDbPoint
 10
337.9354510149801
 20
381.0260019199275
 30
0.0
  0
POINT
  5
117F
330
1174
100
AcDbEntity
  8
Defpoints
 62
     0
100
AcDbPoint
 10
337.9354510149801
 20
440.0317343428313
 30
0.0
  0
ENDBLK
  5
1176
330
1174
100
AcDbEntity
  8
0
100
AcDbBlockEnd
  0
BLOCK
  5
1184
330
1183
100
AcDbEntity
  8
0
100
AcDbBlockBegin
  2
*D9
 70
     1
 10
0.0
 20
0.0
 30
0.0
  3
*D9
  1
*D16
  0
LINE
  5
1186
330
1183
100
AcDbEntity
  8
DIM
 62
     0
370
    -2
100
AcDbLine
 10
290.4354510149801
 20
402.5260019199274
 30
0.0
 11
290.4354510149801
 21
423.2457589045351
 31
0.0
  0
LINE
  5
1187
330
1183
100
AcDbEntity
  8
DIM
 62
     0
370
    -2
100
AcDbLine
 10
265.4354510149801
 20
402.5260019199274
 30
0.0
 11
265.4354510149801
 21
423.2457589045351
 31
0.0
  0
LINE
  5
1188
330
1183
100
AcDbEntity
  8
DIM
 62
     0
370
    -2
100
AcDbLine
 10
288.4354510149801
 20
423.2457589045351
 30
0.0
 11
267.4354510149801
 21
423.2457589045351
 31
0.0
  0
INSERT
  5
1189
330
1183
100
AcDbEntity
  8
DIM
 62
     0
370
    -2
100
AcDbBlockReference
  2
_DOT
 10
290.4354510149801
 20
423.2457589045351
 30
0.0
 41
2.0
 42
2.0
 43
2.0
  0
INSERT
  5
118A
330
1183
100
AcDbEntity
  8
DIM
 62
     0
370
    -2
100
AcDbBlockReference
  2
_DOT
 10
265.4354510149801
 20
423.2457589045351
 30
0.0
 41
2.0
 42
2.0
 43
2.0
 50
180.0
  0
MTEXT
  5
118B
330
1183
100
AcDbEntity
  8
DIM
 62
     0
100
AcDbMText
 10
277.9354510149801
 20
431.7317589045351
 30
0.0
 40
6.0
 41
0.0
 46
0.0
 71
     5
 72
     1
  1
\A1;φ25
  7
ＭＳ ゴシック
 73
     1
 44
1.0
  0
POINT
  5
118C
330
1183
100
AcDbEntity
  8
Defpoints
 62
     0
100
AcDbPoint
 10
290.4354510149801
 20
397.5260019199274
 30
0.0
  0
POINT
  5
118D
330
1183
100
AcDbEntity
  8
Defpoints
 62
     0
100
AcDbPoint
 10
265.4354510149801
 20
397.5260019199274
 30
0.0
  0
POINT
  5
118E
330
1183
100
AcDbEntity
  8
Defpoints
 62
     0
100
AcDbPoint
 10
265.4354510149801
 20
423.2457589045351
 30
0.0
  0
ENDBLK
  5
1185
330
1183
100
AcDbEntity
  8
0
100
AcDbBlockEnd
  0
BLOCK
  5
1193
330
1192
100
AcDbEntity
  8
0
100
AcDbBlockBegin
  2
*D10
 70
     1
 10
0.0
 20
0.0
 30
0.0
  3
*D10
  1
*D17
  0
LINE
  5
1195
330
1192
100
AcDbEntity
  8
DIM
 62
     0
370
    -2
100
AcDbLine
 10
235.1854510149801
 20
243.3036472696162
 30
0.0
 11
221.0981888185245
 21
243.3036472696162
 31
0.0
  0
LINE
  5
1196
330
1192
100
AcDbEntity
  8
DIM
 62
     0
370
    -2
100
AcDbLine
 10
235.1854510149801
 20
240.3036472696162
 30
0.0
 11
221.0981888185245
 21
240.3036472696162
 31
0.0
  0
INSERT
  5
1197
330
1192
100
AcDbEntity
  8
DIM
 62
     0
370
    -2
100
AcDbBlockReference
  2
_DOT
 10
221.0981888185245
 20
243.3036472696162
 30
0.0
 41
2.0
 42
2.0
 43
2.0
 50
90.0
  0
INSERT
  5
1198
330
1192
100
AcDbEntity
  8
DIM
 62
     0
370
    -2
100
AcDbBlockReference
  2
_DOT
 10
221.0981888185245
 20
240.3036472696162
 30
0.0
 41
2.0
 42
2.0
 43
2.0
 50
270.0
  0
MTEXT
  5
1199
330
1192
100
AcDbEntity
  8
DIM
 62
     0
100
AcDbMText
 10
213.0981888185245
 20
241.8036472696162
 30
0.0
 40
6.0
 41
0.0
 46
0.0
 71
     5
 72
     1
  1
\A1;3
  7
ＭＳ ゴシック
 11
0.0
 21
1.0
 31
0.0
 73
     1
 44
1.0
  0
POINT
  5
119A
330
1192
100
AcDbEntity
  8
Defpoints
 62
     0
100
AcDbPoint
 10
240.1854510149801
 20
243.3036472696162
 30
0.0
  0
POINT
  5
119B
330
1192
100
AcDbEntity
  8
Defpoints
 62
     0
100
AcDbPoint
 10
240.1854510149801
 20
240.3036472696162
 30
0.0
  0
POINT
  5
119C
330
1192
100
AcDbEntity
  8
Defpoints
 62
     0
100
AcDbPoint
 10
221.0981888185245
 20
240.3036472696162
 30
0.0
  0
ENDBLK
  5
1194
330
1192
100
AcDbEntity
  8
0
100
AcDbBlockEnd
  0
BLOCK
  5
1679
330
1678
100
AcDbEntity
  8
0
100
AcDbBlockBegin
  2
*D11
 70
     1
 10
0.0
 20
0.0
 30
0.0
  3
*D11
  1

  0
LINE
  5
167B
330
1678
100
AcDbEntity
  8
MODEL
 62
     0
370
    -2
100
AcDbLine
 10
608.9706106091253
 20
26.95766415878461
 30
0.0
 11
608.9706106091253
 21
-11.30514622913279
 31
0.0
  0
LINE
  5
167C
330
1678
100
AcDbEntity
  8
MODEL
 62
     0
370
    -2
100
AcDbLine
 10
738.9706106091253
 20
26.95766415878461
 30
0.0
 11
738.9706106091253
 21
-11.30514622913279
 31
0.0
  0
LINE
  5
167D
330
1678
100
AcDbEntity
  8
MODEL
 62
     0
370
    -2
100
AcDbLine
 10
610.9706106091253
 20
-11.30514622913279
 30
0.0
 11
736.9706106091253
 21
-11.30514622913279
 31
0.0
  0
INSERT
  5
167E
330
1678
100
AcDbEntity
  8
MODEL
 62
     0
370
    -2
100
AcDbBlockReference
  2
_DOT
 10
608.9706106091253
 20
-11.30514622913279
 30
0.0
 41
2.0
 42
2.0
 43
2.0
 50
180.0
  0
INSERT
  5
167F
330
1678
100
AcDbEntity
  8
MODEL
 62
     0
370
    -2
100
AcDbBlockReference
  2
_DOT
 10
738.9706106091253
 20
-11.30514622913279
 30
0.0
 41
2.0
 42
2.0
 43
2.0
  0
MTEXT
  5
1680
330
1678
100
AcDbEntity
  8
MODEL
 62
     0
100
AcDbMText
 10
673.9706106091253
 20
-3.304020807099526
 30
0.0
 40
6.0
 41
0.0
 46
0.0
 71
     5
 72
     1
  1
\A1;130
  7
ＭＳ ゴシック
 73
     1
 44
1.0
  0
POINT
  5
1681
330
1678
100
AcDbEntity
  8
Defpoints
 62
     0
100
AcDbPoint
 10
608.9706106091253
 20
31.95766415878461
 30
0.0
  0
POINT
  5
1682
330
1678
100
AcDbEntity
  8
Defpoints
 62
     0
100
AcDbPoint
 10
738.9706106091253
 20
31.95766415878461
 30
0.0
  0
POINT
  5
1683
330
1678
100
AcDbEntity
  8
Defpoints
 62
     0
100
AcDbPoint
 10
738.9706106091253
 20
-11.30514622913279
 30
0.0
  0
ENDBLK
  5
167A
330
1678
100
AcDbEntity
  8
0
100
AcDbBlockEnd
  0
BLOCK
  5
1686
330
1685
100
AcDbEntity
  8
0
100
AcDbBlockBegin
  2
*D12
 70
     1
 10
0.0
 20
0.0
 30
0.0
  3
*D12
  1

  0
LINE
  5
1688
330
1685
100
AcDbEntity
  8
MODEL
 62
     0
370
    -2
100
AcDbLine
 10
859.5656444890992
 20
266.4576641588137
 30
0.0
 11
859.5656444890992
 21
395.6945162305913
 31
0.0
  0
LINE
  5
1689
330
1685
100
AcDbEntity
  8
MODEL
 62
     0
370
    -2
100
AcDbLine
 10
955.5573934984404
 20
265.1990450235546
 30
0.0
 11
955.5573934984404
 21
395.6945162305913
 31
0.0
  0
LINE
  5
168A
330
1685
100
AcDbEntity
  8
MODEL
 62
     0
370
    -2
100
AcDbLine
 10
861.5656444890992
 20
395.6945162305913
 30
0.0
 11
953.5573934984404
 21
395.6945162305913
 31
0.0
  0
INSERT
  5
168B
330
1685
100
AcDbEntity
  8
MODEL
 62
     0
370
    -2
100
AcDbBlockReference
  2
_DOT
 10
859.5656444890992
 20
395.6945162305913
 30
0.0
 41
2.0
 42
2.0
 43
2.0
 50
180.0
  0
INSERT
  5
168C
330
1685
100
AcDbEntity
  8
MODEL
 62
     0
370
    -2
100
AcDbBlockReference
  2
_DOT
 10
955.5573934984404
 20
395.6945162305913
 30
0.0
 41
2.0
 42
2.0
 43
2.0
  0
MTEXT
  5
168D
330
1685
100
AcDbEntity
  8
MODEL
 62
     0
100
AcDbMText
 10
907.5615189937698
 20
403.6945162305913
 30
0.0
 40
6.0
 41
0.0
 46
0.0
 71
     5
 72
     1
  1
\A1;96
  7
ＭＳ ゴシック
 73
     1
 44
1.0
  0
POINT
  5
168E
330
1685
100
AcDbEntity
  8
Defpoints
 62
     0
100
AcDbPoint
 10
859.5656444890992
 20
261.4576641588137
 30
0.0
  0
POINT
  5
168F
330
1685
100
AcDbEntity
  8
Defpoints
 62
     0
100
AcDbPoint
 10
955.5573934984404
 20
260.1990450235546
 30
0.0
  0
POINT
  5
1690
330
1685
100
AcDbEntity
  8
Defpoints
 62
     0
100
AcDbPoint
 10
955.5573934984404
 20
395.6945162305913
 30
0.0
  0
ENDBLK
  5
1687
330
1685
100
AcDbEntity
  8
0
100
AcDbBlockEnd
  0
BLOCK
  5
1695
330
1694
100
AcDbEntity
  8
0
100
AcDbBlockBegin
  2
*D13
 70
     1
 10
0.0
 20
0.0
 30
0.0
  3
*D13
  1

  0
LINE
  5
1697
330
1694
100
AcDbEntity
  8
MODEL
 62
     0
370
    -2
100
AcDbLine
 10
608.9706106091253
 20
34.71889113627982
 30
0.0
 11
608.9706106091253
 21
-9.473720371728035
 31
0.0
  0
LINE
  5
1698
330
1694
100
AcDbEntity
  8
MODEL
 62
     0
370
    -2
100
AcDbLine
 10
738.9706106091254
 20
45.45182455620883
 30
0.0
 11
738.9706106091254
 21
-9.473720371728035
 31
0.0
  0
LINE
  5
1699
330
1694
100
AcDbEntity
  8
MODEL
 62
     0
370
    -2
100
AcDbLine
 10
610.9706106091253
 20
-9.473720371728035
 30
0.0
 11
736.9706106091254
 21
-9.473720371728035
 31
0.0
  0
INSERT
  5
169A
330
1694
100
AcDbEntity
  8
MODEL
 62
     0
370
    -2
100
AcDbBlockReference
  2
_DOT
 10
608.9706106091253
 20
-9.473720371728035
 30
0.0
 41
2.0
 42
2.0
 43
2.0
 50
180.0
  0
INSERT
  5
169B
330
1694
100
AcDbEntity
  8
MODEL
 62
     0
370
    -2
100
AcDbBlockReference
  2
_DOT
 10
738.9706106091254
 20
-9.473720371728035
 30
0.0
 41
2.0
 42
2.0
 43
2.0
  0
MTEXT
  5
169C
330
1694
100
AcDbEntity
  8
MODEL
 62
     0
100
AcDbMText
 10
673.9706106091253
 20
-1.472594949694773
 30
0.0
 40
6.0
 41
0.0
 46
0.0
 71
     5
 72
     1
  1
\A1;130
  7
ＭＳ ゴシック
 73
     1
 44
1.0
  0
POINT
  5
169D
330
1694
100
AcDbEntity
  8
Defpoints
 62
     0
100
AcDbPoint
 10
608.9706106091253
 20
39.71889113627982
 30
0.0
  0
POINT
  5
169E
330
1694
100
AcDbEntity
  8
Defpoints
 62
     0
100
AcDbPoint
 10
738.9706106091254
 20
50.45182455620883
 30
0.0
  0
POINT
  5
169F
330
1694
100
AcDbEntity
  8
Defpoints
 62
     0
100
AcDbPoint
 10
738.9706106091254
 20
-9.473720371728035
 30
0.0
  0
ENDBLK
  5
1696
330
1694
100
AcDbEntity
  8
0
100
AcDbBlockEnd
  0
BLOCK
  5
16A4
330
16A3
100
AcDbEntity
  8
0
100
AcDbBlockBegin
  2
*D14
 70
     1
 10
0.0
 20
0.0
 30
0.0
  3
*D14
  1

  0
LINE
  5
16A6
330
16A3
100
AcDbEntity
  8
MODEL
 62
     0
370
    -2
100
AcDbLine
 10
588.4697032900659
 20
111.338606400771
 30
0.0
 11
588.4697032900659
 21
95.53318198230404
 31
0.0
  0
LINE
  5
16A7
330
16A3
100
AcDbEntity
  8
MODEL
 62
     0
370
    -2
100
AcDbLine
 10
653.4697032900659
 20
111.338606400771
 30
0.0
 11
653.4697032900659
 21
95.53318198230404
 31
0.0
  0
LINE
  5
16A8
330
16A3
100
AcDbEntity
  8
MODEL
 62
     0
370
    -2
100
AcDbLine
 10
590.4697032900659
 20
95.53318198230404
 30
0.0
 11
651.4697032900659
 21
95.53318198230404
 31
0.0
  0
INSERT
  5
16A9
330
16A3
100
AcDbEntity
  8
MODEL
 62
     0
370
    -2
100
AcDbBlockReference
  2
_DOT
 10
588.4697032900659
 20
95.53318198230404
 30
0.0
 41
2.0
 42
2.0
 43
2.0
 50
180.0
  0
INSERT
  5
16AA
330
16A3
100
AcDbEntity
  8
MODEL
 62
     0
370
    -2
100
AcDbBlockReference
  2
_DOT
 10
653.4697032900659
 20
95.53318198230404
 30
0.0
 41
2.0
 42
2.0
 43
2.0
  0
MTEXT
  5
16AB
330
16A3
100
AcDbEntity
  8
MODEL
 62
     0
100
AcDbMText
 10
620.9697032900659
 20
103.5343074043373
 30
0.0
 40
6.0
 41
0.0
 46
0.0
 71
     5
 72
     1
  1
\A1;65
  7
ＭＳ ゴシック
 73
     1
 44
1.0
  0
POINT
  5
16AC
330
16A3
100
AcDbEntity
  8
Defpoints
 62
     0
100
AcDbPoint
 10
588.4697032900659
 20
116.338606400771
 30
0.0
  0
POINT
  5
16AD
330
16A3
100
AcDbEntity
  8
Defpoints
 62
     0
100
AcDbPoint
 10
653.4697032900659
 20
116.338606400771
 30
0.0
  0
POINT
  5
16AE
330
16A3
100
AcDbEntity
  8
Defpoints
 62
     0
100
AcDbPoint
 10
653.4697032900659
 20
95.53318198230404
 30
0.0
  0
ENDBLK
  5
16A5
330
16A3
100
AcDbEntity
  8
0
100
AcDbBlockEnd
  0
BLOCK
  5
16B3
330
16B2
100
AcDbEntity
  8
0
100
AcDbBlockBegin
  2
*D15
 70
     1
 10
0.0
 20
0.0
 30
0.0
  3
*D15
  1

  0
LINE
  5
16B5
330
16B2
100
AcDbEntity
  8
MODEL
 62
     0
370
    -2
100
AcDbLine
 10
699.625093080985
 20
116.338606400771
 30
0.0
 11
693.3921575413847
 21
116.338606400771
 31
0.0
  0
LINE
  5
16B6
330
16B2
100
AcDbEntity
  8
MODEL
 62
     0
370
    -2
100
AcDbLine
 10
728.4425930810188
 20
276.338606400771
 30
0.0
 11
693.3921575413847
 21
276.338606400771
 31
0.0
  0
LINE
  5
16B7
330
16B2
100
AcDbEntity
  8
MODEL
 62
     0
370
    -2
100
AcDbLine
 10
693.3921575413847
 20
118.338606400771
 30
0.0
 11
693.3921575413847
 21
274.338606400771
 31
0.0
  0
INSERT
  5
16B8
330
16B2
100
AcDbEntity
  8
MODEL
 62
     0
370
    -2
100
AcDbBlockReference
  2
_DOT
 10
693.3921575413847
 20
116.338606400771
 30
0.0
 41
2.0
 42
2.0
 43
2.0
 50
270.0
  0
INSERT
  5
16B9
330
16B2
100
AcDbEntity
  8
MODEL
 62
     0
370
    -2
100
AcDbBlockReference
  2
_DOT
 10
693.3921575413847
 20
276.338606400771
 30
0.0
 41
2.0
 42
2.0
 43
2.0
 50
90.0
  0
MTEXT
  5
16BA
330
16B2
100
AcDbEntity
  8
MODEL
 62
     0
100
AcDbMText
 10
685.3910321193514
 20
196.338606400771
 30
0.0
 40
6.0
 41
0.0
 46
0.0
 71
     5
 72
     1
  1
\A1;160
  7
ＭＳ ゴシック
 11
0.0
 21
1.0
 31
0.0
 73
     1
 44
1.0
  0
POINT
  5
16BB
330
16B2
100
AcDbEntity
  8
Defpoints
 62
     0
100
AcDbPoint
 10
704.625093080985
 20
116.338606400771
 30
0.0
  0
POINT
  5
16BC
330
16B2
100
AcDbEntity
  8
Defpoints
 62
     0
100
AcDbPoint
 10
733.4425930810188
 20
276.338606400771
 30
0.0
  0
POINT
  5
16BD
330
16B2
100
AcDbEntity
  8
Defpoints
 62
     0
100
AcDbPoint
 10
693.3921575413847
 20
276.338606400771
 30
0.0
  0
ENDBLK
  5
16B4
330
16B2
100
AcDbEntity
  8
0
100
AcDbBlockEnd
  0
BLOCK
  5
16C2
330
16C1
100
AcDbEntity
  8
0
100
AcDbBlockBegin
  2
*D16
 70
     1
 10
0.0
 20
0.0
 30
0.0
  3
*D16
  1

  0
LINE
  5
16C4
330
16C1
100
AcDbEntity
  8
MODEL
 62
     0
370
    -2
100
AcDbLine
 10
108.7065276556123
 20
230.3036471589895
 30
0.0
 11
108.7065276556123
 21
197.2209969446414
 31
0.0
  0
LINE
  5
16C5
330
16C1
100
AcDbEntity
  8
MODEL
 62
     0
370
    -2
100
AcDbLine
 10
184.2065279238332
 20
230.3036471589895
 30
0.0
 11
184.2065279238332
 21
197.2209969446414
 31
0.0
  0
LINE
  5
16C6
330
16C1
100
AcDbEntity
  8
MODEL
 62
     0
370
    -2
100
AcDbLine
 10
110.7065276556123
 20
197.2209969446414
 30
0.0
 11
182.2065279238332
 21
197.2209969446414
 31
0.0
  0
INSERT
  5
16C7
330
16C1
100
AcDbEntity
  8
MODEL
 62
     0
370
    -2
100
AcDbBlockReference
  2
_DOT
 10
108.7065276556123
 20
197.2209969446414
 30
0.0
 41
2.0
 42
2.0
 43
2.0
 50
180.0
  0
INSERT
  5
16C8
330
16C1
100
AcDbEntity
  8
MODEL
 62
     0
370
    -2
100
AcDbBlockReference
  2
_DOT
 10
184.2065279238332
 20
197.2209969446414
 30
0.0
 41
2.0
 42
2.0
 43
2.0
  0
MTEXT
  5
16C9
330
16C1
100
AcDbEntity
  8
MODEL
 62
     0
100
AcDbMText
 10
146.4565277897227
 20
205.2221223666746
 30
0.0
 40
6.0
 41
0.0
 46
0.0
 71
     5
 72
     1
  1
\A1;75.50000027
  7
ＭＳ ゴシック
 73
     1
 44
1.0
  0
POINT
  5
16CA
330
16C1
100
AcDbEntity
  8
Defpoints
 62
     0
100
AcDbPoint
 10
108.7065276556123
 20
235.3036471589895
 30
0.0
  0
POINT
  5
16CB
330
16C1
100
AcDbEntity
  8
Defpoints
 62
     0
100
AcDbPoint
 10
184.2065279238332
 20
235.3036471589895
 30
0.0
  0
POINT
  5
16CC
330
16C1
100
AcDbEntity
  8
Defpoints
 62
     0
100
AcDbPoint
 10
184.2065279238332
 20
197.2209969446414
 30
0.0
  0
ENDBLK
  5
16C3
330
16C1
100
AcDbEntity
  8
0
100
AcDbBlockEnd
  0
BLOCK
  5
16CF
330
16CE
100
AcDbEntity
  8
0
100
AcDbBlockBegin
  2
*D17
 70
     1
 10
0.0
 20
0.0
 30
0.0
  3
*D17
  1

  0
LINE
  5
16D1
330
16CE
100
AcDbEntity
  8
MODEL
 62
     0
370
    -2
100
AcDbLine
 10
695.271093080993
 20
116.338606400771
 30
0.0
 11
673.089522872779
 21
116.338606400771
 31
0.0
  0
LINE
  5
16D2
330
16CE
100
AcDbEntity
  8
MODEL
 62
     0
370
    -2
100
AcDbLine
 10
695.271093080993
 20
297.338606400771
 30
0.0
 11
673.089522872779
 21
297.338606400771
 31
0.0
  0
LINE
  5
16D3
330
16CE
100
AcDbEntity
  8
MODEL
 62
     0
370
    -2
100
AcDbLine
 10
673.089522872779
 20
118.338606400771
 30
0.0
 11
673.089522872779
 21
295.338606400771
 31
0.0
  0
INSERT
  5
16D4
330
16CE
100
AcDbEntity
  8
MODEL
 62
     0
370
    -2
100
AcDbBlockReference
  2
_DOT
 10
673.089522872779
 20
116.338606400771
 30
0.0
 41
2.0
 42
2.0
 43
2.0
 50
270.0
  0
INSERT
  5
16D5
330
16CE
100
AcDbEntity
  8
MODEL
 62
     0
370
    -2
100
AcDbBlockReference
  2
_DOT
 10
673.089522872779
 20
297.338606400771
 30
0.0
 41
2.0
 42
2.0
 43
2.0
 50
90.0
  0
MTEXT
  5
16D6
330
16CE
100
AcDbEntity
  8
MODEL
 62
     0
100
AcDbMText
 10
665.0883974507457
 20
206.838606400771
 30
0.0
 40
6.0
 41
0.0
 46
0.0
 71
     5
 72
     1
  1
\A1;181
  7
ＭＳ ゴシック
 11
0.0
 21
1.0
 31
0.0
 73
     1
 44
1.0
  0
POINT
  5
16D7
330
16CE
100
AcDbEntity
  8
Defpoints
 62
     0
100
AcDbPoint
 10
700.271093080993
 20
116.338606400771
 30
0.0
  0
POINT
  5
16D8
330
16CE
100
AcDbEntity
  8
Defpoints
 62
     0
100
AcDbPoint
 10
700.271093080993
 20
297.338606400771
 30
0.0
  0
POINT
  5
16D9
330
16CE
100
AcDbEntity
  8
Defpoints
 62
     0
100
AcDbPoint
 10
673.089522872779
 20
297.338606400771
 30
0.0
  0
ENDBLK
  5
16D0
330
16CE
100
AcDbEntity
  8
0
100
AcDbBlockEnd
  0
BLOCK
  5
16DC
330
16DB
100
AcDbEntity
  8
0
100
AcDbBlockBegin
  2
*D18
 70
     1
 10
0.0
 20
0.0
 30
0.0
  3
*D18
  1

  0
LINE
  5
16DE
330
16DB
100
AcDbEntity
  8
MODEL
 62
     0
370
    -2
100
AcDbLine
 10
713.7672202300529
 20
239.8324973989148
 30
0.0
 11
713.7672202300529
 21
296.2274768501542
 31
0.0
  0
LINE
  5
16DF
330
16DB
100
AcDbEntity
  8
MODEL
 62
     0
370
    -2
100
AcDbLine
 10
809.7672202300529
 20
264.6647517252914
 30
0.0
 11
809.7672202300529
 21
296.2274768501542
 31
0.0
  0
LINE
  5
16E0
330
16DB
100
AcDbEntity
  8
MODEL
 62
     0
370
    -2
100
AcDbLine
 10
715.7672202300529
 20
296.2274768501542
 30
0.0
 11
807.7672202300529
 21
296.2274768501542
 31
0.0
  0
INSERT
  5
16E1
330
16DB
100
AcDbEntity
  8
MODEL
 62
     0
370
    -2
100
AcDbBlockReference
  2
_DOT
 10
713.7672202300529
 20
296.2274768501542
 30
0.0
 41
2.0
 42
2.0
 43
2.0
 50
180.0
  0
INSERT
  5
16E2
330
16DB
100
AcDbEntity
  8
MODEL
 62
     0
370
    -2
100
AcDbBlockReference
  2
_DOT
 10
809.7672202300529
 20
296.2274768501542
 30
0.0
 41
2.0
 42
2.0
 43
2.0
  0
MTEXT
  5
16E3
330
16DB
100
AcDbEntity
  8
MODEL
 62
     0
100
AcDbMText
 10
761.7672202300529
 20
304.2274768501542
 30
0.0
 40
6.0
 41
0.0
 46
0.0
 71
     5
 72
     1
  1
\A1;96
  7
ＭＳ ゴシック
 73
     1
 44
1.0
  0
POINT
  5
16E4
330
16DB
100
AcDbEntity
  8
Defpoints
 62
     0
100
AcDbPoint
 10
713.7672202300529
 20
234.8324973989148
 30
0.0
  0
POINT
  5
16E5
330
16DB
100
AcDbEntity
  8
Defpoints
 62
     0
100
AcDbPoint
 10
809.7672202300529
 20
259.6647517252914
 30
0.0
  0
POINT
  5
16E6
330
16DB
100
AcDbEntity
  8
Defpoints
 62
     0
100
AcDbPoint
 10
809.7672202300529
 20
296.2274768501542
 30
0.0
  0
ENDBLK
  5
16DD
330
16DB
100
AcDbEntity
  8
0
100
AcDbBlockEnd
  0
BLOCK
  5
16EB
330
16EA
100
AcDbEntity
  8
0
100
AcDbBlockBegin
  2
*D19
 70
     1
 10
0.0
 20
0.0
 30
0.0
  3
*D19
  1

  0
LINE
  5
16ED
330
16EA
100
AcDbEntity
  8
MODEL
 62
     0
370
    -2
100
AcDbLine
 10
578.8903183642294
 20
116.3386064007708
 30
0.0
 11
557.3070473152378
 21
116.3386064007708
 31
0.0
  0
LINE
  5
16EE
330
16EA
100
AcDbEntity
  8
MODEL
 62
     0
370
    -2
100
AcDbLine
 10
578.8903183642294
 20
295.3386064007708
 30
0.0
 11
557.3070473152378
 21
295.3386064007708
 31
0.0
  0
LINE
  5
16EF
330
16EA
100
AcDbEntity
  8
MODEL
 62
     0
370
    -2
100
AcDbLine
 10
557.3070473152378
 20
118.3386064007708
 30
0.0
 11
557.3070473152378
 21
293.3386064007708
 31
0.0
  0
INSERT
  5
16F0
330
16EA
100
AcDbEntity
  8
MODEL
 62
     0
370
    -2
100
AcDbBlockReference
  2
_DOT
 10
557.3070473152378
 20
116.3386064007708
 30
0.0
 41
2.0
 42
2.0
 43
2.0
 50
270.0
  0
INSERT
  5
16F1
330
16EA
100
AcDbEntity
  8
MODEL
 62
     0
370
    -2
100
AcDbBlockReference
  2
_DOT
 10
557.3070473152378
 20
295.3386064007708
 30
0.0
 41
2.0
 42
2.0
 43
2.0
 50
90.0
  0
MTEXT
  5
16F2
330
16EA
100
AcDbEntity
  8
MODEL
 62
     0
100
AcDbMText
 10
549.3059218932045
 20
205.8386064007708
 30
0.0
 40
6.0
 41
0.0
 46
0.0
 71
     5
 72
     1
  1
\A1;179
  7
ＭＳ ゴシック
 11
0.0
 21
1.0
 31
0.0
 73
     1
 44
1.0
  0
POINT
  5
16F3
330
16EA
100
AcDbEntity
  8
Defpoints
 62
     0
100
AcDbPoint
 10
583.8903183642294
 20
116.3386064007708
 30
0.0
  0
POINT
  5
16F4
330
16EA
100
AcDbEntity
  8
Defpoints
 62
     0
100
AcDbPoint
 10
583.8903183642294
 20
295.3386064007708
 30
0.0
  0
POINT
  5
16F5
330
16EA
100
AcDbEntity
  8
Defpoints
 62
     0
100
AcDbPoint
 10
557.3070473152378
 20
295.3386064007708
 30
0.0
  0
ENDBLK
  5
16EC
330
16EA
100
AcDbEntity
  8
0
100
AcDbBlockEnd
  0
BLOCK
  5
16FA
330
16F9
100
AcDbEntity
  8
0
100
AcDbBlockBegin
  2
*D20
 70
     1
 10
0.0
 20
0.0
 30
0.0
  3
*D20
  1

  0
LINE
  5
16FC
330
16F9
100
AcDbEntity
  8
MODEL
 62
     0
370
    -2
100
AcDbLine
 10
697.0583986001317
 20
276.3386064007709
 30
0.0
 11
604.5253714970944
 21
276.3386064007709
 31
0.0
  0
LINE
  5
16FD
330
16F9
100
AcDbEntity
  8
MODEL
 62
     0
370
    -2
100
AcDbLine
 10
687.3033986001852
 20
116.3386064007709
 30
0.0
 11
604.5253714970944
 21
116.3386064007709
 31
0.0
  0
LINE
  5
16FE
330
16F9
100
AcDbEntity
  8
MODEL
 62
     0
370
    -2
100
AcDbLine
 10
604.5253714970944
 20
274.3386064007709
 30
0.0
 11
604.5253714970944
 21
118.3386064007709
 31
0.0
  0
INSERT
  5
16FF
330
16F9
100
AcDbEntity
  8
MODEL
 62
     0
370
    -2
100
AcDbBlockReference
  2
_DOT
 10
604.5253714970944
 20
276.3386064007709
 30
0.0
 41
2.0
 42
2.0
 43
2.0
 50
90.0
  0
INSERT
  5
1700
330
16F9
100
AcDbEntity
  8
MODEL
 62
     0
370
    -2
100
AcDbBlockReference
  2
_DOT
 10
604.5253714970944
 20
116.3386064007709
 30
0.0
 41
2.0
 42
2.0
 43
2.0
 50
270.0
  0
MTEXT
  5
1701
330
16F9
100
AcDbEntity
  8
MODEL
 62
     0
100
AcDbMText
 10
596.5242460750611
 20
196.3386064007709
 30
0.0
 40
6.0
 41
0.0
 46
0.0
 71
     5
 72
     1
  1
\A1;160
  7
ＭＳ ゴシック
 11
0.0
 21
1.0
 31
0.0
 73
     1
 44
1.0
  0
POINT
  5
1702
330
16F9
100
AcDbEntity
  8
Defpoints
 62
     0
100
AcDbPoint
 10
702.0583986001317
 20
276.3386064007709
 30
0.0
  0
POINT
  5
1703
330
16F9
100
AcDbEntity
  8
Defpoints
 62
     0
100
AcDbPoint
 10
692.3033986001852
 20
116.3386064007709
 30
0.0
  0
POINT
  5
1704
330
16F9
100
AcDbEntity
  8
Defpoints
 62
     0
100
AcDbPoint
 10
604.5253714970944
 20
116.3386064007709
 30
0.0
  0
ENDBLK
  5
16FB
330
16F9
100
AcDbEntity
  8
0
100
AcDbBlockEnd
  0
BLOCK
  5
171D
330
171C
100
AcDbEntity
  8
0
100
AcDbBlockBegin
  2
*D21
 70
     1
 10
0.0
 20
0.0
 30
0.0
  3
*D21
  1

  0
LINE
  5
171F
330
171C
100
AcDbEntity
  8
MODEL
 62
     0
370
    -2
100
AcDbLine
 10
971.8291784988046
 20
259.338606400771
 30
0.0
 11
971.8291784988046
 21
310.0692373494947
 31
0.0
  0
LINE
  5
1720
330
171C
100
AcDbEntity
  8
MODEL
 62
     0
370
    -2
100
AcDbLine
 10
1067.829178498805
 20
259.338606400771
 30
0.0
 11
1067.829178498805
 21
310.0692373494947
 31
0.0
  0
LINE
  5
1721
330
171C
100
AcDbEntity
  8
MODEL
 62
     0
370
    -2
100
AcDbLine
 10
973.8291784988046
 20
310.0692373494947
 30
0.0
 11
1065.829178498805
 21
310.0692373494947
 31
0.0
  0
INSERT
  5
1722
330
171C
100
AcDbEntity
  8
MODEL
 62
     0
370
    -2
100
AcDbBlockReference
  2
_DOT
 10
971.8291784988046
 20
310.0692373494947
 30
0.0
 41
2.0
 42
2.0
 43
2.0
 50
180.0
  0
INSERT
  5
1723
330
171C
100
AcDbEntity
  8
MODEL
 62
     0
370
    -2
100
AcDbBlockReference
  2
_DOT
 10
1067.829178498805
 20
310.0692373494947
 30
0.0
 41
2.0
 42
2.0
 43
2.0
  0
MTEXT
  5
1724
330
171C
100
AcDbEntity
  8
MODEL
 62
     0
100
AcDbMText
 10
1019.829178498805
 20
318.0692373494947
 30
0.0
 40
6.0
 41
0.0
 46
0.0
 71
     5
 72
     1
  1
\A1;96
  7
ＭＳ ゴシック
 73
     1
 44
1.0
  0
POINT
  5
1725
330
171C
100
AcDbEntity
  8
Defpoints
 62
     0
100
AcDbPoint
 10
971.8291784988046
 20
254.338606400771
 30
0.0
  0
POINT
  5
1726
330
171C
100
AcDbEntity
  8
Defpoints
 62
     0
100
AcDbPoint
 10
1067.829178498805
 20
254.338606400771
 30
0.0
  0
POINT
  5
1727
330
171C
100
AcDbEntity
  8
Defpoints
 62
     0
100
AcDbPoint
 10
1067.829178498805
 20
310.0692373494947
 30
0.0
  0
ENDBLK
  5
171E
330
171C
100
AcDbEntity
  8
0
100
AcDbBlockEnd
  0
BLOCK
  5
1752
330
1751
100
AcDbEntity
  8
0
100
AcDbBlockBegin
  2
*D22
 70
     1
 10
0.0
 20
0.0
 30
0.0
  3
*D22
  1

  0
LINE
  5
1754
330
1751
100
AcDbEntity
  8
DIM
 62
     0
370
    -2
100
AcDbLine
 10
108.1679144194852
 20
174.1196763884098
 30
0.0
 11
108.1679144194852
 21
157.3034742958371
 31
0.0
  0
LINE
  5
1755
330
1751
100
AcDbEntity
  8
DIM
 62
     0
370
    -2
100
AcDbLine
 10
173.1679144194852
 20
174.1196763884098
 30
0.0
 11
173.1679144194852
 21
157.3034742958371
 31
0.0
  0
LINE
  5
1756
330
1751
100
AcDbEntity
  8
DIM
 62
     0
370
    -2
100
AcDbLine
 10
110.1679144194852
 20
157.3034742958371
 30
0.0
 11
171.1679144194852
 21
157.3034742958371
 31
0.0
  0
INSERT
  5
1757
330
1751
100
AcDbEntity
  8
DIM
 62
     0
370
    -2
100
AcDbBlockReference
  2
_DOT
 10
108.1679144194852
 20
157.3034742958371
 30
0.0
 41
2.0
 42
2.0
 43
2.0
 50
180.0
  0
INSERT
  5
1758
330
1751
100
AcDbEntity
  8
DIM
 62
     0
370
    -2
100
AcDbBlockReference
  2
_DOT
 10
173.1679144194852
 20
157.3034742958371
 30
0.0
 41
2.0
 42
2.0
 43
2.0
  0
MTEXT
  5
1759
330
1751
100
AcDbEntity
  8
DIM
 62
     0
100
AcDbMText
 10
140.6679144194852
 20
164.8044121475315
 30
0.0
 40
5.0
 41
0.0
 46
0.0
 71
     5
 72
     1
  1
\A1;%%c65
  7
ＭＳ ゴシック
 73
     1
 44
1.0
  0
POINT
  5
175A
330
1751
100
AcDbEntity
  8
Defpoints
 62
     0
100
AcDbPoint
 10
108.1679144194852
 20
179.1196763884098
 30
0.0
  0
POINT
  5
175B
330
1751
100
AcDbEntity
  8
Defpoints
 62
     0
100
AcDbPoint
 10
173.1679144194852
 20
179.1196763884098
 30
0.0
  0
POINT
  5
175C
330
1751
100
AcDbEntity
  8
Defpoints
 62
     0
100
AcDbPoint
 10
173.1679144194852
 20
157.3034742958371
 30
0.0
  0
ENDBLK
  5
1753
330
1751
100
AcDbEntity
  8
0
100
AcDbBlockEnd
  0
BLOCK
  5
1761
330
1760
100
AcDbEntity
  8
0
100
AcDbBlockBegin
  2
*D23
 70
     1
 10
0.0
 20
0.0
 30
0.0
  3
*D23
  1

  0
LINE
  5
1763
330
1760
100
AcDbEntity
  8
DIM
 62
     0
370
    -2
100
AcDbLine
 10
1068.720493098664
 20
116.338606400771
 30
0.0
 11
1048.21742116485
 21
116.338606400771
 31
0.0
  0
LINE
  5
1764
330
1760
100
AcDbEntity
  8
DIM
 62
     0
370
    -2
100
AcDbLine
 10
1088.220493098664
 20
292.3386064007711
 30
0.0
 11
1048.21742116485
 21
292.3386064007711
 31
0.0
  0
LINE
  5
1765
330
1760
100
AcDbEntity
  8
DIM
 62
     0
370
    -2
100
AcDbLine
 10
1048.21742116485
 20
118.338606400771
 30
0.0
 11
1048.21742116485
 21
290.3386064007711
 31
0.0
  0
INSERT
  5
1766
330
1760
100
AcDbEntity
  8
DIM
 62
     0
370
    -2
100
AcDbBlockReference
  2
_DOT
 10
1048.21742116485
 20
116.338606400771
 30
0.0
 41
2.0
 42
2.0
 43
2.0
 50
270.0
  0
INSERT
  5
1767
330
1760
100
AcDbEntity
  8
DIM
 62
     0
370
    -2
100
AcDbBlockReference
  2
_DOT
 10
1048.21742116485
 20
292.3386064007711
 30
0.0
 41
2.0
 42
2.0
 43
2.0
 50
90.0
  0
MTEXT
  5
1768
330
1760
100
AcDbEntity
  8
DIM
 62
     0
100
AcDbMText
 10
1040.216295742817
 20
204.3386064007711
 30
0.0
 40
6.0
 41
0.0
 46
0.0
 71
     5
 72
     1
  1
\A1;176
  7
ＭＳ ゴシック
 11
0.0
 21
1.0
 31
0.0
 73
     1
 44
1.0
  0
POINT
  5
1769
330
1760
100
AcDbEntity
  8
Defpoints
 62
     0
100
AcDbPoint
 10
1073.720493098664
 20
116.338606400771
 30
0.0
  0
POINT
  5
176A
330
1760
100
AcDbEntity
  8
Defpoints
 62
     0
100
AcDbPoint
 10
1093.220493098664
 20
292.3386064007711
 30
0.0
  0
POINT
  5
176B
330
1760
100
AcDbEntity
  8
Defpoints
 62
     0
100
AcDbPoint
 10
1048.21742116485
 20
292.3386064007711
 30
0.0
  0
ENDBLK
  5
1762
330
1760
100
AcDbEntity
  8
0
100
AcDbBlockEnd
  0
BLOCK
  5
176E
330
176D
100
AcDbEntity
  8
0
100
AcDbBlockBegin
  2
*D24
 70
     1
 10
0.0
 20
0.0
 30
0.0
  3
*D24
  1

  0
LINE
  5
1770
330
176D
100
AcDbEntity
  8
DIM
 62
     0
370
    -2
100
AcDbLine
 10
257.5703476248968
 20
322.1196763884098
 30
0.0
 11
257.5703476248968
 21
372.6481345563071
 31
0.0
  0
LINE
  5
1771
330
176D
100
AcDbEntity
  8
DIM
 62
     0
370
    -2
100
AcDbLine
 10
353.5703476248968
 20
343.3225305554139
 30
0.0
 11
353.5703476248968
 21
372.6481345563071
 31
0.0
  0
LINE
  5
1772
330
176D
100
AcDbEntity
  8
DIM
 62
     0
370
    -2
100
AcDbLine
 10
259.5703476248968
 20
372.6481345563071
 30
0.0
 11
351.5703476248968
 21
372.6481345563071
 31
0.0
  0
INSERT
  5
1773
330
176D
100
AcDbEntity
  8
DIM
 62
     0
370
    -2
100
AcDbBlockReference
  2
_DOT
 10
257.5703476248968
 20
372.6481345563071
 30
0.0
 41
2.0
 42
2.0
 43
2.0
 50
180.0
  0
INSERT
  5
1774
330
176D
100
AcDbEntity
  8
DIM
 62
     0
370
    -2
100
AcDbBlockReference
  2
_DOT
 10
353.5703476248968
 20
372.6481345563071
 30
0.0
 41
2.0
 42
2.0
 43
2.0
  0
MTEXT
  5
1775
330
176D
100
AcDbEntity
  8
DIM
 62
     0
100
AcDbMText
 10
305.5703476248968
 20
380.1481345563071
 30
0.0
 40
5.0
 41
0.0
 46
0.0
 71
     5
 72
     1
  1
\A1;96
  7
ＭＳ ゴシック
 73
     1
 44
1.0
  0
POINT
  5
1776
330
176D
100
AcDbEntity
  8
Defpoints
 62
     0
100
AcDbPoint
 10
257.5703476248968
 20
317.1196763884098
 30
0.0
  0
POINT
  5
1777
330
176D
100
AcDbEntity
  8
Defpoints
 62
     0
100
AcDbPoint
 10
353.5703476248968
 20
338.3225305554139
 30
0.0
  0
POINT
  5
1778
330
176D
100
AcDbEntity
  8
Defpoints
 62
     0
100
AcDbPoint
 10
353.5703476248968
 20
372.6481345563071
 30
0.0
  0
ENDBLK
  5
176F
330
176D
100
AcDbEntity
  8
0
100
AcDbBlockEnd
  0
BLOCK
  5
17A3
330
17A2
100
AcDbEntity
  8
0
100
AcDbBlockBegin
  2
*D25
 70
     1
 10
0.0
 20
0.0
 30
0.0
  3
*D25
  1

  0
LINE
  5
17A5
330
17A2
100
AcDbEntity
  8
DIM
 62
     0
370
    -2
100
AcDbLine
 10
103.1679144194852
 20
176.1196763884098
 30
0.0
 11
82.6648424856712
 21
176.1196763884098
 31
0.0
  0
LINE
  5
17A6
330
17A2
100
AcDbEntity
  8
DIM
 62
     0
370
    -2
100
AcDbLine
 10
122.6679144194852
 20
355.1196763884099
 30
0.0
 11
82.66484248567122
 21
355.1196763884099
 31
0.0
  0
LINE
  5
17A7
330
17A2
100
AcDbEntity
  8
DIM
 62
     0
370
    -2
100
AcDbLine
 10
82.6648424856712
 20
178.1196763884098
 30
0.0
 11
82.66484248567122
 21
353.1196763884099
 31
0.0
  0
INSERT
  5
17A8
330
17A2
100
AcDbEntity
  8
DIM
 62
     0
370
    -2
100
AcDbBlockReference
  2
_DOT
 10
82.6648424856712
 20
176.1196763884098
 30
0.0
 41
2.0
 42
2.0
 43
2.0
 50
270.0
  0
INSERT
  5
17A9
330
17A2
100
AcDbEntity
  8
DIM
 62
     0
370
    -2
100
AcDbBlockReference
  2
_DOT
 10
82.66484248567122
 20
355.1196763884099
 30
0.0
 41
2.0
 42
2.0
 43
2.0
 50
90.0
  0
MTEXT
  5
17AA
330
17A2
100
AcDbEntity
  8
DIM
 62
     0
100
AcDbMText
 10
75.16390463397681
 20
265.6196763884099
 30
0.0
 40
5.0
 41
0.0
 46
0.0
 71
     5
 72
     1
  1
\A1;179
  7
ＭＳ ゴシック
 11
7.939024980559774E-17
 21
1.0
 31
0.0
 73
     1
 44
1.0
  0
POINT
  5
17AB
330
17A2
100
AcDbEntity
  8
Defpoints
 62
     0
100
AcDbPoint
 10
108.1679144194852
 20
176.1196763884098
 30
0.0
  0
POINT
  5
17AC
330
17A2
100
AcDbEntity
  8
Defpoints
 62
     0
100
AcDbPoint
 10
127.6679144194852
 20
355.1196763884099
 30
0.0
  0
POINT
  5
17AD
330
17A2
100
AcDbEntity
  8
Defpoints
 62
     0
100
AcDbPoint
 10
82.66484248567122
 20
355.1196763884099
 30
0.0
  0
ENDBLK
  5
17A4
330
17A2
100
AcDbEntity
  8
0
100
AcDbBlockEnd
  0
ENDSEC
  0
SECTION
  2
ENTITIES
  0
MTEXT
  5
177
330
A
100
AcDbEntity
  8
TEMPLATE
390
1D
100
AcDbMText
 10
15.84042890954615
 20
68.74635032628566
 30
0.0
 40
3.257682291666666
 41
0.0
 46
0.0
 71
     1
 72
     1
  1
品名
  7
ＭＳ ゴシック
 73
     1
 44
0.7828267384257843
  0
MTEXT
  5
178
330
A
100
AcDbEntity
  8
TEMPLATE
390
1D
100
AcDbMText
 10
15.84042890954615
 20
51.74635032628562
 30
0.0
 40
3.257682291666666
 41
0.0
 46
0.0
 71
     1
 72
     1
  1
仕様
  7
ＭＳ ゴシック
 73
     1
 44
0.7828267384257843
  0
LINE
  5
179
330
A
100
AcDbEntity
  8
TEMPLATE
390
1D
100
AcDbLine
 10
404.4404289094498
 20
53.4293347012857
 30
0.0
 11
14.44042890944975
 21
53.4293347012857
 31
0.0
  0
LWPOLYLINE
  5
17A
330
A
100
AcDbEntity
  8
TEMPLATE
390
1D
100
AcDbPolyline
 90
        5
 70
   128
 43
0.0
 10
404.4404289094498
 20
579.4293347012853
 10
14.44042890944975
 20
579.4293347012853
 10
14.44042890944975
 20
19.42933470128565
 10
404.4404289094498
 20
19.42933470128565
 10
404.4404289094498
 20
579.4293347012853
  0
LINE
  5
17B
330
A
100
AcDbEntity
  8
TEMPLATE
390
1D
100
AcDbLine
 10
404.4404289094498
 20
70.42933470128563
 30
0.0
 11
14.44042890944975
 21
70.42933470128563
 31
0.0
  0
LINE
  5
17C
330
A
100
AcDbEntity
  8
TEMPLATE
390
1D
100
AcDbLine
 10
404.4404289095462
 20
36.42933470128564
 30
0.0
 11
253.840428909546
 21
36.42933470128564
 31
0.0
  0
MTEXT
  5
17E
330
A
100
AcDbEntity
  8
TEMPLATE
390
1D
100
AcDbMText
 10
259.8147101599982
 20
30.44725580662402
 30
0.0
 40
4.8865234375
 41
0.0
 46
0.0
 71
     1
 72
     1
  1
大洋金物株式会社 ティーフォルム事業部
  7
ＭＳ ゴシック
 73
     1
 44
0.7828267384257843
  0
MTEXT
  5
180
330
A
100
AcDbEntity
  8
TEMPLATE
390
1D
100
AcDbMText
 10
366.240428909598
 20
46.02985813878562
 30
0.0
 40
4.8865234375
 41
0.0
 46
4.8865234375
 71
     1
 72
     1
  1
{1:2}
  7
ＭＳ ゴシック
 73
     1
 44
0.7828267384257843
1001
ACAD
1000
ACAD_MTEXT_DEFINED_HEIGHT_BEGIN
1070
    46
1040
4.8865234375
1000
ACAD_MTEXT_DEFINED_HEIGHT_END
  0
MTEXT
  5
181
330
A
100
AcDbEntity
  8
TEMPLATE
390
1D
100
AcDbMText
 10
355.640428909598
 20
51.74635032628562
 30
0.0
 40
3.257682291666666
 41
0.0
 46
0.0
 71
     1
 72
     1
  1
縮尺
  7
ＭＳ ゴシック
 73
     1
 44
0.7828267384257843
  0
LINE
  5
182
330
A
100
AcDbEntity
  8
TEMPLATE
390
1D
100
AcDbLine
 10
354.240428909598
 20
36.42933470128564
 30
0.0
 11
354.240428909598
 21
53.4293347012857
 31
0.0
  0
MTEXT
  5
183
330
A
100
AcDbEntity
  8
TEMPLATE
390
1D
100
AcDbMText
 10
305.440428909598
 20
51.74635032628562
 30
0.0
 40
3.257682291666666
 41
0.0
 46
0.0
 71
     1
 72
     1
  1
容量
  7
ＭＳ ゴシック
 73
     1
 44
0.7828267384257843
  0
LINE
  5
184
330
A
100
AcDbEntity
  8
TEMPLATE
390
1D
100
AcDbLine
 10
304.040428909598
 20
36.42933470128564
 30
0.0
 11
304.040428909598
 21
53.4293347012857
 31
0.0
  0
MTEXT
  5
185
330
A
100
AcDbEntity
  8
TEMPLATE
390
1D
100
AcDbMText
 10
255.240428909598
 20
68.74635032628566
 30
0.0
 40
3.257682291666666
 41
0.0
 46
0.0
 71
     1
 72
     1
  1
品番
  7
ＭＳ ゴシック
 73
     1
 44
0.7828267384257843
  0
MTEXT
  5
186
330
A
100
AcDbEntity
  8
TEMPLATE
390
1D
100
AcDbMText
 10
255.240428909598
 20
51.74635032628562
 30
0.0
 40
3.257682291666666
 41
0.0
 46
0.0
 71
     1
 72
     1
  1
重量
  7
ＭＳ ゴシック
 73
     1
 44
0.7828267384257843
  0
MTEXT
  5
187
330
A
100
AcDbEntity
  8
TEMPLATE
390
1D
100
AcDbMText
 10
265.840428909598
 20
63.02985813878564
 30
0.0
 40
4.8865234375
 41
0.0
 46
4.8865234375
 71
     1
 72
     1
  1
{FLR74-1714}
  7
ＭＳ ゴシック
 73
     1
 44
0.7828267384257843
1001
ACAD
1000
ACAD_MTEXT_DEFINED_HEIGHT_BEGIN
1070
    46
1040
4.8865234375
1000
ACAD_MTEXT_DEFINED_HEIGHT_END
  0
LINE
  5
188
330
A
100
AcDbEntity
  8
TEMPLATE
390
1D
100
AcDbLine
 10
253.840428909598
 20
19.42933470128565
 30
0.0
 11
253.840428909598
 21
70.42933470128563
 31
0.0
  0
MTEXT
  5
189
330
A
100
AcDbEntity
  8
TEMPLATE
390
1D
100
AcDbMText
 10
26.44042890954614
 20
63.02985813878564
 30
0.0
 40
4.8865234375
 41
0.0
 46
5.507344722044204
 71
     1
 72
     1
  1
{ソープディスペンサー　-KEUCO,Plan-}
  7
ＭＳ ゴシック
 73
     1
 44
0.7828267384257843
1001
ACAD
1000
ACAD_MTEXT_DEFINED_HEIGHT_BEGIN
1070
    46
1040
5.507344722044204
1000
ACAD_MTEXT_DEFINED_HEIGHT_END
  0
INSERT
  5
68C
330
A
100
AcDbEntity
  8
TEMPLATE
100
AcDbBlockReference
  2
block 2
 10
1838.548603540515
 20
16.74615302867274
 30
0.0
 41
0.7619999999999998
 42
0.7619999999999998
 43
0.7619999999999998
  0
LINE
  5
170C
330
A
100
AcDbEntity
  8
MODEL
100
AcDbLine
 10
257.5703476248968
 20
176.9346722109687
 30
0.0
 11
257.5703476248968
 21
317.1196763884098
 31
0.0
  0
LINE
  5
170F
330
A
100
AcDbEntity
  8
MODEL
100
AcDbLine
 10
322.5703476248968
 20
176.9346722109686
 30
0.0
 11
322.5703476248968
 21
317.1196763884098
 31
0.0
  0
LINE
  5
1711
330
A
100
AcDbEntity
  8
MODEL
100
AcDbLine
 10
277.0703476248968
 20
322.1196763884098
 30
0.0
 11
303.0703476248968
 21
322.1196763884098
 31
0.0
  0
LINE
  5
1714
330
A
100
AcDbEntity
  8
MODEL
100
AcDbLine
 10
257.5703476248968
 20
317.1196763884098
 30
0.0
 11
322.5703476248968
 21
317.1196763884098
 31
0.0
  0
LINE
  5
1715
330
A
100
AcDbEntity
  8
MODEL
100
AcDbLine
 10
277.0703476248968
 20
355.1196763884099
 30
0.0
 11
303.0703476248968
 21
355.1196763884098
 31
0.0
  0
LINE
  5
1716
330
A
100
AcDbEntity
  8
MODEL
100
AcDbLine
 10
277.0703476248968
 20
355.1196763884099
 30
0.0
 11
277.0703476248968
 21
322.1196763884098
 31
0.0
  0
LINE
  5
1717
330
A
100
AcDbEntity
  8
MODEL
100
AcDbLine
 10
303.0703476248968
 20
355.1196763884098
 30
0.0
 11
303.0703476248968
 21
349.0736763884078
 31
0.0
  0
LINE
  5
1718
330
A
100
AcDbEntity
  8
MODEL
100
AcDbLine
 10
278.9527780714063
 20
322.1196763884098
 30
0.0
 11
278.9527780714063
 21
317.1196763884098
 31
0.0
  0
LINE
  5
1719
330
A
100
AcDbEntity
  8
MODEL
100
AcDbLine
 10
301.1879171783874
 20
322.1196763884098
 30
0.0
 11
301.1879171783874
 21
317.1196763884098
 31
0.0
  0
LINE
  5
171A
330
A
100
AcDbEntity
  8
MODEL
100
AcDbLine
 10
257.5703476248968
 20
313.1196763884098
 30
0.0
 11
322.5703476248968
 21
313.1196763884098
 31
0.0
  0
LINE
  5
1728
330
A
100
AcDbEntity
  8
0
  6
Continuous
100
AcDbLine
 10
303.0703476248968
 20
343.1656763884119
 30
0.0
 11
335.9523476249383
 21
343.1656763884119
 31
0.0
  0
LINE
  5
1729
330
A
100
AcDbEntity
  8
0
  6
Continuous
100
AcDbLine
 10
336.5423476249057
 20
349.0736763884076
 30
0.0
 11
303.0703476248968
 21
349.0736763884076
 31
0.0
  0
LINE
  5
172A
330
A
100
AcDbEntity
  8
0
  6
Continuous
100
AcDbLine
 10
335.9523476249383
 20
343.1656763884119
 30
0.0
 11
340.2803476249178
 21
342.3046763884365
 31
0.0
  0
LINE
  5
172B
330
A
100
AcDbEntity
  8
0
  6
Continuous
100
AcDbLine
 10
342.2653476249038
 20
341.2786763884239
 30
0.0
 11
344.5403476249271
 21
339.7406763884235
 31
0.0
  0
LINE
  5
172C
330
A
100
AcDbEntity
  8
0
  6
Continuous
100
AcDbLine
 10
342.2743476249238
 20
347.9346763884121
 30
0.0
 11
336.5423476249057
 21
349.0736763884076
 31
0.0
  0
LINE
  5
172D
330
A
100
AcDbEntity
  8
0
  6
Continuous
100
AcDbLine
 10
348.0733476249229
 20
344.4986763884251
 30
0.0
 11
345.317347624929
 21
346.3606763884189
 31
0.0
  0
LINE
  5
172E
330
A
100
AcDbEntity
  8
0
  6
Continuous
100
AcDbLine
 10
346.6423476249406
 20
338.068676388403
 30
0.0
 11
347.083347624874
 21
338.068676388403
 31
0.0
  0
LINE
  5
172F
330
A
100
AcDbEntity
  8
0
  6
Continuous
100
AcDbLine
 10
347.083347624874
 20
338.068676388403
 30
0.0
 11
347.9113476249117
 21
338.068676388403
 31
0.0
  0
LINE
  5
1730
330
A
100
AcDbEntity
  8
0
  6
Continuous
100
AcDbLine
 10
347.9113476249117
 20
338.068676388403
 30
0.0
 11
349.0263476249606
 21
338.068676388403
 31
0.0
  0
LINE
  5
1731
330
A
100
AcDbEntity
  8
0
  6
Continuous
100
AcDbLine
 10
349.0263476249606
 20
338.068676388403
 30
0.0
 11
350.2953476249318
 21
338.068676388403
 31
0.0
  0
LINE
  5
1732
330
A
100
AcDbEntity
  8
0
  6
Continuous
100
AcDbLine
 10
350.2953476249318
 20
338.068676388403
 30
0.0
 11
351.5633476249136
 21
338.068676388403
 31
0.0
  0
LINE
  5
1733
330
A
100
AcDbEntity
  8
0
  6
Continuous
100
AcDbLine
 10
351.5633476249136
 20
338.068676388403
 30
0.0
 11
352.6793476249518
 21
338.068676388403
 31
0.0
  0
LINE
  5
1734
330
A
100
AcDbEntity
  8
0
  6
Continuous
100
AcDbLine
 10
353.3773476249266
 20
338.068676388403
 30
0.0
 11
353.4623476249476
 21
338.1296763884191
 31
0.0
  0
LINE
  5
1735
330
A
100
AcDbEntity
  8
0
  6
Continuous
100
AcDbLine
 10
352.6793476249518
 20
338.068676388403
 30
0.0
 11
353.3773476249266
 21
338.068676388403
 31
0.0
  0
LINE
  5
1736
330
A
100
AcDbEntity
  8
0
  6
Continuous
100
AcDbLine
 10
353.7543476249634
 20
338.336676388414
 30
0.0
 11
351.0003476248899
 21
342.1706763884165
 31
0.0
  0
LINE
  5
1737
330
A
100
AcDbEntity
  8
0
  6
Continuous
100
AcDbLine
 10
353.4623476249476
 20
338.1296763884191
 30
0.0
 11
353.7543476249634
 21
338.336676388414
 31
0.0
  0
LINE
  5
1738
330
A
100
AcDbEntity
  8
0
  6
Continuous
100
AcDbLine
 10
351.0003476248899
 20
342.1706763884165
 30
0.0
 11
348.0733476249229
 21
344.4986763884251
 31
0.0
  0
LINE
  5
1739
330
A
100
AcDbEntity
  8
0
  6
Continuous
100
AcDbLine
 10
344.5403476249271
 20
339.7406763884235
 30
0.0
 11
346.6423476249406
 21
338.068676388403
 31
0.0
  0
LINE
  5
173A
330
A
100
AcDbEntity
  8
0
  6
Continuous
100
AcDbLine
 10
345.317347624929
 20
346.3606763884189
 30
0.0
 11
342.2743476249238
 21
347.9346763884121
 31
0.0
  0
LINE
  5
173B
330
A
100
AcDbEntity
  8
0
  6
Continuous
100
AcDbLine
 10
340.2803476249178
 20
342.3046763884365
 30
0.0
 11
342.2653476249038
 21
341.2786763884239
 31
0.0
  0
ARC
  5
1747
330
A
100
AcDbEntity
  8
MODEL
100
AcDbCircle
 10
308.3225075864018
 20
346.1196763884098
 30
0.0
 40
6.025885848671948
100
AcDbArc
 50
150.6450639189325
 51
209.3549360810692
  0
LINE
  5
1748
330
A
100
AcDbEntity
  8
MODEL
100
AcDbLine
 10
303.0703476248968
 20
343.1656763884118
 30
0.0
 11
303.0703476248968
 21
322.1196763884098
 31
0.0
  0
LINE
  5
1749
330
A
100
AcDbEntity
  8
MODEL
100
AcDbLine
 10
258.2124163214968
 20
176.1196763884098
 30
0.0
 11
321.9282789282968
 21
176.1196763884098
 31
0.0
  0
DIMENSION
  5
174E
330
A
100
AcDbEntity
  8
DIM
100
AcDbDimension
  2
*D22
 10
173.1679144194852
 20
157.3034742958371
 30
0.0
 11
140.6679144194852
 21
164.8044121475315
 31
0.0
 70
    32
 71
     5
 42
65.0
 73
     0
 74
     0
 75
     0
  3
tfrom線あり
100
AcDbAlignedDimension
 13
108.1679144194852
 23
179.1196763884098
 33
0.0
 14
173.1679144194852
 24
179.1196763884098
 34
0.0
100
AcDbRotatedDimension
1001
ACAD
1000
DSTYLE
1002
{
1070
     3
1000
%%c<>
1002
}
  0
DIMENSION
  5
176C
330
A
100
AcDbEntity
  8
DIM
100
AcDbDimension
  2
*D24
 10
353.5703476248968
 20
372.6481345563071
 30
0.0
 11
305.5703476248968
 21
380.1481345563071
 31
0.0
 70
    32
 71
     5
 42
96.0
 73
     0
 74
     0
 75
     0
  3
tfrom線あり
100
AcDbAlignedDimension
 13
257.5703476248968
 23
317.1196763884098
 33
0.0
 14
353.5703476248968
 24
338.3225305554139
 34
0.0
100
AcDbRotatedDimension
  0
LINE
  5
177E
330
A
100
AcDbEntity
  8
MODEL
100
AcDbLine
 10
108.1679144194852
 20
317.1196763884098
 30
0.0
 11
173.1679144194852
 21
317.1196763884098
 31
0.0
  0
LINE
  5
177F
330
A
100
AcDbEntity
  8
MODEL
100
AcDbLine
 10
127.6679144194852
 20
355.1196763884099
 30
0.0
 11
153.6679144194852
 21
355.1196763884098
 31
0.0
  0
LINE
  5
1780
102
{ACAD_REACTORS
330
17A1
102
}
330
A
100
AcDbEntity
  8
MODEL
100
AcDbLine
 10
127.6679144194852
 20
355.1196763884099
 30
0.0
 11
127.6679144194852
 21
322.1196763884098
 31
0.0
  0
LINE
  5
1781
330
A
100
AcDbEntity
  8
MODEL
100
AcDbLine
 10
129.5503448659947
 20
322.1196763884098
 30
0.0
 11
129.5503448659947
 21
317.1196763884098
 31
0.0
  0
LINE
  5
1782
330
A
100
AcDbEntity
  8
MODEL
100
AcDbLine
 10
151.7854839729757
 20
322.1196763884098
 30
0.0
 11
151.7854839729757
 21
317.1196763884098
 31
0.0
  0
LINE
  5
1783
330
A
100
AcDbEntity
  8
MODEL
100
AcDbLine
 10
108.1679144194852
 20
313.1196763884098
 30
0.0
 11
173.1679144194852
 21
313.1196763884098
 31
0.0
  0
LINE
  5
1786
330
A
100
AcDbEntity
  8
MODEL
100
AcDbLine
 10
127.6679144194852
 20
322.1196763884098
 30
0.0
 11
153.6679144194852
 21
322.1196763884098
 31
0.0
  0
LINE
  5
179C
330
A
100
AcDbEntity
  8
MODEL
100
AcDbLine
 10
153.6679144194852
 20
355.1196763884098
 30
0.0
 11
153.6679144194852
 21
322.1196763884098
 31
0.0
  0
DIMENSION
  5
179F
102
{ACAD_REACTORS
330
17A1
102
}
102
{ACAD_XDICTIONARY
360
17A0
102
}
330
A
100
AcDbEntity
  8
DIM
100
AcDbDimension
  2
*D25
 10
82.66484248567122
 20
355.1196763884099
 30
0.0
 11
75.16390463397681
 21
265.6196763884099
 31
0.0
 70
    32
 71
     5
 42
179.0000000000001
 73
     0
 74
     0
 75
     0
  3
tfrom線あり
100
AcDbAlignedDimension
 13
108.1679144194852
 23
176.1196763884098
 33
0.0
 14
127.6679144194852
 24
355.1196763884099
 34
0.0
 50
90.0
100
AcDbRotatedDimension
  0
LINE
  5
17B2
330
A
100
AcDbEntity
  8
MODEL
100
AcDbLine
 10
143.6219144194831
 20
338.068676388403
 30
0.0
 11
137.7139144194873
 21
338.068676388403
 31
0.0
  0
ARC
  5
17B4
330
A
100
AcDbEntity
  8
MODEL
100
AcDbCircle
 10
140.6679144194852
 20
346.1196763884098
 30
0.0
 40
2.953999999997876
100
AcDbArc
 50
0.0
 51
180.0
  0
LINE
  5
17B5
330
A
100
AcDbEntity
  8
MODEL
100
AcDbLine
 10
137.7139144194873
 20
346.1196763884098
 30
0.0
 11
137.7139144194873
 21
338.068676388403
 31
0.0
  0
LINE
  5
17B6
330
A
100
AcDbEntity
  8
MODEL
100
AcDbLine
 10
143.6219144194831
 20
346.1196763884098
 30
0.0
 11
143.6219144194831
 21
338.068676388403
 31
0.0
  0
ARC
  5
17B9
330
A
100
AcDbEntity
  8
MODEL
100
AcDbCircle
 10
140.6679144194852
 20
473.2879773503836
 30
0.0
 40
32.5
100
AcDbArc
 50
275.2149429653197
 51
264.7850570346804
  0
CIRCLE
  5
17BB
330
A
100
AcDbEntity
  8
MODEL
100
AcDbCircle
 10
140.6679144194852
 20
473.2879773503836
 30
0.0
 40
12.99999999999989
  0
LINE
  5
1804
330
A
100
AcDbEntity
  8
MODEL
100
AcDbLine
 10
137.7139144194873
 20
412.5579773503151
 30
0.0
 11
137.7139144194873
 21
460.6280451230764
 31
0.0
  0
LINE
  5
1805
330
A
100
AcDbEntity
  8
MODEL
100
AcDbLine
 10
143.6219144194832
 20
412.5579773503151
 30
0.0
 11
143.6219144194832
 21
460.6280451230765
 31
0.0
  0
ARC
  5
1806
330
A
100
AcDbEntity
  8
MODEL
100
AcDbCircle
 10
140.6679144194852
 20
412.5579773503151
 30
0.0
 40
2.953999999998018
100
AcDbArc
 50
180.0
 51
0.0
  0
MTEXT
  5
1842
102
{ACAD_XDICTIONARY
360
1843
102
}
330
A
100
AcDbEntity
  8
TEMPLATE
 48
0.05
100
AcDbMText
 10
14.94633491055016
 20
16.56297845578824
 30
0.0
 40
4.4
 41
0.0
 46
4.4
 71
     1
 72
     1
  1
{20201111N}
  7
ＭＳ ゴシック
 73
     1
 44
1.0
1001
ACAD
1000
ACAD_MTEXT_DEFINED_HEIGHT_BEGIN
1070
    46
1040
4.4
1000
ACAD_MTEXT_DEFINED_HEIGHT_END
  0
HATCH
  5
1847
330
A
100
AcDbEntity
  8
TEMPLATE
100
AcDbHatch
 10
0.0
 20
0.0
 30
0.0
210
0.0
220
0.0
230
1.0
  2
SOLID
 70
     1
 71
     1
 91
        6
 92
        1
 93
        8
 72
     1
 10
386.8293264743211
 20
30.63428306688631
 11
386.8293264743211
 21
29.45240154075422
 72
     1
 10
386.8293264743211
 20
29.45240154075422
 11
384.9572081642591
 21
29.45240154075422
 72
     1
 10
384.9572081642591
 20
29.45240154075422
 11
384.9572081642591
 21
24.6342830671755
 72
     1
 10
384.9572081642591
 20
24.6342830671755
 11
383.3106855336041
 21
24.6342830671755
 72
     1
 10
383.3106855336041
 20
24.6342830671755
 11
383.3106855336041
 21
29.45240154075422
 72
     1
 10
383.3106855336041
 20
29.45240154075422
 11
381.471745246695
 21
29.45240154075422
 72
     1
 10
381.471745246695
 20
29.45240154075422
 11
381.471745246695
 21
30.63428306688631
 72
     1
 10
381.471745246695
 20
30.63428306688631
 11
386.8293264743211
 21
30.63428306688631
 97
        1
330
1848
 92
        1
 93
        1
 72
     4
 94
        3
 73
     0
 74
     1
 95
       56
 96
       52
 40
0.0
 40
0.0
 40
0.0
 40
0.0
 40
1.0
 40
1.0
 40
1.0
 40
2.0
 40
2.0
 40
2.0
 40
3.0
 40
3.0
 40
3.0
 40
4.0
 40
4.0
 40
4.0
 40
5.0
 40
5.0
 40
5.0
 40
6.0
 40
6.0
 40
6.0
 40
7.0
 40
7.0
 40
7.0
 40
8.0
 40
8.0
 40
8.0
 40
9.0
 40
9.0
 40
9.0
 40
10.0
 40
10.0
 40
10.0
 40
11.0
 40
11.0
 40
11.0
 40
12.0
 40
12.0
 40
12.0
 40
13.0
 40
13.0
 40
13.0
 40
14.0
 40
14.0
 40
14.0
 40
15.0
 40
15.0
 40
15.0
 40
16.0
 40
16.0
 40
16.0
 40
17.0
 40
17.0
 40
17.0
 40
17.0
 10
389.3377635611796
 20
30.49140927480384
 10
389.5685367975636
 20
30.5563667856059
 10
389.8664546162306
 20
30.50203219342792
 10
389.8664546162306
 20
30.50203219342792
 10
389.8664546162306
 20
30.50203219342792
 10
389.7233278975139
 20
30.07251813494322
 10
389.7233278975139
 20
30.07251813494322
 10
389.7233278975139
 20
30.07251813494322
 10
389.4308554404947
 20
30.14019832656906
 10
389.2052746391244
 20
29.96231651274654
 10
389.0299816037909
 20
29.82320686409808
 10
388.9164175451665
 20
29.45357690570002
 10
388.8728546519856
 20
29.31303896547185
 10
388.8728546519856
 20
29.31303896547185
 10
388.6786367532202
 20
28.71690576739211
 10
388.6786367532202
 20
28.71690576739211
 10
388.6786367532202
 20
28.71690576739211
 10
389.3154613832842
 20
28.71690576739211
 10
389.3154613832842
 20
28.71690576739211
 10
389.3154613832842
 20
28.71690576739211
 10
389.2164182890538
 20
28.3417114230481
 10
389.2164182890538
 20
28.3417114230481
 10
389.2164182890538
 20
28.3417114230481
 10
388.5744012239761
 20
28.3417114230481
 10
388.5744012239761
 20
28.3417114230481
 10
388.5744012239761
 20
28.3417114230481
 10
387.425712599035
 20
24.6342830671755
 10
387.425712599035
 20
24.6342830671755
 10
387.425712599035
 20
24.6342830671755
 10
387.0660658036575
 20
24.6342830671755
 10
387.0660658036575
 20
24.6342830671755
 10
387.0660658036575
 20
24.6342830671755
 10
388.2157958912089
 20
28.3417114230481
 10
388.2157958912089
 20
28.3417114230481
 10
388.2157958912089
 20
28.3417114230481
 10
387.7420494278654
 20
28.3417114230481
 10
387.7420494278654
 20
28.3417114230481
 10
387.7420494278654
 20
28.3417114230481
 10
387.8413603267666
 20
28.71690576739211
 10
387.8413603267666
 20
28.71690576739211
 10
387.8413603267666
 20
28.71690576739211
 10
388.320031420453
 20
28.71690576739211
 10
388.320031420453
 20
28.71690576739211
 10
388.320031420453
 20
28.71690576739211
 10
388.4893434847977
 20
29.23680390240507
 10
388.4893434847977
 20
29.23680390240507
 10
388.6262511839268
 20
29.67268576084926
 10
388.7424188990767
 20
29.90670240936173
 10
388.8419976026489
 20
30.08314105356727
 10
388.9405199655739
 20
30.2597284781457
 10
389.1355115222786
 20
30.43319151489355
 10
389.3377635611796
 20
30.49140927480384
 97
        1
330
1853
 92
        1
 93
        1
 72
     4
 94
        3
 73
     0
 74
     1
 95
       32
 96
       28
 40
0.0
 40
0.0
 40
0.0
 40
0.0
 40
1.0
 40
1.0
 40
1.0
 40
2.0
 40
2.0
 40
2.0
 40
3.0
 40
3.0
 40
3.0
 40
4.0
 40
4.0
 40
4.0
 40
5.0
 40
5.0
 40
5.0
 40
6.0
 40
6.0
 40
6.0
 40
7.0
 40
7.0
 40
7.0
 40
8.0
 40
8.0
 40
8.0
 40
9.0
 40
9.0
 40
9.0
 40
9.0
 10
390.212874836458
 20
28.49016447911377
 10
389.9963696378345
 20
28.2101151832304
 10
389.8296463519785
 20
27.95808123156142
 10
389.5597289994885
 20
27.16592989220432
 10
389.3115782155519
 20
26.4413397201747
 10
389.1536627277708
 20
25.91418110296495
 10
389.1298132339975
 20
25.27216403788712
 10
389.1116620285047
 20
24.79440050447546
 10
389.4025871696463
 20
24.6342830671755
 10
389.8291404987103
 20
24.6342830671755
 10
390.0129735274488
 20
24.6342830671755
 10
390.4768707301073
 20
24.64597720448437
 10
390.8072226700638
 20
25.05434957198194
 10
391.0384868816773
 20
25.34125764305539
 10
391.2516296438739
 20
25.63866960845458
 10
391.5373772280386
 20
26.61428202561747
 10
391.7751580199854
 20
27.4298960297787
 10
391.9397983806207
 20
27.95703976895122
 10
391.9276281461189
 20
28.25717441517425
 10
391.9276281461189
 20
28.25717441517425
 10
391.9276281461189
 20
28.25717441517425
 10
391.9276281461189
 20
28.25717441517425
 10
391.8500838157709
 20
28.75787988208491
 10
391.486553852661
 20
28.86367760524418
 10
391.2788564521122
 20
28.86367760524418
 10
391.0742834393936
 20
28.86367760524418
 10
390.5261170335325
 20
28.89907245595374
 10
390.212874836458
 20
28.49016447911377
 97
        1
330
1856
 92
        1
 93
        1
 72
     4
 94
        3
 73
     0
 74
     1
 95
       38
 96
       34
 40
0.0
 40
0.0
 40
0.0
 40
0.0
 40
1.0
 40
1.0
 40
1.0
 40
2.0
 40
2.0
 40
2.0
 40
3.0
 40
3.0
 40
3.0
 40
4.0
 40
4.0
 40
4.0
 40
5.0
 40
5.0
 40
5.0
 40
6.0
 40
6.0
 40
6.0
 40
7.0
 40
7.0
 40
7.0
 40
8.0
 40
8.0
 40
8.0
 40
9.0
 40
9.0
 40
9.0
 40
10.0
 40
10.0
 40
10.0
 40
11.0
 40
11.0
 40
11.0
 40
11.0
 10
393.2425193256111
 20
28.70251870533401
 10
393.2425193256111
 20
28.70251870533401
 10
393.6122683083076
 20
28.70251870533401
 10
393.6122683083076
 20
28.70251870533401
 10
393.6122683083076
 20
28.70251870533401
 10
393.4470923383296
 20
28.1736788699106
 10
393.4470923383296
 20
28.1736788699106
 10
393.5726034608961
 20
28.32213192597628
 10
393.7706896493567
 20
28.51984616350454
 10
393.9408051277144
 20
28.61954389137547
 10
394.1949220046038
 20
28.76799694744112
 10
394.3401316485404
 20
28.78757644451296
 10
394.4998325007964
 20
28.78367839874333
 10
394.4998325007964
 20
28.78367839874333
 10
394.3437618896392
 20
28.28362756547334
 10
394.3437618896392
 20
28.28362756547334
 10
394.242115138883
 20
28.32666972734931
 10
393.9288729418092
 20
28.24473637600097
 10
393.7491760074372
 20
28.11547598803757
 10
393.5871244252899
 20
27.99892144391866
 10
393.4750928045066
 20
27.89974444735283
 10
393.3423509558177
 20
27.6504182984704
 10
393.2106208136643
 20
27.40072019865578
 10
393.1066530890917
 20
27.00256904277545
 10
392.9277298126588
 20
26.42497387915729
 10
392.9277298126588
 20
26.42497387915729
 10
392.3689404881734
 20
24.6342830671755
 10
392.3689404881734
 20
24.6342830671755
 10
392.3689404881734
 20
24.6342830671755
 10
392.0100822287723
 20
24.6342830671755
 10
392.0100822287723
 20
24.6342830671755
 10
392.0100822287723
 20
24.6342830671755
 10
393.2425193256111
 20
28.70251870533401
 10
393.2425193256111
 20
28.70251870533401
 97
        1
330
1854
 92
        1
 93
        1
 72
     4
 94
        3
 73
     0
 74
     1
 95
      104
 96
      100
 40
0.0
 40
0.0
 40
0.0
 40
0.0
 40
1.0
 40
1.0
 40
1.0
 40
2.0
 40
2.0
 40
2.0
 40
3.0
 40
3.0
 40
3.0
 40
4.0
 40
4.0
 40
4.0
 40
5.0
 40
5.0
 40
5.0
 40
6.0
 40
6.0
 40
6.0
 40
7.0
 40
7.0
 40
7.0
 40
8.0
 40
8.0
 40
8.0
 40
9.0
 40
9.0
 40
9.0
 40
10.0
 40
10.0
 40
10.0
 40
11.0
 40
11.0
 40
11.0
 40
12.0
 40
12.0
 40
12.0
 40
13.0
 40
13.0
 40
13.0
 40
14.0
 40
14.0
 40
14.0
 40
15.0
 40
15.0
 40
15.0
 40
16.0
 40
16.0
 40
16.0
 40
17.0
 40
17.0
 40
17.0
 40
18.0
 40
18.0
 40
18.0
 40
19.0
 40
19.0
 40
19.0
 40
20.0
 40
20.0
 40
20.0
 40
21.0
 40
21.0
 40
21.0
 40
22.0
 40
22.0
 40
22.0
 40
23.0
 40
23.0
 40
23.0
 40
24.0
 40
24.0
 40
24.0
 40
25.0
 40
25.0
 40
25.0
 40
26.0
 40
26.0
 40
26.0
 40
27.0
 40
27.0
 40
27.0
 40
28.0
 40
28.0
 40
28.0
 40
29.0
 40
29.0
 40
29.0
 40
30.0
 40
30.0
 40
30.0
 40
31.0
 40
31.0
 40
31.0
 40
32.0
 40
32.0
 40
32.0
 40
33.0
 40
33.0
 40
33.0
 40
33.0
 10
395.2777455584687
 20
28.70472065485272
 10
395.2777455584687
 20
28.70472065485272
 10
395.6005692115564
 20
28.70472065485272
 10
395.6005692115564
 20
28.70472065485272
 10
395.6005692115564
 20
28.70472065485272
 10
395.4374761667987
 20
28.1753749661615
 10
395.4374761667987
 20
28.1753749661615
 10
395.5790258135626
 20
28.39732552643288
 10
395.7060842520073
 20
28.49624959636482
 10
395.8748904630841
 20
28.6240816927485
 10
396.0442025274283
 20
28.75009866858294
 10
396.2451750551224
 20
28.77577816094309
 10
396.3846715327404
 20
28.77577816094309
 10
396.5573757895866
 20
28.77577816094309
 10
396.7240990754428
 20
28.74167769947762
 10
396.8117307150724
 20
28.55238443105473
 10
396.8788901753937
 20
28.40394625302632
 10
396.8820145632239
 20
28.38643480313762
 10
396.8628218951217
 20
28.09342673677587
 10
397.0383529790527
 20
28.39382918767005
 10
397.1680001959853
 20
28.52322347796904
 10
397.3884034403786
 20
28.64754435755263
 10
397.6196974080676
 20
28.77577816094309
 10
397.7545221819769
 20
28.78537449499426
 10
397.9111581585512
 20
28.76228378112232
 10
398.1419165168975
 20
28.72819819769414
 10
398.2892090860548
 20
28.645863139339
 10
398.3662178070606
 20
28.39564430821927
 10
398.4434943327376
 20
28.14619913503854
 10
398.4017465601059
 20
28.01240094570214
 10
398.3063188289366
 20
27.61529125243202
 10
398.2627559357556
 20
27.43443383115174
 10
398.199732569801
 20
27.21544400030079
 10
398.1172784871474
 20
26.95487005522817
 10
398.1172784871474
 20
26.95487005522817
 10
397.3884034403786
 20
24.6342830671755
 10
397.3884034403786
 20
24.6342830671755
 10
397.3884034403786
 20
24.6342830671755
 10
397.0093110502653
 20
24.6342830671755
 10
397.0093110502653
 20
24.6342830671755
 10
397.0093110502653
 20
24.6342830671755
 10
397.6474598256477
 20
26.66302247577492
 10
397.6474598256477
 20
26.66302247577492
 10
397.7807372836794
 20
27.08749287961881
 10
397.8709577017974
 20
27.39747678652684
 10
397.917644982809
 20
27.59182858762789
 10
397.9762346936513
 20
27.83426620524567
 10
397.9995634561201
 20
27.91426541174648
 10
397.9718307946141
 20
28.09071893398935
 10
397.9464191069251
 20
28.25497246565551
 10
397.8634294149292
 20
28.36193067572331
 10
397.7213441588233
 20
28.36193067572331
 10
397.5699154952995
 20
28.36193067572331
 10
397.4472609558925
 20
28.34507385947528
 10
397.2756279177311
 20
28.17265228533766
 10
397.1039651234955
 20
27.99892144391866
 10
396.9621179159858
 20
27.79498818680376
 10
396.8508897092161
 20
27.56045080698622
 10
396.739899551043
 20
27.32448513558897
 10
396.6273620769921
 20
27.02539195197618
 10
396.5132772870631
 20
26.66302247577492
 10
396.5132772870631
 20
26.66302247577492
 10
395.8748904630841
 20
24.6342830671755
 10
395.8748904630841
 20
24.6342830671755
 10
395.8748904630841
 20
24.6342830671755
 10
395.5183531774999
 20
24.6342830671755
 10
395.5183531774999
 20
24.6342830671755
 10
395.5183531774999
 20
24.6342830671755
 10
396.2482696868788
 20
26.95382859261797
 10
396.2482696868788
 20
26.95382859261797
 10
396.3252784078845
 20
27.20068498731051
 10
396.3831242168624
 20
27.40189556360154
 10
396.4212417483959
 20
27.5591564177421
 10
396.4860504788251
 20
27.82986230620826
 10
396.5042016843174
 20
28.01292167700721
 10
396.4551934294884
 20
28.1753749661615
 10
396.4069588325988
 20
28.33730752401068
 10
396.3221837761287
 20
28.37866846767297
 10
396.1806043732902
 20
28.37866846767297
 10
396.0618478796528
 20
28.37866846767297
 10
395.9459479691741
 20
28.32771118995952
 10
395.813711973753
 20
28.22631736583769
 10
395.6472267364934
 20
28.09875307412516
 10
395.580602885515
 20
27.99399681357612
 10
395.4989224608007
 20
27.86952715361967
 10
395.3887059605668
 20
27.70487191494668
 10
395.33710892725
 20
27.59403053714659
 10
395.2440319259724
 20
27.3508043835525
 10
395.1509251686205
 20
27.10614993837872
 10
395.0627876757226
 20
26.82144381682399
 10
395.0013116256459
 20
26.62451811527201
 10
395.0013116256459
 20
26.62451811527201
 10
394.3751247922432
 20
24.6342830671755
 10
394.3751247922432
 20
24.6342830671755
 10
394.3751247922432
 20
24.6342830671755
 10
394.0017455684488
 20
24.6342830671755
 10
394.0017455684488
 20
24.6342830671755
 10
394.0017455684488
 20
24.6342830671755
 10
395.2777455584687
 20
28.70472065485272
 10
395.2777455584687
 20
28.70472065485272
 97
        1
330
1855
 92
       16
 93
        1
 72
     4
 94
        3
 73
     0
 74
     1
 95
       29
 96
       25
 40
0.0
 40
0.0
 40
0.0
 40
0.0
 40
1.0
 40
1.0
 40
1.0
 40
2.0
 40
2.0
 40
2.0
 40
3.0
 40
3.0
 40
3.0
 40
4.0
 40
4.0
 40
4.0
 40
5.0
 40
5.0
 40
5.0
 40
6.0
 40
6.0
 40
6.0
 40
7.0
 40
7.0
 40
7.0
 40
8.0
 40
8.0
 40
8.0
 40
8.0
 10
389.5172075689175
 20
25.39220004273157
 10
389.5156304969651
 20
25.67562665307945
 10
389.6051070132189
 20
26.17918870314953
 10
389.8343180556872
 20
26.85295549980127
 10
390.1465187901508
 20
27.76529162437571
 10
390.3337440113908
 20
28.09875307412516
 10
390.497580958013
 20
28.26107246094385
 10
390.736938821912
 20
28.49742496131061
 10
391.0587210123899
 20
28.5092083668432
 10
391.1536428902914
 20
28.49742496131061
 10
391.2887354688717
 20
28.48120790066604
 10
391.4795611751354
 20
28.39278772505988
 10
391.4909577516987
 20
28.09512283302676
 10
391.5000631105192
 20
27.84036620053401
 10
391.4266548745372
 20
27.36325730076304
 10
391.1697111705628
 20
26.61428202561747
 10
390.873578716371
 20
25.74394660030872
 10
390.695696902548
 20
25.40181125482
 10
390.5531057931739
 20
25.25270356511361
 10
390.284467951891
 20
24.97317500053533
 10
389.9963696378345
 20
25.00001497980396
 10
389.9538482072635
 20
25.00001497980396
 10
389.8986209328484
 20
25.00001497980396
 10
389.5179812268566
 20
25.05994371400247
 10
389.5172075689175
 20
25.39220004273157
 97
        1
330
1857
 75
     0
 76
     1
 98
        1
 10
371.8009466189164
 20
14.4667216523675
1001
ACAD
1010
0.0
1020
0.0
1030
0.0
  0
POLYLINE
  5
1848
102
{ACAD_REACTORS
330
1847
102
}
330
A
100
AcDbEntity
  8
TEMPLATE
100
AcDb2dPolyline
 66
     1
 10
0.0
 20
0.0
 30
0.0
  0
VERTEX
  5
1849
330
1848
100
AcDbEntity
  8
TEMPLATE
100
AcDbVertex
100
AcDb2dVertex
 10
386.8293264743211
 20
30.63428306688631
 30
0.0
  0
VERTEX
  5
184A
330
1848
100
AcDbEntity
  8
TEMPLATE
100
AcDbVertex
100
AcDb2dVertex
 10
386.8293264743211
 20
29.45240154075422
 30
0.0
  0
VERTEX
  5
184B
330
1848
100
AcDbEntity
  8
TEMPLATE
100
AcDbVertex
100
AcDb2dVertex
 10
384.9572081642591
 20
29.45240154075422
 30
0.0
  0
VERTEX
  5
184C
330
1848
100
AcDbEntity
  8
TEMPLATE
100
AcDbVertex
100
AcDb2dVertex
 10
384.9572081642591
 20
24.6342830671755
 30
0.0
  0
VERTEX
  5
184D
330
1848
100
AcDbEntity
  8
TEMPLATE
100
AcDbVertex
100
AcDb2dVertex
 10
383.3106855336041
 20
24.6342830671755
 30
0.0
  0
VERTEX
  5
184E
330
1848
100
AcDbEntity
  8
TEMPLATE
100
AcDbVertex
100
AcDb2dVertex
 10
383.3106855336041
 20
29.45240154075422
 30
0.0
  0
VERTEX
  5
184F
330
1848
100
AcDbEntity
  8
TEMPLATE
100
AcDbVertex
100
AcDb2dVertex
 10
381.471745246695
 20
29.45240154075422
 30
0.0
  0
VERTEX
  5
1850
330
1848
100
AcDbEntity
  8
TEMPLATE
100
AcDbVertex
100
AcDb2dVertex
 10
381.471745246695
 20
30.63428306688631
 30
0.0
  0
VERTEX
  5
1851
330
1848
100
AcDbEntity
  8
TEMPLATE
100
AcDbVertex
100
AcDb2dVertex
 10
386.8293264743211
 20
30.63428306688631
 30
0.0
  0
SEQEND
  5
1852
330
1848
100
AcDbEntity
  8
TEMPLATE
  0
SPLINE
  5
1853
102
{ACAD_REACTORS
330
1847
102
}
330
A
100
AcDbEntity
  8
TEMPLATE
100
AcDbSpline
210
0.0
220
0.0
230
1.0
 70
    11
 71
     3
 72
    56
 73
    52
 74
     0
 42
0.000000001
 43
0.0000000001
 40
0.0
 40
0.0
 40
0.0
 40
0.0
 40
1.0
 40
1.0
 40
1.0
 40
2.0
 40
2.0
 40
2.0
 40
3.0
 40
3.0
 40
3.0
 40
4.0
 40
4.0
 40
4.0
 40
5.0
 40
5.0
 40
5.0
 40
6.0
 40
6.0
 40
6.0
 40
7.0
 40
7.0
 40
7.0
 40
8.0
 40
8.0
 40
8.0
 40
9.0
 40
9.0
 40
9.0
 40
10.0
 40
10.0
 40
10.0
 40
11.0
 40
11.0
 40
11.0
 40
12.0
 40
12.0
 40
12.0
 40
13.0
 40
13.0
 40
13.0
 40
14.0
 40
14.0
 40
14.0
 40
15.0
 40
15.0
 40
15.0
 40
16.0
 40
16.0
 40
16.0
 40
17.0
 40
17.0
 40
17.0
 40
17.0
 10
389.3377635611796
 20
30.49140927480384
 30
0.0
 10
389.5685367975636
 20
30.5563667856059
 30
0.0
 10
389.8664546162306
 20
30.50203219342792
 30
0.0
 10
389.8664546162306
 20
30.50203219342792
 30
0.0
 10
389.8664546162306
 20
30.50203219342792
 30
0.0
 10
389.7233278975139
 20
30.07251813494322
 30
0.0
 10
389.7233278975139
 20
30.07251813494322
 30
0.0
 10
389.7233278975139
 20
30.07251813494322
 30
0.0
 10
389.4308554404947
 20
30.14019832656906
 30
0.0
 10
389.2052746391244
 20
29.96231651274654
 30
0.0
 10
389.0299816037909
 20
29.82320686409808
 30
0.0
 10
388.9164175451665
 20
29.45357690570002
 30
0.0
 10
388.8728546519856
 20
29.31303896547185
 30
0.0
 10
388.8728546519856
 20
29.31303896547185
 30
0.0
 10
388.6786367532202
 20
28.71690576739211
 30
0.0
 10
388.6786367532202
 20
28.71690576739211
 30
0.0
 10
388.6786367532202
 20
28.71690576739211
 30
0.0
 10
389.3154613832842
 20
28.71690576739211
 30
0.0
 10
389.3154613832842
 20
28.71690576739211
 30
0.0
 10
389.3154613832842
 20
28.71690576739211
 30
0.0
 10
389.2164182890538
 20
28.3417114230481
 30
0.0
 10
389.2164182890538
 20
28.3417114230481
 30
0.0
 10
389.2164182890538
 20
28.3417114230481
 30
0.0
 10
388.5744012239761
 20
28.3417114230481
 30
0.0
 10
388.5744012239761
 20
28.3417114230481
 30
0.0
 10
388.5744012239761
 20
28.3417114230481
 30
0.0
 10
387.425712599035
 20
24.6342830671755
 30
0.0
 10
387.425712599035
 20
24.6342830671755
 30
0.0
 10
387.425712599035
 20
24.6342830671755
 30
0.0
 10
387.0660658036575
 20
24.6342830671755
 30
0.0
 10
387.0660658036575
 20
24.6342830671755
 30
0.0
 10
387.0660658036575
 20
24.6342830671755
 30
0.0
 10
388.2157958912089
 20
28.3417114230481
 30
0.0
 10
388.2157958912089
 20
28.3417114230481
 30
0.0
 10
388.2157958912089
 20
28.3417114230481
 30
0.0
 10
387.7420494278654
 20
28.3417114230481
 30
0.0
 10
387.7420494278654
 20
28.3417114230481
 30
0.0
 10
387.7420494278654
 20
28.3417114230481
 30
0.0
 10
387.8413603267666
 20
28.71690576739211
 30
0.0
 10
387.8413603267666
 20
28.71690576739211
 30
0.0
 10
387.8413603267666
 20
28.71690576739211
 30
0.0
 10
388.320031420453
 20
28.71690576739211
 30
0.0
 10
388.320031420453
 20
28.71690576739211
 30
0.0
 10
388.320031420453
 20
28.71690576739211
 30
0.0
 10
388.4893434847977
 20
29.23680390240507
 30
0.0
 10
388.4893434847977
 20
29.23680390240507
 30
0.0
 10
388.6262511839268
 20
29.67268576084926
 30
0.0
 10
388.7424188990767
 20
29.90670240936173
 30
0.0
 10
388.8419976026489
 20
30.08314105356727
 30
0.0
 10
388.9405199655739
 20
30.2597284781457
 30
0.0
 10
389.1355115222786
 20
30.43319151489355
 30
0.0
 10
389.3377635611796
 20
30.49140927480384
 30
0.0
  0
SPLINE
  5
1854
102
{ACAD_REACTORS
330
1847
102
}
330
A
100
AcDbEntity
  8
TEMPLATE
100
AcDbSpline
210
0.0
220
0.0
230
1.0
 70
    11
 71
     3
 72
    38
 73
    34
 74
     0
 42
0.000000001
 43
0.0000000001
 40
0.0
 40
0.0
 40
0.0
 40
0.0
 40
1.0
 40
1.0
 40
1.0
 40
2.0
 40
2.0
 40
2.0
 40
3.0
 40
3.0
 40
3.0
 40
4.0
 40
4.0
 40
4.0
 40
5.0
 40
5.0
 40
5.0
 40
6.0
 40
6.0
 40
6.0
 40
7.0
 40
7.0
 40
7.0
 40
8.0
 40
8.0
 40
8.0
 40
9.0
 40
9.0
 40
9.0
 40
10.0
 40
10.0
 40
10.0
 40
11.0
 40
11.0
 40
11.0
 40
11.0
 10
393.2425193256111
 20
28.70251870533401
 30
0.0
 10
393.2425193256111
 20
28.70251870533401
 30
0.0
 10
393.6122683083076
 20
28.70251870533401
 30
0.0
 10
393.6122683083076
 20
28.70251870533401
 30
0.0
 10
393.6122683083076
 20
28.70251870533401
 30
0.0
 10
393.4470923383296
 20
28.1736788699106
 30
0.0
 10
393.4470923383296
 20
28.1736788699106
 30
0.0
 10
393.5726034608961
 20
28.32213192597628
 30
0.0
 10
393.7706896493567
 20
28.51984616350454
 30
0.0
 10
393.9408051277144
 20
28.61954389137547
 30
0.0
 10
394.1949220046038
 20
28.76799694744112
 30
0.0
 10
394.3401316485404
 20
28.78757644451296
 30
0.0
 10
394.4998325007964
 20
28.78367839874333
 30
0.0
 10
394.4998325007964
 20
28.78367839874333
 30
0.0
 10
394.3437618896392
 20
28.28362756547334
 30
0.0
 10
394.3437618896392
 20
28.28362756547334
 30
0.0
 10
394.242115138883
 20
28.32666972734931
 30
0.0
 10
393.9288729418092
 20
28.24473637600097
 30
0.0
 10
393.7491760074372
 20
28.11547598803757
 30
0.0
 10
393.5871244252899
 20
27.99892144391866
 30
0.0
 10
393.4750928045066
 20
27.89974444735283
 30
0.0
 10
393.3423509558177
 20
27.6504182984704
 30
0.0
 10
393.2106208136643
 20
27.40072019865578
 30
0.0
 10
393.1066530890917
 20
27.00256904277545
 30
0.0
 10
392.9277298126588
 20
26.42497387915729
 30
0.0
 10
392.9277298126588
 20
26.42497387915729
 30
0.0
 10
392.3689404881734
 20
24.6342830671755
 30
0.0
 10
392.3689404881734
 20
24.6342830671755
 30
0.0
 10
392.3689404881734
 20
24.6342830671755
 30
0.0
 10
392.0100822287723
 20
24.6342830671755
 30
0.0
 10
392.0100822287723
 20
24.6342830671755
 30
0.0
 10
392.0100822287723
 20
24.6342830671755
 30
0.0
 10
393.2425193256111
 20
28.70251870533401
 30
0.0
 10
393.2425193256111
 20
28.70251870533401
 30
0.0
  0
SPLINE
  5
1855
102
{ACAD_REACTORS
330
1847
102
}
330
A
100
AcDbEntity
  8
TEMPLATE
100
AcDbSpline
210
0.0
220
0.0
230
1.0
 70
    11
 71
     3
 72
   104
 73
   100
 74
     0
 42
0.000000001
 43
0.0000000001
 40
0.0
 40
0.0
 40
0.0
 40
0.0
 40
1.0
 40
1.0
 40
1.0
 40
2.0
 40
2.0
 40
2.0
 40
3.0
 40
3.0
 40
3.0
 40
4.0
 40
4.0
 40
4.0
 40
5.0
 40
5.0
 40
5.0
 40
6.0
 40
6.0
 40
6.0
 40
7.0
 40
7.0
 40
7.0
 40
8.0
 40
8.0
 40
8.0
 40
9.0
 40
9.0
 40
9.0
 40
10.0
 40
10.0
 40
10.0
 40
11.0
 40
11.0
 40
11.0
 40
12.0
 40
12.0
 40
12.0
 40
13.0
 40
13.0
 40
13.0
 40
14.0
 40
14.0
 40
14.0
 40
15.0
 40
15.0
 40
15.0
 40
16.0
 40
16.0
 40
16.0
 40
17.0
 40
17.0
 40
17.0
 40
18.0
 40
18.0
 40
18.0
 40
19.0
 40
19.0
 40
19.0
 40
20.0
 40
20.0
 40
20.0
 40
21.0
 40
21.0
 40
21.0
 40
22.0
 40
22.0
 40
22.0
 40
23.0
 40
23.0
 40
23.0
 40
24.0
 40
24.0
 40
24.0
 40
25.0
 40
25.0
 40
25.0
 40
26.0
 40
26.0
 40
26.0
 40
27.0
 40
27.0
 40
27.0
 40
28.0
 40
28.0
 40
28.0
 40
29.0
 40
29.0
 40
29.0
 40
30.0
 40
30.0
 40
30.0
 40
31.0
 40
31.0
 40
31.0
 40
32.0
 40
32.0
 40
32.0
 40
33.0
 40
33.0
 40
33.0
 40
33.0
 10
395.2777455584687
 20
28.70472065485272
 30
0.0
 10
395.2777455584687
 20
28.70472065485272
 30
0.0
 10
395.6005692115564
 20
28.70472065485272
 30
0.0
 10
395.6005692115564
 20
28.70472065485272
 30
0.0
 10
395.6005692115564
 20
28.70472065485272
 30
0.0
 10
395.4374761667987
 20
28.1753749661615
 30
0.0
 10
395.4374761667987
 20
28.1753749661615
 30
0.0
 10
395.5790258135626
 20
28.39732552643288
 30
0.0
 10
395.7060842520073
 20
28.49624959636482
 30
0.0
 10
395.8748904630841
 20
28.6240816927485
 30
0.0
 10
396.0442025274283
 20
28.75009866858294
 30
0.0
 10
396.2451750551224
 20
28.77577816094309
 30
0.0
 10
396.3846715327404
 20
28.77577816094309
 30
0.0
 10
396.5573757895866
 20
28.77577816094309
 30
0.0
 10
396.7240990754428
 20
28.74167769947762
 30
0.0
 10
396.8117307150724
 20
28.55238443105473
 30
0.0
 10
396.8788901753937
 20
28.40394625302632
 30
0.0
 10
396.8820145632239
 20
28.38643480313762
 30
0.0
 10
396.8628218951217
 20
28.09342673677587
 30
0.0
 10
397.0383529790527
 20
28.39382918767005
 30
0.0
 10
397.1680001959853
 20
28.52322347796904
 30
0.0
 10
397.3884034403786
 20
28.64754435755263
 30
0.0
 10
397.6196974080676
 20
28.77577816094309
 30
0.0
 10
397.7545221819769
 20
28.78537449499426
 30
0.0
 10
397.9111581585512
 20
28.76228378112232
 30
0.0
 10
398.1419165168975
 20
28.72819819769414
 30
0.0
 10
398.2892090860548
 20
28.645863139339
 30
0.0
 10
398.3662178070606
 20
28.39564430821927
 30
0.0
 10
398.4434943327376
 20
28.14619913503854
 30
0.0
 10
398.4017465601059
 20
28.01240094570214
 30
0.0
 10
398.3063188289366
 20
27.61529125243202
 30
0.0
 10
398.2627559357556
 20
27.43443383115174
 30
0.0
 10
398.199732569801
 20
27.21544400030079
 30
0.0
 10
398.1172784871474
 20
26.95487005522817
 30
0.0
 10
398.1172784871474
 20
26.95487005522817
 30
0.0
 10
397.3884034403786
 20
24.6342830671755
 30
0.0
 10
397.3884034403786
 20
24.6342830671755
 30
0.0
 10
397.3884034403786
 20
24.6342830671755
 30
0.0
 10
397.0093110502653
 20
24.6342830671755
 30
0.0
 10
397.0093110502653
 20
24.6342830671755
 30
0.0
 10
397.0093110502653
 20
24.6342830671755
 30
0.0
 10
397.6474598256477
 20
26.66302247577492
 30
0.0
 10
397.6474598256477
 20
26.66302247577492
 30
0.0
 10
397.7807372836794
 20
27.08749287961881
 30
0.0
 10
397.8709577017974
 20
27.39747678652684
 30
0.0
 10
397.917644982809
 20
27.59182858762789
 30
0.0
 10
397.9762346936513
 20
27.83426620524567
 30
0.0
 10
397.9995634561201
 20
27.91426541174648
 30
0.0
 10
397.9718307946141
 20
28.09071893398935
 30
0.0
 10
397.9464191069251
 20
28.25497246565551
 30
0.0
 10
397.8634294149292
 20
28.36193067572331
 30
0.0
 10
397.7213441588233
 20
28.36193067572331
 30
0.0
 10
397.5699154952995
 20
28.36193067572331
 30
0.0
 10
397.4472609558925
 20
28.34507385947528
 30
0.0
 10
397.2756279177311
 20
28.17265228533766
 30
0.0
 10
397.1039651234955
 20
27.99892144391866
 30
0.0
 10
396.9621179159858
 20
27.79498818680376
 30
0.0
 10
396.8508897092161
 20
27.56045080698622
 30
0.0
 10
396.739899551043
 20
27.32448513558897
 30
0.0
 10
396.6273620769921
 20
27.02539195197618
 30
0.0
 10
396.5132772870631
 20
26.66302247577492
 30
0.0
 10
396.5132772870631
 20
26.66302247577492
 30
0.0
 10
395.8748904630841
 20
24.6342830671755
 30
0.0
 10
395.8748904630841
 20
24.6342830671755
 30
0.0
 10
395.8748904630841
 20
24.6342830671755
 30
0.0
 10
395.5183531774999
 20
24.6342830671755
 30
0.0
 10
395.5183531774999
 20
24.6342830671755
 30
0.0
 10
395.5183531774999
 20
24.6342830671755
 30
0.0
 10
396.2482696868788
 20
26.95382859261797
 30
0.0
 10
396.2482696868788
 20
26.95382859261797
 30
0.0
 10
396.3252784078845
 20
27.20068498731051
 30
0.0
 10
396.3831242168624
 20
27.40189556360154
 30
0.0
 10
396.4212417483959
 20
27.5591564177421
 30
0.0
 10
396.4860504788251
 20
27.82986230620826
 30
0.0
 10
396.5042016843174
 20
28.01292167700721
 30
0.0
 10
396.4551934294884
 20
28.1753749661615
 30
0.0
 10
396.4069588325988
 20
28.33730752401068
 30
0.0
 10
396.3221837761287
 20
28.37866846767297
 30
0.0
 10
396.1806043732902
 20
28.37866846767297
 30
0.0
 10
396.0618478796528
 20
28.37866846767297
 30
0.0
 10
395.9459479691741
 20
28.32771118995952
 30
0.0
 10
395.813711973753
 20
28.22631736583769
 30
0.0
 10
395.6472267364934
 20
28.09875307412516
 30
0.0
 10
395.580602885515
 20
27.99399681357612
 30
0.0
 10
395.4989224608007
 20
27.86952715361967
 30
0.0
 10
395.3887059605668
 20
27.70487191494668
 30
0.0
 10
395.33710892725
 20
27.59403053714659
 30
0.0
 10
395.2440319259724
 20
27.3508043835525
 30
0.0
 10
395.1509251686205
 20
27.10614993837872
 30
0.0
 10
395.0627876757226
 20
26.82144381682399
 30
0.0
 10
395.0013116256459
 20
26.62451811527201
 30
0.0
 10
395.0013116256459
 20
26.62451811527201
 30
0.0
 10
394.3751247922432
 20
24.6342830671755
 30
0.0
 10
394.3751247922432
 20
24.6342830671755
 30
0.0
 10
394.3751247922432
 20
24.6342830671755
 30
0.0
 10
394.0017455684488
 20
24.6342830671755
 30
0.0
 10
394.0017455684488
 20
24.6342830671755
 30
0.0
 10
394.0017455684488
 20
24.6342830671755
 30
0.0
 10
395.2777455584687
 20
28.70472065485272
 30
0.0
 10
395.2777455584687
 20
28.70472065485272
 30
0.0
  0
SPLINE
  5
1856
102
{ACAD_REACTORS
330
1847
102
}
330
A
100
AcDbEntity
  8
TEMPLATE
100
AcDbSpline
210
0.0
220
0.0
230
1.0
 70
    11
 71
     3
 72
    32
 73
    28
 74
     0
 42
0.000000001
 43
0.0000000001
 40
0.0
 40
0.0
 40
0.0
 40
0.0
 40
1.0
 40
1.0
 40
1.0
 40
2.0
 40
2.0
 40
2.0
 40
3.0
 40
3.0
 40
3.0
 40
4.0
 40
4.0
 40
4.0
 40
5.0
 40
5.0
 40
5.0
 40
6.0
 40
6.0
 40
6.0
 40
7.0
 40
7.0
 40
7.0
 40
8.0
 40
8.0
 40
8.0
 40
9.0
 40
9.0
 40
9.0
 40
9.0
 10
390.212874836458
 20
28.49016447911377
 30
0.0
 10
389.9963696378345
 20
28.2101151832304
 30
0.0
 10
389.8296463519785
 20
27.95808123156142
 30
0.0
 10
389.5597289994885
 20
27.16592989220432
 30
0.0
 10
389.3115782155519
 20
26.4413397201747
 30
0.0
 10
389.1536627277708
 20
25.91418110296495
 30
0.0
 10
389.1298132339975
 20
25.27216403788712
 30
0.0
 10
389.1116620285047
 20
24.79440050447546
 30
0.0
 10
389.4025871696463
 20
24.6342830671755
 30
0.0
 10
389.8291404987103
 20
24.6342830671755
 30
0.0
 10
390.0129735274488
 20
24.6342830671755
 30
0.0
 10
390.4768707301073
 20
24.64597720448437
 30
0.0
 10
390.8072226700638
 20
25.05434957198194
 30
0.0
 10
391.0384868816773
 20
25.34125764305539
 30
0.0
 10
391.2516296438739
 20
25.63866960845458
 30
0.0
 10
391.5373772280386
 20
26.61428202561747
 30
0.0
 10
391.7751580199854
 20
27.4298960297787
 30
0.0
 10
391.9397983806207
 20
27.95703976895122
 30
0.0
 10
391.9276281461189
 20
28.25717441517425
 30
0.0
 10
391.9276281461189
 20
28.25717441517425
 30
0.0
 10
391.9276281461189
 20
28.25717441517425
 30
0.0
 10
391.9276281461189
 20
28.25717441517425
 30
0.0
 10
391.8500838157709
 20
28.75787988208491
 30
0.0
 10
391.486553852661
 20
28.86367760524418
 30
0.0
 10
391.2788564521122
 20
28.86367760524418
 30
0.0
 10
391.0742834393936
 20
28.86367760524418
 30
0.0
 10
390.5261170335325
 20
28.89907245595374
 30
0.0
 10
390.212874836458
 20
28.49016447911377
 30
0.0
  0
SPLINE
  5
1857
102
{ACAD_REACTORS
330
1847
102
}
330
A
100
AcDbEntity
  8
TEMPLATE
100
AcDbSpline
210
0.0
220
0.0
230
1.0
 70
    11
 71
     3
 72
    29
 73
    25
 74
     0
 42
0.000000001
 43
0.0000000001
 40
0.0
 40
0.0
 40
0.0
 40
0.0
 40
1.0
 40
1.0
 40
1.0
 40
2.0
 40
2.0
 40
2.0
 40
3.0
 40
3.0
 40
3.0
 40
4.0
 40
4.0
 40
4.0
 40
5.0
 40
5.0
 40
5.0
 40
6.0
 40
6.0
 40
6.0
 40
7.0
 40
7.0
 40
7.0
 40
8.0
 40
8.0
 40
8.0
 40
8.0
 10
389.5172075689175
 20
25.39220004273157
 30
0.0
 10
389.5156304969651
 20
25.67562665307945
 30
0.0
 10
389.6051070132189
 20
26.17918870314953
 30
0.0
 10
389.8343180556872
 20
26.85295549980127
 30
0.0
 10
390.1465187901508
 20
27.76529162437571
 30
0.0
 10
390.3337440113908
 20
28.09875307412516
 30
0.0
 10
390.497580958013
 20
28.26107246094385
 30
0.0
 10
390.736938821912
 20
28.49742496131061
 30
0.0
 10
391.0587210123899
 20
28.5092083668432
 30
0.0
 10
391.1536428902914
 20
28.49742496131061
 30
0.0
 10
391.2887354688717
 20
28.48120790066604
 30
0.0
 10
391.4795611751354
 20
28.39278772505988
 30
0.0
 10
391.4909577516987
 20
28.09512283302676
 30
0.0
 10
391.5000631105192
 20
27.84036620053401
 30
0.0
 10
391.4266548745372
 20
27.36325730076304
 30
0.0
 10
391.1697111705628
 20
26.61428202561747
 30
0.0
 10
390.873578716371
 20
25.74394660030872
 30
0.0
 10
390.695696902548
 20
25.40181125482
 30
0.0
 10
390.5531057931739
 20
25.25270356511361
 30
0.0
 10
390.284467951891
 20
24.97317500053533
 30
0.0
 10
389.9963696378345
 20
25.00001497980396
 30
0.0
 10
389.9538482072635
 20
25.00001497980396
 30
0.0
 10
389.8986209328484
 20
25.00001497980396
 30
0.0
 10
389.5179812268566
 20
25.05994371400247
 30
0.0
 10
389.5172075689175
 20
25.39220004273157
 30
0.0
  0
ARC
  5
1887
330
A
100
AcDbEntity
  8
MODEL
100
AcDbCircle
 10
290.070347624896
 20
171.6061509123485
 30
0.0
 40
183.9734057755441
100
AcDbArc
 50
85.94796658671677
 51
94.05203341328274
  0
ARC
  5
1888
330
A
100
AcDbEntity
  8
MODEL
100
AcDbCircle
 10
140.6679144194844
 20
171.6061509123485
 30
0.0
 40
183.9734057755441
100
AcDbArc
 50
85.94796658671677
 51
94.05203341328274
  0
LINE
  5
1889
330
A
100
AcDbEntity
  8
MODEL
100
AcDbLine
 10
257.5703476248968
 20
176.9346722109687
 30
0.0
 11
322.5703476248968
 21
176.9346722109687
 31
0.0
  0
LINE
  5
188A
330
A
100
AcDbEntity
  8
MODEL
100
AcDbLine
 10
257.5703476248968
 20
176.9346722109687
 30
0.0
 11
258.2124163214968
 21
176.1196763884098
 31
0.0
  0
LINE
  5
188B
330
A
100
AcDbEntity
  8
MODEL
100
AcDbLine
 10
322.5703476248968
 20
176.9346722109687
 30
0.0
 11
321.9282789282968
 21
176.1196763884098
 31
0.0
  0
LINE
  5
188C
330
A
100
AcDbEntity
  8
MODEL
100
AcDbLine
 10
108.1679144194853
 20
176.9346722109687
 30
0.0
 11
173.1679144194853
 21
176.9346722109687
 31
0.0
  0
LINE
  5
188D
330
A
100
AcDbEntity
  8
MODEL
100
AcDbLine
 10
108.1679144194853
 20
176.9346722109687
 30
0.0
 11
108.8099831160853
 21
176.1196763884098
 31
0.0
  0
LINE
  5
188E
330
A
100
AcDbEntity
  8
MODEL
100
AcDbLine
 10
173.1679144194853
 20
176.9346722109687
 30
0.0
 11
172.5258457228853
 21
176.1196763884098
 31
0.0
  0
LINE
  5
188F
330
A
100
AcDbEntity
  8
MODEL
100
AcDbLine
 10
108.1679144194852
 20
176.9346722109687
 30
0.0
 11
108.1679144194852
 21
317.1196763884098
 31
0.0
  0
LINE
  5
1890
330
A
100
AcDbEntity
  8
MODEL
100
AcDbLine
 10
108.8099831160853
 20
176.1196763884098
 30
0.0
 11
172.5258457228853
 21
176.1196763884098
 31
0.0
  0
LINE
  5
1891
330
A
100
AcDbEntity
  8
MODEL
100
AcDbLine
 10
173.1679144194852
 20
176.9346722109686
 30
0.0
 11
173.1679144194852
 21
317.1196763884098
 31
0.0
  0
MTEXT
  5
18C3
330
A
100
AcDbEntity
  8
TEMPLATE
390
1D
100
AcDbMText
 10
265.840428909598
 20
80.98493710256183
 30
0.0
 40
4.8865234375
 41
0.0
 46
5.458461156332062
 71
     1
 72
     1
  1
{FLR74-1714-003 (アルミシルバー)}
  7
ＭＳ ゴシック
 73
     1
 44
0.7828267384257843
1001
ACAD
1000
ACAD_MTEXT_DEFINED_HEIGHT_BEGIN
1070
    46
1040
5.458461156332062
1000
ACAD_MTEXT_DEFINED_HEIGHT_END
  0
MTEXT
  5
18C4
330
A
100
AcDbEntity
  8
TEMPLATE
390
1D
100
AcDbMText
 10
265.840428909598
 20
90.4228584791323
 30
0.0
 40
4.8865234375
 41
0.0
 46
5.458461156332062
 71
     1
 72
     1
  1
{FLR74-1714-001 (クローム)}
  7
ＭＳ ゴシック
 73
     1
 44
0.7828267384257843
1001
ACAD
1000
ACAD_MTEXT_DEFINED_HEIGHT_BEGIN
1070
    46
1040
5.458461156332062
1000
ACAD_MTEXT_DEFINED_HEIGHT_END
  0
VIEWPORT
  5
349
330
B
100
AcDbEntity
 67
     1
  8
0
100
AcDbViewport
 10
202.5
 20
128.5
 30
0.0
 40
486.0
 41
308.4
 68
     1
 69
     1
 12
202.5
 22
128.5
 13
0.0
 23
0.0
 14
0.5
 24
0.5
 15
0.0
 25
0.0
 16
0.0
 26
0.0
 36
1.0
 17
0.0
 27
0.0
 37
0.0
 42
50.0
 43
0.0
 44
0.0
 45
308.4
 50
0.0
 51
0.0
 72
   100
 90
   557152
  1

281
     0
 71
     1
 74
     0
110
0.0
120
0.0
130
0.0
111
1.0
121
0.0
131
0.0
112
0.0
122
1.0
132
0.0
 79
     0
146
0.0
170
     0
 61
     5
348
26C
292
     1
282
     1
141
0.0
142
0.0
 63
   256
  0
VIEWPORT
  5
34A
330
B
100
AcDbEntity
 67
     1
  8
0
100
AcDbViewport
 10
202.5
 20
128.5
 30
0.0
 40
324.0
 41
205.6
 68
     2
 69
     2
 12
986.6781359294573
 22
1427.077061889956
 13
0.0
 23
0.0
 14
0.5
 24
0.5
 15
0.0
 25
0.0
 16
0.0
 26
0.0
 36
1.0
 17
0.0
 27
0.0
 37
0.0
 42
50.0
 43
0.0
 44
0.0
 45
2890.021615685494
 50
0.0
 51
0.0
 72
   100
 90
   557152
  1

281
     0
 71
     1
 74
     0
110
0.0
120
0.0
130
0.0
111
1.0
121
0.0
131
0.0
112
0.0
122
1.0
132
0.0
 79
     0
146
0.0
170
     0
 61
     5
348
26C
292
     1
282
     1
141
0.0
142
0.0
 63
   256
  0
ENDSEC
  0
SECTION
  2
OBJECTS
  0
DICTIONARY
  5
19
330
0
100
AcDbDictionary
281
     1
  3
ACAD_COLOR
350
674
  3
ACAD_DETAILVIEWSTYLE
350
BBF
  3
ACAD_FIELDLIST
350
1840
  3
ACAD_GROUP
350
1A
  3
ACAD_IMAGE_VARS
350
27B
  3
ACAD_LAYOUT
350
1E
  3
ACAD_MATERIAL
350
263
  3
ACAD_MLEADERSTYLE
350
336
  3
ACAD_MLINESTYLE
350
1B
  3
ACAD_PLOTSETTINGS
350
22
  3
ACAD_PLOTSTYLENAME
350
1F
  3
ACAD_SCALELIST
350
241
  3
ACAD_SECTIONVIEWSTYLE
350
BC0
  3
ACAD_TABLESTYLE
350
278
  3
ACAD_VISUALSTYLE
350
267
  3
ACDB_RECOMPOSE_DATA
350
18CD
  3
AcDbVariableDictionary
350
330
  3
APPDATA
350
27A
  0
SUN
  5
904
330
15
100
AcDbSun
 90
        1
290
     0
 63
     7
421
 16777215
 40
1.0
291
     1
 91
  2455826
 92
 54000000
292
     0
 70
     2
 71
   256
280
     1
  0
DICTIONARY
  5
2E1
330
2
100
AcDbDictionary
280
     1
281
     1
  3
ACAD_LAYERSTATES
360
2E2
  3
ACLYDICTIONARY
360
1161
  0
DICTIONARY
  5
17A0
330
179F
100
AcDbDictionary
280
     1
281
     1
  3
ACAD_DIMASSOC
360
17A1
  0
DICTIONARY
  5
1843
330
1842
100
AcDbDictionary
280
     1
281
     1
  3
ACAD_FIELD
360
18A8
  0
DICTIONARY
  5
674
102
{ACAD_REACTORS
330
19
102
}
330
19
100
AcDbDictionary
281
     1
  0
DICTIONARY
  5
BBF
102
{ACAD_REACTORS
330
19
102
}
330
19
100
AcDbDictionary
281
     1
  0
FIELDLIST
  5
1840
102
{ACAD_REACTORS
330
19
102
}
330
19
100
AcDbIdSet
 90
        2
330
1846
330
1845
100
AcDbFieldList
  0
DICTIONARY
  5
1A
102
{ACAD_REACTORS
330
19
102
}
330
19
100
AcDbDictionary
281
     1
  0
RASTERVARIABLES
  5
27B
102
{ACAD_REACTORS
330
19
102
}
330
19
100
AcDbRasterVariables
 90
        0
 70
     1
 71
     1
 72
     1
  0
DICTIONARY
  5
1E
102
{ACAD_REACTORS
330
19
102
}
330
19
100
AcDbDictionary
281
     1
  3
Layout1
350
21
  3
Model
350
20
  0
DICTIONARY
  5
263
102
{ACAD_REACTORS
330
19
102
}
330
19
100
AcDbDictionary
281
     1
  3
ByBlock
350
11AF
  3
ByLayer
350
264
  3
Global
350
266
  0
DICTIONARY
  5
336
102
{ACAD_REACTORS
330
19
102
}
330
19
100
AcDbDictionary
281
     1
  3
Standard
350
E6F
  0
DICTIONARY
  5
1B
102
{ACAD_REACTORS
330
19
102
}
330
19
100
AcDbDictionary
281
     1
  3
Standard
350
1C
  0
DICTIONARY
  5
22
102
{ACAD_REACTORS
330
19
102
}
330
19
100
AcDbDictionary
281
     1
  0
ACDBDICTIONARYWDFLT
  5
1F
102
{ACAD_REACTORS
330
19
102
}
330
19
100
AcDbDictionary
281
     1
  3
Normal
350
1D
100
AcDbDictionaryWithDefault
340
1D
  0
DICTIONARY
  5
241
102
{ACAD_REACTORS
330
19
102
}
330
19
100
AcDbDictionary
281
     1
  3
*A1
350
E7D
  3
A0
350
242
  3
A1
350
243
  3
A2
350
244
  3
A3
350
245
  3
A4
350
246
  3
A5
350
247
  3
A6
350
248
  3
A7
350
249
  3
A8
350
24A
  3
A9
350
24B
  3
B0
350
24C
  3
B1
350
24D
  3
B2
350
24E
  3
B3
350
24F
  3
B4
350
250
  3
B5
350
251
  3
B6
350
252
  3
B7
350
253
  3
B8
350
254
  3
B9
350
255
  3
C0
350
256
  3
C1
350
257
  3
C2
350
258
  3
C3
350
259
  3
C4
350
25A
  3
C5
350
25B
  3
C6
350
25C
  3
C7
350
25D
  3
C8
350
25E
  3
C9
350
25F
  3
D0
350
260
  3
D1
350
261
  3
D2
350
262
  0
DICTIONARY
  5
BC0
102
{ACAD_REACTORS
330
19
102
}
330
19
100
AcDbDictionary
281
     1
  0
DICTIONARY
  5
278
102
{ACAD_REACTORS
330
19
102
}
330
19
100
AcDbDictionary
281
     1
  3
Standard
350
279
  0
DICTIONARY
  5
267
102
{ACAD_REACTORS
330
19
102
}
330
19
100
AcDbDictionary
281
     1
  3
2dWireframe
350
26C
  3
3D Hidden
350
26E
  3
3dWireframe
350
26D
  3
Basic
350
26F
  3
Brighten
350
273
  3
ColorChange
350
277
  3
Conceptual
350
271
  3
Dim
350
272
  3
EdgeColorOff
350
8FE
  3
Facepattern
350
276
  3
Flat
350
268
  3
FlatWithEdges
350
269
  3
Gouraud
350
26A
  3
GouraudWithEdges
350
26B
  3
Hidden
350
8FB
  3
JitterOff
350
8FC
  3
Linepattern
350
275
  3
OverhangOff
350
8FD
  3
Realistic
350
270
  3
Shaded
350
903
  3
Shaded with edges
350
902
  3
Shades of Gray
350
8FF
  3
Sketchy
350
900
  3
Thicken
350
274
  3
Wireframe
350
8FA
  3
X-Ray
350
901
  0
XRECORD
  5
18CD
102
{ACAD_REACTORS
330
19
102
}
330
19
100
AcDbXrecord
280
     1
 90
        1
330
279
  0
DICTIONARY
  5
330
102
{ACAD_REACTORS
330
19
102
}
330
19
100
AcDbDictionary
281
     1
  3
CANNOSCALE
350
331
  3
CMLEADERSTYLE
350
E70
  3
CTABLESTYLE
350
335
  3
HPTRANSPARENCY
350
D6B
  3
XCLIPFRAME
350
896
  0
DICTIONARY
  5
27A
102
{ACAD_REACTORS
330
19
102
}
330
19
100
AcDbDictionary
281
     1
  0
DICTIONARY
  5
2E2
102
{ACAD_REACTORS
330
2E1
102
}
330
2E1
100
AcDbDictionary
281
     1
  0
DICTIONARY
  5
1161
102
{ACAD_REACTORS
330
2E1
102
}
330
2E1
100
AcDbDictionary
281
     1
1001
ACAD
1000
<All
  0
DIMASSOC
  5
17A1
102
{ACAD_REACTORS
330
17A0
102
}
330
17A0
100
AcDbDimAssoc
330
179F
 90
        2
 70
     0
 71
     1
  1
AcDbOsnapPointRef
 72
    13
331
1780
 73
     0
 91
        0
 40
0.0
 10
0.0
 20
0.0
 30
0.0
 75
     0
  0
DICTIONARY
  5
18A8
102
{ACAD_REACTORS
330
1843
102
}
330
1843
100
AcDbDictionary
280
     1
281
     1
  3
TEXT
360
1845
  0
LAYOUT
  5
21
102
{ACAD_REACTORS
330
1E
102
}
330
1E
100
AcDbPlotSettings
  1

  2
none_device
  4
ISO_A3_(420.00_x_297.00_MM)
  6

 40
7.5
 41
20.0
 42
7.5
 43
20.0
 44
420.0
 45
297.0
 46
0.0
 47
0.0
 48
0.0
 49
0.0
140
0.0
141
0.0
142
1.0
143
1.0
 70
     0
 72
     1
 73
     0
 74
     0
  7

 75
     0
 76
     0
 77
     2
 78
   300
147
1.0
148
0.0
149
0.0
100
AcDbLayout
  1
Layout1
 70
     0
 71
     0
 10
-7.5
 20
-20.0
 11
412.5
 21
277.0
 12
0.0
 22
0.0
 32
0.0
 14
0.0
 24
0.0
 34
0.0
 15
0.0
 25
0.0
 35
0.0
146
0.0
 13
0.0
 23
0.0
 33
0.0
 16
0.0
 26
0.0
 36
0.0
 17
0.0
 27
0.0
 37
0.0
 76
     0
330
B
331
349
  0
LAYOUT
  5
20
102
{ACAD_REACTORS
330
1E
102
}
330
1E
100
AcDbPlotSettings
  1

  2
none_device
  4
ISO_A3_(420.00_x_297.00_MM)
  6

 40
7.5
 41
20.0
 42
7.5
 43
20.0
 44
420.0
 45
297.0
 46
0.0
 47
0.0
 48
0.0
 49
0.0
140
0.0
141
0.0
142
1.0
143
1.0
 70
  1024
 72
     1
 73
     0
 74
     0
  7

 75
     0
 76
     0
 77
     2
 78
   300
147
1.0
148
0.0
149
0.0
100
AcDbLayout
  1
Model
 70
     0
 71
     1
 10
0.0
 20
0.0
 11
420.0000000000001
 21
594.0000000000001
 12
0.0
 22
0.0
 32
0.0
 14
14.44042890944974
 24
11.35727006514173
 34
-0.0000000000000071
 15
404.4404289095462
 25
579.4293347012853
 35
0.0000000000000071
146
0.0
 13
0.0
 23
0.0
 33
0.0
 16
0.0
 26
0.0
 36
0.0
 17
0.0
 27
0.0
 37
0.0
 76
     0
330
A
331
15
  0
MATERIAL
  5
11AF
102
{ACAD_REACTORS
330
263
102
}
330
263
100
AcDbMaterial
  1
ByBlock
 72
     1
 94
      127
  0
MATERIAL
  5
264
102
{ACAD_REACTORS
330
263
102
}
330
263
100
AcDbMaterial
  1
ByLayer
 72
     1
 94
      127
  0
MATERIAL
  5
266
102
{ACAD_REACTORS
330
263
102
}
330
263
100
AcDbMaterial
  1
Global
 72
     1
 94
      127
  0
MLEADERSTYLE
  5
E6F
102
{ACAD_REACTORS
330
336
102
}
330
336
100
AcDbMLeaderStyle
170
     2
171
     1
172
     0
 90
        2
 40
0.0
 41
0.0
173
     1
 91
-1056964608
340
11
 92
       -2
290
     1
 42
2.0
291
     1
 43
8.0
  3
Standard
341
0
 44
4.0
300

342
17
174
     1
178
     6
175
     1
176
     0
 93
-1056964608
 45
4.0
292
     0
297
     0
 46
4.0
343
0
 94
-1056964608
 47
1.0
 49
1.0
140
1.0
293
     1
141
0.0
294
     1
177
     0
142
1.0
295
     0
296
     0
143
3.75
1001
ACAD_MLEADERVER
1070
     2
  0
MLINESTYLE
  5
1C
102
{ACAD_REACTORS
330
1B
102
}
330
1B
100
AcDbMlineStyle
  2
Standard
 70
     0
  3

 62
     0
 51
90.0
 52
90.0
 71
     2
 49
0.5
 62
   256
  6
BYLAYER
 49
-0.5
 62
   256
  6
BYLAYER
  0
ACDBPLACEHOLDER
  5
1D
102
{ACAD_REACTORS
330
1F
102
}
330
1F
  0
SCALE
  5
E7D
102
{ACAD_REACTORS
330
241
102
}
330
241
100
AcDbScale
 70
     0
300
1:1_XREF_XREF
140
1.0
141
1.0
290
     0
  0
SCALE
  5
242
102
{ACAD_REACTORS
330
241
102
}
330
241
100
AcDbScale
 70
     0
300
1:1
140
1.0
141
1.0
290
     1
  0
SCALE
  5
243
102
{ACAD_REACTORS
330
241
102
}
330
241
100
AcDbScale
 70
     0
300
1:2
140
1.0
141
2.0
290
     0
  0
SCALE
  5
244
102
{ACAD_REACTORS
330
241
102
}
330
241
100
AcDbScale
 70
     0
300
1:4
140
1.0
141
4.0
290
     0
  0
SCALE
  5
245
102
{ACAD_REACTORS
330
241
102
}
330
241
100
AcDbScale
 70
     0
300
1:5
140
1.0
141
5.0
290
     0
  0
SCALE
  5
246
102
{ACAD_REACTORS
330
241
102
}
330
241
100
AcDbScale
 70
     0
300
1:8
140
1.0
141
8.0
290
     0
  0
SCALE
  5
247
102
{ACAD_REACTORS
330
241
102
}
330
241
100
AcDbScale
 70
     0
300
1:10
140
1.0
141
10.0
290
     0
  0
SCALE
  5
248
102
{ACAD_REACTORS
330
241
102
}
330
241
100
AcDbScale
 70
     0
300
1:16
140
1.0
141
16.0
290
     0
  0
SCALE
  5
249
102
{ACAD_REACTORS
330
241
102
}
330
241
100
AcDbScale
 70
     0
300
1:20
140
1.0
141
20.0
290
     0
  0
SCALE
  5
24A
102
{ACAD_REACTORS
330
241
102
}
330
241
100
AcDbScale
 70
     0
300
1:30
140
1.0
141
30.0
290
     0
  0
SCALE
  5
24B
102
{ACAD_REACTORS
330
241
102
}
330
241
100
AcDbScale
 70
     0
300
1:40
140
1.0
141
40.0
290
     0
  0
SCALE
  5
24C
102
{ACAD_REACTORS
330
241
102
}
330
241
100
AcDbScale
 70
     0
300
1:50
140
1.0
141
50.0
290
     0
  0
SCALE
  5
24D
102
{ACAD_REACTORS
330
241
102
}
330
241
100
AcDbScale
 70
     0
300
1:100
140
1.0
141
100.0
290
     0
  0
SCALE
  5
24E
102
{ACAD_REACTORS
330
241
102
}
330
241
100
AcDbScale
 70
     0
300
2:1
140
2.0
141
1.0
290
     0
  0
SCALE
  5
24F
102
{ACAD_REACTORS
330
241
102
}
330
241
100
AcDbScale
 70
     0
300
4:1
140
4.0
141
1.0
290
     0
  0
SCALE
  5
250
102
{ACAD_REACTORS
330
241
102
}
330
241
100
AcDbScale
 70
     0
300
8:1
140
8.0
141
1.0
290
     0
  0
SCALE
  5
251
102
{ACAD_REACTORS
330
241
102
}
330
241
100
AcDbScale
 70
     0
300
10:1
140
10.0
141
1.0
290
     0
  0
SCALE
  5
252
102
{ACAD_REACTORS
330
241
102
}
330
241
100
AcDbScale
 70
     0
300
100:1
140
100.0
141
1.0
290
     0
  0
SCALE
  5
253
102
{ACAD_REACTORS
330
241
102
}
330
241
100
AcDbScale
 70
     0
300
1/128" = 1'-0"
140
0.0078125
141
12.0
290
     0
  0
SCALE
  5
254
102
{ACAD_REACTORS
330
241
102
}
330
241
100
AcDbScale
 70
     0
300
1/64" = 1'-0"
140
0.015625
141
12.0
290
     0
  0
SCALE
  5
255
102
{ACAD_REACTORS
330
241
102
}
330
241
100
AcDbScale
 70
     0
300
1/32" = 1'-0"
140
0.03125
141
12.0
290
     0
  0
SCALE
  5
256
102
{ACAD_REACTORS
330
241
102
}
330
241
100
AcDbScale
 70
     0
300
1/16" = 1'-0"
140
0.0625
141
12.0
290
     0
  0
SCALE
  5
257
102
{ACAD_REACTORS
330
241
102
}
330
241
100
AcDbScale
 70
     0
300
3/32" = 1'-0"
140
0.09375
141
12.0
290
     0
  0
SCALE
  5
258
102
{ACAD_REACTORS
330
241
102
}
330
241
100
AcDbScale
 70
     0
300
1/8" = 1'-0"
140
0.125
141
12.0
290
     0
  0
SCALE
  5
259
102
{ACAD_REACTORS
330
241
102
}
330
241
100
AcDbScale
 70
     0
300
3/16" = 1'-0"
140
0.1875
141
12.0
290
     0
  0
SCALE
  5
25A
102
{ACAD_REACTORS
330
241
102
}
330
241
100
AcDbScale
 70
     0
300
1/4" = 1'-0"
140
0.25
141
12.0
290
     0
  0
SCALE
  5
25B
102
{ACAD_REACTORS
330
241
102
}
330
241
100
AcDbScale
 70
     0
300
3/8" = 1'-0"
140
0.375
141
12.0
290
     0
  0
SCALE
  5
25C
102
{ACAD_REACTORS
330
241
102
}
330
241
100
AcDbScale
 70
     0
300
1/2" = 1'-0"
140
0.5
141
12.0
290
     0
  0
SCALE
  5
25D
102
{ACAD_REACTORS
330
241
102
}
330
241
100
AcDbScale
 70
     0
300
3/4" = 1'-0"
140
0.75
141
12.0
290
     0
  0
SCALE
  5
25E
102
{ACAD_REACTORS
330
241
102
}
330
241
100
AcDbScale
 70
     0
300
1" = 1'-0"
140
1.0
141
12.0
290
     0
  0
SCALE
  5
25F
102
{ACAD_REACTORS
330
241
102
}
330
241
100
AcDbScale
 70
     0
300
1-1/2" = 1'-0"
140
1.5
141
12.0
290
     0
  0
SCALE
  5
260
102
{ACAD_REACTORS
330
241
102
}
330
241
100
AcDbScale
 70
     0
300
3" = 1'-0"
140
3.0
141
12.0
290
     0
  0
SCALE
  5
261
102
{ACAD_REACTORS
330
241
102
}
330
241
100
AcDbScale
 70
     0
300
6" = 1'-0"
140
6.0
141
12.0
290
     0
  0
SCALE
  5
262
102
{ACAD_REACTORS
330
241
102
}
330
241
100
AcDbScale
 70
     0
300
1'-0" = 1'-0"
140
12.0
141
12.0
290
     0
  0
TABLESTYLE
  5
279
102
{ACAD_REACTORS
330
278
102
}
102
{ACAD_XDICTIONARY
360
18CB
102
}
330
278
100
AcDbTableStyle
  3
Standard
 70
     0
 71
     0
 40
0.06
 41
0.06
280
     0
281
     0
  7
Standard
140
4.5
170
     2
 62
     0
 63
   257
283
     0
 90
        4
 91
        0
  1

274
    -2
284
     1
 64
     0
275
    -2
285
     1
 65
     0
276
    -2
286
     1
 66
     0
277
    -2
287
     1
 67
     0
278
    -2
288
     1
 68
     0
279
    -2
289
     1
 69
     0
  7
Standard
140
6.0
170
     5
 62
     0
 63
   257
283
     0
 90
        4
 91
        0
  1

274
    -2
284
     1
 64
     0
275
    -2
285
     1
 65
     0
276
    -2
286
     1
 66
     0
277
    -2
287
     1
 67
     0
278
    -2
288
     1
 68
     0
279
    -2
289
     1
 69
     0
  7
Standard
140
4.5
170
     5
 62
     0
 63
   257
283
     0
 90
        4
 91
        0
  1

274
    -2
284
     1
 64
     0
275
    -2
285
     1
 65
     0
276
    -2
286
     1
 66
     0
277
    -2
287
     1
 67
     0
278
    -2
288
     1
 68
     0
279
    -2
289
     1
 69
     0
  0
VISUALSTYLE
  5
26C
102
{ACAD_REACTORS
330
267
102
}
330
267
100
AcDbVisualStyle
  2
2dWireframe
 70
     4
 71
     0
 72
     2
 73
     0
 90
        0
 40
-0.6
 41
-30.0
 62
     5
 63
     7
421
 16777215
 74
     1
 91
        4
 64
     7
 65
   257
 75
     1
175
     1
 42
1.0
 92
        0
 66
   257
 43
1.0
 76
     1
 77
     6
 78
     2
 67
     7
 79
     5
170
     0
171
     0
290
     0
174
     0
 93
        1
 44
0.0
173
     0
291
     0
 45
0.0
  0
VISUALSTYLE
  5
26E
102
{ACAD_REACTORS
330
267
102
}
330
267
100
AcDbVisualStyle
  2
3D Hidden
 70
     6
 71
     1
 72
     2
 73
     2
 90
        0
 40
-0.6
 41
-30.0
 62
     5
 63
     7
421
 16777215
 74
     2
 91
        2
 64
     7
 65
   257
 75
     2
175
     1
 42
40.0
 92
        0
 66
   257
 43
1.0
 76
     1
 77
     6
 78
     2
 67
     7
 79
     3
170
     0
171
     0
290
     0
174
     0
 93
        1
 44
0.0
173
     0
291
     0
 45
0.0
  0
VISUALSTYLE
  5
26D
102
{ACAD_REACTORS
330
267
102
}
330
267
100
AcDbVisualStyle
  2
3dWireframe
 70
     5
 71
     0
 72
     2
 73
     0
 90
        0
 40
-0.6
 41
-30.0
 62
     5
 63
     7
421
 16777215
 74
     1
 91
        4
 64
     7
 65
   257
 75
     1
175
     1
 42
1.0
 92
        0
 66
   257
 43
1.0
 76
     1
 77
     6
 78
     2
 67
     7
 79
     5
170
     0
171
     0
290
     0
174
     0
 93
        1
 44
0.0
173
     0
291
     0
 45
0.0
  0
VISUALSTYLE
  5
26F
102
{ACAD_REACTORS
330
267
102
}
330
267
100
AcDbVisualStyle
  2
Basic
 70
     7
 71
     1
 72
     0
 73
     1
 90
        0
 40
-0.6
 41
-30.0
 62
     5
 63
     7
421
 16777215
 74
     0
 91
        4
 64
     7
 65
   257
 75
     1
175
     1
 42
1.0
 92
        8
 66
     7
 43
1.0
 76
     1
 77
     6
 78
     2
 67
     7
 79
     5
170
     0
171
     0
290
     0
174
     0
 93
        1
 44
0.0
173
     0
291
     1
 45
0.0
  0
VISUALSTYLE
  5
273
102
{ACAD_REACTORS
330
267
102
}
330
267
100
AcDbVisualStyle
  2
Brighten
 70
    12
 71
     2
 72
     2
 73
     0
 90
        0
 40
-0.6
 41
-30.0
 62
     5
 63
     7
421
 16777215
 74
     1
 91
        4
 64
     7
 65
   257
 75
     1
175
     1
 42
1.0
 92
        8
 66
     7
 43
1.0
 76
     1
 77
     6
 78
     2
 67
     7
 79
     5
170
     0
171
     0
290
     0
174
     0
 93
        1
 44
50.0
173
     0
291
     1
 45
0.0
  0
VISUALSTYLE
  5
277
102
{ACAD_REACTORS
330
267
102
}
330
267
100
AcDbVisualStyle
  2
ColorChange
 70
    16
 71
     2
 72
     2
 73
     3
 90
        0
 40
-0.6
 41
-30.0
 62
     5
 63
     8
421
  8421504
 74
     1
 91
        4
 64
     7
 65
   257
 75
     1
175
     1
 42
1.0
 92
        8
 66
     8
424
  8421504
 43
1.0
 76
     1
 77
     6
 78
     2
 67
     7
 79
     5
170
     0
171
     0
290
     0
174
     0
 93
        1
 44
0.0
173
     0
291
     1
 45
0.0
  0
VISUALSTYLE
  5
271
102
{ACAD_REACTORS
330
267
102
}
330
267
100
AcDbVisualStyle
  2
Conceptual
 70
     9
 71
     3
 72
     2
 73
     0
 90
        0
 40
-0.6
 41
-30.0
 62
     5
 63
     7
421
 16777215
 74
     2
 91
        2
 64
     7
 65
   257
 75
     1
175
     1
 42
40.0
 92
        8
 66
     7
 43
1.0
 76
     1
 77
     6
 78
     2
 67
     7
 79
     3
170
     0
171
     0
290
     0
174
     0
 93
        1
 44
0.0
173
     0
291
     0
 45
0.0
  0
VISUALSTYLE
  5
272
102
{ACAD_REACTORS
330
267
102
}
330
267
100
AcDbVisualStyle
  2
Dim
 70
    11
 71
     2
 72
     2
 73
     0
 90
        0
 40
-0.6
 41
-30.0
 62
     5
 63
     7
421
 16777215
 74
     1
 91
        4
 64
     7
 65
   257
 75
     1
175
     1
 42
1.0
 92
        8
 66
     7
 43
1.0
 76
     1
 77
     6
 78
     2
 67
     7
 79
     5
170
     0
171
     0
290
     0
174
     0
 93
        1
 44
-50.0
173
     0
291
     1
 45
0.0
  0
VISUALSTYLE
  5
8FE
102
{ACAD_REACTORS
330
267
102
}
330
267
100
AcDbVisualStyle
  2
EdgeColorOff
 70
    22
 71
     2
 72
     2
 73
     0
 90
        0
 40
0.6
 41
30.0
 62
     5
 63
     7
421
 16777215
 74
     1
 91
        4
 64
     7
 65
   257
 75
     1
175
     1
 42
1.0
 92
        8
 66
     7
 43
1.0
 76
     1
 77
     6
 78
     2
 67
     7
 79
     5
170
     0
171
     0
290
     0
174
     0
 93
        1
 44
0.0
173
     0
291
     1
 45
0.0
  0
VISUALSTYLE
  5
276
102
{ACAD_REACTORS
330
267
102
}
330
267
100
AcDbVisualStyle
  2
Facepattern
 70
    15
 71
     2
 72
     2
 73
     0
 90
        0
 40
-0.6
 41
-30.0
 62
     5
 63
     7
421
 16777215
 74
     1
 91
        4
 64
     7
 65
   257
 75
     1
175
     1
 42
1.0
 92
        8
 66
     7
 43
1.0
 76
     1
 77
     6
 78
     2
 67
     7
 79
     5
170
     0
171
     0
290
     0
174
     0
 93
        1
 44
0.0
173
     0
291
     1
 45
0.0
  0
VISUALSTYLE
  5
268
102
{ACAD_REACTORS
330
267
102
}
330
267
100
AcDbVisualStyle
  2
Flat
 70
     0
 71
     2
 72
     1
 73
     1
 90
        2
 40
-0.6
 41
30.0
 62
     5
 63
     7
421
 16777215
 74
     0
 91
        4
 64
     7
 65
   257
 75
     1
175
     1
 42
1.0
 92
        8
 66
     7
 43
1.0
 76
     1
 77
     6
 78
     2
 67
     7
 79
     5
170
     0
171
     0
290
     0
174
     0
 93
       13
 44
0.0
173
     0
291
     1
 45
0.0
  0
VISUALSTYLE
  5
269
102
{ACAD_REACTORS
330
267
102
}
330
267
100
AcDbVisualStyle
  2
FlatWithEdges
 70
     1
 71
     2
 72
     1
 73
     1
 90
        2
 40
-0.6
 41
30.0
 62
     5
 63
     7
421
 16777215
 74
     1
 91
        4
 64
     7
 65
   257
 75
     1
175
     1
 42
1.0
 92
        0
 66
   257
 43
1.0
 76
     1
 77
     6
 78
     2
 67
     7
 79
     5
170
     0
171
     0
290
     0
174
     0
 93
       13
 44
0.0
173
     0
291
     1
 45
0.0
  0
VISUALSTYLE
  5
26A
102
{ACAD_REACTORS
330
267
102
}
330
267
100
AcDbVisualStyle
  2
Gouraud
 70
     2
 71
     2
 72
     2
 73
     1
 90
        2
 40
-0.6
 41
30.0
 62
     5
 63
     7
421
 16777215
 74
     0
 91
        4
 64
     7
 65
   257
 75
     1
175
     1
 42
1.0
 92
        0
 66
     7
 43
1.0
 76
     1
 77
     6
 78
     2
 67
     7
 79
     5
170
     0
171
     0
290
     0
174
     0
 93
       13
 44
0.0
173
     0
291
     1
 45
0.0
  0
VISUALSTYLE
  5
26B
102
{ACAD_REACTORS
330
267
102
}
330
267
100
AcDbVisualStyle
  2
GouraudWithEdges
 70
     3
 71
     2
 72
     2
 73
     1
 90
        2
 40
-0.6
 41
30.0
 62
     5
 63
     7
421
 16777215
 74
     1
 91
        4
 64
     7
 65
   257
 75
     1
175
     1
 42
1.0
 92
        0
 66
   257
 43
1.0
 76
     1
 77
     6
 78
     2
 67
     7
 79
     5
170
     0
171
     0
290
     0
174
     0
 93
       13
 44
0.0
173
     0
291
     1
 45
0.0
  0
VISUALSTYLE
  5
8FB
102
{ACAD_REACTORS
330
267
102
}
330
267
100
AcDbVisualStyle
  2
Hidden
 70
     6
 71
     1
 72
     2
 73
     2
 90
        0
 40
0.6
 41
30.0
 62
     5
 63
     7
421
 16777215
 74
     2
 91
        2
 64
     7
 65
   257
 75
     2
175
     1
 42
40.0
 92
        0
 66
   257
 43
1.0
 76
     1
 77
     6
 78
     2
 67
     7
 79
     3
170
     0
171
     0
290
     0
174
     0
 93
        1
 44
0.0
173
     0
291
     0
 45
0.0
  0
VISUALSTYLE
  5
8FC
102
{ACAD_REACTORS
330
267
102
}
330
267
100
AcDbVisualStyle
  2
JitterOff
 70
    20
 71
     2
 72
     2
 73
     0
 90
        0
 40
0.6
 41
30.0
 62
     5
 63
     7
421
 16777215
 74
     1
 91
        4
 64
     7
 65
   257
 75
     1
175
     1
 42
1.0
 92
       10
 66
     7
 43
1.0
 76
     1
 77
     6
 78
     2
 67
     7
 79
     5
170
     0
171
     0
290
     0
174
     0
 93
        1
 44
0.0
173
     0
291
     1
 45
0.0
  0
VISUALSTYLE
  5
275
102
{ACAD_REACTORS
330
267
102
}
330
267
100
AcDbVisualStyle
  2
Linepattern
 70
    14
 71
     2
 72
     2
 73
     0
 90
        0
 40
-0.6
 41
-30.0
 62
     5
 63
     7
421
 16777215
 74
     1
 91
        4
 64
     7
 65
   257
 75
     7
175
     7
 42
1.0
 92
        8
 66
     7
 43
1.0
 76
     1
 77
     6
 78
     2
 67
     7
 79
     5
170
     0
171
     0
290
     0
174
     0
 93
        1
 44
0.0
173
     0
291
     1
 45
0.0
  0
VISUALSTYLE
  5
8FD
102
{ACAD_REACTORS
330
267
102
}
330
267
100
AcDbVisualStyle
  2
OverhangOff
 70
    21
 71
     2
 72
     2
 73
     0
 90
        0
 40
0.6
 41
30.0
 62
     5
 63
     7
421
 16777215
 74
     1
 91
        4
 64
     7
 65
   257
 75
     1
175
     1
 42
1.0
 92
        9
 66
     7
 43
1.0
 76
     1
 77
     6
 78
     2
 67
     7
 79
     5
170
     0
171
     0
290
     0
174
     0
 93
        1
 44
0.0
173
     0
291
     1
 45
0.0
  0
VISUALSTYLE
  5
270
102
{ACAD_REACTORS
330
267
102
}
330
267
100
AcDbVisualStyle
  2
Realistic
 70
     8
 71
     2
 72
     2
 73
     0
 90
        0
 40
-0.6
 41
-30.0
 62
     5
 63
     7
421
 16777215
 74
     1
 91
        0
 64
     7
 65
   257
 75
     1
175
     1
 42
1.0
 92
        8
 66
     8
424
  7895160
 43
1.0
 76
     1
 77
     6
 78
     2
 67
     7
 79
     5
170
     0
171
     0
290
     0
174
     0
 93
       13
 44
0.0
173
     0
291
     0
 45
0.0
  0
VISUALSTYLE
  5
903
102
{ACAD_REACTORS
330
267
102
}
330
267
100
AcDbVisualStyle
  2
Shaded
 70
    27
 71
     2
 72
     2
 73
     1
 90
        2
 40
0.6
 41
30.0
 62
     5
 63
     7
421
 16777215
 74
     0
 91
        4
 64
     7
 65
   257
 75
     1
175
     1
 42
1.0
 92
        8
 66
   257
 43
1.0
 76
     1
 77
     6
 78
     2
 67
     8
425
  7895160
 79
     3
170
     0
171
     0
290
     0
174
     0
 93
        5
 44
0.0
173
     0
291
     0
 45
0.0
  0
VISUALSTYLE
  5
902
102
{ACAD_REACTORS
330
267
102
}
330
267
100
AcDbVisualStyle
  2
Shaded with edges
 70
    26
 71
     2
 72
     2
 73
     1
 90
        2
 40
0.6
 41
30.0
 62
     5
 63
     7
421
 16777215
 74
     1
 91
       10
 64
     7
 65
   257
 75
     2
175
     1
 42
1.0
 92
        8
 66
   257
 43
1.0
 76
     1
 77
     6
 78
     2
 67
     7
 79
     3
170
     0
171
     0
290
     0
174
     0
 93
        5
 44
0.0
173
     0
291
     0
 45
0.0
  0
VISUALSTYLE
  5
8FF
102
{ACAD_REACTORS
330
267
102
}
330
267
100
AcDbVisualStyle
  2
Shades of Gray
 70
    23
 71
     2
 72
     2
 73
     3
 90
        0
 40
0.6
 41
30.0
 62
     5
 63
     7
421
 16777215
 74
     2
 91
        2
 64
     7
 65
     7
 75
     1
175
     1
 42
40.0
 92
        8
 66
     7
 43
1.0
 76
     1
 77
     6
 78
     2
 67
     7
 79
     3
170
     0
171
     0
290
     0
174
     0
 93
        1
 44
0.0
173
     0
291
     0
 45
0.0
  0
VISUALSTYLE
  5
900
102
{ACAD_REACTORS
330
267
102
}
330
267
100
AcDbVisualStyle
  2
Sketchy
 70
    24
 71
     1
 72
     2
 73
     2
 90
        0
 40
0.6
 41
30.0
 62
     5
 63
     7
421
 16777215
 74
     2
 91
        2
 64
     7
 65
     7
 75
     1
175
     1
 42
40.0
 92
       11
 66
     7
 43
1.0
 76
     1
 77
     6
 78
     2
 67
     7
 79
     6
170
     0
171
     0
290
     0
174
     0
 93
        1
 44
0.0
173
     0
291
     0
 45
0.0
  0
VISUALSTYLE
  5
274
102
{ACAD_REACTORS
330
267
102
}
330
267
100
AcDbVisualStyle
  2
Thicken
 70
    13
 71
     2
 72
     2
 73
     0
 90
        0
 40
-0.6
 41
-30.0
 62
     5
 63
     7
421
 16777215
 74
     1
 91
        4
 64
     7
 65
   257
 75
     1
175
     1
 42
1.0
 92
       12
 66
     7
 43
1.0
 76
     1
 77
     6
 78
     2
 67
     7
 79
     5
170
     0
171
     0
290
     0
174
     0
 93
        1
 44
0.0
173
     0
291
     1
 45
0.0
  0
VISUALSTYLE
  5
8FA
102
{ACAD_REACTORS
330
267
102
}
330
267
100
AcDbVisualStyle
  2
Wireframe
 70
     5
 71
     0
 72
     2
 73
     0
 90
        0
 40
0.6
 41
30.0
 62
     5
 63
     7
421
 16777215
 74
     1
 91
        4
 64
     7
 65
   257
 75
     1
175
     1
 42
1.0
 92
        0
 66
   257
 43
1.0
 76
     1
 77
     6
 78
     2
 67
     7
 79
     3
170
     0
171
     0
290
     0
174
     0
 93
        1
 44
0.0
173
     0
291
     0
 45
0.0
  0
VISUALSTYLE
  5
901
102
{ACAD_REACTORS
330
267
102
}
330
267
100
AcDbVisualStyle
  2
X-Ray
 70
    25
 71
     2
 72
     2
 73
     1
 90
        1
 40
0.5
 41
30.0
 62
     5
 63
     7
421
 16777215
 74
     1
 91
        0
 64
     7
 65
   257
 75
     1
175
     1
 42
1.0
 92
        8
 66
     7
 43
1.0
 76
     1
 77
     6
 78
     2
 67
     7
 79
     3
170
     0
171
     0
290
     0
174
     0
 93
       13
 44
0.0
173
     0
291
     0
 45
0.0
  0
DICTIONARYVAR
  5
331
102
{ACAD_REACTORS
330
330
102
}
330
330
100
DictionaryVariables
280
     0
  1
1:1
  0
DICTIONARYVAR
  5
E70
102
{ACAD_REACTORS
330
330
102
}
330
330
100
DictionaryVariables
280
     0
  1
Standard
  0
DICTIONARYVAR
  5
335
102
{ACAD_REACTORS
330
330
102
}
330
330
100
DictionaryVariables
280
     0
  1
Standard
  0
DICTIONARYVAR
  5
D6B
102
{ACAD_REACTORS
330
330
102
}
330
330
100
DictionaryVariables
280
     0
  1
ByLayer
  0
DICTIONARYVAR
  5
896
102
{ACAD_REACTORS
330
330
102
}
330
330
100
DictionaryVariables
280
     0
  1
0
  0
FIELD
  5
1845
102
{ACAD_REACTORS
330
1858
330
18A8
102
}
330
18A8
100
AcDbField
  1
_text
  2
{%<\_FldIdx 0>%N}
 90
        1
360
1846
 97
        0
 91
       63
 92
        0
 94
       11
 95
        2
 96
        0
300

 93
        1
  6
ACFD_FIELDTEXT_CHECKSUM
 93
        2
 90
        2
140
4432.0
 94
        0
300

302

304
ACVALUE_END
  7
ACFD_FIELD_VALUE
 93
        6
 90
        4
  1
{20201111N}
 94
        0
300

302

304
ACVALUE_END
301
{20201111N}
 98
       11
  0
DICTIONARY
  5
18CB
330
279
100
AcDbDictionary
280
     1
281
     1
  3
ACAD_ROUNDTRIP_2008_TABLESTYLE_CELLSTYLEMAP
360
18CC
  0
FIELD
  5
1846
330
1845
100
AcDbField
  1
AcVar
  2
\AcVar Date \f "yyyyMMdd"
 90
        0
 97
        0
 91
       63
 92
        0
 94
        8
 95
       64
 96
        0
300
Variable not supported
 93
        1
  6
Variable
 93
        2
 90
        4
  1
Date
 94
        0
300

302

304
ACVALUE_END
  7
ACFD_FIELD_VALUE
 93
        6
 90
        8
 92
       16
310
E4070B0000000B0001001D0019000000
 94
        0
300
yyyyMMdd
302

304
ACVALUE_END
301
20201111
 98
        8
  0
CELLSTYLEMAP
  5
18CC
102
{ACAD_REACTORS
330
18CB
102
}
330
18CB
100
AcDbCellStyleMap
 90
        3
300
CELLSTYLE
  1
TABLEFORMAT_BEGIN
 90
        5
170
     1
 91
        0
 92
    32768
 62
   257
 93
        1
300
CONTENTFORMAT
  1
CONTENTFORMAT_BEGIN
 90
        0
 91
        0
 92
        4
 93
        0
300

 40
0.0
140
1.0
 94
        5
 62
     0
340
17
144
6.0
309
CONTENTFORMAT_END
171
     1
301
MARGIN
  1
CELLMARGIN_BEGIN
 40
0.06
 40
0.06
 40
0.06
 40
0.06
 40
0.18
 40
0.18
309
CELLMARGIN_END
 94
        6
 95
        1
302
GRIDFORMAT
  1
GRIDFORMAT_BEGIN
 90
        0
 91
        1
 62
     0
 92
       -2
340
0
 93
        0
 40
0.045
309
GRIDFORMAT_END
 95
        2
302
GRIDFORMAT
  1
GRIDFORMAT_BEGIN
 90
        0
 91
        1
 62
     0
 92
       -2
340
0
 93
        0
 40
0.045
309
GRIDFORMAT_END
 95
        4
302
GRIDFORMAT
  1
GRIDFORMAT_BEGIN
 90
        0
 91
        1
 62
     0
 92
       -2
340
0
 93
        0
 40
0.045
309
GRIDFORMAT_END
 95
        8
302
GRIDFORMAT
  1
GRIDFORMAT_BEGIN
 90
        0
 91
        1
 62
     0
 92
       -2
340
0
 93
        0
 40
0.045
309
GRIDFORMAT_END
 95
       16
302
GRIDFORMAT
  1
GRIDFORMAT_BEGIN
 90
        0
 91
        1
 62
     0
 92
       -2
340
0
 93
        0
 40
0.045
309
GRIDFORMAT_END
 95
       32
302
GRIDFORMAT
  1
GRIDFORMAT_BEGIN
 90
        0
 91
        1
 62
     0
 92
       -2
340
0
 93
        0
 40
0.045
309
GRIDFORMAT_END
309
TABLEFORMAT_END
  1
CELLSTYLE_BEGIN
 90
        1
 91
        1
300
_TITLE
309
CELLSTYLE_END
300
CELLSTYLE
  1
TABLEFORMAT_BEGIN
 90
        5
170
     1
 91
        0
 92
        0
 62
   257
 93
        1
300
CONTENTFORMAT
  1
CONTENTFORMAT_BEGIN
 90
        0
 91
        0
 92
        4
 93
        0
300

 40
0.0
140
1.0
 94
        5
 62
     0
340
17
144
4.5
309
CONTENTFORMAT_END
171
     1
301
MARGIN
  1
CELLMARGIN_BEGIN
 40
0.06
 40
0.06
 40
0.06
 40
0.06
 40
0.18
 40
0.18
309
CELLMARGIN_END
 94
        6
 95
        1
302
GRIDFORMAT
  1
GRIDFORMAT_BEGIN
 90
        0
 91
        1
 62
     0
 92
       -2
340
0
 93
        0
 40
0.045
309
GRIDFORMAT_END
 95
        2
302
GRIDFORMAT
  1
GRIDFORMAT_BEGIN
 90
        0
 91
        1
 62
     0
 92
       -2
340
0
 93
        0
 40
0.045
309
GRIDFORMAT_END
 95
        4
302
GRIDFORMAT
  1
GRIDFORMAT_BEGIN
 90
        0
 91
        1
 62
     0
 92
       -2
340
0
 93
        0
 40
0.045
309
GRIDFORMAT_END
 95
        8
302
GRIDFORMAT
  1
GRIDFORMAT_BEGIN
 90
        0
 91
        1
 62
     0
 92
       -2
340
0
 93
        0
 40
0.045
309
GRIDFORMAT_END
 95
       16
302
GRIDFORMAT
  1
GRIDFORMAT_BEGIN
 90
        0
 91
        1
 62
     0
 92
       -2
340
0
 93
        0
 40
0.045
309
GRIDFORMAT_END
 95
       32
302
GRIDFORMAT
  1
GRIDFORMAT_BEGIN
 90
        0
 91
        1
 62
     0
 92
       -2
340
0
 93
        0
 40
0.045
309
GRIDFORMAT_END
309
TABLEFORMAT_END
  1
CELLSTYLE_BEGIN
 90
        2
 91
        1
300
_HEADER
309
CELLSTYLE_END
300
CELLSTYLE
  1
TABLEFORMAT_BEGIN
 90
        5
170
     1
 91
        0
 92
        0
 62
   257
 93
        1
300
CONTENTFORMAT
  1
CONTENTFORMAT_BEGIN
 90
        0
 91
        0
 92
        4
 93
        0
300

 40
0.0
140
1.0
 94
        2
 62
     0
340
17
144
4.5
309
CONTENTFORMAT_END
171
     1
301
MARGIN
  1
CELLMARGIN_BEGIN
 40
0.06
 40
0.06
 40
0.06
 40
0.06
 40
0.18
 40
0.18
309
CELLMARGIN_END
 94
        6
 95
        1
302
GRIDFORMAT
  1
GRIDFORMAT_BEGIN
 90
        0
 91
        1
 62
     0
 92
       -2
340
0
 93
        0
 40
0.045
309
GRIDFORMAT_END
 95
        2
302
GRIDFORMAT
  1
GRIDFORMAT_BEGIN
 90
        0
 91
        1
 62
     0
 92
       -2
340
0
 93
        0
 40
0.045
309
GRIDFORMAT_END
 95
        4
302
GRIDFORMAT
  1
GRIDFORMAT_BEGIN
 90
        0
 91
        1
 62
     0
 92
       -2
340
0
 93
        0
 40
0.045
309
GRIDFORMAT_END
 95
        8
302
GRIDFORMAT
  1
GRIDFORMAT_BEGIN
 90
        0
 91
        1
 62
     0
 92
       -2
340
0
 93
        0
 40
0.045
309
GRIDFORMAT_END
 95
       16
302
GRIDFORMAT
  1
GRIDFORMAT_BEGIN
 90
        0
 91
        1
 62
     0
 92
       -2
340
0
 93
        0
 40
0.045
309
GRIDFORMAT_END
 95
       32
302
GRIDFORMAT
  1
GRIDFORMAT_BEGIN
 90
        0
 91
        1
 62
     0
 92
       -2
340
0
 93
        0
 40
0.045
309
GRIDFORMAT_END
309
TABLEFORMAT_END
  1
CELLSTYLE_BEGIN
 90
        3
 91
        2
300
_DATA
309
CELLSTYLE_END
  0
ENDSEC
  0
EOF
