  0
SECTION
  2
HEADER
  9
$ACADVER
  1
AC1021
  9
$ACADMAINTVER
 70
    25
  9
$DWGCODEPAGE
  3
ANSI_932
  9
$LASTSAVEDBY
  1
howeNelson
  9
$INSBASE
 10
0.0
 20
0.0
 30
0.0
  9
$EXTMIN
 10
0.0
 20
0.0
 30
0.0
  9
$EXTMAX
 10
420.0
 20
594.0
 30
0.0
  9
$LIMMIN
 10
0.0
 20
0.0
  9
$LIMMAX
 10
420.0
 20
594.0
  9
$ORTHOMODE
 70
     0
  9
$REGENMODE
 70
     1
  9
$FILLMODE
 70
     1
  9
$QTEXTMODE
 70
     0
  9
$MIRRTEXT
 70
     1
  9
$LTSCALE
 40
1.0
  9
$ATTMODE
 70
     1
  9
$TEXTSIZE
 40
2.5
  9
$TRACEWID
 40
1.0
  9
$TEXTSTYLE
  7
ＭＳ ゴシック
  9
$CLAYER
  8
DIM
  9
$CELTYPE
  6
ByLayer
  9
$CECOLOR
 62
   256
  9
$CELTSCALE
 40
0.05
  9
$DISPSILH
 70
     0
  9
$DIMSCALE
 40
1.0
  9
$DIMASZ
 40
1.0
  9
$DIMEXO
 40
5.0
  9
$DIMDLI
 40
0.9999999999999999
  9
$DIMRND
 40
0.0
  9
$DIMDLE
 40
0.0
  9
$DIMEXE
 40
0.0
  9
$DIMTP
 40
0.0
  9
$DIMTM
 40
0.0
  9
$DIMTXT
 40
6.0
  9
$DIMCEN
 40
0.0
  9
$DIMTSZ
 40
0.0
  9
$DIMTOL
 70
     0
  9
$DIMLIM
 70
     0
  9
$DIMTIH
 70
     0
  9
$DIMTOH
 70
     0
  9
$DIMSE1
 70
     0
  9
$DIMSE2
 70
     0
  9
$DIMTAD
 70
     1
  9
$DIMZIN
 70
    11
  9
$DIMBLK
  1
DOT
  9
$DIMASO
 70
     1
  9
$DIMSHO
 70
     1
  9
$DIMPOST
  1
<>
  9
$DIMAPOST
  1
[]
  9
$DIMALT
 70
     0
  9
$DIMALTD
 70
     1
  9
$DIMALTF
 40
1.0
  9
$DIMLFAC
 40
1.0
  9
$DIMTOFL
 70
     0
  9
$DIMTVP
 40
0.0
  9
$DIMTIX
 70
     1
  9
$DIMSOXD
 70
     0
  9
$DIMSAH
 70
     0
  9
$DIMBLK1
  1

  9
$DIMBLK2
  1

  9
$DIMSTYLE
  2
tfrom線あり
  9
$DIMCLRD
 70
     0
  9
$DIMCLRE
 70
     0
  9
$DIMCLRT
 70
     0
  9
$DIMTFAC
 40
1.0
  9
$DIMGAP
 40
5.0
  9
$DIMJUST
 70
     0
  9
$DIMSD1
 70
     0
  9
$DIMSD2
 70
     0
  9
$DIMTOLJ
 70
     1
  9
$DIMTZIN
 70
    11
  9
$DIMALTZ
 70
    11
  9
$DIMALTTZ
 70
    11
  9
$DIMUPT
 70
     0
  9
$DIMDEC
 70
     0
  9
$DIMTDEC
 70
     1
  9
$DIMALTU
 70
     2
  9
$DIMALTTD
 70
     2
  9
$DIMTXSTY
  7
ＭＳ ゴシック
  9
$DIMAUNIT
 70
     0
  9
$DIMADEC
 70
     2
  9
$DIMALTRND
 40
0.0
  9
$DIMAZIN
 70
     0
  9
$DIMDSEP
 70
    46
  9
$DIMATFIT
 70
     0
  9
$DIMFRAC
 70
     2
  9
$DIMLDRBLK
  1
DOT
  9
$DIMLUNIT
 70
     2
  9
$DIMLWD
 70
    -2
  9
$DIMLWE
 70
    -2
  9
$DIMTMOVE
 70
     0
  9
$DIMFXL
 40
1.0
  9
$DIMFXLON
 70
     0
  9
$DIMJOGANG
 40
0.7853981633974483
  9
$DIMTFILL
 70
     0
  9
$DIMTFILLCLR
 70
     0
  9
$DIMARCSYM
 70
     0
  9
$DIMLTYPE
  6

  9
$DIMLTEX1
  6

  9
$DIMLTEX2
  6

  9
$LUNITS
 70
     2
  9
$LUPREC
 70
     0
  9
$SKETCHINC
 40
0.1
  9
$FILLETRAD
 40
0.0
  9
$AUNITS
 70
     0
  9
$AUPREC
 70
     0
  9
$MENU
  1
acad
  9
$ELEVATION
 40
0.0
  9
$PELEVATION
 40
0.0
  9
$THICKNESS
 40
0.0
  9
$LIMCHECK
 70
     0
  9
$CHAMFERA
 40
0.0
  9
$CHAMFERB
 40
0.0
  9
$CHAMFERC
 40
0.0
  9
$CHAMFERD
 40
0.0
  9
$SKPOLY
 70
     0
  9
$TDCREATE
 40
2447893.375
  9
$TDUCREATE
 40
0.0
  9
$TDUPDATE
 40
2457626.691209884
  9
$TDUUPDATE
 40
2457626.316209884
  9
$TDINDWG
 40
0.3144606134
  9
$TDUSRTIMER
 40
2457626.263111713
  9
$USRTIMER
 70
     1
  9
$ANGBASE
 50
0.0
  9
$ANGDIR
 70
     0
  9
$PDMODE
 70
     1
  9
$PDSIZE
 40
-2.0
  9
$PLINEWID
 40
0.0
  9
$SPLFRAME
 70
     0
  9
$SPLINETYPE
 70
     6
  9
$SPLINESEGS
 70
     8
  9
$HANDSEED
  5
63B4
  9
$SURFTAB1
 70
     6
  9
$SURFTAB2
 70
     6
  9
$SURFTYPE
 70
     6
  9
$SURFU
 70
     6
  9
$SURFV
 70
     6
  9
$UCSBASE
  2

  9
$UCSNAME
  2

  9
$UCSORG
 10
0.0
 20
0.0
 30
0.0
  9
$UCSXDIR
 10
1.0
 20
0.0
 30
0.0
  9
$UCSYDIR
 10
0.0
 20
1.0
 30
0.0
  9
$UCSORTHOREF
  2

  9
$UCSORTHOVIEW
 70
     0
  9
$UCSORGTOP
 10
0.0
 20
0.0
 30
0.0
  9
$UCSORGBOTTOM
 10
0.0
 20
0.0
 30
0.0
  9
$UCSORGLEFT
 10
0.0
 20
0.0
 30
0.0
  9
$UCSORGRIGHT
 10
0.0
 20
0.0
 30
0.0
  9
$UCSORGFRONT
 10
0.0
 20
0.0
 30
0.0
  9
$UCSORGBACK
 10
0.0
 20
0.0
 30
0.0
  9
$PUCSBASE
  2

  9
$PUCSNAME
  2

  9
$PUCSORG
 10
0.0
 20
0.0
 30
0.0
  9
$PUCSXDIR
 10
1.0
 20
0.0
 30
0.0
  9
$PUCSYDIR
 10
0.0
 20
1.0
 30
0.0
  9
$PUCSORTHOREF
  2

  9
$PUCSORTHOVIEW
 70
     0
  9
$PUCSORGTOP
 10
0.0
 20
0.0
 30
0.0
  9
$PUCSORGBOTTOM
 10
0.0
 20
0.0
 30
0.0
  9
$PUCSORGLEFT
 10
0.0
 20
0.0
 30
0.0
  9
$PUCSORGRIGHT
 10
0.0
 20
0.0
 30
0.0
  9
$PUCSORGFRONT
 10
0.0
 20
0.0
 30
0.0
  9
$PUCSORGBACK
 10
0.0
 20
0.0
 30
0.0
  9
$USERI1
 70
     0
  9
$USERI2
 70
     0
  9
$USERI3
 70
     0
  9
$USERI4
 70
     0
  9
$USERI5
 70
     0
  9
$USERR1
 40
0.0
  9
$USERR2
 40
0.0
  9
$USERR3
 40
0.0
  9
$USERR4
 40
0.0
  9
$USERR5
 40
0.0
  9
$WORLDVIEW
 70
     1
  9
$SHADEDGE
 70
     3
  9
$SHADEDIF
 70
    70
  9
$TILEMODE
 70
     1
  9
$MAXACTVP
 70
    64
  9
$PINSBASE
 10
0.0
 20
0.0
 30
0.0
  9
$PLIMCHECK
 70
     0
  9
$PEXTMIN
 10
0.0
 20
0.0
 30
0.0
  9
$PEXTMAX
 10
0.0
 20
0.0
 30
0.0
  9
$PLIMMIN
 10
-95.87226993865028
 20
-25.69999999999999
  9
$PLIMMAX
 10
201.1277300613497
 20
184.3
  9
$UNITMODE
 70
     0
  9
$VISRETAIN
 70
     0
  9
$PLINEGEN
 70
     1
  9
$PSLTSCALE
 70
     0
  9
$TREEDEPTH
 70
  3020
  9
$CMLSTYLE
  2
Standard
  9
$CMLJUST
 70
     0
  9
$CMLSCALE
 40
1.0
  9
$PROXYGRAPHICS
 70
     0
  9
$MEASUREMENT
 70
     1
  9
$CELWEIGHT
370
    -1
  9
$ENDCAPS
280
     0
  9
$JOINSTYLE
280
     0
  9
$LWDISPLAY
290
     1
  9
$INSUNITS
 70
     4
  9
$HYPERLINKBASE
  1

  9
$STYLESHEET
  1

  9
$XEDIT
290
     1
  9
$CEPSNTYPE
380
     0
  9
$PSTYLEMODE
290
     1
  9
$FINGERPRINTGUID
  2

  9
$VERSIONGUID
  2

  9
$EXTNAMES
290
     1
  9
$PSVPSCALE
 40
0.0
  9
$OLESTARTUP
290
     0
  9
$SORTENTS
280
   127
  9
$INDEXCTL
280
     0
  9
$HIDETEXT
280
     1
  9
$XCLIPFRAME
290
     0
  9
$HALOGAP
280
     0
  9
$OBSCOLOR
 70
   257
  9
$OBSLTYPE
280
     0
  9
$INTERSECTIONDISPLAY
280
     0
  9
$INTERSECTIONCOLOR
 70
   257
  9
$DIMASSOC
280
     2
  9
$PROJECTNAME
  1

  9
$CAMERADISPLAY
290
     0
  9
$LENSLENGTH
 40
50.0
  9
$CAMERAHEIGHT
 40
0.0
  9
$STEPSPERSEC
 40
2.0
  9
$STEPSIZE
 40
6.0
  9
$3DDWFPREC
 40
2.0
  9
$PSOLWIDTH
 40
0.25
  9
$PSOLHEIGHT
 40
4.0
  9
$LOFTANG1
 40
1.570796326794897
  9
$LOFTANG2
 40
1.570796326794897
  9
$LOFTMAG1
 40
0.0
  9
$LOFTMAG2
 40
0.0
  9
$LOFTPARAM
 70
     7
  9
$LOFTNORMALS
280
     1
  9
$LATITUDE
 40
37.795
  9
$LONGITUDE
 40
-122.394
  9
$NORTHDIRECTION
 40
0.0
  9
$TIMEZONE
 70
 -8000
  9
$LIGHTGLYPHDISPLAY
280
     1
  9
$TILEMODELIGHTSYNCH
280
     1
  9
$SOLIDHIST
280
     1
  9
$SHOWHIST
280
     1
  9
$DWFFRAME
280
     2
  9
$DGNFRAME
280
     2
  9
$REALWORLDSCALE
290
     1
  9
$INTERFERECOLOR
 62
   256
  9
$CSHADOW
280
     0
  9
$SHADOWPLANELOCATION
 40
0.0
  0
ENDSEC
  0
SECTION
  2
CLASSES
  0
CLASS
  1
LWPOLYLINE
  2
AcDbPolyline
  3
ObjectDBX Classes
 90
        0
 91
        1
280
     0
281
     1
  0
CLASS
  1
IMAGE
  2
AcDbRasterImage
  3
ISM
 90
      127
 91
        5
280
     0
281
     1
  0
CLASS
  1
OLE2FRAME
  2
AcDbOle2Frame
  3
ObjectDBX Classes
 90
        0
 91
        1
280
     0
281
     1
  0
CLASS
  1
HATCH
  2
AcDbHatch
  3
ObjectDBX Classes
 90
        0
 91
        1
280
     0
281
     1
  0
CLASS
  1
DICTIONARYVAR
  2
AcDbDictionaryVar
  3
ObjectDBX Classes
 90
        0
 91
       16
280
     0
281
     0
  0
CLASS
  1
RASTERVARIABLES
  2
AcDbRasterVariables
  3
ISM
 90
        0
 91
       16
280
     0
281
     0
  0
CLASS
  1
IMAGEDEF
  2
AcDbRasterImageDef
  3
ISM
 90
        0
 91
        4
280
     0
281
     0
  0
CLASS
  1
IMAGEDEF_REACTOR
  2
AcDbRasterImageDefReactor
  3
ISM
 90
        1
 91
        4
280
     0
281
     0
  0
CLASS
  1
IDBUFFER
  2
AcDbIdBuffer
  3
ObjectDBX Classes
 90
        0
 91
        4
280
     0
281
     0
  0
CLASS
  1
SPATIAL_FILTER
  2
AcDbSpatialFilter
  3
ObjectDBX Classes
 90
        0
 91
        4
280
     0
281
     0
  0
CLASS
  1
XRECORD
  2
AcDbXrecord
  3
ObjectDBX Classes
 90
        0
 91
        1
280
     0
281
     0
  0
CLASS
  1
SORTENTSTABLE
  2
AcDbSortentsTable
  3
ObjectDBX Classes
 90
        0
 91
        4
280
     0
281
     0
  0
CLASS
  1
LAYER_INDEX
  2
AcDbLayerIndex
  3
ObjectDBX Classes
 90
        0
 91
        4
280
     0
281
     0
  0
CLASS
  1
SPATIAL_INDEX
  2
AcDbSpatialIndex
  3
AutoCAD 2000
 90
        0
 91
        4
280
     0
281
     0
  0
CLASS
  1
OBJECT_PTR
  2
CAseDLPNTableRecord
  3
ASE-LPNTableRecord
 90
        1
 91
        4
280
     0
281
     0
  0
CLASS
  1
LAYOUT
  2
AcDbLayout
  3
ObjectDBX Classes
 90
        0
 91
        1
280
     0
281
     0
  0
CLASS
  1
PLOTSETTINGS
  2
AcDbPlotSettings
  3
ObjectDBX Classes
 90
        0
 91
        4
280
     0
281
     0
  0
CLASS
  1
ACDBDICTIONARYWDFLT
  2
AcDbDictionaryWithDefault
  3
ObjectDBX Classes
 90
        0
 91
       16
280
     0
281
     0
  0
CLASS
  1
ACDBPLACEHOLDER
  2
AcDbPlaceHolder
  3
ObjectDBX Classes
 90
        0
 91
        1
280
     0
281
     0
  0
CLASS
  1
SCALE
  2
AcDbScale
  3
ObjectDBX Classes
 90
     1153
 91
       16
280
     0
281
     0
  0
CLASS
  1
MATERIAL
  2
AcDbMaterial
  3
ObjectDBX Classes
 90
     1153
 91
       16
280
     0
281
     0
  0
CLASS
  1
VISUALSTYLE
  2
AcDbVisualStyle
  3
ObjectDBX Classes
 90
     4095
 91
       16
280
     0
281
     0
  0
CLASS
  1
TABLESTYLE
  2
AcDbTableStyle
  3
ObjectDBX Classes
 90
     4095
 91
       16
280
     0
281
     0
  0
CLASS
  1
DIMASSOC
  2
AcDbDimAssoc
  3
"AcDbDimAssoc|Product Desc:     AcDim ARX App For Dimension|Company:          Autodesk, Inc.|WEB Address:      www.autodesk.com"
 90
        0
 91
        6
280
     0
281
     0
  0
CLASS
  1
CELLSTYLEMAP
  2
AcDbCellStyleMap
  3
ObjectDBX Classes
 90
     1152
 91
        4
280
     0
281
     0
  0
CLASS
  1
SUN
  2
AcDbSun
  3
SCENEOE
 90
     1153
 91
       16
280
     0
281
     0
  0
CLASS
  1
MLEADERSTYLE
  2
AcDbMLeaderStyle
  3
ACDB_MLEADERSTYLE_CLASS
 90
     4095
 91
       16
280
     0
281
     0
  0
CLASS
  1
FIELD
  2
AcDbField
  3
ObjectDBX Classes
 90
     1152
 91
        4
280
     0
281
     0
  0
CLASS
  1
FIELDLIST
  2
AcDbFieldList
  3
ObjectDBX Classes
 90
     1152
 91
        4
280
     0
281
     0
  0
ENDSEC
  0
SECTION
  2
TABLES
  0
TABLE
  2
VPORT
  5
7
330
0
100
AcDbSymbolTable
 70
     1
  0
VPORT
  5
15
330
7
100
AcDbSymbolTableRecord
100
AcDbViewportTableRecord
  2
*ACTIVE
 70
     0
 10
0.0
 20
0.0
 11
1.0
 21
1.0
 12
301.0201356709072
 22
223.401285469834
 13
0.0
 23
0.0
 14
1.0
 24
1.0
 15
0.0
 25
0.0
 16
0.0
 26
0.0
 36
1.0
 17
-91.02013567090717
 27
73.59871453016603
 37
-46.86809886248109
 40
605.88
 41
2.476261127596439
 42
50.0
 43
0.0
 44
0.0
 50
0.0
 51
0.0
 71
    16
 72
  2000
 73
     1
 74
     1
 75
     0
 76
     0
 77
     0
 78
     0
281
     0
 65
     1
110
0.0
120
0.0
130
0.0
111
1.0
121
0.0
131
0.0
112
0.0
122
1.0
132
0.0
 79
     0
146
0.0
348
26C
 60
     3
 61
     5
292
     1
282
     1
141
0.0
142
0.0
 63
   256
361
904
  0
ENDTAB
  0
TABLE
  2
LTYPE
  5
4
330
0
100
AcDbSymbolTable
 70
     5
  0
LTYPE
  5
11
330
4
100
AcDbSymbolTableRecord
100
AcDbLinetypeTableRecord
  2
ByBlock
 70
     0
  3

 72
    65
 73
     0
 40
0.0
  0
LTYPE
  5
12
330
4
100
AcDbSymbolTableRecord
100
AcDbLinetypeTableRecord
  2
ByLayer
 70
     0
  3

 72
    65
 73
     0
 40
0.0
  0
LTYPE
  5
13
330
4
100
AcDbSymbolTableRecord
100
AcDbLinetypeTableRecord
  2
Continuous
 70
     0
  3
Solid line
 72
    65
 73
     0
 40
0.0
  0
LTYPE
  5
D6C
330
4
100
AcDbSymbolTableRecord
100
AcDbLinetypeTableRecord
  2
BORDER
 70
     0
  3
Border __  __  . __  __  . __  __  . __  __  . 
 72
    65
 73
     6
 40
44.45
 49
12.7
 74
     0
 49
-6.35
 74
     0
 49
12.7
 74
     0
 49
-6.35
 74
     0
 49
0.0
 74
     0
 49
-6.35
 74
     0
  0
LTYPE
  5
1638
330
4
100
AcDbSymbolTableRecord
100
AcDbLinetypeTableRecord
  2
HIDDEN2
 70
     0
  3
Hidden (.5x) _ _ _ _ _ _ _ _ _ _ _ _ _ _ _ _ _ 
 72
    65
 73
     2
 40
4.7625
 49
3.175
 74
     4
 75
     0
340
0
 46
0.0
 50
0.0
 44
0.0
 45
0.0
 49
-1.5875
 74
     4
 75
     0
340
0
 46
0.0
 50
0.0
 44
0.0
 45
0.0
  0
LTYPE
  5
4A90
330
4
100
AcDbSymbolTableRecord
100
AcDbLinetypeTableRecord
  2
CENTER2
 70
     0
  3
Center (.5x) ___ _ ___ _ ___ _ ___ _ ___ _ ___
 72
    65
 73
     4
 40
28.575
 49
19.05
 74
     4
 75
     0
340
0
 46
0.0
 50
0.0
 44
0.0
 45
0.0
 49
-3.175
 74
     4
 75
     0
340
0
 46
0.0
 50
0.0
 44
0.0
 45
0.0
 49
3.175
 74
     4
 75
     0
340
0
 46
0.0
 50
0.0
 44
0.0
 45
0.0
 49
-3.175
 74
     4
 75
     0
340
0
 46
0.0
 50
0.0
 44
0.0
 45
0.0
  0
LTYPE
  5
62D3
330
4
100
AcDbSymbolTableRecord
100
AcDbLinetypeTableRecord
  2
CENTER
 70
     0
  3
 Center _____  _  _____  _  _____  _  _____  _ 
 72
    65
 73
     4
 40
50.8
 49
31.75
 74
     0
 49
-6.35
 74
     0
 49
6.35
 74
     0
 49
-6.35
 74
     0
  0
ENDTAB
  0
TABLE
  2
LAYER
  5
2
102
{ACAD_XDICTIONARY
360
2E1
102
}
330
0
100
AcDbSymbolTable
 70
    14
  0
LAYER
  5
14
330
2
100
AcDbSymbolTableRecord
100
AcDbLayerTableRecord
  2
0
 70
     0
 62
     7
  6
Continuous
370
    -3
390
1D
347
266
  0
LAYER
  5
4B
330
2
100
AcDbSymbolTableRecord
100
AcDbLayerTableRecord
  2
TEMPLATE
 70
     0
 62
     7
  6
Continuous
370
    20
390
1D
347
266
  0
LAYER
  5
4C
330
2
100
AcDbSymbolTableRecord
100
AcDbLayerTableRecord
  2
DIM
 70
     0
 62
     3
  6
Continuous
370
    13
390
1D
347
266
  0
LAYER
  5
4D
330
2
100
AcDbSymbolTableRecord
100
AcDbLayerTableRecord
  2
MODEL
 70
     0
 62
     7
  6
Continuous
370
    20
390
1D
347
266
  0
LAYER
  5
667
330
2
100
AcDbSymbolTableRecord
100
AcDbLayerTableRecord
  2
LOGO
 70
     0
 62
     7
  6
Continuous
370
    -3
390
1D
347
266
  0
LAYER
  5
D6B
330
2
100
AcDbSymbolTableRecord
100
AcDbLayerTableRecord
  2
BORDER
 70
     0
 62
     4
  6
BORDER
290
     0
370
    20
390
1D
347
266
1001
AcAecLayerStandard
1000

1000

  0
LAYER
  5
D8C
330
2
100
AcDbSymbolTableRecord
100
AcDbLayerTableRecord
  2
Defpoints
 70
     0
 62
     7
  6
Continuous
290
     0
370
    -3
390
1D
347
266
  0
LAYER
  5
1635
330
2
100
AcDbSymbolTableRecord
100
AcDbLayerTableRecord
  2
Standard
 70
     0
 62
     7
  6
Continuous
370
    -3
390
1D
347
266
  0
LAYER
  5
3445
330
2
100
AcDbSymbolTableRecord
100
AcDbLayerTableRecord
  2
Layer50
 70
     0
 62
     7
  6
Continuous
370
    -3
390
1D
347
266
  0
LAYER
  5
4A8D
330
2
100
AcDbSymbolTableRecord
100
AcDbLayerTableRecord
  2
Layer51
 70
     0
 62
     7
  6
Continuous
370
    -3
390
1D
347
266
  0
LAYER
  5
4A8E
330
2
100
AcDbSymbolTableRecord
100
AcDbLayerTableRecord
  2
Default
 70
     0
 62
     7
  6
Continuous
370
    -3
390
1D
347
266
  0
LAYER
  5
4A8F
330
2
100
AcDbSymbolTableRecord
100
AcDbLayerTableRecord
  2
Layer3
 70
     0
 62
     7
  6
Continuous
370
    -3
390
1D
347
266
  0
LAYER
  5
50B8
330
2
100
AcDbSymbolTableRecord
100
AcDbLayerTableRecord
  2
Layer1
 70
     0
 62
     7
  6
Continuous
370
    -3
390
1D
347
266
  0
LAYER
  5
50BC
330
2
100
AcDbSymbolTableRecord
100
AcDbLayerTableRecord
  2
デフォルト
 70
     0
 62
     7
  6
Continuous
370
    -3
390
1D
347
266
  0
ENDTAB
  0
TABLE
  2
STYLE
  5
3
330
0
100
AcDbSymbolTable
 70
     3
  0
STYLE
  5
17
330
3
100
AcDbSymbolTableRecord
100
AcDbTextStyleTableRecord
  2
Standard
 70
     0
 40
0.0
 41
1.0
 50
0.0
 71
     0
 42
2.5
  3
txt
  4
BIGFONT.SHX
  0
STYLE
  5
39
330
3
100
AcDbSymbolTableRecord
100
AcDbTextStyleTableRecord
  2
ＭＳ ゴシック
 70
     0
 40
0.0
 41
1.0
 50
0.0
 71
     0
 42
2.5
  3
msgothic.ttc
  4
ＭＳ ゴシック
1001
ACAD
1000
ＭＳ ゴシック
1071
        0
  0
STYLE
  5
4A94
330
3
100
AcDbSymbolTableRecord
100
AcDbTextStyleTableRecord
  2
SEACAD_arial_ttf
 70
     0
 40
0.0
 41
1.0
 50
0.0
 71
     0
 42
2.5
  3
arial.ttf
  4

  0
ENDTAB
  0
TABLE
  2
VIEW
  5
5
330
0
100
AcDbSymbolTable
 70
     0
  0
ENDTAB
  0
TABLE
  2
UCS
  5
6
330
0
100
AcDbSymbolTable
 70
     0
  0
ENDTAB
  0
TABLE
  2
APPID
  5
8
330
0
100
AcDbSymbolTable
 70
     3
  0
APPID
  5
16
330
8
100
AcDbSymbolTableRecord
100
AcDbRegAppTableRecord
  2
ACAD
 70
     0
  0
APPID
  5
7AC
330
8
100
AcDbSymbolTableRecord
100
AcDbRegAppTableRecord
  2
AcAecLayerStandard
 70
     0
  0
APPID
  5
E29
330
8
100
AcDbSymbolTableRecord
100
AcDbRegAppTableRecord
  2
ACAD_MLEADERVER
 70
     0
  0
ENDTAB
  0
TABLE
  2
DIMSTYLE
  5
9
330
0
100
AcDbSymbolTable
 70
     5
100
AcDbDimStyleTable
  0
DIMSTYLE
105
18
102
{ACAD_REACTORS
330
5FB0
102
}
330
9
100
AcDbSymbolTableRecord
100
AcDbDimStyleTableRecord
  2
Standard
 70
     0
178
     0
340
17
  0
DIMSTYLE
105
57
102
{ACAD_REACTORS
330
6172
330
618E
330
61AF
330
61BC
330
61DA
330
61EC
330
622C
330
6260
330
627B
330
6296
102
}
330
9
100
AcDbSymbolTableRecord
100
AcDbDimStyleTableRecord
  2
tfrom線あり
 70
     0
  3
<>
  4
[]
 41
1.0
 42
5.0
 43
0.9999999999999999
 44
0.0
 73
     0
 74
     0
 77
     1
 78
    11
140
6.0
141
0.0
143
1.0
147
5.0
171
     1
174
     1
178
     0
179
     2
271
     0
272
     1
276
     2
284
    11
285
    11
286
    11
289
     0
340
39
341
4E
342
4E
  0
DIMSTYLE
105
4A91
330
9
100
AcDbSymbolTableRecord
100
AcDbDimStyleTableRecord
  2
ISO-25
 70
     0
 41
2.5
 42
0.625
 43
3.75
 44
1.25
 73
     0
 74
     0
 77
     1
 78
     8
140
2.5
141
2.5
143
0.0393700787
147
0.625
171
     3
172
     1
178
     0
271
     2
272
     2
274
     3
278
    44
283
     0
284
     8
340
17
  0
DIMSTYLE
105
4A93
102
{ACAD_REACTORS
102
}
330
9
100
AcDbSymbolTableRecord
100
AcDbDimStyleTableRecord
  2
$DDT_AUDIT_GENERATED_(2DA)
 70
     0
 41
6.0
 42
0.0
 44
3.0
 78
     8
140
6.0
141
3.0
144
2.0
147
3.0
173
     1
176
   136
177
   136
271
     0
178
   136
271
     0
272
     0
278
    44
284
     8
340
4A94
343
4A95
344
4A95
  0
DIMSTYLE
105
50C0
102
{ACAD_REACTORS
102
}
330
9
100
AcDbSymbolTableRecord
100
AcDbDimStyleTableRecord
  2
$DDT_AUDIT_GENERATED_(27A)
 70
     0
 41
6.0
 42
0.0
 44
3.0
 78
     8
140
6.0
141
3.0
144
2.0
147
3.0
173
     1
176
   136
177
   136
271
     0
178
   136
271
     0
272
     0
278
    44
284
     8
340
4A94
343
4A95
344
4A95
  0
ENDTAB
  0
TABLE
  2
BLOCK_RECORD
  5
1
330
0
100
AcDbSymbolTable
 70
    74
  0
BLOCK_RECORD
  5
A
102
{ACAD_XDICTIONARY
360
60F0
102
}
330
1
100
AcDbSymbolTableRecord
100
AcDbBlockTableRecord
  2
*MODEL_SPACE
340
20
 70
     0
280
     1
281
     0
  0
BLOCK_RECORD
  5
B
330
1
100
AcDbSymbolTableRecord
100
AcDbBlockTableRecord
  2
*PAPER_SPACE
340
21
 70
     0
280
     1
281
     0
  0
BLOCK_RECORD
  5
4E
330
1
100
AcDbSymbolTableRecord
100
AcDbBlockTableRecord
  2
_DOT
340
0
 70
     0
280
     1
281
     0
  0
BLOCK_RECORD
  5
68A
330
1
100
AcDbSymbolTableRecord
100
AcDbBlockTableRecord
  2
名称未設定-1
340
0
102
{BLKREFS
331
6B5
102
}
 70
     1
280
     1
281
     0
  0
BLOCK_RECORD
  5
68D
330
1
100
AcDbSymbolTableRecord
100
AcDbBlockTableRecord
  2
block 2
340
0
102
{BLKREFS
331
68C
331
1343
102
}
 70
     0
280
     1
281
     0
  0
BLOCK_RECORD
  5
690
330
1
100
AcDbSymbolTableRecord
100
AcDbBlockTableRecord
  2
block 3
340
0
102
{BLKREFS
331
68F
102
}
 70
     0
280
     1
281
     0
  0
BLOCK_RECORD
  5
693
330
1
100
AcDbSymbolTableRecord
100
AcDbBlockTableRecord
  2
block 4
340
0
102
{BLKREFS
331
692
102
}
 70
     0
280
     1
281
     0
  0
BLOCK_RECORD
  5
6A2
330
1
100
AcDbSymbolTableRecord
100
AcDbBlockTableRecord
  2
block 5
340
0
102
{BLKREFS
331
6A1
102
}
 70
     0
280
     1
281
     0
  0
BLOCK_RECORD
  5
495D
330
1
100
AcDbSymbolTableRecord
100
AcDbBlockTableRecord
  2
*D6
340
0
 70
     0
280
     1
281
     0
  0
BLOCK_RECORD
  5
496A
330
1
100
AcDbSymbolTableRecord
100
AcDbBlockTableRecord
  2
*D7
340
0
 70
     0
280
     1
281
     0
  0
BLOCK_RECORD
  5
4993
330
1
100
AcDbSymbolTableRecord
100
AcDbBlockTableRecord
  2
*D8
340
0
 70
     0
280
     1
281
     0
  0
BLOCK_RECORD
  5
49A0
330
1
100
AcDbSymbolTableRecord
100
AcDbBlockTableRecord
  2
*D9
340
0
 70
     0
280
     1
281
     0
  0
BLOCK_RECORD
  5
49AD
330
1
100
AcDbSymbolTableRecord
100
AcDbBlockTableRecord
  2
*D10
340
0
 70
     0
280
     1
281
     0
  0
BLOCK_RECORD
  5
49BA
330
1
100
AcDbSymbolTableRecord
100
AcDbBlockTableRecord
  2
*D11
340
0
 70
     0
280
     1
281
     0
  0
BLOCK_RECORD
  5
4A95
330
1
100
AcDbSymbolTableRecord
100
AcDbBlockTableRecord
  2
_SE_FILLED
340
0
102
{BLKREFS
331
4D4F
331
4D50
331
4D5A
331
4D5B
331
4D65
331
4D66
331
4D70
331
4D71
331
4D7B
331
4D7C
331
531B
331
531C
331
5327
331
5328
331
5331
331
5332
331
533C
331
533D
331
5347
331
5348
331
559B
331
559C
331
55A8
331
55A9
331
55B6
331
55B7
331
55C5
331
55C6
331
55D2
331
55D3
331
5B30
331
5B31
331
5B3E
331
5B3F
331
5B4C
331
5B4D
331
5B5C
331
5B5D
331
5B6A
331
5B6B
102
}
 70
     0
280
     1
281
     0
1001
ACAD
1000
DesignCenter Data
1002
{
1070
     1
1070
     0
1002
}
  0
BLOCK_RECORD
  5
4C24
330
1
100
AcDbSymbolTableRecord
100
AcDbBlockTableRecord
  2
SEANNOT_GROUP
340
0
 70
     0
280
     1
281
     0
1001
ACAD
1000
DesignCenter Data
1002
{
1070
     1
1070
     0
1002
}
  0
BLOCK_RECORD
  5
4D49
330
1
100
AcDbSymbolTableRecord
100
AcDbBlockTableRecord
  2
DMBLK23
340
0
 70
     0
280
     1
281
     0
1001
ACAD
1000
DesignCenter Data
1002
{
1070
     1
1070
     0
1002
}
  0
BLOCK_RECORD
  5
4D54
330
1
100
AcDbSymbolTableRecord
100
AcDbBlockTableRecord
  2
DMBLK24
340
0
 70
     0
280
     1
281
     0
1001
ACAD
1000
DesignCenter Data
1002
{
1070
     1
1070
     0
1002
}
  0
BLOCK_RECORD
  5
4D5F
330
1
100
AcDbSymbolTableRecord
100
AcDbBlockTableRecord
  2
DMBLK25
340
0
 70
     0
280
     1
281
     0
1001
ACAD
1000
DesignCenter Data
1002
{
1070
     1
1070
     0
1002
}
  0
BLOCK_RECORD
  5
4D6A
330
1
100
AcDbSymbolTableRecord
100
AcDbBlockTableRecord
  2
DMBLK26
340
0
 70
     0
280
     1
281
     0
1001
ACAD
1000
DesignCenter Data
1002
{
1070
     1
1070
     0
1002
}
  0
BLOCK_RECORD
  5
4D75
330
1
100
AcDbSymbolTableRecord
100
AcDbBlockTableRecord
  2
DMBLK27
340
0
 70
     0
280
     1
281
     0
1001
ACAD
1000
DesignCenter Data
1002
{
1070
     1
1070
     0
1002
}
  0
BLOCK_RECORD
  5
5022
330
1
100
AcDbSymbolTableRecord
100
AcDbBlockTableRecord
  2
*D19
340
0
 70
     0
280
     1
281
     0
  0
BLOCK_RECORD
  5
502F
330
1
100
AcDbSymbolTableRecord
100
AcDbBlockTableRecord
  2
*D20
340
0
 70
     0
280
     1
281
     0
  0
BLOCK_RECORD
  5
503C
330
1
100
AcDbSymbolTableRecord
100
AcDbBlockTableRecord
  2
*D21
340
0
 70
     0
280
     1
281
     0
  0
BLOCK_RECORD
  5
5049
330
1
100
AcDbSymbolTableRecord
100
AcDbBlockTableRecord
  2
*D22
340
0
 70
     0
280
     1
281
     0
  0
BLOCK_RECORD
  5
5056
330
1
100
AcDbSymbolTableRecord
100
AcDbBlockTableRecord
  2
*D23
340
0
 70
     0
280
     1
281
     0
  0
BLOCK_RECORD
  5
5315
330
1
100
AcDbSymbolTableRecord
100
AcDbBlockTableRecord
  2
DMBLK49
340
0
 70
     0
280
     1
281
     0
1001
ACAD
1000
DesignCenter Data
1002
{
1070
     1
1070
     0
1002
}
  0
BLOCK_RECORD
  5
5320
330
1
100
AcDbSymbolTableRecord
100
AcDbBlockTableRecord
  2
DMBLK50
340
0
 70
     0
280
     1
281
     0
1001
ACAD
1000
DesignCenter Data
1002
{
1070
     1
1070
     0
1002
}
  0
BLOCK_RECORD
  5
532B
330
1
100
AcDbSymbolTableRecord
100
AcDbBlockTableRecord
  2
DMBLK51
340
0
 70
     0
280
     1
281
     0
1001
ACAD
1000
DesignCenter Data
1002
{
1070
     1
1070
     0
1002
}
  0
BLOCK_RECORD
  5
5336
330
1
100
AcDbSymbolTableRecord
100
AcDbBlockTableRecord
  2
DMBLK52
340
0
 70
     0
280
     1
281
     0
1001
ACAD
1000
DesignCenter Data
1002
{
1070
     1
1070
     0
1002
}
  0
BLOCK_RECORD
  5
5341
330
1
100
AcDbSymbolTableRecord
100
AcDbBlockTableRecord
  2
DMBLK53
340
0
 70
     0
280
     1
281
     0
1001
ACAD
1000
DesignCenter Data
1002
{
1070
     1
1070
     0
1002
}
  0
BLOCK_RECORD
  5
5594
330
1
100
AcDbSymbolTableRecord
100
AcDbBlockTableRecord
  2
*D29
340
0
 70
     0
280
     1
281
     0
  0
BLOCK_RECORD
  5
55A1
330
1
100
AcDbSymbolTableRecord
100
AcDbBlockTableRecord
  2
*D30
340
0
 70
     0
280
     1
281
     0
  0
BLOCK_RECORD
  5
55AF
330
1
100
AcDbSymbolTableRecord
100
AcDbBlockTableRecord
  2
*D31
340
0
 70
     0
280
     1
281
     0
  0
BLOCK_RECORD
  5
55BE
330
1
100
AcDbSymbolTableRecord
100
AcDbBlockTableRecord
  2
*D32
340
0
 70
     0
280
     1
281
     0
  0
BLOCK_RECORD
  5
55CB
330
1
100
AcDbSymbolTableRecord
100
AcDbBlockTableRecord
  2
*D33
340
0
 70
     0
280
     1
281
     0
  0
BLOCK_RECORD
  5
5881
330
1
100
AcDbSymbolTableRecord
100
AcDbBlockTableRecord
  2
*D34
340
0
 70
     0
280
     1
281
     0
  0
BLOCK_RECORD
  5
588D
330
1
100
AcDbSymbolTableRecord
100
AcDbBlockTableRecord
  2
*D35
340
0
 70
     0
280
     1
281
     0
  0
BLOCK_RECORD
  5
5899
330
1
100
AcDbSymbolTableRecord
100
AcDbBlockTableRecord
  2
*D36
340
0
 70
     0
280
     1
281
     0
  0
BLOCK_RECORD
  5
58A5
330
1
100
AcDbSymbolTableRecord
100
AcDbBlockTableRecord
  2
*D37
340
0
 70
     0
280
     1
281
     0
  0
BLOCK_RECORD
  5
58B1
330
1
100
AcDbSymbolTableRecord
100
AcDbBlockTableRecord
  2
*D38
340
0
 70
     0
280
     1
281
     0
  0
BLOCK_RECORD
  5
5B2A
330
1
100
AcDbSymbolTableRecord
100
AcDbBlockTableRecord
  2
*D39
340
0
 70
     0
280
     1
281
     0
  0
BLOCK_RECORD
  5
5B38
330
1
100
AcDbSymbolTableRecord
100
AcDbBlockTableRecord
  2
*D40
340
0
 70
     0
280
     1
281
     0
  0
BLOCK_RECORD
  5
5B46
330
1
100
AcDbSymbolTableRecord
100
AcDbBlockTableRecord
  2
*D41
340
0
 70
     0
280
     1
281
     0
  0
BLOCK_RECORD
  5
5B56
330
1
100
AcDbSymbolTableRecord
100
AcDbBlockTableRecord
  2
*D42
340
0
 70
     0
280
     1
281
     0
  0
BLOCK_RECORD
  5
5B64
330
1
100
AcDbSymbolTableRecord
100
AcDbBlockTableRecord
  2
*D43
340
0
 70
     0
280
     1
281
     0
  0
BLOCK_RECORD
  5
5DA8
330
1
100
AcDbSymbolTableRecord
100
AcDbBlockTableRecord
  2
*D44
340
0
 70
     0
280
     1
281
     0
  0
BLOCK_RECORD
  5
5DB5
330
1
100
AcDbSymbolTableRecord
100
AcDbBlockTableRecord
  2
*D45
340
0
 70
     0
280
     1
281
     0
  0
BLOCK_RECORD
  5
5DC2
330
1
100
AcDbSymbolTableRecord
100
AcDbBlockTableRecord
  2
*D46
340
0
 70
     0
280
     1
281
     0
  0
BLOCK_RECORD
  5
5DD1
330
1
100
AcDbSymbolTableRecord
100
AcDbBlockTableRecord
  2
*D47
340
0
 70
     0
280
     1
281
     0
  0
BLOCK_RECORD
  5
5DDE
330
1
100
AcDbSymbolTableRecord
100
AcDbBlockTableRecord
  2
*D48
340
0
 70
     0
280
     1
281
     0
  0
BLOCK_RECORD
  5
5FB3
330
1
100
AcDbSymbolTableRecord
100
AcDbBlockTableRecord
  2
*D50
340
0
 70
     0
280
     1
281
     0
  0
BLOCK_RECORD
  5
60C5
330
1
100
AcDbSymbolTableRecord
100
AcDbBlockTableRecord
  2
*D51
340
0
 70
     0
280
     1
281
     0
  0
BLOCK_RECORD
  5
60E3
330
1
100
AcDbSymbolTableRecord
100
AcDbBlockTableRecord
  2
*D52
340
0
 70
     0
280
     1
281
     0
  0
BLOCK_RECORD
  5
60F5
330
1
100
AcDbSymbolTableRecord
100
AcDbBlockTableRecord
  2
*D53
340
0
 70
     0
280
     1
281
     0
  0
BLOCK_RECORD
  5
6102
330
1
100
AcDbSymbolTableRecord
100
AcDbBlockTableRecord
  2
*D54
340
0
 70
     0
280
     1
281
     0
  0
BLOCK_RECORD
  5
610F
330
1
100
AcDbSymbolTableRecord
100
AcDbBlockTableRecord
  2
*D55
340
0
 70
     0
280
     1
281
     0
  0
BLOCK_RECORD
  5
611C
330
1
100
AcDbSymbolTableRecord
100
AcDbBlockTableRecord
  2
*D56
340
0
 70
     0
280
     1
281
     0
  0
BLOCK_RECORD
  5
6139
330
1
100
AcDbSymbolTableRecord
100
AcDbBlockTableRecord
  2
*D57
340
0
 70
     0
280
     1
281
     0
  0
BLOCK_RECORD
  5
6173
330
1
100
AcDbSymbolTableRecord
100
AcDbBlockTableRecord
  2
*D59
340
0
 70
     0
280
     1
281
     0
  0
BLOCK_RECORD
  5
6182
330
1
100
AcDbSymbolTableRecord
100
AcDbBlockTableRecord
  2
*D60
340
0
 70
     0
280
     1
281
     0
  0
BLOCK_RECORD
  5
6191
330
1
100
AcDbSymbolTableRecord
100
AcDbBlockTableRecord
  2
*D61
340
0
 70
     0
280
     1
281
     0
  0
BLOCK_RECORD
  5
61A3
330
1
100
AcDbSymbolTableRecord
100
AcDbBlockTableRecord
  2
*D62
340
0
 70
     0
280
     1
281
     0
  0
BLOCK_RECORD
  5
61B0
330
1
100
AcDbSymbolTableRecord
100
AcDbBlockTableRecord
  2
*D63
340
0
 70
     0
280
     1
281
     0
  0
BLOCK_RECORD
  5
61BD
330
1
100
AcDbSymbolTableRecord
100
AcDbBlockTableRecord
  2
*D64
340
0
 70
     0
280
     1
281
     0
  0
BLOCK_RECORD
  5
61DD
330
1
100
AcDbSymbolTableRecord
100
AcDbBlockTableRecord
  2
*D65
340
0
 70
     0
280
     1
281
     0
  0
BLOCK_RECORD
  5
61ED
330
1
100
AcDbSymbolTableRecord
100
AcDbBlockTableRecord
  2
*D66
340
0
 70
     0
280
     1
281
     0
  0
BLOCK_RECORD
  5
6207
330
1
100
AcDbSymbolTableRecord
100
AcDbBlockTableRecord
  2
*D67
340
0
 70
     0
280
     1
281
     0
  0
BLOCK_RECORD
  5
622D
330
1
100
AcDbSymbolTableRecord
100
AcDbBlockTableRecord
  2
*D68
340
0
 70
     0
280
     1
281
     0
  0
BLOCK_RECORD
  5
6263
330
1
100
AcDbSymbolTableRecord
100
AcDbBlockTableRecord
  2
*D69
340
0
 70
     0
280
     1
281
     0
  0
BLOCK_RECORD
  5
627E
330
1
100
AcDbSymbolTableRecord
100
AcDbBlockTableRecord
  2
*D70
340
0
 70
     0
280
     1
281
     0
  0
BLOCK_RECORD
  5
6299
330
1
100
AcDbSymbolTableRecord
100
AcDbBlockTableRecord
  2
*D71
340
0
 70
     0
280
     1
281
     0
  0
ENDTAB
  0
ENDSEC
  0
SECTION
  2
BLOCKS
  0
BLOCK
  5
D
330
A
100
AcDbEntity
  8
0
390
1D
100
AcDbBlockBegin
  2
*MODEL_SPACE
 70
     0
 10
0.0
 20
0.0
 30
0.0
  3
*MODEL_SPACE
  1
*MODEL_SPACE
  0
ENDBLK
  5
E
330
A
100
AcDbEntity
  8
0
390
1D
100
AcDbBlockEnd
  0
BLOCK
  5
F
330
B
100
AcDbEntity
 67
     1
  8
0
390
1D
100
AcDbBlockBegin
  2
*PAPER_SPACE
 70
     0
 10
0.0
 20
0.0
 30
0.0
  3
*PAPER_SPACE
  1
*PAPER_SPACE
  0
ENDBLK
  5
10
330
B
100
AcDbEntity
 67
     1
  8
0
390
1D
100
AcDbBlockEnd
  0
BLOCK
  5
6316
330
4E
100
AcDbEntity
  8
0
390
1D
100
AcDbBlockBegin
  2
_DOT
 70
     0
 10
0.0
 20
0.0
 30
0.0
  3
_DOT
  1
_DOT
  0
POLYLINE
  5
6318
330
4E
100
AcDbEntity
  8
0
  6
ByBlock
 62
     0
370
    -2
390
1D
100
AcDb2dPolyline
 66
     1
 10
0.0
 20
0.0
 30
0.0
 70
     1
 40
0.5
 41
0.5
  0
VERTEX
  5
6319
330
6318
100
AcDbEntity
  8
0
  6
ByBlock
 62
     0
370
    -2
390
1D
100
AcDbVertex
100
AcDb2dVertex
 10
-0.25
 20
0.0
 30
0.0
 42
1.0
  0
VERTEX
  5
631A
330
6318
100
AcDbEntity
  8
0
  6
ByBlock
 62
     0
370
    -2
390
1D
100
AcDbVertex
100
AcDb2dVertex
 10
0.25
 20
0.0
 30
0.0
 42
1.0
  0
SEQEND
  5
631B
330
6318
100
AcDbEntity
  8
0
390
1D
  0
LINE
  5
631C
330
4E
100
AcDbEntity
  8
0
  6
ByBlock
 62
     0
370
    -2
390
1D
100
AcDbLine
 10
-0.5
 20
0.0
 30
0.0
 11
-1.0
 21
0.0
 31
0.0
  0
ENDBLK
  5
631D
330
4E
100
AcDbEntity
  8
0
390
1D
100
AcDbBlockEnd
  0
BLOCK
  5
68B
330
68A
100
AcDbEntity
  8
0
100
AcDbBlockBegin
  2
名称未設定-1
 70
     0
 10
0.0
 20
0.0
 30
0.0
  3
名称未設定-1
  1
名称未設定-1
  0
INSERT
  5
68F
330
68A
100
AcDbEntity
  8
LOGO
100
AcDbBlockReference
  2
block 3
 10
0.0
 20
0.0
 30
0.0
  0
ENDBLK
  5
6B1
330
68A
100
AcDbEntity
  8
0
100
AcDbBlockEnd
  0
BLOCK
  5
68E
330
68D
100
AcDbEntity
  8
0
100
AcDbBlockBegin
  2
block 2
 70
     0
 10
0.0
 20
0.0
 30
0.0
  3
block 2
  1
block 2
  0
ENDBLK
  5
6B0
330
68D
100
AcDbEntity
  8
0
100
AcDbBlockEnd
  0
BLOCK
  5
691
330
690
100
AcDbEntity
  8
0
100
AcDbBlockBegin
  2
block 3
 70
     0
 10
0.0
 20
0.0
 30
0.0
  3
block 3
  1
block 3
  0
INSERT
  5
692
330
690
100
AcDbEntity
  8
LOGO
100
AcDbBlockReference
  2
block 4
 10
0.0
 20
0.0
 30
0.0
  0
INSERT
  5
6A1
330
690
100
AcDbEntity
  8
LOGO
100
AcDbBlockReference
  2
block 5
 10
0.0
 20
0.0
 30
0.0
  0
ENDBLK
  5
6AF
330
690
100
AcDbEntity
  8
0
100
AcDbBlockEnd
  0
BLOCK
  5
694
330
693
100
AcDbEntity
  8
0
100
AcDbBlockBegin
  2
block 4
 70
     0
 10
0.0
 20
0.0
 30
0.0
  3
block 4
  1
block 4
  0
POLYLINE
  5
695
330
693
100
AcDbEntity
  8
LOGO
370
     0
100
AcDb2dPolyline
 66
     1
 10
0.0
 20
0.0
 30
0.0
  0
VERTEX
  5
696
330
695
100
AcDbEntity
  8
LOGO
370
     0
100
AcDbVertex
100
AcDb2dVertex
 10
83.79545727667795
 20
167.6444858234922
 30
0.0
  0
VERTEX
  5
697
330
695
100
AcDbEntity
  8
LOGO
370
     0
100
AcDbVertex
100
AcDb2dVertex
 10
83.79545727667795
 20
159.7968976406313
 30
0.0
  0
VERTEX
  5
698
330
695
100
AcDbEntity
  8
LOGO
370
     0
100
AcDbVertex
100
AcDb2dVertex
 10
71.3631329975216
 20
159.7968976406313
 30
0.0
  0
VERTEX
  5
699
330
695
100
AcDbEntity
  8
LOGO
370
     0
100
AcDbVertex
100
AcDb2dVertex
 10
71.3631329975216
 20
127.8027915271048
 30
0.0
  0
VERTEX
  5
69A
330
695
100
AcDbEntity
  8
LOGO
370
     0
100
AcDbVertex
100
AcDb2dVertex
 10
60.43011526263018
 20
127.8027915271048
 30
0.0
  0
VERTEX
  5
69B
330
695
100
AcDbEntity
  8
LOGO
370
     0
100
AcDbVertex
100
AcDb2dVertex
 10
60.43011526263018
 20
159.7968976406313
 30
0.0
  0
VERTEX
  5
69C
330
695
100
AcDbEntity
  8
LOGO
370
     0
100
AcDbVertex
100
AcDb2dVertex
 10
48.21793273020759
 20
159.7968976406313
 30
0.0
  0
VERTEX
  5
69D
330
695
100
AcDbEntity
  8
LOGO
370
     0
100
AcDbVertex
100
AcDb2dVertex
 10
48.21793273020759
 20
167.6444858234922
 30
0.0
  0
VERTEX
  5
69E
330
695
100
AcDbEntity
  8
LOGO
370
     0
100
AcDbVertex
100
AcDb2dVertex
 10
83.79545727667795
 20
167.6444858234922
 30
0.0
  0
SEQEND
  5
69F
330
695
100
AcDbEntity
  8
LOGO
370
     0
  0
HATCH
  5
6A0
330
693
100
AcDbEntity
  8
LOGO
 62
   250
420
  2234388
100
AcDbHatch
 10
0.0
 20
0.0
 30
0.0
210
0.0
220
0.0
230
1.0
  2
SOLID
 70
     1
 71
     0
 91
        1
 92
        1
 93
        8
 72
     1
 10
83.79545727667795
 20
167.6444858234922
 11
83.79545727667795
 21
159.7968976406313
 72
     1
 10
83.79545727667795
 20
159.7968976406313
 11
71.3631329975216
 21
159.7968976406313
 72
     1
 10
71.3631329975216
 20
159.7968976406313
 11
71.3631329975216
 21
127.8027915271048
 72
     1
 10
71.3631329975216
 20
127.8027915271048
 11
60.43011526263018
 21
127.8027915271048
 72
     1
 10
60.43011526263018
 20
127.8027915271048
 11
60.43011526263018
 21
159.7968976406313
 72
     1
 10
60.43011526263018
 20
159.7968976406313
 11
48.21793273020759
 21
159.7968976406313
 72
     1
 10
48.21793273020759
 20
159.7968976406313
 11
48.21793273020759
 21
167.6444858234922
 72
     1
 10
48.21793273020759
 20
167.6444858234922
 11
83.79545727667795
 21
167.6444858234922
 97
        0
 75
     2
 76
     1
 98
        0
  0
ENDBLK
  5
6AE
330
693
100
AcDbEntity
  8
0
100
AcDbBlockEnd
  0
BLOCK
  5
6A3
330
6A2
100
AcDbEntity
  8
0
100
AcDbBlockBegin
  2
block 5
 70
     0
 10
0.0
 20
0.0
 30
0.0
  3
block 5
  1
block 5
  0
SPLINE
  5
6A4
330
6A2
100
AcDbEntity
  8
LOGO
370
     0
100
AcDbSpline
210
0.0
220
0.0
230
1.0
 70
    11
 71
     3
 72
    56
 73
    52
 74
     0
 42
0.000000001
 43
0.0000000001
 40
0.0
 40
0.0
 40
0.0
 40
0.0
 40
1.0
 40
1.0
 40
1.0
 40
2.0
 40
2.0
 40
2.0
 40
3.0
 40
3.0
 40
3.0
 40
4.0
 40
4.0
 40
4.0
 40
5.0
 40
5.0
 40
5.0
 40
6.0
 40
6.0
 40
6.0
 40
7.0
 40
7.0
 40
7.0
 40
8.0
 40
8.0
 40
8.0
 40
9.0
 40
9.0
 40
9.0
 40
10.0
 40
10.0
 40
10.0
 40
11.0
 40
11.0
 40
11.0
 40
12.0
 40
12.0
 40
12.0
 40
13.0
 40
13.0
 40
13.0
 40
14.0
 40
14.0
 40
14.0
 40
15.0
 40
15.0
 40
15.0
 40
16.0
 40
16.0
 40
16.0
 40
17.0
 40
17.0
 40
17.0
 40
17.0
 10
100.4504378777679
 20
166.69157178364
 30
0.0
 10
101.9848844191641
 20
167.1313385124438
 30
0.0
 10
103.9637485713373
 20
166.7649523658846
 30
0.0
 10
103.9637485713373
 20
166.7649523658846
 30
0.0
 10
103.9637485713373
 20
166.7649523658846
 30
0.0
 10
103.0132460999156
 20
163.911205638077
 30
0.0
 10
103.0132460999156
 20
163.911205638077
 30
0.0
 10
103.0132460999156
 20
163.911205638077
 30
0.0
 10
101.0674548862189
 20
164.3601018759394
 30
0.0
 10
99.57090442016032
 20
163.1805004036133
 30
0.0
 10
98.40508333886608
 20
162.258247733807
 30
0.0
 10
97.65301849830304
 20
159.804132345923
 30
0.0
 10
97.3598406791005
 20
158.8699940888517
 30
0.0
 10
97.3598406791005
 20
158.8699940888517
 30
0.0
 10
96.07137411762282
 20
154.9119212747295
 30
0.0
 10
96.07137411762282
 20
154.9119212747295
 30
0.0
 10
96.07137411762282
 20
154.9119212747295
 30
0.0
 10
100.3012651448482
 20
154.9119212747295
 30
0.0
 10
100.3012651448482
 20
154.9119212747295
 30
0.0
 10
100.3012651448482
 20
154.9119212747295
 30
0.0
 10
99.64152892419852
 20
152.4199098115079
 30
0.0
 10
99.64152892419852
 20
152.4199098115079
 30
0.0
 10
99.64152892419852
 20
152.4199098115079
 30
0.0
 10
95.38097652692731
 20
152.4199098115079
 30
0.0
 10
95.38097652692731
 20
152.4199098115079
 30
0.0
 10
95.38097652692731
 20
152.4199098115079
 30
0.0
 10
87.75353009080013
 20
127.8027915271048
 30
0.0
 10
87.75353009080013
 20
127.8027915271048
 30
0.0
 10
87.75353009080013
 20
127.8027915271048
 30
0.0
 10
85.36538832498108
 20
127.8027915271048
 30
0.0
 10
85.36538832498108
 20
127.8027915271048
 30
0.0
 10
85.36538832498108
 20
127.8027915271048
 30
0.0
 10
93.00006946639998
 20
152.4199098115079
 30
0.0
 10
93.00006946639998
 20
152.4199098115079
 30
0.0
 10
93.00006946639998
 20
152.4199098115079
 30
0.0
 10
89.85297266450198
 20
152.4199098115079
 30
0.0
 10
89.85297266450198
 20
152.4199098115079
 30
0.0
 10
89.85297266450198
 20
152.4199098115079
 30
0.0
 10
90.51270888515164
 20
154.9119212747295
 30
0.0
 10
90.51270888515164
 20
154.9119212747295
 30
0.0
 10
90.51270888515164
 20
154.9119212747295
 30
0.0
 10
93.6904670570955
 20
154.9119212747295
 30
0.0
 10
93.6904670570955
 20
154.9119212747295
 30
0.0
 10
93.6904670570955
 20
154.9119212747295
 30
0.0
 10
94.81598049462158
 20
158.3616699146644
 30
0.0
 10
94.81598049462158
 20
158.3616699146644
 30
0.0
 10
95.7237637538445
 20
161.2605474231013
 30
0.0
 10
96.4968436907311
 20
162.8139420021662
 30
0.0
 10
97.15657991138076
 20
163.9844139654337
 30
0.0
 10
97.81183750494507
 20
165.1523021053827
 30
0.0
 10
99.1047826935081
 20
166.3084769129547
 30
0.0
 10
100.4504378777679
 20
166.69157178364
 30
0.0
  0
HATCH
  5
6A5
330
6A2
100
AcDbEntity
  8
LOGO
 62
   250
420
  2234388
100
AcDbHatch
 10
0.0
 20
0.0
 30
0.0
210
0.0
220
0.0
230
1.0
  2
SOLID
 70
     1
 71
     0
 91
        1
 92
        1
 93
        1
 72
     4
 94
        3
 73
     0
 74
     1
 95
       56
 96
       52
 40
0.0
 40
0.0
 40
0.0
 40
0.0
 40
1.0
 40
1.0
 40
1.0
 40
2.0
 40
2.0
 40
2.0
 40
3.0
 40
3.0
 40
3.0
 40
4.0
 40
4.0
 40
4.0
 40
5.0
 40
5.0
 40
5.0
 40
6.0
 40
6.0
 40
6.0
 40
7.0
 40
7.0
 40
7.0
 40
8.0
 40
8.0
 40
8.0
 40
9.0
 40
9.0
 40
9.0
 40
10.0
 40
10.0
 40
10.0
 40
11.0
 40
11.0
 40
11.0
 40
12.0
 40
12.0
 40
12.0
 40
13.0
 40
13.0
 40
13.0
 40
14.0
 40
14.0
 40
14.0
 40
15.0
 40
15.0
 40
15.0
 40
16.0
 40
16.0
 40
16.0
 40
17.0
 40
17.0
 40
17.0
 40
17.0
 10
100.4504378777679
 20
166.69157178364
 10
101.9848844191641
 20
167.1313385124438
 10
103.9637485713373
 20
166.7649523658846
 10
103.9637485713373
 20
166.7649523658846
 10
103.9637485713373
 20
166.7649523658846
 10
103.0132460999156
 20
163.911205638077
 10
103.0132460999156
 20
163.911205638077
 10
103.0132460999156
 20
163.911205638077
 10
101.0674548862189
 20
164.3601018759394
 10
99.57090442016032
 20
163.1805004036133
 10
98.40508333886608
 20
162.258247733807
 10
97.65301849830304
 20
159.804132345923
 10
97.3598406791005
 20
158.8699940888517
 10
97.3598406791005
 20
158.8699940888517
 10
96.07137411762282
 20
154.9119212747295
 10
96.07137411762282
 20
154.9119212747295
 10
96.07137411762282
 20
154.9119212747295
 10
100.3012651448482
 20
154.9119212747295
 10
100.3012651448482
 20
154.9119212747295
 10
100.3012651448482
 20
154.9119212747295
 10
99.64152892419852
 20
152.4199098115079
 10
99.64152892419852
 20
152.4199098115079
 10
99.64152892419852
 20
152.4199098115079
 10
95.38097652692731
 20
152.4199098115079
 10
95.38097652692731
 20
152.4199098115079
 10
95.38097652692731
 20
152.4199098115079
 10
87.75353009080013
 20
127.8027915271048
 10
87.75353009080013
 20
127.8027915271048
 10
87.75353009080013
 20
127.8027915271048
 10
85.36538832498108
 20
127.8027915271048
 10
85.36538832498108
 20
127.8027915271048
 10
85.36538832498108
 20
127.8027915271048
 10
93.00006946639998
 20
152.4199098115079
 10
93.00006946639998
 20
152.4199098115079
 10
93.00006946639998
 20
152.4199098115079
 10
89.85297266450198
 20
152.4199098115079
 10
89.85297266450198
 20
152.4199098115079
 10
89.85297266450198
 20
152.4199098115079
 10
90.51270888515164
 20
154.9119212747295
 10
90.51270888515164
 20
154.9119212747295
 10
90.51270888515164
 20
154.9119212747295
 10
93.6904670570955
 20
154.9119212747295
 10
93.6904670570955
 20
154.9119212747295
 10
93.6904670570955
 20
154.9119212747295
 10
94.81598049462158
 20
158.3616699146644
 10
94.81598049462158
 20
158.3616699146644
 10
95.7237637538445
 20
161.2605474231013
 10
96.4968436907311
 20
162.8139420021662
 10
97.15657991138076
 20
163.9844139654337
 10
97.81183750494507
 20
165.1523021053827
 10
99.1047826935081
 20
166.3084769129547
 10
100.4504378777679
 20
166.69157178364
 97
        0
 75
     2
 76
     1
 98
        0
  0
SPLINE
  5
6A6
330
6A2
100
AcDbEntity
  8
LOGO
370
     0
100
AcDbSpline
210
0.0
220
0.0
230
1.0
 70
    11
 71
     3
 72
    38
 73
    34
 74
     0
 42
0.000000001
 43
0.0000000001
 40
0.0
 40
0.0
 40
0.0
 40
0.0
 40
1.0
 40
1.0
 40
1.0
 40
2.0
 40
2.0
 40
2.0
 40
3.0
 40
3.0
 40
3.0
 40
4.0
 40
4.0
 40
4.0
 40
5.0
 40
5.0
 40
5.0
 40
6.0
 40
6.0
 40
6.0
 40
7.0
 40
7.0
 40
7.0
 40
8.0
 40
8.0
 40
8.0
 40
9.0
 40
9.0
 40
9.0
 40
10.0
 40
10.0
 40
10.0
 40
11.0
 40
11.0
 40
11.0
 40
11.0
 10
126.377554584636
 20
154.8151140277308
 30
0.0
 10
126.377554584636
 20
154.8151140277308
 30
0.0
 10
128.8311532078563
 20
154.8151140277308
 30
0.0
 10
128.8311532078563
 20
154.8151140277308
 30
0.0
 10
128.8311532078563
 20
154.8151140277308
 30
0.0
 10
127.7345785914971
 20
151.3062819612468
 30
0.0
 10
127.7345785914971
 20
151.3062819612468
 30
0.0
 10
128.571392836906
 20
152.2922689395754
 30
0.0
 10
129.8860421413442
 20
153.604506675583
 30
0.0
 10
131.0163787157314
 20
154.2664822097754
 30
0.0
 10
132.7044766171327
 20
155.2500576196734
 30
0.0
 10
133.6642808525008
 20
155.3847609420097
 30
0.0
 10
134.7284715499351
 20
155.3565111403944
 30
0.0
 10
134.7284715499351
 20
155.3565111403944
 30
0.0
 10
133.6877075172549
 20
152.0345756272799
 30
0.0
 10
133.6877075172549
 20
152.0345756272799
 30
0.0
 10
133.011434827367
 20
152.3184516825359
 30
0.0
 10
130.930940291334
 20
151.7768823149844
 30
0.0
 10
129.739280976855
 20
150.9162968950455
 30
0.0
 10
128.66613302525
 20
150.1454562717016
 30
0.0
 10
127.9192358313239
 20
149.4857200510519
 30
0.0
 10
127.0393578639405
 20
147.8282835196966
 30
0.0
 10
126.164647543194
 20
146.1699857139017
 30
0.0
 10
125.4742499524985
 20
143.5262176944419
 30
0.0
 10
124.2822461282437
 20
139.6959580071401
 30
0.0
 10
124.2822461282437
 20
139.6959580071401
 30
0.0
 10
120.5753209406769
 20
127.8027915271048
 30
0.0
 10
120.5753209406769
 20
127.8027915271048
 30
0.0
 10
120.5753209406769
 20
127.8027915271048
 30
0.0
 10
118.1964809388044
 20
127.8027915271048
 30
0.0
 10
118.1964809388044
 20
127.8027915271048
 30
0.0
 10
118.1964809388044
 20
127.8027915271048
 30
0.0
 10
126.377554584636
 20
154.8151140277308
 30
0.0
 10
126.377554584636
 20
154.8151140277308
 30
0.0
  0
HATCH
  5
6A7
330
6A2
100
AcDbEntity
  8
LOGO
 62
   250
420
  2234388
100
AcDbHatch
 10
0.0
 20
0.0
 30
0.0
210
0.0
220
0.0
230
1.0
  2
SOLID
 70
     1
 71
     0
 91
        1
 92
        1
 93
        1
 72
     4
 94
        3
 73
     0
 74
     1
 95
       38
 96
       34
 40
0.0
 40
0.0
 40
0.0
 40
0.0
 40
1.0
 40
1.0
 40
1.0
 40
2.0
 40
2.0
 40
2.0
 40
3.0
 40
3.0
 40
3.0
 40
4.0
 40
4.0
 40
4.0
 40
5.0
 40
5.0
 40
5.0
 40
6.0
 40
6.0
 40
6.0
 40
7.0
 40
7.0
 40
7.0
 40
8.0
 40
8.0
 40
8.0
 40
9.0
 40
9.0
 40
9.0
 40
10.0
 40
10.0
 40
10.0
 40
11.0
 40
11.0
 40
11.0
 40
11.0
 10
126.377554584636
 20
154.8151140277308
 10
126.377554584636
 20
154.8151140277308
 10
128.8311532078563
 20
154.8151140277308
 10
128.8311532078563
 20
154.8151140277308
 10
128.8311532078563
 20
154.8151140277308
 10
127.7345785914971
 20
151.3062819612468
 10
127.7345785914971
 20
151.3062819612468
 10
128.571392836906
 20
152.2922689395754
 10
129.8860421413442
 20
153.604506675583
 10
131.0163787157314
 20
154.2664822097754
 10
132.7044766171327
 20
155.2500576196734
 10
133.6642808525008
 20
155.3847609420097
 10
134.7284715499351
 20
155.3565111403944
 10
134.7284715499351
 20
155.3565111403944
 10
133.6877075172549
 20
152.0345756272799
 10
133.6877075172549
 20
152.0345756272799
 10
133.011434827367
 20
152.3184516825359
 10
130.930940291334
 20
151.7768823149844
 10
129.739280976855
 20
150.9162968950455
 10
128.66613302525
 20
150.1454562717016
 10
127.9192358313239
 20
149.4857200510519
 10
127.0393578639405
 20
147.8282835196966
 10
126.164647543194
 20
146.1699857139017
 10
125.4742499524985
 20
143.5262176944419
 10
124.2822461282437
 20
139.6959580071401
 10
124.2822461282437
 20
139.6959580071401
 10
120.5753209406769
 20
127.8027915271048
 10
120.5753209406769
 20
127.8027915271048
 10
120.5753209406769
 20
127.8027915271048
 10
118.1964809388044
 20
127.8027915271048
 10
118.1964809388044
 20
127.8027915271048
 10
118.1964809388044
 20
127.8027915271048
 10
126.377554584636
 20
154.8151140277308
 10
126.377554584636
 20
154.8151140277308
 97
        0
 75
     2
 76
     1
 98
        0
  0
SPLINE
  5
6A8
330
6A2
100
AcDbEntity
  8
LOGO
370
     0
100
AcDbSpline
210
0.0
220
0.0
230
1.0
 70
    11
 71
     3
 72
   104
 73
   100
 74
     0
 42
0.000000001
 43
0.0000000001
 40
0.0
 40
0.0
 40
0.0
 40
0.0
 40
1.0
 40
1.0
 40
1.0
 40
2.0
 40
2.0
 40
2.0
 40
3.0
 40
3.0
 40
3.0
 40
4.0
 40
4.0
 40
4.0
 40
5.0
 40
5.0
 40
5.0
 40
6.0
 40
6.0
 40
6.0
 40
7.0
 40
7.0
 40
7.0
 40
8.0
 40
8.0
 40
8.0
 40
9.0
 40
9.0
 40
9.0
 40
10.0
 40
10.0
 40
10.0
 40
11.0
 40
11.0
 40
11.0
 40
12.0
 40
12.0
 40
12.0
 40
13.0
 40
13.0
 40
13.0
 40
14.0
 40
14.0
 40
14.0
 40
15.0
 40
15.0
 40
15.0
 40
16.0
 40
16.0
 40
16.0
 40
17.0
 40
17.0
 40
17.0
 40
18.0
 40
18.0
 40
18.0
 40
19.0
 40
19.0
 40
19.0
 40
20.0
 40
20.0
 40
20.0
 40
21.0
 40
21.0
 40
21.0
 40
22.0
 40
22.0
 40
22.0
 40
23.0
 40
23.0
 40
23.0
 40
24.0
 40
24.0
 40
24.0
 40
25.0
 40
25.0
 40
25.0
 40
26.0
 40
26.0
 40
26.0
 40
27.0
 40
27.0
 40
27.0
 40
28.0
 40
28.0
 40
28.0
 40
29.0
 40
29.0
 40
29.0
 40
30.0
 40
30.0
 40
30.0
 40
31.0
 40
31.0
 40
31.0
 40
32.0
 40
32.0
 40
32.0
 40
33.0
 40
33.0
 40
33.0
 40
33.0
 10
139.8926730891197
 20
154.8294111834263
 30
0.0
 10
139.8926730891197
 20
154.8294111834263
 30
0.0
 10
142.0344903652445
 20
154.8294111834263
 30
0.0
 10
142.0344903652445
 20
154.8294111834263
 30
0.0
 10
142.0344903652445
 20
154.8294111834263
 30
0.0
 10
140.9516961399171
 20
151.3157559800812
 30
0.0
 10
140.9516961399171
 20
151.3157559800812
 30
0.0
 10
141.8928968473923
 20
152.7887075264977
 30
0.0
 10
142.7341897198865
 20
153.4484437471474
 30
0.0
 10
143.8552245303272
 20
154.2926649527359
 30
0.0
 10
144.9803934580775
 20
155.1296514530327
 30
0.0
 10
146.3139908001845
 20
155.3044901642492
 30
0.0
 10
147.241066606852
 20
155.3044901642492
 30
0.0
 10
148.3855280820469
 20
155.3044901642492
 30
0.0
 10
149.4969166187653
 20
155.0752189084569
 30
0.0
 10
150.0784491203092
 20
153.8172414621372
 30
0.0
 10
150.5228667310863
 20
152.833838307127
 30
0.0
 10
150.5414702589793
 20
152.7201500811143
 30
0.0
 10
150.4140016419347
 20
150.7765981809602
 30
0.0
 10
151.5818897818837
 20
152.7699317437168
 30
0.0
 10
152.4424752018226
 20
153.6256940267945
 30
0.0
 10
153.9038856707499
 20
154.4507949398263
 30
0.0
 10
155.4455669174378
 20
155.3044901642492
 30
0.0
 10
156.339225275853
 20
155.3659851592288
 30
0.0
 10
157.3748216618963
 20
155.2147453676543
 30
0.0
 10
158.911679771723
 20
154.9877134254046
 30
0.0
 10
159.8859534176746
 20
154.4390816074493
 30
0.0
 10
160.3965169054045
 20
152.7816450760939
 30
0.0
 10
160.9070803931344
 20
151.1219692311958
 30
0.0
 10
160.6328506116007
 20
150.2303779314354
 30
0.0
 10
159.9992971339115
 20
147.597634224801
 30
0.0
 10
159.7105979417943
 20
146.4014962832367
 30
0.0
 10
159.2947746424084
 20
144.9400858143094
 30
0.0
 10
158.7463150793409
 20
143.2092687007094
 30
0.0
 10
158.7463150793409
 20
143.2092687007094
 30
0.0
 10
153.9038856707499
 20
127.8027915271048
 30
0.0
 10
153.9038856707499
 20
127.8027915271048
 30
0.0
 10
153.9038856707499
 20
127.8027915271048
 30
0.0
 10
151.3882752878863
 20
127.8027915271048
 30
0.0
 10
151.3882752878863
 20
127.8027915271048
 30
0.0
 10
151.3882752878863
 20
127.8027915271048
 30
0.0
 10
155.6250565106276
 20
141.2751908193897
 30
0.0
 10
155.6250565106276
 20
141.2751908193897
 30
0.0
 10
156.5094131050963
 20
144.0936252951782
 30
0.0
 10
157.109893644309
 20
146.1506931664571
 30
0.0
 10
157.4220195011804
 20
147.4415712963654
 30
0.0
 10
157.8095929989511
 20
149.0530157726519
 30
0.0
 10
157.9656559273867
 20
149.5826995529385
 30
0.0
 10
157.7816877071116
 20
150.7529992613181
 30
0.0
 10
157.6111553680925
 20
151.8430281919372
 30
0.0
 10
157.0582171779396
 20
152.5547853887321
 30
0.0
 10
156.1170164704645
 20
152.5547853887321
 30
0.0
 10
155.1096698860365
 20
152.5547853887321
 30
0.0
 10
154.2962823053817
 20
152.4412694176073
 30
0.0
 10
153.156643967048
 20
151.2945686288697
 30
0.0
 10
152.0170056287143
 20
150.1476955852443
 30
0.0
 10
151.076149431015
 20
148.7930831468137
 30
0.0
 10
150.3337308641742
 20
147.2290087646991
 30
0.0
 10
149.5957909244188
 20
145.6683794803425
 30
0.0
 10
148.8530278478023
 20
143.6822806228776
 30
0.0
 10
148.0964843801539
 20
141.2751908193897
 30
0.0
 10
148.0964843801539
 20
141.2751908193897
 30
0.0
 10
143.8552245303272
 20
127.8027915271048
 30
0.0
 10
143.8552245303272
 20
127.8027915271048
 30
0.0
 10
143.8552245303272
 20
127.8027915271048
 30
0.0
 10
141.486030802177
 20
127.8027915271048
 30
0.0
 10
141.486030802177
 20
127.8027915271048
 30
0.0
 10
141.486030802177
 20
127.8027915271048
 30
0.0
 10
146.3329388378533
 20
143.2092687007094
 30
0.0
 10
146.3329388378533
 20
143.2092687007094
 30
0.0
 10
146.8483254624444
 20
144.8408669988801
 30
0.0
 10
147.2314203331297
 20
146.1837661049335
 30
0.0
 10
147.4867020769946
 20
147.224185627838
 30
0.0
 10
147.9169947869641
 20
149.0197705792876
 30
0.0
 10
148.0306830129768
 20
150.2400242051577
 30
0.0
 10
147.709255392159
 20
151.3157559800812
 30
0.0
 10
147.3874832615654
 20
152.3916600098926
 30
0.0
 10
146.8245542879144
 20
152.6683013598569
 30
0.0
 10
145.8840425999909
 20
152.6683013598569
 30
0.0
 10
145.0989048209514
 20
152.6683013598569
 30
0.0
 10
144.3282364524954
 20
152.3275811915945
 30
0.0
 10
143.4531816219731
 20
151.6538923250251
 30
0.0
 10
142.34627171234
 20
150.8074318058939
 30
0.0
 10
141.901854101563
 20
150.1097995099067
 30
0.0
 10
141.3578731655808
 20
149.289521733736
 30
0.0
 10
140.6299240093235
 20
148.192602607601
 30
0.0
 10
140.2850697237515
 20
147.455696197173
 30
0.0
 10
139.6652966370942
 20
145.8385673095858
 30
0.0
 10
139.0506911970739
 20
144.2214384219986
 30
0.0
 10
138.463991048893
 20
142.3252566160164
 30
0.0
 10
138.0571250036777
 20
141.0154304484394
 30
0.0
 10
138.0571250036777
 20
141.0154304484394
 30
0.0
 10
133.9009590684727
 20
127.8027915271048
 30
0.0
 10
133.9009590684727
 20
127.8027915271048
 30
0.0
 10
133.9009590684727
 20
127.8027915271048
 30
0.0
 10
131.4180771143097
 20
127.8027915271048
 30
0.0
 10
131.4180771143097
 20
127.8027915271048
 30
0.0
 10
131.4180771143097
 20
127.8027915271048
 30
0.0
 10
139.8926730891197
 20
154.8294111834263
 30
0.0
 10
139.8926730891197
 20
154.8294111834263
 30
0.0
  0
HATCH
  5
6A9
330
6A2
100
AcDbEntity
  8
LOGO
 62
   250
420
  2234388
100
AcDbHatch
 10
0.0
 20
0.0
 30
0.0
210
0.0
220
0.0
230
1.0
  2
SOLID
 70
     1
 71
     0
 91
        1
 92
        1
 93
        1
 72
     4
 94
        3
 73
     0
 74
     1
 95
      104
 96
      100
 40
0.0
 40
0.0
 40
0.0
 40
0.0
 40
1.0
 40
1.0
 40
1.0
 40
2.0
 40
2.0
 40
2.0
 40
3.0
 40
3.0
 40
3.0
 40
4.0
 40
4.0
 40
4.0
 40
5.0
 40
5.0
 40
5.0
 40
6.0
 40
6.0
 40
6.0
 40
7.0
 40
7.0
 40
7.0
 40
8.0
 40
8.0
 40
8.0
 40
9.0
 40
9.0
 40
9.0
 40
10.0
 40
10.0
 40
10.0
 40
11.0
 40
11.0
 40
11.0
 40
12.0
 40
12.0
 40
12.0
 40
13.0
 40
13.0
 40
13.0
 40
14.0
 40
14.0
 40
14.0
 40
15.0
 40
15.0
 40
15.0
 40
16.0
 40
16.0
 40
16.0
 40
17.0
 40
17.0
 40
17.0
 40
18.0
 40
18.0
 40
18.0
 40
19.0
 40
19.0
 40
19.0
 40
20.0
 40
20.0
 40
20.0
 40
21.0
 40
21.0
 40
21.0
 40
22.0
 40
22.0
 40
22.0
 40
23.0
 40
23.0
 40
23.0
 40
24.0
 40
24.0
 40
24.0
 40
25.0
 40
25.0
 40
25.0
 40
26.0
 40
26.0
 40
26.0
 40
27.0
 40
27.0
 40
27.0
 40
28.0
 40
28.0
 40
28.0
 40
29.0
 40
29.0
 40
29.0
 40
30.0
 40
30.0
 40
30.0
 40
31.0
 40
31.0
 40
31.0
 40
32.0
 40
32.0
 40
32.0
 40
33.0
 40
33.0
 40
33.0
 40
33.0
 10
139.8926730891197
 20
154.8294111834263
 10
139.8926730891197
 20
154.8294111834263
 10
142.0344903652445
 20
154.8294111834263
 10
142.0344903652445
 20
154.8294111834263
 10
142.0344903652445
 20
154.8294111834263
 10
140.9516961399171
 20
151.3157559800812
 10
140.9516961399171
 20
151.3157559800812
 10
141.8928968473923
 20
152.7887075264977
 10
142.7341897198865
 20
153.4484437471474
 10
143.8552245303272
 20
154.2926649527359
 10
144.9803934580775
 20
155.1296514530327
 10
146.3139908001845
 20
155.3044901642492
 10
147.241066606852
 20
155.3044901642492
 10
148.3855280820469
 20
155.3044901642492
 10
149.4969166187653
 20
155.0752189084569
 10
150.0784491203092
 20
153.8172414621372
 10
150.5228667310863
 20
152.833838307127
 10
150.5414702589793
 20
152.7201500811143
 10
150.4140016419347
 20
150.7765981809602
 10
151.5818897818837
 20
152.7699317437168
 10
152.4424752018226
 20
153.6256940267945
 10
153.9038856707499
 20
154.4507949398263
 10
155.4455669174378
 20
155.3044901642492
 10
156.339225275853
 20
155.3659851592288
 10
157.3748216618963
 20
155.2147453676543
 10
158.911679771723
 20
154.9877134254046
 10
159.8859534176746
 20
154.4390816074493
 10
160.3965169054045
 20
152.7816450760939
 10
160.9070803931344
 20
151.1219692311958
 10
160.6328506116007
 20
150.2303779314354
 10
159.9992971339115
 20
147.597634224801
 10
159.7105979417943
 20
146.4014962832367
 10
159.2947746424084
 20
144.9400858143094
 10
158.7463150793409
 20
143.2092687007094
 10
158.7463150793409
 20
143.2092687007094
 10
153.9038856707499
 20
127.8027915271048
 10
153.9038856707499
 20
127.8027915271048
 10
153.9038856707499
 20
127.8027915271048
 10
151.3882752878863
 20
127.8027915271048
 10
151.3882752878863
 20
127.8027915271048
 10
151.3882752878863
 20
127.8027915271048
 10
155.6250565106276
 20
141.2751908193897
 10
155.6250565106276
 20
141.2751908193897
 10
156.5094131050963
 20
144.0936252951782
 10
157.109893644309
 20
146.1506931664571
 10
157.4220195011804
 20
147.4415712963654
 10
157.8095929989511
 20
149.0530157726519
 10
157.9656559273867
 20
149.5826995529385
 10
157.7816877071116
 20
150.7529992613181
 10
157.6111553680925
 20
151.8430281919372
 10
157.0582171779396
 20
152.5547853887321
 10
156.1170164704645
 20
152.5547853887321
 10
155.1096698860365
 20
152.5547853887321
 10
154.2962823053817
 20
152.4412694176073
 10
153.156643967048
 20
151.2945686288697
 10
152.0170056287143
 20
150.1476955852443
 10
151.076149431015
 20
148.7930831468137
 10
150.3337308641742
 20
147.2290087646991
 10
149.5957909244188
 20
145.6683794803425
 10
148.8530278478023
 20
143.6822806228776
 10
148.0964843801539
 20
141.2751908193897
 10
148.0964843801539
 20
141.2751908193897
 10
143.8552245303272
 20
127.8027915271048
 10
143.8552245303272
 20
127.8027915271048
 10
143.8552245303272
 20
127.8027915271048
 10
141.486030802177
 20
127.8027915271048
 10
141.486030802177
 20
127.8027915271048
 10
141.486030802177
 20
127.8027915271048
 10
146.3329388378533
 20
143.2092687007094
 10
146.3329388378533
 20
143.2092687007094
 10
146.8483254624444
 20
144.8408669988801
 10
147.2314203331297
 20
146.1837661049335
 10
147.4867020769946
 20
147.224185627838
 10
147.9169947869641
 20
149.0197705792876
 10
148.0306830129768
 20
150.2400242051577
 10
147.709255392159
 20
151.3157559800812
 10
147.3874832615654
 20
152.3916600098926
 10
146.8245542879144
 20
152.6683013598569
 10
145.8840425999909
 20
152.6683013598569
 10
145.0989048209514
 20
152.6683013598569
 10
144.3282364524954
 20
152.3275811915945
 10
143.4531816219731
 20
151.6538923250251
 10
142.34627171234
 20
150.8074318058939
 10
141.901854101563
 20
150.1097995099067
 10
141.3578731655808
 20
149.289521733736
 10
140.6299240093235
 20
148.192602607601
 10
140.2850697237515
 20
147.455696197173
 10
139.6652966370942
 20
145.8385673095858
 10
139.0506911970739
 20
144.2214384219986
 10
138.463991048893
 20
142.3252566160164
 10
138.0571250036777
 20
141.0154304484394
 10
138.0571250036777
 20
141.0154304484394
 10
133.9009590684727
 20
127.8027915271048
 10
133.9009590684727
 20
127.8027915271048
 10
133.9009590684727
 20
127.8027915271048
 10
131.4180771143097
 20
127.8027915271048
 10
131.4180771143097
 20
127.8027915271048
 10
131.4180771143097
 20
127.8027915271048
 10
139.8926730891197
 20
154.8294111834263
 10
139.8926730891197
 20
154.8294111834263
 97
        0
 75
     2
 76
     1
 98
        0
  0
SPLINE
  5
6AA
330
6A2
100
AcDbEntity
  8
LOGO
370
     0
100
AcDbSpline
210
0.0
220
0.0
230
1.0
 70
    11
 71
     3
 72
    29
 73
    25
 74
     0
 42
0.000000001
 43
0.0000000001
 40
0.0
 40
0.0
 40
0.0
 40
0.0
 40
1.0
 40
1.0
 40
1.0
 40
2.0
 40
2.0
 40
2.0
 40
3.0
 40
3.0
 40
3.0
 40
4.0
 40
4.0
 40
4.0
 40
5.0
 40
5.0
 40
5.0
 40
6.0
 40
6.0
 40
6.0
 40
7.0
 40
7.0
 40
7.0
 40
8.0
 40
8.0
 40
8.0
 40
8.0
 10
101.6420971922469
 20
132.8388354296931
 30
0.0
 10
101.630039350094
 20
134.7164137077823
 30
0.0
 10
102.2236296937908
 20
138.0598810818841
 30
0.0
 10
103.7487744712405
 20
142.5378191476827
 30
0.0
 10
105.819967243327
 20
148.5896501242061
 30
0.0
 10
107.0602024361932
 20
150.8074318058939
 30
0.0
 10
108.1522984254671
 20
151.8833358357054
 30
0.0
 10
109.741177511439
 20
153.4532668840085
 30
0.0
 10
111.8740375333931
 20
153.5290590346837
 30
0.0
 10
112.5075910110823
 20
153.4532668840085
 30
0.0
 10
113.4012493694975
 20
153.3490526768302
 30
0.0
 10
114.6683563248758
 20
152.7580461564518
 30
0.0
 10
114.7493161221879
 20
150.7838328862519
 30
0.0
 10
114.8106388622796
 20
149.0909118479895
 30
0.0
 10
114.3186789024427
 20
145.9191825971221
 30
0.0
 10
112.6164561002338
 20
140.9489400617108
 30
0.0
 10
110.6444821435766
 20
135.1746117095912
 30
0.0
 10
109.4669477299053
 20
132.8960240524753
 30
0.0
 10
108.5212683953448
 20
131.9072809959403
 30
0.0
 10
106.7346406980658
 20
130.0538184021569
 30
0.0
 10
104.8222669326213
 20
130.2336525051225
 30
0.0
 10
104.5408024457958
 20
130.2336525051225
 30
0.0
 10
104.1721769856939
 20
130.2336525051225
 30
0.0
 10
101.6465758193322
 20
130.6305277668397
 30
0.0
 10
101.6420971922469
 20
132.8388354296931
 30
0.0
  0
SPLINE
  5
6AB
330
6A2
100
AcDbEntity
  8
LOGO
370
     0
100
AcDbSpline
210
0.0
220
0.0
230
1.0
 70
    11
 71
     3
 72
    32
 73
    28
 74
     0
 42
0.000000001
 43
0.0000000001
 40
0.0
 40
0.0
 40
0.0
 40
0.0
 40
1.0
 40
1.0
 40
1.0
 40
2.0
 40
2.0
 40
2.0
 40
3.0
 40
3.0
 40
3.0
 40
4.0
 40
4.0
 40
4.0
 40
5.0
 40
5.0
 40
5.0
 40
6.0
 40
6.0
 40
6.0
 40
7.0
 40
7.0
 40
7.0
 40
8.0
 40
8.0
 40
8.0
 40
9.0
 40
9.0
 40
9.0
 40
9.0
 10
106.2595617172429
 20
153.4105476718098
 30
0.0
 10
104.8222669326213
 20
151.5474388043041
 30
0.0
 10
103.7177685914188
 20
149.8758773721411
 30
0.0
 10
101.9232171692965
 20
144.6141795664062
 30
0.0
 10
100.2754269116635
 20
139.7999999594306
 30
0.0
 10
99.22777268346732
 20
136.3052927937542
 30
0.0
 10
99.06964269637689
 20
132.039572749846
 30
0.0
 10
98.94665270641765
 20
128.8673267343149
 30
0.0
 10
100.8807305877373
 20
127.8027915271048
 30
0.0
 10
103.7129454545577
 20
127.8027915271048
 30
0.0
 10
104.9352661390825
 20
127.8027915271048
 30
0.0
 10
108.0151835347002
 20
127.8827177950895
 30
0.0
 10
110.2045431598849
 20
130.5926316915021
 30
0.0
 10
111.7417457794874
 20
132.4984597712065
 30
0.0
 10
113.155269389579
 20
134.475256864725
 30
0.0
 10
115.0562743324223
 20
140.9489400617108
 30
0.0
 10
116.6361961642235
 20
146.3680788349845
 30
0.0
 10
117.7282921534974
 20
149.8639917848761
 30
0.0
 10
117.6480213757369
 20
151.8595646611754
 30
0.0
 10
117.6480213757369
 20
151.8595646611754
 30
0.0
 10
117.6480213757369
 20
151.8595646611754
 30
0.0
 10
117.6480213757369
 20
151.8595646611754
 30
0.0
 10
117.13229024137
 20
155.18150017429
 30
0.0
 10
114.7162431837115
 20
155.886194920681
 30
0.0
 10
113.3351034925446
 20
155.886194920681
 30
0.0
 10
111.9829026225447
 20
155.886194920681
 30
0.0
 10
108.3414342923792
 20
156.1251124501957
 30
0.0
 10
106.2595617172429
 20
153.4105476718098
 30
0.0
  0
HATCH
  5
6AC
330
6A2
100
AcDbEntity
  8
LOGO
 62
   250
420
  2234388
100
AcDbHatch
 10
0.0
 20
0.0
 30
0.0
210
0.0
220
0.0
230
1.0
  2
SOLID
 70
     1
 71
     0
 91
        2
 92
        1
 93
        1
 72
     4
 94
        3
 73
     0
 74
     1
 95
       29
 96
       25
 40
0.0
 40
0.0
 40
0.0
 40
0.0
 40
1.0
 40
1.0
 40
1.0
 40
2.0
 40
2.0
 40
2.0
 40
3.0
 40
3.0
 40
3.0
 40
4.0
 40
4.0
 40
4.0
 40
5.0
 40
5.0
 40
5.0
 40
6.0
 40
6.0
 40
6.0
 40
7.0
 40
7.0
 40
7.0
 40
8.0
 40
8.0
 40
8.0
 40
8.0
 10
101.6420971922469
 20
132.8388354296931
 10
101.630039350094
 20
134.7164137077823
 10
102.2236296937908
 20
138.0598810818841
 10
103.7487744712405
 20
142.5378191476827
 10
105.819967243327
 20
148.5896501242061
 10
107.0602024361932
 20
150.8074318058939
 10
108.1522984254671
 20
151.8833358357054
 10
109.741177511439
 20
153.4532668840085
 10
111.8740375333931
 20
153.5290590346837
 10
112.5075910110823
 20
153.4532668840085
 10
113.4012493694975
 20
153.3490526768302
 10
114.6683563248758
 20
152.7580461564518
 10
114.7493161221879
 20
150.7838328862519
 10
114.8106388622796
 20
149.0909118479895
 10
114.3186789024427
 20
145.9191825971221
 10
112.6164561002338
 20
140.9489400617108
 10
110.6444821435766
 20
135.1746117095912
 10
109.4669477299053
 20
132.8960240524753
 10
108.5212683953448
 20
131.9072809959403
 10
106.7346406980658
 20
130.0538184021569
 10
104.8222669326213
 20
130.2336525051225
 10
104.5408024457958
 20
130.2336525051225
 10
104.1721769856939
 20
130.2336525051225
 10
101.6465758193322
 20
130.6305277668397
 10
101.6420971922469
 20
132.8388354296931
 97
        0
 92
        1
 93
        1
 72
     4
 94
        3
 73
     0
 74
     1
 95
       32
 96
       28
 40
0.0
 40
0.0
 40
0.0
 40
0.0
 40
1.0
 40
1.0
 40
1.0
 40
2.0
 40
2.0
 40
2.0
 40
3.0
 40
3.0
 40
3.0
 40
4.0
 40
4.0
 40
4.0
 40
5.0
 40
5.0
 40
5.0
 40
6.0
 40
6.0
 40
6.0
 40
7.0
 40
7.0
 40
7.0
 40
8.0
 40
8.0
 40
8.0
 40
9.0
 40
9.0
 40
9.0
 40
9.0
 10
106.2595617172429
 20
153.4105476718098
 10
104.8222669326213
 20
151.5474388043041
 10
103.7177685914188
 20
149.8758773721411
 10
101.9232171692965
 20
144.6141795664062
 10
100.2754269116635
 20
139.7999999594306
 10
99.22777268346732
 20
136.3052927937542
 10
99.06964269637689
 20
132.039572749846
 10
98.94665270641765
 20
128.8673267343149
 10
100.8807305877373
 20
127.8027915271048
 10
103.7129454545577
 20
127.8027915271048
 10
104.9352661390825
 20
127.8027915271048
 10
108.0151835347002
 20
127.8827177950895
 10
110.2045431598849
 20
130.5926316915021
 10
111.7417457794874
 20
132.4984597712065
 10
113.155269389579
 20
134.475256864725
 10
115.0562743324223
 20
140.9489400617108
 10
116.6361961642235
 20
146.3680788349845
 10
117.7282921534974
 20
149.8639917848761
 10
117.6480213757369
 20
151.8595646611754
 10
117.6480213757369
 20
151.8595646611754
 10
117.6480213757369
 20
151.8595646611754
 10
117.6480213757369
 20
151.8595646611754
 10
117.13229024137
 20
155.18150017429
 10
114.7162431837115
 20
155.886194920681
 10
113.3351034925446
 20
155.886194920681
 10
111.9829026225447
 20
155.886194920681
 10
108.3414342923792
 20
156.1251124501957
 10
106.2595617172429
 20
153.4105476718098
 97
        0
 75
     2
 76
     1
 98
        0
  0
ENDBLK
  5
6AD
330
6A2
100
AcDbEntity
  8
0
100
AcDbBlockEnd
  0
BLOCK
  5
495E
330
495D
100
AcDbEntity
  8
0
100
AcDbBlockBegin
  2
*D6
 70
     1
 10
0.0
 20
0.0
 30
0.0
  3
*D6
  1
*D21
  0
LINE
  5
4960
330
495D
100
AcDbEntity
  8
DIM
 62
     0
370
    -2
100
AcDbLine
 10
104.8938306029375
 20
288.1149122086064
 30
0.0
 11
60.53621797377864
 21
288.1149174042292
 31
0.0
  0
LINE
  5
4961
330
495D
100
AcDbEntity
  8
DIM
 62
     0
370
    -2
100
AcDbLine
 10
104.8938224023373
 20
218.1023146792064
 30
0.0
 11
60.53620977317846
 21
218.1023198748292
 31
0.0
  0
LINE
  5
4962
330
495D
100
AcDbEntity
  8
DIM
 62
     0
370
    -2
100
AcDbLine
 10
60.53621785664829
 20
287.1149174042292
 30
0.0
 11
60.53620989030882
 21
219.1023198748292
 31
0.0
  0
INSERT
  5
4963
330
495D
100
AcDbEntity
  8
DIM
 62
     0
370
    -2
100
AcDbBlockReference
  2
_DOT
 10
60.53621797377864
 20
288.1149174042292
 30
0.0
 50
89.9999932889252
  0
INSERT
  5
4964
330
495D
100
AcDbEntity
  8
DIM
 62
     0
370
    -2
100
AcDbBlockReference
  2
_DOT
 10
60.53620977317846
 20
218.1023198748292
 30
0.0
 50
269.9999932889253
  0
MTEXT
  5
4965
330
495D
100
AcDbEntity
  8
DIM
 62
     0
 48
0.05
100
AcDbMText
 10
53.03621387347783
 20
253.1086128866323
 30
0.0
 40
5.0
 41
0.0
 46
0.0
 71
     5
 72
     1
  1
\A1;\A1;70
  7
ＭＳ ゴシック
 11
1.171303517791119E-7
 21
0.9999999999999931
 31
0.0
 73
     1
 44
1.0
  0
POINT
  5
4966
330
495D
100
AcDbEntity
  8
Defpoints
 62
     0
100
AcDbPoint
 10
109.8938306029374
 20
288.1149116229547
 30
0.0
  0
POINT
  5
4967
330
495D
100
AcDbEntity
  8
Defpoints
 62
     0
100
AcDbPoint
 10
109.8938224023373
 20
218.1023140935547
 30
0.0
  0
POINT
  5
4968
330
495D
100
AcDbEntity
  8
Defpoints
 62
     0
100
AcDbPoint
 10
60.53620977317846
 20
218.1023198748292
 30
0.0
  0
ENDBLK
  5
495F
330
495D
100
AcDbEntity
  8
0
100
AcDbBlockEnd
  0
BLOCK
  5
496B
330
496A
100
AcDbEntity
  8
0
100
AcDbBlockBegin
  2
*D7
 70
     1
 10
0.0
 20
0.0
 30
0.0
  3
*D7
  1
*D22
  0
LINE
  5
496D
330
496A
100
AcDbEntity
  8
DIM
 62
     0
370
    -2
100
AcDbLine
 10
82.64346753432913
 20
248.1086191487547
 30
0.0
 11
82.643461146579
 21
195.8243353170554
 31
0.0
  0
LINE
  5
496E
330
496A
100
AcDbEntity
  8
DIM
 62
     0
370
    -2
100
AcDbLine
 10
152.6537819917291
 20
248.1086105953547
 30
0.0
 11
152.6537756039791
 21
195.8243267636554
 31
0.0
  0
LINE
  5
496F
330
496A
100
AcDbEntity
  8
DIM
 62
     0
370
    -2
100
AcDbLine
 10
83.64346114657899
 20
195.824335194882
 30
0.0
 11
151.6537756039791
 21
195.8243268858288
 31
0.0
  0
INSERT
  5
4970
330
496A
100
AcDbEntity
  8
DIM
 62
     0
370
    -2
100
AcDbBlockReference
  2
_DOT
 10
82.643461146579
 20
195.8243353170554
 30
0.0
 50
179.9999929999783
  0
INSERT
  5
4971
330
496A
100
AcDbEntity
  8
DIM
 62
     0
370
    -2
100
AcDbBlockReference
  2
_DOT
 10
152.6537756039791
 20
195.8243267636554
 30
0.0
 50
359.9999929999783
  0
MTEXT
  5
4972
330
496A
100
AcDbEntity
  8
DIM
 62
     0
 48
0.05
100
AcDbMText
 10
117.6486250122969
 20
203.3243310403547
 30
0.0
 40
5.0
 41
0.0
 46
0.0
 71
     5
 72
     1
  1
\A1;\A1;70
  7
ＭＳ ゴシック
 11
0.9999999999999927
 21
-1.221734263002142E-7
 31
0.0
 73
     1
 44
1.0
  0
POINT
  5
4973
330
496A
100
AcDbEntity
  8
Defpoints
 62
     0
100
AcDbPoint
 10
82.64346814519627
 20
253.1086191487547
 30
0.0
  0
POINT
  5
4974
330
496A
100
AcDbEntity
  8
Defpoints
 62
     0
100
AcDbPoint
 10
152.6537826025963
 20
253.1086105953547
 30
0.0
  0
POINT
  5
4975
330
496A
100
AcDbEntity
  8
Defpoints
 62
     0
100
AcDbPoint
 10
152.653775603979
 20
195.8243267636554
 30
0.0
  0
ENDBLK
  5
496C
330
496A
100
AcDbEntity
  8
0
100
AcDbBlockEnd
  0
BLOCK
  5
4994
330
4993
100
AcDbEntity
  8
0
100
AcDbBlockBegin
  2
*D8
 70
     1
 10
0.0
 20
0.0
 30
0.0
  3
*D8
  1
*D25
  0
LINE
  5
4996
330
4993
100
AcDbEntity
  8
DIM
 62
     0
370
    -2
100
AcDbLine
 10
282.5786518093131
 20
193.1270615156891
 30
0.0
 11
282.5786518093131
 21
175.7826687017303
 31
0.0
  0
LINE
  5
4997
330
4993
100
AcDbEntity
  8
DIM
 62
     0
370
    -2
100
AcDbLine
 10
319.378940761913
 20
192.3303294758499
 30
0.0
 11
319.378940761913
 21
175.7826687017303
 31
0.0
  0
LINE
  5
4998
330
4993
100
AcDbEntity
  8
DIM
 62
     0
370
    -2
100
AcDbLine
 10
283.5786518093131
 20
175.7826687017303
 30
0.0
 11
318.378940761913
 21
175.7826687017303
 31
0.0
  0
INSERT
  5
4999
330
4993
100
AcDbEntity
  8
DIM
 62
     0
370
    -2
100
AcDbBlockReference
  2
_DOT
 10
282.5786518093131
 20
175.7826687017303
 30
0.0
 50
180.0
  0
INSERT
  5
499A
330
4993
100
AcDbEntity
  8
DIM
 62
     0
370
    -2
100
AcDbBlockReference
  2
_DOT
 10
319.378940761913
 20
175.7826687017303
 30
0.0
  0
MTEXT
  5
499B
330
4993
100
AcDbEntity
  8
DIM
 62
     0
 48
0.05
100
AcDbMText
 10
300.978795641313
 20
183.2826687017303
 30
0.0
 40
5.0
 41
0.0
 46
0.0
 71
     5
 72
     1
  1
\A1;\A1;37
  7
ＭＳ ゴシック
 73
     1
 44
1.0
  0
POINT
  5
499C
330
4993
100
AcDbEntity
  8
Defpoints
 62
     0
100
AcDbPoint
 10
282.5786518093131
 20
198.1270615156891
 30
0.0
  0
POINT
  5
499D
330
4993
100
AcDbEntity
  8
Defpoints
 62
     0
100
AcDbPoint
 10
319.378940761913
 20
197.3303294758499
 30
0.0
  0
POINT
  5
499E
330
4993
100
AcDbEntity
  8
Defpoints
 62
     0
100
AcDbPoint
 10
319.378940761913
 20
175.7826687017303
 30
0.0
  0
ENDBLK
  5
4995
330
4993
100
AcDbEntity
  8
0
100
AcDbBlockEnd
  0
BLOCK
  5
49A1
330
49A0
100
AcDbEntity
  8
0
100
AcDbBlockBegin
  2
*D9
 70
     1
 10
0.0
 20
0.0
 30
0.0
  3
*D9
  1
*D26
  0
LINE
  5
49A3
330
49A0
100
AcDbEntity
  8
DIM
 62
     0
370
    -2
100
AcDbLine
 10
282.5786518093131
 20
193.1270615156891
 30
0.0
 11
282.5786518093131
 21
157.8029937491033
 31
0.0
  0
LINE
  5
49A4
330
49A0
100
AcDbEntity
  8
DIM
 62
     0
370
    -2
100
AcDbLine
 10
351.4706770199131
 20
243.1976888173527
 30
0.0
 11
351.4706770199131
 21
157.8029937491033
 31
0.0
  0
LINE
  5
49A5
330
49A0
100
AcDbEntity
  8
DIM
 62
     0
370
    -2
100
AcDbLine
 10
283.5786518093131
 20
157.8029937491033
 30
0.0
 11
350.4706770199131
 21
157.8029937491033
 31
0.0
  0
INSERT
  5
49A6
330
49A0
100
AcDbEntity
  8
DIM
 62
     0
370
    -2
100
AcDbBlockReference
  2
_DOT
 10
282.5786518093131
 20
157.8029937491033
 30
0.0
 50
180.0
  0
INSERT
  5
49A7
330
49A0
100
AcDbEntity
  8
DIM
 62
     0
370
    -2
100
AcDbBlockReference
  2
_DOT
 10
351.4706770199131
 20
157.8029937491033
 30
0.0
  0
MTEXT
  5
49A8
330
49A0
100
AcDbEntity
  8
DIM
 62
     0
 48
0.05
100
AcDbMText
 10
317.024664038113
 20
165.3029937491033
 30
0.0
 40
5.0
 41
0.0
 46
0.0
 71
     5
 72
     1
  1
\A1;\A1;69
  7
ＭＳ ゴシック
 73
     1
 44
1.0
  0
POINT
  5
49A9
330
49A0
100
AcDbEntity
  8
Defpoints
 62
     0
100
AcDbPoint
 10
282.5786518093131
 20
198.1270615156891
 30
0.0
  0
POINT
  5
49AA
330
49A0
100
AcDbEntity
  8
Defpoints
 62
     0
100
AcDbPoint
 10
351.4706770199131
 20
248.1976888173527
 30
0.0
  0
POINT
  5
49AB
330
49A0
100
AcDbEntity
  8
Defpoints
 62
     0
100
AcDbPoint
 10
351.4706770199131
 20
157.8029937491033
 30
0.0
  0
ENDBLK
  5
49A2
330
49A0
100
AcDbEntity
  8
0
100
AcDbBlockEnd
  0
BLOCK
  5
49AE
330
49AD
100
AcDbEntity
  8
0
100
AcDbBlockBegin
  2
*D10
 70
     1
 10
0.0
 20
0.0
 30
0.0
  3
*D10
  1
*D27
  0
LINE
  5
49B0
330
49AD
100
AcDbEntity
  8
DIM
 62
     0
370
    -2
100
AcDbLine
 10
282.5786518093131
 20
185.6677429070799
 30
0.0
 11
282.5786518093131
 21
157.8029937491033
 31
0.0
  0
LINE
  5
49B1
330
49AD
100
AcDbEntity
  8
DIM
 62
     0
370
    -2
100
AcDbLine
 10
259.579071035913
 20
192.7893693796649
 30
0.0
 11
259.579071035913
 21
157.8029937491033
 31
0.0
  0
LINE
  5
49B2
330
49AD
100
AcDbEntity
  8
DIM
 62
     0
370
    -2
100
AcDbLine
 10
281.5786518093131
 20
157.8029937491033
 30
0.0
 11
260.579071035913
 21
157.8029937491033
 31
0.0
  0
INSERT
  5
49B3
330
49AD
100
AcDbEntity
  8
DIM
 62
     0
370
    -2
100
AcDbBlockReference
  2
_DOT
 10
282.5786518093131
 20
157.8029937491033
 30
0.0
  0
INSERT
  5
49B4
330
49AD
100
AcDbEntity
  8
DIM
 62
     0
370
    -2
100
AcDbBlockReference
  2
_DOT
 10
259.579071035913
 20
157.8029937491033
 30
0.0
 50
180.0
  0
MTEXT
  5
49B5
330
49AD
100
AcDbEntity
  8
DIM
 62
     0
 48
0.05
100
AcDbMText
 10
271.078861334713
 20
165.3029937491033
 30
0.0
 40
5.0
 41
0.0
 46
0.0
 71
     5
 72
     1
  1
\A1;\A1;23
  7
ＭＳ ゴシック
 73
     1
 44
1.0
  0
POINT
  5
49B6
330
49AD
100
AcDbEntity
  8
Defpoints
 62
     0
100
AcDbPoint
 10
282.5786518093131
 20
190.6677429070799
 30
0.0
  0
POINT
  5
49B7
330
49AD
100
AcDbEntity
  8
Defpoints
 62
     0
100
AcDbPoint
 10
259.579071035913
 20
197.7893693796649
 30
0.0
  0
POINT
  5
49B8
330
49AD
100
AcDbEntity
  8
Defpoints
 62
     0
100
AcDbPoint
 10
259.579071035913
 20
157.8029937491033
 30
0.0
  0
ENDBLK
  5
49AF
330
49AD
100
AcDbEntity
  8
0
100
AcDbBlockEnd
  0
BLOCK
  5
49BB
330
49BA
100
AcDbEntity
  8
0
100
AcDbBlockBegin
  2
*D11
 70
     1
 10
0.0
 20
0.0
 30
0.0
  3
*D11
  1
*D28
  0
LINE
  5
49BD
330
49BA
100
AcDbEntity
  8
DIM
 62
     0
370
    -2
100
AcDbLine
 10
356.4706770199131
 20
253.1099281762892
 30
0.0
 11
375.8366341330814
 21
253.1099281762892
 31
0.0
  0
LINE
  5
49BE
330
49BA
100
AcDbEntity
  8
DIM
 62
     0
370
    -2
100
AcDbLine
 10
333.658940761913
 20
218.4213292208891
 30
0.0
 11
375.8366341330814
 21
218.4213292208891
 31
0.0
  0
LINE
  5
49BF
330
49BA
100
AcDbEntity
  8
DIM
 62
     0
370
    -2
100
AcDbLine
 10
375.8366341330814
 20
252.1099281762892
 30
0.0
 11
375.8366341330814
 21
219.4213292208891
 31
0.0
  0
INSERT
  5
49C0
330
49BA
100
AcDbEntity
  8
DIM
 62
     0
370
    -2
100
AcDbBlockReference
  2
_DOT
 10
375.8366341330814
 20
253.1099281762892
 30
0.0
 50
90.0
  0
INSERT
  5
49C1
330
49BA
100
AcDbEntity
  8
DIM
 62
     0
370
    -2
100
AcDbBlockReference
  2
_DOT
 10
375.8366341330814
 20
218.4213292208891
 30
0.0
 50
270.0
  0
MTEXT
  5
49C2
330
49BA
100
AcDbEntity
  8
DIM
 62
     0
 48
0.05
100
AcDbMText
 10
368.3366341330814
 20
235.7656284724892
 30
0.0
 40
5.0
 41
0.0
 46
0.0
 71
     5
 72
     1
  1
\A1;\A1;35
  7
ＭＳ ゴシック
 11
0.0
 21
1.0
 31
0.0
 73
     1
 44
1.0
  0
POINT
  5
49C3
330
49BA
100
AcDbEntity
  8
Defpoints
 62
     0
100
AcDbPoint
 10
351.4706770199131
 20
253.1099281762892
 30
0.0
  0
POINT
  5
49C4
330
49BA
100
AcDbEntity
  8
Defpoints
 62
     0
100
AcDbPoint
 10
328.658940761913
 20
218.4213292208891
 30
0.0
  0
POINT
  5
49C5
330
49BA
100
AcDbEntity
  8
Defpoints
 62
     0
100
AcDbPoint
 10
375.8366341330814
 20
218.4213292208891
 30
0.0
  0
ENDBLK
  5
49BC
330
49BA
100
AcDbEntity
  8
0
100
AcDbBlockEnd
  0
BLOCK
  5
4A96
330
4A95
100
AcDbEntity
  8
0
100
AcDbBlockBegin
  2
_SE_FILLED
 70
     0
 10
0.0
 20
0.0
 30
0.0
  3
_SE_FILLED
  1
_SE_FILLED
  0
SOLID
  5
4A97
330
4A95
100
AcDbEntity
  8
0
 62
     0
100
AcDbTrace
 10
0.0
 20
0.0
 30
0.0
 11
-1.0
 21
-0.1665
 31
0.0
 12
-1.0
 22
0.1665
 32
0.0
 13
0.0
 23
0.0
 33
0.0
  0
LINE
  5
4A98
330
4A95
100
AcDbEntity
  8
0
 62
     0
100
AcDbLine
 10
0.0
 20
0.0
 30
0.0
 11
-1.0
 21
0.0
 31
0.0
  0
ENDBLK
  5
4A99
330
4A95
100
AcDbEntity
  8
0
100
AcDbBlockEnd
  0
BLOCK
  5
4C25
330
4C24
100
AcDbEntity
  8
0
100
AcDbBlockBegin
  2
SEANNOT_GROUP
 70
     0
 10
0.0
 20
0.0
 30
0.0
  3
SEANNOT_GROUP
  1
SEANNOT_GROUP
  0
LINE
  5
4C26
330
4C24
100
AcDbEntity
  8
Default
  6
CENTER2
 62
   136
370
    20
100
AcDbLine
 10
88.9043893467
 20
156.6601684717
 30
0.0
 11
88.9043893467
 21
128.088392898
 31
0.0
  0
ENDBLK
  5
4C27
330
4C24
100
AcDbEntity
  8
0
100
AcDbBlockEnd
  0
BLOCK
  5
4D4A
330
4D49
100
AcDbEntity
  8
0
100
AcDbBlockBegin
  2
DMBLK23
 70
     0
 10
0.0
 20
0.0
 30
0.0
  3
DMBLK23
  1
DMBLK23
  0
LINE
  5
4D4B
330
4D49
100
AcDbEntity
  8
Layer3
  6
Continuous
 62
   136
370
    -2
100
AcDbLine
 10
30.70384208570005
 20
18.13145274109999
 30
0.0
 11
30.70384208570005
 21
0.1020000000000039
 31
0.0
  0
LINE
  5
4D4C
330
4D49
100
AcDbEntity
  8
Layer3
  6
Continuous
 62
   136
370
    -2
100
AcDbLine
 10
55.09501847260005
 20
14.64047021729999
 30
0.0
 11
55.09501847260005
 21
0.1020000000000039
 31
0.0
  0
LINE
  5
4D4D
330
4D49
100
AcDbEntity
  8
Layer3
  6
Continuous
 62
   136
370
    -2
100
AcDbLine
 10
24.70384208570005
 20
3.102000000000004
 30
0.0
 11
18.70384208570005
 21
3.102000000000004
 31
0.0
  0
LINE
  5
4D4E
330
4D49
100
AcDbEntity
  8
Layer3
  6
Continuous
 62
   136
370
    -2
100
AcDbLine
 10
61.09501847260005
 20
3.102000000000004
 30
0.0
 11
67.09501847260005
 21
3.102000000000004
 31
0.0
  0
INSERT
  5
4D4F
330
4D49
100
AcDbEntity
  8
Layer3
 62
   136
370
    -2
100
AcDbBlockReference
  2
_SE_FILLED
 10
30.70384208570005
 20
3.102000000000004
 30
0.0
 41
6.0
 42
6.0
 43
6.0
  0
INSERT
  5
4D50
330
4D49
100
AcDbEntity
  8
Layer3
 62
   136
370
    -2
100
AcDbBlockReference
  2
_SE_FILLED
 10
55.09501847260005
 20
3.102000000000004
 30
0.0
 41
6.0
 42
6.0
 43
6.0
 50
180.0
  0
MTEXT
  5
4D51
330
4D49
100
AcDbEntity
  8
Layer3
 62
   136
 48
0.05
370
    20
100
AcDbMText
 10
42.89943017530004
 20
3.102000000000004
 30
0.0
 40
6.0
 41
0.0
 46
0.0
 71
     5
 72
     1
  1
\A1;\A1;49
  7
SEACAD_arial_ttf
 73
     1
 44
1.0
  0
POINT
  5
4D81
330
4D49
100
AcDbEntity
  8
Defpoints
 62
     0
100
AcDbPoint
 10
30.70384208570005
 20
18.13145274109999
 30
0.0
  0
POINT
  5
4D82
330
4D49
100
AcDbEntity
  8
Defpoints
 62
     0
100
AcDbPoint
 10
55.09501847260005
 20
14.64047021729999
 30
0.0
  0
POINT
  5
4D83
330
4D49
100
AcDbEntity
  8
Defpoints
 62
     0
100
AcDbPoint
 10
55.09501847260005
 20
3.102000000000004
 30
0.0
  0
ENDBLK
  5
4D52
330
4D49
100
AcDbEntity
  8
0
100
AcDbBlockEnd
  0
BLOCK
  5
4D55
330
4D54
100
AcDbEntity
  8
0
100
AcDbBlockBegin
  2
DMBLK24
 70
     0
 10
0.0
 20
0.0
 30
0.0
  3
DMBLK24
  1
DMBLK24
  0
LINE
  5
4D56
330
4D54
100
AcDbEntity
  8
Layer3
  6
Continuous
 62
   136
370
    -2
100
AcDbLine
 10
130.7036859599
 20
15.51971674219999
 30
0.0
 11
96.73518227223668
 21
15.52001980477813
 31
0.0
  0
LINE
  5
4D57
330
4D54
100
AcDbEntity
  8
Layer3
  6
Continuous
 62
   136
370
    -2
100
AcDbLine
 10
130.7039982116
 20
50.51817510570001
 30
0.0
 11
96.73549452393668
 21
50.51847816827816
 31
0.0
  0
LINE
  5
4D58
330
4D54
100
AcDbEntity
  8
Layer3
  6
Continuous
 62
   136
370
    -2
100
AcDbLine
 10
99.73523580333801
 20
21.51999303892897
 30
0.0
 11
99.73528430220148
 21
26.9559456816
 31
0.0
  0
LINE
  5
4D59
330
4D54
100
AcDbEntity
  8
Layer3
  6
Continuous
 62
   136
370
    -2
100
AcDbLine
 10
99.73544099259655
 20
44.51845140290659
 30
0.0
 11
99.73539248879858
 21
39.0819456816
 31
0.0
  0
INSERT
  5
4D5A
330
4D54
100
AcDbEntity
  8
Layer3
 62
   136
370
    -2
100
AcDbBlockReference
  2
_SE_FILLED
 10
99.73518227211729
 20
15.51999303916777
 30
0.0
 41
6.0
 42
6.0
 43
6.0
 50
269.9994888144967
  0
INSERT
  5
4D5B
330
4D54
100
AcDbEntity
  8
Layer3
 62
   136
370
    -2
100
AcDbBlockReference
  2
_SE_FILLED
 10
99.73549452381728
 20
50.51845140266779
 30
0.0
 41
6.0
 42
6.0
 43
6.0
 50
89.99948881449667
  0
MTEXT
  5
4D5C
330
4D54
100
AcDbEntity
  8
Layer3
 62
   136
 48
0.05
370
    20
100
AcDbMText
 10
99.73533839550004
 20
33.0189456816
 30
0.0
 40
6.0
 41
0.0
 46
0.0
 71
     5
 72
     1
  1
\A1;\A1;70
  7
SEACAD_arial_ttf
 73
     1
 44
1.0
  0
POINT
  5
4D84
330
4D54
100
AcDbEntity
  8
Defpoints
 62
     0
100
AcDbPoint
 10
130.7036859599
 20
15.51971674219999
 30
0.0
  0
POINT
  5
4D85
330
4D54
100
AcDbEntity
  8
Defpoints
 62
     0
100
AcDbPoint
 10
130.7039982116
 20
50.51817510570001
 30
0.0
  0
POINT
  5
4D86
330
4D54
100
AcDbEntity
  8
Defpoints
 62
     0
100
AcDbPoint
 10
99.7356506496651
 20
50.51845140127485
 30
0.0
  0
ENDBLK
  5
4D5D
330
4D54
100
AcDbEntity
  8
0
100
AcDbBlockEnd
  0
BLOCK
  5
4D60
330
4D5F
100
AcDbEntity
  8
0
100
AcDbBlockBegin
  2
DMBLK25
 70
     0
 10
0.0
 20
0.0
 30
0.0
  3
DMBLK25
  1
DMBLK25
  0
LINE
  5
4D61
330
4D5F
100
AcDbEntity
  8
Layer3
  6
Continuous
 62
   136
370
    -2
100
AcDbLine
 10
113.204612904
 20
33.0191020499
 30
0.0
 11
113.2043123361326
 21
0.2632864477882237
 31
0.0
  0
LINE
  5
4D62
330
4D5F
100
AcDbEntity
  8
Layer3
  6
Continuous
 62
   136
370
    -2
100
AcDbLine
 10
148.1754239825
 20
33.01878115720001
 30
0.0
 11
148.1751234146326
 21
0.2629655550882348
 31
0.0
  0
LINE
  5
4D63
330
4D5F
100
AcDbEntity
  8
Layer3
  6
Continuous
 62
   136
370
    -2
100
AcDbLine
 10
119.2043398639261
 20
3.263231391569702
 30
0.0
 11
123.4330191538
 21
3.263192589143539
 31
0.0
  0
LINE
  5
4D64
330
4D5F
100
AcDbEntity
  8
Layer3
  6
Continuous
 62
   136
370
    -2
100
AcDbLine
 10
142.1751509429313
 20
3.263020611054159
 30
0.0
 11
137.9470191538001
 21
3.263059408456446
 31
0.0
  0
INSERT
  5
4D65
330
4D5F
100
AcDbEntity
  8
Layer3
 62
   136
370
    -2
100
AcDbBlockReference
  2
_SE_FILLED
 10
113.2043398641787
 20
3.263286447661925
 30
0.0
 41
6.0
 42
6.0
 43
6.0
 50
179.9994742530465
  0
INSERT
  5
4D66
330
4D5F
100
AcDbEntity
  8
Layer3
 62
   136
370
    -2
100
AcDbBlockReference
  2
_SE_FILLED
 10
148.1751509426787
 20
3.262965554961936
 30
0.0
 41
6.0
 42
6.0
 43
6.0
 50
359.9994742530465
  0
MTEXT
  5
4D67
330
4D5F
100
AcDbEntity
  8
Layer3
 62
   136
 48
0.05
370
    20
100
AcDbMText
 10
130.6900191538001
 20
3.263125998799993
 30
0.0
 40
6.0
 41
0.0
 46
0.0
 71
     5
 72
     1
  1
\A1;\A1;70
  7
SEACAD_arial_ttf
 73
     1
 44
1.0
  0
POINT
  5
4D87
330
4D5F
100
AcDbEntity
  8
Defpoints
 62
     0
100
AcDbPoint
 10
113.204612904
 20
33.0191020499
 30
0.0
  0
POINT
  5
4D88
330
4D5F
100
AcDbEntity
  8
Defpoints
 62
     0
100
AcDbPoint
 10
148.1754239825
 20
33.01878115720001
 30
0.0
  0
POINT
  5
4D89
330
4D5F
100
AcDbEntity
  8
Defpoints
 62
     0
100
AcDbPoint
 10
148.1751509412064
 20
3.262805108605445
 30
0.0
  0
ENDBLK
  5
4D68
330
4D5F
100
AcDbEntity
  8
0
100
AcDbBlockEnd
  0
BLOCK
  5
4D6B
330
4D6A
100
AcDbEntity
  8
0
100
AcDbBlockBegin
  2
DMBLK26
 70
     0
 10
0.0
 20
0.0
 30
0.0
  3
DMBLK26
  1
DMBLK26
  0
LINE
  5
4D6C
330
4D6A
100
AcDbEntity
  8
Default
  6
Continuous
 62
   136
370
    -2
100
AcDbLine
 10
30.70384208570005
 20
56.79010531489999
 30
0.0
 11
30.70384208570005
 21
69.82676101659999
 31
0.0
  0
LINE
  5
4D6D
330
4D6A
100
AcDbEntity
  8
Default
  6
Continuous
 62
   136
370
    -2
100
AcDbLine
 10
65.14554904600004
 20
33.01888823299998
 30
0.0
 11
65.14554904600004
 21
69.82676101659999
 31
0.0
  0
LINE
  5
4D6E
330
4D6A
100
AcDbEntity
  8
Default
  6
Continuous
 62
   136
370
    -2
100
AcDbLine
 10
36.70384208570005
 20
66.82676101659999
 30
0.0
 11
40.60769498230004
 21
66.82676101659999
 31
0.0
  0
LINE
  5
4D6F
330
4D6A
100
AcDbEntity
  8
Default
  6
Continuous
 62
   136
370
    -2
100
AcDbLine
 10
59.14554904600004
 20
66.82676101659999
 30
0.0
 11
55.24169498230003
 21
66.82676101659999
 31
0.0
  0
INSERT
  5
4D70
330
4D6A
100
AcDbEntity
  8
Default
 62
   136
370
    -2
100
AcDbBlockReference
  2
_SE_FILLED
 10
30.70384208570005
 20
66.82676101659999
 30
0.0
 41
6.0
 42
6.0
 43
6.0
 50
180.0
  0
INSERT
  5
4D71
330
4D6A
100
AcDbEntity
  8
Default
 62
   136
370
    -2
100
AcDbBlockReference
  2
_SE_FILLED
 10
65.14554904600004
 20
66.82676101659999
 30
0.0
 41
6.0
 42
6.0
 43
6.0
  0
MTEXT
  5
4D72
330
4D6A
100
AcDbEntity
  8
Default
 62
   136
 48
0.05
370
    20
100
AcDbMText
 10
47.92469498230004
 20
66.82676101659999
 30
0.0
 40
6.0
 41
0.0
 46
0.0
 71
     5
 72
     1
  1
\A1;\A1;69
  7
SEACAD_arial_ttf
 73
     1
 44
1.0
  0
POINT
  5
4D8A
330
4D6A
100
AcDbEntity
  8
Defpoints
 62
     0
100
AcDbPoint
 10
30.70384208570005
 20
56.79010531489999
 30
0.0
  0
POINT
  5
4D8B
330
4D6A
100
AcDbEntity
  8
Defpoints
 62
     0
100
AcDbPoint
 10
65.14554904600004
 20
33.01888823299998
 30
0.0
  0
POINT
  5
4D8C
330
4D6A
100
AcDbEntity
  8
Defpoints
 62
     0
100
AcDbPoint
 10
65.14554904600004
 20
66.82676101659999
 30
0.0
  0
ENDBLK
  5
4D73
330
4D6A
100
AcDbEntity
  8
0
100
AcDbBlockEnd
  0
BLOCK
  5
4D76
330
4D75
100
AcDbEntity
  8
0
100
AcDbBlockBegin
  2
DMBLK27
 70
     0
 10
0.0
 20
0.0
 30
0.0
  3
DMBLK27
  1
DMBLK27
  0
LINE
  5
4D77
330
4D75
100
AcDbEntity
  8
Layer3
  6
Continuous
 62
   136
370
    -2
100
AcDbLine
 10
13.25394645470004
 20
114.5196306797
 30
0.0
 11
1.449652174000043
 21
114.5196306797
 31
0.0
  0
LINE
  5
4D78
330
4D75
100
AcDbEntity
  8
Layer3
  6
Continuous
 62
   136
370
    -2
100
AcDbLine
 10
13.25394645470004
 20
101.5196306797
 30
0.0
 11
1.449652174000043
 21
101.5196306797
 31
0.0
  0
LINE
  5
4D79
330
4D75
100
AcDbEntity
  8
Layer3
  6
Continuous
 62
   136
370
    -2
100
AcDbLine
 10
4.449652174000043
 20
120.5196306797
 30
0.0
 11
4.449652174000043
 21
126.5196306797
 31
0.0
  0
LINE
  5
4D7A
330
4D75
100
AcDbEntity
  8
Layer3
  6
Continuous
 62
   136
370
    -2
100
AcDbLine
 10
4.449652174000043
 20
95.51963067969999
 30
0.0
 11
4.449652174000043
 21
89.51963067969999
 31
0.0
  0
INSERT
  5
4D7B
330
4D75
100
AcDbEntity
  8
Layer3
 62
   136
370
    -2
100
AcDbBlockReference
  2
_SE_FILLED
 10
4.449652174000043
 20
114.5196306797
 30
0.0
 41
6.0
 42
6.0
 43
6.0
 50
270.0
  0
INSERT
  5
4D7C
330
4D75
100
AcDbEntity
  8
Layer3
 62
   136
370
    -2
100
AcDbBlockReference
  2
_SE_FILLED
 10
4.449652174000043
 20
101.5196306797
 30
0.0
 41
6.0
 42
6.0
 43
6.0
 50
90.0
  0
MTEXT
  5
4D7D
330
4D75
100
AcDbEntity
  8
Layer3
 62
   136
 48
0.05
370
    20
100
AcDbMText
 10
4.449652174000043
 20
108.0196305456
 30
0.0
 40
6.0
 41
0.0
 46
0.0
 71
     5
 72
     1
  1
\A1;\A1;26
  7
SEACAD_arial_ttf
 73
     1
 44
1.0
  0
POINT
  5
4D8D
330
4D75
100
AcDbEntity
  8
Defpoints
 62
     0
100
AcDbPoint
 10
13.25394645470004
 20
114.5196306797
 30
0.0
  0
POINT
  5
4D8E
330
4D75
100
AcDbEntity
  8
Defpoints
 62
     0
100
AcDbPoint
 10
13.25394645470004
 20
101.5196306797
 30
0.0
  0
POINT
  5
4D8F
330
4D75
100
AcDbEntity
  8
Defpoints
 62
     0
100
AcDbPoint
 10
4.449652174000045
 20
101.5196306797
 30
0.0
  0
ENDBLK
  5
4D7E
330
4D75
100
AcDbEntity
  8
0
100
AcDbBlockEnd
  0
BLOCK
  5
5023
330
5022
100
AcDbEntity
  8
0
100
AcDbBlockBegin
  2
*D19
 70
     1
 10
0.0
 20
0.0
 30
0.0
  3
*D19
  1
*D39
  0
LINE
  5
5025
330
5022
100
AcDbEntity
  8
DIM
 62
     0
370
    -2
100
AcDbLine
 10
293.1456454983688
 20
200.614586761985
 30
0.0
 11
293.1456454983688
 21
175.555681279785
 31
0.0
  0
LINE
  5
5026
330
5022
100
AcDbEntity
  8
DIM
 62
     0
370
    -2
100
AcDbLine
 10
341.9279982721689
 20
212.3273256507351
 30
0.0
 11
341.9279982721689
 21
175.555681279785
 31
0.0
  0
LINE
  5
5027
330
5022
100
AcDbEntity
  8
DIM
 62
     0
370
    -2
100
AcDbLine
 10
294.1456454983688
 20
175.555681279785
 30
0.0
 11
340.9279982721689
 21
175.555681279785
 31
0.0
  0
INSERT
  5
5028
330
5022
100
AcDbEntity
  8
DIM
 62
     0
370
    -2
100
AcDbBlockReference
  2
_DOT
 10
293.1456454983688
 20
175.555681279785
 30
0.0
 50
180.0
  0
INSERT
  5
5029
330
5022
100
AcDbEntity
  8
DIM
 62
     0
370
    -2
100
AcDbBlockReference
  2
_DOT
 10
341.9279982721689
 20
175.555681279785
 30
0.0
  0
MTEXT
  5
502A
330
5022
100
AcDbEntity
  8
DIM
 62
     0
 48
0.05
100
AcDbMText
 10
317.5368216775689
 20
183.055681279785
 30
0.0
 40
5.0
 41
0.0
 46
0.0
 71
     5
 72
     1
  1
\A1;\A1;49
  7
ＭＳ ゴシック
 73
     1
 44
1.0
  0
POINT
  5
502B
330
5022
100
AcDbEntity
  8
Defpoints
 62
     0
100
AcDbPoint
 10
293.1456454983688
 20
205.614586761985
 30
0.0
  0
POINT
  5
502C
330
5022
100
AcDbEntity
  8
Defpoints
 62
     0
100
AcDbPoint
 10
341.9279982721689
 20
217.3273256507351
 30
0.0
  0
POINT
  5
502D
330
5022
100
AcDbEntity
  8
Defpoints
 62
     0
100
AcDbPoint
 10
341.9279982721689
 20
175.555681279785
 30
0.0
  0
ENDBLK
  5
5024
330
5022
100
AcDbEntity
  8
0
100
AcDbBlockEnd
  0
BLOCK
  5
5030
330
502F
100
AcDbEntity
  8
0
100
AcDbBlockBegin
  2
*D20
 70
     1
 10
0.0
 20
0.0
 30
0.0
  3
*D20
  1
*D40
  0
LINE
  5
5032
330
502F
100
AcDbEntity
  8
DIM
 62
     0
370
    -2
100
AcDbLine
 10
112.6822707355026
 20
200.3911593735356
 30
0.0
 11
55.7452633597383
 21
200.3916673581206
 31
0.0
  0
LINE
  5
5033
330
502F
100
AcDbEntity
  8
DIM
 62
     0
370
    -2
100
AcDbLine
 10
112.6828952389027
 20
270.3880761005356
 30
0.0
 11
55.7458878631384
 21
270.3885840851207
 31
0.0
  0
LINE
  5
5034
330
502F
100
AcDbEntity
  8
DIM
 62
     0
370
    -2
100
AcDbLine
 10
55.74527228160842
 20
201.3916673580808
 30
0.0
 11
55.74587894126827
 21
269.3885840851605
 31
0.0
  0
INSERT
  5
5035
330
502F
100
AcDbEntity
  8
DIM
 62
     0
370
    -2
100
AcDbBlockReference
  2
_DOT
 10
55.7452633597383
 20
200.3916673581206
 30
0.0
 50
269.9994888144964
  0
INSERT
  5
5036
330
502F
100
AcDbEntity
  8
DIM
 62
     0
370
    -2
100
AcDbBlockReference
  2
_DOT
 10
55.7458878631384
 20
270.3885840851207
 30
0.0
 50
89.99948881449656
  0
MTEXT
  5
5037
330
502F
100
AcDbEntity
  8
DIM
 62
     0
 48
0.05
100
AcDbMText
 10
48.24557560680235
 20
235.389639557011
 30
0.0
 40
5.0
 41
0.0
 46
0.0
 71
     5
 72
     1
  1
\A1;\A1;70
  7
ＭＳ ゴシック
 11
8.921870123434420E-6
 21
0.9999999999602004
 31
0.0
 73
     1
 44
1.0
  0
POINT
  5
5038
330
502F
100
AcDbEntity
  8
Defpoints
 62
     0
100
AcDbPoint
 10
117.6822707353036
 20
200.3911147641849
 30
0.0
  0
POINT
  5
5039
330
502F
100
AcDbEntity
  8
Defpoints
 62
     0
100
AcDbPoint
 10
117.6828952387037
 20
270.388031491185
 30
0.0
  0
POINT
  5
503A
330
502F
100
AcDbEntity
  8
Defpoints
 62
     0
100
AcDbPoint
 10
55.74588786313842
 20
270.3885840851207
 30
0.0
  0
ENDBLK
  5
5031
330
502F
100
AcDbEntity
  8
0
100
AcDbBlockEnd
  0
BLOCK
  5
503D
330
503C
100
AcDbEntity
  8
0
100
AcDbBlockBegin
  2
*D21
 70
     1
 10
0.0
 20
0.0
 30
0.0
  3
*D21
  1
*D41
  0
LINE
  5
503F
330
503C
100
AcDbEntity
  8
DIM
 62
     0
370
    -2
100
AcDbLine
 10
82.68407874342678
 20
230.3898853797954
 30
0.0
 11
82.68357854386099
 21
175.8782541751088
 31
0.0
  0
LINE
  5
5040
330
503C
100
AcDbEntity
  8
DIM
 62
     0
370
    -2
100
AcDbLine
 10
152.6257009004268
 20
230.3892435943955
 30
0.0
 11
152.625200700861
 21
175.8776123897088
 31
0.0
  0
LINE
  5
5041
330
503C
100
AcDbEntity
  8
DIM
 62
     0
370
    -2
100
AcDbLine
 10
83.6835785438189
 20
175.8782449990934
 30
0.0
 11
151.6252007009031
 21
175.8776215657242
 31
0.0
  0
INSERT
  5
5042
330
503C
100
AcDbEntity
  8
DIM
 62
     0
370
    -2
100
AcDbBlockReference
  2
_DOT
 10
82.68357854386099
 20
175.8782541751088
 30
0.0
 50
179.9994742530466
  0
INSERT
  5
5043
330
503C
100
AcDbEntity
  8
DIM
 62
     0
370
    -2
100
AcDbBlockReference
  2
_DOT
 10
152.625200700861
 20
175.8776123897088
 30
0.0
 50
359.9994742530466
  0
MTEXT
  5
5044
330
503C
100
AcDbEntity
  8
DIM
 62
     0
 48
0.05
100
AcDbMText
 10
117.6550059432189
 20
183.3779332770692
 30
0.0
 40
5.0
 41
0.0
 46
0.0
 71
     5
 72
     1
  1
\A1;\A1;70
  7
ＭＳ ゴシック
 11
0.9999999999579003
 21
-9.176015369694141E-6
 31
0.0
 73
     1
 44
1.0
  0
POINT
  5
5045
330
503C
100
AcDbEntity
  8
Defpoints
 62
     0
100
AcDbPoint
 10
82.68412462350364
 20
235.3898853795849
 30
0.0
  0
POINT
  5
5046
330
503C
100
AcDbEntity
  8
Defpoints
 62
     0
100
AcDbPoint
 10
152.6257467805036
 20
235.389243594185
 30
0.0
  0
POINT
  5
5047
330
503C
100
AcDbEntity
  8
Defpoints
 62
     0
100
AcDbPoint
 10
152.625200700861
 20
175.8776123897089
 30
0.0
  0
ENDBLK
  5
503E
330
503C
100
AcDbEntity
  8
0
100
AcDbBlockEnd
  0
BLOCK
  5
504A
330
5049
100
AcDbEntity
  8
0
100
AcDbBlockBegin
  2
*D22
 70
     1
 10
0.0
 20
0.0
 30
0.0
  3
*D22
  1
*D42
  0
LINE
  5
504C
330
5049
100
AcDbEntity
  8
DIM
 62
     0
370
    -2
100
AcDbLine
 10
293.1456454983688
 20
287.9318919095849
 30
0.0
 11
293.1456454983688
 21
303.005203312985
 31
0.0
  0
LINE
  5
504D
330
5049
100
AcDbEntity
  8
DIM
 62
     0
370
    -2
100
AcDbLine
 10
362.0290594189689
 20
240.3894577457849
 30
0.0
 11
362.0290594189689
 21
303.005203312985
 31
0.0
  0
LINE
  5
504E
330
5049
100
AcDbEntity
  8
DIM
 62
     0
370
    -2
100
AcDbLine
 10
294.1456454983688
 20
303.005203312985
 30
0.0
 11
361.0290594189689
 21
303.005203312985
 31
0.0
  0
INSERT
  5
504F
330
5049
100
AcDbEntity
  8
DIM
 62
     0
370
    -2
100
AcDbBlockReference
  2
_DOT
 10
293.1456454983688
 20
303.005203312985
 30
0.0
 50
180.0
  0
INSERT
  5
5050
330
5049
100
AcDbEntity
  8
DIM
 62
     0
370
    -2
100
AcDbBlockReference
  2
_DOT
 10
362.0290594189689
 20
303.005203312985
 30
0.0
  0
MTEXT
  5
5051
330
5049
100
AcDbEntity
  8
DIM
 62
     0
 48
0.05
100
AcDbMText
 10
327.5873512915689
 20
310.505203312985
 30
0.0
 40
5.0
 41
0.0
 46
0.0
 71
     5
 72
     1
  1
\A1;\A1;69
  7
ＭＳ ゴシック
 73
     1
 44
1.0
  0
POINT
  5
5052
330
5049
100
AcDbEntity
  8
Defpoints
 62
     0
100
AcDbPoint
 10
293.1456454983688
 20
282.9318919095849
 30
0.0
  0
POINT
  5
5053
330
5049
100
AcDbEntity
  8
Defpoints
 62
     0
100
AcDbPoint
 10
362.0290594189689
 20
235.3894577457849
 30
0.0
  0
POINT
  5
5054
330
5049
100
AcDbEntity
  8
Defpoints
 62
     0
100
AcDbPoint
 10
362.0290594189689
 20
303.005203312985
 30
0.0
  0
ENDBLK
  5
504B
330
5049
100
AcDbEntity
  8
0
100
AcDbBlockEnd
  0
BLOCK
  5
5057
330
5056
100
AcDbEntity
  8
0
100
AcDbBlockBegin
  2
*D23
 70
     1
 10
0.0
 20
0.0
 30
0.0
  3
*D23
  1
*D43
  0
LINE
  5
5059
330
5056
100
AcDbEntity
  8
DIM
 62
     0
370
    -2
100
AcDbLine
 10
130.6851436121731
 20
478.4305384694318
 30
0.0
 11
130.6851436121731
 21
491.039127030832
 31
0.0
  0
LINE
  5
505A
330
5056
100
AcDbEntity
  8
DIM
 62
     0
370
    -2
100
AcDbLine
 10
104.6851436121731
 20
478.4305384694318
 30
0.0
 11
104.6851436121731
 21
491.039127030832
 31
0.0
  0
LINE
  5
505B
330
5056
100
AcDbEntity
  8
DIM
 62
     0
370
    -2
100
AcDbLine
 10
129.6851436121731
 20
491.039127030832
 30
0.0
 11
105.6851436121731
 21
491.039127030832
 31
0.0
  0
INSERT
  5
505C
330
5056
100
AcDbEntity
  8
DIM
 62
     0
370
    -2
100
AcDbBlockReference
  2
_DOT
 10
130.6851436121731
 20
491.039127030832
 30
0.0
  0
INSERT
  5
505D
330
5056
100
AcDbEntity
  8
DIM
 62
     0
370
    -2
100
AcDbBlockReference
  2
_DOT
 10
104.6851436121731
 20
491.039127030832
 30
0.0
 50
180.0
  0
MTEXT
  5
505E
330
5056
100
AcDbEntity
  8
DIM
 62
     0
 48
0.05
100
AcDbMText
 10
117.6851433439731
 20
498.539127030832
 30
0.0
 40
5.0
 41
0.0
 46
0.0
 71
     5
 72
     1
  1
\A1;\A1;26
  7
ＭＳ ゴシック
 73
     1
 44
1.0
  0
POINT
  5
505F
330
5056
100
AcDbEntity
  8
Defpoints
 62
     0
100
AcDbPoint
 10
130.6851436121731
 20
473.4305384694318
 30
0.0
  0
POINT
  5
5060
330
5056
100
AcDbEntity
  8
Defpoints
 62
     0
100
AcDbPoint
 10
104.6851436121731
 20
473.4305384694318
 30
0.0
  0
POINT
  5
5061
330
5056
100
AcDbEntity
  8
Defpoints
 62
     0
100
AcDbPoint
 10
104.6851436121731
 20
491.039127030832
 30
0.0
  0
ENDBLK
  5
5058
330
5056
100
AcDbEntity
  8
0
100
AcDbBlockEnd
  0
BLOCK
  5
5316
330
5315
100
AcDbEntity
  8
0
100
AcDbBlockBegin
  2
DMBLK49
 70
     0
 10
0.0
 20
0.0
 30
0.0
  3
DMBLK49
  1
DMBLK49
  0
LINE
  5
5317
330
5315
100
AcDbEntity
  8
Layer3
  6
Continuous
 62
   136
370
    -2
100
AcDbLine
 10
55.36233642648348
 20
11.84739347519999
 30
0.0
 11
130.0151511723835
 21
11.84739347519999
 31
0.0
  0
LINE
  5
5318
330
5315
100
AcDbEntity
  8
Layer3
  6
Continuous
 62
   136
370
    -2
100
AcDbLine
 10
55.36233642648348
 20
48.7911930699
 30
0.0
 11
130.0151511723835
 21
48.7911930699
 31
0.0
  0
LINE
  5
5319
330
5315
100
AcDbEntity
  8
Layer3
  6
Continuous
 62
   136
370
    -2
100
AcDbLine
 10
127.0151511723835
 20
17.84739347519999
 30
0.0
 11
127.0151511723835
 21
24.3192938489
 31
0.0
  0
LINE
  5
531A
330
5315
100
AcDbEntity
  8
Layer3
  6
Continuous
 62
   136
370
    -2
100
AcDbLine
 10
127.0151511723835
 20
42.7911930699
 30
0.0
 11
127.0151511723835
 21
36.3192938489
 31
0.0
  0
INSERT
  5
531B
330
5315
100
AcDbEntity
  8
Layer3
 62
   136
370
    -2
100
AcDbBlockReference
  2
_SE_FILLED
 10
127.0151511723835
 20
11.84739347519999
 30
0.0
 41
6.0
 42
6.0
 43
6.0
 50
270.0
  0
INSERT
  5
531C
330
5315
100
AcDbEntity
  8
Layer3
 62
   136
370
    -2
100
AcDbBlockReference
  2
_SE_FILLED
 10
127.0151511723835
 20
48.7911930699
 30
0.0
 41
6.0
 42
6.0
 43
6.0
 50
90.0
  0
MTEXT
  5
531D
330
5315
100
AcDbEntity
  8
Layer3
 62
   136
 48
0.05
370
    20
100
AcDbMText
 10
127.0151511723835
 20
30.3192938489
 30
0.0
 40
6.0
 41
0.0
 46
0.0
 71
     5
 72
     1
  1
\A1;\A1;74
  7
SEACAD_arial_ttf
 73
     1
 44
1.0
  0
POINT
  5
534D
330
5315
100
AcDbEntity
  8
Defpoints
 62
     0
100
AcDbPoint
 10
55.36233642648348
 20
11.84739347519999
 30
0.0
  0
POINT
  5
534E
330
5315
100
AcDbEntity
  8
Defpoints
 62
     0
100
AcDbPoint
 10
55.36233642648348
 20
48.7911930699
 30
0.0
  0
POINT
  5
534F
330
5315
100
AcDbEntity
  8
Defpoints
 62
     0
100
AcDbPoint
 10
127.0151511723835
 20
48.7911930699
 30
0.0
  0
ENDBLK
  5
531E
330
5315
100
AcDbEntity
  8
0
100
AcDbBlockEnd
  0
BLOCK
  5
5321
330
5320
100
AcDbEntity
  8
0
100
AcDbBlockBegin
  2
DMBLK50
 70
     0
 10
0.0
 20
0.0
 30
0.0
  3
DMBLK50
  1
DMBLK50
  0
LINE
  5
5322
330
5320
100
AcDbEntity
  8
Layer3
  6
Continuous
 62
   136
370
    -2
100
AcDbLine
 10
50.12358642648347
 20
49.8594670869
 30
0.0
 11
50.12358642648347
 21
59.77189364429999
 31
0.0
  0
LINE
  5
5323
330
5320
100
AcDbEntity
  8
Layer3
  6
Continuous
 62
   136
370
    -2
100
AcDbLine
 10
60.60108642648348
 20
49.8594670869
 30
0.0
 11
60.60108642648348
 21
59.77189364429999
 31
0.0
  0
LINE
  5
5324
330
5320
100
AcDbEntity
  8
Layer3
  6
Continuous
 62
   136
370
    -2
100
AcDbLine
 10
60.60108642648348
 20
56.77189364429999
 30
0.0
 11
72.60108642648348
 21
56.77189364429999
 31
0.0
  0
LINE
  5
5325
330
5320
100
AcDbEntity
  8
Layer3
  6
Continuous
 62
   136
370
    -2
100
AcDbLine
 10
44.12358642648347
 20
56.77189364429999
 30
0.0
 11
38.12358642648347
 21
56.77189364429999
 31
0.0
  0
LINE
  5
5326
330
5320
100
AcDbEntity
  8
Layer3
  6
Continuous
 62
   136
370
    -2
100
AcDbLine
 10
66.60108642648348
 20
56.77189364429999
 30
0.0
 11
72.60108642648348
 21
56.77189364429999
 31
0.0
  0
INSERT
  5
5327
330
5320
100
AcDbEntity
  8
Layer3
 62
   136
370
    -2
100
AcDbBlockReference
  2
_SE_FILLED
 10
50.12358642648347
 20
56.77189364429999
 30
0.0
 41
6.0
 42
6.0
 43
6.0
  0
INSERT
  5
5328
330
5320
100
AcDbEntity
  8
Layer3
 62
   136
370
    -2
100
AcDbBlockReference
  2
_SE_FILLED
 10
60.60108642648348
 20
56.77189364429999
 30
0.0
 41
6.0
 42
6.0
 43
6.0
 50
180.0
  0
MTEXT
  5
5350
330
5320
100
AcDbEntity
  8
Layer3
 62
   136
 48
0.05
370
    20
100
AcDbMText
 10
84.23508642648348
 20
56.77189364429999
 30
0.0
 40
6.0
 41
0.0
 46
0.0
 71
     5
 72
     1
  1
\A1;\A1;G1/2 {}
  7
SEACAD_arial_ttf
 73
     1
 44
1.0
  0
POINT
  5
5351
330
5320
100
AcDbEntity
  8
Defpoints
 62
     0
100
AcDbPoint
 10
50.12358642648347
 20
49.8594670869
 30
0.0
  0
POINT
  5
5352
330
5320
100
AcDbEntity
  8
Defpoints
 62
     0
100
AcDbPoint
 10
60.60108642648348
 20
49.8594670869
 30
0.0
  0
POINT
  5
5353
330
5320
100
AcDbEntity
  8
Defpoints
 62
     0
100
AcDbPoint
 10
60.60108642648348
 20
56.77189364429999
 30
0.0
  0
ENDBLK
  5
5329
330
5320
100
AcDbEntity
  8
0
100
AcDbBlockEnd
  0
BLOCK
  5
532C
330
532B
100
AcDbEntity
  8
0
100
AcDbBlockBegin
  2
DMBLK51
 70
     0
 10
0.0
 20
0.0
 30
0.0
  3
DMBLK51
  1
DMBLK51
  0
LINE
  5
532D
330
532B
100
AcDbEntity
  8
Layer3
  6
Continuous
 62
   136
370
    -2
100
AcDbLine
 10
55.18868824888348
 20
39.30638531690001
 30
0.0
 11
48.38355629051575
 21
0.7125641469127815
 31
0.0
  0
LINE
  5
532E
330
532B
100
AcDbEntity
  8
Layer3
  6
Continuous
 62
   136
370
    -2
100
AcDbLine
 10
55.53598460418347
 20
39.30638531690001
 30
0.0
 11
62.34111656634846
 21
0.7125641475999789
 31
0.0
  0
ARC
  5
532F
330
532B
100
AcDbEntity
  8
Layer3
  6
Continuous
 62
   136
370
    -2
100
AcDbCircle
 10
55.36233642648348
 20
40.2911930699
 30
0.0
 40
37.1891930699
100
AcDbArc
 50
241.4920092362857
 51
250.7460046199704
  0
ARC
  5
5330
330
532B
100
AcDbEntity
  8
Layer3
  6
Continuous
 62
   136
370
    -2
100
AcDbCircle
 10
55.36233642648348
 20
40.2911930699
 30
0.0
 40
37.1891930699
100
AcDbArc
 50
289.2539953856715
 51
298.5079907693562
  0
INSERT
  5
5331
330
532B
100
AcDbEntity
  8
Layer3
 62
   136
370
    -2
100
AcDbBlockReference
  2
_SE_FILLED
 10
48.90450082332807
 20
3.666987405982638
 30
0.0
 41
6.0
 42
6.0
 43
6.0
 50
345.3730023118127
  0
INSERT
  5
5332
330
532B
100
AcDbEntity
  8
Layer3
 62
   136
370
    -2
100
AcDbBlockReference
  2
_SE_FILLED
 10
61.82017203324522
 20
3.666987406618539
 30
0.0
 41
6.0
 42
6.0
 43
6.0
 50
194.6269976938291
  0
MTEXT
  5
5333
330
532B
100
AcDbEntity
  8
Layer3
 62
   136
 48
0.05
370
    20
100
AcDbMText
 10
55.36233642648348
 20
3.102000000000004
 30
0.0
 40
6.0
 41
0.0
 46
0.0
 71
     5
 72
     1
  1
\A1;\A1;20%%d
  7
SEACAD_arial_ttf
 73
     1
 44
1.0
  0
POINT
  5
5354
330
532B
100
AcDbEntity
  8
Defpoints
 62
     0
100
AcDbPoint
 10
57.52469569649919
 20
3.164918228789496
 30
0.0
  0
POINT
  5
5355
330
532B
100
AcDbEntity
  8
Defpoints
 62
     0
100
AcDbPoint
 10
55.36233642648348
 20
40.2911930699
 30
0.0
  0
POINT
  5
5356
330
532B
100
AcDbEntity
  8
Defpoints
 62
     0
100
AcDbPoint
 10
55.36233642648348
 20
40.2911930699
 30
0.0
  0
POINT
  5
5357
330
532B
100
AcDbEntity
  8
Defpoints
 62
     0
100
AcDbPoint
 10
55.18868824888348
 20
39.30638531690001
 30
0.0
  0
POINT
  5
5358
330
532B
100
AcDbEntity
  8
Defpoints
 62
     0
100
AcDbPoint
 10
55.53598460418347
 20
39.30638531690001
 30
0.0
  0
ENDBLK
  5
5334
330
532B
100
AcDbEntity
  8
0
100
AcDbBlockEnd
  0
BLOCK
  5
5337
330
5336
100
AcDbEntity
  8
0
100
AcDbBlockBegin
  2
DMBLK52
 70
     0
 10
0.0
 20
0.0
 30
0.0
  3
DMBLK52
  1
DMBLK52
  0
LINE
  5
5338
330
5336
100
AcDbEntity
  8
Layer3
  6
Continuous
 62
   136
370
    -2
100
AcDbLine
 10
0.0310474792834725
 20
129.183476852
 30
0.0
 11
0.0310474792834725
 21
74.0092886553
 31
0.0
  0
LINE
  5
5339
330
5336
100
AcDbEntity
  8
Layer3
  6
Continuous
 62
   136
370
    -2
100
AcDbLine
 10
110.6933074091835
 20
138.406138301
 30
0.0
 11
110.6933074091835
 21
74.0092886553
 31
0.0
  0
LINE
  5
533A
330
5336
100
AcDbEntity
  8
Layer3
  6
Continuous
 62
   136
370
    -2
100
AcDbLine
 10
6.031047479283473
 20
77.0092886553
 30
0.0
 11
46.26917705998348
 21
77.0092886553
 31
0.0
  0
LINE
  5
533B
330
5336
100
AcDbEntity
  8
Layer3
  6
Continuous
 62
   136
370
    -2
100
AcDbLine
 10
104.6933074091835
 20
77.0092886553
 30
0.0
 11
64.45517705998347
 21
77.0092886553
 31
0.0
  0
INSERT
  5
533C
330
5336
100
AcDbEntity
  8
Layer3
 62
   136
370
    -2
100
AcDbBlockReference
  2
_SE_FILLED
 10
0.0310474792834725
 20
77.0092886553
 30
0.0
 41
6.0
 42
6.0
 43
6.0
 50
180.0
  0
INSERT
  5
533D
330
5336
100
AcDbEntity
  8
Layer3
 62
   136
370
    -2
100
AcDbBlockReference
  2
_SE_FILLED
 10
110.6933074091835
 20
77.0092886553
 30
0.0
 41
6.0
 42
6.0
 43
6.0
  0
MTEXT
  5
533E
330
5336
100
AcDbEntity
  8
Layer3
 62
   136
 48
0.05
370
    20
100
AcDbMText
 10
55.36217705998348
 20
77.0092886553
 30
0.0
 40
6.0
 41
0.0
 46
0.0
 71
     5
 72
     1
  1
\A1;\A1;221
  7
SEACAD_arial_ttf
 73
     1
 44
1.0
  0
POINT
  5
5359
330
5336
100
AcDbEntity
  8
Defpoints
 62
     0
100
AcDbPoint
 10
0.0310474792834725
 20
129.183476852
 30
0.0
  0
POINT
  5
535A
330
5336
100
AcDbEntity
  8
Defpoints
 62
     0
100
AcDbPoint
 10
110.6933074091835
 20
138.406138301
 30
0.0
  0
POINT
  5
535B
330
5336
100
AcDbEntity
  8
Defpoints
 62
     0
100
AcDbPoint
 10
110.6933074091835
 20
77.0092886553
 30
0.0
  0
ENDBLK
  5
533F
330
5336
100
AcDbEntity
  8
0
100
AcDbBlockEnd
  0
BLOCK
  5
5342
330
5341
100
AcDbEntity
  8
0
100
AcDbBlockBegin
  2
DMBLK53
 70
     0
 10
0.0
 20
0.0
 30
0.0
  3
DMBLK53
  1
DMBLK53
  0
LINE
  5
5343
330
5341
100
AcDbEntity
  8
Layer3
  6
Continuous
 62
   136
370
    -2
100
AcDbLine
 10
80.79855253478347
 20
93.4601783979
 30
0.0
 11
130.0151521779835
 21
93.4601783979
 31
0.0
  0
LINE
  5
5344
330
5341
100
AcDbEntity
  8
Layer3
  6
Continuous
 62
   136
370
    -2
100
AcDbLine
 10
78.43926905888347
 20
204.1220130804
 30
0.0
 11
130.0151521779835
 21
204.1220130804
 31
0.0
  0
LINE
  5
5345
330
5341
100
AcDbEntity
  8
Layer3
  6
Continuous
 62
   136
370
    -2
100
AcDbLine
 10
127.0151521779835
 20
99.4601783979
 30
0.0
 11
127.0151521779835
 21
142.779095637
 31
0.0
  0
LINE
  5
5346
330
5341
100
AcDbEntity
  8
Layer3
  6
Continuous
 62
   136
370
    -2
100
AcDbLine
 10
127.0151521779835
 20
198.1220130804
 30
0.0
 11
127.0151521779835
 21
154.803095637
 31
0.0
  0
INSERT
  5
5347
330
5341
100
AcDbEntity
  8
Layer3
 62
   136
370
    -2
100
AcDbBlockReference
  2
_SE_FILLED
 10
127.0151521779835
 20
93.4601783979
 30
0.0
 41
6.0
 42
6.0
 43
6.0
 50
270.0
  0
INSERT
  5
5348
330
5341
100
AcDbEntity
  8
Layer3
 62
   136
370
    -2
100
AcDbBlockReference
  2
_SE_FILLED
 10
127.0151521779835
 20
204.1220130804
 30
0.0
 41
6.0
 42
6.0
 43
6.0
 50
90.0
  0
MTEXT
  5
5349
330
5341
100
AcDbEntity
  8
Layer3
 62
   136
 48
0.05
370
    20
100
AcDbMText
 10
127.0151521779835
 20
148.791095637
 30
0.0
 40
6.0
 41
0.0
 46
0.0
 71
     5
 72
     1
  1
\A1;\A1;221
  7
SEACAD_arial_ttf
 73
     1
 44
1.0
  0
POINT
  5
535C
330
5341
100
AcDbEntity
  8
Defpoints
 62
     0
100
AcDbPoint
 10
80.79855253478347
 20
93.4601783979
 30
0.0
  0
POINT
  5
535D
330
5341
100
AcDbEntity
  8
Defpoints
 62
     0
100
AcDbPoint
 10
78.43926905888347
 20
204.1220130804
 30
0.0
  0
POINT
  5
535E
330
5341
100
AcDbEntity
  8
Defpoints
 62
     0
100
AcDbPoint
 10
127.0151521779835
 20
204.1220130804
 30
0.0
  0
ENDBLK
  5
534A
330
5341
100
AcDbEntity
  8
0
100
AcDbBlockEnd
  0
BLOCK
  5
5595
330
5594
100
AcDbEntity
  8
0
100
AcDbBlockBegin
  2
*D29
 70
     1
 10
0.0
 20
0.0
 30
0.0
  3
*D29
  1
*D50
  0
LINE
  5
5597
330
5594
100
AcDbEntity
  8
Layer3
  6
Continuous
 62
   136
370
    -2
100
AcDbLine
 10
665.6910312344702
 20
124.5717811700529
 30
0.0
 11
811.9966607262703
 21
124.5717811700529
 31
0.0
  0
LINE
  5
5598
330
5594
100
AcDbEntity
  8
Layer3
  6
Continuous
 62
   136
370
    -2
100
AcDbLine
 10
665.6910312344702
 20
198.459380359453
 30
0.0
 11
811.9966607262703
 21
198.459380359453
 31
0.0
  0
LINE
  5
5599
330
5594
100
AcDbEntity
  8
Layer3
  6
Continuous
 62
   136
370
    -2
100
AcDbLine
 10
808.9966607262703
 20
130.5717811700529
 30
0.0
 11
808.9966607262703
 21
155.452581917453
 31
0.0
  0
LINE
  5
559A
330
5594
100
AcDbEntity
  8
Layer3
  6
Continuous
 62
   136
370
    -2
100
AcDbLine
 10
808.9966607262703
 20
192.459380359453
 30
0.0
 11
808.9966607262703
 21
167.5785819174529
 31
0.0
  0
INSERT
  5
559B
330
5594
100
AcDbEntity
  8
Layer3
 62
   136
370
    -2
100
AcDbBlockReference
  2
_SE_FILLED
 10
808.9966607262703
 20
124.5717811700529
 30
0.0
 41
6.0
 42
6.0
 43
6.0
 50
270.0
  0
INSERT
  5
559C
330
5594
100
AcDbEntity
  8
Layer3
 62
   136
370
    -2
100
AcDbBlockReference
  2
_SE_FILLED
 10
808.9966607262703
 20
198.459380359453
 30
0.0
 41
6.0
 42
6.0
 43
6.0
 50
90.0
  0
MTEXT
  5
559D
330
5594
100
AcDbEntity
  8
Layer3
 62
   136
 48
0.05
370
    20
100
AcDbMText
 10
808.9966607262703
 20
161.5155819174529
 30
0.0
 40
6.0
 41
0.0
 46
0.0
 71
     5
 72
     1
  1
\A1;\A1;148
  7
SEACAD_arial_ttf
 73
     1
 44
1.0
  0
POINT
  5
559E
330
5594
100
AcDbEntity
  8
Defpoints
 62
     0
100
AcDbPoint
 10
665.6910312344702
 20
124.5717811700529
 30
0.0
  0
POINT
  5
559F
330
5594
100
AcDbEntity
  8
Defpoints
 62
     0
100
AcDbPoint
 10
665.6910312344702
 20
198.459380359453
 30
0.0
  0
POINT
  5
55A0
330
5594
100
AcDbEntity
  8
Defpoints
 62
     0
100
AcDbPoint
 10
808.9966607262703
 20
198.459380359453
 30
0.0
  0
ENDBLK
  5
5596
330
5594
100
AcDbEntity
  8
0
100
AcDbBlockEnd
  0
BLOCK
  5
55A2
330
55A1
100
AcDbEntity
  8
0
100
AcDbBlockBegin
  2
*D30
 70
     1
 10
0.0
 20
0.0
 30
0.0
  3
*D30
  1
*D51
  0
LINE
  5
55A4
330
55A1
100
AcDbEntity
  8
Layer3
  6
Continuous
 62
   136
370
    -2
100
AcDbLine
 10
655.2135312344702
 20
200.5959283934529
 30
0.0
 11
655.2135312344702
 21
217.420781508253
 31
0.0
  0
LINE
  5
55A5
330
55A1
100
AcDbEntity
  8
Layer3
  6
Continuous
 62
   136
370
    -2
100
AcDbLine
 10
676.1685312344702
 20
200.5959283934529
 30
0.0
 11
676.1685312344702
 21
217.420781508253
 31
0.0
  0
LINE
  5
55A6
330
55A1
100
AcDbEntity
  8
Layer3
  6
Continuous
 62
   136
370
    -2
100
AcDbLine
 10
676.1685312344702
 20
214.420781508253
 30
0.0
 11
711.8025312344702
 21
214.420781508253
 31
0.0
  0
LINE
  5
55A7
330
55A1
100
AcDbEntity
  8
Layer3
  6
Continuous
 62
   136
370
    -2
100
AcDbLine
 10
661.2135312344702
 20
214.420781508253
 30
0.0
 11
670.1685312344702
 21
214.420781508253
 31
0.0
  0
INSERT
  5
55A8
330
55A1
100
AcDbEntity
  8
Layer3
 62
   136
370
    -2
100
AcDbBlockReference
  2
_SE_FILLED
 10
655.2135312344702
 20
214.420781508253
 30
0.0
 41
6.0
 42
6.0
 43
6.0
 50
180.0
  0
INSERT
  5
55A9
330
55A1
100
AcDbEntity
  8
Layer3
 62
   136
370
    -2
100
AcDbBlockReference
  2
_SE_FILLED
 10
676.1685312344702
 20
214.420781508253
 30
0.0
 41
6.0
 42
6.0
 43
6.0
  0
MTEXT
  5
55AA
330
55A1
100
AcDbEntity
  8
Layer3
 62
   136
 48
0.05
370
    20
100
AcDbMText
 10
723.4365312344702
 20
214.420781508253
 30
0.0
 40
6.0
 41
0.0
 46
0.0
 71
     5
 72
     1
  1
\A1;\A1;G1/2 {}
  7
SEACAD_arial_ttf
 73
     1
 44
1.0
  0
POINT
  5
55AB
330
55A1
100
AcDbEntity
  8
Defpoints
 62
     0
100
AcDbPoint
 10
655.2135312344702
 20
200.5959283934529
 30
0.0
  0
POINT
  5
55AC
330
55A1
100
AcDbEntity
  8
Defpoints
 62
     0
100
AcDbPoint
 10
676.1685312344702
 20
200.5959283934529
 30
0.0
  0
POINT
  5
55AD
330
55A1
100
AcDbEntity
  8
Defpoints
 62
     0
100
AcDbPoint
 10
676.1685312344702
 20
214.420781508253
 30
0.0
  0
ENDBLK
  5
55A3
330
55A1
100
AcDbEntity
  8
0
100
AcDbBlockEnd
  0
BLOCK
  5
55B0
330
55AF
100
AcDbEntity
  8
0
100
AcDbBlockBegin
  2
*D31
 70
     1
 10
0.0
 20
0.0
 30
0.0
  3
*D31
  1
*D52
  0
LINE
  5
55B2
330
55AF
100
AcDbEntity
  8
Layer3
  6
Continuous
 62
   136
370
    -2
100
AcDbLine
 10
665.3437348792703
 20
179.4897648534529
 30
0.0
 11
652.2544154953515
 21
105.2565457725476
 31
0.0
  0
LINE
  5
55B3
330
55AF
100
AcDbEntity
  8
Layer3
  6
Continuous
 62
   136
370
    -2
100
AcDbLine
 10
666.0383275898702
 20
179.4897648534529
 30
0.0
 11
679.1276469810967
 21
105.2565457738714
 31
0.0
  0
ARC
  5
55B4
330
55AF
100
AcDbEntity
  8
Layer3
  6
Continuous
 62
   136
370
    -2
100
AcDbCircle
 10
665.6910312344702
 20
181.459380359453
 30
0.0
 40
74.3783861398
100
AcDbArc
 50
250.7535515341416
 51
255.3767757689
  0
ARC
  5
55B5
330
55AF
100
AcDbEntity
  8
Layer3
  6
Continuous
 62
   136
370
    -2
100
AcDbCircle
 10
665.6910312344702
 20
181.459380359453
 30
0.0
 40
74.3783861398
100
AcDbArc
 50
284.623224236745
 51
289.2464484715035
  0
INSERT
  5
55B6
330
55AF
100
AcDbEntity
  8
Layer3
 62
   136
370
    -2
100
AcDbBlockReference
  2
_SE_FILLED
 10
652.7753600281636
 20
108.2109690316175
 30
0.0
 41
6.0
 42
6.0
 43
6.0
 50
347.6883878862792
  0
INSERT
  5
55B7
330
55AF
100
AcDbEntity
  8
Layer3
 62
   136
370
    -2
100
AcDbBlockReference
  2
_SE_FILLED
 10
678.6067024479935
 20
108.21096903289
 30
0.0
 41
6.0
 42
6.0
 43
6.0
 50
192.3116121193658
  0
MTEXT
  5
55B8
330
55AF
100
AcDbEntity
  8
Layer3
 62
   136
 48
0.05
370
    20
100
AcDbMText
 10
665.6910312344702
 20
107.080994219653
 30
0.0
 40
6.0
 41
0.0
 46
0.0
 71
     5
 72
     1
  1
\A1;\A1;20%%d
  7
SEACAD_arial_ttf
 73
     1
 44
1.0
  0
POINT
  5
55B9
330
55AF
100
AcDbEntity
  8
Defpoints
 62
     0
100
AcDbPoint
 10
670.0157497745029
 20
107.206830677232
 30
0.0
  0
POINT
  5
55BA
330
55AF
100
AcDbEntity
  8
Defpoints
 62
     0
100
AcDbPoint
 10
665.6910312344702
 20
181.459380359453
 30
0.0
  0
POINT
  5
55BB
330
55AF
100
AcDbEntity
  8
Defpoints
 62
     0
100
AcDbPoint
 10
665.6910312344702
 20
181.459380359453
 30
0.0
  0
POINT
  5
55BC
330
55AF
100
AcDbEntity
  8
Defpoints
 62
     0
100
AcDbPoint
 10
665.3437348792703
 20
179.4897648534529
 30
0.0
  0
POINT
  5
55BD
330
55AF
100
AcDbEntity
  8
Defpoints
 62
     0
100
AcDbPoint
 10
666.0383275898702
 20
179.4897648534529
 30
0.0
  0
ENDBLK
  5
55B1
330
55AF
100
AcDbEntity
  8
0
100
AcDbBlockEnd
  0
BLOCK
  5
55BF
330
55BE
100
AcDbEntity
  8
0
100
AcDbBlockBegin
  2
*D32
 70
     1
 10
0.0
 20
0.0
 30
0.0
  3
*D32
  1
*D53
  0
LINE
  5
55C1
330
55BE
100
AcDbEntity
  8
Layer3
  6
Continuous
 62
   136
370
    -2
100
AcDbLine
 10
555.0284533400703
 20
359.243947923653
 30
0.0
 11
555.0284533400703
 21
251.8955715302529
 31
0.0
  0
LINE
  5
55C2
330
55BE
100
AcDbEntity
  8
Layer3
  6
Continuous
 62
   136
370
    -2
100
AcDbLine
 10
776.3529731998702
 20
377.6892708216529
 30
0.0
 11
776.3529731998702
 21
251.8955715302529
 31
0.0
  0
LINE
  5
55C3
330
55BE
100
AcDbEntity
  8
Layer3
  6
Continuous
 62
   136
370
    -2
100
AcDbLine
 10
561.0284533400703
 20
254.8955715302529
 30
0.0
 11
655.9497125014703
 21
254.8955715302529
 31
0.0
  0
LINE
  5
55C4
330
55BE
100
AcDbEntity
  8
Layer3
  6
Continuous
 62
   136
370
    -2
100
AcDbLine
 10
770.3529731998702
 20
254.8955715302529
 30
0.0
 11
675.4317125014703
 21
254.8955715302529
 31
0.0
  0
INSERT
  5
55C5
330
55BE
100
AcDbEntity
  8
Layer3
 62
   136
370
    -2
100
AcDbBlockReference
  2
_SE_FILLED
 10
555.0284533400703
 20
254.8955715302529
 30
0.0
 41
6.0
 42
6.0
 43
6.0
 50
180.0
  0
INSERT
  5
55C6
330
55BE
100
AcDbEntity
  8
Layer3
 62
   136
370
    -2
100
AcDbBlockReference
  2
_SE_FILLED
 10
776.3529731998702
 20
254.8955715302529
 30
0.0
 41
6.0
 42
6.0
 43
6.0
  0
MTEXT
  5
55C7
330
55BE
100
AcDbEntity
  8
Layer3
 62
   136
 48
0.05
370
    20
100
AcDbMText
 10
665.6907125014703
 20
254.8955715302529
 30
0.0
 40
6.0
 41
0.0
 46
0.0
 71
     5
 72
     1
  1
\A1;\A1;443
  7
SEACAD_arial_ttf
 73
     1
 44
1.0
  0
POINT
  5
55C8
330
55BE
100
AcDbEntity
  8
Defpoints
 62
     0
100
AcDbPoint
 10
555.0284533400703
 20
359.243947923653
 30
0.0
  0
POINT
  5
55C9
330
55BE
100
AcDbEntity
  8
Defpoints
 62
     0
100
AcDbPoint
 10
776.3529731998702
 20
377.6892708216529
 30
0.0
  0
POINT
  5
55CA
330
55BE
100
AcDbEntity
  8
Defpoints
 62
     0
100
AcDbPoint
 10
776.3529731998702
 20
254.8955715302529
 30
0.0
  0
ENDBLK
  5
55C0
330
55BE
100
AcDbEntity
  8
0
100
AcDbBlockEnd
  0
BLOCK
  5
55CC
330
55CB
100
AcDbEntity
  8
0
100
AcDbBlockBegin
  2
*D33
 70
     1
 10
0.0
 20
0.0
 30
0.0
  3
*D33
  1
*D54
  0
LINE
  5
55CE
330
55CB
100
AcDbEntity
  8
Layer3
  6
Continuous
 62
   136
370
    -2
100
AcDbLine
 10
716.5634634510701
 20
287.7973510154529
 30
0.0
 11
811.9966627374703
 21
287.7973510154529
 31
0.0
  0
LINE
  5
55CF
330
55CB
100
AcDbEntity
  8
Layer3
  6
Continuous
 62
   136
370
    -2
100
AcDbLine
 10
711.8448964992702
 20
509.121020380453
 30
0.0
 11
811.9966627374703
 21
509.121020380453
 31
0.0
  0
LINE
  5
55D0
330
55CB
100
AcDbEntity
  8
Layer3
  6
Continuous
 62
   136
370
    -2
100
AcDbLine
 10
808.9966627374703
 20
293.7973510154529
 30
0.0
 11
808.9966627374703
 21
392.396185493653
 31
0.0
  0
LINE
  5
55D1
330
55CB
100
AcDbEntity
  8
Layer3
  6
Continuous
 62
   136
370
    -2
100
AcDbLine
 10
808.9966627374703
 20
503.121020380453
 30
0.0
 11
808.9966627374703
 21
404.522185493653
 31
0.0
  0
INSERT
  5
55D2
330
55CB
100
AcDbEntity
  8
Layer3
 62
   136
370
    -2
100
AcDbBlockReference
  2
_SE_FILLED
 10
808.9966627374703
 20
287.7973510154529
 30
0.0
 41
6.0
 42
6.0
 43
6.0
 50
270.0
  0
INSERT
  5
55D3
330
55CB
100
AcDbEntity
  8
Layer3
 62
   136
370
    -2
100
AcDbBlockReference
  2
_SE_FILLED
 10
808.9966627374703
 20
509.121020380453
 30
0.0
 41
6.0
 42
6.0
 43
6.0
 50
90.0
  0
MTEXT
  5
55D4
330
55CB
100
AcDbEntity
  8
Layer3
 62
   136
 48
0.05
370
    20
100
AcDbMText
 10
808.9966627374703
 20
398.459185493653
 30
0.0
 40
6.0
 41
0.0
 46
0.0
 71
     5
 72
     1
  1
\A1;\A1;443
  7
SEACAD_arial_ttf
 73
     1
 44
1.0
  0
POINT
  5
55D5
330
55CB
100
AcDbEntity
  8
Defpoints
 62
     0
100
AcDbPoint
 10
716.5634634510701
 20
287.7973510154529
 30
0.0
  0
POINT
  5
55D6
330
55CB
100
AcDbEntity
  8
Defpoints
 62
     0
100
AcDbPoint
 10
711.8448964992702
 20
509.121020380453
 30
0.0
  0
POINT
  5
55D7
330
55CB
100
AcDbEntity
  8
Defpoints
 62
     0
100
AcDbPoint
 10
808.9966627374703
 20
509.121020380453
 30
0.0
  0
ENDBLK
  5
55CD
330
55CB
100
AcDbEntity
  8
0
100
AcDbBlockEnd
  0
BLOCK
  5
5882
330
5881
100
AcDbEntity
  8
0
100
AcDbBlockBegin
  2
*D34
 70
     1
 10
0.0
 20
0.0
 30
0.0
  3
*D34
  1
*D55
  0
LINE
  5
5884
330
5881
100
AcDbEntity
  8
DIM
 62
     0
370
    -2
100
AcDbLine
 10
1973.681400595635
 20
514.5086489858871
 30
0.0
 11
1973.681400595635
 21
444.3613852803872
 31
0.0
  0
LINE
  5
5885
330
5881
100
AcDbEntity
  8
DIM
 62
     0
370
    -2
100
AcDbLine
 10
2095.637282530135
 20
543.7904962077624
 30
0.0
 11
2095.637282530135
 21
444.3613852803872
 31
0.0
  0
LINE
  5
5886
330
5881
100
AcDbEntity
  8
DIM
 62
     0
370
    -2
100
AcDbLine
 10
1974.681400595635
 20
444.3613852803872
 30
0.0
 11
2094.637282530135
 21
444.3613852803872
 31
0.0
  0
INSERT
  5
5887
330
5881
100
AcDbEntity
  8
DIM
 62
     0
370
    -2
100
AcDbBlockReference
  2
_DOT
 10
1973.681400595635
 20
444.3613852803872
 30
0.0
 50
180.0
  0
INSERT
  5
5888
330
5881
100
AcDbEntity
  8
DIM
 62
     0
370
    -2
100
AcDbBlockReference
  2
_DOT
 10
2095.637282530135
 20
444.3613852803872
 30
0.0
  0
MTEXT
  5
5889
330
5881
100
AcDbEntity
  8
DIM
 62
     0
 48
0.05
100
AcDbMText
 10
2034.659341043634
 20
451.8613852803872
 30
0.0
 40
5.0
 41
0.0
 46
0.0
 71
     5
 72
     1
  1
\A1;\A1;122
  7
ＭＳ ゴシック
 73
     1
 44
1.0
  0
POINT
  5
588A
330
5881
100
AcDbEntity
  8
Defpoints
 62
     0
100
AcDbPoint
 10
1973.681400595635
 20
519.5086489858871
 30
0.0
  0
POINT
  5
588B
330
5881
100
AcDbEntity
  8
Defpoints
 62
     0
100
AcDbPoint
 10
2095.637282530135
 20
548.7904962077624
 30
0.0
  0
POINT
  5
588C
330
5881
100
AcDbEntity
  8
Defpoints
 62
     0
100
AcDbPoint
 10
2095.637282530135
 20
444.3613852803872
 30
0.0
  0
ENDBLK
  5
5883
330
5881
100
AcDbEntity
  8
0
100
AcDbBlockEnd
  0
BLOCK
  5
588E
330
588D
100
AcDbEntity
  8
0
100
AcDbBlockBegin
  2
*D35
 70
     1
 10
0.0
 20
0.0
 30
0.0
  3
*D35
  1
*D56
  0
LINE
  5
5890
330
588D
100
AcDbEntity
  8
DIM
 62
     0
370
    -2
100
AcDbLine
 10
1530.022963688169
 20
506.4500136007377
 30
0.0
 11
1380.180445249057
 21
506.4513504762261
 31
0.0
  0
LINE
  5
5891
330
588D
100
AcDbEntity
  8
DIM
 62
     0
370
    -2
100
AcDbLine
 10
1530.02452494667
 20
681.442305418238
 30
0.0
 11
1380.182006507557
 21
681.4436422937265
 31
0.0
  0
LINE
  5
5892
330
588D
100
AcDbEntity
  8
DIM
 62
     0
370
    -2
100
AcDbLine
 10
1380.180454170927
 20
507.4513504761863
 30
0.0
 11
1380.181997585687
 21
680.4436422937663
 31
0.0
  0
INSERT
  5
5893
330
588D
100
AcDbEntity
  8
DIM
 62
     0
370
    -2
100
AcDbBlockReference
  2
_DOT
 10
1380.180445249057
 20
506.4513504762261
 30
0.0
 50
269.9994888144964
  0
INSERT
  5
5894
330
588D
100
AcDbEntity
  8
DIM
 62
     0
370
    -2
100
AcDbBlockReference
  2
_DOT
 10
1380.182006507557
 20
681.4436422937265
 30
0.0
 50
89.99948881449656
  0
MTEXT
  5
5895
330
588D
100
AcDbEntity
  8
DIM
 62
     0
 48
0.05
100
AcDbMText
 10
1372.68122586627
 20
593.9461806024133
 30
0.0
 40
5.0
 41
0.0
 46
0.0
 71
     5
 72
     1
  1
\A1;\A1;175
  7
ＭＳ ゴシック
 11
8.921870123434416E-6
 21
0.9999999999602003
 31
0.0
 73
     1
 44
1.0
  0
POINT
  5
5896
330
588D
100
AcDbEntity
  8
Defpoints
 62
     0
100
AcDbPoint
 10
1535.02296368797
 20
506.4499689913871
 30
0.0
  0
POINT
  5
5897
330
588D
100
AcDbEntity
  8
Defpoints
 62
     0
100
AcDbPoint
 10
1535.024524946471
 20
681.4422608088873
 30
0.0
  0
POINT
  5
5898
330
588D
100
AcDbEntity
  8
Defpoints
 62
     0
100
AcDbPoint
 10
1380.182006507557
 20
681.4436422937265
 30
0.0
  0
ENDBLK
  5
588F
330
588D
100
AcDbEntity
  8
0
100
AcDbBlockEnd
  0
BLOCK
  5
589A
330
5899
100
AcDbEntity
  8
0
100
AcDbBlockBegin
  2
*D36
 70
     1
 10
0.0
 20
0.0
 30
0.0
  3
*D36
  1
*D57
  0
LINE
  5
589C
330
5899
100
AcDbEntity
  8
DIM
 62
     0
370
    -2
100
AcDbLine
 10
1447.527552528394
 20
588.9468955300975
 30
0.0
 11
1447.526233209364
 21
445.1678175186967
 31
0.0
  0
LINE
  5
589D
330
5899
100
AcDbEntity
  8
DIM
 62
     0
370
    -2
100
AcDbLine
 10
1622.381607920894
 20
588.9452910665977
 30
0.0
 11
1622.380288601864
 21
445.1662130551969
 31
0.0
  0
LINE
  5
589E
330
5899
100
AcDbEntity
  8
DIM
 62
     0
370
    -2
100
AcDbLine
 10
1448.526233209322
 20
445.1678083426813
 30
0.0
 11
1621.380288601906
 21
445.1662222312123
 31
0.0
  0
INSERT
  5
589F
330
5899
100
AcDbEntity
  8
DIM
 62
     0
370
    -2
100
AcDbBlockReference
  2
_DOT
 10
1447.526233209364
 20
445.1678175186967
 30
0.0
 50
179.9994742530466
  0
INSERT
  5
58A0
330
5899
100
AcDbEntity
  8
DIM
 62
     0
370
    -2
100
AcDbBlockReference
  2
_DOT
 10
1622.380288601864
 20
445.1662130551969
 30
0.0
 50
359.9994742530466
  0
MTEXT
  5
58A1
330
5899
100
AcDbEntity
  8
DIM
 62
     0
 48
0.05
100
AcDbMText
 10
1534.954698477586
 20
452.6670152740713
 30
0.0
 40
5.0
 41
0.0
 46
0.0
 71
     5
 72
     1
  1
\A1;\A1;175
  7
ＭＳ ゴシック
 11
0.9999999999579003
 21
-9.176015369694165E-6
 31
0.0
 73
     1
 44
1.0
  0
POINT
  5
58A2
330
5899
100
AcDbEntity
  8
Defpoints
 62
     0
100
AcDbPoint
 10
1447.527598408471
 20
593.946895529887
 30
0.0
  0
POINT
  5
58A3
330
5899
100
AcDbEntity
  8
Defpoints
 62
     0
100
AcDbPoint
 10
1622.381653800971
 20
593.9452910663872
 30
0.0
  0
POINT
  5
58A4
330
5899
100
AcDbEntity
  8
Defpoints
 62
     0
100
AcDbPoint
 10
1622.380288601864
 20
445.1662130551969
 30
0.0
  0
ENDBLK
  5
589B
330
5899
100
AcDbEntity
  8
0
100
AcDbBlockEnd
  0
BLOCK
  5
58A6
330
58A5
100
AcDbEntity
  8
0
100
AcDbBlockBegin
  2
*D37
 70
     1
 10
0.0
 20
0.0
 30
0.0
  3
*D37
  1
*D58
  0
LINE
  5
58A8
330
58A5
100
AcDbEntity
  8
DIM
 62
     0
370
    -2
100
AcDbLine
 10
1973.681400595635
 20
717.801911854887
 30
0.0
 11
1973.681400595635
 21
762.9851903633872
 31
0.0
  0
LINE
  5
58A9
330
58A5
100
AcDbEntity
  8
DIM
 62
     0
370
    -2
100
AcDbLine
 10
2145.889935397135
 20
598.9458264453871
 30
0.0
 11
2145.889935397135
 21
762.9851903633872
 31
0.0
  0
LINE
  5
58AA
330
58A5
100
AcDbEntity
  8
DIM
 62
     0
370
    -2
100
AcDbLine
 10
1974.681400595635
 20
762.9851903633872
 30
0.0
 11
2144.889935397135
 21
762.9851903633872
 31
0.0
  0
INSERT
  5
58AB
330
58A5
100
AcDbEntity
  8
DIM
 62
     0
370
    -2
100
AcDbBlockReference
  2
_DOT
 10
1973.681400595635
 20
762.9851903633872
 30
0.0
 50
180.0
  0
INSERT
  5
58AC
330
58A5
100
AcDbEntity
  8
DIM
 62
     0
370
    -2
100
AcDbBlockReference
  2
_DOT
 10
2145.889935397135
 20
762.9851903633872
 30
0.0
  0
MTEXT
  5
58AD
330
58A5
100
AcDbEntity
  8
DIM
 62
     0
 48
0.05
100
AcDbMText
 10
2059.785665078633
 20
770.4851903633872
 30
0.0
 40
5.0
 41
0.0
 46
0.0
 71
     5
 72
     1
  1
\A1;\A1;172
  7
ＭＳ ゴシック
 73
     1
 44
1.0
  0
POINT
  5
58AE
330
58A5
100
AcDbEntity
  8
Defpoints
 62
     0
100
AcDbPoint
 10
1973.681400595635
 20
712.801911854887
 30
0.0
  0
POINT
  5
58AF
330
58A5
100
AcDbEntity
  8
Defpoints
 62
     0
100
AcDbPoint
 10
2145.889935397135
 20
593.9458264453871
 30
0.0
  0
POINT
  5
58B0
330
58A5
100
AcDbEntity
  8
Defpoints
 62
     0
100
AcDbPoint
 10
2145.889935397135
 20
762.9851903633872
 30
0.0
  0
ENDBLK
  5
58A7
330
58A5
100
AcDbEntity
  8
0
100
AcDbBlockEnd
  0
BLOCK
  5
58B2
330
58B1
100
AcDbEntity
  8
0
100
AcDbBlockBegin
  2
*D38
 70
     1
 10
0.0
 20
0.0
 30
0.0
  3
*D38
  1
*D59
  0
LINE
  5
58B4
330
58B1
100
AcDbEntity
  8
DIM
 62
     0
370
    -2
100
AcDbLine
 10
1567.530145880145
 20
1194.048528254504
 30
0.0
 11
1567.530145880145
 21
1233.069999658005
 31
0.0
  0
LINE
  5
58B5
330
58B1
100
AcDbEntity
  8
DIM
 62
     0
370
    -2
100
AcDbLine
 10
1502.530145880145
 20
1194.048528254504
 30
0.0
 11
1502.530145880145
 21
1233.069999658005
 31
0.0
  0
LINE
  5
58B6
330
58B1
100
AcDbEntity
  8
DIM
 62
     0
370
    -2
100
AcDbLine
 10
1566.530145880145
 20
1233.069999658005
 30
0.0
 11
1503.530145880145
 21
1233.069999658005
 31
0.0
  0
INSERT
  5
58B7
330
58B1
100
AcDbEntity
  8
DIM
 62
     0
370
    -2
100
AcDbBlockReference
  2
_DOT
 10
1567.530145880145
 20
1233.069999658005
 30
0.0
  0
INSERT
  5
58B8
330
58B1
100
AcDbEntity
  8
DIM
 62
     0
370
    -2
100
AcDbBlockReference
  2
_DOT
 10
1502.530145880145
 20
1233.069999658005
 30
0.0
 50
180.0
  0
MTEXT
  5
58B9
330
58B1
100
AcDbEntity
  8
DIM
 62
     0
 48
0.05
100
AcDbMText
 10
1535.030145209645
 20
1240.569999658005
 30
0.0
 40
5.0
 41
0.0
 46
0.0
 71
     5
 72
     1
  1
\A1;\A1;65
  7
ＭＳ ゴシック
 73
     1
 44
1.0
  0
POINT
  5
58BA
330
58B1
100
AcDbEntity
  8
Defpoints
 62
     0
100
AcDbPoint
 10
1567.530145880145
 20
1189.048528254504
 30
0.0
  0
POINT
  5
58BB
330
58B1
100
AcDbEntity
  8
Defpoints
 62
     0
100
AcDbPoint
 10
1502.530145880145
 20
1189.048528254504
 30
0.0
  0
POINT
  5
58BC
330
58B1
100
AcDbEntity
  8
Defpoints
 62
     0
100
AcDbPoint
 10
1502.530145880145
 20
1233.069999658005
 30
0.0
  0
ENDBLK
  5
58B3
330
58B1
100
AcDbEntity
  8
0
100
AcDbBlockEnd
  0
BLOCK
  5
5B2B
330
5B2A
100
AcDbEntity
  8
0
100
AcDbBlockBegin
  2
*D39
 70
     1
 10
0.0
 20
0.0
 30
0.0
  3
*D39
  1
*D61
  0
LINE
  5
5B2C
330
5B2A
100
AcDbEntity
  8
Layer3
  6
Continuous
 62
   136
370
    -2
100
AcDbLine
 10
110.724672852967
 20
20.5417869504
 30
0.0
 11
257.0303023447672
 21
20.5417869504
 31
0.0
  0
LINE
  5
5B2D
330
5B2A
100
AcDbEntity
  8
Layer3
  6
Continuous
 62
   136
370
    -2
100
AcDbLine
 10
110.724672852967
 20
94.42938613980002
 30
0.0
 11
257.0303023447672
 21
94.42938613980002
 31
0.0
  0
LINE
  5
5B2E
330
5B2A
100
AcDbEntity
  8
Layer3
  6
Continuous
 62
   136
370
    -2
100
AcDbLine
 10
254.0303023447672
 20
26.5417869504
 30
0.0
 11
254.0303023447672
 21
51.42258769780001
 31
0.0
  0
LINE
  5
5B2F
330
5B2A
100
AcDbEntity
  8
Layer3
  6
Continuous
 62
   136
370
    -2
100
AcDbLine
 10
254.0303023447672
 20
88.42938613980002
 30
0.0
 11
254.0303023447672
 21
63.54858769780002
 31
0.0
  0
INSERT
  5
5B30
330
5B2A
100
AcDbEntity
  8
Layer3
 62
   136
370
    -2
100
AcDbBlockReference
  2
_SE_FILLED
 10
254.0303023447672
 20
20.5417869504
 30
0.0
 41
6.0
 42
6.0
 43
6.0
 50
270.0
  0
INSERT
  5
5B31
330
5B2A
100
AcDbEntity
  8
Layer3
 62
   136
370
    -2
100
AcDbBlockReference
  2
_SE_FILLED
 10
254.0303023447672
 20
94.42938613980002
 30
0.0
 41
6.0
 42
6.0
 43
6.0
 50
90.0
  0
MTEXT
  5
5B32
330
5B2A
100
AcDbEntity
  8
Layer3
 62
   136
 48
0.05
370
    20
100
AcDbMText
 10
254.0303023447672
 20
57.48558769780001
 30
0.0
 40
6.0
 41
0.0
 46
0.0
 71
     5
 72
     1
  1
\A1;\A1;148
  7
SEACAD_arial_ttf
 73
     1
 44
1.0
  0
POINT
  5
5B33
330
5B2A
100
AcDbEntity
  8
Defpoints
 62
     0
100
AcDbPoint
 10
110.724672852967
 20
20.5417869504
 30
0.0
  0
POINT
  5
5B34
330
5B2A
100
AcDbEntity
  8
Defpoints
 62
     0
100
AcDbPoint
 10
110.724672852967
 20
94.42938613980002
 30
0.0
  0
POINT
  5
5B35
330
5B2A
100
AcDbEntity
  8
Defpoints
 62
     0
100
AcDbPoint
 10
254.0303023447672
 20
94.42938613980002
 30
0.0
  0
ENDBLK
  5
5B36
330
5B2A
100
AcDbEntity
  8
0
100
AcDbBlockEnd
  0
BLOCK
  5
5B39
330
5B38
100
AcDbEntity
  8
0
100
AcDbBlockBegin
  2
*D40
 70
     1
 10
0.0
 20
0.0
 30
0.0
  3
*D40
  1
*D62
  0
LINE
  5
5B3A
330
5B38
100
AcDbEntity
  8
Layer3
  6
Continuous
 62
   136
370
    -2
100
AcDbLine
 10
100.2471728529671
 20
96.5659341738
 30
0.0
 11
100.2471728529671
 21
113.3907872886
 31
0.0
  0
LINE
  5
5B3B
330
5B38
100
AcDbEntity
  8
Layer3
  6
Continuous
 62
   136
370
    -2
100
AcDbLine
 10
121.202172852967
 20
96.5659341738
 30
0.0
 11
121.202172852967
 21
113.3907872886
 31
0.0
  0
LINE
  5
5B3C
330
5B38
100
AcDbEntity
  8
Layer3
  6
Continuous
 62
   136
370
    -2
100
AcDbLine
 10
121.202172852967
 20
110.3907872886
 30
0.0
 11
156.836172852967
 21
110.3907872886
 31
0.0
  0
LINE
  5
5B3D
330
5B38
100
AcDbEntity
  8
Layer3
  6
Continuous
 62
   136
370
    -2
100
AcDbLine
 10
106.2471728529671
 20
110.3907872886
 30
0.0
 11
115.202172852967
 21
110.3907872886
 31
0.0
  0
INSERT
  5
5B3E
330
5B38
100
AcDbEntity
  8
Layer3
 62
   136
370
    -2
100
AcDbBlockReference
  2
_SE_FILLED
 10
100.2471728529671
 20
110.3907872886
 30
0.0
 41
6.0
 42
6.0
 43
6.0
 50
180.0
  0
INSERT
  5
5B3F
330
5B38
100
AcDbEntity
  8
Layer3
 62
   136
370
    -2
100
AcDbBlockReference
  2
_SE_FILLED
 10
121.202172852967
 20
110.3907872886
 30
0.0
 41
6.0
 42
6.0
 43
6.0
  0
MTEXT
  5
5B40
330
5B38
100
AcDbEntity
  8
Layer3
 62
   136
 48
0.05
370
    20
100
AcDbMText
 10
168.470172852967
 20
110.3907872886
 30
0.0
 40
6.0
 41
0.0
 46
0.0
 71
     5
 72
     1
  1
\A1;\A1;G1/2 {}
  7
SEACAD_arial_ttf
 73
     1
 44
1.0
  0
POINT
  5
5B41
330
5B38
100
AcDbEntity
  8
Defpoints
 62
     0
100
AcDbPoint
 10
100.2471728529671
 20
96.5659341738
 30
0.0
  0
POINT
  5
5B42
330
5B38
100
AcDbEntity
  8
Defpoints
 62
     0
100
AcDbPoint
 10
121.202172852967
 20
96.5659341738
 30
0.0
  0
POINT
  5
5B43
330
5B38
100
AcDbEntity
  8
Defpoints
 62
     0
100
AcDbPoint
 10
121.202172852967
 20
110.3907872886
 30
0.0
  0
ENDBLK
  5
5B44
330
5B38
100
AcDbEntity
  8
0
100
AcDbBlockEnd
  0
BLOCK
  5
5B47
330
5B46
100
AcDbEntity
  8
0
100
AcDbBlockBegin
  2
*D41
 70
     1
 10
0.0
 20
0.0
 30
0.0
  3
*D41
  1
*D63
  0
LINE
  5
5B48
330
5B46
100
AcDbEntity
  8
Layer3
  6
Continuous
 62
   136
370
    -2
100
AcDbLine
 10
110.3773764977672
 20
75.45977063379999
 30
0.0
 11
97.28805711384835
 21
1.226551552894659
 31
0.0
  0
LINE
  5
5B49
330
5B46
100
AcDbEntity
  8
Layer3
  6
Continuous
 62
   136
370
    -2
100
AcDbLine
 10
111.071969208367
 20
75.45977063379999
 30
0.0
 11
124.1612885995936
 21
1.226551554218496
 31
0.0
  0
ARC
  5
5B4A
330
5B46
100
AcDbEntity
  8
Layer3
  6
Continuous
 62
   136
370
    -2
100
AcDbCircle
 10
110.724672852967
 20
77.42938613980002
 30
0.0
 40
74.3783861398
100
AcDbArc
 50
250.7535515341416
 51
255.3767757689
  0
ARC
  5
5B4B
330
5B46
100
AcDbEntity
  8
Layer3
  6
Continuous
 62
   136
370
    -2
100
AcDbCircle
 10
110.724672852967
 20
77.42938613980002
 30
0.0
 40
74.3783861398
100
AcDbArc
 50
284.623224236745
 51
289.2464484715035
  0
INSERT
  5
5B4C
330
5B46
100
AcDbEntity
  8
Layer3
 62
   136
370
    -2
100
AcDbBlockReference
  2
_SE_FILLED
 10
97.8090016466605
 20
4.180974811964546
 30
0.0
 41
6.0
 42
6.0
 43
6.0
 50
347.6883878862792
  0
INSERT
  5
5B4D
330
5B46
100
AcDbEntity
  8
Layer3
 62
   136
370
    -2
100
AcDbBlockReference
  2
_SE_FILLED
 10
123.6403440664903
 20
4.180974813237057
 30
0.0
 41
6.0
 42
6.0
 43
6.0
 50
192.3116121193658
  0
MTEXT
  5
5B4E
330
5B46
100
AcDbEntity
  8
Layer3
 62
   136
 48
0.05
370
    20
100
AcDbMText
 10
110.724672852967
 20
3.051000000000016
 30
0.0
 40
6.0
 41
0.0
 46
0.0
 71
     5
 72
     1
  1
\A1;\A1;20%%d
  7
SEACAD_arial_ttf
 73
     1
 44
1.0
  0
POINT
  5
5B4F
330
5B46
100
AcDbEntity
  8
Defpoints
 62
     0
100
AcDbPoint
 10
115.0493913929998
 20
3.176836457579071
 30
0.0
  0
POINT
  5
5B50
330
5B46
100
AcDbEntity
  8
Defpoints
 62
     0
100
AcDbPoint
 10
110.724672852967
 20
77.42938613980002
 30
0.0
  0
POINT
  5
5B51
330
5B46
100
AcDbEntity
  8
Defpoints
 62
     0
100
AcDbPoint
 10
110.724672852967
 20
77.42938613980002
 30
0.0
  0
POINT
  5
5B52
330
5B46
100
AcDbEntity
  8
Defpoints
 62
     0
100
AcDbPoint
 10
110.3773764977672
 20
75.45977063379999
 30
0.0
  0
POINT
  5
5B53
330
5B46
100
AcDbEntity
  8
Defpoints
 62
     0
100
AcDbPoint
 10
111.071969208367
 20
75.45977063379999
 30
0.0
  0
ENDBLK
  5
5B54
330
5B46
100
AcDbEntity
  8
0
100
AcDbBlockEnd
  0
BLOCK
  5
5B57
330
5B56
100
AcDbEntity
  8
0
100
AcDbBlockBegin
  2
*D42
 70
     1
 10
0.0
 20
0.0
 30
0.0
  3
*D42
  1
*D64
  0
LINE
  5
5B58
330
5B56
100
AcDbEntity
  8
Layer3
  6
Continuous
 62
   136
370
    -2
100
AcDbLine
 10
0.0620949585671724
 20
255.213953704
 30
0.0
 11
0.0620949585671724
 21
147.8655773106
 31
0.0
  0
LINE
  5
5B59
330
5B56
100
AcDbEntity
  8
Layer3
  6
Continuous
 62
   136
370
    -2
100
AcDbLine
 10
221.3866148183671
 20
273.659276602
 30
0.0
 11
221.3866148183671
 21
147.8655773106
 31
0.0
  0
LINE
  5
5B5A
330
5B56
100
AcDbEntity
  8
Layer3
  6
Continuous
 62
   136
370
    -2
100
AcDbLine
 10
6.062094958567172
 20
150.8655773106
 30
0.0
 11
100.9833541199672
 21
150.8655773106
 31
0.0
  0
LINE
  5
5B5B
330
5B56
100
AcDbEntity
  8
Layer3
  6
Continuous
 62
   136
370
    -2
100
AcDbLine
 10
215.3866148183671
 20
150.8655773106
 30
0.0
 11
120.4653541199672
 21
150.8655773106
 31
0.0
  0
INSERT
  5
5B5C
330
5B56
100
AcDbEntity
  8
Layer3
 62
   136
370
    -2
100
AcDbBlockReference
  2
_SE_FILLED
 10
0.0620949585671724
 20
150.8655773106
 30
0.0
 41
6.0
 42
6.0
 43
6.0
 50
180.0
  0
INSERT
  5
5B5D
330
5B56
100
AcDbEntity
  8
Layer3
 62
   136
370
    -2
100
AcDbBlockReference
  2
_SE_FILLED
 10
221.3866148183671
 20
150.8655773106
 30
0.0
 41
6.0
 42
6.0
 43
6.0
  0
MTEXT
  5
5B5E
330
5B56
100
AcDbEntity
  8
Layer3
 62
   136
 48
0.05
370
    20
100
AcDbMText
 10
110.7243541199672
 20
150.8655773106
 30
0.0
 40
6.0
 41
0.0
 46
0.0
 71
     5
 72
     1
  1
\A1;\A1;443
  7
SEACAD_arial_ttf
 73
     1
 44
1.0
  0
POINT
  5
5B5F
330
5B56
100
AcDbEntity
  8
Defpoints
 62
     0
100
AcDbPoint
 10
0.0620949585671724
 20
255.213953704
 30
0.0
  0
POINT
  5
5B60
330
5B56
100
AcDbEntity
  8
Defpoints
 62
     0
100
AcDbPoint
 10
221.3866148183671
 20
273.659276602
 30
0.0
  0
POINT
  5
5B61
330
5B56
100
AcDbEntity
  8
Defpoints
 62
     0
100
AcDbPoint
 10
221.3866148183671
 20
150.8655773106
 30
0.0
  0
ENDBLK
  5
5B62
330
5B56
100
AcDbEntity
  8
0
100
AcDbBlockEnd
  0
BLOCK
  5
5B65
330
5B64
100
AcDbEntity
  8
0
100
AcDbBlockBegin
  2
*D43
 70
     1
 10
0.0
 20
0.0
 30
0.0
  3
*D43
  1
*D65
  0
LINE
  5
5B66
330
5B64
100
AcDbEntity
  8
Layer3
  6
Continuous
 62
   136
370
    -2
100
AcDbLine
 10
161.597105069567
 20
183.7673567958
 30
0.0
 11
257.0303043559671
 21
183.7673567958
 31
0.0
  0
LINE
  5
5B67
330
5B64
100
AcDbEntity
  8
Layer3
  6
Continuous
 62
   136
370
    -2
100
AcDbLine
 10
156.8785381177671
 20
405.0910261608001
 30
0.0
 11
257.0303043559671
 21
405.0910261608001
 31
0.0
  0
LINE
  5
5B68
330
5B64
100
AcDbEntity
  8
Layer3
  6
Continuous
 62
   136
370
    -2
100
AcDbLine
 10
254.0303043559671
 20
189.7673567958
 30
0.0
 11
254.0303043559671
 21
288.366191274
 31
0.0
  0
LINE
  5
5B69
330
5B64
100
AcDbEntity
  8
Layer3
  6
Continuous
 62
   136
370
    -2
100
AcDbLine
 10
254.0303043559671
 20
399.0910261608001
 30
0.0
 11
254.0303043559671
 21
300.492191274
 31
0.0
  0
INSERT
  5
5B6A
330
5B64
100
AcDbEntity
  8
Layer3
 62
   136
370
    -2
100
AcDbBlockReference
  2
_SE_FILLED
 10
254.0303043559671
 20
183.7673567958
 30
0.0
 41
6.0
 42
6.0
 43
6.0
 50
270.0
  0
INSERT
  5
5B6B
330
5B64
100
AcDbEntity
  8
Layer3
 62
   136
370
    -2
100
AcDbBlockReference
  2
_SE_FILLED
 10
254.0303043559671
 20
405.0910261608001
 30
0.0
 41
6.0
 42
6.0
 43
6.0
 50
90.0
  0
MTEXT
  5
5B6C
330
5B64
100
AcDbEntity
  8
Layer3
 62
   136
 48
0.05
370
    20
100
AcDbMText
 10
254.0303043559671
 20
294.429191274
 30
0.0
 40
6.0
 41
0.0
 46
0.0
 71
     5
 72
     1
  1
\A1;\A1;443
  7
SEACAD_arial_ttf
 73
     1
 44
1.0
  0
POINT
  5
5B6D
330
5B64
100
AcDbEntity
  8
Defpoints
 62
     0
100
AcDbPoint
 10
161.597105069567
 20
183.7673567958
 30
0.0
  0
POINT
  5
5B6E
330
5B64
100
AcDbEntity
  8
Defpoints
 62
     0
100
AcDbPoint
 10
156.8785381177671
 20
405.0910261608001
 30
0.0
  0
POINT
  5
5B6F
330
5B64
100
AcDbEntity
  8
Defpoints
 62
     0
100
AcDbPoint
 10
254.0303043559671
 20
405.0910261608001
 30
0.0
  0
ENDBLK
  5
5B70
330
5B64
100
AcDbEntity
  8
0
100
AcDbBlockEnd
  0
BLOCK
  5
5DA9
330
5DA8
100
AcDbEntity
  8
0
100
AcDbBlockBegin
  2
*D44
 70
     1
 10
0.0
 20
0.0
 30
0.0
  3
*D44
  1
*D66
  0
LINE
  5
5DAB
330
5DA8
100
AcDbEntity
  8
DIM
 62
     0
370
    -2
100
AcDbLine
 10
-273.6795117433696
 20
137.1293994640645
 30
0.0
 11
-135.3738822515696
 21
137.1293994640645
 31
0.0
  0
LINE
  5
5DAC
330
5DA8
100
AcDbEntity
  8
DIM
 62
     0
370
    -2
100
AcDbLine
 10
-273.6795117433696
 20
211.0169986534645
 30
0.0
 11
-135.3738822515696
 21
211.0169986534645
 31
0.0
  0
LINE
  5
5DAD
330
5DA8
100
AcDbEntity
  8
DIM
 62
     0
370
    -2
100
AcDbLine
 10
-135.3738822515696
 20
138.1293994640645
 30
0.0
 11
-135.3738822515696
 21
210.0169986534645
 31
0.0
  0
INSERT
  5
5DAE
330
5DA8
100
AcDbEntity
  8
DIM
 62
     0
370
    -2
100
AcDbBlockReference
  2
_DOT
 10
-135.3738822515696
 20
137.1293994640645
 30
0.0
 50
270.0
  0
INSERT
  5
5DAF
330
5DA8
100
AcDbEntity
  8
DIM
 62
     0
370
    -2
100
AcDbBlockReference
  2
_DOT
 10
-135.3738822515696
 20
211.0169986534645
 30
0.0
 50
90.0
  0
MTEXT
  5
5DB0
330
5DA8
100
AcDbEntity
  8
DIM
 62
     0
 48
0.05
100
AcDbMText
 10
-142.8738822515696
 20
174.0732002114645
 30
0.0
 40
5.0
 41
0.0
 46
0.0
 71
     5
 72
     1
  1
\A1;\A1;74
  7
ＭＳ ゴシック
 11
0.0
 21
1.0
 31
0.0
 73
     1
 44
1.0
  0
POINT
  5
5DB1
330
5DA8
100
AcDbEntity
  8
Defpoints
 62
     0
100
AcDbPoint
 10
-278.6795117433696
 20
137.1293994640645
 30
0.0
  0
POINT
  5
5DB2
330
5DA8
100
AcDbEntity
  8
Defpoints
 62
     0
100
AcDbPoint
 10
-278.6795117433696
 20
211.0169986534645
 30
0.0
  0
POINT
  5
5DB3
330
5DA8
100
AcDbEntity
  8
Defpoints
 62
     0
100
AcDbPoint
 10
-135.3738822515696
 20
211.0169986534645
 30
0.0
  0
ENDBLK
  5
5DAA
330
5DA8
100
AcDbEntity
  8
0
100
AcDbBlockEnd
  0
BLOCK
  5
5DB6
330
5DB5
100
AcDbEntity
  8
0
100
AcDbBlockBegin
  2
*D45
 70
     1
 10
0.0
 20
0.0
 30
0.0
  3
*D45
  1
*D67
  0
LINE
  5
5DB8
330
5DB5
100
AcDbEntity
  8
DIM
 62
     0
370
    -2
100
AcDbLine
 10
613.882333648713
 20
126.2208877279269
 30
0.0
 11
613.882333648713
 21
135.045740842727
 31
0.0
  0
LINE
  5
5DB9
330
5DB5
100
AcDbEntity
  8
DIM
 62
     0
370
    -2
100
AcDbLine
 10
634.837333648713
 20
126.2208877279269
 30
0.0
 11
634.837333648713
 21
135.045740842727
 31
0.0
  0
LINE
  5
5DBA
330
5DB5
100
AcDbEntity
  8
DIM
 62
     0
370
    -2
100
AcDbLine
 10
634.837333648713
 20
135.045740842727
 30
0.0
 11
693.297833648713
 21
135.045740842727
 31
0.0
  0
LINE
  5
5DBB
330
5DB5
100
AcDbEntity
  8
DIM
 62
     0
370
    -2
100
AcDbLine
 10
612.882333648713
 20
135.045740842727
 30
0.0
 11
611.882333648713
 21
135.045740842727
 31
0.0
  0
LINE
  5
5DBC
330
5DB5
100
AcDbEntity
  8
DIM
 62
     0
370
    -2
100
AcDbLine
 10
635.837333648713
 20
135.045740842727
 30
0.0
 11
636.837333648713
 21
135.045740842727
 31
0.0
  0
INSERT
  5
5DBD
330
5DB5
100
AcDbEntity
  8
DIM
 62
     0
370
    -2
100
AcDbBlockReference
  2
_DOT
 10
613.882333648713
 20
135.045740842727
 30
0.0
  0
INSERT
  5
5DBE
330
5DB5
100
AcDbEntity
  8
DIM
 62
     0
370
    -2
100
AcDbBlockReference
  2
_DOT
 10
634.837333648713
 20
135.045740842727
 30
0.0
 50
180.0
  0
MTEXT
  5
5DBF
330
5DB5
100
AcDbEntity
  8
DIM
 62
     0
 48
0.05
100
AcDbMText
 10
682.105333648713
 20
143.078240842727
 30
0.0
 40
5.0
 41
0.0
 46
0.0
 71
     5
 72
     1
  1
\A1;\A1;G1/2 {}
  7
ＭＳ ゴシック
 73
     1
 44
1.0
  0
POINT
  5
5DC0
330
5DB5
100
AcDbEntity
  8
Defpoints
 62
     0
100
AcDbPoint
 10
613.882333648713
 20
121.2208877279269
 30
0.0
  0
POINT
  5
5DC1
330
5DB5
100
AcDbEntity
  8
Defpoints
 62
     0
100
AcDbPoint
 10
634.837333648713
 20
121.2208877279269
 30
0.0
  0
POINT
  5
5DEB
330
5DB5
100
AcDbEntity
  8
Defpoints
 62
     0
100
AcDbPoint
 10
634.837333648713
 20
135.045740842727
 30
0.0
  0
ENDBLK
  5
5DB7
330
5DB5
100
AcDbEntity
  8
0
100
AcDbBlockEnd
  0
BLOCK
  5
5DC3
330
5DC2
100
AcDbEntity
  8
0
100
AcDbBlockBegin
  2
*D46
 70
     1
 10
0.0
 20
0.0
 30
0.0
  3
*D46
  1
*D68
  0
LINE
  5
5DC5
330
5DC2
100
AcDbEntity
  8
DIM
 62
     0
370
    -2
100
AcDbLine
 10
-279.89504898659
 20
187.1233443823481
 30
0.0
 11
-291.5951829496784
 21
120.7685873256294
 31
0.0
  0
LINE
  5
5DC6
330
5DC2
100
AcDbEntity
  8
DIM
 62
     0
370
    -2
100
AcDbLine
 10
-277.4639744994643
 20
187.1233443824336
 30
0.0
 11
-265.7638405298462
 21
120.7685873269016
 31
0.0
  0
ARC
  5
5DC7
330
5DC2
100
AcDbEntity
  8
DIM
 62
     0
370
    -2
100
AcDbCircle
 10
-278.6795117433696
 20
194.0169986534645
 30
0.0
 40
74.3783861398
100
AcDbArc
 50
260.770334156256
 51
279.2296658493875
  0
INSERT
  5
5DC8
330
5DC2
100
AcDbEntity
  8
DIM
 62
     0
370
    -2
100
AcDbBlockReference
  2
_DOT
 10
-291.5951829496784
 20
120.7685873256294
 30
0.0
 50
170.3851670799563
  0
INSERT
  5
5DC9
330
5DC2
100
AcDbEntity
  8
DIM
 62
     0
370
    -2
100
AcDbBlockReference
  2
_DOT
 10
-265.7638405298462
 20
120.7685873269016
 30
0.0
 50
9.614832925687134
  0
MTEXT
  5
5DCA
330
5DC2
100
AcDbEntity
  8
DIM
 62
     0
 48
0.05
100
AcDbMText
 10
-278.6795117433696
 20
127.2261125136645
 30
0.0
 40
5.0
 41
0.0
 46
0.0
 71
     5
 72
     1
  1
\A1;\A1;20%%d
  7
ＭＳ ゴシック
 73
     1
 44
1.0
  0
POINT
  5
5DCB
330
5DC2
100
AcDbEntity
  8
Defpoints
 62
     0
100
AcDbPoint
 10
-274.3547932033376
 20
119.7644489712435
 30
0.0
  0
POINT
  5
5DCC
330
5DC2
100
AcDbEntity
  8
Defpoints
 62
     0
100
AcDbPoint
 10
-278.6795117433696
 20
194.0169986534645
 30
0.0
  0
POINT
  5
5DCD
330
5DC2
100
AcDbEntity
  8
Defpoints
 62
     0
100
AcDbPoint
 10
-278.6795117433696
 20
194.0169986534645
 30
0.0
  0
POINT
  5
5DCE
330
5DC2
100
AcDbEntity
  8
Defpoints
 62
     0
100
AcDbPoint
 10
-279.0268080985696
 20
192.0473831474645
 30
0.0
  0
POINT
  5
5DCF
330
5DC2
100
AcDbEntity
  8
Defpoints
 62
     0
100
AcDbPoint
 10
-278.3322153879697
 20
192.0473831474645
 30
0.0
  0
ENDBLK
  5
5DC4
330
5DC2
100
AcDbEntity
  8
0
100
AcDbBlockEnd
  0
BLOCK
  5
5DD2
330
5DD1
100
AcDbEntity
  8
0
100
AcDbBlockBegin
  2
*D47
 70
     1
 10
0.0
 20
0.0
 30
0.0
  3
*D47
  1
*D69
  0
LINE
  5
5DD4
330
5DD1
100
AcDbEntity
  8
DIM
 62
     0
370
    -2
100
AcDbLine
 10
-389.3420896377696
 20
379.3534385876067
 30
0.0
 11
-389.3420896377696
 21
260.6022327067105
 31
0.0
  0
LINE
  5
5DD5
330
5DD1
100
AcDbEntity
  8
DIM
 62
     0
370
    -2
100
AcDbLine
 10
-168.0175697779696
 20
397.7987614856066
 30
0.0
 11
-168.0175697779696
 21
260.6022327067105
 31
0.0
  0
LINE
  5
5DD6
330
5DD1
100
AcDbEntity
  8
DIM
 62
     0
370
    -2
100
AcDbLine
 10
-388.3420896377696
 20
260.6022327067105
 30
0.0
 11
-169.0175697779696
 21
260.6022327067105
 31
0.0
  0
INSERT
  5
5DD7
330
5DD1
100
AcDbEntity
  8
DIM
 62
     0
370
    -2
100
AcDbBlockReference
  2
_DOT
 10
-389.3420896377696
 20
260.6022327067105
 30
0.0
 50
180.0
  0
INSERT
  5
5DD8
330
5DD1
100
AcDbEntity
  8
DIM
 62
     0
370
    -2
100
AcDbBlockReference
  2
_DOT
 10
-168.0175697779696
 20
260.6022327067105
 30
0.0
  0
MTEXT
  5
5DD9
330
5DD1
100
AcDbEntity
  8
DIM
 62
     0
 48
0.05
100
AcDbMText
 10
-278.6798304763696
 20
268.1022327067105
 30
0.0
 40
5.0
 41
0.0
 46
0.0
 71
     5
 72
     1
  1
\A1;\A1;221
  7
ＭＳ ゴシック
 73
     1
 44
1.0
  0
POINT
  5
5DDA
330
5DD1
100
AcDbEntity
  8
Defpoints
 62
     0
100
AcDbPoint
 10
-389.3420896377696
 20
384.3534385876067
 30
0.0
  0
POINT
  5
5DDB
330
5DD1
100
AcDbEntity
  8
Defpoints
 62
     0
100
AcDbPoint
 10
-168.0175697779696
 20
402.7987614856066
 30
0.0
  0
POINT
  5
5DDC
330
5DD1
100
AcDbEntity
  8
Defpoints
 62
     0
100
AcDbPoint
 10
-168.0175697779696
 20
260.6022327067105
 30
0.0
  0
ENDBLK
  5
5DD3
330
5DD1
100
AcDbEntity
  8
0
100
AcDbBlockEnd
  0
BLOCK
  5
5DDF
330
5DDE
100
AcDbEntity
  8
0
100
AcDbBlockBegin
  2
*D48
 70
     1
 10
0.0
 20
0.0
 30
0.0
  3
*D48
  1
*D70
  0
LINE
  5
5DE1
330
5DDE
100
AcDbEntity
  8
DIM
 62
     0
370
    -2
100
AcDbLine
 10
-262.1123712909316
 20
300.3549693094645
 30
0.0
 11
-135.3738822515696
 21
300.3549693094645
 31
0.0
  0
LINE
  5
5DE2
330
5DDE
100
AcDbEntity
  8
DIM
 62
     0
370
    -2
100
AcDbLine
 10
-266.8309382427313
 20
521.6786386744645
 30
0.0
 11
-135.3738822515696
 21
521.6786386744645
 31
0.0
  0
LINE
  5
5DE3
330
5DDE
100
AcDbEntity
  8
DIM
 62
     0
370
    -2
100
AcDbLine
 10
-135.3738822515696
 20
301.3549693094645
 30
0.0
 11
-135.3738822515696
 21
520.6786386744645
 31
0.0
  0
INSERT
  5
5DE4
330
5DDE
100
AcDbEntity
  8
DIM
 62
     0
370
    -2
100
AcDbBlockReference
  2
_DOT
 10
-135.3738822515696
 20
300.3549693094645
 30
0.0
 50
270.0
  0
INSERT
  5
5DE5
330
5DDE
100
AcDbEntity
  8
DIM
 62
     0
370
    -2
100
AcDbBlockReference
  2
_DOT
 10
-135.3738822515696
 20
521.6786386744645
 30
0.0
 50
90.0
  0
MTEXT
  5
5DE6
330
5DDE
100
AcDbEntity
  8
DIM
 62
     0
 48
0.05
100
AcDbMText
 10
-142.8738822515696
 20
411.0168037876645
 30
0.0
 40
5.0
 41
0.0
 46
0.0
 71
     5
 72
     1
  1
\A1;\A1;221
  7
ＭＳ ゴシック
 11
0.0
 21
1.0
 31
0.0
 73
     1
 44
1.0
  0
POINT
  5
5DE7
330
5DDE
100
AcDbEntity
  8
Defpoints
 62
     0
100
AcDbPoint
 10
-267.1123712909316
 20
300.3549693094645
 30
0.0
  0
POINT
  5
5DE8
330
5DDE
100
AcDbEntity
  8
Defpoints
 62
     0
100
AcDbPoint
 10
-271.8309382427313
 20
521.6786386744645
 30
0.0
  0
POINT
  5
5DE9
330
5DDE
100
AcDbEntity
  8
Defpoints
 62
     0
100
AcDbPoint
 10
-135.3738822515696
 20
521.6786386744645
 30
0.0
  0
ENDBLK
  5
5DE0
330
5DDE
100
AcDbEntity
  8
0
100
AcDbBlockEnd
  0
BLOCK
  5
5FB4
330
5FB3
100
AcDbEntity
  8
0
100
AcDbBlockBegin
  2
*D50
 70
     1
 10
0.0
 20
0.0
 30
0.0
  3
*D50
  1
*D50
  0
LINE
  5
5FB5
330
5FB3
100
AcDbEntity
  8
0
  6
ByBlock
 62
     0
370
    -2
100
AcDbLine
 10
40.75645891246302
 20
92.0
 30
0.0
 11
0.3000000000000096
 21
92.0
 31
0.0
  0
LINE
  5
5FB6
330
5FB3
100
AcDbEntity
  8
0
  6
ByBlock
 62
     0
370
    -2
100
AcDbLine
 10
39.91819691246302
 20
0.0
 30
0.0
 11
0.300000000000004
 21
0.0000000000000024
 31
0.0
  0
LINE
  5
5FB7
330
5FB3
100
AcDbEntity
  8
0
  6
ByBlock
 62
     0
370
    -2
100
AcDbLine
 10
0.4800000000000096
 20
91.82
 30
0.0
 11
0.4800000000000068
 21
46.18
 31
0.0
  0
LINE
  5
5FB8
330
5FB3
100
AcDbEntity
  8
0
  6
ByBlock
 62
     0
370
    -2
100
AcDbLine
 10
0.480000000000004
 20
0.1800000000000024
 30
0.0
 11
0.4800000000000068
 21
45.81999999999999
 31
0.0
  0
SOLID
  5
5FB9
330
5FB3
100
AcDbEntity
  8
0
 62
     0
100
AcDbTrace
 10
0.5100000000000096
 20
91.82
 30
0.0
 11
0.4500000000000096
 21
91.82
 31
0.0
 12
0.4800000000000096
 22
92.0
 32
0.0
 13
0.4800000000000096
 23
92.0
 33
0.0
  0
SOLID
  5
5FBA
330
5FB3
100
AcDbEntity
  8
0
 62
     0
100
AcDbTrace
 10
0.450000000000004
 20
0.1800000000000024
 30
0.0
 11
0.510000000000004
 21
0.1800000000000024
 31
0.0
 12
0.480000000000004
 22
0.0000000000000024
 32
0.0
 13
0.480000000000004
 23
0.0000000000000024
 33
0.0
  0
MTEXT
  5
5FBB
330
5FB3
100
AcDbEntity
  8
0
 62
     0
 48
0.05
100
AcDbMText
 10
0.4800000000000068
 20
46.0
 30
0.0
 40
0.18
 41
0.0
 46
0.0
 71
     5
 72
     1
  1
\A1;92.0000
 73
     1
 44
1.0
  0
POINT
  5
5FBC
330
5FB3
100
AcDbEntity
  8
Defpoints
 62
     0
100
AcDbPoint
 10
40.81895891246302
 20
92.0
 30
0.0
  0
POINT
  5
5FBD
330
5FB3
100
AcDbEntity
  8
Defpoints
 62
     0
100
AcDbPoint
 10
39.98069691246302
 20
0.0
 30
0.0
  0
POINT
  5
5FBE
330
5FB3
100
AcDbEntity
  8
Defpoints
 62
     0
100
AcDbPoint
 10
0.480000000000004
 20
0.0000000000000024
 30
0.0
  0
ENDBLK
  5
5FBF
330
5FB3
100
AcDbEntity
  8
0
100
AcDbBlockEnd
  0
BLOCK
  5
60C6
330
60C5
100
AcDbEntity
  8
0
100
AcDbBlockBegin
  2
*D51
 70
     1
 10
0.0
 20
0.0
 30
0.0
  3
*D51
  1
*D51
  0
LINE
  5
60C8
330
60C5
100
AcDbEntity
  8
DIM
 62
     0
370
    -2
100
AcDbLine
 10
623.773085923257
 20
341.6258249980963
 30
0.0
 11
588.434127010794
 21
341.6258249980963
 31
0.0
  0
LINE
  5
60C9
330
60C5
100
AcDbEntity
  8
DIM
 62
     0
370
    -2
100
AcDbLine
 10
622.934823923257
 20
249.6258249980963
 30
0.0
 11
588.434127010794
 21
249.6258249980963
 31
0.0
  0
LINE
  5
60CA
330
60C5
100
AcDbEntity
  8
DIM
 62
     0
370
    -2
100
AcDbLine
 10
588.434127010794
 20
340.6258249980963
 30
0.0
 11
588.434127010794
 21
250.6258249980963
 31
0.0
  0
INSERT
  5
60CB
330
60C5
100
AcDbEntity
  8
DIM
 62
     0
370
    -2
100
AcDbBlockReference
  2
_DOT
 10
588.434127010794
 20
341.6258249980963
 30
0.0
 50
90.0
  0
INSERT
  5
60CC
330
60C5
100
AcDbEntity
  8
DIM
 62
     0
370
    -2
100
AcDbBlockReference
  2
_DOT
 10
588.434127010794
 20
249.6258249980963
 30
0.0
 50
270.0
  0
MTEXT
  5
60CD
330
60C5
100
AcDbEntity
  8
DIM
 62
     0
 48
0.05
100
AcDbMText
 10
580.934127010794
 20
295.6258249980963
 30
0.0
 40
5.0
 41
0.0
 46
0.0
 71
     5
 72
     1
  1
\A1;92
  7
ＭＳ ゴシック
 11
0.0
 21
1.0
 31
0.0
 73
     1
 44
1.0
  0
POINT
  5
60CE
330
60C5
100
AcDbEntity
  8
Defpoints
 62
     0
100
AcDbPoint
 10
628.773085923257
 20
341.6258249980963
 30
0.0
  0
POINT
  5
60CF
330
60C5
100
AcDbEntity
  8
Defpoints
 62
     0
100
AcDbPoint
 10
627.934823923257
 20
249.6258249980963
 30
0.0
  0
POINT
  5
60D0
330
60C5
100
AcDbEntity
  8
Defpoints
 62
     0
100
AcDbPoint
 10
588.434127010794
 20
249.6258249980963
 30
0.0
  0
ENDBLK
  5
60C7
330
60C5
100
AcDbEntity
  8
0
100
AcDbBlockEnd
  0
BLOCK
  5
60E4
330
60E3
100
AcDbEntity
  8
0
100
AcDbBlockBegin
  2
*D52
 70
     1
 10
0.0
 20
0.0
 30
0.0
  3
*D52
  1
*D52
  0
LINE
  5
60E6
330
60E3
100
AcDbEntity
  8
DIM
 62
     0
 48
0.05
370
    -2
100
AcDbLine
 10
647.5414862938188
 20
63.4242622270305
 30
0.0
 11
647.5414862938188
 21
27.80216920299029
 31
0.0
  0
LINE
  5
60E7
330
60E3
100
AcDbEntity
  8
DIM
 62
     0
 48
0.05
370
    -2
100
AcDbLine
 10
575.5414862924287
 20
63.4242622270305
 30
0.0
 11
575.5414862924287
 21
27.80216920299029
 31
0.0
  0
LINE
  5
60E8
330
60E3
100
AcDbEntity
  8
DIM
 62
     0
 48
0.05
370
    -2
100
AcDbLine
 10
646.5414862938188
 20
27.80216920299029
 30
0.0
 11
576.5414862924287
 21
27.80216920299029
 31
0.0
  0
INSERT
  5
60E9
330
60E3
100
AcDbEntity
  8
DIM
 62
     0
370
    -2
100
AcDbBlockReference
  2
_DOT
 10
647.5414862938188
 20
27.80216920299029
 30
0.0
  0
INSERT
  5
60EA
330
60E3
100
AcDbEntity
  8
DIM
 62
     0
370
    -2
100
AcDbBlockReference
  2
_DOT
 10
575.5414862924287
 20
27.80216920299029
 30
0.0
 50
180.0
  0
MTEXT
  5
60EB
330
60E3
100
AcDbEntity
  8
DIM
 62
     0
 48
0.05
100
AcDbMText
 10
611.5414862931237
 20
35.30216920299029
 30
0.0
 40
5.0
 41
0.0
 46
0.0
 71
     5
 72
     1
  1
\A1;72
  7
ＭＳ ゴシック
 73
     1
 44
1.0
  0
POINT
  5
60EC
330
60E3
100
AcDbEntity
  8
Defpoints
 62
     0
100
AcDbPoint
 10
647.5414862938188
 20
68.4242622270305
 30
0.0
  0
POINT
  5
60ED
330
60E3
100
AcDbEntity
  8
Defpoints
 62
     0
100
AcDbPoint
 10
575.5414862924287
 20
68.4242622270305
 30
0.0
  0
POINT
  5
60EE
330
60E3
100
AcDbEntity
  8
Defpoints
 62
     0
100
AcDbPoint
 10
575.5414862924287
 20
27.80216920299029
 30
0.0
  0
ENDBLK
  5
60E5
330
60E3
100
AcDbEntity
  8
0
100
AcDbBlockEnd
  0
BLOCK
  5
60F6
330
60F5
100
AcDbEntity
  8
0
100
AcDbBlockBegin
  2
*D53
 70
     1
 10
0.0
 20
0.0
 30
0.0
  3
*D53
  1
*D53
  0
LINE
  5
60F8
330
60F5
100
AcDbEntity
  8
DIM
 62
     0
 48
0.05
370
    -2
100
AcDbLine
 10
651.6212398775317
 20
271.5431550689668
 30
0.0
 11
828.2559317047694
 21
271.5431550689668
 31
0.0
  0
LINE
  5
60F9
330
60F5
100
AcDbEntity
  8
DIM
 62
     0
 48
0.05
370
    -2
100
AcDbLine
 10
651.6212398775317
 20
91.54315506896685
 30
0.0
 11
828.2559317047694
 21
91.54315506896684
 31
0.0
  0
LINE
  5
60FA
330
60F5
100
AcDbEntity
  8
DIM
 62
     0
 48
0.05
370
    -2
100
AcDbLine
 10
828.2559317047694
 20
270.5431550689668
 30
0.0
 11
828.2559317047694
 21
92.54315506896684
 31
0.0
  0
INSERT
  5
60FB
330
60F5
100
AcDbEntity
  8
DIM
 62
     0
370
    -2
100
AcDbBlockReference
  2
_DOT
 10
828.2559317047694
 20
271.5431550689668
 30
0.0
 50
90.0
  0
INSERT
  5
60FC
330
60F5
100
AcDbEntity
  8
DIM
 62
     0
370
    -2
100
AcDbBlockReference
  2
_DOT
 10
828.2559317047694
 20
91.54315506896684
 30
0.0
 50
270.0
  0
MTEXT
  5
60FD
330
60F5
100
AcDbEntity
  8
DIM
 62
     0
 48
0.05
100
AcDbMText
 10
820.7559317047694
 20
181.5431550689668
 30
0.0
 40
5.0
 41
0.0
 46
0.0
 71
     5
 72
     1
  1
\A1;180
  7
ＭＳ ゴシック
 11
0.0
 21
1.0
 31
0.0
 73
     1
 44
1.0
  0
POINT
  5
60FE
330
60F5
100
AcDbEntity
  8
Defpoints
 62
     0
100
AcDbPoint
 10
646.6212398775317
 20
271.5431550689668
 30
0.0
  0
POINT
  5
60FF
330
60F5
100
AcDbEntity
  8
Defpoints
 62
     0
100
AcDbPoint
 10
646.6212398775317
 20
91.54315506896685
 30
0.0
  0
POINT
  5
6100
330
60F5
100
AcDbEntity
  8
Defpoints
 62
     0
100
AcDbPoint
 10
828.2559317047694
 20
91.54315506896684
 30
0.0
  0
ENDBLK
  5
60F7
330
60F5
100
AcDbEntity
  8
0
100
AcDbBlockEnd
  0
BLOCK
  5
6103
330
6102
100
AcDbEntity
  8
0
100
AcDbBlockBegin
  2
*D54
 70
     1
 10
0.0
 20
0.0
 30
0.0
  3
*D54
  1
*D54
  0
LINE
  5
6105
330
6102
100
AcDbEntity
  8
DIM
 62
     0
 48
0.05
370
    -2
100
AcDbLine
 10
721.1290821095173
 20
410.1167133134674
 30
0.0
 11
750.8873929273215
 21
410.1167133134674
 31
0.0
  0
LINE
  5
6106
330
6102
100
AcDbEntity
  8
DIM
 62
     0
 48
0.05
370
    -2
100
AcDbLine
 10
720.5399581973511
 20
305.2526569478889
 30
0.0
 11
750.8873929273215
 21
305.2526569478889
 31
0.0
  0
LINE
  5
6107
330
6102
100
AcDbEntity
  8
DIM
 62
     0
 48
0.05
370
    -2
100
AcDbLine
 10
750.8873929273215
 20
409.1167133134674
 30
0.0
 11
750.8873929273215
 21
306.2526569478889
 31
0.0
  0
INSERT
  5
6108
330
6102
100
AcDbEntity
  8
DIM
 62
     0
370
    -2
100
AcDbBlockReference
  2
_DOT
 10
750.8873929273215
 20
410.1167133134674
 30
0.0
 50
90.0
  0
INSERT
  5
6109
330
6102
100
AcDbEntity
  8
DIM
 62
     0
370
    -2
100
AcDbBlockReference
  2
_DOT
 10
750.8873929273215
 20
305.2526569478889
 30
0.0
 50
270.0
  0
MTEXT
  5
610A
330
6102
100
AcDbEntity
  8
DIM
 62
     0
 48
0.05
100
AcDbMText
 10
743.3873929273215
 20
357.6846851306781
 30
0.0
 40
5.0
 41
0.0
 46
0.0
 71
     5
 72
     1
  1
\A1;105
  7
ＭＳ ゴシック
 11
0.0
 21
1.0
 31
0.0
 73
     1
 44
1.0
  0
POINT
  5
610B
330
6102
100
AcDbEntity
  8
Defpoints
 62
     0
100
AcDbPoint
 10
716.1290821095173
 20
410.1167133134674
 30
0.0
  0
POINT
  5
610C
330
6102
100
AcDbEntity
  8
Defpoints
 62
     0
100
AcDbPoint
 10
715.5399581973511
 20
305.2526569478889
 30
0.0
  0
POINT
  5
610D
330
6102
100
AcDbEntity
  8
Defpoints
 62
     0
100
AcDbPoint
 10
750.8873929273215
 20
305.2526569478889
 30
0.0
  0
ENDBLK
  5
6104
330
6102
100
AcDbEntity
  8
0
100
AcDbBlockEnd
  0
BLOCK
  5
6110
330
610F
100
AcDbEntity
  8
0
100
AcDbBlockBegin
  2
*D55
 70
     1
 10
0.0
 20
0.0
 30
0.0
  3
*D55
  1
*D55
  0
LINE
  5
6112
330
610F
100
AcDbEntity
  8
DIM
 62
     0
 48
0.05
370
    -2
100
AcDbLine
 10
754.414583146906
 20
383.9006992220728
 30
0.0
 11
807.737850451357
 21
383.9006992220728
 31
0.0
  0
LINE
  5
6113
330
610F
100
AcDbEntity
  8
DIM
 62
     0
 48
0.05
370
    -2
100
AcDbLine
 10
754.414583146906
 20
305.2526569478889
 30
0.0
 11
807.737850451357
 21
305.2526569478889
 31
0.0
  0
LINE
  5
6114
330
610F
100
AcDbEntity
  8
DIM
 62
     0
 48
0.05
370
    -2
100
AcDbLine
 10
807.737850451357
 20
382.9006992220728
 30
0.0
 11
807.737850451357
 21
306.2526569478889
 31
0.0
  0
INSERT
  5
6115
330
610F
100
AcDbEntity
  8
DIM
 62
     0
370
    -2
100
AcDbBlockReference
  2
_DOT
 10
807.737850451357
 20
383.9006992220728
 30
0.0
 50
90.0
  0
INSERT
  5
6116
330
610F
100
AcDbEntity
  8
DIM
 62
     0
370
    -2
100
AcDbBlockReference
  2
_DOT
 10
807.737850451357
 20
305.2526569478889
 30
0.0
 50
270.0
  0
MTEXT
  5
6117
330
610F
100
AcDbEntity
  8
DIM
 62
     0
 48
0.05
100
AcDbMText
 10
800.237850451357
 20
344.5766780849808
 30
0.0
 40
5.0
 41
0.0
 46
0.0
 71
     5
 72
     1
  1
\A1;79
  7
ＭＳ ゴシック
 11
0.0
 21
1.0
 31
0.0
 73
     1
 44
1.0
  0
POINT
  5
6118
330
610F
100
AcDbEntity
  8
Defpoints
 62
     0
100
AcDbPoint
 10
749.414583146906
 20
383.9006992220728
 30
0.0
  0
POINT
  5
6119
330
610F
100
AcDbEntity
  8
Defpoints
 62
     0
100
AcDbPoint
 10
749.414583146906
 20
305.2526569478889
 30
0.0
  0
POINT
  5
611A
330
610F
100
AcDbEntity
  8
Defpoints
 62
     0
100
AcDbPoint
 10
807.737850451357
 20
305.2526569478889
 30
0.0
  0
ENDBLK
  5
6111
330
610F
100
AcDbEntity
  8
0
100
AcDbBlockEnd
  0
BLOCK
  5
611D
330
611C
100
AcDbEntity
  8
0
100
AcDbBlockBegin
  2
*D56
 70
     1
 10
0.0
 20
0.0
 30
0.0
  3
*D56
  1
*D56
  0
LINE
  5
611F
330
611C
100
AcDbEntity
  8
DIM
 62
     0
 48
0.05
370
    -2
100
AcDbLine
 10
926.8064547268458
 20
98.80323653628353
 30
0.0
 11
1084.984510156155
 21
98.80323653628352
 31
0.0
  0
LINE
  5
6120
330
611C
100
AcDbEntity
  8
DIM
 62
     0
 48
0.05
370
    -2
100
AcDbLine
 10
926.8064547268458
 20
278.8032365335172
 30
0.0
 11
1084.984510156155
 21
278.8032365335172
 31
0.0
  0
LINE
  5
6121
330
611C
100
AcDbEntity
  8
DIM
 62
     0
 48
0.05
370
    -2
100
AcDbLine
 10
1084.984510156155
 20
99.80323653628352
 30
0.0
 11
1084.984510156155
 21
277.8032365335172
 31
0.0
  0
INSERT
  5
6122
330
611C
100
AcDbEntity
  8
DIM
 62
     0
370
    -2
100
AcDbBlockReference
  2
_DOT
 10
1084.984510156155
 20
98.80323653628352
 30
0.0
 50
270.0
  0
INSERT
  5
6123
330
611C
100
AcDbEntity
  8
DIM
 62
     0
370
    -2
100
AcDbBlockReference
  2
_DOT
 10
1084.984510156155
 20
278.8032365335172
 30
0.0
 50
90.0
  0
MTEXT
  5
6124
330
611C
100
AcDbEntity
  8
DIM
 62
     0
 48
0.05
100
AcDbMText
 10
1077.484510156155
 20
188.8032365349003
 30
0.0
 40
5.0
 41
0.0
 46
0.0
 71
     5
 72
     1
  1
\A1;180
  7
ＭＳ ゴシック
 11
0.0
 21
1.0
 31
0.0
 73
     1
 44
1.0
  0
POINT
  5
6125
330
611C
100
AcDbEntity
  8
Defpoints
 62
     0
100
AcDbPoint
 10
921.8064547268458
 20
98.80323653628353
 30
0.0
  0
POINT
  5
6126
330
611C
100
AcDbEntity
  8
Defpoints
 62
     0
100
AcDbPoint
 10
921.8064547268458
 20
278.8032365335172
 30
0.0
  0
POINT
  5
6127
330
611C
100
AcDbEntity
  8
Defpoints
 62
     0
100
AcDbPoint
 10
1084.984510156155
 20
278.8032365335172
 30
0.0
  0
ENDBLK
  5
611E
330
611C
100
AcDbEntity
  8
0
100
AcDbBlockEnd
  0
BLOCK
  5
613A
330
6139
100
AcDbEntity
  8
0
100
AcDbBlockBegin
  2
*D57
 70
     1
 10
0.0
 20
0.0
 30
0.0
  3
*D57
  1
*D57
  0
LINE
  5
613C
330
6139
100
AcDbEntity
  8
DIM
 62
     0
 48
0.05
370
    -2
100
AcDbLine
 10
859.6088210675144
 20
310.2743786024039
 30
0.0
 11
859.6088210675144
 21
316.3482041054721
 31
0.0
  0
LINE
  5
613D
330
6139
100
AcDbEntity
  8
DIM
 62
     0
 48
0.05
370
    -2
100
AcDbLine
 10
804.6088210689427
 20
310.2743786024039
 30
0.0
 11
804.6088210689427
 21
316.3482041054721
 31
0.0
  0
LINE
  5
613E
330
6139
100
AcDbEntity
  8
DIM
 62
     0
 48
0.05
370
    -2
100
AcDbLine
 10
858.6088210675144
 20
316.3482041054721
 30
0.0
 11
805.6088210689427
 21
316.3482041054721
 31
0.0
  0
INSERT
  5
613F
330
6139
100
AcDbEntity
  8
DIM
 62
     0
370
    -2
100
AcDbBlockReference
  2
_DOT
 10
859.6088210675144
 20
316.3482041054721
 30
0.0
  0
INSERT
  5
6140
330
6139
100
AcDbEntity
  8
DIM
 62
     0
370
    -2
100
AcDbBlockReference
  2
_DOT
 10
804.6088210689427
 20
316.3482041054721
 30
0.0
 50
180.0
  0
MTEXT
  5
6141
330
6139
100
AcDbEntity
  8
DIM
 62
     0
 48
0.05
100
AcDbMText
 10
832.1088210682285
 20
323.8482041054721
 30
0.0
 40
5.0
 41
0.0
 46
0.0
 71
     5
 72
     1
  1
\A1;55
  7
ＭＳ ゴシック
 73
     1
 44
1.0
  0
POINT
  5
6142
330
6139
100
AcDbEntity
  8
Defpoints
 62
     0
100
AcDbPoint
 10
859.6088210675144
 20
305.2743786024039
 30
0.0
  0
POINT
  5
6143
330
6139
100
AcDbEntity
  8
Defpoints
 62
     0
100
AcDbPoint
 10
804.6088210689427
 20
305.2743786024039
 30
0.0
  0
POINT
  5
6144
330
6139
100
AcDbEntity
  8
Defpoints
 62
     0
100
AcDbPoint
 10
804.6088210689427
 20
316.3482041054721
 30
0.0
  0
ENDBLK
  5
613B
330
6139
100
AcDbEntity
  8
0
100
AcDbBlockEnd
  0
BLOCK
  5
6174
330
6173
100
AcDbEntity
  8
0
100
AcDbBlockBegin
  2
*D59
 70
     1
 10
0.0
 20
0.0
 30
0.0
  3
*D59
  1
*D59
  0
LINE
  5
6175
330
6173
100
AcDbEntity
  8
DIM
 62
     0
 48
0.05
370
    -2
100
AcDbLine
 10
72.40893601813264
 20
5.0
 30
0.0
 11
72.40893601813264
 21
14.47830926539586
 31
0.0
  0
LINE
  5
6176
330
6173
100
AcDbEntity
  8
DIM
 62
     0
 48
0.05
370
    -2
100
AcDbLine
 10
0.5
 20
5.0
 30
0.0
 11
0.5
 21
14.47830926539586
 31
0.0
  0
LINE
  5
6177
330
6173
100
AcDbEntity
  8
DIM
 62
     0
 48
0.05
370
    -2
100
AcDbLine
 10
71.40893601813264
 20
14.47830926539586
 30
0.0
 11
1.5
 21
14.47830926539586
 31
0.0
  0
INSERT
  5
6178
330
6173
100
AcDbEntity
  8
DIM
 62
     0
370
    -2
100
AcDbBlockReference
  2
_DOT
 10
72.40893601813264
 20
14.47830926539586
 30
0.0
  0
INSERT
  5
6179
330
6173
100
AcDbEntity
  8
DIM
 62
     0
370
    -2
100
AcDbBlockReference
  2
_DOT
 10
0.5
 20
14.47830926539586
 30
0.0
 50
180.0
  0
MTEXT
  5
617A
330
6173
100
AcDbEntity
  8
DIM
 62
     0
 48
0.05
100
AcDbMText
 10
36.45446800906632
 20
22.47830926539586
 30
0.0
 40
6.0
 41
0.0
 46
0.0
 71
     5
 72
     1
  1
\A1;71.90893602
  7
ＭＳ ゴシック
 73
     1
 44
1.0
  0
POINT
  5
617B
330
6173
100
AcDbEntity
  8
Defpoints
 62
     0
100
AcDbPoint
 10
72.40893601813264
 20
0.0
 30
0.0
  0
POINT
  5
617C
330
6173
100
AcDbEntity
  8
Defpoints
 62
     0
100
AcDbPoint
 10
0.5
 20
0.0
 30
0.0
  0
POINT
  5
617D
330
6173
100
AcDbEntity
  8
Defpoints
 62
     0
100
AcDbPoint
 10
0.5
 20
14.47830926539586
 30
0.0
  0
ENDBLK
  5
617E
330
6173
100
AcDbEntity
  8
0
100
AcDbBlockEnd
  0
BLOCK
  5
6183
330
6182
100
AcDbEntity
  8
0
100
AcDbBlockBegin
  2
*D60
 70
     1
 10
0.0
 20
0.0
 30
0.0
  3
*D60
  1
*D60
  0
LINE
  5
6185
330
6182
100
AcDbEntity
  8
DIM
 62
     0
 48
0.05
370
    -2
100
AcDbLine
 10
646.8222843537944
 20
291.0880313463439
 30
0.0
 11
646.8222843537944
 21
299.6378813261658
 31
0.0
  0
LINE
  5
6186
330
6182
100
AcDbEntity
  8
DIM
 62
     0
 48
0.05
370
    -2
100
AcDbLine
 10
621.489956130649
 20
291.67715525851
 30
0.0
 11
621.489956130649
 21
299.6378813261658
 31
0.0
  0
LINE
  5
6187
330
6182
100
AcDbEntity
  8
DIM
 62
     0
 48
0.05
370
    -2
100
AcDbLine
 10
645.8222843537944
 20
299.6378813261658
 30
0.0
 11
622.489956130649
 21
299.6378813261658
 31
0.0
  0
INSERT
  5
6188
330
6182
100
AcDbEntity
  8
DIM
 62
     0
370
    -2
100
AcDbBlockReference
  2
_DOT
 10
646.8222843537944
 20
299.6378813261658
 30
0.0
  0
INSERT
  5
6189
330
6182
100
AcDbEntity
  8
DIM
 62
     0
370
    -2
100
AcDbBlockReference
  2
_DOT
 10
621.489956130649
 20
299.6378813261658
 30
0.0
 50
180.0
  0
MTEXT
  5
618A
330
6182
100
AcDbEntity
  8
DIM
 62
     0
 48
0.05
100
AcDbMText
 10
634.1561202422217
 20
307.1378813261658
 30
0.0
 40
5.0
 41
0.0
 46
0.0
 71
     5
 72
     1
  1
\A1;25
  7
ＭＳ ゴシック
 73
     1
 44
1.0
  0
POINT
  5
618B
330
6182
100
AcDbEntity
  8
Defpoints
 62
     0
100
AcDbPoint
 10
646.8222843537944
 20
286.0880313463439
 30
0.0
  0
POINT
  5
618C
330
6182
100
AcDbEntity
  8
Defpoints
 62
     0
100
AcDbPoint
 10
621.489956130649
 20
286.67715525851
 30
0.0
  0
POINT
  5
618D
330
6182
100
AcDbEntity
  8
Defpoints
 62
     0
100
AcDbPoint
 10
621.489956130649
 20
299.6378813261658
 30
0.0
  0
ENDBLK
  5
6184
330
6182
100
AcDbEntity
  8
0
100
AcDbBlockEnd
  0
BLOCK
  5
6192
330
6191
100
AcDbEntity
  8
0
100
AcDbBlockBegin
  2
*D61
 70
     1
 10
0.0
 20
0.0
 30
0.0
  3
*D61
  1
*D61
  0
LINE
  5
6194
330
6191
100
AcDbEntity
  8
MODEL
 62
     0
 48
0.05
370
    -2
100
AcDbLine
 10
182.9175835765626
 20
456.6937871831626
 30
0.0
 11
182.9175835765626
 21
463.8603661228353
 31
0.0
  0
LINE
  5
6195
330
6191
100
AcDbEntity
  8
MODEL
 62
     0
 48
0.05
370
    -2
100
AcDbLine
 10
210.9175835765626
 20
454.3199953864024
 30
0.0
 11
210.9175835765626
 21
463.8603661228353
 31
0.0
  0
LINE
  5
6196
330
6191
100
AcDbEntity
  8
MODEL
 62
     0
 48
0.05
370
    -2
100
AcDbLine
 10
183.9175835765626
 20
463.8603661228353
 30
0.0
 11
209.9175835765626
 21
463.8603661228353
 31
0.0
  0
INSERT
  5
6197
330
6191
100
AcDbEntity
  8
MODEL
 62
     0
370
    -2
100
AcDbBlockReference
  2
_DOT
 10
182.9175835765626
 20
463.8603661228353
 30
0.0
 50
180.0
  0
INSERT
  5
6198
330
6191
100
AcDbEntity
  8
MODEL
 62
     0
370
    -2
100
AcDbBlockReference
  2
_DOT
 10
210.9175835765626
 20
463.8603661228353
 30
0.0
  0
MTEXT
  5
6199
330
6191
100
AcDbEntity
  8
MODEL
 62
     0
 48
0.05
100
AcDbMText
 10
196.9175835765626
 20
472.0853661228353
 30
0.0
 40
6.0
 41
0.0
 46
0.0
 71
     5
 72
     1
  1
\A1;%%c29
  7
ＭＳ ゴシック
 73
     1
 44
1.0
  0
POINT
  5
619A
330
6191
100
AcDbEntity
  8
Defpoints
 62
     0
100
AcDbPoint
 10
182.9175835765626
 20
451.6937871831626
 30
0.0
  0
POINT
  5
619B
330
6191
100
AcDbEntity
  8
Defpoints
 62
     0
100
AcDbPoint
 10
210.9175835765626
 20
449.3199953864024
 30
0.0
  0
POINT
  5
619C
330
6191
100
AcDbEntity
  8
Defpoints
 62
     0
100
AcDbPoint
 10
210.9175835765626
 20
463.8603661228353
 30
0.0
  0
ENDBLK
  5
6193
330
6191
100
AcDbEntity
  8
0
100
AcDbBlockEnd
  0
BLOCK
  5
61A4
330
61A3
100
AcDbEntity
  8
0
100
AcDbBlockBegin
  2
*D62
 70
     1
 10
0.0
 20
0.0
 30
0.0
  3
*D62
  1
*D62
  0
LINE
  5
61A6
330
61A3
100
AcDbEntity
  8
DIM
 62
     0
 48
0.05
370
    -2
100
AcDbLine
 10
619.7422312026728
 20
421.7350699764413
 30
0.0
 11
619.7422312026728
 21
440.753512672194
 31
0.0
  0
LINE
  5
61A7
330
61A3
100
AcDbEntity
  8
DIM
 62
     0
 48
0.05
370
    -2
100
AcDbLine
 10
701.7422312026728
 20
387.3025034816554
 30
0.0
 11
701.7422312026728
 21
440.753512672194
 31
0.0
  0
LINE
  5
61A8
330
61A3
100
AcDbEntity
  8
DIM
 62
     0
 48
0.05
370
    -2
100
AcDbLine
 10
620.7422312026728
 20
440.753512672194
 30
0.0
 11
700.7422312026728
 21
440.753512672194
 31
0.0
  0
INSERT
  5
61A9
330
61A3
100
AcDbEntity
  8
DIM
 62
     0
370
    -2
100
AcDbBlockReference
  2
_DOT
 10
619.7422312026728
 20
440.753512672194
 30
0.0
 50
180.0
  0
INSERT
  5
61AA
330
61A3
100
AcDbEntity
  8
DIM
 62
     0
370
    -2
100
AcDbBlockReference
  2
_DOT
 10
701.7422312026728
 20
440.753512672194
 30
0.0
  0
MTEXT
  5
61AB
330
61A3
100
AcDbEntity
  8
DIM
 62
     0
 48
0.05
100
AcDbMText
 10
660.7422312026728
 20
448.253512672194
 30
0.0
 40
5.0
 41
0.0
 46
0.0
 71
     5
 72
     1
  1
\A1;82
  7
ＭＳ ゴシック
 73
     1
 44
1.0
  0
POINT
  5
61AC
330
61A3
100
AcDbEntity
  8
Defpoints
 62
     0
100
AcDbPoint
 10
619.7422312026728
 20
416.7350699764413
 30
0.0
  0
POINT
  5
61AD
330
61A3
100
AcDbEntity
  8
Defpoints
 62
     0
100
AcDbPoint
 10
701.7422312026728
 20
382.3025034816554
 30
0.0
  0
POINT
  5
61AE
330
61A3
100
AcDbEntity
  8
Defpoints
 62
     0
100
AcDbPoint
 10
701.7422312026728
 20
440.753512672194
 30
0.0
  0
ENDBLK
  5
61A5
330
61A3
100
AcDbEntity
  8
0
100
AcDbBlockEnd
  0
BLOCK
  5
61B1
330
61B0
100
AcDbEntity
  8
0
100
AcDbBlockBegin
  2
*D63
 70
     1
 10
0.0
 20
0.0
 30
0.0
  3
*D63
  1
*D63
  0
LINE
  5
61B3
330
61B0
100
AcDbEntity
  8
MODEL
 62
     0
 48
0.05
370
    -2
100
AcDbLine
 10
229.4175835765626
 20
355.5514901582131
 30
0.0
 11
292.021589955154
 21
355.5514901582131
 31
0.0
  0
LINE
  5
61B4
330
61B0
100
AcDbEntity
  8
MODEL
 62
     0
 48
0.05
370
    -2
100
AcDbLine
 10
219.194692169552
 20
447.5514901582131
 30
0.0
 11
292.021589955154
 21
447.5514901582131
 31
0.0
  0
LINE
  5
61B5
330
61B0
100
AcDbEntity
  8
MODEL
 62
     0
 48
0.05
370
    -2
100
AcDbLine
 10
292.021589955154
 20
356.5514901582131
 30
0.0
 11
292.021589955154
 21
446.5514901582131
 31
0.0
  0
INSERT
  5
61B6
330
61B0
100
AcDbEntity
  8
MODEL
 62
     0
370
    -2
100
AcDbBlockReference
  2
_DOT
 10
292.021589955154
 20
355.5514901582131
 30
0.0
 50
270.0
  0
INSERT
  5
61B7
330
61B0
100
AcDbEntity
  8
MODEL
 62
     0
370
    -2
100
AcDbBlockReference
  2
_DOT
 10
292.021589955154
 20
447.5514901582131
 30
0.0
 50
90.0
  0
MTEXT
  5
61B8
330
61B0
100
AcDbEntity
  8
MODEL
 62
     0
 48
0.05
100
AcDbMText
 10
284.021589955154
 20
401.5514901582131
 30
0.0
 40
6.0
 41
0.0
 46
0.0
 71
     5
 72
     1
  1
\A1;92
  7
ＭＳ ゴシック
 11
0.0
 21
1.0
 31
0.0
 73
     1
 44
1.0
  0
POINT
  5
61B9
330
61B0
100
AcDbEntity
  8
Defpoints
 62
     0
100
AcDbPoint
 10
224.4175835765626
 20
355.5514901582131
 30
0.0
  0
POINT
  5
61BA
330
61B0
100
AcDbEntity
  8
Defpoints
 62
     0
100
AcDbPoint
 10
214.194692169552
 20
447.5514901582131
 30
0.0
  0
POINT
  5
61BB
330
61B0
100
AcDbEntity
  8
Defpoints
 62
     0
100
AcDbPoint
 10
292.021589955154
 20
447.5514901582131
 30
0.0
  0
ENDBLK
  5
61B2
330
61B0
100
AcDbEntity
  8
0
100
AcDbBlockEnd
  0
BLOCK
  5
61BE
330
61BD
100
AcDbEntity
  8
0
100
AcDbBlockBegin
  2
*D64
 70
     1
 10
0.0
 20
0.0
 30
0.0
  3
*D64
  1
*D64
  0
LINE
  5
61C0
330
61BD
100
AcDbEntity
  8
MODEL
 62
     0
 48
0.05
370
    -2
100
AcDbLine
 10
182.9175835765626
 20
450.1847610678637
 30
0.0
 11
182.9175835765626
 21
484.5476643831586
 31
0.0
  0
LINE
  5
61C1
330
61BD
100
AcDbEntity
  8
MODEL
 62
     0
 48
0.05
370
    -2
100
AcDbLine
 10
268.9175835765626
 20
432.2549748446817
 30
0.0
 11
268.9175835765626
 21
484.5476643831586
 31
0.0
  0
LINE
  5
61C2
330
61BD
100
AcDbEntity
  8
MODEL
 62
     0
 48
0.05
370
    -2
100
AcDbLine
 10
183.9175835765626
 20
484.5476643831586
 30
0.0
 11
267.9175835765626
 21
484.5476643831586
 31
0.0
  0
INSERT
  5
61C3
330
61BD
100
AcDbEntity
  8
MODEL
 62
     0
370
    -2
100
AcDbBlockReference
  2
_DOT
 10
182.9175835765626
 20
484.5476643831586
 30
0.0
 50
180.0
  0
INSERT
  5
61C4
330
61BD
100
AcDbEntity
  8
MODEL
 62
     0
370
    -2
100
AcDbBlockReference
  2
_DOT
 10
268.9175835765626
 20
484.5476643831586
 30
0.0
  0
MTEXT
  5
61C5
330
61BD
100
AcDbEntity
  8
MODEL
 62
     0
 48
0.05
100
AcDbMText
 10
225.9175835765626
 20
492.5476643831586
 30
0.0
 40
6.0
 41
0.0
 46
0.0
 71
     5
 72
     1
  1
\A1;86
  7
ＭＳ ゴシック
 73
     1
 44
1.0
  0
POINT
  5
61C6
330
61BD
100
AcDbEntity
  8
Defpoints
 62
     0
100
AcDbPoint
 10
182.9175835765626
 20
445.1847610678637
 30
0.0
  0
POINT
  5
61C7
330
61BD
100
AcDbEntity
  8
Defpoints
 62
     0
100
AcDbPoint
 10
268.9175835765626
 20
427.2549748446817
 30
0.0
  0
POINT
  5
61C8
330
61BD
100
AcDbEntity
  8
Defpoints
 62
     0
100
AcDbPoint
 10
268.9175835765626
 20
484.5476643831586
 30
0.0
  0
ENDBLK
  5
61BF
330
61BD
100
AcDbEntity
  8
0
100
AcDbBlockEnd
  0
BLOCK
  5
61DE
330
61DD
100
AcDbEntity
  8
0
100
AcDbBlockBegin
  2
*D65
 70
     1
 10
0.0
 20
0.0
 30
0.0
  3
*D65
  1
*D65
  0
LINE
  5
61E0
330
61DD
100
AcDbEntity
  8
MODEL
 62
     0
 48
0.05
370
    -2
100
AcDbLine
 10
224.4175835765626
 20
369.8684333059457
 30
0.0
 11
224.4175835765626
 21
389.5008634694724
 31
0.0
  0
LINE
  5
61E1
330
61DD
100
AcDbEntity
  8
MODEL
 62
     0
 48
0.05
370
    -2
100
AcDbLine
 10
169.4175835765626
 20
369.8684333059457
 30
0.0
 11
169.4175835765626
 21
389.5008634694724
 31
0.0
  0
LINE
  5
61E2
330
61DD
100
AcDbEntity
  8
MODEL
 62
     0
 48
0.05
370
    -2
100
AcDbLine
 10
223.4175835765626
 20
389.5008634694724
 30
0.0
 11
170.4175835765626
 21
389.5008634694724
 31
0.0
  0
INSERT
  5
61E3
330
61DD
100
AcDbEntity
  8
MODEL
 62
     0
370
    -2
100
AcDbBlockReference
  2
_DOT
 10
224.4175835765626
 20
389.5008634694724
 30
0.0
  0
INSERT
  5
61E4
330
61DD
100
AcDbEntity
  8
MODEL
 62
     0
370
    -2
100
AcDbBlockReference
  2
_DOT
 10
169.4175835765626
 20
389.5008634694724
 30
0.0
 50
180.0
  0
MTEXT
  5
61E5
330
61DD
100
AcDbEntity
  8
MODEL
 62
     0
 48
0.05
100
AcDbMText
 10
196.9175835765626
 20
397.7258634694725
 30
0.0
 40
6.0
 41
0.0
 46
0.0
 71
     5
 72
     1
  1
\A1;%%c55
  7
ＭＳ ゴシック
 73
     1
 44
1.0
  0
POINT
  5
61E6
330
61DD
100
AcDbEntity
  8
Defpoints
 62
     0
100
AcDbPoint
 10
224.4175835765626
 20
364.8684333059457
 30
0.0
  0
POINT
  5
61E7
330
61DD
100
AcDbEntity
  8
Defpoints
 62
     0
100
AcDbPoint
 10
169.4175835765626
 20
364.8684333059457
 30
0.0
  0
POINT
  5
61E8
330
61DD
100
AcDbEntity
  8
Defpoints
 62
     0
100
AcDbPoint
 10
169.4175835765626
 20
389.5008634694724
 30
0.0
  0
ENDBLK
  5
61DF
330
61DD
100
AcDbEntity
  8
0
100
AcDbBlockEnd
  0
BLOCK
  5
61EE
330
61ED
100
AcDbEntity
  8
0
100
AcDbBlockBegin
  2
*D66
 70
     1
 10
0.0
 20
0.0
 30
0.0
  3
*D66
  1
*D66
  0
LINE
  5
61F0
330
61ED
100
AcDbEntity
  8
MODEL
 62
     0
 48
0.05
370
    -2
100
AcDbLine
 10
295.2047803063365
 20
355.5514901582131
 30
0.0
 11
324.9527225432864
 21
355.5514901582131
 31
0.0
  0
LINE
  5
61F1
330
61ED
100
AcDbEntity
  8
MODEL
 62
     0
 48
0.05
370
    -2
100
AcDbLine
 10
272.1978495765626
 20
422.233068158213
 30
0.0
 11
324.9527225432864
 21
422.233068158213
 31
0.0
  0
LINE
  5
61F2
330
61ED
100
AcDbEntity
  8
MODEL
 62
     0
 48
0.05
370
    -2
100
AcDbLine
 10
324.9527225432864
 20
356.5514901582131
 30
0.0
 11
324.9527225432864
 21
421.233068158213
 31
0.0
  0
INSERT
  5
61F3
330
61ED
100
AcDbEntity
  8
MODEL
 62
     0
370
    -2
100
AcDbBlockReference
  2
_DOT
 10
324.9527225432864
 20
355.5514901582131
 30
0.0
 50
270.0
  0
INSERT
  5
61F4
330
61ED
100
AcDbEntity
  8
MODEL
 62
     0
370
    -2
100
AcDbBlockReference
  2
_DOT
 10
324.9527225432864
 20
422.233068158213
 30
0.0
 50
90.0
  0
MTEXT
  5
61F5
330
61ED
100
AcDbEntity
  8
MODEL
 62
     0
 48
0.05
100
AcDbMText
 10
316.9527225432864
 20
388.8922791582131
 30
0.0
 40
6.0
 41
0.0
 46
0.0
 71
     5
 72
     1
  1
\A1;70
  7
ＭＳ ゴシック
 11
0.0
 21
1.0
 31
0.0
 73
     1
 44
1.0
  0
POINT
  5
61F6
330
61ED
100
AcDbEntity
  8
Defpoints
 62
     0
100
AcDbPoint
 10
290.2047803063365
 20
355.5514901582131
 30
0.0
  0
POINT
  5
61F7
330
61ED
100
AcDbEntity
  8
Defpoints
 62
     0
100
AcDbPoint
 10
267.1978495765626
 20
422.233068158213
 30
0.0
  0
POINT
  5
61F8
330
61ED
100
AcDbEntity
  8
Defpoints
 62
     0
100
AcDbPoint
 10
324.9527225432864
 20
422.233068158213
 30
0.0
  0
ENDBLK
  5
61EF
330
61ED
100
AcDbEntity
  8
0
100
AcDbBlockEnd
  0
BLOCK
  5
6208
330
6207
100
AcDbEntity
  8
0
100
AcDbBlockBegin
  2
*D67
 70
     1
 10
0.0
 20
0.0
 30
0.0
  3
*D67
  1
*D67
  0
LINE
  5
620A
330
6207
100
AcDbEntity
  8
DIM
 62
     0
 48
0.05
370
    -2
100
AcDbLine
 10
646.7422312026728
 20
300.0903504775341
 30
0.0
 11
646.7422312026728
 21
286.147895855308
 31
0.0
  0
LINE
  5
620B
330
6207
100
AcDbEntity
  8
DIM
 62
     0
 48
0.05
370
    -2
100
AcDbLine
 10
620.7422312026728
 20
300.0903504775341
 30
0.0
 11
620.7422312026728
 21
286.147895855308
 31
0.0
  0
LINE
  5
620C
330
6207
100
AcDbEntity
  8
DIM
 62
     0
 48
0.05
370
    -2
100
AcDbLine
 10
645.7422312026728
 20
286.147895855308
 30
0.0
 11
621.7422312026728
 21
286.147895855308
 31
0.0
  0
INSERT
  5
620D
330
6207
100
AcDbEntity
  8
DIM
 62
     0
370
    -2
100
AcDbBlockReference
  2
_DOT
 10
646.7422312026728
 20
286.147895855308
 30
0.0
  0
INSERT
  5
620E
330
6207
100
AcDbEntity
  8
DIM
 62
     0
370
    -2
100
AcDbBlockReference
  2
_DOT
 10
620.7422312026728
 20
286.147895855308
 30
0.0
 50
180.0
  0
MTEXT
  5
620F
330
6207
100
AcDbEntity
  8
DIM
 62
     0
 48
0.05
100
AcDbMText
 10
633.7422312026728
 20
293.647895855308
 30
0.0
 40
5.0
 41
0.0
 46
0.0
 71
     5
 72
     1
  1
\A1;26
  7
ＭＳ ゴシック
 73
     1
 44
1.0
  0
POINT
  5
6210
330
6207
100
AcDbEntity
  8
Defpoints
 62
     0
100
AcDbPoint
 10
646.7422312026728
 20
305.0903504775341
 30
0.0
  0
POINT
  5
6211
330
6207
100
AcDbEntity
  8
Defpoints
 62
     0
100
AcDbPoint
 10
620.7422312026728
 20
305.0903504775341
 30
0.0
  0
POINT
  5
6212
330
6207
100
AcDbEntity
  8
Defpoints
 62
     0
100
AcDbPoint
 10
620.7422312026728
 20
286.147895855308
 30
0.0
  0
ENDBLK
  5
6209
330
6207
100
AcDbEntity
  8
0
100
AcDbBlockEnd
  0
BLOCK
  5
622E
330
622D
100
AcDbEntity
  8
0
100
AcDbBlockBegin
  2
*D68
 70
     1
 10
0.0
 20
0.0
 30
0.0
  3
*D68
  1
*D68
  0
LINE
  5
6230
330
622D
100
AcDbEntity
  8
MODEL
 62
     0
 48
0.05
370
    -2
100
AcDbLine
 10
222.3693293249606
 20
312.5375362641911
 30
0.0
 11
276.6041778199103
 21
312.5375362641911
 31
0.0
  0
LINE
  5
6231
330
622D
100
AcDbEntity
  8
MODEL
 62
     0
 48
0.05
370
    -2
100
AcDbLine
 10
237.9175835765626
 20
132.5375362641911
 30
0.0
 11
276.6041778199103
 21
132.5375362641911
 31
0.0
  0
LINE
  5
6232
330
622D
100
AcDbEntity
  8
MODEL
 62
     0
 48
0.05
370
    -2
100
AcDbLine
 10
276.6041778199103
 20
311.5375362641911
 30
0.0
 11
276.6041778199103
 21
133.5375362641911
 31
0.0
  0
INSERT
  5
6233
330
622D
100
AcDbEntity
  8
MODEL
 62
     0
370
    -2
100
AcDbBlockReference
  2
_DOT
 10
276.6041778199103
 20
312.5375362641911
 30
0.0
 50
90.0
  0
INSERT
  5
6234
330
622D
100
AcDbEntity
  8
MODEL
 62
     0
370
    -2
100
AcDbBlockReference
  2
_DOT
 10
276.6041778199103
 20
132.5375362641911
 30
0.0
 50
270.0
  0
MTEXT
  5
6235
330
622D
100
AcDbEntity
  8
MODEL
 62
     0
 48
0.05
100
AcDbMText
 10
268.6041778199103
 20
222.5375362641911
 30
0.0
 40
6.0
 41
0.0
 46
0.0
 71
     5
 72
     1
  1
\A1;180
  7
ＭＳ ゴシック
 11
0.0
 21
1.0
 31
0.0
 73
     1
 44
1.0
  0
POINT
  5
6236
330
622D
100
AcDbEntity
  8
Defpoints
 62
     0
100
AcDbPoint
 10
217.3693293249606
 20
312.5375362641911
 30
0.0
  0
POINT
  5
6237
330
622D
100
AcDbEntity
  8
Defpoints
 62
     0
100
AcDbPoint
 10
232.9175835765626
 20
132.5375362641911
 30
0.0
  0
POINT
  5
6238
330
622D
100
AcDbEntity
  8
Defpoints
 62
     0
100
AcDbPoint
 10
276.6041778199103
 20
132.5375362641911
 30
0.0
  0
ENDBLK
  5
622F
330
622D
100
AcDbEntity
  8
0
100
AcDbBlockEnd
  0
BLOCK
  5
6264
330
6263
100
AcDbEntity
  8
0
100
AcDbBlockBegin
  2
*D69
 70
     1
 10
0.0
 20
0.0
 30
0.0
  3
*D69
  1
*D69
  0
LINE
  5
6266
330
6263
100
AcDbEntity
  8
MODEL
 62
     0
 48
0.05
370
    -2
100
AcDbLine
 10
222.3693293249606
 20
312.5375362641911
 30
0.0
 11
276.6041778199103
 21
312.5375362641911
 31
0.0
  0
LINE
  5
6267
330
6263
100
AcDbEntity
  8
MODEL
 62
     0
 48
0.05
370
    -2
100
AcDbLine
 10
229.4175835765626
 20
355.5514901582131
 30
0.0
 11
276.6041778199103
 21
355.5514901582131
 31
0.0
  0
LINE
  5
6268
330
6263
100
AcDbEntity
  8
MODEL
 62
     0
 48
0.05
370
    -2
100
AcDbLine
 10
276.6041778199103
 20
313.5375362641911
 30
0.0
 11
276.6041778199103
 21
354.5514901582131
 31
0.0
  0
INSERT
  5
6269
330
6263
100
AcDbEntity
  8
MODEL
 62
     0
370
    -2
100
AcDbBlockReference
  2
_DOT
 10
276.6041778199103
 20
312.5375362641911
 30
0.0
 50
270.0
  0
INSERT
  5
626A
330
6263
100
AcDbEntity
  8
MODEL
 62
     0
370
    -2
100
AcDbBlockReference
  2
_DOT
 10
276.6041778199103
 20
355.5514901582131
 30
0.0
 50
90.0
  0
MTEXT
  5
626B
330
6263
100
AcDbEntity
  8
MODEL
 62
     0
 48
0.05
100
AcDbMText
 10
268.6041778199103
 20
334.0445132112021
 30
0.0
 40
6.0
 41
0.0
 46
0.0
 71
     5
 72
     1
  1
\A1;max. 45
  7
ＭＳ ゴシック
 11
0.0
 21
1.0
 31
0.0
 73
     1
 44
1.0
  0
POINT
  5
626C
330
6263
100
AcDbEntity
  8
Defpoints
 62
     0
100
AcDbPoint
 10
217.3693293249606
 20
312.5375362641911
 30
0.0
  0
POINT
  5
626D
330
6263
100
AcDbEntity
  8
Defpoints
 62
     0
100
AcDbPoint
 10
224.4175835765626
 20
355.5514901582131
 30
0.0
  0
POINT
  5
626E
330
6263
100
AcDbEntity
  8
Defpoints
 62
     0
100
AcDbPoint
 10
276.6041778199103
 20
355.5514901582131
 30
0.0
  0
ENDBLK
  5
6265
330
6263
100
AcDbEntity
  8
0
100
AcDbBlockEnd
  0
BLOCK
  5
627F
330
627E
100
AcDbEntity
  8
0
100
AcDbBlockBegin
  2
*D70
 70
     1
 10
0.0
 20
0.0
 30
0.0
  3
*D70
  1
*D70
  0
LINE
  5
6281
330
627E
100
AcDbEntity
  8
MODEL
 62
     0
 48
0.05
370
    -2
100
AcDbLine
 10
184.0165960765626
 20
326.4861398949188
 30
0.0
 11
184.0165960765626
 21
325.264991382444
 31
0.0
  0
LINE
  5
6282
330
627E
100
AcDbEntity
  8
MODEL
 62
     0
 48
0.05
370
    -2
100
AcDbLine
 10
209.8185710765626
 20
326.4861398949188
 30
0.0
 11
209.8185710765626
 21
325.264991382444
 31
0.0
  0
LINE
  5
6283
330
627E
100
AcDbEntity
  8
MODEL
 62
     0
 48
0.05
370
    -2
100
AcDbLine
 10
185.0165960765626
 20
325.264991382444
 30
0.0
 11
208.8185710765626
 21
325.264991382444
 31
0.0
  0
INSERT
  5
6284
330
627E
100
AcDbEntity
  8
MODEL
 62
     0
370
    -2
100
AcDbBlockReference
  2
_DOT
 10
184.0165960765626
 20
325.264991382444
 30
0.0
 50
180.0
  0
INSERT
  5
6285
330
627E
100
AcDbEntity
  8
MODEL
 62
     0
370
    -2
100
AcDbBlockReference
  2
_DOT
 10
209.8185710765626
 20
325.264991382444
 30
0.0
  0
MTEXT
  5
6286
330
627E
100
AcDbEntity
  8
MODEL
 62
     0
 48
0.05
100
AcDbMText
 10
196.9175835765626
 20
333.489991382444
 30
0.0
 40
6.0
 41
0.0
 46
0.0
 71
     5
 72
     1
  1
\A1;%%C26
  7
ＭＳ ゴシック
 73
     1
 44
1.0
  0
POINT
  5
6287
330
627E
100
AcDbEntity
  8
Defpoints
 62
     0
100
AcDbPoint
 10
184.0165960765626
 20
331.4861398949188
 30
0.0
  0
POINT
  5
6288
330
627E
100
AcDbEntity
  8
Defpoints
 62
     0
100
AcDbPoint
 10
209.8185710765626
 20
331.4861398949188
 30
0.0
  0
POINT
  5
6289
330
627E
100
AcDbEntity
  8
Defpoints
 62
     0
100
AcDbPoint
 10
209.8185710765626
 20
325.264991382444
 30
0.0
  0
ENDBLK
  5
6280
330
627E
100
AcDbEntity
  8
0
100
AcDbBlockEnd
  0
BLOCK
  5
629A
330
6299
100
AcDbEntity
  8
0
100
AcDbBlockBegin
  2
*D71
 70
     1
 10
0.0
 20
0.0
 30
0.0
  3
*D71
  1
*D71
  0
LINE
  5
629C
330
6299
100
AcDbEntity
  8
MODEL
 62
     0
 48
0.05
370
    -2
100
AcDbLine
 10
160.9175835765628
 20
127.5375362641911
 30
0.0
 11
160.9175835765628
 21
108.9358924964439
 31
0.0
  0
LINE
  5
629D
330
6299
100
AcDbEntity
  8
MODEL
 62
     0
 48
0.05
370
    -2
100
AcDbLine
 10
232.9175835765624
 20
127.5375362641911
 30
0.0
 11
232.9175835765624
 21
108.9358924964439
 31
0.0
  0
LINE
  5
629E
330
6299
100
AcDbEntity
  8
MODEL
 62
     0
 48
0.05
370
    -2
100
AcDbLine
 10
161.9175835765628
 20
108.9358924964439
 30
0.0
 11
231.9175835765624
 21
108.9358924964439
 31
0.0
  0
INSERT
  5
629F
330
6299
100
AcDbEntity
  8
MODEL
 62
     0
370
    -2
100
AcDbBlockReference
  2
_DOT
 10
160.9175835765628
 20
108.9358924964439
 30
0.0
 50
180.0
  0
INSERT
  5
62A0
330
6299
100
AcDbEntity
  8
MODEL
 62
     0
370
    -2
100
AcDbBlockReference
  2
_DOT
 10
232.9175835765624
 20
108.9358924964439
 30
0.0
  0
MTEXT
  5
62A1
330
6299
100
AcDbEntity
  8
MODEL
 62
     0
 48
0.05
100
AcDbMText
 10
196.9175835765626
 20
117.1608924964439
 30
0.0
 40
6.0
 41
0.0
 46
0.0
 71
     5
 72
     1
  1
\A1;%%c72
  7
ＭＳ ゴシック
 73
     1
 44
1.0
  0
POINT
  5
62A2
330
6299
100
AcDbEntity
  8
Defpoints
 62
     0
100
AcDbPoint
 10
160.9175835765628
 20
132.5375362641911
 30
0.0
  0
POINT
  5
62A3
330
6299
100
AcDbEntity
  8
Defpoints
 62
     0
100
AcDbPoint
 10
232.9175835765624
 20
132.5375362641911
 30
0.0
  0
POINT
  5
62A4
330
6299
100
AcDbEntity
  8
Defpoints
 62
     0
100
AcDbPoint
 10
232.9175835765624
 20
108.9358924964439
 30
0.0
  0
ENDBLK
  5
629B
330
6299
100
AcDbEntity
  8
0
100
AcDbBlockEnd
  0
ENDSEC
  0
SECTION
  2
ENTITIES
  0
MTEXT
  5
177
330
A
100
AcDbEntity
  8
TEMPLATE
390
1D
100
AcDbMText
 10
15.84042890954615
 20
68.74635032628565
 30
0.0
 40
3.257682291666665
 41
0.0
 46
0.0
 71
     1
 72
     1
  1
品名
  7
ＭＳ ゴシック
 73
     1
 44
0.7828267384257843
  0
MTEXT
  5
178
330
A
100
AcDbEntity
  8
TEMPLATE
390
1D
100
AcDbMText
 10
15.84042890954615
 20
51.7463503262856
 30
0.0
 40
3.257682291666665
 41
0.0
 46
0.0
 71
     1
 72
     1
  1
仕様
  7
ＭＳ ゴシック
 73
     1
 44
0.7828267384257843
  0
LINE
  5
179
330
A
100
AcDbEntity
  8
TEMPLATE
390
1D
100
AcDbLine
 10
404.4404289094496
 20
53.42933470128568
 30
0.0
 11
14.44042890944975
 21
53.42933470128568
 31
0.0
  0
LWPOLYLINE
  5
17A
330
A
100
AcDbEntity
  8
TEMPLATE
390
1D
100
AcDbPolyline
 90
        5
 70
   128
 43
0.0
 10
404.4404289094496
 20
579.4293347012853
 10
14.44042890944975
 20
579.4293347012853
 10
14.44042890944975
 20
19.42933470128565
 10
404.4404289094496
 20
19.42933470128565
 10
404.4404289094496
 20
579.4293347012853
  0
LINE
  5
17B
330
A
100
AcDbEntity
  8
TEMPLATE
390
1D
100
AcDbLine
 10
404.4404289094496
 20
70.42933470128564
 30
0.0
 11
14.44042890944975
 21
70.42933470128564
 31
0.0
  0
LINE
  5
17C
330
A
100
AcDbEntity
  8
TEMPLATE
390
1D
100
AcDbLine
 10
404.4404289095464
 20
36.42933470128565
 30
0.0
 11
253.840428909546
 21
36.42933470128565
 31
0.0
  0
MTEXT
  5
17E
330
A
100
AcDbEntity
  8
TEMPLATE
390
1D
100
AcDbMText
 10
259.8147101599982
 20
30.44725580662403
 30
0.0
 40
4.8865234375
 41
0.0
 46
0.0
 71
     1
 72
     1
  1
大洋金物株式会社 ティーフォルム事業部
  7
ＭＳ ゴシック
 73
     1
 44
0.7828267384257843
  0
MTEXT
  5
180
330
A
100
AcDbEntity
  8
TEMPLATE
390
1D
100
AcDbMText
 10
366.240428909598
 20
46.02985813878564
 30
0.0
 40
4.8865234375
 41
0.0
 46
4.8865234375
 71
     1
 72
     1
  1
{1:2}
  7
ＭＳ ゴシック
 73
     1
 44
0.7828267384257843
1001
ACAD
1000
ACAD_MTEXT_DEFINED_HEIGHT_BEGIN
1070
    46
1040
4.8865234375
1000
ACAD_MTEXT_DEFINED_HEIGHT_END
  0
MTEXT
  5
181
330
A
100
AcDbEntity
  8
TEMPLATE
390
1D
100
AcDbMText
 10
355.640428909598
 20
51.7463503262856
 30
0.0
 40
3.257682291666665
 41
0.0
 46
0.0
 71
     1
 72
     1
  1
縮尺
  7
ＭＳ ゴシック
 73
     1
 44
0.7828267384257843
  0
LINE
  5
182
330
A
100
AcDbEntity
  8
TEMPLATE
390
1D
100
AcDbLine
 10
354.240428909598
 20
36.42933470128565
 30
0.0
 11
354.240428909598
 21
53.42933470128568
 31
0.0
  0
MTEXT
  5
183
330
A
100
AcDbEntity
  8
TEMPLATE
390
1D
100
AcDbMText
 10
305.440428909598
 20
51.7463503262856
 30
0.0
 40
3.257682291666665
 41
0.0
 46
0.0
 71
     1
 72
     1
  1
容量
  7
ＭＳ ゴシック
 73
     1
 44
0.7828267384257843
  0
LINE
  5
184
330
A
100
AcDbEntity
  8
TEMPLATE
390
1D
100
AcDbLine
 10
304.040428909598
 20
36.42933470128565
 30
0.0
 11
304.040428909598
 21
53.42933470128568
 31
0.0
  0
MTEXT
  5
185
330
A
100
AcDbEntity
  8
TEMPLATE
390
1D
100
AcDbMText
 10
255.240428909598
 20
68.74635032628565
 30
0.0
 40
3.257682291666665
 41
0.0
 46
0.0
 71
     1
 72
     1
  1
品番
  7
ＭＳ ゴシック
 73
     1
 44
0.7828267384257843
  0
MTEXT
  5
186
330
A
100
AcDbEntity
  8
TEMPLATE
390
1D
100
AcDbMText
 10
255.240428909598
 20
51.7463503262856
 30
0.0
 40
3.257682291666665
 41
0.0
 46
0.0
 71
     1
 72
     1
  1
重量
  7
ＭＳ ゴシック
 73
     1
 44
0.7828267384257843
  0
MTEXT
  5
187
330
A
100
AcDbEntity
  8
TEMPLATE
390
1D
100
AcDbMText
 10
265.840428909598
 20
63.02985813878564
 30
0.0
 40
4.8865234375
 41
0.0
 46
4.8865234375
 71
     1
 72
     1
  1
{FLR74-1716}
  7
ＭＳ ゴシック
 73
     1
 44
0.7828267384257843
1001
ACAD
1000
ACAD_MTEXT_DEFINED_HEIGHT_BEGIN
1070
    46
1040
4.8865234375
1000
ACAD_MTEXT_DEFINED_HEIGHT_END
  0
LINE
  5
188
330
A
100
AcDbEntity
  8
TEMPLATE
390
1D
100
AcDbLine
 10
253.840428909598
 20
19.42933470128565
 30
0.0
 11
253.840428909598
 21
70.42933470128564
 31
0.0
  0
MTEXT
  5
189
330
A
100
AcDbEntity
  8
TEMPLATE
390
1D
100
AcDbMText
 10
26.44042890954615
 20
63.02985813878564
 30
0.0
 40
4.8865234375
 41
0.0
 46
5.5071119140625
 71
     1
 72
     1
  1
{ソープディスペンサー　-KEUCO,Plan-}
  7
ＭＳ ゴシック
 73
     1
 44
0.7828267384257843
1001
ACAD
1000
ACAD_MTEXT_DEFINED_HEIGHT_BEGIN
1070
    46
1040
5.5071119140625
1000
ACAD_MTEXT_DEFINED_HEIGHT_END
  0
INSERT
  5
6B5
330
A
100
AcDbEntity
  8
TEMPLATE
100
AcDbBlockReference
  2
名称未設定-1
 10
374.15014961769
 20
5.189353151330764
 30
0.0
 41
0.1524
 42
0.1524
 43
0.1524
  0
INSERT
  5
68C
330
A
100
AcDbEntity
  8
TEMPLATE
100
AcDbBlockReference
  2
block 2
 10
919.2743017702577
 20
8.373076514336368
 30
0.0
 41
0.3809999999999999
 42
0.3809999999999999
 43
0.3809999999999999
  0
LWPOLYLINE
  5
D69
330
A
100
AcDbEntity
  8
BORDER
 48
0.025
100
AcDbPolyline
 90
        4
 70
     1
 43
0.0
 10
0.0
 20
0.0
 10
0.0
 20
594.0
 10
420.0
 20
594.0
 10
420.0
 20
0.0
  0
INSERT
  5
1343
330
A
100
AcDbEntity
  8
TEMPLATE
100
AcDbBlockReference
  2
block 2
 10
2096.743470866468
 20
24.43532141229569
 30
0.0
 41
0.3809999999999999
 42
0.3809999999999999
 43
0.3809999999999999
  0
POINT
  5
3697
330
A
100
AcDbEntity
  8
Layer50
  6
HIDDEN2
 62
     7
100
AcDbPoint
 10
396.8678405503807
 20
449.3605456225488
 30
0.0
  0
POINT
  5
36AA
330
A
100
AcDbEntity
  8
Layer50
  6
HIDDEN2
 62
     7
100
AcDbPoint
 10
396.8678405503807
 20
469.8605456225488
 30
0.0
  0
POINT
  5
36B6
330
A
100
AcDbEntity
  8
Layer50
  6
HIDDEN2
 62
     7
100
AcDbPoint
 10
405.6628405503807
 20
460.6105456225488
 30
0.0
  0
POINT
  5
36BC
330
A
100
AcDbEntity
  8
Layer50
  6
HIDDEN2
 62
     7
100
AcDbPoint
 10
403.6628405503807
 20
460.6105456225488
 30
0.0
  0
MTEXT
  5
4530
102
{ACAD_XDICTIONARY
360
4532
102
}
330
A
100
AcDbEntity
  8
MODEL
 48
0.05
100
AcDbMText
 10
14.6329326238789
 20
17.30781899803597
 30
0.0
 40
4.0
 41
0.0
 46
4.0
 71
     1
 72
     1
  1
{20160825N}
  7
ＭＳ ゴシック
 73
     1
 44
1.0
1001
ACAD
1000
ACAD_MTEXT_DEFINED_HEIGHT_BEGIN
1070
    46
1040
4.0
1000
ACAD_MTEXT_DEFINED_HEIGHT_END
  0
MTEXT
  5
5E7E
330
A
100
AcDbEntity
  8
TEMPLATE
390
1D
100
AcDbMText
 10
265.840428909598
 20
86.00569071326636
 30
0.0
 40
4.8865234375
 41
0.0
 46
5.4582466796875
 71
     1
 72
     1
  1
{FLR74-1716-001(クローム)}
  7
ＭＳ ゴシック
 73
     1
 44
0.7828267384257843
1001
ACAD
1000
ACAD_MTEXT_DEFINED_HEIGHT_BEGIN
1070
    46
1040
5.4582466796875
1000
ACAD_MTEXT_DEFINED_HEIGHT_END
  0
MTEXT
  5
5E7F
330
A
100
AcDbEntity
  8
TEMPLATE
390
1D
100
AcDbMText
 10
265.840428909598
 20
78.05251789902303
 30
0.0
 40
4.8865234375
 41
0.0
 46
5.4582466796875
 71
     1
 72
     1
  1
{FLR74-1716-003(アルミシルバー)}
  7
ＭＳ ゴシック
 73
     1
 44
0.7828267384257843
1001
ACAD
1000
ACAD_MTEXT_DEFINED_HEIGHT_BEGIN
1070
    46
1040
5.4582466796875
1000
ACAD_MTEXT_DEFINED_HEIGHT_END
  0
LINE
  5
5FC3
330
A
100
AcDbEntity
  8
MODEL
100
AcDbLine
 10
184.9175835765626
 20
380.5514901582131
 30
0.0
 11
184.9175835765626
 21
365.851490158213
 31
0.0
  0
LINE
  5
5FC4
330
A
100
AcDbEntity
  8
MODEL
100
AcDbLine
 10
208.9175835765626
 20
365.851490158213
 30
0.0
 11
208.9175835765626
 21
380.5514901582131
 31
0.0
  0
LINE
  5
5FC5
330
A
100
AcDbEntity
  8
MODEL
100
AcDbLine
 10
182.9175835765626
 20
438.251490158213
 30
0.0
 11
183.3946215765626
 21
438.251490158213
 31
0.0
  0
LINE
  5
5FC6
330
A
100
AcDbEntity
  8
MODEL
100
AcDbLine
 10
183.3946215765626
 20
438.251490158213
 30
0.0
 11
182.9175835765626
 21
438.251490158213
 31
0.0
  0
LINE
  5
5FC7
330
A
100
AcDbEntity
  8
MODEL
100
AcDbLine
 10
184.7932275765627
 20
438.251490158213
 30
0.0
 11
183.3946215765626
 21
438.251490158213
 31
0.0
  0
LINE
  5
5FC8
330
A
100
AcDbEntity
  8
MODEL
100
AcDbLine
 10
187.0180885765626
 20
438.251490158213
 30
0.0
 11
184.7932275765627
 21
438.251490158213
 31
0.0
  0
LINE
  5
5FC9
330
A
100
AcDbEntity
  8
MODEL
100
AcDbLine
 10
189.9175835765626
 20
438.251490158213
 30
0.0
 11
187.0180885765626
 21
438.251490158213
 31
0.0
  0
LINE
  5
5FCA
330
A
100
AcDbEntity
  8
MODEL
100
AcDbLine
 10
193.2941165765626
 20
438.251490158213
 30
0.0
 11
189.9175835765626
 21
438.251490158213
 31
0.0
  0
LINE
  5
5FCB
330
A
100
AcDbEntity
  8
MODEL
100
AcDbLine
 10
196.9175835765626
 20
438.251490158213
 30
0.0
 11
193.2941165765626
 21
438.251490158213
 31
0.0
  0
LINE
  5
5FCC
330
A
100
AcDbEntity
  8
MODEL
100
AcDbLine
 10
200.5410505765626
 20
438.251490158213
 30
0.0
 11
196.9175835765626
 21
438.251490158213
 31
0.0
  0
LINE
  5
5FCD
330
A
100
AcDbEntity
  8
MODEL
100
AcDbLine
 10
203.9175835765626
 20
438.251490158213
 30
0.0
 11
200.5410505765626
 21
438.251490158213
 31
0.0
  0
LINE
  5
5FCE
330
A
100
AcDbEntity
  8
MODEL
100
AcDbLine
 10
206.8170785765626
 20
438.251490158213
 30
0.0
 11
203.9175835765626
 21
438.251490158213
 31
0.0
  0
LINE
  5
5FCF
330
A
100
AcDbEntity
  8
MODEL
100
AcDbLine
 10
209.0419395765626
 20
438.251490158213
 30
0.0
 11
206.8170785765626
 21
438.251490158213
 31
0.0
  0
LINE
  5
5FD0
330
A
100
AcDbEntity
  8
MODEL
100
AcDbLine
 10
210.4405455765626
 20
438.251490158213
 30
0.0
 11
209.0419395765626
 21
438.251490158213
 31
0.0
  0
LINE
  5
5FD1
330
A
100
AcDbEntity
  8
MODEL
100
AcDbLine
 10
210.9175835765626
 20
438.251490158213
 30
0.0
 11
210.4405455765626
 21
438.251490158213
 31
0.0
  0
LINE
  5
5FD2
330
A
100
AcDbEntity
  8
MODEL
100
AcDbLine
 10
210.4405455765626
 20
438.251490158213
 30
0.0
 11
210.9175835765626
 21
438.251490158213
 31
0.0
  0
LINE
  5
5FD3
330
A
100
AcDbEntity
  8
MODEL
100
AcDbLine
 10
183.3946215765626
 20
380.5514901582131
 30
0.0
 11
182.9175835765626
 21
380.5514901582131
 31
0.0
  0
LINE
  5
5FD4
330
A
100
AcDbEntity
  8
MODEL
100
AcDbLine
 10
184.7932275765627
 20
380.5514901582131
 30
0.0
 11
183.3946215765626
 21
380.5514901582131
 31
0.0
  0
LINE
  5
5FD5
330
A
100
AcDbEntity
  8
MODEL
100
AcDbLine
 10
187.0180885765626
 20
380.5514901582131
 30
0.0
 11
184.7932275765627
 21
380.5514901582131
 31
0.0
  0
LINE
  5
5FD6
330
A
100
AcDbEntity
  8
MODEL
100
AcDbLine
 10
189.9175835765626
 20
380.5514901582131
 30
0.0
 11
187.0180885765626
 21
380.5514901582131
 31
0.0
  0
LINE
  5
5FD7
330
A
100
AcDbEntity
  8
MODEL
100
AcDbLine
 10
193.2941165765626
 20
380.5514901582131
 30
0.0
 11
189.9175835765626
 21
380.5514901582131
 31
0.0
  0
LINE
  5
5FD8
330
A
100
AcDbEntity
  8
MODEL
100
AcDbLine
 10
196.9175835765626
 20
380.5514901582131
 30
0.0
 11
193.2941165765626
 21
380.5514901582131
 31
0.0
  0
LINE
  5
5FD9
330
A
100
AcDbEntity
  8
MODEL
100
AcDbLine
 10
200.5410505765626
 20
380.5514901582131
 30
0.0
 11
196.9175835765626
 21
380.5514901582131
 31
0.0
  0
LINE
  5
5FDA
330
A
100
AcDbEntity
  8
MODEL
100
AcDbLine
 10
203.9175835765626
 20
380.5514901582131
 30
0.0
 11
200.5410505765626
 21
380.5514901582131
 31
0.0
  0
LINE
  5
5FDB
330
A
100
AcDbEntity
  8
MODEL
100
AcDbLine
 10
206.8170785765626
 20
380.5514901582131
 30
0.0
 11
203.9175835765626
 21
380.5514901582131
 31
0.0
  0
LINE
  5
5FDC
330
A
100
AcDbEntity
  8
MODEL
100
AcDbLine
 10
209.0419395765626
 20
380.5514901582131
 30
0.0
 11
206.8170785765626
 21
380.5514901582131
 31
0.0
  0
LINE
  5
5FDD
330
A
100
AcDbEntity
  8
MODEL
100
AcDbLine
 10
210.4405455765626
 20
380.5514901582131
 30
0.0
 11
209.0419395765626
 21
380.5514901582131
 31
0.0
  0
LINE
  5
5FDE
330
A
100
AcDbEntity
  8
MODEL
100
AcDbLine
 10
210.9175835765626
 20
380.5514901582131
 30
0.0
 11
210.4405455765626
 21
380.5514901582131
 31
0.0
  0
LINE
  5
5FDF
330
A
100
AcDbEntity
  8
MODEL
100
AcDbLine
 10
182.9175835765626
 20
438.251490158213
 30
0.0
 11
182.9175835765626
 21
380.5514901582131
 31
0.0
  0
LINE
  5
5FE0
330
A
100
AcDbEntity
  8
MODEL
100
AcDbLine
 10
183.3946215765626
 20
438.251490158213
 30
0.0
 11
182.9175835765626
 21
438.251490158213
 31
0.0
  0
LINE
  5
5FE1
330
A
100
AcDbEntity
  8
MODEL
100
AcDbLine
 10
182.9175835765626
 20
380.5514901582131
 30
0.0
 11
183.3946215765626
 21
380.5514901582131
 31
0.0
  0
LINE
  5
5FE2
330
A
100
AcDbEntity
  8
MODEL
100
AcDbLine
 10
184.7932275765627
 20
438.251490158213
 30
0.0
 11
183.3946215765626
 21
438.251490158213
 31
0.0
  0
LINE
  5
5FE3
330
A
100
AcDbEntity
  8
MODEL
100
AcDbLine
 10
183.3946215765626
 20
380.5514901582131
 30
0.0
 11
184.7932275765627
 21
380.5514901582131
 31
0.0
  0
LINE
  5
5FE4
330
A
100
AcDbEntity
  8
MODEL
100
AcDbLine
 10
187.0180885765626
 20
438.251490158213
 30
0.0
 11
184.7932275765627
 21
438.251490158213
 31
0.0
  0
LINE
  5
5FE5
330
A
100
AcDbEntity
  8
MODEL
100
AcDbLine
 10
184.7932275765627
 20
380.5514901582131
 30
0.0
 11
187.0180885765626
 21
380.5514901582131
 31
0.0
  0
LINE
  5
5FE6
330
A
100
AcDbEntity
  8
MODEL
100
AcDbLine
 10
189.9175835765626
 20
438.251490158213
 30
0.0
 11
187.0180885765626
 21
438.251490158213
 31
0.0
  0
LINE
  5
5FE7
330
A
100
AcDbEntity
  8
MODEL
100
AcDbLine
 10
187.0180885765626
 20
380.5514901582131
 30
0.0
 11
189.9175835765626
 21
380.5514901582131
 31
0.0
  0
LINE
  5
5FE8
330
A
100
AcDbEntity
  8
MODEL
100
AcDbLine
 10
193.2941165765626
 20
438.251490158213
 30
0.0
 11
189.9175835765626
 21
438.251490158213
 31
0.0
  0
LINE
  5
5FE9
330
A
100
AcDbEntity
  8
MODEL
100
AcDbLine
 10
189.9175835765626
 20
380.5514901582131
 30
0.0
 11
193.2941165765626
 21
380.5514901582131
 31
0.0
  0
LINE
  5
5FEA
330
A
100
AcDbEntity
  8
MODEL
100
AcDbLine
 10
196.9175835765626
 20
438.251490158213
 30
0.0
 11
193.2941165765626
 21
438.251490158213
 31
0.0
  0
LINE
  5
5FEB
330
A
100
AcDbEntity
  8
MODEL
100
AcDbLine
 10
193.2941165765626
 20
380.5514901582131
 30
0.0
 11
196.9175835765626
 21
380.5514901582131
 31
0.0
  0
LINE
  5
5FEC
330
A
100
AcDbEntity
  8
MODEL
100
AcDbLine
 10
200.5410505765626
 20
438.251490158213
 30
0.0
 11
196.9175835765626
 21
438.251490158213
 31
0.0
  0
LINE
  5
5FED
330
A
100
AcDbEntity
  8
MODEL
100
AcDbLine
 10
196.9175835765626
 20
380.5514901582131
 30
0.0
 11
200.5410505765626
 21
380.5514901582131
 31
0.0
  0
LINE
  5
5FEE
330
A
100
AcDbEntity
  8
MODEL
100
AcDbLine
 10
203.9175835765626
 20
438.251490158213
 30
0.0
 11
200.5410505765626
 21
438.251490158213
 31
0.0
  0
LINE
  5
5FEF
330
A
100
AcDbEntity
  8
MODEL
100
AcDbLine
 10
200.5410505765626
 20
380.5514901582131
 30
0.0
 11
203.9175835765626
 21
380.5514901582131
 31
0.0
  0
LINE
  5
5FF0
330
A
100
AcDbEntity
  8
MODEL
100
AcDbLine
 10
206.8170785765626
 20
438.251490158213
 30
0.0
 11
203.9175835765626
 21
438.251490158213
 31
0.0
  0
LINE
  5
5FF1
330
A
100
AcDbEntity
  8
MODEL
100
AcDbLine
 10
203.9175835765626
 20
380.5514901582131
 30
0.0
 11
206.8170785765626
 21
380.5514901582131
 31
0.0
  0
LINE
  5
5FF2
330
A
100
AcDbEntity
  8
MODEL
100
AcDbLine
 10
209.0419395765626
 20
438.251490158213
 30
0.0
 11
206.8170785765626
 21
438.251490158213
 31
0.0
  0
LINE
  5
5FF3
330
A
100
AcDbEntity
  8
MODEL
100
AcDbLine
 10
206.8170785765626
 20
380.5514901582131
 30
0.0
 11
209.0419395765626
 21
380.5514901582131
 31
0.0
  0
LINE
  5
5FF4
330
A
100
AcDbEntity
  8
MODEL
100
AcDbLine
 10
210.4405455765626
 20
438.251490158213
 30
0.0
 11
209.0419395765626
 21
438.251490158213
 31
0.0
  0
LINE
  5
5FF5
330
A
100
AcDbEntity
  8
MODEL
100
AcDbLine
 10
209.0419395765626
 20
380.5514901582131
 30
0.0
 11
210.4405455765626
 21
380.5514901582131
 31
0.0
  0
LINE
  5
5FF6
330
A
100
AcDbEntity
  8
MODEL
100
AcDbLine
 10
210.9175835765626
 20
438.251490158213
 30
0.0
 11
210.4405455765626
 21
438.251490158213
 31
0.0
  0
LINE
  5
5FF7
330
A
100
AcDbEntity
  8
MODEL
100
AcDbLine
 10
210.9175835765626
 20
380.5514901582131
 30
0.0
 11
210.9175835765626
 21
428.251490158213
 31
0.0
  0
LINE
  5
5FF8
330
A
100
AcDbEntity
  8
MODEL
100
AcDbLine
 10
210.9175835765626
 20
436.251490158213
 30
0.0
 11
210.9175835765626
 21
438.251490158213
 31
0.0
  0
LINE
  5
5FF9
330
A
100
AcDbEntity
  8
MODEL
100
AcDbLine
 10
210.4405455765626
 20
380.5514901582131
 30
0.0
 11
210.9175835765626
 21
380.5514901582131
 31
0.0
  0
LINE
  5
5FFA
330
A
100
AcDbEntity
  8
MODEL
100
AcDbLine
 10
183.3823075765627
 20
439.251490158213
 30
0.0
 11
183.3823075765627
 21
438.251490158213
 31
0.0
  0
LINE
  5
5FFB
330
A
100
AcDbEntity
  8
MODEL
100
AcDbLine
 10
183.3823075765627
 20
438.251490158213
 30
0.0
 11
183.8435105765626
 21
438.251490158213
 31
0.0
  0
LINE
  5
5FFC
330
A
100
AcDbEntity
  8
MODEL
100
AcDbLine
 10
183.8435105765626
 20
438.251490158213
 30
0.0
 11
185.1956905765626
 21
438.251490158213
 31
0.0
  0
LINE
  5
5FFD
330
A
100
AcDbEntity
  8
MODEL
100
AcDbLine
 10
185.1956905765626
 20
438.251490158213
 30
0.0
 11
187.3466975765626
 21
438.251490158213
 31
0.0
  0
LINE
  5
5FFE
330
A
100
AcDbEntity
  8
MODEL
100
AcDbLine
 10
187.3466975765626
 20
438.251490158213
 30
0.0
 11
190.1499455765626
 21
438.251490158213
 31
0.0
  0
LINE
  5
5FFF
330
A
100
AcDbEntity
  8
MODEL
100
AcDbLine
 10
190.1499455765626
 20
438.251490158213
 30
0.0
 11
193.4143965765626
 21
438.251490158213
 31
0.0
  0
LINE
  5
6000
330
A
100
AcDbEntity
  8
MODEL
100
AcDbLine
 10
193.4143965765626
 20
438.251490158213
 30
0.0
 11
196.9175835765626
 21
438.251490158213
 31
0.0
  0
LINE
  5
6001
330
A
100
AcDbEntity
  8
MODEL
100
AcDbLine
 10
196.9175835765626
 20
438.251490158213
 30
0.0
 11
200.4207705765626
 21
438.251490158213
 31
0.0
  0
LINE
  5
6002
330
A
100
AcDbEntity
  8
MODEL
100
AcDbLine
 10
200.4207705765626
 20
438.251490158213
 30
0.0
 11
203.6852215765626
 21
438.251490158213
 31
0.0
  0
LINE
  5
6003
330
A
100
AcDbEntity
  8
MODEL
100
AcDbLine
 10
203.6852215765626
 20
438.251490158213
 30
0.0
 11
206.4884695765626
 21
438.251490158213
 31
0.0
  0
LINE
  5
6004
330
A
100
AcDbEntity
  8
MODEL
100
AcDbLine
 10
206.4884695765626
 20
438.251490158213
 30
0.0
 11
208.6394765765626
 21
438.251490158213
 31
0.0
  0
LINE
  5
6005
330
A
100
AcDbEntity
  8
MODEL
100
AcDbLine
 10
208.6394765765626
 20
438.251490158213
 30
0.0
 11
209.9916565765626
 21
438.251490158213
 31
0.0
  0
LINE
  5
6006
330
A
100
AcDbEntity
  8
MODEL
100
AcDbLine
 10
210.4528595765627
 20
438.251490158213
 30
0.0
 11
210.4528595765627
 21
439.251490158213
 31
0.0
  0
LINE
  5
6007
330
A
100
AcDbEntity
  8
MODEL
100
AcDbLine
 10
209.9916565765626
 20
438.251490158213
 30
0.0
 11
210.4528595765627
 21
438.251490158213
 31
0.0
  0
LINE
  5
6008
330
A
100
AcDbEntity
  8
MODEL
100
AcDbLine
 10
183.3946215765626
 20
439.251490158213
 30
0.0
 11
182.9175835765626
 21
439.251490158213
 31
0.0
  0
LINE
  5
6009
330
A
100
AcDbEntity
  8
MODEL
100
AcDbLine
 10
184.7932275765627
 20
439.251490158213
 30
0.0
 11
183.3946215765626
 21
439.251490158213
 31
0.0
  0
LINE
  5
600A
330
A
100
AcDbEntity
  8
MODEL
100
AcDbLine
 10
187.0180885765626
 20
439.251490158213
 30
0.0
 11
184.7932275765627
 21
439.251490158213
 31
0.0
  0
LINE
  5
600B
330
A
100
AcDbEntity
  8
MODEL
100
AcDbLine
 10
189.9175835765626
 20
439.251490158213
 30
0.0
 11
187.0180885765626
 21
439.251490158213
 31
0.0
  0
LINE
  5
600C
330
A
100
AcDbEntity
  8
MODEL
100
AcDbLine
 10
193.2941165765626
 20
439.251490158213
 30
0.0
 11
189.9175835765626
 21
439.251490158213
 31
0.0
  0
LINE
  5
600D
330
A
100
AcDbEntity
  8
MODEL
100
AcDbLine
 10
196.9175835765626
 20
439.251490158213
 30
0.0
 11
193.2941165765626
 21
439.251490158213
 31
0.0
  0
LINE
  5
600E
330
A
100
AcDbEntity
  8
MODEL
100
AcDbLine
 10
200.5410505765626
 20
439.251490158213
 30
0.0
 11
196.9175835765626
 21
439.251490158213
 31
0.0
  0
LINE
  5
600F
330
A
100
AcDbEntity
  8
MODEL
100
AcDbLine
 10
203.9175835765626
 20
439.251490158213
 30
0.0
 11
200.5410505765626
 21
439.251490158213
 31
0.0
  0
LINE
  5
6010
330
A
100
AcDbEntity
  8
MODEL
100
AcDbLine
 10
206.8170785765626
 20
439.251490158213
 30
0.0
 11
203.9175835765626
 21
439.251490158213
 31
0.0
  0
LINE
  5
6011
330
A
100
AcDbEntity
  8
MODEL
100
AcDbLine
 10
209.0419395765626
 20
439.251490158213
 30
0.0
 11
206.8170785765626
 21
439.251490158213
 31
0.0
  0
LINE
  5
6012
330
A
100
AcDbEntity
  8
MODEL
100
AcDbLine
 10
210.4405455765626
 20
439.251490158213
 30
0.0
 11
209.0419395765626
 21
439.251490158213
 31
0.0
  0
LINE
  5
6013
330
A
100
AcDbEntity
  8
MODEL
100
AcDbLine
 10
210.9175835765626
 20
439.251490158213
 30
0.0
 11
210.4405455765626
 21
439.251490158213
 31
0.0
  0
LINE
  5
6014
330
A
100
AcDbEntity
  8
MODEL
100
AcDbLine
 10
182.9175835765626
 20
447.251490158213
 30
0.0
 11
182.9175835765626
 21
439.251490158213
 31
0.0
  0
LINE
  5
6015
330
A
100
AcDbEntity
  8
MODEL
100
AcDbLine
 10
183.3946215765626
 20
447.251490158213
 30
0.0
 11
182.9175835765626
 21
447.251490158213
 31
0.0
  0
LINE
  5
6016
330
A
100
AcDbEntity
  8
MODEL
100
AcDbLine
 10
182.9175835765626
 20
439.251490158213
 30
0.0
 11
183.3946215765626
 21
439.251490158213
 31
0.0
  0
LINE
  5
6017
330
A
100
AcDbEntity
  8
MODEL
100
AcDbLine
 10
184.7932275765627
 20
447.251490158213
 30
0.0
 11
183.3946215765626
 21
447.251490158213
 31
0.0
  0
LINE
  5
6018
330
A
100
AcDbEntity
  8
MODEL
100
AcDbLine
 10
183.3946215765626
 20
439.251490158213
 30
0.0
 11
184.7932275765627
 21
439.251490158213
 31
0.0
  0
LINE
  5
6019
330
A
100
AcDbEntity
  8
MODEL
100
AcDbLine
 10
187.0180885765626
 20
447.251490158213
 30
0.0
 11
184.7932275765627
 21
447.251490158213
 31
0.0
  0
LINE
  5
601A
330
A
100
AcDbEntity
  8
MODEL
100
AcDbLine
 10
184.7932275765627
 20
439.251490158213
 30
0.0
 11
187.0180885765626
 21
439.251490158213
 31
0.0
  0
LINE
  5
601B
330
A
100
AcDbEntity
  8
MODEL
100
AcDbLine
 10
189.9175835765626
 20
447.251490158213
 30
0.0
 11
187.0180885765626
 21
447.251490158213
 31
0.0
  0
LINE
  5
601C
330
A
100
AcDbEntity
  8
MODEL
100
AcDbLine
 10
187.0180885765626
 20
439.251490158213
 30
0.0
 11
189.9175835765626
 21
439.251490158213
 31
0.0
  0
LINE
  5
601D
330
A
100
AcDbEntity
  8
MODEL
100
AcDbLine
 10
193.2941165765626
 20
447.251490158213
 30
0.0
 11
189.9175835765626
 21
447.251490158213
 31
0.0
  0
LINE
  5
601E
330
A
100
AcDbEntity
  8
MODEL
100
AcDbLine
 10
189.9175835765626
 20
439.251490158213
 30
0.0
 11
193.2941165765626
 21
439.251490158213
 31
0.0
  0
LINE
  5
601F
330
A
100
AcDbEntity
  8
MODEL
100
AcDbLine
 10
196.9175835765626
 20
447.251490158213
 30
0.0
 11
193.2941165765626
 21
447.251490158213
 31
0.0
  0
LINE
  5
6020
330
A
100
AcDbEntity
  8
MODEL
100
AcDbLine
 10
193.2941165765626
 20
439.251490158213
 30
0.0
 11
196.9175835765626
 21
439.251490158213
 31
0.0
  0
LINE
  5
6021
330
A
100
AcDbEntity
  8
MODEL
100
AcDbLine
 10
200.5410505765626
 20
447.251490158213
 30
0.0
 11
196.9175835765626
 21
447.251490158213
 31
0.0
  0
LINE
  5
6022
330
A
100
AcDbEntity
  8
MODEL
100
AcDbLine
 10
196.9175835765626
 20
439.251490158213
 30
0.0
 11
200.5410505765626
 21
439.251490158213
 31
0.0
  0
LINE
  5
6023
330
A
100
AcDbEntity
  8
MODEL
100
AcDbLine
 10
203.9175835765626
 20
447.251490158213
 30
0.0
 11
200.5410505765626
 21
447.251490158213
 31
0.0
  0
LINE
  5
6024
330
A
100
AcDbEntity
  8
MODEL
100
AcDbLine
 10
200.5410505765626
 20
439.251490158213
 30
0.0
 11
203.9175835765626
 21
439.251490158213
 31
0.0
  0
LINE
  5
6025
330
A
100
AcDbEntity
  8
MODEL
100
AcDbLine
 10
206.8170785765626
 20
447.251490158213
 30
0.0
 11
203.9175835765626
 21
447.251490158213
 31
0.0
  0
LINE
  5
6026
330
A
100
AcDbEntity
  8
MODEL
100
AcDbLine
 10
203.9175835765626
 20
439.251490158213
 30
0.0
 11
206.8170785765626
 21
439.251490158213
 31
0.0
  0
LINE
  5
6027
330
A
100
AcDbEntity
  8
MODEL
100
AcDbLine
 10
209.0419395765626
 20
447.251490158213
 30
0.0
 11
206.8170785765626
 21
447.251490158213
 31
0.0
  0
LINE
  5
6028
330
A
100
AcDbEntity
  8
MODEL
100
AcDbLine
 10
206.8170785765626
 20
439.251490158213
 30
0.0
 11
209.0419395765626
 21
439.251490158213
 31
0.0
  0
LINE
  5
6029
330
A
100
AcDbEntity
  8
MODEL
100
AcDbLine
 10
210.4405455765626
 20
447.251490158213
 30
0.0
 11
209.0419395765626
 21
447.251490158213
 31
0.0
  0
LINE
  5
602A
330
A
100
AcDbEntity
  8
MODEL
100
AcDbLine
 10
209.0419395765626
 20
439.251490158213
 30
0.0
 11
210.4405455765626
 21
439.251490158213
 31
0.0
  0
LINE
  5
602B
330
A
100
AcDbEntity
  8
MODEL
100
AcDbLine
 10
210.9175835765626
 20
447.251490158213
 30
0.0
 11
210.4405455765626
 21
447.251490158213
 31
0.0
  0
LINE
  5
602C
330
A
100
AcDbEntity
  8
MODEL
100
AcDbLine
 10
210.9175835765626
 20
439.251490158213
 30
0.0
 11
210.9175835765626
 21
447.251490158213
 31
0.0
  0
LINE
  5
602D
330
A
100
AcDbEntity
  8
MODEL
100
AcDbLine
 10
210.4405455765626
 20
439.251490158213
 30
0.0
 11
210.9175835765626
 21
439.251490158213
 31
0.0
  0
LINE
  5
602E
330
A
100
AcDbEntity
  8
MODEL
100
AcDbLine
 10
210.6149945765626
 20
447.5514901582131
 30
0.0
 11
210.1482665765626
 21
447.5514901582131
 31
0.0
  0
LINE
  5
602F
330
A
100
AcDbEntity
  8
MODEL
100
AcDbLine
 10
210.9175835765626
 20
447.251490158213
 30
0.0
 11
210.6149945765626
 21
447.5514901582131
 31
0.0
  0
LINE
  5
6030
330
A
100
AcDbEntity
  8
MODEL
100
AcDbLine
 10
210.4405455765626
 20
447.251490158213
 30
0.0
 11
210.9175835765626
 21
447.251490158213
 31
0.0
  0
LINE
  5
6031
330
A
100
AcDbEntity
  8
MODEL
100
AcDbLine
 10
210.1482665765626
 20
447.5514901582131
 30
0.0
 11
208.7798895765626
 21
447.5514901582131
 31
0.0
  0
LINE
  5
6032
330
A
100
AcDbEntity
  8
MODEL
100
AcDbLine
 10
209.0419395765626
 20
447.251490158213
 30
0.0
 11
210.4405455765626
 21
447.251490158213
 31
0.0
  0
LINE
  5
6033
330
A
100
AcDbEntity
  8
MODEL
100
AcDbLine
 10
208.7798895765626
 20
447.5514901582131
 30
0.0
 11
206.6031155765627
 21
447.5514901582131
 31
0.0
  0
LINE
  5
6034
330
A
100
AcDbEntity
  8
MODEL
100
AcDbLine
 10
206.8170785765626
 20
447.251490158213
 30
0.0
 11
209.0419395765626
 21
447.251490158213
 31
0.0
  0
LINE
  5
6035
330
A
100
AcDbEntity
  8
MODEL
100
AcDbLine
 10
206.6031155765627
 20
447.5514901582131
 30
0.0
 11
203.7662895765626
 21
447.5514901582131
 31
0.0
  0
LINE
  5
6036
330
A
100
AcDbEntity
  8
MODEL
100
AcDbLine
 10
203.9175835765626
 20
447.251490158213
 30
0.0
 11
206.8170785765626
 21
447.251490158213
 31
0.0
  0
LINE
  5
6037
330
A
100
AcDbEntity
  8
MODEL
100
AcDbLine
 10
203.7662895765626
 20
447.5514901582131
 30
0.0
 11
200.4627345765626
 21
447.5514901582131
 31
0.0
  0
LINE
  5
6038
330
A
100
AcDbEntity
  8
MODEL
100
AcDbLine
 10
200.5410505765626
 20
447.251490158213
 30
0.0
 11
203.9175835765626
 21
447.251490158213
 31
0.0
  0
LINE
  5
6039
330
A
100
AcDbEntity
  8
MODEL
100
AcDbLine
 10
200.4627345765626
 20
447.5514901582131
 30
0.0
 11
196.9175835765626
 21
447.5514901582131
 31
0.0
  0
LINE
  5
603A
330
A
100
AcDbEntity
  8
MODEL
100
AcDbLine
 10
196.9175835765626
 20
447.251490158213
 30
0.0
 11
200.5410505765626
 21
447.251490158213
 31
0.0
  0
LINE
  5
603B
330
A
100
AcDbEntity
  8
MODEL
100
AcDbLine
 10
196.9175835765626
 20
447.5514901582131
 30
0.0
 11
193.3724325765626
 21
447.5514901582131
 31
0.0
  0
LINE
  5
603C
330
A
100
AcDbEntity
  8
MODEL
100
AcDbLine
 10
193.2941165765626
 20
447.251490158213
 30
0.0
 11
196.9175835765626
 21
447.251490158213
 31
0.0
  0
LINE
  5
603D
330
A
100
AcDbEntity
  8
MODEL
100
AcDbLine
 10
193.3724325765626
 20
447.5514901582131
 30
0.0
 11
190.0688775765626
 21
447.5514901582131
 31
0.0
  0
LINE
  5
603E
330
A
100
AcDbEntity
  8
MODEL
100
AcDbLine
 10
189.9175835765626
 20
447.251490158213
 30
0.0
 11
193.2941165765626
 21
447.251490158213
 31
0.0
  0
LINE
  5
603F
102
{ACAD_REACTORS
102
}
330
A
100
AcDbEntity
  8
MODEL
100
AcDbLine
 10
190.0688775765626
 20
447.5514901582131
 30
0.0
 11
187.2320515765626
 21
447.5514901582131
 31
0.0
  0
LINE
  5
6040
330
A
100
AcDbEntity
  8
MODEL
100
AcDbLine
 10
187.0180885765626
 20
447.251490158213
 30
0.0
 11
189.9175835765626
 21
447.251490158213
 31
0.0
  0
LINE
  5
6041
330
A
100
AcDbEntity
  8
MODEL
100
AcDbLine
 10
187.2320515765626
 20
447.5514901582131
 30
0.0
 11
185.0552775765626
 21
447.5514901582131
 31
0.0
  0
LINE
  5
6042
330
A
100
AcDbEntity
  8
MODEL
100
AcDbLine
 10
184.7932275765627
 20
447.251490158213
 30
0.0
 11
187.0180885765626
 21
447.251490158213
 31
0.0
  0
LINE
  5
6043
330
A
100
AcDbEntity
  8
MODEL
100
AcDbLine
 10
185.0552775765626
 20
447.5514901582131
 30
0.0
 11
183.6869005765626
 21
447.5514901582131
 31
0.0
  0
LINE
  5
6044
330
A
100
AcDbEntity
  8
MODEL
100
AcDbLine
 10
183.3946215765626
 20
447.251490158213
 30
0.0
 11
184.7932275765627
 21
447.251490158213
 31
0.0
  0
LINE
  5
6045
330
A
100
AcDbEntity
  8
MODEL
100
AcDbLine
 10
183.2201725765626
 20
447.5514901582131
 30
0.0
 11
182.9175835765626
 21
447.251490158213
 31
0.0
  0
LINE
  5
6046
330
A
100
AcDbEntity
  8
MODEL
100
AcDbLine
 10
183.6869005765626
 20
447.5514901582131
 30
0.0
 11
183.2201725765626
 21
447.5514901582131
 31
0.0
  0
LINE
  5
6047
330
A
100
AcDbEntity
  8
MODEL
100
AcDbLine
 10
182.9175835765626
 20
447.251490158213
 30
0.0
 11
183.3946215765626
 21
447.251490158213
 31
0.0
  0
LINE
  5
6048
330
A
100
AcDbEntity
  8
MODEL
100
AcDbLine
 10
268.9175835765626
 20
425.844510158213
 30
0.0
 11
267.1118625765627
 21
426.704377158213
 31
0.0
  0
LINE
  5
6049
102
{ACAD_REACTORS
102
}
330
A
100
AcDbEntity
  8
MODEL
100
AcDbLine
 10
268.4138845765626
 20
424.786743158213
 30
0.0
 11
268.9175835765626
 21
425.844510158213
 31
0.0
  0
LINE
  5
604A
330
A
100
AcDbEntity
  8
MODEL
100
AcDbLine
 10
267.1118625765627
 20
426.704377158213
 30
0.0
 11
266.6081635765627
 21
425.646610158213
 31
0.0
  0
LINE
  5
604B
330
A
100
AcDbEntity
  8
MODEL
100
AcDbLine
 10
267.1978495765626
 20
422.233068158213
 30
0.0
 11
268.4138845765626
 21
424.786743158213
 31
0.0
  0
LINE
  5
604C
330
A
100
AcDbEntity
  8
MODEL
100
AcDbLine
 10
266.6081635765627
 20
425.646610158213
 30
0.0
 11
265.3921285765626
 21
423.092935158213
 31
0.0
  0
LINE
  5
604D
330
A
100
AcDbEntity
  8
MODEL
100
AcDbLine
 10
265.9818135765627
 20
419.679393158213
 30
0.0
 11
267.1978495765626
 21
422.233068158213
 31
0.0
  0
LINE
  5
604E
330
A
100
AcDbEntity
  8
MODEL
100
AcDbLine
 10
265.3921285765626
 20
423.092935158213
 30
0.0
 11
264.1760925765626
 21
420.539260158213
 31
0.0
  0
LINE
  5
604F
330
A
100
AcDbEntity
  8
MODEL
100
AcDbLine
 10
265.4781145765627
 20
418.621626158213
 30
0.0
 11
265.9818135765627
 21
419.679393158213
 31
0.0
  0
LINE
  5
6050
330
A
100
AcDbEntity
  8
MODEL
100
AcDbLine
 10
263.6723935765626
 20
419.481493158213
 30
0.0
 11
265.4781145765627
 21
418.621626158213
 31
0.0
  0
LINE
  5
6051
330
A
100
AcDbEntity
  8
MODEL
100
AcDbLine
 10
264.1760925765626
 20
420.539260158213
 30
0.0
 11
263.6723935765626
 21
419.481493158213
 31
0.0
  0
LINE
  5
6052
330
A
100
AcDbEntity
  8
MODEL
100
AcDbLine
 10
266.9066295765626
 20
426.6222801582131
 30
0.0
 11
266.8410045765626
 21
426.833357158213
 31
0.0
  0
LINE
  5
6053
330
A
100
AcDbEntity
  8
MODEL
100
AcDbLine
 10
266.8410045765626
 20
426.833357158213
 30
0.0
 11
266.3373055765627
 21
425.775590158213
 31
0.0
  0
LINE
  5
6054
330
A
100
AcDbEntity
  8
MODEL
100
AcDbLine
 10
266.3373055765627
 20
425.775590158213
 30
0.0
 11
265.1212695765627
 21
423.221915158213
 31
0.0
  0
LINE
  5
6055
330
A
100
AcDbEntity
  8
MODEL
100
AcDbLine
 10
265.1212695765627
 20
423.221915158213
 30
0.0
 11
263.9052345765626
 21
420.668240158213
 31
0.0
  0
LINE
  5
6056
330
A
100
AcDbEntity
  8
MODEL
100
AcDbLine
 10
263.4015355765627
 20
419.6104731582131
 30
0.0
 11
263.6067685765627
 21
419.6925701582131
 31
0.0
  0
LINE
  5
6057
330
A
100
AcDbEntity
  8
MODEL
100
AcDbLine
 10
263.9052345765626
 20
420.668240158213
 30
0.0
 11
263.4015355765627
 21
419.6104731582131
 31
0.0
  0
LINE
  5
6058
330
A
100
AcDbEntity
  8
MODEL
100
AcDbLine
 10
263.6723935765626
 20
419.481493158213
 30
0.0
 11
264.1760925765626
 21
420.539260158213
 31
0.0
  0
LINE
  5
6059
330
A
100
AcDbEntity
  8
MODEL
100
AcDbLine
 10
263.6067685765627
 20
419.6925701582131
 30
0.0
 11
263.6723935765626
 21
419.481493158213
 31
0.0
  0
LINE
  5
605A
330
A
100
AcDbEntity
  8
MODEL
100
AcDbLine
 10
264.1760925765626
 20
420.539260158213
 30
0.0
 11
265.3921285765626
 21
423.092935158213
 31
0.0
  0
LINE
  5
605B
330
A
100
AcDbEntity
  8
MODEL
100
AcDbLine
 10
265.3921285765626
 20
423.092935158213
 30
0.0
 11
266.6081635765627
 21
425.646610158213
 31
0.0
  0
LINE
  5
605C
330
A
100
AcDbEntity
  8
MODEL
100
AcDbLine
 10
267.1118625765627
 20
426.704377158213
 30
0.0
 11
266.9066295765626
 21
426.6222801582131
 31
0.0
  0
LINE
  5
605D
330
A
100
AcDbEntity
  8
MODEL
100
AcDbLine
 10
266.6081635765627
 20
425.646610158213
 30
0.0
 11
267.1118625765627
 21
426.704377158213
 31
0.0
  0
LINE
  5
605E
330
A
100
AcDbEntity
  8
MODEL
100
AcDbLine
 10
244.1221945765626
 20
436.251490158213
 30
0.0
 11
210.9175835765626
 21
436.251490158213
 31
0.0
  0
LINE
  5
605F
330
A
100
AcDbEntity
  8
MODEL
100
AcDbLine
 10
210.9175835765626
 20
428.251490158213
 30
0.0
 11
243.6773175765626
 21
428.251490158213
 31
0.0
  0
LINE
  5
6060
330
A
100
AcDbEntity
  8
MODEL
100
AcDbLine
 10
246.9906215765626
 20
435.931476158213
 30
0.0
 11
244.1221945765626
 21
436.251490158213
 31
0.0
  0
LINE
  5
6061
330
A
100
AcDbEntity
  8
MODEL
100
AcDbLine
 10
243.6773175765626
 20
428.251490158213
 30
0.0
 11
245.2165995765627
 21
428.0797611582131
 31
0.0
  0
LINE
  5
6062
330
A
100
AcDbEntity
  8
MODEL
100
AcDbLine
 10
249.7179955765627
 20
434.987171158213
 30
0.0
 11
246.9906215765626
 21
435.931476158213
 31
0.0
  0
LINE
  5
6063
330
A
100
AcDbEntity
  8
MODEL
100
AcDbLine
 10
245.2165995765627
 20
428.0797611582131
 30
0.0
 11
246.6801885765626
 21
427.5730191582131
 31
0.0
  0
LINE
  5
6064
330
A
100
AcDbEntity
  8
MODEL
100
AcDbLine
 10
266.8410045765626
 20
426.833357158213
 30
0.0
 11
249.7179955765627
 21
434.987171158213
 31
0.0
  0
LINE
  5
6065
330
A
100
AcDbEntity
  8
MODEL
100
AcDbLine
 10
266.3373055765627
 20
425.775590158213
 30
0.0
 11
266.8410045765626
 21
426.833357158213
 31
0.0
  0
LINE
  5
6066
330
A
100
AcDbEntity
  8
MODEL
100
AcDbLine
 10
265.1212695765627
 20
423.221915158213
 30
0.0
 11
266.3373055765627
 21
425.775590158213
 31
0.0
  0
LINE
  5
6067
330
A
100
AcDbEntity
  8
MODEL
100
AcDbLine
 10
263.9052345765626
 20
420.668240158213
 30
0.0
 11
265.1212695765627
 21
423.221915158213
 31
0.0
  0
LINE
  5
6068
330
A
100
AcDbEntity
  8
MODEL
100
AcDbLine
 10
263.4015355765627
 20
419.6104731582131
 30
0.0
 11
263.9052345765626
 21
420.668240158213
 31
0.0
  0
LINE
  5
6069
330
A
100
AcDbEntity
  8
MODEL
100
AcDbLine
 10
246.6801885765626
 20
427.5730191582131
 30
0.0
 11
263.4015355765627
 21
419.6104731582131
 31
0.0
  0
LINE
  5
606A
330
A
100
AcDbEntity
  8
MODEL
100
AcDbLine
 10
169.9459885765626
 20
355.5514901582131
 30
0.0
 11
169.4175835765626
 21
355.5514901582131
 31
0.0
  0
LINE
  5
606B
330
A
100
AcDbEntity
  8
MODEL
100
AcDbLine
 10
171.5108965765627
 20
355.5514901582131
 30
0.0
 11
169.9459885765626
 21
355.5514901582131
 31
0.0
  0
LINE
  5
606C
330
A
100
AcDbEntity
  8
MODEL
100
AcDbLine
 10
174.0521695765626
 20
355.5514901582131
 30
0.0
 11
171.5108965765627
 21
355.5514901582131
 31
0.0
  0
LINE
  5
606D
330
A
100
AcDbEntity
  8
MODEL
100
AcDbLine
 10
177.4721475765626
 20
355.5514901582131
 30
0.0
 11
174.0521695765626
 21
355.5514901582131
 31
0.0
  0
LINE
  5
606E
330
A
100
AcDbEntity
  8
MODEL
100
AcDbLine
 10
181.6394025765626
 20
355.5514901582131
 30
0.0
 11
177.4721475765626
 21
355.5514901582131
 31
0.0
  0
LINE
  5
606F
330
A
100
AcDbEntity
  8
MODEL
100
AcDbLine
 10
186.3937895765627
 20
355.5514901582131
 30
0.0
 11
181.6394025765626
 21
355.5514901582131
 31
0.0
  0
LINE
  5
6070
102
{ACAD_REACTORS
102
}
330
A
100
AcDbEntity
  8
MODEL
100
AcDbLine
 10
191.5525995765627
 20
355.5514901582131
 30
0.0
 11
186.3937895765627
 21
355.5514901582131
 31
0.0
  0
LINE
  5
6071
330
A
100
AcDbEntity
  8
MODEL
100
AcDbLine
 10
196.9175835765626
 20
355.5514901582131
 30
0.0
 11
191.5525995765627
 21
355.5514901582131
 31
0.0
  0
LINE
  5
6072
330
A
100
AcDbEntity
  8
MODEL
100
AcDbLine
 10
202.2825675765627
 20
355.5514901582131
 30
0.0
 11
196.9175835765626
 21
355.5514901582131
 31
0.0
  0
LINE
  5
6073
330
A
100
AcDbEntity
  8
MODEL
100
AcDbLine
 10
207.4413775765627
 20
355.5514901582131
 30
0.0
 11
202.2825675765627
 21
355.5514901582131
 31
0.0
  0
LINE
  5
6074
330
A
100
AcDbEntity
  8
MODEL
100
AcDbLine
 10
212.1957645765626
 20
355.5514901582131
 30
0.0
 11
207.4413775765627
 21
355.5514901582131
 31
0.0
  0
LINE
  5
6075
330
A
100
AcDbEntity
  8
MODEL
100
AcDbLine
 10
216.3630195765626
 20
355.5514901582131
 30
0.0
 11
212.1957645765626
 21
355.5514901582131
 31
0.0
  0
LINE
  5
6076
330
A
100
AcDbEntity
  8
MODEL
100
AcDbLine
 10
219.7829975765626
 20
355.5514901582131
 30
0.0
 11
216.3630195765626
 21
355.5514901582131
 31
0.0
  0
LINE
  5
6077
330
A
100
AcDbEntity
  8
MODEL
100
AcDbLine
 10
222.3242705765626
 20
355.5514901582131
 30
0.0
 11
219.7829975765626
 21
355.5514901582131
 31
0.0
  0
LINE
  5
6078
330
A
100
AcDbEntity
  8
MODEL
100
AcDbLine
 10
223.8891785765626
 20
355.5514901582131
 30
0.0
 11
222.3242705765626
 21
355.5514901582131
 31
0.0
  0
LINE
  5
6079
102
{ACAD_REACTORS
330
6262
102
}
330
A
100
AcDbEntity
  8
MODEL
100
AcDbLine
 10
224.4175835765626
 20
355.5514901582131
 30
0.0
 11
223.8891785765626
 21
355.5514901582131
 31
0.0
  0
LINE
  5
607A
102
{ACAD_REACTORS
330
61DC
102
}
330
A
100
AcDbEntity
  8
MODEL
100
AcDbLine
 10
169.4175835765626
 20
365.5514901582131
 30
0.0
 11
169.4175835765626
 21
355.5514901582131
 31
0.0
  0
LINE
  5
607B
330
A
100
AcDbEntity
  8
MODEL
100
AcDbLine
 10
169.9459885765626
 20
365.5514901582131
 30
0.0
 11
169.4175835765626
 21
365.5514901582131
 31
0.0
  0
LINE
  5
607C
330
A
100
AcDbEntity
  8
MODEL
100
AcDbLine
 10
169.4175835765626
 20
355.5514901582131
 30
0.0
 11
169.9459885765626
 21
355.5514901582131
 31
0.0
  0
LINE
  5
607D
330
A
100
AcDbEntity
  8
MODEL
100
AcDbLine
 10
171.5108965765627
 20
365.5514901582131
 30
0.0
 11
169.9459885765626
 21
365.5514901582131
 31
0.0
  0
LINE
  5
607E
330
A
100
AcDbEntity
  8
MODEL
100
AcDbLine
 10
169.9459885765626
 20
355.5514901582131
 30
0.0
 11
171.5108965765627
 21
355.5514901582131
 31
0.0
  0
LINE
  5
607F
330
A
100
AcDbEntity
  8
MODEL
100
AcDbLine
 10
174.0521695765626
 20
365.5514901582131
 30
0.0
 11
171.5108965765627
 21
365.5514901582131
 31
0.0
  0
LINE
  5
6080
330
A
100
AcDbEntity
  8
MODEL
100
AcDbLine
 10
171.5108965765627
 20
355.5514901582131
 30
0.0
 11
174.0521695765626
 21
355.5514901582131
 31
0.0
  0
LINE
  5
6081
330
A
100
AcDbEntity
  8
MODEL
100
AcDbLine
 10
177.4721475765626
 20
365.5514901582131
 30
0.0
 11
174.0521695765626
 21
365.5514901582131
 31
0.0
  0
LINE
  5
6082
330
A
100
AcDbEntity
  8
MODEL
100
AcDbLine
 10
174.0521695765626
 20
355.5514901582131
 30
0.0
 11
177.4721475765626
 21
355.5514901582131
 31
0.0
  0
LINE
  5
6083
330
A
100
AcDbEntity
  8
MODEL
100
AcDbLine
 10
181.6394025765626
 20
365.5514901582131
 30
0.0
 11
177.4721475765626
 21
365.5514901582131
 31
0.0
  0
LINE
  5
6084
330
A
100
AcDbEntity
  8
MODEL
100
AcDbLine
 10
177.4721475765626
 20
355.5514901582131
 30
0.0
 11
181.6394025765626
 21
355.5514901582131
 31
0.0
  0
LINE
  5
6085
330
A
100
AcDbEntity
  8
MODEL
100
AcDbLine
 10
186.3937895765627
 20
365.5514901582131
 30
0.0
 11
181.6394025765626
 21
365.5514901582131
 31
0.0
  0
LINE
  5
6086
330
A
100
AcDbEntity
  8
MODEL
100
AcDbLine
 10
181.6394025765626
 20
355.5514901582131
 30
0.0
 11
186.3937895765627
 21
355.5514901582131
 31
0.0
  0
LINE
  5
6087
330
A
100
AcDbEntity
  8
MODEL
100
AcDbLine
 10
191.5525995765627
 20
365.5514901582131
 30
0.0
 11
186.3937895765627
 21
365.5514901582131
 31
0.0
  0
LINE
  5
6088
330
A
100
AcDbEntity
  8
MODEL
100
AcDbLine
 10
186.3937895765627
 20
355.5514901582131
 30
0.0
 11
191.5525995765627
 21
355.5514901582131
 31
0.0
  0
LINE
  5
6089
330
A
100
AcDbEntity
  8
MODEL
100
AcDbLine
 10
196.9175835765626
 20
365.5514901582131
 30
0.0
 11
191.5525995765627
 21
365.5514901582131
 31
0.0
  0
LINE
  5
608A
330
A
100
AcDbEntity
  8
MODEL
100
AcDbLine
 10
191.5525995765627
 20
355.5514901582131
 30
0.0
 11
196.9175835765626
 21
355.5514901582131
 31
0.0
  0
LINE
  5
608B
330
A
100
AcDbEntity
  8
MODEL
100
AcDbLine
 10
202.2825675765627
 20
365.5514901582131
 30
0.0
 11
196.9175835765626
 21
365.5514901582131
 31
0.0
  0
LINE
  5
608C
330
A
100
AcDbEntity
  8
MODEL
100
AcDbLine
 10
196.9175835765626
 20
355.5514901582131
 30
0.0
 11
202.2825675765627
 21
355.5514901582131
 31
0.0
  0
LINE
  5
608D
330
A
100
AcDbEntity
  8
MODEL
100
AcDbLine
 10
207.4413775765627
 20
365.5514901582131
 30
0.0
 11
202.2825675765627
 21
365.5514901582131
 31
0.0
  0
LINE
  5
608E
330
A
100
AcDbEntity
  8
MODEL
100
AcDbLine
 10
202.2825675765627
 20
355.5514901582131
 30
0.0
 11
207.4413775765627
 21
355.5514901582131
 31
0.0
  0
LINE
  5
608F
330
A
100
AcDbEntity
  8
MODEL
100
AcDbLine
 10
212.1957645765626
 20
365.5514901582131
 30
0.0
 11
207.4413775765627
 21
365.5514901582131
 31
0.0
  0
LINE
  5
6090
330
A
100
AcDbEntity
  8
MODEL
100
AcDbLine
 10
207.4413775765627
 20
355.5514901582131
 30
0.0
 11
212.1957645765626
 21
355.5514901582131
 31
0.0
  0
LINE
  5
6091
330
A
100
AcDbEntity
  8
MODEL
100
AcDbLine
 10
216.3630195765626
 20
365.5514901582131
 30
0.0
 11
212.1957645765626
 21
365.5514901582131
 31
0.0
  0
LINE
  5
6092
330
A
100
AcDbEntity
  8
MODEL
100
AcDbLine
 10
212.1957645765626
 20
355.5514901582131
 30
0.0
 11
216.3630195765626
 21
355.5514901582131
 31
0.0
  0
LINE
  5
6093
330
A
100
AcDbEntity
  8
MODEL
100
AcDbLine
 10
219.7829975765626
 20
365.5514901582131
 30
0.0
 11
216.3630195765626
 21
365.5514901582131
 31
0.0
  0
LINE
  5
6094
330
A
100
AcDbEntity
  8
MODEL
100
AcDbLine
 10
216.3630195765626
 20
355.5514901582131
 30
0.0
 11
219.7829975765626
 21
355.5514901582131
 31
0.0
  0
LINE
  5
6095
330
A
100
AcDbEntity
  8
MODEL
100
AcDbLine
 10
222.3242705765626
 20
365.5514901582131
 30
0.0
 11
219.7829975765626
 21
365.5514901582131
 31
0.0
  0
LINE
  5
6096
330
A
100
AcDbEntity
  8
MODEL
100
AcDbLine
 10
219.7829975765626
 20
355.5514901582131
 30
0.0
 11
222.3242705765626
 21
355.5514901582131
 31
0.0
  0
LINE
  5
6097
330
A
100
AcDbEntity
  8
MODEL
100
AcDbLine
 10
223.8891785765626
 20
365.5514901582131
 30
0.0
 11
222.3242705765626
 21
365.5514901582131
 31
0.0
  0
LINE
  5
6098
330
A
100
AcDbEntity
  8
MODEL
100
AcDbLine
 10
222.3242705765626
 20
355.5514901582131
 30
0.0
 11
223.8891785765626
 21
355.5514901582131
 31
0.0
  0
LINE
  5
6099
330
A
100
AcDbEntity
  8
MODEL
100
AcDbLine
 10
224.4175835765626
 20
365.5514901582131
 30
0.0
 11
223.8891785765626
 21
365.5514901582131
 31
0.0
  0
LINE
  5
609A
102
{ACAD_REACTORS
330
61DC
102
}
330
A
100
AcDbEntity
  8
MODEL
100
AcDbLine
 10
224.4175835765626
 20
355.5514901582131
 30
0.0
 11
224.4175835765626
 21
365.5514901582131
 31
0.0
  0
LINE
  5
609B
330
A
100
AcDbEntity
  8
MODEL
100
AcDbLine
 10
223.8891785765626
 20
355.5514901582131
 30
0.0
 11
224.4175835765626
 21
355.5514901582131
 31
0.0
  0
LINE
  5
609C
330
A
100
AcDbEntity
  8
MODEL
100
AcDbLine
 10
224.1161315765627
 20
365.851490158213
 30
0.0
 11
223.5935195765627
 21
365.851490158213
 31
0.0
  0
LINE
  5
609D
330
A
100
AcDbEntity
  8
MODEL
100
AcDbLine
 10
224.4175835765626
 20
365.5514901582131
 30
0.0
 11
224.1161315765627
 21
365.851490158213
 31
0.0
  0
LINE
  5
609E
330
A
100
AcDbEntity
  8
MODEL
100
AcDbLine
 10
223.8891785765626
 20
365.5514901582131
 30
0.0
 11
224.4175835765626
 21
365.5514901582131
 31
0.0
  0
LINE
  5
609F
330
A
100
AcDbEntity
  8
MODEL
100
AcDbLine
 10
223.5935195765627
 20
365.851490158213
 30
0.0
 11
222.0457655765626
 21
365.851490158213
 31
0.0
  0
LINE
  5
60A0
330
A
100
AcDbEntity
  8
MODEL
100
AcDbLine
 10
222.3242705765626
 20
365.5514901582131
 30
0.0
 11
223.8891785765626
 21
365.5514901582131
 31
0.0
  0
LINE
  5
60A1
330
A
100
AcDbEntity
  8
MODEL
100
AcDbLine
 10
222.0457655765626
 20
365.851490158213
 30
0.0
 11
219.5323505765626
 21
365.851490158213
 31
0.0
  0
LINE
  5
60A2
330
A
100
AcDbEntity
  8
MODEL
100
AcDbLine
 10
219.7829975765626
 20
365.5514901582131
 30
0.0
 11
222.3242705765626
 21
365.5514901582131
 31
0.0
  0
LINE
  5
60A3
330
A
100
AcDbEntity
  8
MODEL
100
AcDbLine
 10
219.5323505765626
 20
365.851490158213
 30
0.0
 11
216.1498615765627
 21
365.851490158213
 31
0.0
  0
LINE
  5
60A4
330
A
100
AcDbEntity
  8
MODEL
100
AcDbLine
 10
216.3630195765626
 20
365.5514901582131
 30
0.0
 11
219.7829975765626
 21
365.5514901582131
 31
0.0
  0
LINE
  5
60A5
330
A
100
AcDbEntity
  8
MODEL
100
AcDbLine
 10
216.1498615765627
 20
365.851490158213
 30
0.0
 11
212.0282875765627
 21
365.851490158213
 31
0.0
  0
LINE
  5
60A6
330
A
100
AcDbEntity
  8
MODEL
100
AcDbLine
 10
212.1957645765626
 20
365.5514901582131
 30
0.0
 11
216.3630195765626
 21
365.5514901582131
 31
0.0
  0
LINE
  5
60A7
330
A
100
AcDbEntity
  8
MODEL
100
AcDbLine
 10
212.0282875765627
 20
365.851490158213
 30
0.0
 11
207.3260175765627
 21
365.851490158213
 31
0.0
  0
LINE
  5
60A8
330
A
100
AcDbEntity
  8
MODEL
100
AcDbLine
 10
207.4413775765627
 20
365.5514901582131
 30
0.0
 11
212.1957645765626
 21
365.5514901582131
 31
0.0
  0
LINE
  5
60A9
330
A
100
AcDbEntity
  8
MODEL
100
AcDbLine
 10
207.3260175765627
 20
365.851490158213
 30
0.0
 11
202.2237575765627
 21
365.851490158213
 31
0.0
  0
LINE
  5
60AA
330
A
100
AcDbEntity
  8
MODEL
100
AcDbLine
 10
202.2825675765627
 20
365.5514901582131
 30
0.0
 11
207.4413775765627
 21
365.5514901582131
 31
0.0
  0
LINE
  5
60AB
330
A
100
AcDbEntity
  8
MODEL
100
AcDbLine
 10
202.2237575765627
 20
365.851490158213
 30
0.0
 11
196.9175835765626
 21
365.851490158213
 31
0.0
  0
LINE
  5
60AC
330
A
100
AcDbEntity
  8
MODEL
100
AcDbLine
 10
196.9175835765626
 20
365.5514901582131
 30
0.0
 11
202.2825675765627
 21
365.5514901582131
 31
0.0
  0
LINE
  5
60AD
330
A
100
AcDbEntity
  8
MODEL
100
AcDbLine
 10
196.9175835765626
 20
365.851490158213
 30
0.0
 11
191.6114095765627
 21
365.851490158213
 31
0.0
  0
LINE
  5
60AE
330
A
100
AcDbEntity
  8
MODEL
100
AcDbLine
 10
191.5525995765627
 20
365.5514901582131
 30
0.0
 11
196.9175835765626
 21
365.5514901582131
 31
0.0
  0
LINE
  5
60AF
330
A
100
AcDbEntity
  8
MODEL
100
AcDbLine
 10
191.6114095765627
 20
365.851490158213
 30
0.0
 11
186.5091495765627
 21
365.851490158213
 31
0.0
  0
LINE
  5
60B0
330
A
100
AcDbEntity
  8
MODEL
100
AcDbLine
 10
186.3937895765627
 20
365.5514901582131
 30
0.0
 11
191.5525995765627
 21
365.5514901582131
 31
0.0
  0
LINE
  5
60B1
330
A
100
AcDbEntity
  8
MODEL
100
AcDbLine
 10
186.5091495765627
 20
365.851490158213
 30
0.0
 11
181.8068795765627
 21
365.851490158213
 31
0.0
  0
LINE
  5
60B2
330
A
100
AcDbEntity
  8
MODEL
100
AcDbLine
 10
181.6394025765626
 20
365.5514901582131
 30
0.0
 11
186.3937895765627
 21
365.5514901582131
 31
0.0
  0
LINE
  5
60B3
330
A
100
AcDbEntity
  8
MODEL
100
AcDbLine
 10
181.8068795765627
 20
365.851490158213
 30
0.0
 11
177.6853055765627
 21
365.851490158213
 31
0.0
  0
LINE
  5
60B4
330
A
100
AcDbEntity
  8
MODEL
100
AcDbLine
 10
177.4721475765626
 20
365.5514901582131
 30
0.0
 11
181.6394025765626
 21
365.5514901582131
 31
0.0
  0
LINE
  5
60B5
330
A
100
AcDbEntity
  8
MODEL
100
AcDbLine
 10
177.6853055765627
 20
365.851490158213
 30
0.0
 11
174.3028165765626
 21
365.851490158213
 31
0.0
  0
LINE
  5
60B6
330
A
100
AcDbEntity
  8
MODEL
100
AcDbLine
 10
174.0521695765626
 20
365.5514901582131
 30
0.0
 11
177.4721475765626
 21
365.5514901582131
 31
0.0
  0
LINE
  5
60B7
330
A
100
AcDbEntity
  8
MODEL
100
AcDbLine
 10
174.3028165765626
 20
365.851490158213
 30
0.0
 11
171.7894015765627
 21
365.851490158213
 31
0.0
  0
LINE
  5
60B8
330
A
100
AcDbEntity
  8
MODEL
100
AcDbLine
 10
171.5108965765627
 20
365.5514901582131
 30
0.0
 11
174.0521695765626
 21
365.5514901582131
 31
0.0
  0
LINE
  5
60B9
330
A
100
AcDbEntity
  8
MODEL
100
AcDbLine
 10
171.7894015765627
 20
365.851490158213
 30
0.0
 11
170.2416475765626
 21
365.851490158213
 31
0.0
  0
LINE
  5
60BA
330
A
100
AcDbEntity
  8
MODEL
100
AcDbLine
 10
169.9459885765626
 20
365.5514901582131
 30
0.0
 11
171.5108965765627
 21
365.5514901582131
 31
0.0
  0
LINE
  5
60BB
330
A
100
AcDbEntity
  8
MODEL
100
AcDbLine
 10
169.7190355765626
 20
365.851490158213
 30
0.0
 11
169.4175835765626
 21
365.5514901582131
 31
0.0
  0
LINE
  5
60BC
330
A
100
AcDbEntity
  8
MODEL
100
AcDbLine
 10
170.2416475765626
 20
365.851490158213
 30
0.0
 11
169.7190355765626
 21
365.851490158213
 31
0.0
  0
LINE
  5
60BD
330
A
100
AcDbEntity
  8
MODEL
100
AcDbLine
 10
169.4175835765626
 20
365.5514901582131
 30
0.0
 11
169.9459885765626
 21
365.5514901582131
 31
0.0
  0
DIMENSION
  5
618E
102
{ACAD_XDICTIONARY
360
618F
102
}
330
A
100
AcDbEntity
  8
MODEL
 62
     3
 48
0.05
100
AcDbDimension
  2
*D61
 10
210.9175835765626
 20
463.8603661228353
 30
0.0
 11
196.9175835765626
 21
472.0853661228353
 31
0.0
 70
    32
  1
%%c29
 71
     5
 42
28.0
 73
     0
 74
     0
 75
     0
  3
tfrom線あり
100
AcDbAlignedDimension
 13
182.9175835765626
 23
451.6937871831626
 33
0.0
 14
210.9175835765626
 24
449.3199953864024
 34
0.0
100
AcDbRotatedDimension
1001
ACAD
1000
DSTYLE
1002
{
1070
     3
1000
<>
1002
}
  0
DIMENSION
  5
61AF
330
A
100
AcDbEntity
  8
MODEL
 62
     3
 48
0.05
100
AcDbDimension
  2
*D63
 10
292.021589955154
 20
447.5514901582131
 30
0.0
 11
284.021589955154
 21
401.5514901582131
 31
0.0
 70
    32
 71
     5
 42
92.0
 73
     0
 74
     0
 75
     0
  3
tfrom線あり
100
AcDbAlignedDimension
 13
224.4175835765626
 23
355.5514901582131
 33
0.0
 14
214.194692169552
 24
447.5514901582131
 34
0.0
 50
90.0
100
AcDbRotatedDimension
  0
DIMENSION
  5
61BC
330
A
100
AcDbEntity
  8
MODEL
 62
     3
 48
0.05
100
AcDbDimension
  2
*D64
 10
268.9175835765626
 20
484.5476643831586
 30
0.0
 11
225.9175835765626
 21
492.5476643831586
 31
0.0
 70
    32
 71
     5
 42
86.0
 73
     0
 74
     0
 75
     0
  3
tfrom線あり
100
AcDbAlignedDimension
 13
182.9175835765626
 23
445.1847610678637
 33
0.0
 14
268.9175835765626
 24
427.2549748446817
 34
0.0
100
AcDbRotatedDimension
  0
ARC
  5
61CD
330
A
100
AcDbEntity
  8
MODEL
 48
0.05
100
AcDbCircle
 10
217.2633699579146
 20
432.251490158213
 30
0.0
 40
7.501266879517935
100
AcDbArc
 50
147.7751481506528
 51
212.2248518493472
  0
DIMENSION
  5
61DA
102
{ACAD_REACTORS
330
61DC
102
}
102
{ACAD_XDICTIONARY
360
61DB
102
}
330
A
100
AcDbEntity
  8
MODEL
 62
     3
 48
0.05
100
AcDbDimension
  2
*D65
 10
169.4175835765626
 20
389.5008634694724
 30
0.0
 11
196.9175835765626
 21
397.7258634694725
 31
0.0
 70
    32
 71
     5
 42
55.0
 73
     0
 74
     0
 75
     0
  3
tfrom線あり
100
AcDbAlignedDimension
 13
224.4175835765626
 23
364.8684333059457
 33
0.0
 14
169.4175835765626
 24
364.8684333059457
 34
0.0
100
AcDbRotatedDimension
1001
ACAD
1000
DSTYLE
1002
{
1070
     3
1000
%%c<>
1002
}
  0
DIMENSION
  5
61EC
330
A
100
AcDbEntity
  8
MODEL
 62
     3
 48
0.05
100
AcDbDimension
  2
*D66
 10
324.9527225432864
 20
422.233068158213
 30
0.0
 11
316.9527225432864
 21
388.8922791582131
 31
0.0
 70
    32
  1
70
 71
     5
 42
66.68157799999994
 73
     0
 74
     0
 75
     0
  3
tfrom線あり
100
AcDbAlignedDimension
 13
290.2047803063365
 23
355.5514901582131
 33
0.0
 14
267.1978495765626
 24
422.233068158213
 34
0.0
 50
90.0
100
AcDbRotatedDimension
  0
LINE
  5
6213
102
{ACAD_REACTORS
330
627D
102
}
330
A
100
AcDbEntity
  8
MODEL
 48
0.05
100
AcDbLine
 10
184.0165960765626
 20
355.5514901582131
 30
0.0
 11
184.0165960765626
 21
312.5375362641911
 31
0.0
  0
LINE
  5
6215
330
A
100
AcDbEntity
  8
MODEL
 48
0.05
100
AcDbLine
 10
196.9175835765626
 20
312.5375362641911
 30
0.0
 11
176.4658378281646
 21
312.5375362641911
 31
0.0
  0
LINE
  5
6216
330
A
100
AcDbEntity
  8
MODEL
 48
0.05
100
AcDbLine
 10
176.4658378281646
 20
312.5375362641911
 30
0.0
 11
176.4658378281646
 21
310.4864424515935
 31
0.0
  0
LINE
  5
6217
330
A
100
AcDbEntity
  8
MODEL
 48
0.05
100
AcDbLine
 10
172.725607934604
 20
310.4864424515935
 30
0.0
 11
196.9175835765626
 21
310.4864424515935
 31
0.0
  0
LINE
  5
6218
330
A
100
AcDbEntity
  8
MODEL
 48
0.05
100
AcDbLine
 10
172.725607934604
 20
310.4864424515935
 30
0.0
 11
172.725607934604
 21
307.4701280213027
 31
0.0
  0
LINE
  5
6219
330
A
100
AcDbEntity
  8
MODEL
 48
0.05
100
AcDbLine
 10
172.725607934604
 20
307.4701280213027
 30
0.0
 11
196.9175835765626
 21
307.4701280213027
 31
0.0
  0
LINE
  5
621A
330
A
100
AcDbEntity
  8
MODEL
 48
0.05
100
AcDbLine
 10
181.1712883394182
 20
307.4701280213027
 30
0.0
 11
181.1712883394182
 21
300.2309733886048
 31
0.0
  0
LINE
  5
621B
330
A
100
AcDbEntity
  8
MODEL
 48
0.05
100
AcDbLine
 10
181.1712883394182
 20
300.2309733886048
 30
0.0
 11
196.9175835765626
 21
300.2309733886048
 31
0.0
  0
LINE
  5
621C
330
A
100
AcDbEntity
  8
MODEL
 48
0.05
100
AcDbLine
 10
187.6865275088463
 20
307.4701280213027
 30
0.0
 11
187.6865275088463
 21
300.2309733886048
 31
0.0
  0
LINE
  5
621D
330
A
100
AcDbEntity
  8
MODEL
 48
0.05
100
AcDbLine
 10
190.7028419391371
 20
300.2309733886048
 30
0.0
 11
190.7028419391371
 21
307.4701280213027
 31
0.0
  0
LINE
  5
621E
330
A
100
AcDbEntity
  8
MODEL
 48
0.05
100
AcDbLine
 10
184.9115182329788
 20
300.2309733886048
 30
0.0
 11
184.9115182329788
 21
296.0081331861977
 31
0.0
  0
LINE
  5
621F
330
A
100
AcDbEntity
  8
MODEL
 48
0.05
100
AcDbLine
 10
182.0158563798997
 20
296.0081331861977
 30
0.0
 11
196.9175835765626
 21
296.0081331861977
 31
0.0
  0
LINE
  5
6220
330
A
100
AcDbEntity
  8
MODEL
 48
0.05
100
AcDbLine
 10
182.0158563798997
 20
296.0081331861977
 30
0.0
 11
182.0158563798997
 21
275.3765424830087
 31
0.0
  0
LINE
  5
6222
330
A
100
AcDbEntity
  8
MODEL
 48
0.05
100
AcDbLine
 10
182.0158563798997
 20
275.3765424830087
 30
0.0
 11
196.9175835765626
 21
275.3765424830087
 31
0.0
  0
LINE
  5
6223
330
A
100
AcDbEntity
  8
MODEL
 48
0.05
100
AcDbLine
 10
196.9175835765626
 20
282.6156971157066
 30
0.0
 11
182.0158563798997
 21
282.6156971157066
 31
0.0
  0
LINE
  5
6224
330
A
100
AcDbEntity
  8
MODEL
 48
0.05
100
AcDbLine
 10
182.0158563798997
 20
287.633079823321
 30
0.0
 11
196.9175835765626
 21
287.633079823321
 31
0.0
  0
LINE
  5
6225
330
A
100
AcDbEntity
  8
MODEL
 48
0.05
100
AcDbLine
 10
184.7531617253887
 20
275.3765424830087
 30
0.0
 11
184.7531617253887
 21
272.134004470446
 31
0.0
  0
LINE
  5
6226
330
A
100
AcDbEntity
  8
MODEL
 48
0.05
100
AcDbLine
 10
196.9175835765626
 20
272.134004470446
 30
0.0
 11
182.8227204900024
 21
272.134004470446
 31
0.0
  0
LINE
  5
6227
330
A
100
AcDbEntity
  8
MODEL
 48
0.05
100
AcDbLine
 10
182.8227204900024
 20
272.134004470446
 30
0.0
 11
160.9175835765628
 21
261.2690565613799
 31
0.0
  0
LINE
  5
6228
330
A
100
AcDbEntity
  8
MODEL
 48
0.05
100
AcDbLine
 10
163.7453783549605
 20
132.5375362641911
 30
0.0
 11
230.0897887981647
 21
132.5375362641911
 31
0.0
  0
DIMENSION
  5
622C
330
A
100
AcDbEntity
  8
MODEL
 62
     3
 48
0.05
100
AcDbDimension
  2
*D68
 10
276.6041778199103
 20
132.5375362641911
 30
0.0
 11
268.6041778199103
 21
222.5375362641911
 31
0.0
 70
    32
 71
     5
 42
180.0
 73
     0
 74
     0
 75
     0
  3
tfrom線あり
100
AcDbAlignedDimension
 13
217.3693293249606
 23
312.5375362641911
 33
0.0
 14
232.9175835765626
 24
132.5375362641911
 34
0.0
 50
90.0
100
AcDbRotatedDimension
  0
LINE
  5
6240
330
A
100
AcDbEntity
  8
MODEL
 48
0.05
100
AcDbLine
 10
160.9175835765628
 20
136.7119343224379
 30
0.0
 11
160.9175835765628
 21
261.2690565613799
 31
0.0
  0
LINE
  5
624A
102
{ACAD_REACTORS
330
627D
102
}
330
A
100
AcDbEntity
  8
MODEL
 48
0.05
100
AcDbLine
 10
209.8185710765626
 20
355.5514901582131
 30
0.0
 11
209.8185710765626
 21
312.5375362641911
 31
0.0
  0
LINE
  5
624B
102
{ACAD_REACTORS
330
6262
102
}
330
A
100
AcDbEntity
  8
MODEL
 48
0.05
100
AcDbLine
 10
196.9175835765626
 20
312.5375362641911
 30
0.0
 11
217.3693293249606
 21
312.5375362641911
 31
0.0
  0
LINE
  5
624C
330
A
100
AcDbEntity
  8
MODEL
 48
0.05
100
AcDbLine
 10
217.3693293249606
 20
312.5375362641911
 30
0.0
 11
217.3693293249606
 21
310.4864424515935
 31
0.0
  0
LINE
  5
624D
330
A
100
AcDbEntity
  8
MODEL
 48
0.05
100
AcDbLine
 10
221.1095592185212
 20
310.4864424515935
 30
0.0
 11
196.9175835765626
 21
310.4864424515935
 31
0.0
  0
LINE
  5
624E
330
A
100
AcDbEntity
  8
MODEL
 48
0.05
100
AcDbLine
 10
221.1095592185212
 20
310.4864424515935
 30
0.0
 11
221.1095592185212
 21
307.4701280213027
 31
0.0
  0
LINE
  5
624F
330
A
100
AcDbEntity
  8
MODEL
 48
0.05
100
AcDbLine
 10
221.1095592185212
 20
307.4701280213027
 30
0.0
 11
196.9175835765626
 21
307.4701280213027
 31
0.0
  0
LINE
  5
6250
330
A
100
AcDbEntity
  8
MODEL
 48
0.05
100
AcDbLine
 10
212.663878813707
 20
307.4701280213027
 30
0.0
 11
212.663878813707
 21
300.2309733886048
 31
0.0
  0
LINE
  5
6251
330
A
100
AcDbEntity
  8
MODEL
 48
0.05
100
AcDbLine
 10
212.663878813707
 20
300.2309733886048
 30
0.0
 11
196.9175835765626
 21
300.2309733886048
 31
0.0
  0
LINE
  5
6252
330
A
100
AcDbEntity
  8
MODEL
 48
0.05
100
AcDbLine
 10
206.1486396442789
 20
307.4701280213027
 30
0.0
 11
206.1486396442789
 21
300.2309733886048
 31
0.0
  0
LINE
  5
6253
330
A
100
AcDbEntity
  8
MODEL
 48
0.05
100
AcDbLine
 10
208.9236489201464
 20
300.2309733886048
 30
0.0
 11
208.9236489201464
 21
296.0081331861977
 31
0.0
  0
LINE
  5
6254
330
A
100
AcDbEntity
  8
MODEL
 48
0.05
100
AcDbLine
 10
211.8193107732255
 20
296.0081331861977
 30
0.0
 11
196.9175835765626
 21
296.0081331861977
 31
0.0
  0
LINE
  5
6255
330
A
100
AcDbEntity
  8
MODEL
 48
0.05
100
AcDbLine
 10
211.8193107732255
 20
296.0081331861977
 30
0.0
 11
211.8193107732255
 21
275.3765424830087
 31
0.0
  0
LINE
  5
6256
330
A
100
AcDbEntity
  8
MODEL
 48
0.05
100
AcDbLine
 10
211.8193107732255
 20
275.3765424830087
 30
0.0
 11
196.9175835765626
 21
275.3765424830087
 31
0.0
  0
LINE
  5
6257
330
A
100
AcDbEntity
  8
MODEL
 48
0.05
100
AcDbLine
 10
196.9175835765626
 20
282.6156971157066
 30
0.0
 11
211.8193107732255
 21
282.6156971157066
 31
0.0
  0
LINE
  5
6258
330
A
100
AcDbEntity
  8
MODEL
 48
0.05
100
AcDbLine
 10
211.8193107732255
 20
287.633079823321
 30
0.0
 11
196.9175835765626
 21
287.633079823321
 31
0.0
  0
LINE
  5
6259
330
A
100
AcDbEntity
  8
MODEL
 48
0.05
100
AcDbLine
 10
209.0820054277365
 20
275.3765424830087
 30
0.0
 11
209.0820054277365
 21
272.134004470446
 31
0.0
  0
LINE
  5
625A
330
A
100
AcDbEntity
  8
MODEL
 48
0.05
100
AcDbLine
 10
196.9175835765626
 20
272.134004470446
 30
0.0
 11
211.0124466631228
 21
272.134004470446
 31
0.0
  0
LINE
  5
625B
330
A
100
AcDbEntity
  8
MODEL
 48
0.05
100
AcDbLine
 10
211.0124466631228
 20
272.134004470446
 30
0.0
 11
232.9175835765624
 21
261.2690565613799
 31
0.0
  0
LINE
  5
625C
330
A
100
AcDbEntity
  8
MODEL
 48
0.05
100
AcDbLine
 10
232.9175835765624
 20
136.7119343224379
 30
0.0
 11
232.9175835765624
 21
261.2690565613799
 31
0.0
  0
DIMENSION
  5
6260
102
{ACAD_REACTORS
330
6262
102
}
102
{ACAD_XDICTIONARY
360
6261
102
}
330
A
100
AcDbEntity
  8
MODEL
 62
     3
 48
0.05
100
AcDbDimension
  2
*D69
 10
276.6041778199103
 20
355.5514901582131
 30
0.0
 11
268.6041778199103
 21
334.0445132112021
 31
0.0
 70
    32
  1
max. 45
 71
     5
 42
43.01395389402194
 73
     0
 74
     0
 75
     0
  3
tfrom線あり
100
AcDbAlignedDimension
 13
217.3693293249606
 23
312.5375362641911
 33
0.0
 14
224.4175835765626
 24
355.5514901582131
 34
0.0
 50
90.0
100
AcDbRotatedDimension
  0
DIMENSION
  5
627B
102
{ACAD_REACTORS
330
627D
102
}
102
{ACAD_XDICTIONARY
360
627C
102
}
330
A
100
AcDbEntity
  8
MODEL
 62
     3
 48
0.05
100
AcDbDimension
  2
*D70
 10
209.8185710765626
 20
325.264991382444
 30
0.0
 11
196.9175835765626
 21
333.489991382444
 31
0.0
 70
    32
 71
     5
 42
25.80197500000008
 73
     0
 74
     0
 75
     0
  3
tfrom線あり
100
AcDbAlignedDimension
 13
184.0165960765626
 23
331.4861398949188
 33
0.0
 14
209.8185710765626
 24
331.4861398949188
 34
0.0
100
AcDbRotatedDimension
1001
ACAD
1000
DSTYLE
1002
{
1070
     3
1000
%%C<>
1002
}
  0
DIMENSION
  5
6296
102
{ACAD_XDICTIONARY
360
6297
102
}
330
A
100
AcDbEntity
  8
MODEL
 62
     3
 48
0.05
100
AcDbDimension
  2
*D71
 10
232.9175835765624
 20
108.9358924964439
 30
0.0
 11
196.9175835765626
 21
117.1608924964439
 31
0.0
 70
    32
 71
     5
 42
71.99999999999955
 73
     0
 74
     0
 75
     0
  3
tfrom線あり
100
AcDbAlignedDimension
 13
160.9175835765628
 23
132.5375362641911
 33
0.0
 14
232.9175835765624
 24
132.5375362641911
 34
0.0
100
AcDbRotatedDimension
1001
ACAD
1000
DSTYLE
1002
{
1070
     3
1000
%%c<>
1002
}
  0
LINE
  5
62B1
330
A
100
AcDbEntity
  8
MODEL
 48
0.05
100
AcDbLine
 10
160.9175835765628
 20
136.7119343224379
 30
0.0
 11
163.7453783549605
 21
132.5375362641911
 31
0.0
  0
LINE
  5
62B5
330
A
100
AcDbEntity
  8
MODEL
 48
0.05
100
AcDbLine
 10
232.9175835765624
 20
136.7119343224379
 30
0.0
 11
230.0897887981647
 21
132.5375362641911
 31
0.0
  0
LINE
  5
62B6
330
A
100
AcDbEntity
  8
MODEL
 48
0.05
100
AcDbLine
 10
232.9175835765624
 20
136.7119343224379
 30
0.0
 11
160.9175835765628
 21
136.7119343224379
 31
0.0
  0
CIRCLE
  5
62C4
330
A
100
AcDbEntity
  8
MODEL
 48
0.05
100
AcDbCircle
 10
196.9175835765626
 20
529.8804825987461
 30
0.0
 40
15.0
  0
LINE
  5
62C8
330
A
100
AcDbEntity
  8
DIM
  6
CENTER
 48
0.5
100
AcDbLine
 10
196.9175835765626
 20
506.5477774592803
 30
0.0
 11
196.9175835765626
 21
553.2131877382117
 31
0.0
  0
LINE
  5
62C9
330
A
100
AcDbEntity
  8
DIM
  6
CENTER
 48
0.5
100
AcDbLine
 10
220.2502887160283
 20
529.8804825987461
 30
0.0
 11
173.5848784370969
 21
529.8804825987461
 31
0.0
  0
MTEXT
  5
630F
330
A
100
AcDbEntity
  8
TEMPLATE
390
1D
100
AcDbMText
 10
186.761391445755
 20
567.1569904342849
 30
0.0
 40
6.0
 41
0.0
 46
5.4338140625
 71
     1
 72
     1
  1
{取付穴}
  7
ＭＳ ゴシック
 73
     1
 44
0.7828267384257843
1001
ACAD
1000
ACAD_MTEXT_DEFINED_HEIGHT_BEGIN
1070
    46
1040
5.4338140625
1000
ACAD_MTEXT_DEFINED_HEIGHT_END
  0
LINE
  5
6361
330
A
100
AcDbEntity
  8
DIM
 48
0.05
100
AcDbLine
 10
208.8434436067603
 20
520.7824683901325
 30
0.0
 11
219.210670461721
 21
512.2661076320476
 31
0.0
  0
LINE
  5
6362
330
A
100
AcDbEntity
  8
DIM
 48
0.05
100
AcDbLine
 10
219.210670461721
 20
512.2661076320476
 30
0.0
 11
236.2223943493887
 21
512.2661076320476
 31
0.0
  0
MTEXT
  5
6398
330
A
100
AcDbEntity
  8
DIM
390
1D
100
AcDbMText
 10
222.5376677867107
 20
520.9301822267839
 30
0.0
 40
6.0
 41
0.0
 46
5.033119140625
 71
     1
 72
     1
  1
{Ø30}
  7
ＭＳ ゴシック
 73
     1
 44
0.7828267384257843
1001
ACAD
1000
ACAD_MTEXT_DEFINED_HEIGHT_BEGIN
1070
    46
1040
5.033119140625
1000
ACAD_MTEXT_DEFINED_HEIGHT_END
  0
VIEWPORT
  5
349
330
B
100
AcDbEntity
 67
     1
  8
0
100
AcDbViewport
 10
202.5
 20
128.5
 30
0.0
 40
486.0
 41
308.4
 68
     1
 69
     1
 12
202.5
 22
128.5
 13
0.0
 23
0.0
 14
0.5
 24
0.5
 15
0.0
 25
0.0
 16
0.0
 26
0.0
 36
1.0
 17
0.0
 27
0.0
 37
0.0
 42
50.0
 43
0.0
 44
0.0
 45
308.4
 50
0.0
 51
0.0
 72
   100
 90
   557152
  1

281
     0
 71
     1
 74
     0
110
0.0
120
0.0
130
0.0
111
1.0
121
0.0
131
0.0
112
0.0
122
1.0
132
0.0
 79
     0
146
0.0
170
     0
 61
     5
348
26C
292
     1
282
     1
141
0.0
142
0.0
 63
   256
  0
VIEWPORT
  5
34A
330
B
100
AcDbEntity
 67
     1
  8
0
100
AcDbViewport
 10
202.5
 20
128.5
 30
0.0
 40
324.0
 41
205.6
 68
     2
 69
     2
 12
986.6781359294573
 22
1427.077061889956
 13
0.0
 23
0.0
 14
0.5
 24
0.5
 15
0.0
 25
0.0
 16
0.0
 26
0.0
 36
1.0
 17
0.0
 27
0.0
 37
0.0
 42
50.0
 43
0.0
 44
0.0
 45
2890.021615685494
 50
0.0
 51
0.0
 72
   100
 90
   557152
  1

281
     0
 71
     1
 74
     0
110
0.0
120
0.0
130
0.0
111
1.0
121
0.0
131
0.0
112
0.0
122
1.0
132
0.0
 79
     0
146
0.0
170
     0
 61
     5
348
26C
292
     1
282
     1
141
0.0
142
0.0
 63
   256
  0
ENDSEC
  0
SECTION
  2
OBJECTS
  0
DICTIONARY
  5
19
330
0
100
AcDbDictionary
281
     1
  3
ACAD_COLOR
350
674
  3
ACAD_DETAILVIEWSTYLE
350
BBF
  3
ACAD_FIELDLIST
350
44C1
  3
ACAD_GROUP
350
1A
  3
ACAD_IMAGE_DICT
350
60DB
  3
ACAD_IMAGE_VARS
350
27B
  3
ACAD_LAYOUT
350
1E
  3
ACAD_MATERIAL
350
263
  3
ACAD_MLEADERSTYLE
350
336
  3
ACAD_MLINESTYLE
350
1B
  3
ACAD_PLOTSETTINGS
350
22
  3
ACAD_PLOTSTYLENAME
350
1F
  3
ACAD_SCALELIST
350
241
  3
ACAD_SECTIONVIEWSTYLE
350
BC0
  3
ACAD_TABLESTYLE
350
278
  3
ACAD_VISUALSTYLE
350
267
  3
ACDB_RECOMPOSE_DATA
350
63B3
  3
AcDbVariableDictionary
350
330
  3
APPDATA
350
27A
  3
DimOffsetDictionary
350
E38
  0
SUN
  5
904
330
15
100
AcDbSun
 90
        1
290
     0
 63
     7
421
 16777215
 40
1.0
291
     1
 91
  2455826
 92
 54000000
292
     0
 70
     2
 71
   256
280
     1
  0
DICTIONARY
  5
2E1
330
2
100
AcDbDictionary
280
     1
281
     1
  3
ACAD_LAYERSTATES
360
2E2
  3
ACLYDICTIONARY
360
DDE
  0
DICTIONARY
  5
60F0
330
A
100
AcDbDictionary
280
     1
281
     1
  3
ACAD_SORTENTS
360
60F1
  0
DICTIONARY
  5
4532
330
4530
100
AcDbDictionary
280
     1
281
     1
  3
ACAD_FIELD
360
4539
  0
DICTIONARY
  5
618F
330
618E
100
AcDbDictionary
280
     1
281
     1
  0
DICTIONARY
  5
61DB
330
61DA
100
AcDbDictionary
280
     1
281
     1
  3
ACAD_DIMASSOC
360
61DC
  0
DICTIONARY
  5
6261
330
6260
100
AcDbDictionary
280
     1
281
     1
  3
ACAD_DIMASSOC
360
6262
  0
DICTIONARY
  5
627C
330
627B
100
AcDbDictionary
280
     1
281
     1
  3
ACAD_DIMASSOC
360
627D
  0
DICTIONARY
  5
6297
330
6296
100
AcDbDictionary
280
     1
281
     1
  0
DICTIONARY
  5
674
102
{ACAD_REACTORS
330
19
102
}
330
19
100
AcDbDictionary
281
     1
  0
DICTIONARY
  5
BBF
102
{ACAD_REACTORS
330
19
102
}
330
19
100
AcDbDictionary
281
     1
  0
FIELDLIST
  5
44C1
102
{ACAD_REACTORS
330
19
102
}
330
19
100
AcDbIdSet
 90
        2
330
4534
330
4531
100
AcDbFieldList
  0
DICTIONARY
  5
1A
102
{ACAD_REACTORS
330
19
102
}
330
19
100
AcDbDictionary
281
     1
  0
DICTIONARY
  5
60DB
102
{ACAD_REACTORS
330
19
102
}
330
19
100
AcDbDictionary
281
     1
  3
Untitled
350
60DC
  0
RASTERVARIABLES
  5
27B
102
{ACAD_REACTORS
330
19
102
}
330
19
100
AcDbRasterVariables
 90
        0
 70
     1
 71
     1
 72
     1
  0
DICTIONARY
  5
1E
102
{ACAD_REACTORS
330
19
102
}
330
19
100
AcDbDictionary
281
     1
  3
Layout1
350
21
  3
Model
350
20
  0
DICTIONARY
  5
263
102
{ACAD_REACTORS
330
19
102
}
330
19
100
AcDbDictionary
281
     1
  3
ByBlock
350
4A9C
  3
ByLayer
350
264
  3
Global
350
266
  0
DICTIONARY
  5
336
102
{ACAD_REACTORS
330
19
102
}
330
19
100
AcDbDictionary
281
     1
  3
Standard
350
D59
  0
DICTIONARY
  5
1B
102
{ACAD_REACTORS
330
19
102
}
330
19
100
AcDbDictionary
281
     1
  3
Standard
350
1C
  0
DICTIONARY
  5
22
102
{ACAD_REACTORS
330
19
102
}
330
19
100
AcDbDictionary
281
     1
  0
ACDBDICTIONARYWDFLT
  5
1F
102
{ACAD_REACTORS
330
19
102
}
330
19
100
AcDbDictionary
281
     1
  3
Normal
350
1D
100
AcDbDictionaryWithDefault
340
1D
  0
DICTIONARY
  5
241
102
{ACAD_REACTORS
330
19
102
}
330
19
100
AcDbDictionary
281
     1
  3
A0
350
242
  3
A1
350
243
  3
A2
350
244
  3
A3
350
245
  3
A4
350
246
  3
A5
350
247
  3
A6
350
248
  3
A7
350
249
  3
A8
350
24A
  3
A9
350
24B
  3
B0
350
24C
  3
B1
350
24D
  3
B2
350
24E
  3
B3
350
24F
  3
B4
350
250
  3
B5
350
251
  3
B6
350
252
  3
B7
350
253
  3
B8
350
254
  3
B9
350
255
  3
C0
350
256
  3
C1
350
257
  3
C2
350
258
  3
C3
350
259
  3
C4
350
25A
  3
C5
350
25B
  3
C6
350
25C
  3
C7
350
25D
  3
C8
350
25E
  3
C9
350
25F
  3
D0
350
260
  3
D1
350
261
  3
D2
350
262
  0
DICTIONARY
  5
BC0
102
{ACAD_REACTORS
330
19
102
}
330
19
100
AcDbDictionary
281
     1
  0
DICTIONARY
  5
278
102
{ACAD_REACTORS
330
19
102
}
330
19
100
AcDbDictionary
281
     1
  3
Standard
350
279
  0
DICTIONARY
  5
267
102
{ACAD_REACTORS
330
19
102
}
330
19
100
AcDbDictionary
281
     1
  3
2dWireframe
350
26C
  3
3D Hidden
350
26E
  3
3dWireframe
350
26D
  3
Basic
350
26F
  3
Brighten
350
273
  3
ColorChange
350
277
  3
Conceptual
350
271
  3
Dim
350
272
  3
EdgeColorOff
350
8FE
  3
Facepattern
350
276
  3
Flat
350
268
  3
FlatWithEdges
350
269
  3
Gouraud
350
26A
  3
GouraudWithEdges
350
26B
  3
Hidden
350
8FB
  3
JitterOff
350
8FC
  3
Linepattern
350
275
  3
OverhangOff
350
8FD
  3
Realistic
350
270
  3
Shaded
350
903
  3
Shaded with edges
350
902
  3
Shades of Gray
350
8FF
  3
Sketchy
350
900
  3
Thicken
350
274
  3
Wireframe
350
8FA
  3
X-Ray
350
901
  0
XRECORD
  5
63B3
102
{ACAD_REACTORS
330
19
102
}
330
19
100
AcDbXrecord
280
     1
 90
        1
330
279
  0
DICTIONARY
  5
330
102
{ACAD_REACTORS
330
19
102
}
330
19
100
AcDbDictionary
281
     1
  3
CANNOSCALE
350
331
  3
CMLEADERSTYLE
350
D5E
  3
CTABLESTYLE
350
335
  3
HPTRANSPARENCY
350
D52
  3
XCLIPFRAME
350
896
  0
DICTIONARY
  5
27A
102
{ACAD_REACTORS
330
19
102
}
330
19
100
AcDbDictionary
281
     1
  0
DICTIONARY
  5
E38
102
{ACAD_REACTORS
330
19
102
}
330
19
100
AcDbDictionary
281
     1
  3
DIMRAILANGLE
350
6320
  3
DIMRAILFIRSTOFFSET
350
631E
  3
DIMRAILOFFSET
350
631F
  3
DIMRAILSENABLED
350
6321
  0
DICTIONARY
  5
2E2
102
{ACAD_REACTORS
330
2E1
102
}
330
2E1
100
AcDbDictionary
281
     1
  3
ARGON_LAYERP_9
350
7AA
  0
DICTIONARY
  5
DDE
102
{ACAD_REACTORS
330
2E1
102
}
330
2E1
100
AcDbDictionary
281
     1
1001
ACAD
1000
<All
  0
SORTENTSTABLE
  5
60F1
102
{ACAD_REACTORS
330
60F0
102
}
330
60F0
100
AcDbSortentsTable
330
A
331
177
  5
178
331
178
  5
179
331
179
  5
17A
331
17A
  5
17B
331
17B
  5
17C
331
17C
  5
17E
331
17E
  5
180
331
180
  5
181
331
181
  5
182
331
182
  5
183
331
183
  5
184
331
184
  5
185
331
185
  5
186
331
186
  5
187
331
187
  5
188
331
188
  5
189
331
189
  5
68C
331
68C
  5
6B5
331
6B5
  5
D69
331
D69
  5
1343
331
1343
  5
3697
331
3697
  5
36AA
331
36AA
  5
36B6
331
36B6
  5
36BC
331
36BC
  5
39F2
331
0
  5
39F3
331
0
  5
4530
331
4530
  5
5B74
331
0
  5
5B75
331
0
  5
5B76
331
0
  5
5B77
331
0
  5
5B78
331
0
  5
5B79
331
0
  5
5B7A
331
0
  5
5B7B
331
0
  5
5B7C
331
0
  5
5B7D
331
0
  5
5B7E
331
0
  5
5B7F
331
0
  5
5B80
331
0
  5
5B81
331
0
  5
5B82
331
0
  5
5B83
331
0
  5
5B84
331
0
  5
5B85
331
0
  5
5B86
331
0
  5
5B87
331
0
  5
5B88
331
0
  5
5B89
331
0
  5
5B8A
331
0
  5
5B8B
331
0
  5
5B8C
331
0
  5
5B8D
331
0
  5
5B8E
331
0
  5
5B8F
331
0
  5
5B90
331
0
  5
5B91
331
0
  5
5B92
331
0
  5
5B93
331
0
  5
5B94
331
0
  5
5B95
331
0
  5
5B96
331
0
  5
5B97
331
0
  5
5B98
331
0
  5
5B99
331
0
  5
5B9A
331
0
  5
5B9B
331
0
  5
5B9C
331
0
  5
5B9D
331
0
  5
5B9E
331
0
  5
5B9F
331
0
  5
5BA0
331
0
  5
5BA1
331
0
  5
5BA2
331
0
  5
5BA3
331
0
  5
5BA4
331
0
  5
5BA5
331
0
  5
5BA6
331
0
  5
5BA7
331
0
  5
5BA8
331
0
  5
5BA9
331
0
  5
5BAA
331
0
  5
5BAB
331
0
  5
5BAC
331
0
  5
5BAD
331
0
  5
5BAE
331
0
  5
5BAF
331
0
  5
5BB0
331
0
  5
5BB1
331
0
  5
5BB2
331
0
  5
5BB3
331
0
  5
5BB4
331
0
  5
5BB5
331
0
  5
5BB6
331
0
  5
5BB7
331
0
  5
5BB8
331
0
  5
5BB9
331
0
  5
5BBA
331
0
  5
5BBB
331
0
  5
5BBC
331
0
  5
5BBD
331
0
  5
5BBE
331
0
  5
5BBF
331
0
  5
5BC0
331
0
  5
5BC1
331
0
  5
5BC2
331
0
  5
5BC3
331
0
  5
5BC4
331
0
  5
5BC5
331
0
  5
5BC6
331
0
  5
5BC7
331
0
  5
5BC8
331
0
  5
5BC9
331
0
  5
5BCA
331
0
  5
5BCB
331
0
  5
5BCC
331
0
  5
5BCD
331
0
  5
5BCE
331
0
  5
5BCF
331
0
  5
5BD0
331
0
  5
5BD1
331
0
  5
5BD2
331
0
  5
5BD3
331
0
  5
5BD4
331
0
  5
5BD5
331
0
  5
5BD6
331
0
  5
5BD7
331
0
  5
5BD8
331
0
  5
5BD9
331
0
  5
5BDA
331
0
  5
5BDB
331
0
  5
5BDC
331
0
  5
5BDD
331
0
  5
5BDE
331
0
  5
5BDF
331
0
  5
5BE0
331
0
  5
5BE1
331
0
  5
5BE2
331
0
  5
5BE3
331
0
  5
5BE4
331
0
  5
5BE5
331
0
  5
5BE6
331
0
  5
5BE7
331
0
  5
5BE8
331
0
  5
5BE9
331
0
  5
5BEA
331
0
  5
5BEB
331
0
  5
5BEC
331
0
  5
5BED
331
0
  5
5BEE
331
0
  5
5BEF
331
0
  5
5BF0
331
0
  5
5BF1
331
0
  5
5BF2
331
0
  5
5BF3
331
0
  5
5BF4
331
0
  5
5BF5
331
0
  5
5BF6
331
0
  5
5BF7
331
0
  5
5BF8
331
0
  5
5BF9
331
0
  5
5BFA
331
0
  5
5BFB
331
0
  5
5BFC
331
0
  5
5BFD
331
0
  5
5BFE
331
0
  5
5BFF
331
0
  5
5C00
331
0
  5
5C01
331
0
  5
5C02
331
0
  5
5C03
331
0
  5
5C04
331
0
  5
5C05
331
0
  5
5C06
331
0
  5
5C07
331
0
  5
5C08
331
0
  5
5C09
331
0
  5
5C0A
331
0
  5
5C0B
331
0
  5
5C0C
331
0
  5
5C0D
331
0
  5
5C0E
331
0
  5
5C0F
331
0
  5
5C10
331
0
  5
5C11
331
0
  5
5C12
331
0
  5
5C13
331
0
  5
5C14
331
0
  5
5C15
331
0
  5
5C16
331
0
  5
5C17
331
0
  5
5C18
331
0
  5
5C19
331
0
  5
5C1A
331
0
  5
5C1B
331
0
  5
5C1C
331
0
  5
5C1D
331
0
  5
5C1E
331
0
  5
5C1F
331
0
  5
5C20
331
0
  5
5C21
331
0
  5
5C22
331
0
  5
5C23
331
0
  5
5C24
331
0
  5
5C25
331
0
  5
5C26
331
0
  5
5C27
331
0
  5
5C28
331
0
  5
5C29
331
0
  5
5C2A
331
0
  5
5C2B
331
0
  5
5C2C
331
0
  5
5C2D
331
0
  5
5C2E
331
0
  5
5C2F
331
0
  5
5C30
331
0
  5
5C31
331
0
  5
5C32
331
0
  5
5C33
331
0
  5
5C34
331
0
  5
5C35
331
0
  5
5C36
331
0
  5
5C37
331
0
  5
5C38
331
0
  5
5C39
331
0
  5
5C3A
331
0
  5
5C3B
331
0
  5
5C3C
331
0
  5
5C3D
331
0
  5
5C3E
331
0
  5
5C3F
331
0
  5
5C40
331
0
  5
5C41
331
0
  5
5C42
331
0
  5
5C43
331
0
  5
5C44
331
0
  5
5C45
331
0
  5
5C46
331
0
  5
5C47
331
0
  5
5C48
331
0
  5
5C49
331
0
  5
5C4A
331
0
  5
5C4B
331
0
  5
5C4C
331
0
  5
5C4D
331
0
  5
5C4E
331
0
  5
5C4F
331
0
  5
5C50
331
0
  5
5C51
331
0
  5
5C52
331
0
  5
5C53
331
0
  5
5C54
331
0
  5
5C55
331
0
  5
5C56
331
0
  5
5C57
331
0
  5
5C58
331
0
  5
5C59
331
0
  5
5C5A
331
0
  5
5C5B
331
0
  5
5C5C
331
0
  5
5C5D
331
0
  5
5C5E
331
0
  5
5C5F
331
0
  5
5C60
331
0
  5
5C61
331
0
  5
5C62
331
0
  5
5C63
331
0
  5
5C64
331
0
  5
5C65
331
0
  5
5C66
331
0
  5
5C67
331
0
  5
5C68
331
0
  5
5C69
331
0
  5
5C6A
331
0
  5
5C6B
331
0
  5
5C6C
331
0
  5
5C6D
331
0
  5
5C6E
331
0
  5
5C6F
331
0
  5
5C70
331
0
  5
5C71
331
0
  5
5C72
331
0
  5
5C73
331
0
  5
5C74
331
0
  5
5C75
331
0
  5
5C76
331
0
  5
5C77
331
0
  5
5C78
331
0
  5
5C79
331
0
  5
5C7A
331
0
  5
5C7B
331
0
  5
5C7C
331
0
  5
5C7D
331
0
  5
5C7E
331
0
  5
5C7F
331
0
  5
5C80
331
0
  5
5C81
331
0
  5
5C82
331
0
  5
5C83
331
0
  5
5C84
331
0
  5
5C85
331
0
  5
5C86
331
0
  5
5C87
331
0
  5
5C88
331
0
  5
5C89
331
0
  5
5C8A
331
0
  5
5C8B
331
0
  5
5C8C
331
0
  5
5C8D
331
0
  5
5C8E
331
0
  5
5C8F
331
0
  5
5C90
331
0
  5
5C91
331
0
  5
5C92
331
0
  5
5C93
331
0
  5
5C94
331
0
  5
5C95
331
0
  5
5C96
331
0
  5
5C97
331
0
  5
5C98
331
0
  5
5C99
331
0
  5
5C9A
331
0
  5
5C9B
331
0
  5
5C9C
331
0
  5
5C9D
331
0
  5
5C9E
331
0
  5
5C9F
331
0
  5
5CA0
331
0
  5
5CA1
331
0
  5
5CA2
331
0
  5
5CA3
331
0
  5
5CA4
331
0
  5
5CA5
331
0
  5
5CA6
331
0
  5
5CA7
331
0
  5
5CA8
331
0
  5
5CA9
331
0
  5
5CAA
331
0
  5
5CAB
331
0
  5
5CAC
331
0
  5
5CAD
331
0
  5
5CAE
331
0
  5
5CAF
331
0
  5
5CB0
331
0
  5
5CB1
331
0
  5
5CB2
331
0
  5
5CB3
331
0
  5
5CB4
331
0
  5
5CB5
331
0
  5
5CB6
331
0
  5
5CB7
331
0
  5
5CB8
331
0
  5
5CB9
331
0
  5
5CBA
331
0
  5
5CBB
331
0
  5
5CBC
331
0
  5
5CBD
331
0
  5
5CBE
331
0
  5
5CBF
331
0
  5
5CC0
331
0
  5
5CC1
331
0
  5
5CC2
331
0
  5
5CC3
331
0
  5
5CC4
331
0
  5
5CC5
331
0
  5
5CC6
331
0
  5
5CC7
331
0
  5
5CC8
331
0
  5
5CC9
331
0
  5
5CCA
331
0
  5
5CCB
331
0
  5
5CCC
331
0
  5
5CCD
331
0
  5
5CCE
331
0
  5
5CCF
331
0
  5
5CD0
331
0
  5
5CD1
331
0
  5
5CD2
331
0
  5
5CD3
331
0
  5
5CD4
331
0
  5
5CD5
331
0
  5
5CD6
331
0
  5
5CD7
331
0
  5
5CD8
331
0
  5
5CD9
331
0
  5
5CDA
331
0
  5
5CDB
331
0
  5
5CDC
331
0
  5
5CDD
331
0
  5
5CDE
331
0
  5
5CDF
331
0
  5
5CE0
331
0
  5
5CE1
331
0
  5
5CE2
331
0
  5
5CE3
331
0
  5
5CE4
331
0
  5
5CE5
331
0
  5
5CE6
331
0
  5
5CE7
331
0
  5
5CE8
331
0
  5
5CE9
331
0
  5
5CEA
331
0
  5
5CEB
331
0
  5
5CEC
331
0
  5
5CED
331
0
  5
5CEE
331
0
  5
5CEF
331
0
  5
5CF0
331
0
  5
5CF1
331
0
  5
5CF2
331
0
  5
5CF3
331
0
  5
5CF4
331
0
  5
5CF5
331
0
  5
5CF6
331
0
  5
5CF7
331
0
  5
5CF8
331
0
  5
5CF9
331
0
  5
5CFA
331
0
  5
5CFB
331
0
  5
5CFC
331
0
  5
5CFD
331
0
  5
5CFE
331
0
  5
5CFF
331
0
  5
5D00
331
0
  5
5D01
331
0
  5
5D02
331
0
  5
5D03
331
0
  5
5D04
331
0
  5
5D05
331
0
  5
5D06
331
0
  5
5D07
331
0
  5
5D08
331
0
  5
5D09
331
0
  5
5D0A
331
0
  5
5D0B
331
0
  5
5D0E
331
0
  5
5D0F
331
0
  5
5D10
331
0
  5
5D11
331
0
  5
5D12
331
0
  5
5D13
331
0
  5
5D14
331
0
  5
5D15
331
0
  5
5D16
331
0
  5
5D17
331
0
  5
5D18
331
0
  5
5D19
331
0
  5
5D1A
331
0
  5
5D1B
331
0
  5
5D1C
331
0
  5
5D1D
331
0
  5
5D1E
331
0
  5
5D1F
331
0
  5
5D20
331
0
  5
5D21
331
0
  5
5D22
331
0
  5
5D23
331
0
  5
5D24
331
0
  5
5D25
331
0
  5
5D26
331
0
  5
5D27
331
0
  5
5D28
331
0
  5
5D29
331
0
  5
5D2A
331
0
  5
5D2B
331
0
  5
5D2C
331
0
  5
5D2D
331
0
  5
5D2E
331
0
  5
5D2F
331
0
  5
5D30
331
0
  5
5D31
331
0
  5
5D32
331
0
  5
5D33
331
0
  5
5D34
331
0
  5
5D35
331
0
  5
5D36
331
0
  5
5D37
331
0
  5
5D38
331
0
  5
5D39
331
0
  5
5D3A
331
0
  5
5D3B
331
0
  5
5D3C
331
0
  5
5D3D
331
0
  5
5D3E
331
0
  5
5D3F
331
0
  5
5D40
331
0
  5
5D41
331
0
  5
5D42
331
0
  5
5D43
331
0
  5
5D44
331
0
  5
5D45
331
0
  5
5D46
331
0
  5
5D47
331
0
  5
5D48
331
0
  5
5D4D
331
0
  5
5D4E
331
0
  5
5D4F
331
0
  5
5D50
331
0
  5
5D51
331
0
  5
5D52
331
0
  5
5D53
331
0
  5
5D54
331
0
  5
5D55
331
0
  5
5D56
331
0
  5
5D57
331
0
  5
5D58
331
0
  5
5D59
331
0
  5
5D5A
331
0
  5
5D5B
331
0
  5
5D5C
331
0
  5
5D5D
331
0
  5
5D5E
331
0
  5
5D5F
331
0
  5
5D60
331
0
  5
5D61
331
0
  5
5D62
331
0
  5
5D63
331
0
  5
5D64
331
0
  5
5D65
331
0
  5
5D66
331
0
  5
5D67
331
0
  5
5D68
331
0
  5
5D69
331
0
  5
5D6A
331
0
  5
5D6B
331
0
  5
5D6C
331
0
  5
5D6D
331
0
  5
5D6E
331
0
  5
5D6F
331
0
  5
5D70
331
0
  5
5D71
331
0
  5
5D72
331
0
  5
5D73
331
0
  5
5D74
331
0
  5
5D75
331
0
  5
5D76
331
0
  5
5D77
331
0
  5
5D78
331
0
  5
5D79
331
0
  5
5D7A
331
0
  5
5D7B
331
0
  5
5D7C
331
0
  5
5D7D
331
0
  5
5D7E
331
0
  5
5D7F
331
0
  5
5D80
331
0
  5
5D81
331
0
  5
5D82
331
0
  5
5D83
331
0
  5
5D84
331
0
  5
5D85
331
0
  5
5D86
331
0
  5
5D87
331
0
  5
5D88
331
0
  5
5D89
331
0
  5
5D8A
331
0
  5
5D8B
331
0
  5
5D8C
331
0
  5
5D8D
331
0
  5
5D8E
331
0
  5
5D8F
331
0
  5
5D90
331
0
  5
5D91
331
0
  5
5D92
331
0
  5
5D93
331
0
  5
5D94
331
0
  5
5D95
331
0
  5
5D96
331
0
  5
5D97
331
0
  5
5D98
331
0
  5
5D99
331
0
  5
5D9A
331
0
  5
5D9B
331
0
  5
5D9C
331
0
  5
5D9D
331
0
  5
5D9E
331
0
  5
5D9F
331
0
  5
5DA0
331
0
  5
5DA1
331
0
  5
5DA2
331
0
  5
5DA3
331
0
  5
5DA5
331
0
  5
5DA6
331
0
  5
5DA7
331
0
  5
5E23
331
0
  5
5E24
331
0
  5
5E67
331
0
  5
5E68
331
0
  5
5E69
331
0
  5
5E6A
331
0
  5
5E6B
331
0
  5
5E6C
331
0
  5
5E6D
331
0
  5
5E6E
331
0
  5
5E6F
331
0
  5
5E70
331
0
  5
5E71
331
0
  5
5E7E
331
5E7E
  5
5E7F
331
5E7F
  5
5FC2
331
0
  5
5FC3
331
5FC3
  5
5FC4
331
5FC4
  5
5FC5
331
5FC5
  5
5FC6
331
5FC6
  5
5FC7
331
5FC7
  5
5FC8
331
5FC8
  5
5FC9
331
5FC9
  5
5FCA
331
5FCA
  5
5FCB
331
5FCB
  5
5FCC
331
5FCC
  5
5FCD
331
5FCD
  5
5FCE
331
5FCE
  5
5FCF
331
5FCF
  5
5FD0
331
5FD0
  5
5FD1
331
5FD1
  5
5FD2
331
5FD2
  5
5FD3
331
5FD3
  5
5FD4
331
5FD4
  5
5FD5
331
5FD5
  5
5FD6
331
5FD6
  5
5FD7
331
5FD7
  5
5FD8
331
5FD8
  5
5FD9
331
5FD9
  5
5FDA
331
5FDA
  5
5FDB
331
5FDB
  5
5FDC
331
5FDC
  5
5FDD
331
5FDD
  5
5FDE
331
5FDE
  5
5FDF
331
5FDF
  5
5FE0
331
5FE0
  5
5FE1
331
5FE1
  5
5FE2
331
5FE2
  5
5FE3
331
5FE3
  5
5FE4
331
5FE4
  5
5FE5
331
5FE5
  5
5FE6
331
5FE6
  5
5FE7
331
5FE7
  5
5FE8
331
5FE8
  5
5FE9
331
5FE9
  5
5FEA
331
5FEA
  5
5FEB
331
5FEB
  5
5FEC
331
5FEC
  5
5FED
331
5FED
  5
5FEE
331
5FEE
  5
5FEF
331
5FEF
  5
5FF0
331
5FF0
  5
5FF1
331
5FF1
  5
5FF2
331
5FF2
  5
5FF3
331
5FF3
  5
5FF4
331
5FF4
  5
5FF5
331
5FF5
  5
5FF6
331
5FF6
  5
5FF7
331
5FF7
  5
5FF8
331
5FF8
  5
5FF9
331
5FF9
  5
5FFA
331
5FFA
  5
5FFB
331
5FFB
  5
5FFC
331
5FFC
  5
5FFD
331
5FFD
  5
5FFE
331
5FFE
  5
5FFF
331
5FFF
  5
6000
331
6000
  5
6001
331
6001
  5
6002
331
6002
  5
6003
331
6003
  5
6004
331
6004
  5
6005
331
6005
  5
6006
331
6006
  5
6007
331
6007
  5
6008
331
6008
  5
6009
331
6009
  5
600A
331
600A
  5
600B
331
600B
  5
600C
331
600C
  5
600D
331
600D
  5
600E
331
600E
  5
600F
331
600F
  5
6010
331
6010
  5
6011
331
6011
  5
6012
331
6012
  5
6013
331
6013
  5
6014
331
6014
  5
6015
331
6015
  5
6016
331
6016
  5
6017
331
6017
  5
6018
331
6018
  5
6019
331
6019
  5
601A
331
601A
  5
601B
331
601B
  5
601C
331
601C
  5
601D
331
601D
  5
601E
331
601E
  5
601F
331
601F
  5
6020
331
6020
  5
6021
331
6021
  5
6022
331
6022
  5
6023
331
6023
  5
6024
331
6024
  5
6025
331
6025
  5
6026
331
6026
  5
6027
331
6027
  5
6028
331
6028
  5
6029
331
6029
  5
602A
331
602A
  5
602B
331
602B
  5
602C
331
602C
  5
602D
331
602D
  5
602E
331
602E
  5
602F
331
602F
  5
6030
331
6030
  5
6031
331
6031
  5
6032
331
6032
  5
6033
331
6033
  5
6034
331
6034
  5
6035
331
6035
  5
6036
331
6036
  5
6037
331
6037
  5
6038
331
6038
  5
6039
331
6039
  5
603A
331
603A
  5
603B
331
603B
  5
603C
331
603C
  5
603D
331
603D
  5
603E
331
603E
  5
603F
331
603F
  5
6040
331
6040
  5
6041
331
6041
  5
6042
331
6042
  5
6043
331
6043
  5
6044
331
6044
  5
6045
331
6045
  5
6046
331
6046
  5
6047
331
6047
  5
6048
331
6048
  5
6049
331
6049
  5
604A
331
604A
  5
604B
331
604B
  5
604C
331
604C
  5
604D
331
604D
  5
604E
331
604E
  5
604F
331
604F
  5
6050
331
6050
  5
6051
331
6051
  5
6052
331
6052
  5
6053
331
6053
  5
6054
331
6054
  5
6055
331
6055
  5
6056
331
6056
  5
6057
331
6057
  5
6058
331
6058
  5
6059
331
6059
  5
605A
331
605A
  5
605B
331
605B
  5
605C
331
605C
  5
605D
331
605D
  5
605E
331
605E
  5
605F
331
605F
  5
6060
331
6060
  5
6061
331
6061
  5
6062
331
6062
  5
6063
331
6063
  5
6064
331
6064
  5
6065
331
6065
  5
6066
331
6066
  5
6067
331
6067
  5
6068
331
6068
  5
6069
331
6069
  5
606A
331
606A
  5
606B
331
606B
  5
606C
331
606C
  5
606D
331
606D
  5
606E
331
606E
  5
606F
331
606F
  5
6070
331
6070
  5
6071
331
6071
  5
6072
331
6072
  5
6073
331
6073
  5
6074
331
6074
  5
6075
331
6075
  5
6076
331
6076
  5
6077
331
6077
  5
6078
331
6078
  5
6079
331
6079
  5
607A
331
607A
  5
607B
331
607B
  5
607C
331
607C
  5
607D
331
607D
  5
607E
331
607E
  5
607F
331
607F
  5
6080
331
6080
  5
6081
331
6081
  5
6082
331
6082
  5
6083
331
6083
  5
6084
331
6084
  5
6085
331
6085
  5
6086
331
6086
  5
6087
331
6087
  5
6088
331
6088
  5
6089
331
6089
  5
608A
331
608A
  5
608B
331
608B
  5
608C
331
608C
  5
608D
331
608D
  5
608E
331
608E
  5
608F
331
608F
  5
6090
331
6090
  5
6091
331
6091
  5
6092
331
6092
  5
6093
331
6093
  5
6094
331
6094
  5
6095
331
6095
  5
6096
331
6096
  5
6097
331
6097
  5
6098
331
6098
  5
6099
331
6099
  5
609A
331
609A
  5
609B
331
609B
  5
609C
331
609C
  5
609D
331
609D
  5
609E
331
609E
  5
609F
331
609F
  5
60A0
331
60A0
  5
60A1
331
60A1
  5
60A2
331
60A2
  5
60A3
331
60A3
  5
60A4
331
60A4
  5
60A5
331
60A5
  5
60A6
331
60A6
  5
60A7
331
60A7
  5
60A8
331
60A8
  5
60A9
331
60A9
  5
60AA
331
60AA
  5
60AB
331
60AB
  5
60AC
331
60AC
  5
60AD
331
60AD
  5
60AE
331
60AE
  5
60AF
331
60AF
  5
60B0
331
60B0
  5
60B1
331
60B1
  5
60B2
331
60B2
  5
60B3
331
60B3
  5
60B4
331
60B4
  5
60B5
331
60B5
  5
60B6
331
60B6
  5
60B7
331
60B7
  5
60B8
331
60B8
  5
60B9
331
60B9
  5
60BA
331
60BA
  5
60BB
331
60BB
  5
60BC
331
60BC
  5
60BD
331
60BD
  5
60BE
331
0
  5
60BF
331
0
  5
60C0
331
0
  5
60C1
331
0
  5
60C2
331
0
  5
60DD
331
0
  5
177
  0
DICTIONARY
  5
4539
102
{ACAD_REACTORS
330
4532
102
}
330
4532
100
AcDbDictionary
280
     1
281
     1
  3
TEXT
360
4531
  0
DIMASSOC
  5
61DC
102
{ACAD_REACTORS
330
61DB
102
}
330
61DB
100
AcDbDimAssoc
330
61DA
 90
        3
 70
     0
 71
     1
  1
AcDbOsnapPointRef
 72
    10
331
609A
 73
     0
 91
        0
 40
0.9316943147732616
 10
0.0
 20
0.0
 30
0.0
 75
     0
  1
AcDbOsnapPointRef
 72
     8
331
607A
 73
     0
 91
        0
 40
0.0683056852267384
 10
0.0
 20
0.0
 30
0.0
 75
     1
  1
AcDbOsnapPointRef
 72
    10
331
609A
 73
     0
 91
        0
 40
0.9316943147732616
 10
0.0
 20
0.0
 30
0.0
 75
     0
  0
DIMASSOC
  5
6262
102
{ACAD_REACTORS
330
6261
102
}
330
6261
100
AcDbDimAssoc
330
6260
 90
        3
 70
     0
 71
     1
  1
AcDbOsnapPointRef
 72
     1
331
624B
 73
     0
 91
        0
 40
0.0
 10
0.0
 20
0.0
 30
0.0
 75
     0
  1
AcDbOsnapPointRef
 72
    13
331
6079
 73
     0
 91
        0
 40
0.0
 10
0.0
 20
0.0
 30
0.0
 75
     0
  0
DIMASSOC
  5
627D
102
{ACAD_REACTORS
330
627C
102
}
330
627C
100
AcDbDimAssoc
330
627B
 90
        3
 70
     0
 71
     1
  1
AcDbOsnapPointRef
 72
    10
331
6213
 73
     0
 91
        0
 40
0.559477752791261
 10
0.0
 20
0.0
 30
0.0
 75
     0
  1
AcDbOsnapPointRef
 72
     8
331
624A
 73
     0
 91
        0
 40
0.559477752791261
 10
0.0
 20
0.0
 30
0.0
 75
     1
  1
AcDbOsnapPointRef
 72
    10
331
6213
 73
     0
 91
        0
 40
0.559477752791261
 10
0.0
 20
0.0
 30
0.0
 75
     0
  0
IMAGEDEF
  5
60DC
102
{ACAD_REACTORS
330
60DB
330
60DE
102
}
330
60DB
100
AcDbRasterImageDef
 90
        0
  1
K:/DESKTOP/Untitled.jpg
 10
477.0
 20
877.0
 11
0.2646202699126753
 21
0.2646202699126753
280
     1
281
     3
  0
LAYOUT
  5
21
102
{ACAD_REACTORS
330
1E
102
}
330
1E
100
AcDbPlotSettings
  1

  2
none_device
  4
ISO_A3_(420.00_x_297.00_MM)
  6

 40
7.5
 41
20.0
 42
7.5
 43
20.0
 44
420.0
 45
297.0
 46
0.0
 47
0.0
 48
0.0
 49
0.0
140
0.0
141
0.0
142
1.0
143
1.0
 70
     0
 72
     1
 73
     0
 74
     0
  7

 75
     0
 76
     0
 77
     2
 78
   300
147
1.0
148
0.0
149
0.0
100
AcDbLayout
  1
Layout1
 70
     0
 71
     0
 10
-7.5
 20
-20.0
 11
412.5
 21
277.0
 12
0.0
 22
0.0
 32
0.0
 14
0.0
 24
0.0
 34
0.0
 15
0.0
 25
0.0
 35
0.0
146
0.0
 13
0.0
 23
0.0
 33
0.0
 16
0.0
 26
0.0
 36
0.0
 17
0.0
 27
0.0
 37
0.0
 76
     0
330
B
331
349
  0
LAYOUT
  5
20
102
{ACAD_REACTORS
330
1E
102
}
330
1E
100
AcDbPlotSettings
  1

  2
none_device
  4
ISO_A3_(420.00_x_297.00_MM)
  6

 40
7.5
 41
20.0
 42
7.5
 43
20.0
 44
420.0
 45
297.0
 46
0.0
 47
0.0
 48
0.0
 49
0.0
140
0.0
141
0.0
142
1.0
143
1.0
 70
  1024
 72
     1
 73
     0
 74
     0
  7

 75
     0
 76
     0
 77
     2
 78
   300
147
1.0
148
0.0
149
0.0
100
AcDbLayout
  1
Model
 70
     0
 71
     1
 10
0.0
 20
0.0
 11
420.0
 21
594.0
 12
0.0
 22
0.0
 32
0.0
 14
0.0
 24
0.0
 34
0.0
 15
420.0
 25
594.0
 35
0.0
146
0.0
 13
0.0
 23
0.0
 33
0.0
 16
0.0
 26
0.0
 36
0.0
 17
0.0
 27
0.0
 37
0.0
 76
     0
330
A
331
15
  0
MATERIAL
  5
4A9C
102
{ACAD_REACTORS
330
263
102
}
330
263
100
AcDbMaterial
  1
ByBlock
 72
     1
 94
      127
  0
MATERIAL
  5
264
102
{ACAD_REACTORS
330
263
102
}
330
263
100
AcDbMaterial
  1
ByLayer
 72
     1
 94
      127
  0
MATERIAL
  5
266
102
{ACAD_REACTORS
330
263
102
}
330
263
100
AcDbMaterial
  1
Global
 72
     1
 94
      127
  0
MLEADERSTYLE
  5
D59
102
{ACAD_REACTORS
330
336
102
}
330
336
100
AcDbMLeaderStyle
170
     2
171
     1
172
     0
 90
        2
 40
0.0
 41
0.0
173
     1
 91
-1056964608
340
11
 92
       -2
290
     1
 42
2.0
291
     1
 43
8.0
  3
Standard
341
0
 44
4.0
300

342
17
174
     1
178
     6
175
     1
176
     0
 93
-1056964608
 45
4.0
292
     0
297
     0
 46
4.0
343
0
 94
-1056964608
 47
1.0
 49
1.0
140
1.0
293
     1
141
0.0
294
     1
177
     0
142
1.0
295
     0
296
     0
143
3.75
1001
ACAD_MLEADERVER
1070
     2
  0
MLINESTYLE
  5
1C
102
{ACAD_REACTORS
330
1B
102
}
330
1B
100
AcDbMlineStyle
  2
Standard
 70
     0
  3

 62
     0
 51
90.0
 52
90.0
 71
     2
 49
0.5
 62
   256
  6
BYLAYER
 49
-0.5
 62
   256
  6
BYLAYER
  0
ACDBPLACEHOLDER
  5
1D
102
{ACAD_REACTORS
330
1F
102
}
330
1F
  0
SCALE
  5
242
102
{ACAD_REACTORS
330
241
102
}
330
241
100
AcDbScale
 70
     0
300
1:1
140
1.0
141
1.0
290
     1
  0
SCALE
  5
243
102
{ACAD_REACTORS
330
241
102
}
330
241
100
AcDbScale
 70
     0
300
1:2
140
1.0
141
2.0
290
     0
  0
SCALE
  5
244
102
{ACAD_REACTORS
330
241
102
}
330
241
100
AcDbScale
 70
     0
300
1:4
140
1.0
141
4.0
290
     0
  0
SCALE
  5
245
102
{ACAD_REACTORS
330
241
102
}
330
241
100
AcDbScale
 70
     0
300
1:5
140
1.0
141
5.0
290
     0
  0
SCALE
  5
246
102
{ACAD_REACTORS
330
241
102
}
330
241
100
AcDbScale
 70
     0
300
1:8
140
1.0
141
8.0
290
     0
  0
SCALE
  5
247
102
{ACAD_REACTORS
330
241
102
}
330
241
100
AcDbScale
 70
     0
300
1:10
140
1.0
141
10.0
290
     0
  0
SCALE
  5
248
102
{ACAD_REACTORS
330
241
102
}
330
241
100
AcDbScale
 70
     0
300
1:16
140
1.0
141
16.0
290
     0
  0
SCALE
  5
249
102
{ACAD_REACTORS
330
241
102
}
330
241
100
AcDbScale
 70
     0
300
1:20
140
1.0
141
20.0
290
     0
  0
SCALE
  5
24A
102
{ACAD_REACTORS
330
241
102
}
330
241
100
AcDbScale
 70
     0
300
1:30
140
1.0
141
30.0
290
     0
  0
SCALE
  5
24B
102
{ACAD_REACTORS
330
241
102
}
330
241
100
AcDbScale
 70
     0
300
1:40
140
1.0
141
40.0
290
     0
  0
SCALE
  5
24C
102
{ACAD_REACTORS
330
241
102
}
330
241
100
AcDbScale
 70
     0
300
1:50
140
1.0
141
50.0
290
     0
  0
SCALE
  5
24D
102
{ACAD_REACTORS
330
241
102
}
330
241
100
AcDbScale
 70
     0
300
1:100
140
1.0
141
100.0
290
     0
  0
SCALE
  5
24E
102
{ACAD_REACTORS
330
241
102
}
330
241
100
AcDbScale
 70
     0
300
2:1
140
2.0
141
1.0
290
     0
  0
SCALE
  5
24F
102
{ACAD_REACTORS
330
241
102
}
330
241
100
AcDbScale
 70
     0
300
4:1
140
4.0
141
1.0
290
     0
  0
SCALE
  5
250
102
{ACAD_REACTORS
330
241
102
}
330
241
100
AcDbScale
 70
     0
300
8:1
140
8.0
141
1.0
290
     0
  0
SCALE
  5
251
102
{ACAD_REACTORS
330
241
102
}
330
241
100
AcDbScale
 70
     0
300
10:1
140
10.0
141
1.0
290
     0
  0
SCALE
  5
252
102
{ACAD_REACTORS
330
241
102
}
330
241
100
AcDbScale
 70
     0
300
100:1
140
100.0
141
1.0
290
     0
  0
SCALE
  5
253
102
{ACAD_REACTORS
330
241
102
}
330
241
100
AcDbScale
 70
     0
300
1/128" = 1'-0"
140
0.0078125
141
12.0
290
     0
  0
SCALE
  5
254
102
{ACAD_REACTORS
330
241
102
}
330
241
100
AcDbScale
 70
     0
300
1/64" = 1'-0"
140
0.015625
141
12.0
290
     0
  0
SCALE
  5
255
102
{ACAD_REACTORS
330
241
102
}
330
241
100
AcDbScale
 70
     0
300
1/32" = 1'-0"
140
0.03125
141
12.0
290
     0
  0
SCALE
  5
256
102
{ACAD_REACTORS
330
241
102
}
330
241
100
AcDbScale
 70
     0
300
1/16" = 1'-0"
140
0.0625
141
12.0
290
     0
  0
SCALE
  5
257
102
{ACAD_REACTORS
330
241
102
}
330
241
100
AcDbScale
 70
     0
300
3/32" = 1'-0"
140
0.09375
141
12.0
290
     0
  0
SCALE
  5
258
102
{ACAD_REACTORS
330
241
102
}
330
241
100
AcDbScale
 70
     0
300
1/8" = 1'-0"
140
0.125
141
12.0
290
     0
  0
SCALE
  5
259
102
{ACAD_REACTORS
330
241
102
}
330
241
100
AcDbScale
 70
     0
300
3/16" = 1'-0"
140
0.1875
141
12.0
290
     0
  0
SCALE
  5
25A
102
{ACAD_REACTORS
330
241
102
}
330
241
100
AcDbScale
 70
     0
300
1/4" = 1'-0"
140
0.25
141
12.0
290
     0
  0
SCALE
  5
25B
102
{ACAD_REACTORS
330
241
102
}
330
241
100
AcDbScale
 70
     0
300
3/8" = 1'-0"
140
0.375
141
12.0
290
     0
  0
SCALE
  5
25C
102
{ACAD_REACTORS
330
241
102
}
330
241
100
AcDbScale
 70
     0
300
1/2" = 1'-0"
140
0.5
141
12.0
290
     0
  0
SCALE
  5
25D
102
{ACAD_REACTORS
330
241
102
}
330
241
100
AcDbScale
 70
     0
300
3/4" = 1'-0"
140
0.75
141
12.0
290
     0
  0
SCALE
  5
25E
102
{ACAD_REACTORS
330
241
102
}
330
241
100
AcDbScale
 70
     0
300
1" = 1'-0"
140
1.0
141
12.0
290
     0
  0
SCALE
  5
25F
102
{ACAD_REACTORS
330
241
102
}
330
241
100
AcDbScale
 70
     0
300
1-1/2" = 1'-0"
140
1.5
141
12.0
290
     0
  0
SCALE
  5
260
102
{ACAD_REACTORS
330
241
102
}
330
241
100
AcDbScale
 70
     0
300
3" = 1'-0"
140
3.0
141
12.0
290
     0
  0
SCALE
  5
261
102
{ACAD_REACTORS
330
241
102
}
330
241
100
AcDbScale
 70
     0
300
6" = 1'-0"
140
6.0
141
12.0
290
     0
  0
SCALE
  5
262
102
{ACAD_REACTORS
330
241
102
}
330
241
100
AcDbScale
 70
     0
300
1'-0" = 1'-0"
140
12.0
141
12.0
290
     0
  0
TABLESTYLE
  5
279
102
{ACAD_REACTORS
330
278
102
}
102
{ACAD_XDICTIONARY
360
63B1
102
}
330
278
100
AcDbTableStyle
  3
Standard
 70
     0
 71
     0
 40
0.06
 41
0.06
280
     0
281
     0
  7
Standard
140
4.5
170
     2
 62
     0
 63
   257
283
     0
 90
        4
 91
        0
  1

274
    -2
284
     1
 64
     0
275
    -2
285
     1
 65
     0
276
    -2
286
     1
 66
     0
277
    -2
287
     1
 67
     0
278
    -2
288
     1
 68
     0
279
    -2
289
     1
 69
     0
  7
Standard
140
6.0
170
     5
 62
     0
 63
   257
283
     0
 90
        4
 91
        0
  1

274
    -2
284
     1
 64
     0
275
    -2
285
     1
 65
     0
276
    -2
286
     1
 66
     0
277
    -2
287
     1
 67
     0
278
    -2
288
     1
 68
     0
279
    -2
289
     1
 69
     0
  7
Standard
140
4.5
170
     5
 62
     0
 63
   257
283
     0
 90
        4
 91
        0
  1

274
    -2
284
     1
 64
     0
275
    -2
285
     1
 65
     0
276
    -2
286
     1
 66
     0
277
    -2
287
     1
 67
     0
278
    -2
288
     1
 68
     0
279
    -2
289
     1
 69
     0
  0
VISUALSTYLE
  5
26C
102
{ACAD_REACTORS
330
267
102
}
330
267
100
AcDbVisualStyle
  2
2dWireframe
 70
     4
 71
     0
 72
     2
 73
     0
 90
        0
 40
-0.6
 41
-30.0
 62
     5
 63
     7
421
 16777215
 74
     1
 91
        4
 64
     7
 65
   257
 75
     1
175
     1
 42
1.0
 92
        0
 66
   257
 43
1.0
 76
     1
 77
     6
 78
     2
 67
     7
 79
     5
170
     0
171
     0
290
     0
174
     0
 93
        1
 44
0.0
173
     0
291
     0
 45
0.0
  0
VISUALSTYLE
  5
26E
102
{ACAD_REACTORS
330
267
102
}
330
267
100
AcDbVisualStyle
  2
3D Hidden
 70
     6
 71
     1
 72
     2
 73
     2
 90
        0
 40
-0.6
 41
-30.0
 62
     5
 63
     7
421
 16777215
 74
     2
 91
        2
 64
     7
 65
   257
 75
     2
175
     1
 42
40.0
 92
        0
 66
   257
 43
1.0
 76
     1
 77
     6
 78
     2
 67
     7
 79
     3
170
     0
171
     0
290
     0
174
     0
 93
        1
 44
0.0
173
     0
291
     0
 45
0.0
  0
VISUALSTYLE
  5
26D
102
{ACAD_REACTORS
330
267
102
}
330
267
100
AcDbVisualStyle
  2
3dWireframe
 70
     5
 71
     0
 72
     2
 73
     0
 90
        0
 40
-0.6
 41
-30.0
 62
     5
 63
     7
421
 16777215
 74
     1
 91
        4
 64
     7
 65
   257
 75
     1
175
     1
 42
1.0
 92
        0
 66
   257
 43
1.0
 76
     1
 77
     6
 78
     2
 67
     7
 79
     5
170
     0
171
     0
290
     0
174
     0
 93
        1
 44
0.0
173
     0
291
     0
 45
0.0
  0
VISUALSTYLE
  5
26F
102
{ACAD_REACTORS
330
267
102
}
330
267
100
AcDbVisualStyle
  2
Basic
 70
     7
 71
     1
 72
     0
 73
     1
 90
        0
 40
-0.6
 41
-30.0
 62
     5
 63
     7
421
 16777215
 74
     0
 91
        4
 64
     7
 65
   257
 75
     1
175
     1
 42
1.0
 92
        8
 66
     7
 43
1.0
 76
     1
 77
     6
 78
     2
 67
     7
 79
     5
170
     0
171
     0
290
     0
174
     0
 93
        1
 44
0.0
173
     0
291
     1
 45
0.0
  0
VISUALSTYLE
  5
273
102
{ACAD_REACTORS
330
267
102
}
330
267
100
AcDbVisualStyle
  2
Brighten
 70
    12
 71
     2
 72
     2
 73
     0
 90
        0
 40
-0.6
 41
-30.0
 62
     5
 63
     7
421
 16777215
 74
     1
 91
        4
 64
     7
 65
   257
 75
     1
175
     1
 42
1.0
 92
        8
 66
     7
 43
1.0
 76
     1
 77
     6
 78
     2
 67
     7
 79
     5
170
     0
171
     0
290
     0
174
     0
 93
        1
 44
50.0
173
     0
291
     1
 45
0.0
  0
VISUALSTYLE
  5
277
102
{ACAD_REACTORS
330
267
102
}
330
267
100
AcDbVisualStyle
  2
ColorChange
 70
    16
 71
     2
 72
     2
 73
     3
 90
        0
 40
-0.6
 41
-30.0
 62
     5
 63
     8
421
  8421504
 74
     1
 91
        4
 64
     7
 65
   257
 75
     1
175
     1
 42
1.0
 92
        8
 66
     8
424
  8421504
 43
1.0
 76
     1
 77
     6
 78
     2
 67
     7
 79
     5
170
     0
171
     0
290
     0
174
     0
 93
        1
 44
0.0
173
     0
291
     1
 45
0.0
  0
VISUALSTYLE
  5
271
102
{ACAD_REACTORS
330
267
102
}
330
267
100
AcDbVisualStyle
  2
Conceptual
 70
     9
 71
     3
 72
     2
 73
     0
 90
        0
 40
-0.6
 41
-30.0
 62
     5
 63
     7
421
 16777215
 74
     2
 91
        2
 64
     7
 65
   257
 75
     1
175
     1
 42
40.0
 92
        8
 66
     7
 43
1.0
 76
     1
 77
     6
 78
     2
 67
     7
 79
     3
170
     0
171
     0
290
     0
174
     0
 93
        1
 44
0.0
173
     0
291
     0
 45
0.0
  0
VISUALSTYLE
  5
272
102
{ACAD_REACTORS
330
267
102
}
330
267
100
AcDbVisualStyle
  2
Dim
 70
    11
 71
     2
 72
     2
 73
     0
 90
        0
 40
-0.6
 41
-30.0
 62
     5
 63
     7
421
 16777215
 74
     1
 91
        4
 64
     7
 65
   257
 75
     1
175
     1
 42
1.0
 92
        8
 66
     7
 43
1.0
 76
     1
 77
     6
 78
     2
 67
     7
 79
     5
170
     0
171
     0
290
     0
174
     0
 93
        1
 44
-50.0
173
     0
291
     1
 45
0.0
  0
VISUALSTYLE
  5
8FE
102
{ACAD_REACTORS
330
267
102
}
330
267
100
AcDbVisualStyle
  2
EdgeColorOff
 70
    22
 71
     2
 72
     2
 73
     0
 90
        0
 40
0.6
 41
30.0
 62
     5
 63
     7
421
 16777215
 74
     1
 91
        4
 64
     7
 65
   257
 75
     1
175
     1
 42
1.0
 92
        8
 66
     7
 43
1.0
 76
     1
 77
     6
 78
     2
 67
     7
 79
     5
170
     0
171
     0
290
     0
174
     0
 93
        1
 44
0.0
173
     0
291
     1
 45
0.0
  0
VISUALSTYLE
  5
276
102
{ACAD_REACTORS
330
267
102
}
330
267
100
AcDbVisualStyle
  2
Facepattern
 70
    15
 71
     2
 72
     2
 73
     0
 90
        0
 40
-0.6
 41
-30.0
 62
     5
 63
     7
421
 16777215
 74
     1
 91
        4
 64
     7
 65
   257
 75
     1
175
     1
 42
1.0
 92
        8
 66
     7
 43
1.0
 76
     1
 77
     6
 78
     2
 67
     7
 79
     5
170
     0
171
     0
290
     0
174
     0
 93
        1
 44
0.0
173
     0
291
     1
 45
0.0
  0
VISUALSTYLE
  5
268
102
{ACAD_REACTORS
330
267
102
}
330
267
100
AcDbVisualStyle
  2
Flat
 70
     0
 71
     2
 72
     1
 73
     1
 90
        2
 40
-0.6
 41
30.0
 62
     5
 63
     7
421
 16777215
 74
     0
 91
        4
 64
     7
 65
   257
 75
     1
175
     1
 42
1.0
 92
        8
 66
     7
 43
1.0
 76
     1
 77
     6
 78
     2
 67
     7
 79
     5
170
     0
171
     0
290
     0
174
     0
 93
       13
 44
0.0
173
     0
291
     1
 45
0.0
  0
VISUALSTYLE
  5
269
102
{ACAD_REACTORS
330
267
102
}
330
267
100
AcDbVisualStyle
  2
FlatWithEdges
 70
     1
 71
     2
 72
     1
 73
     1
 90
        2
 40
-0.6
 41
30.0
 62
     5
 63
     7
421
 16777215
 74
     1
 91
        4
 64
     7
 65
   257
 75
     1
175
     1
 42
1.0
 92
        0
 66
   257
 43
1.0
 76
     1
 77
     6
 78
     2
 67
     7
 79
     5
170
     0
171
     0
290
     0
174
     0
 93
       13
 44
0.0
173
     0
291
     1
 45
0.0
  0
VISUALSTYLE
  5
26A
102
{ACAD_REACTORS
330
267
102
}
330
267
100
AcDbVisualStyle
  2
Gouraud
 70
     2
 71
     2
 72
     2
 73
     1
 90
        2
 40
-0.6
 41
30.0
 62
     5
 63
     7
421
 16777215
 74
     0
 91
        4
 64
     7
 65
   257
 75
     1
175
     1
 42
1.0
 92
        0
 66
     7
 43
1.0
 76
     1
 77
     6
 78
     2
 67
     7
 79
     5
170
     0
171
     0
290
     0
174
     0
 93
       13
 44
0.0
173
     0
291
     1
 45
0.0
  0
VISUALSTYLE
  5
26B
102
{ACAD_REACTORS
330
267
102
}
330
267
100
AcDbVisualStyle
  2
GouraudWithEdges
 70
     3
 71
     2
 72
     2
 73
     1
 90
        2
 40
-0.6
 41
30.0
 62
     5
 63
     7
421
 16777215
 74
     1
 91
        4
 64
     7
 65
   257
 75
     1
175
     1
 42
1.0
 92
        0
 66
   257
 43
1.0
 76
     1
 77
     6
 78
     2
 67
     7
 79
     5
170
     0
171
     0
290
     0
174
     0
 93
       13
 44
0.0
173
     0
291
     1
 45
0.0
  0
VISUALSTYLE
  5
8FB
102
{ACAD_REACTORS
330
267
102
}
330
267
100
AcDbVisualStyle
  2
Hidden
 70
     6
 71
     1
 72
     2
 73
     2
 90
        0
 40
0.6
 41
30.0
 62
     5
 63
     7
421
 16777215
 74
     2
 91
        2
 64
     7
 65
   257
 75
     2
175
     1
 42
40.0
 92
        0
 66
   257
 43
1.0
 76
     1
 77
     6
 78
     2
 67
     7
 79
     3
170
     0
171
     0
290
     0
174
     0
 93
        1
 44
0.0
173
     0
291
     0
 45
0.0
  0
VISUALSTYLE
  5
8FC
102
{ACAD_REACTORS
330
267
102
}
330
267
100
AcDbVisualStyle
  2
JitterOff
 70
    20
 71
     2
 72
     2
 73
     0
 90
        0
 40
0.6
 41
30.0
 62
     5
 63
     7
421
 16777215
 74
     1
 91
        4
 64
     7
 65
   257
 75
     1
175
     1
 42
1.0
 92
       10
 66
     7
 43
1.0
 76
     1
 77
     6
 78
     2
 67
     7
 79
     5
170
     0
171
     0
290
     0
174
     0
 93
        1
 44
0.0
173
     0
291
     1
 45
0.0
  0
VISUALSTYLE
  5
275
102
{ACAD_REACTORS
330
267
102
}
330
267
100
AcDbVisualStyle
  2
Linepattern
 70
    14
 71
     2
 72
     2
 73
     0
 90
        0
 40
-0.6
 41
-30.0
 62
     5
 63
     7
421
 16777215
 74
     1
 91
        4
 64
     7
 65
   257
 75
     7
175
     7
 42
1.0
 92
        8
 66
     7
 43
1.0
 76
     1
 77
     6
 78
     2
 67
     7
 79
     5
170
     0
171
     0
290
     0
174
     0
 93
        1
 44
0.0
173
     0
291
     1
 45
0.0
  0
VISUALSTYLE
  5
8FD
102
{ACAD_REACTORS
330
267
102
}
330
267
100
AcDbVisualStyle
  2
OverhangOff
 70
    21
 71
     2
 72
     2
 73
     0
 90
        0
 40
0.6
 41
30.0
 62
     5
 63
     7
421
 16777215
 74
     1
 91
        4
 64
     7
 65
   257
 75
     1
175
     1
 42
1.0
 92
        9
 66
     7
 43
1.0
 76
     1
 77
     6
 78
     2
 67
     7
 79
     5
170
     0
171
     0
290
     0
174
     0
 93
        1
 44
0.0
173
     0
291
     1
 45
0.0
  0
VISUALSTYLE
  5
270
102
{ACAD_REACTORS
330
267
102
}
330
267
100
AcDbVisualStyle
  2
Realistic
 70
     8
 71
     2
 72
     2
 73
     0
 90
        0
 40
-0.6
 41
-30.0
 62
     5
 63
     7
421
 16777215
 74
     1
 91
        0
 64
     7
 65
   257
 75
     1
175
     1
 42
1.0
 92
        8
 66
     8
424
  7895160
 43
1.0
 76
     1
 77
     6
 78
     2
 67
     7
 79
     5
170
     0
171
     0
290
     0
174
     0
 93
       13
 44
0.0
173
     0
291
     0
 45
0.0
  0
VISUALSTYLE
  5
903
102
{ACAD_REACTORS
330
267
102
}
330
267
100
AcDbVisualStyle
  2
Shaded
 70
    27
 71
     2
 72
     2
 73
     1
 90
        2
 40
0.6
 41
30.0
 62
     5
 63
     7
421
 16777215
 74
     0
 91
        4
 64
     7
 65
   257
 75
     1
175
     1
 42
1.0
 92
        8
 66
   257
 43
1.0
 76
     1
 77
     6
 78
     2
 67
     8
425
  7895160
 79
     3
170
     0
171
     0
290
     0
174
     0
 93
        5
 44
0.0
173
     0
291
     0
 45
0.0
  0
VISUALSTYLE
  5
902
102
{ACAD_REACTORS
330
267
102
}
330
267
100
AcDbVisualStyle
  2
Shaded with edges
 70
    26
 71
     2
 72
     2
 73
     1
 90
        2
 40
0.6
 41
30.0
 62
     5
 63
     7
421
 16777215
 74
     1
 91
       10
 64
     7
 65
   257
 75
     2
175
     1
 42
1.0
 92
        8
 66
   257
 43
1.0
 76
     1
 77
     6
 78
     2
 67
     7
 79
     3
170
     0
171
     0
290
     0
174
     0
 93
        5
 44
0.0
173
     0
291
     0
 45
0.0
  0
VISUALSTYLE
  5
8FF
102
{ACAD_REACTORS
330
267
102
}
330
267
100
AcDbVisualStyle
  2
Shades of Gray
 70
    23
 71
     2
 72
     2
 73
     3
 90
        0
 40
0.6
 41
30.0
 62
     5
 63
     7
421
 16777215
 74
     2
 91
        2
 64
     7
 65
     7
 75
     1
175
     1
 42
40.0
 92
        8
 66
     7
 43
1.0
 76
     1
 77
     6
 78
     2
 67
     7
 79
     3
170
     0
171
     0
290
     0
174
     0
 93
        1
 44
0.0
173
     0
291
     0
 45
0.0
  0
VISUALSTYLE
  5
900
102
{ACAD_REACTORS
330
267
102
}
330
267
100
AcDbVisualStyle
  2
Sketchy
 70
    24
 71
     1
 72
     2
 73
     2
 90
        0
 40
0.6
 41
30.0
 62
     5
 63
     7
421
 16777215
 74
     2
 91
        2
 64
     7
 65
     7
 75
     1
175
     1
 42
40.0
 92
       11
 66
     7
 43
1.0
 76
     1
 77
     6
 78
     2
 67
     7
 79
     6
170
     0
171
     0
290
     0
174
     0
 93
        1
 44
0.0
173
     0
291
     0
 45
0.0
  0
VISUALSTYLE
  5
274
102
{ACAD_REACTORS
330
267
102
}
330
267
100
AcDbVisualStyle
  2
Thicken
 70
    13
 71
     2
 72
     2
 73
     0
 90
        0
 40
-0.6
 41
-30.0
 62
     5
 63
     7
421
 16777215
 74
     1
 91
        4
 64
     7
 65
   257
 75
     1
175
     1
 42
1.0
 92
       12
 66
     7
 43
1.0
 76
     1
 77
     6
 78
     2
 67
     7
 79
     5
170
     0
171
     0
290
     0
174
     0
 93
        1
 44
0.0
173
     0
291
     1
 45
0.0
  0
VISUALSTYLE
  5
8FA
102
{ACAD_REACTORS
330
267
102
}
330
267
100
AcDbVisualStyle
  2
Wireframe
 70
     5
 71
     0
 72
     2
 73
     0
 90
        0
 40
0.6
 41
30.0
 62
     5
 63
     7
421
 16777215
 74
     1
 91
        4
 64
     7
 65
   257
 75
     1
175
     1
 42
1.0
 92
        0
 66
   257
 43
1.0
 76
     1
 77
     6
 78
     2
 67
     7
 79
     3
170
     0
171
     0
290
     0
174
     0
 93
        1
 44
0.0
173
     0
291
     0
 45
0.0
  0
VISUALSTYLE
  5
901
102
{ACAD_REACTORS
330
267
102
}
330
267
100
AcDbVisualStyle
  2
X-Ray
 70
    25
 71
     2
 72
     2
 73
     1
 90
        1
 40
0.5
 41
30.0
 62
     5
 63
     7
421
 16777215
 74
     1
 91
        0
 64
     7
 65
   257
 75
     1
175
     1
 42
1.0
 92
        8
 66
     7
 43
1.0
 76
     1
 77
     6
 78
     2
 67
     7
 79
     3
170
     0
171
     0
290
     0
174
     0
 93
       13
 44
0.0
173
     0
291
     0
 45
0.0
  0
DICTIONARYVAR
  5
331
102
{ACAD_REACTORS
330
330
102
}
330
330
100
DictionaryVariables
280
     0
  1
1:1
  0
DICTIONARYVAR
  5
D5E
102
{ACAD_REACTORS
330
330
102
}
330
330
100
DictionaryVariables
280
     0
  1
Standard
  0
DICTIONARYVAR
  5
335
102
{ACAD_REACTORS
330
330
102
}
330
330
100
DictionaryVariables
280
     0
  1
Standard
  0
DICTIONARYVAR
  5
D52
102
{ACAD_REACTORS
330
330
102
}
330
330
100
DictionaryVariables
280
     0
  1
ByLayer
  0
DICTIONARYVAR
  5
896
102
{ACAD_REACTORS
330
330
102
}
330
330
100
DictionaryVariables
280
     0
  1
0
  0
DICTIONARYVAR
  5
6320
102
{ACAD_REACTORS
330
E38
102
}
330
E38
100
DictionaryVariables
280
     0
  1
0.261799
  0
DICTIONARYVAR
  5
631E
102
{ACAD_REACTORS
330
E38
102
}
330
E38
100
DictionaryVariables
280
     0
  1
0.400000
  0
DICTIONARYVAR
  5
631F
102
{ACAD_REACTORS
330
E38
102
}
330
E38
100
DictionaryVariables
280
     0
  1
0.250000
  0
DICTIONARYVAR
  5
6321
102
{ACAD_REACTORS
330
E38
102
}
330
E38
100
DictionaryVariables
280
     0
  1
1
  0
XRECORD
  5
7AA
102
{ACAD_REACTORS
330
2E2
102
}
330
2E2
100
AcDbXrecord
280
     1
 91
    34815
301

290
     0
302
HIDDEN
330
14
 90
        8
 62
     7
370
    -3
331
13
  1
Color_7
440
 33554687
330
4B
 90
        8
 62
     7
370
    20
331
13
  1
Color_7
440
 33554687
330
4C
 90
        8
 62
     3
370
    13
331
13
  1
Color_3
440
 33554687
330
4D
 90
        8
 62
     7
370
    20
331
13
  1
Color_7
440
 33554687
330
667
 90
        8
 62
     7
370
    -3
331
13
  1
Color_7
440
 33554687
330
0
 90
        8
 62
     8
370
    20
331
0
  1
Color_8
440
 33554687
330
D6B
 90
        0
 62
     4
370
    20
331
D6C
  1
Color_4
440
 33554687
330
D8C
 90
        0
 62
     7
370
    -3
331
13
  1
Color_7
440
 33554687
  0
FIELD
  5
4531
102
{ACAD_REACTORS
330
4539
102
}
330
4539
100
AcDbField
  1
_text
  2
{%<\_FldIdx 0>%N}
 90
        1
360
4534
 97
        0
 91
       63
 92
        0
 94
        8
 95
        2
 96
        0
300

 93
        1
  6
ACFD_FIELDTEXT_CHECKSUM
 93
        2
 90
        2
140
4545.0
 94
        0
300

302

304
ACVALUE_END
  7
ACFD_FIELD_VALUE
 93
        6
 90
        4
  1
{20160825N}
 94
        0
300

302

304
ACVALUE_END
301
{20160825N}
 98
       11
  0
DICTIONARY
  5
63B1
330
279
100
AcDbDictionary
280
     1
281
     1
  3
ACAD_ROUNDTRIP_2008_TABLESTYLE_CELLSTYLEMAP
360
63B2
  0
FIELD
  5
4534
330
4531
100
AcDbField
  1
AcVar
  2
\AcVar CreateDate \f "yyyyMMdd"
 90
        0
 97
        0
 91
       63
 92
        0
 94
        8
 95
        2
 96
        0
300

 93
        1
  6
Variable
 93
        2
 90
        4
  1
CreateDate
 94
        0
300

302

304
ACVALUE_END
  7
ACFD_FIELD_VALUE
 93
        6
 90
        8
 92
       16
310
E00708000000190007001D002C000000
 94
        0
300
yyyyMMdd
302

304
ACVALUE_END
301
20160825
 98
        8
  0
CELLSTYLEMAP
  5
63B2
102
{ACAD_REACTORS
330
63B1
102
}
330
63B1
100
AcDbCellStyleMap
 90
        3
300
CELLSTYLE
  1
TABLEFORMAT_BEGIN
 90
        5
170
     1
 91
        0
 92
    32768
 62
   257
 93
        1
300
CONTENTFORMAT
  1
CONTENTFORMAT_BEGIN
 90
        0
 91
        0
 92
        4
 93
        0
300

 40
0.0
140
1.0
 94
        5
 62
     0
340
17
144
6.0
309
CONTENTFORMAT_END
171
     1
301
MARGIN
  1
CELLMARGIN_BEGIN
 40
0.06
 40
0.06
 40
0.06
 40
0.06
 40
0.18
 40
0.18
309
CELLMARGIN_END
 94
        6
 95
        1
302
GRIDFORMAT
  1
GRIDFORMAT_BEGIN
 90
        0
 91
        1
 62
     0
 92
       -2
340
0
 93
        0
 40
0.045
309
GRIDFORMAT_END
 95
        2
302
GRIDFORMAT
  1
GRIDFORMAT_BEGIN
 90
        0
 91
        1
 62
     0
 92
       -2
340
0
 93
        0
 40
0.045
309
GRIDFORMAT_END
 95
        4
302
GRIDFORMAT
  1
GRIDFORMAT_BEGIN
 90
        0
 91
        1
 62
     0
 92
       -2
340
0
 93
        0
 40
0.045
309
GRIDFORMAT_END
 95
        8
302
GRIDFORMAT
  1
GRIDFORMAT_BEGIN
 90
        0
 91
        1
 62
     0
 92
       -2
340
0
 93
        0
 40
0.045
309
GRIDFORMAT_END
 95
       16
302
GRIDFORMAT
  1
GRIDFORMAT_BEGIN
 90
        0
 91
        1
 62
     0
 92
       -2
340
0
 93
        0
 40
0.045
309
GRIDFORMAT_END
 95
       32
302
GRIDFORMAT
  1
GRIDFORMAT_BEGIN
 90
        0
 91
        1
 62
     0
 92
       -2
340
0
 93
        0
 40
0.045
309
GRIDFORMAT_END
309
TABLEFORMAT_END
  1
CELLSTYLE_BEGIN
 90
        1
 91
        1
300
_TITLE
309
CELLSTYLE_END
300
CELLSTYLE
  1
TABLEFORMAT_BEGIN
 90
        5
170
     1
 91
        0
 92
        0
 62
   257
 93
        1
300
CONTENTFORMAT
  1
CONTENTFORMAT_BEGIN
 90
        0
 91
        0
 92
        4
 93
        0
300

 40
0.0
140
1.0
 94
        5
 62
     0
340
17
144
4.5
309
CONTENTFORMAT_END
171
     1
301
MARGIN
  1
CELLMARGIN_BEGIN
 40
0.06
 40
0.06
 40
0.06
 40
0.06
 40
0.18
 40
0.18
309
CELLMARGIN_END
 94
        6
 95
        1
302
GRIDFORMAT
  1
GRIDFORMAT_BEGIN
 90
        0
 91
        1
 62
     0
 92
       -2
340
0
 93
        0
 40
0.045
309
GRIDFORMAT_END
 95
        2
302
GRIDFORMAT
  1
GRIDFORMAT_BEGIN
 90
        0
 91
        1
 62
     0
 92
       -2
340
0
 93
        0
 40
0.045
309
GRIDFORMAT_END
 95
        4
302
GRIDFORMAT
  1
GRIDFORMAT_BEGIN
 90
        0
 91
        1
 62
     0
 92
       -2
340
0
 93
        0
 40
0.045
309
GRIDFORMAT_END
 95
        8
302
GRIDFORMAT
  1
GRIDFORMAT_BEGIN
 90
        0
 91
        1
 62
     0
 92
       -2
340
0
 93
        0
 40
0.045
309
GRIDFORMAT_END
 95
       16
302
GRIDFORMAT
  1
GRIDFORMAT_BEGIN
 90
        0
 91
        1
 62
     0
 92
       -2
340
0
 93
        0
 40
0.045
309
GRIDFORMAT_END
 95
       32
302
GRIDFORMAT
  1
GRIDFORMAT_BEGIN
 90
        0
 91
        1
 62
     0
 92
       -2
340
0
 93
        0
 40
0.045
309
GRIDFORMAT_END
309
TABLEFORMAT_END
  1
CELLSTYLE_BEGIN
 90
        2
 91
        1
300
_HEADER
309
CELLSTYLE_END
300
CELLSTYLE
  1
TABLEFORMAT_BEGIN
 90
        5
170
     1
 91
        0
 92
        0
 62
   257
 93
        1
300
CONTENTFORMAT
  1
CONTENTFORMAT_BEGIN
 90
        0
 91
        0
 92
        4
 93
        0
300

 40
0.0
140
1.0
 94
        2
 62
     0
340
17
144
4.5
309
CONTENTFORMAT_END
171
     1
301
MARGIN
  1
CELLMARGIN_BEGIN
 40
0.06
 40
0.06
 40
0.06
 40
0.06
 40
0.18
 40
0.18
309
CELLMARGIN_END
 94
        6
 95
        1
302
GRIDFORMAT
  1
GRIDFORMAT_BEGIN
 90
        0
 91
        1
 62
     0
 92
       -2
340
0
 93
        0
 40
0.045
309
GRIDFORMAT_END
 95
        2
302
GRIDFORMAT
  1
GRIDFORMAT_BEGIN
 90
        0
 91
        1
 62
     0
 92
       -2
340
0
 93
        0
 40
0.045
309
GRIDFORMAT_END
 95
        4
302
GRIDFORMAT
  1
GRIDFORMAT_BEGIN
 90
        0
 91
        1
 62
     0
 92
       -2
340
0
 93
        0
 40
0.045
309
GRIDFORMAT_END
 95
        8
302
GRIDFORMAT
  1
GRIDFORMAT_BEGIN
 90
        0
 91
        1
 62
     0
 92
       -2
340
0
 93
        0
 40
0.045
309
GRIDFORMAT_END
 95
       16
302
GRIDFORMAT
  1
GRIDFORMAT_BEGIN
 90
        0
 91
        1
 62
     0
 92
       -2
340
0
 93
        0
 40
0.045
309
GRIDFORMAT_END
 95
       32
302
GRIDFORMAT
  1
GRIDFORMAT_BEGIN
 90
        0
 91
        1
 62
     0
 92
       -2
340
0
 93
        0
 40
0.045
309
GRIDFORMAT_END
309
TABLEFORMAT_END
  1
CELLSTYLE_BEGIN
 90
        3
 91
        2
300
_DATA
309
CELLSTYLE_END
  0
ENDSEC
  0
EOF
