  0
SECTION
  2
HEADER
  9
$ACADVER
  1
AC1021
  9
$ACADMAINTVER
 70
    25
  9
$DWGCODEPAGE
  3
ANSI_932
  9
$LASTSAVEDBY
  1
howeNelson
  9
$INSBASE
 10
0.0
 20
0.0
 30
0.0
  9
$EXTMIN
 10
0.0
 20
0.0
 30
0.0
  9
$EXTMAX
 10
630.0
 20
891.0
 30
0.0
  9
$LIMMIN
 10
0.0
 20
0.0
  9
$LIMMAX
 10
630.0
 20
891.0
  9
$ORTHOMODE
 70
     0
  9
$REGENMODE
 70
     1
  9
$FILLMODE
 70
     1
  9
$QTEXTMODE
 70
     0
  9
$MIRRTEXT
 70
     1
  9
$LTSCALE
 40
1.0
  9
$ATTMODE
 70
     1
  9
$TEXTSIZE
 40
2.5
  9
$TRACEWID
 40
1.0
  9
$TEXTSTYLE
  7
ＭＳ ゴシック
  9
$CLAYER
  8
MODEL
  9
$CELTYPE
  6
ByLayer
  9
$CECOLOR
 62
   256
  9
$CELTSCALE
 40
1.0
  9
$DISPSILH
 70
     0
  9
$DIMSCALE
 40
1.0
  9
$DIMASZ
 40
3.0
  9
$DIMEXO
 40
10.0
  9
$DIMDLI
 40
0.9999999999999999
  9
$DIMRND
 40
0.0
  9
$DIMDLE
 40
0.0
  9
$DIMEXE
 40
0.0
  9
$DIMTP
 40
0.0
  9
$DIMTM
 40
0.0
  9
$DIMTXT
 40
8.0
  9
$DIMCEN
 40
0.0
  9
$DIMTSZ
 40
0.0
  9
$DIMTOL
 70
     0
  9
$DIMLIM
 70
     0
  9
$DIMTIH
 70
     0
  9
$DIMTOH
 70
     0
  9
$DIMSE1
 70
     0
  9
$DIMSE2
 70
     0
  9
$DIMTAD
 70
     1
  9
$DIMZIN
 70
    11
  9
$DIMBLK
  1
DOT
  9
$DIMASO
 70
     1
  9
$DIMSHO
 70
     1
  9
$DIMPOST
  1
<>
  9
$DIMAPOST
  1
[]
  9
$DIMALT
 70
     0
  9
$DIMALTD
 70
     1
  9
$DIMALTF
 40
1.0
  9
$DIMLFAC
 40
1.0
  9
$DIMTOFL
 70
     0
  9
$DIMTVP
 40
0.0
  9
$DIMTIX
 70
     1
  9
$DIMSOXD
 70
     0
  9
$DIMSAH
 70
     0
  9
$DIMBLK1
  1

  9
$DIMBLK2
  1

  9
$DIMSTYLE
  2
tfrom線あり
  9
$DIMCLRD
 70
     0
  9
$DIMCLRE
 70
     0
  9
$DIMCLRT
 70
     0
  9
$DIMTFAC
 40
1.0
  9
$DIMGAP
 40
6.0
  9
$DIMJUST
 70
     0
  9
$DIMSD1
 70
     0
  9
$DIMSD2
 70
     0
  9
$DIMTOLJ
 70
     1
  9
$DIMTZIN
 70
    11
  9
$DIMALTZ
 70
    11
  9
$DIMALTTZ
 70
    11
  9
$DIMUPT
 70
     0
  9
$DIMDEC
 70
     0
  9
$DIMTDEC
 70
     1
  9
$DIMALTU
 70
     2
  9
$DIMALTTD
 70
     2
  9
$DIMTXSTY
  7
ＭＳ ゴシック
  9
$DIMAUNIT
 70
     0
  9
$DIMADEC
 70
     2
  9
$DIMALTRND
 40
0.0
  9
$DIMAZIN
 70
     0
  9
$DIMDSEP
 70
    46
  9
$DIMATFIT
 70
     0
  9
$DIMFRAC
 70
     2
  9
$DIMLDRBLK
  1
DOT
  9
$DIMLUNIT
 70
     2
  9
$DIMLWD
 70
    -2
  9
$DIMLWE
 70
    -2
  9
$DIMTMOVE
 70
     0
  9
$DIMFXL
 40
1.0
  9
$DIMFXLON
 70
     0
  9
$DIMJOGANG
 40
0.7853981633974483
  9
$DIMTFILL
 70
     0
  9
$DIMTFILLCLR
 70
     0
  9
$DIMARCSYM
 70
     0
  9
$DIMLTYPE
  6

  9
$DIMLTEX1
  6

  9
$DIMLTEX2
  6

  9
$LUNITS
 70
     2
  9
$LUPREC
 70
     0
  9
$SKETCHINC
 40
0.1
  9
$FILLETRAD
 40
0.0
  9
$AUNITS
 70
     0
  9
$AUPREC
 70
     0
  9
$MENU
  1
acad
  9
$ELEVATION
 40
0.0
  9
$PELEVATION
 40
0.0
  9
$THICKNESS
 40
0.0
  9
$LIMCHECK
 70
     0
  9
$CHAMFERA
 40
0.0
  9
$CHAMFERB
 40
0.0
  9
$CHAMFERC
 40
0.0
  9
$CHAMFERD
 40
0.0
  9
$SKPOLY
 70
     0
  9
$TDCREATE
 40
2447893.375
  9
$TDUCREATE
 40
0.0
  9
$TDUPDATE
 40
2457959.617256968
  9
$TDUUPDATE
 40
2457959.242256968
  9
$TDINDWG
 40
0.1528087384
  9
$TDUSRTIMER
 40
2457959.242240162
  9
$USRTIMER
 70
     1
  9
$ANGBASE
 50
0.0
  9
$ANGDIR
 70
     0
  9
$PDMODE
 70
     1
  9
$PDSIZE
 40
-2.0
  9
$PLINEWID
 40
0.0
  9
$SPLFRAME
 70
     0
  9
$SPLINETYPE
 70
     6
  9
$SPLINESEGS
 70
     8
  9
$HANDSEED
  5
3B5E
  9
$SURFTAB1
 70
     6
  9
$SURFTAB2
 70
     6
  9
$SURFTYPE
 70
     6
  9
$SURFU
 70
     6
  9
$SURFV
 70
     6
  9
$UCSBASE
  2

  9
$UCSNAME
  2

  9
$UCSORG
 10
0.0
 20
0.0
 30
0.0
  9
$UCSXDIR
 10
1.0
 20
0.0
 30
0.0
  9
$UCSYDIR
 10
0.0
 20
1.0
 30
0.0
  9
$UCSORTHOREF
  2

  9
$UCSORTHOVIEW
 70
     0
  9
$UCSORGTOP
 10
0.0
 20
0.0
 30
0.0
  9
$UCSORGBOTTOM
 10
0.0
 20
0.0
 30
0.0
  9
$UCSORGLEFT
 10
0.0
 20
0.0
 30
0.0
  9
$UCSORGRIGHT
 10
0.0
 20
0.0
 30
0.0
  9
$UCSORGFRONT
 10
0.0
 20
0.0
 30
0.0
  9
$UCSORGBACK
 10
0.0
 20
0.0
 30
0.0
  9
$PUCSBASE
  2

  9
$PUCSNAME
  2

  9
$PUCSORG
 10
0.0
 20
0.0
 30
0.0
  9
$PUCSXDIR
 10
1.0
 20
0.0
 30
0.0
  9
$PUCSYDIR
 10
0.0
 20
1.0
 30
0.0
  9
$PUCSORTHOREF
  2

  9
$PUCSORTHOVIEW
 70
     0
  9
$PUCSORGTOP
 10
0.0
 20
0.0
 30
0.0
  9
$PUCSORGBOTTOM
 10
0.0
 20
0.0
 30
0.0
  9
$PUCSORGLEFT
 10
0.0
 20
0.0
 30
0.0
  9
$PUCSORGRIGHT
 10
0.0
 20
0.0
 30
0.0
  9
$PUCSORGFRONT
 10
0.0
 20
0.0
 30
0.0
  9
$PUCSORGBACK
 10
0.0
 20
0.0
 30
0.0
  9
$USERI1
 70
     0
  9
$USERI2
 70
     0
  9
$USERI3
 70
     0
  9
$USERI4
 70
     0
  9
$USERI5
 70
     0
  9
$USERR1
 40
0.0
  9
$USERR2
 40
0.0
  9
$USERR3
 40
0.0
  9
$USERR4
 40
0.0
  9
$USERR5
 40
0.0
  9
$WORLDVIEW
 70
     1
  9
$SHADEDGE
 70
     3
  9
$SHADEDIF
 70
    70
  9
$TILEMODE
 70
     1
  9
$MAXACTVP
 70
    64
  9
$PINSBASE
 10
0.0
 20
0.0
 30
0.0
  9
$PLIMCHECK
 70
     0
  9
$PEXTMIN
 10
0.0
 20
0.0
 30
0.0
  9
$PEXTMAX
 10
0.0
 20
0.0
 30
0.0
  9
$PLIMMIN
 10
-7.5
 20
-20.0
  9
$PLIMMAX
 10
412.5
 20
277.0
  9
$UNITMODE
 70
     0
  9
$VISRETAIN
 70
     0
  9
$PLINEGEN
 70
     1
  9
$PSLTSCALE
 70
     0
  9
$TREEDEPTH
 70
  3020
  9
$CMLSTYLE
  2
Standard
  9
$CMLJUST
 70
     0
  9
$CMLSCALE
 40
1.0
  9
$PROXYGRAPHICS
 70
     0
  9
$MEASUREMENT
 70
     1
  9
$CELWEIGHT
370
    -1
  9
$ENDCAPS
280
     0
  9
$JOINSTYLE
280
     0
  9
$LWDISPLAY
290
     1
  9
$INSUNITS
 70
     4
  9
$HYPERLINKBASE
  1

  9
$STYLESHEET
  1

  9
$XEDIT
290
     1
  9
$CEPSNTYPE
380
     0
  9
$PSTYLEMODE
290
     1
  9
$FINGERPRINTGUID
  2

  9
$VERSIONGUID
  2

  9
$EXTNAMES
290
     1
  9
$PSVPSCALE
 40
0.0
  9
$OLESTARTUP
290
     0
  9
$SORTENTS
280
   127
  9
$INDEXCTL
280
     0
  9
$HIDETEXT
280
     1
  9
$XCLIPFRAME
290
     0
  9
$HALOGAP
280
     0
  9
$OBSCOLOR
 70
   257
  9
$OBSLTYPE
280
     0
  9
$INTERSECTIONDISPLAY
280
     0
  9
$INTERSECTIONCOLOR
 70
   257
  9
$DIMASSOC
280
     2
  9
$PROJECTNAME
  1

  9
$CAMERADISPLAY
290
     0
  9
$LENSLENGTH
 40
50.0
  9
$CAMERAHEIGHT
 40
0.0
  9
$STEPSPERSEC
 40
2.0
  9
$STEPSIZE
 40
6.0
  9
$3DDWFPREC
 40
2.0
  9
$PSOLWIDTH
 40
0.25
  9
$PSOLHEIGHT
 40
4.0
  9
$LOFTANG1
 40
1.570796326794897
  9
$LOFTANG2
 40
1.570796326794897
  9
$LOFTMAG1
 40
0.0
  9
$LOFTMAG2
 40
0.0
  9
$LOFTPARAM
 70
     7
  9
$LOFTNORMALS
280
     1
  9
$LATITUDE
 40
37.795
  9
$LONGITUDE
 40
-122.394
  9
$NORTHDIRECTION
 40
0.0
  9
$TIMEZONE
 70
 -8000
  9
$LIGHTGLYPHDISPLAY
280
     1
  9
$TILEMODELIGHTSYNCH
280
     1
  9
$SOLIDHIST
280
     1
  9
$SHOWHIST
280
     1
  9
$DWFFRAME
280
     2
  9
$DGNFRAME
280
     2
  9
$REALWORLDSCALE
290
     1
  9
$INTERFERECOLOR
 62
   256
  9
$CSHADOW
280
     0
  9
$SHADOWPLANELOCATION
 40
0.0
  0
ENDSEC
  0
SECTION
  2
CLASSES
  0
CLASS
  1
LWPOLYLINE
  2
AcDbPolyline
  3
ObjectDBX Classes
 90
        0
 91
        1
280
     0
281
     1
  0
CLASS
  1
IMAGE
  2
AcDbRasterImage
  3
ISM
 90
      127
 91
        5
280
     0
281
     1
  0
CLASS
  1
OLE2FRAME
  2
AcDbOle2Frame
  3
ObjectDBX Classes
 90
        0
 91
        1
280
     0
281
     1
  0
CLASS
  1
HATCH
  2
AcDbHatch
  3
ObjectDBX Classes
 90
        0
 91
        1
280
     0
281
     1
  0
CLASS
  1
DICTIONARYVAR
  2
AcDbDictionaryVar
  3
ObjectDBX Classes
 90
        0
 91
        4
280
     0
281
     0
  0
CLASS
  1
RASTERVARIABLES
  2
AcDbRasterVariables
  3
ISM
 90
        0
 91
        4
280
     0
281
     0
  0
CLASS
  1
IMAGEDEF
  2
AcDbRasterImageDef
  3
ISM
 90
        0
 91
        4
280
     0
281
     0
  0
CLASS
  1
IMAGEDEF_REACTOR
  2
AcDbRasterImageDefReactor
  3
ISM
 90
        1
 91
        4
280
     0
281
     0
  0
CLASS
  1
IDBUFFER
  2
AcDbIdBuffer
  3
ObjectDBX Classes
 90
        0
 91
        4
280
     0
281
     0
  0
CLASS
  1
SPATIAL_FILTER
  2
AcDbSpatialFilter
  3
ObjectDBX Classes
 90
        0
 91
        4
280
     0
281
     0
  0
CLASS
  1
XRECORD
  2
AcDbXrecord
  3
ObjectDBX Classes
 90
        0
 91
        1
280
     0
281
     0
  0
CLASS
  1
SORTENTSTABLE
  2
AcDbSortentsTable
  3
ObjectDBX Classes
 90
        0
 91
        4
280
     0
281
     0
  0
CLASS
  1
LAYER_INDEX
  2
AcDbLayerIndex
  3
ObjectDBX Classes
 90
        0
 91
        4
280
     0
281
     0
  0
CLASS
  1
SPATIAL_INDEX
  2
AcDbSpatialIndex
  3
AutoCAD 2000
 90
        0
 91
        4
280
     0
281
     0
  0
CLASS
  1
OBJECT_PTR
  2
CAseDLPNTableRecord
  3
ASE-LPNTableRecord
 90
        1
 91
        4
280
     0
281
     0
  0
CLASS
  1
LAYOUT
  2
AcDbLayout
  3
ObjectDBX Classes
 90
        0
 91
        1
280
     0
281
     0
  0
CLASS
  1
PLOTSETTINGS
  2
AcDbPlotSettings
  3
ObjectDBX Classes
 90
        0
 91
        4
280
     0
281
     0
  0
CLASS
  1
ACDBDICTIONARYWDFLT
  2
AcDbDictionaryWithDefault
  3
ObjectDBX Classes
 90
        0
 91
        4
280
     0
281
     0
  0
CLASS
  1
ACDBPLACEHOLDER
  2
AcDbPlaceHolder
  3
ObjectDBX Classes
 90
        0
 91
        1
280
     0
281
     0
  0
CLASS
  1
SCALE
  2
AcDbScale
  3
ObjectDBX Classes
 90
     1153
 91
        4
280
     0
281
     0
  0
CLASS
  1
MATERIAL
  2
AcDbMaterial
  3
ObjectDBX Classes
 90
     1153
 91
        4
280
     0
281
     0
  0
CLASS
  1
VISUALSTYLE
  2
AcDbVisualStyle
  3
ObjectDBX Classes
 90
     4095
 91
        4
280
     0
281
     0
  0
CLASS
  1
TABLESTYLE
  2
AcDbTableStyle
  3
ObjectDBX Classes
 90
     4095
 91
        4
280
     0
281
     0
  0
CLASS
  1
DIMASSOC
  2
AcDbDimAssoc
  3
"AcDbDimAssoc|Product Desc:     AcDim ARX App For Dimension|Company:          Autodesk, Inc.|WEB Address:      www.autodesk.com"
 90
        0
 91
        4
280
     0
281
     0
  0
CLASS
  1
CELLSTYLEMAP
  2
AcDbCellStyleMap
  3
ObjectDBX Classes
 90
     1152
 91
        4
280
     0
281
     0
  0
CLASS
  1
SUN
  2
AcDbSun
  3
SCENEOE
 90
     1153
 91
        4
280
     0
281
     0
  0
CLASS
  1
MLEADERSTYLE
  2
AcDbMLeaderStyle
  3
ACDB_MLEADERSTYLE_CLASS
 90
     4095
 91
        4
280
     0
281
     0
  0
CLASS
  1
FIELD
  2
AcDbField
  3
ObjectDBX Classes
 90
     1152
 91
        4
280
     0
281
     0
  0
CLASS
  1
FIELDLIST
  2
AcDbFieldList
  3
ObjectDBX Classes
 90
     1152
 91
        4
280
     0
281
     0
  0
ENDSEC
  0
SECTION
  2
TABLES
  0
TABLE
  2
VPORT
  5
7
330
0
100
AcDbSymbolTable
 70
     1
  0
VPORT
  5
15
330
7
100
AcDbSymbolTableRecord
100
AcDbViewportTableRecord
  2
*ACTIVE
 70
     0
 10
0.0
 20
0.0
 11
1.0
 21
1.0
 12
406.0201356708999
 22
371.901285469834
 13
0.0
 23
0.0
 14
1.0
 24
1.0
 15
0.0
 25
0.0
 16
0.0
 26
0.0
 36
1.0
 17
-91.02013567089989
 27
73.59871453016603
 37
-46.86809886248109
 40
908.82
 41
2.227272727272727
 42
50.0
 43
0.0
 44
0.0
 50
0.0
 51
0.0
 71
    16
 72
  2000
 73
     1
 74
     1
 75
     0
 76
     0
 77
     0
 78
     0
281
     0
 65
     1
110
0.0
120
0.0
130
0.0
111
1.0
121
0.0
131
0.0
112
0.0
122
1.0
132
0.0
 79
     0
146
0.0
348
3666
 60
     3
 61
     5
292
     1
282
     1
141
0.0
142
0.0
 63
   256
361
904
  0
ENDTAB
  0
TABLE
  2
LTYPE
  5
4
330
0
100
AcDbSymbolTable
 70
     3
  0
LTYPE
  5
11
330
4
100
AcDbSymbolTableRecord
100
AcDbLinetypeTableRecord
  2
ByBlock
 70
     0
  3

 72
    65
 73
     0
 40
0.0
  0
LTYPE
  5
12
330
4
100
AcDbSymbolTableRecord
100
AcDbLinetypeTableRecord
  2
ByLayer
 70
     0
  3

 72
    65
 73
     0
 40
0.0
  0
LTYPE
  5
13
330
4
100
AcDbSymbolTableRecord
100
AcDbLinetypeTableRecord
  2
Continuous
 70
     0
  3
Solid line
 72
    65
 73
     0
 40
0.0
  0
LTYPE
  5
D6C
330
4
100
AcDbSymbolTableRecord
100
AcDbLinetypeTableRecord
  2
BORDER
 70
     0
  3
Border __  __  . __  __  . __  __  . __  __  . 
 72
    65
 73
     6
 40
44.45
 49
12.7
 74
     0
 49
-6.35
 74
     0
 49
12.7
 74
     0
 49
-6.35
 74
     0
 49
0.0
 74
     0
 49
-6.35
 74
     0
  0
LTYPE
  5
D6D
330
4
100
AcDbSymbolTableRecord
100
AcDbLinetypeTableRecord
  2
HIDDEN
 70
     0
  3
Hidden _ _ _ _ _ _ _ _ _ _ _ _ _ _ _ _ _ _ _ _ 
 72
    65
 73
     2
 40
9.524999999999999
 49
6.35
 74
     0
 49
-3.175
 74
     0
  0
ENDTAB
  0
TABLE
  2
LAYER
  5
2
102
{ACAD_XDICTIONARY
360
2E1
102
}
330
0
100
AcDbSymbolTable
 70
     8
  0
LAYER
  5
14
330
2
100
AcDbSymbolTableRecord
100
AcDbLayerTableRecord
  2
0
 70
     0
 62
     7
  6
Continuous
370
    -3
390
1D
347
266
  0
LAYER
  5
4B
330
2
100
AcDbSymbolTableRecord
100
AcDbLayerTableRecord
  2
TEMPLATE
 70
     0
 62
     7
  6
Continuous
370
    20
390
1D
347
266
  0
LAYER
  5
4C
330
2
100
AcDbSymbolTableRecord
100
AcDbLayerTableRecord
  2
DIM
 70
     0
 62
     3
  6
Continuous
370
    13
390
1D
347
266
  0
LAYER
  5
4D
330
2
100
AcDbSymbolTableRecord
100
AcDbLayerTableRecord
  2
MODEL
 70
     0
 62
     7
  6
Continuous
370
    20
390
1D
347
266
  0
LAYER
  5
667
330
2
100
AcDbSymbolTableRecord
100
AcDbLayerTableRecord
  2
LOGO
 70
     0
 62
     7
  6
Continuous
370
    -3
390
1D
347
266
  0
LAYER
  5
88C
330
2
100
AcDbSymbolTableRecord
100
AcDbLayerTableRecord
  2
HIDDEN
 70
     0
 62
     8
  6
HIDDEN
370
    20
390
1D
347
266
1001
AcAecLayerStandard
1000

1000

  0
LAYER
  5
D6B
330
2
100
AcDbSymbolTableRecord
100
AcDbLayerTableRecord
  2
BORDER
 70
     0
 62
     4
  6
BORDER
290
     0
370
    20
390
1D
347
266
1001
AcAecLayerStandard
1000

1000

  0
LAYER
  5
36C6
330
2
100
AcDbSymbolTableRecord
100
AcDbLayerTableRecord
  2
Defpoints
 70
     0
 62
     7
  6
Continuous
290
     0
370
    -3
390
1D
347
266
  0
ENDTAB
  0
TABLE
  2
STYLE
  5
3
330
0
100
AcDbSymbolTable
 70
     4
  0
STYLE
  5
17
330
3
100
AcDbSymbolTableRecord
100
AcDbTextStyleTableRecord
  2
Standard
 70
     0
 40
0.0
 41
1.0
 50
0.0
 71
     0
 42
2.5
  3
txt
  4
BIGFONT.SHX
  0
STYLE
  5
39
330
3
100
AcDbSymbolTableRecord
100
AcDbTextStyleTableRecord
  2
ＭＳ ゴシック
 70
     0
 40
0.0
 41
1.0
 50
0.0
 71
     0
 42
2.5
  3
msgothic.ttc
  4
ＭＳ ゴシック
1001
ACAD
1000
ＭＳ ゴシック
1071
        0
  0
STYLE
  5
384
330
3
100
AcDbSymbolTableRecord
100
AcDbTextStyleTableRecord
  2
ARIAL
 70
     0
 40
0.0
 41
1.0
 50
0.0
 71
     0
 42
12.0
  3
ARIAL.TTF
  4

1001
ACAD
1000
Arial
1071
       34
  0
STYLE
  5
385
330
3
100
AcDbSymbolTableRecord
100
AcDbTextStyleTableRecord
  2
ROMANS
 70
     0
 40
0.0
 41
1.0
 50
0.0
 71
     0
 42
5.0
  3
romans.shx
  4

  0
ENDTAB
  0
TABLE
  2
VIEW
  5
5
330
0
100
AcDbSymbolTable
 70
     0
  0
ENDTAB
  0
TABLE
  2
UCS
  5
6
330
0
100
AcDbSymbolTable
 70
     0
  0
ENDTAB
  0
TABLE
  2
APPID
  5
8
330
0
100
AcDbSymbolTable
 70
     3
  0
APPID
  5
16
330
8
100
AcDbSymbolTableRecord
100
AcDbRegAppTableRecord
  2
ACAD
 70
     0
  0
APPID
  5
7AC
330
8
100
AcDbSymbolTableRecord
100
AcDbRegAppTableRecord
  2
AcAecLayerStandard
 70
     0
  0
APPID
  5
E29
330
8
100
AcDbSymbolTableRecord
100
AcDbRegAppTableRecord
  2
ACAD_MLEADERVER
 70
     0
  0
ENDTAB
  0
TABLE
  2
DIMSTYLE
  5
9
330
0
100
AcDbSymbolTable
 70
     2
100
AcDbDimStyleTable
  0
DIMSTYLE
105
18
330
9
100
AcDbSymbolTableRecord
100
AcDbDimStyleTableRecord
  2
Standard
 70
     0
178
     0
340
17
  0
DIMSTYLE
105
57
102
{ACAD_REACTORS
330
3A2E
330
3AB9
330
3AC9
330
3AD6
330
3AE5
102
}
330
9
100
AcDbSymbolTableRecord
100
AcDbDimStyleTableRecord
  2
tfrom線あり
 70
     0
  3
<>
  4
[]
 41
3.0
 42
10.0
 43
0.9999999999999999
 44
0.0
 73
     0
 74
     0
 77
     1
 78
    11
140
8.0
141
0.0
143
1.0
147
6.0
171
     1
174
     1
178
     0
179
     2
271
     0
272
     1
276
     2
284
    11
285
    11
286
    11
289
     0
340
39
341
4E
342
4E
  0
ENDTAB
  0
TABLE
  2
BLOCK_RECORD
  5
1
330
0
100
AcDbSymbolTable
 70
    38
  0
BLOCK_RECORD
  5
A
330
1
100
AcDbSymbolTableRecord
100
AcDbBlockTableRecord
  2
*MODEL_SPACE
340
20
 70
     0
280
     1
281
     0
  0
BLOCK_RECORD
  5
B
330
1
100
AcDbSymbolTableRecord
100
AcDbBlockTableRecord
  2
*PAPER_SPACE
340
21
 70
     0
280
     1
281
     0
  0
BLOCK_RECORD
  5
4E
330
1
100
AcDbSymbolTableRecord
100
AcDbBlockTableRecord
  2
_DOT
340
0
102
{BLKREFS
331
370D
331
370E
331
371A
331
371B
331
3727
331
3728
331
379C
331
379D
331
37A9
331
37AA
331
37B6
331
37B7
331
3805
331
3806
331
38DA
331
38DB
331
38E6
331
38E7
331
38F2
331
38F3
331
38FE
331
38FF
331
390A
331
390B
331
3916
331
3917
331
3922
331
3923
331
393E
331
393F
331
394D
331
394E
331
395C
331
395D
331
3973
331
3974
331
399C
331
399D
331
39AD
331
39AE
331
39D7
331
39D8
331
39E4
331
39E5
331
39F5
331
39F6
331
3A02
331
3A03
331
3A14
331
3A15
331
3A37
331
3A38
331
3AB2
331
3AB3
331
3AC2
331
3AC3
331
3AD0
331
3AD1
331
3ADF
331
3AE0
331
3AEE
331
3AEF
331
3AFD
331
3AFE
102
}
 70
     0
280
     1
281
     0
  0
BLOCK_RECORD
  5
68A
330
1
100
AcDbSymbolTableRecord
100
AcDbBlockTableRecord
  2
名称未設定-1
340
0
102
{BLKREFS
331
6B5
102
}
 70
     1
280
     1
281
     0
  0
BLOCK_RECORD
  5
68D
330
1
100
AcDbSymbolTableRecord
100
AcDbBlockTableRecord
  2
block 2
340
0
102
{BLKREFS
331
68C
331
1343
102
}
 70
     0
280
     1
281
     0
  0
BLOCK_RECORD
  5
690
330
1
100
AcDbSymbolTableRecord
100
AcDbBlockTableRecord
  2
block 3
340
0
102
{BLKREFS
331
68F
102
}
 70
     0
280
     1
281
     0
  0
BLOCK_RECORD
  5
693
330
1
100
AcDbSymbolTableRecord
100
AcDbBlockTableRecord
  2
block 4
340
0
102
{BLKREFS
331
692
102
}
 70
     0
280
     1
281
     0
  0
BLOCK_RECORD
  5
6A2
330
1
100
AcDbSymbolTableRecord
100
AcDbBlockTableRecord
  2
block 5
340
0
102
{BLKREFS
331
6A1
102
}
 70
     0
280
     1
281
     0
  0
BLOCK_RECORD
  5
3708
330
1
100
AcDbSymbolTableRecord
100
AcDbBlockTableRecord
  2
*D6
340
0
 70
     0
280
     1
281
     0
  0
BLOCK_RECORD
  5
3715
330
1
100
AcDbSymbolTableRecord
100
AcDbBlockTableRecord
  2
*D7
340
0
 70
     0
280
     1
281
     0
  0
BLOCK_RECORD
  5
3722
330
1
100
AcDbSymbolTableRecord
100
AcDbBlockTableRecord
  2
*D8
340
0
 70
     0
280
     1
281
     0
  0
BLOCK_RECORD
  5
3797
330
1
100
AcDbSymbolTableRecord
100
AcDbBlockTableRecord
  2
*D9
340
0
 70
     0
280
     1
281
     0
  0
BLOCK_RECORD
  5
37A4
330
1
100
AcDbSymbolTableRecord
100
AcDbBlockTableRecord
  2
*D10
340
0
 70
     0
280
     1
281
     0
  0
BLOCK_RECORD
  5
37B1
330
1
100
AcDbSymbolTableRecord
100
AcDbBlockTableRecord
  2
*D11
340
0
 70
     0
280
     1
281
     0
  0
BLOCK_RECORD
  5
3800
330
1
100
AcDbSymbolTableRecord
100
AcDbBlockTableRecord
  2
*D12
340
0
 70
     0
280
     1
281
     0
  0
BLOCK_RECORD
  5
38D4
330
1
100
AcDbSymbolTableRecord
100
AcDbBlockTableRecord
  2
*D13
340
0
 70
     0
280
     1
281
     0
  0
BLOCK_RECORD
  5
38E0
330
1
100
AcDbSymbolTableRecord
100
AcDbBlockTableRecord
  2
*D14
340
0
 70
     0
280
     1
281
     0
  0
BLOCK_RECORD
  5
38EC
330
1
100
AcDbSymbolTableRecord
100
AcDbBlockTableRecord
  2
*D15
340
0
 70
     0
280
     1
281
     0
  0
BLOCK_RECORD
  5
38F8
330
1
100
AcDbSymbolTableRecord
100
AcDbBlockTableRecord
  2
*D16
340
0
 70
     0
280
     1
281
     0
  0
BLOCK_RECORD
  5
3904
330
1
100
AcDbSymbolTableRecord
100
AcDbBlockTableRecord
  2
*D17
340
0
 70
     0
280
     1
281
     0
  0
BLOCK_RECORD
  5
3910
330
1
100
AcDbSymbolTableRecord
100
AcDbBlockTableRecord
  2
*D18
340
0
 70
     0
280
     1
281
     0
  0
BLOCK_RECORD
  5
391C
330
1
100
AcDbSymbolTableRecord
100
AcDbBlockTableRecord
  2
*D19
340
0
 70
     0
280
     1
281
     0
  0
BLOCK_RECORD
  5
3938
330
1
100
AcDbSymbolTableRecord
100
AcDbBlockTableRecord
  2
*D20
340
0
 70
     0
280
     1
281
     0
  0
BLOCK_RECORD
  5
3947
330
1
100
AcDbSymbolTableRecord
100
AcDbBlockTableRecord
  2
*D21
340
0
 70
     0
280
     1
281
     0
  0
BLOCK_RECORD
  5
3956
330
1
100
AcDbSymbolTableRecord
100
AcDbBlockTableRecord
  2
*D22
340
0
 70
     0
280
     1
281
     0
  0
BLOCK_RECORD
  5
396D
330
1
100
AcDbSymbolTableRecord
100
AcDbBlockTableRecord
  2
*D23
340
0
 70
     0
280
     1
281
     0
  0
BLOCK_RECORD
  5
3997
330
1
100
AcDbSymbolTableRecord
100
AcDbBlockTableRecord
  2
*D24
340
0
 70
     0
280
     1
281
     0
  0
BLOCK_RECORD
  5
39A7
330
1
100
AcDbSymbolTableRecord
100
AcDbBlockTableRecord
  2
*D25
340
0
 70
     0
280
     1
281
     0
  0
BLOCK_RECORD
  5
39D1
330
1
100
AcDbSymbolTableRecord
100
AcDbBlockTableRecord
  2
*D26
340
0
 70
     0
280
     1
281
     0
  0
BLOCK_RECORD
  5
39DE
330
1
100
AcDbSymbolTableRecord
100
AcDbBlockTableRecord
  2
*D27
340
0
 70
     0
280
     1
281
     0
  0
BLOCK_RECORD
  5
39EF
330
1
100
AcDbSymbolTableRecord
100
AcDbBlockTableRecord
  2
*D28
340
0
 70
     0
280
     1
281
     0
  0
BLOCK_RECORD
  5
39FC
330
1
100
AcDbSymbolTableRecord
100
AcDbBlockTableRecord
  2
*D29
340
0
 70
     0
280
     1
281
     0
  0
BLOCK_RECORD
  5
3A0E
330
1
100
AcDbSymbolTableRecord
100
AcDbBlockTableRecord
  2
*D30
340
0
 70
     0
280
     1
281
     0
  0
BLOCK_RECORD
  5
3A31
330
1
100
AcDbSymbolTableRecord
100
AcDbBlockTableRecord
  2
*D31
340
0
 70
     0
280
     1
281
     0
  0
BLOCK_RECORD
  5
3AAC
330
1
100
AcDbSymbolTableRecord
100
AcDbBlockTableRecord
  2
*D32
340
0
 70
     0
280
     1
281
     0
  0
BLOCK_RECORD
  5
3ABC
330
1
100
AcDbSymbolTableRecord
100
AcDbBlockTableRecord
  2
*D33
340
0
 70
     0
280
     1
281
     0
  0
BLOCK_RECORD
  5
3ACA
330
1
100
AcDbSymbolTableRecord
100
AcDbBlockTableRecord
  2
*D34
340
0
 70
     0
280
     1
281
     0
  0
BLOCK_RECORD
  5
3AD9
330
1
100
AcDbSymbolTableRecord
100
AcDbBlockTableRecord
  2
*D35
340
0
 70
     0
280
     1
281
     0
  0
BLOCK_RECORD
  5
3AE8
330
1
100
AcDbSymbolTableRecord
100
AcDbBlockTableRecord
  2
*D36
340
0
 70
     0
280
     1
281
     0
  0
BLOCK_RECORD
  5
3AF7
330
1
100
AcDbSymbolTableRecord
100
AcDbBlockTableRecord
  2
*D37
340
0
 70
     0
280
     1
281
     0
  0
ENDTAB
  0
ENDSEC
  0
SECTION
  2
BLOCKS
  0
BLOCK
  5
D
330
A
100
AcDbEntity
  8
0
390
1D
100
AcDbBlockBegin
  2
*MODEL_SPACE
 70
     0
 10
0.0
 20
0.0
 30
0.0
  3
*MODEL_SPACE
  1
*MODEL_SPACE
  0
ENDBLK
  5
E
330
A
100
AcDbEntity
  8
0
390
1D
100
AcDbBlockEnd
  0
BLOCK
  5
F
330
B
100
AcDbEntity
 67
     1
  8
0
390
1D
100
AcDbBlockBegin
  2
*PAPER_SPACE
 70
     0
 10
0.0
 20
0.0
 30
0.0
  3
*PAPER_SPACE
  1
*PAPER_SPACE
  0
ENDBLK
  5
10
330
B
100
AcDbEntity
 67
     1
  8
0
390
1D
100
AcDbBlockEnd
  0
BLOCK
  5
369F
330
4E
100
AcDbEntity
  8
0
390
1D
100
AcDbBlockBegin
  2
_DOT
 70
     0
 10
0.0
 20
0.0
 30
0.0
  3
_DOT
  1
_DOT
  0
POLYLINE
  5
36A1
330
4E
100
AcDbEntity
  8
0
  6
ByBlock
 62
     0
370
    -2
390
1D
100
AcDb2dPolyline
 66
     1
 10
0.0
 20
0.0
 30
0.0
 70
     1
 40
0.5
 41
0.5
  0
VERTEX
  5
36A2
330
36A1
100
AcDbEntity
  8
0
  6
ByBlock
 62
     0
370
    -2
390
1D
100
AcDbVertex
100
AcDb2dVertex
 10
-0.25
 20
0.0
 30
0.0
 42
1.0
  0
VERTEX
  5
36A3
330
36A1
100
AcDbEntity
  8
0
  6
ByBlock
 62
     0
370
    -2
390
1D
100
AcDbVertex
100
AcDb2dVertex
 10
0.25
 20
0.0
 30
0.0
 42
1.0
  0
SEQEND
  5
36A4
330
36A1
100
AcDbEntity
  8
0
390
1D
  0
LINE
  5
36A5
330
4E
100
AcDbEntity
  8
0
  6
ByBlock
 62
     0
370
    -2
390
1D
100
AcDbLine
 10
-0.5
 20
0.0
 30
0.0
 11
-1.0
 21
0.0
 31
0.0
  0
ENDBLK
  5
36A6
330
4E
100
AcDbEntity
  8
0
390
1D
100
AcDbBlockEnd
  0
BLOCK
  5
68B
330
68A
100
AcDbEntity
  8
0
100
AcDbBlockBegin
  2
名称未設定-1
 70
     0
 10
0.0
 20
0.0
 30
0.0
  3
名称未設定-1
  1
名称未設定-1
  0
INSERT
  5
68F
330
68A
100
AcDbEntity
  8
LOGO
100
AcDbBlockReference
  2
block 3
 10
0.0
 20
0.0
 30
0.0
  0
ENDBLK
  5
6B1
330
68A
100
AcDbEntity
  8
0
100
AcDbBlockEnd
  0
BLOCK
  5
68E
330
68D
100
AcDbEntity
  8
0
100
AcDbBlockBegin
  2
block 2
 70
     0
 10
0.0
 20
0.0
 30
0.0
  3
block 2
  1
block 2
  0
ENDBLK
  5
6B0
330
68D
100
AcDbEntity
  8
0
100
AcDbBlockEnd
  0
BLOCK
  5
691
330
690
100
AcDbEntity
  8
0
100
AcDbBlockBegin
  2
block 3
 70
     0
 10
0.0
 20
0.0
 30
0.0
  3
block 3
  1
block 3
  0
INSERT
  5
692
330
690
100
AcDbEntity
  8
LOGO
100
AcDbBlockReference
  2
block 4
 10
0.0
 20
0.0
 30
0.0
  0
INSERT
  5
6A1
330
690
100
AcDbEntity
  8
LOGO
100
AcDbBlockReference
  2
block 5
 10
0.0
 20
0.0
 30
0.0
  0
ENDBLK
  5
6AF
330
690
100
AcDbEntity
  8
0
100
AcDbBlockEnd
  0
BLOCK
  5
694
330
693
100
AcDbEntity
  8
0
100
AcDbBlockBegin
  2
block 4
 70
     0
 10
0.0
 20
0.0
 30
0.0
  3
block 4
  1
block 4
  0
POLYLINE
  5
695
330
693
100
AcDbEntity
  8
LOGO
370
     0
100
AcDb2dPolyline
 66
     1
 10
0.0
 20
0.0
 30
0.0
  0
VERTEX
  5
696
330
695
100
AcDbEntity
  8
LOGO
370
     0
100
AcDbVertex
100
AcDb2dVertex
 10
83.79545727667795
 20
167.6444858234922
 30
0.0
  0
VERTEX
  5
697
330
695
100
AcDbEntity
  8
LOGO
370
     0
100
AcDbVertex
100
AcDb2dVertex
 10
83.79545727667795
 20
159.7968976406313
 30
0.0
  0
VERTEX
  5
698
330
695
100
AcDbEntity
  8
LOGO
370
     0
100
AcDbVertex
100
AcDb2dVertex
 10
71.3631329975216
 20
159.7968976406313
 30
0.0
  0
VERTEX
  5
699
330
695
100
AcDbEntity
  8
LOGO
370
     0
100
AcDbVertex
100
AcDb2dVertex
 10
71.3631329975216
 20
127.8027915271048
 30
0.0
  0
VERTEX
  5
69A
330
695
100
AcDbEntity
  8
LOGO
370
     0
100
AcDbVertex
100
AcDb2dVertex
 10
60.43011526263018
 20
127.8027915271048
 30
0.0
  0
VERTEX
  5
69B
330
695
100
AcDbEntity
  8
LOGO
370
     0
100
AcDbVertex
100
AcDb2dVertex
 10
60.43011526263018
 20
159.7968976406313
 30
0.0
  0
VERTEX
  5
69C
330
695
100
AcDbEntity
  8
LOGO
370
     0
100
AcDbVertex
100
AcDb2dVertex
 10
48.21793273020759
 20
159.7968976406313
 30
0.0
  0
VERTEX
  5
69D
330
695
100
AcDbEntity
  8
LOGO
370
     0
100
AcDbVertex
100
AcDb2dVertex
 10
48.21793273020759
 20
167.6444858234922
 30
0.0
  0
VERTEX
  5
69E
330
695
100
AcDbEntity
  8
LOGO
370
     0
100
AcDbVertex
100
AcDb2dVertex
 10
83.79545727667795
 20
167.6444858234922
 30
0.0
  0
SEQEND
  5
69F
330
695
100
AcDbEntity
  8
LOGO
370
     0
  0
HATCH
  5
6A0
330
693
100
AcDbEntity
  8
LOGO
 62
   250
420
  2234388
100
AcDbHatch
 10
0.0
 20
0.0
 30
0.0
210
0.0
220
0.0
230
1.0
  2
SOLID
 70
     1
 71
     0
 91
        1
 92
        1
 93
        8
 72
     1
 10
83.79545727667795
 20
167.6444858234922
 11
83.79545727667795
 21
159.7968976406313
 72
     1
 10
83.79545727667795
 20
159.7968976406313
 11
71.3631329975216
 21
159.7968976406313
 72
     1
 10
71.3631329975216
 20
159.7968976406313
 11
71.3631329975216
 21
127.8027915271048
 72
     1
 10
71.3631329975216
 20
127.8027915271048
 11
60.43011526263018
 21
127.8027915271048
 72
     1
 10
60.43011526263018
 20
127.8027915271048
 11
60.43011526263018
 21
159.7968976406313
 72
     1
 10
60.43011526263018
 20
159.7968976406313
 11
48.21793273020759
 21
159.7968976406313
 72
     1
 10
48.21793273020759
 20
159.7968976406313
 11
48.21793273020759
 21
167.6444858234922
 72
     1
 10
48.21793273020759
 20
167.6444858234922
 11
83.79545727667795
 21
167.6444858234922
 97
        0
 75
     2
 76
     1
 98
        0
  0
ENDBLK
  5
6AE
330
693
100
AcDbEntity
  8
0
100
AcDbBlockEnd
  0
BLOCK
  5
6A3
330
6A2
100
AcDbEntity
  8
0
100
AcDbBlockBegin
  2
block 5
 70
     0
 10
0.0
 20
0.0
 30
0.0
  3
block 5
  1
block 5
  0
SPLINE
  5
6A4
330
6A2
100
AcDbEntity
  8
LOGO
370
     0
100
AcDbSpline
210
0.0
220
0.0
230
1.0
 70
    11
 71
     3
 72
    56
 73
    52
 74
     0
 42
0.000000001
 43
0.0000000001
 40
0.0
 40
0.0
 40
0.0
 40
0.0
 40
1.0
 40
1.0
 40
1.0
 40
2.0
 40
2.0
 40
2.0
 40
3.0
 40
3.0
 40
3.0
 40
4.0
 40
4.0
 40
4.0
 40
5.0
 40
5.0
 40
5.0
 40
6.0
 40
6.0
 40
6.0
 40
7.0
 40
7.0
 40
7.0
 40
8.0
 40
8.0
 40
8.0
 40
9.0
 40
9.0
 40
9.0
 40
10.0
 40
10.0
 40
10.0
 40
11.0
 40
11.0
 40
11.0
 40
12.0
 40
12.0
 40
12.0
 40
13.0
 40
13.0
 40
13.0
 40
14.0
 40
14.0
 40
14.0
 40
15.0
 40
15.0
 40
15.0
 40
16.0
 40
16.0
 40
16.0
 40
17.0
 40
17.0
 40
17.0
 40
17.0
 10
100.4504378777679
 20
166.69157178364
 30
0.0
 10
101.9848844191641
 20
167.1313385124438
 30
0.0
 10
103.9637485713373
 20
166.7649523658846
 30
0.0
 10
103.9637485713373
 20
166.7649523658846
 30
0.0
 10
103.9637485713373
 20
166.7649523658846
 30
0.0
 10
103.0132460999156
 20
163.911205638077
 30
0.0
 10
103.0132460999156
 20
163.911205638077
 30
0.0
 10
103.0132460999156
 20
163.911205638077
 30
0.0
 10
101.0674548862189
 20
164.3601018759394
 30
0.0
 10
99.57090442016032
 20
163.1805004036133
 30
0.0
 10
98.40508333886608
 20
162.258247733807
 30
0.0
 10
97.65301849830304
 20
159.804132345923
 30
0.0
 10
97.3598406791005
 20
158.8699940888517
 30
0.0
 10
97.3598406791005
 20
158.8699940888517
 30
0.0
 10
96.07137411762282
 20
154.9119212747295
 30
0.0
 10
96.07137411762282
 20
154.9119212747295
 30
0.0
 10
96.07137411762282
 20
154.9119212747295
 30
0.0
 10
100.3012651448482
 20
154.9119212747295
 30
0.0
 10
100.3012651448482
 20
154.9119212747295
 30
0.0
 10
100.3012651448482
 20
154.9119212747295
 30
0.0
 10
99.64152892419852
 20
152.4199098115079
 30
0.0
 10
99.64152892419852
 20
152.4199098115079
 30
0.0
 10
99.64152892419852
 20
152.4199098115079
 30
0.0
 10
95.38097652692731
 20
152.4199098115079
 30
0.0
 10
95.38097652692731
 20
152.4199098115079
 30
0.0
 10
95.38097652692731
 20
152.4199098115079
 30
0.0
 10
87.75353009080013
 20
127.8027915271048
 30
0.0
 10
87.75353009080013
 20
127.8027915271048
 30
0.0
 10
87.75353009080013
 20
127.8027915271048
 30
0.0
 10
85.36538832498108
 20
127.8027915271048
 30
0.0
 10
85.36538832498108
 20
127.8027915271048
 30
0.0
 10
85.36538832498108
 20
127.8027915271048
 30
0.0
 10
93.00006946639998
 20
152.4199098115079
 30
0.0
 10
93.00006946639998
 20
152.4199098115079
 30
0.0
 10
93.00006946639998
 20
152.4199098115079
 30
0.0
 10
89.85297266450198
 20
152.4199098115079
 30
0.0
 10
89.85297266450198
 20
152.4199098115079
 30
0.0
 10
89.85297266450198
 20
152.4199098115079
 30
0.0
 10
90.51270888515164
 20
154.9119212747295
 30
0.0
 10
90.51270888515164
 20
154.9119212747295
 30
0.0
 10
90.51270888515164
 20
154.9119212747295
 30
0.0
 10
93.6904670570955
 20
154.9119212747295
 30
0.0
 10
93.6904670570955
 20
154.9119212747295
 30
0.0
 10
93.6904670570955
 20
154.9119212747295
 30
0.0
 10
94.81598049462158
 20
158.3616699146644
 30
0.0
 10
94.81598049462158
 20
158.3616699146644
 30
0.0
 10
95.7237637538445
 20
161.2605474231013
 30
0.0
 10
96.4968436907311
 20
162.8139420021662
 30
0.0
 10
97.15657991138076
 20
163.9844139654337
 30
0.0
 10
97.81183750494507
 20
165.1523021053827
 30
0.0
 10
99.1047826935081
 20
166.3084769129547
 30
0.0
 10
100.4504378777679
 20
166.69157178364
 30
0.0
  0
HATCH
  5
6A5
330
6A2
100
AcDbEntity
  8
LOGO
 62
   250
420
  2234388
100
AcDbHatch
 10
0.0
 20
0.0
 30
0.0
210
0.0
220
0.0
230
1.0
  2
SOLID
 70
     1
 71
     0
 91
        1
 92
        1
 93
        1
 72
     4
 94
        3
 73
     0
 74
     1
 95
       56
 96
       52
 40
0.0
 40
0.0
 40
0.0
 40
0.0
 40
1.0
 40
1.0
 40
1.0
 40
2.0
 40
2.0
 40
2.0
 40
3.0
 40
3.0
 40
3.0
 40
4.0
 40
4.0
 40
4.0
 40
5.0
 40
5.0
 40
5.0
 40
6.0
 40
6.0
 40
6.0
 40
7.0
 40
7.0
 40
7.0
 40
8.0
 40
8.0
 40
8.0
 40
9.0
 40
9.0
 40
9.0
 40
10.0
 40
10.0
 40
10.0
 40
11.0
 40
11.0
 40
11.0
 40
12.0
 40
12.0
 40
12.0
 40
13.0
 40
13.0
 40
13.0
 40
14.0
 40
14.0
 40
14.0
 40
15.0
 40
15.0
 40
15.0
 40
16.0
 40
16.0
 40
16.0
 40
17.0
 40
17.0
 40
17.0
 40
17.0
 10
100.4504378777679
 20
166.69157178364
 10
101.9848844191641
 20
167.1313385124438
 10
103.9637485713373
 20
166.7649523658846
 10
103.9637485713373
 20
166.7649523658846
 10
103.9637485713373
 20
166.7649523658846
 10
103.0132460999156
 20
163.911205638077
 10
103.0132460999156
 20
163.911205638077
 10
103.0132460999156
 20
163.911205638077
 10
101.0674548862189
 20
164.3601018759394
 10
99.57090442016032
 20
163.1805004036133
 10
98.40508333886608
 20
162.258247733807
 10
97.65301849830304
 20
159.804132345923
 10
97.3598406791005
 20
158.8699940888517
 10
97.3598406791005
 20
158.8699940888517
 10
96.07137411762282
 20
154.9119212747295
 10
96.07137411762282
 20
154.9119212747295
 10
96.07137411762282
 20
154.9119212747295
 10
100.3012651448482
 20
154.9119212747295
 10
100.3012651448482
 20
154.9119212747295
 10
100.3012651448482
 20
154.9119212747295
 10
99.64152892419852
 20
152.4199098115079
 10
99.64152892419852
 20
152.4199098115079
 10
99.64152892419852
 20
152.4199098115079
 10
95.38097652692731
 20
152.4199098115079
 10
95.38097652692731
 20
152.4199098115079
 10
95.38097652692731
 20
152.4199098115079
 10
87.75353009080013
 20
127.8027915271048
 10
87.75353009080013
 20
127.8027915271048
 10
87.75353009080013
 20
127.8027915271048
 10
85.36538832498108
 20
127.8027915271048
 10
85.36538832498108
 20
127.8027915271048
 10
85.36538832498108
 20
127.8027915271048
 10
93.00006946639998
 20
152.4199098115079
 10
93.00006946639998
 20
152.4199098115079
 10
93.00006946639998
 20
152.4199098115079
 10
89.85297266450198
 20
152.4199098115079
 10
89.85297266450198
 20
152.4199098115079
 10
89.85297266450198
 20
152.4199098115079
 10
90.51270888515164
 20
154.9119212747295
 10
90.51270888515164
 20
154.9119212747295
 10
90.51270888515164
 20
154.9119212747295
 10
93.6904670570955
 20
154.9119212747295
 10
93.6904670570955
 20
154.9119212747295
 10
93.6904670570955
 20
154.9119212747295
 10
94.81598049462158
 20
158.3616699146644
 10
94.81598049462158
 20
158.3616699146644
 10
95.7237637538445
 20
161.2605474231013
 10
96.4968436907311
 20
162.8139420021662
 10
97.15657991138076
 20
163.9844139654337
 10
97.81183750494507
 20
165.1523021053827
 10
99.1047826935081
 20
166.3084769129547
 10
100.4504378777679
 20
166.69157178364
 97
        0
 75
     2
 76
     1
 98
        0
  0
SPLINE
  5
6A6
330
6A2
100
AcDbEntity
  8
LOGO
370
     0
100
AcDbSpline
210
0.0
220
0.0
230
1.0
 70
    11
 71
     3
 72
    38
 73
    34
 74
     0
 42
0.000000001
 43
0.0000000001
 40
0.0
 40
0.0
 40
0.0
 40
0.0
 40
1.0
 40
1.0
 40
1.0
 40
2.0
 40
2.0
 40
2.0
 40
3.0
 40
3.0
 40
3.0
 40
4.0
 40
4.0
 40
4.0
 40
5.0
 40
5.0
 40
5.0
 40
6.0
 40
6.0
 40
6.0
 40
7.0
 40
7.0
 40
7.0
 40
8.0
 40
8.0
 40
8.0
 40
9.0
 40
9.0
 40
9.0
 40
10.0
 40
10.0
 40
10.0
 40
11.0
 40
11.0
 40
11.0
 40
11.0
 10
126.377554584636
 20
154.8151140277308
 30
0.0
 10
126.377554584636
 20
154.8151140277308
 30
0.0
 10
128.8311532078563
 20
154.8151140277308
 30
0.0
 10
128.8311532078563
 20
154.8151140277308
 30
0.0
 10
128.8311532078563
 20
154.8151140277308
 30
0.0
 10
127.7345785914971
 20
151.3062819612468
 30
0.0
 10
127.7345785914971
 20
151.3062819612468
 30
0.0
 10
128.571392836906
 20
152.2922689395754
 30
0.0
 10
129.8860421413442
 20
153.604506675583
 30
0.0
 10
131.0163787157314
 20
154.2664822097754
 30
0.0
 10
132.7044766171327
 20
155.2500576196734
 30
0.0
 10
133.6642808525008
 20
155.3847609420097
 30
0.0
 10
134.7284715499351
 20
155.3565111403944
 30
0.0
 10
134.7284715499351
 20
155.3565111403944
 30
0.0
 10
133.6877075172549
 20
152.0345756272799
 30
0.0
 10
133.6877075172549
 20
152.0345756272799
 30
0.0
 10
133.011434827367
 20
152.3184516825359
 30
0.0
 10
130.930940291334
 20
151.7768823149844
 30
0.0
 10
129.739280976855
 20
150.9162968950455
 30
0.0
 10
128.66613302525
 20
150.1454562717016
 30
0.0
 10
127.9192358313239
 20
149.4857200510519
 30
0.0
 10
127.0393578639405
 20
147.8282835196966
 30
0.0
 10
126.164647543194
 20
146.1699857139017
 30
0.0
 10
125.4742499524985
 20
143.5262176944419
 30
0.0
 10
124.2822461282437
 20
139.6959580071401
 30
0.0
 10
124.2822461282437
 20
139.6959580071401
 30
0.0
 10
120.5753209406769
 20
127.8027915271048
 30
0.0
 10
120.5753209406769
 20
127.8027915271048
 30
0.0
 10
120.5753209406769
 20
127.8027915271048
 30
0.0
 10
118.1964809388044
 20
127.8027915271048
 30
0.0
 10
118.1964809388044
 20
127.8027915271048
 30
0.0
 10
118.1964809388044
 20
127.8027915271048
 30
0.0
 10
126.377554584636
 20
154.8151140277308
 30
0.0
 10
126.377554584636
 20
154.8151140277308
 30
0.0
  0
HATCH
  5
6A7
330
6A2
100
AcDbEntity
  8
LOGO
 62
   250
420
  2234388
100
AcDbHatch
 10
0.0
 20
0.0
 30
0.0
210
0.0
220
0.0
230
1.0
  2
SOLID
 70
     1
 71
     0
 91
        1
 92
        1
 93
        1
 72
     4
 94
        3
 73
     0
 74
     1
 95
       38
 96
       34
 40
0.0
 40
0.0
 40
0.0
 40
0.0
 40
1.0
 40
1.0
 40
1.0
 40
2.0
 40
2.0
 40
2.0
 40
3.0
 40
3.0
 40
3.0
 40
4.0
 40
4.0
 40
4.0
 40
5.0
 40
5.0
 40
5.0
 40
6.0
 40
6.0
 40
6.0
 40
7.0
 40
7.0
 40
7.0
 40
8.0
 40
8.0
 40
8.0
 40
9.0
 40
9.0
 40
9.0
 40
10.0
 40
10.0
 40
10.0
 40
11.0
 40
11.0
 40
11.0
 40
11.0
 10
126.377554584636
 20
154.8151140277308
 10
126.377554584636
 20
154.8151140277308
 10
128.8311532078563
 20
154.8151140277308
 10
128.8311532078563
 20
154.8151140277308
 10
128.8311532078563
 20
154.8151140277308
 10
127.7345785914971
 20
151.3062819612468
 10
127.7345785914971
 20
151.3062819612468
 10
128.571392836906
 20
152.2922689395754
 10
129.8860421413442
 20
153.604506675583
 10
131.0163787157314
 20
154.2664822097754
 10
132.7044766171327
 20
155.2500576196734
 10
133.6642808525008
 20
155.3847609420097
 10
134.7284715499351
 20
155.3565111403944
 10
134.7284715499351
 20
155.3565111403944
 10
133.6877075172549
 20
152.0345756272799
 10
133.6877075172549
 20
152.0345756272799
 10
133.011434827367
 20
152.3184516825359
 10
130.930940291334
 20
151.7768823149844
 10
129.739280976855
 20
150.9162968950455
 10
128.66613302525
 20
150.1454562717016
 10
127.9192358313239
 20
149.4857200510519
 10
127.0393578639405
 20
147.8282835196966
 10
126.164647543194
 20
146.1699857139017
 10
125.4742499524985
 20
143.5262176944419
 10
124.2822461282437
 20
139.6959580071401
 10
124.2822461282437
 20
139.6959580071401
 10
120.5753209406769
 20
127.8027915271048
 10
120.5753209406769
 20
127.8027915271048
 10
120.5753209406769
 20
127.8027915271048
 10
118.1964809388044
 20
127.8027915271048
 10
118.1964809388044
 20
127.8027915271048
 10
118.1964809388044
 20
127.8027915271048
 10
126.377554584636
 20
154.8151140277308
 10
126.377554584636
 20
154.8151140277308
 97
        0
 75
     2
 76
     1
 98
        0
  0
SPLINE
  5
6A8
330
6A2
100
AcDbEntity
  8
LOGO
370
     0
100
AcDbSpline
210
0.0
220
0.0
230
1.0
 70
    11
 71
     3
 72
   104
 73
   100
 74
     0
 42
0.000000001
 43
0.0000000001
 40
0.0
 40
0.0
 40
0.0
 40
0.0
 40
1.0
 40
1.0
 40
1.0
 40
2.0
 40
2.0
 40
2.0
 40
3.0
 40
3.0
 40
3.0
 40
4.0
 40
4.0
 40
4.0
 40
5.0
 40
5.0
 40
5.0
 40
6.0
 40
6.0
 40
6.0
 40
7.0
 40
7.0
 40
7.0
 40
8.0
 40
8.0
 40
8.0
 40
9.0
 40
9.0
 40
9.0
 40
10.0
 40
10.0
 40
10.0
 40
11.0
 40
11.0
 40
11.0
 40
12.0
 40
12.0
 40
12.0
 40
13.0
 40
13.0
 40
13.0
 40
14.0
 40
14.0
 40
14.0
 40
15.0
 40
15.0
 40
15.0
 40
16.0
 40
16.0
 40
16.0
 40
17.0
 40
17.0
 40
17.0
 40
18.0
 40
18.0
 40
18.0
 40
19.0
 40
19.0
 40
19.0
 40
20.0
 40
20.0
 40
20.0
 40
21.0
 40
21.0
 40
21.0
 40
22.0
 40
22.0
 40
22.0
 40
23.0
 40
23.0
 40
23.0
 40
24.0
 40
24.0
 40
24.0
 40
25.0
 40
25.0
 40
25.0
 40
26.0
 40
26.0
 40
26.0
 40
27.0
 40
27.0
 40
27.0
 40
28.0
 40
28.0
 40
28.0
 40
29.0
 40
29.0
 40
29.0
 40
30.0
 40
30.0
 40
30.0
 40
31.0
 40
31.0
 40
31.0
 40
32.0
 40
32.0
 40
32.0
 40
33.0
 40
33.0
 40
33.0
 40
33.0
 10
139.8926730891197
 20
154.8294111834263
 30
0.0
 10
139.8926730891197
 20
154.8294111834263
 30
0.0
 10
142.0344903652445
 20
154.8294111834263
 30
0.0
 10
142.0344903652445
 20
154.8294111834263
 30
0.0
 10
142.0344903652445
 20
154.8294111834263
 30
0.0
 10
140.9516961399171
 20
151.3157559800812
 30
0.0
 10
140.9516961399171
 20
151.3157559800812
 30
0.0
 10
141.8928968473923
 20
152.7887075264977
 30
0.0
 10
142.7341897198865
 20
153.4484437471474
 30
0.0
 10
143.8552245303272
 20
154.2926649527359
 30
0.0
 10
144.9803934580775
 20
155.1296514530327
 30
0.0
 10
146.3139908001845
 20
155.3044901642492
 30
0.0
 10
147.241066606852
 20
155.3044901642492
 30
0.0
 10
148.3855280820469
 20
155.3044901642492
 30
0.0
 10
149.4969166187653
 20
155.0752189084569
 30
0.0
 10
150.0784491203092
 20
153.8172414621372
 30
0.0
 10
150.5228667310863
 20
152.833838307127
 30
0.0
 10
150.5414702589793
 20
152.7201500811143
 30
0.0
 10
150.4140016419347
 20
150.7765981809602
 30
0.0
 10
151.5818897818837
 20
152.7699317437168
 30
0.0
 10
152.4424752018226
 20
153.6256940267945
 30
0.0
 10
153.9038856707499
 20
154.4507949398263
 30
0.0
 10
155.4455669174378
 20
155.3044901642492
 30
0.0
 10
156.339225275853
 20
155.3659851592288
 30
0.0
 10
157.3748216618963
 20
155.2147453676543
 30
0.0
 10
158.911679771723
 20
154.9877134254046
 30
0.0
 10
159.8859534176746
 20
154.4390816074493
 30
0.0
 10
160.3965169054045
 20
152.7816450760939
 30
0.0
 10
160.9070803931344
 20
151.1219692311958
 30
0.0
 10
160.6328506116007
 20
150.2303779314354
 30
0.0
 10
159.9992971339115
 20
147.597634224801
 30
0.0
 10
159.7105979417943
 20
146.4014962832367
 30
0.0
 10
159.2947746424084
 20
144.9400858143094
 30
0.0
 10
158.7463150793409
 20
143.2092687007094
 30
0.0
 10
158.7463150793409
 20
143.2092687007094
 30
0.0
 10
153.9038856707499
 20
127.8027915271048
 30
0.0
 10
153.9038856707499
 20
127.8027915271048
 30
0.0
 10
153.9038856707499
 20
127.8027915271048
 30
0.0
 10
151.3882752878863
 20
127.8027915271048
 30
0.0
 10
151.3882752878863
 20
127.8027915271048
 30
0.0
 10
151.3882752878863
 20
127.8027915271048
 30
0.0
 10
155.6250565106276
 20
141.2751908193897
 30
0.0
 10
155.6250565106276
 20
141.2751908193897
 30
0.0
 10
156.5094131050963
 20
144.0936252951782
 30
0.0
 10
157.109893644309
 20
146.1506931664571
 30
0.0
 10
157.4220195011804
 20
147.4415712963654
 30
0.0
 10
157.8095929989511
 20
149.0530157726519
 30
0.0
 10
157.9656559273867
 20
149.5826995529385
 30
0.0
 10
157.7816877071116
 20
150.7529992613181
 30
0.0
 10
157.6111553680925
 20
151.8430281919372
 30
0.0
 10
157.0582171779396
 20
152.5547853887321
 30
0.0
 10
156.1170164704645
 20
152.5547853887321
 30
0.0
 10
155.1096698860365
 20
152.5547853887321
 30
0.0
 10
154.2962823053817
 20
152.4412694176073
 30
0.0
 10
153.156643967048
 20
151.2945686288697
 30
0.0
 10
152.0170056287143
 20
150.1476955852443
 30
0.0
 10
151.076149431015
 20
148.7930831468137
 30
0.0
 10
150.3337308641742
 20
147.2290087646991
 30
0.0
 10
149.5957909244188
 20
145.6683794803425
 30
0.0
 10
148.8530278478023
 20
143.6822806228776
 30
0.0
 10
148.0964843801539
 20
141.2751908193897
 30
0.0
 10
148.0964843801539
 20
141.2751908193897
 30
0.0
 10
143.8552245303272
 20
127.8027915271048
 30
0.0
 10
143.8552245303272
 20
127.8027915271048
 30
0.0
 10
143.8552245303272
 20
127.8027915271048
 30
0.0
 10
141.486030802177
 20
127.8027915271048
 30
0.0
 10
141.486030802177
 20
127.8027915271048
 30
0.0
 10
141.486030802177
 20
127.8027915271048
 30
0.0
 10
146.3329388378533
 20
143.2092687007094
 30
0.0
 10
146.3329388378533
 20
143.2092687007094
 30
0.0
 10
146.8483254624444
 20
144.8408669988801
 30
0.0
 10
147.2314203331297
 20
146.1837661049335
 30
0.0
 10
147.4867020769946
 20
147.224185627838
 30
0.0
 10
147.9169947869641
 20
149.0197705792876
 30
0.0
 10
148.0306830129768
 20
150.2400242051577
 30
0.0
 10
147.709255392159
 20
151.3157559800812
 30
0.0
 10
147.3874832615654
 20
152.3916600098926
 30
0.0
 10
146.8245542879144
 20
152.6683013598569
 30
0.0
 10
145.8840425999909
 20
152.6683013598569
 30
0.0
 10
145.0989048209514
 20
152.6683013598569
 30
0.0
 10
144.3282364524954
 20
152.3275811915945
 30
0.0
 10
143.4531816219731
 20
151.6538923250251
 30
0.0
 10
142.34627171234
 20
150.8074318058939
 30
0.0
 10
141.901854101563
 20
150.1097995099067
 30
0.0
 10
141.3578731655808
 20
149.289521733736
 30
0.0
 10
140.6299240093235
 20
148.192602607601
 30
0.0
 10
140.2850697237515
 20
147.455696197173
 30
0.0
 10
139.6652966370942
 20
145.8385673095858
 30
0.0
 10
139.0506911970739
 20
144.2214384219986
 30
0.0
 10
138.463991048893
 20
142.3252566160164
 30
0.0
 10
138.0571250036777
 20
141.0154304484394
 30
0.0
 10
138.0571250036777
 20
141.0154304484394
 30
0.0
 10
133.9009590684727
 20
127.8027915271048
 30
0.0
 10
133.9009590684727
 20
127.8027915271048
 30
0.0
 10
133.9009590684727
 20
127.8027915271048
 30
0.0
 10
131.4180771143097
 20
127.8027915271048
 30
0.0
 10
131.4180771143097
 20
127.8027915271048
 30
0.0
 10
131.4180771143097
 20
127.8027915271048
 30
0.0
 10
139.8926730891197
 20
154.8294111834263
 30
0.0
 10
139.8926730891197
 20
154.8294111834263
 30
0.0
  0
HATCH
  5
6A9
330
6A2
100
AcDbEntity
  8
LOGO
 62
   250
420
  2234388
100
AcDbHatch
 10
0.0
 20
0.0
 30
0.0
210
0.0
220
0.0
230
1.0
  2
SOLID
 70
     1
 71
     0
 91
        1
 92
        1
 93
        1
 72
     4
 94
        3
 73
     0
 74
     1
 95
      104
 96
      100
 40
0.0
 40
0.0
 40
0.0
 40
0.0
 40
1.0
 40
1.0
 40
1.0
 40
2.0
 40
2.0
 40
2.0
 40
3.0
 40
3.0
 40
3.0
 40
4.0
 40
4.0
 40
4.0
 40
5.0
 40
5.0
 40
5.0
 40
6.0
 40
6.0
 40
6.0
 40
7.0
 40
7.0
 40
7.0
 40
8.0
 40
8.0
 40
8.0
 40
9.0
 40
9.0
 40
9.0
 40
10.0
 40
10.0
 40
10.0
 40
11.0
 40
11.0
 40
11.0
 40
12.0
 40
12.0
 40
12.0
 40
13.0
 40
13.0
 40
13.0
 40
14.0
 40
14.0
 40
14.0
 40
15.0
 40
15.0
 40
15.0
 40
16.0
 40
16.0
 40
16.0
 40
17.0
 40
17.0
 40
17.0
 40
18.0
 40
18.0
 40
18.0
 40
19.0
 40
19.0
 40
19.0
 40
20.0
 40
20.0
 40
20.0
 40
21.0
 40
21.0
 40
21.0
 40
22.0
 40
22.0
 40
22.0
 40
23.0
 40
23.0
 40
23.0
 40
24.0
 40
24.0
 40
24.0
 40
25.0
 40
25.0
 40
25.0
 40
26.0
 40
26.0
 40
26.0
 40
27.0
 40
27.0
 40
27.0
 40
28.0
 40
28.0
 40
28.0
 40
29.0
 40
29.0
 40
29.0
 40
30.0
 40
30.0
 40
30.0
 40
31.0
 40
31.0
 40
31.0
 40
32.0
 40
32.0
 40
32.0
 40
33.0
 40
33.0
 40
33.0
 40
33.0
 10
139.8926730891197
 20
154.8294111834263
 10
139.8926730891197
 20
154.8294111834263
 10
142.0344903652445
 20
154.8294111834263
 10
142.0344903652445
 20
154.8294111834263
 10
142.0344903652445
 20
154.8294111834263
 10
140.9516961399171
 20
151.3157559800812
 10
140.9516961399171
 20
151.3157559800812
 10
141.8928968473923
 20
152.7887075264977
 10
142.7341897198865
 20
153.4484437471474
 10
143.8552245303272
 20
154.2926649527359
 10
144.9803934580775
 20
155.1296514530327
 10
146.3139908001845
 20
155.3044901642492
 10
147.241066606852
 20
155.3044901642492
 10
148.3855280820469
 20
155.3044901642492
 10
149.4969166187653
 20
155.0752189084569
 10
150.0784491203092
 20
153.8172414621372
 10
150.5228667310863
 20
152.833838307127
 10
150.5414702589793
 20
152.7201500811143
 10
150.4140016419347
 20
150.7765981809602
 10
151.5818897818837
 20
152.7699317437168
 10
152.4424752018226
 20
153.6256940267945
 10
153.9038856707499
 20
154.4507949398263
 10
155.4455669174378
 20
155.3044901642492
 10
156.339225275853
 20
155.3659851592288
 10
157.3748216618963
 20
155.2147453676543
 10
158.911679771723
 20
154.9877134254046
 10
159.8859534176746
 20
154.4390816074493
 10
160.3965169054045
 20
152.7816450760939
 10
160.9070803931344
 20
151.1219692311958
 10
160.6328506116007
 20
150.2303779314354
 10
159.9992971339115
 20
147.597634224801
 10
159.7105979417943
 20
146.4014962832367
 10
159.2947746424084
 20
144.9400858143094
 10
158.7463150793409
 20
143.2092687007094
 10
158.7463150793409
 20
143.2092687007094
 10
153.9038856707499
 20
127.8027915271048
 10
153.9038856707499
 20
127.8027915271048
 10
153.9038856707499
 20
127.8027915271048
 10
151.3882752878863
 20
127.8027915271048
 10
151.3882752878863
 20
127.8027915271048
 10
151.3882752878863
 20
127.8027915271048
 10
155.6250565106276
 20
141.2751908193897
 10
155.6250565106276
 20
141.2751908193897
 10
156.5094131050963
 20
144.0936252951782
 10
157.109893644309
 20
146.1506931664571
 10
157.4220195011804
 20
147.4415712963654
 10
157.8095929989511
 20
149.0530157726519
 10
157.9656559273867
 20
149.5826995529385
 10
157.7816877071116
 20
150.7529992613181
 10
157.6111553680925
 20
151.8430281919372
 10
157.0582171779396
 20
152.5547853887321
 10
156.1170164704645
 20
152.5547853887321
 10
155.1096698860365
 20
152.5547853887321
 10
154.2962823053817
 20
152.4412694176073
 10
153.156643967048
 20
151.2945686288697
 10
152.0170056287143
 20
150.1476955852443
 10
151.076149431015
 20
148.7930831468137
 10
150.3337308641742
 20
147.2290087646991
 10
149.5957909244188
 20
145.6683794803425
 10
148.8530278478023
 20
143.6822806228776
 10
148.0964843801539
 20
141.2751908193897
 10
148.0964843801539
 20
141.2751908193897
 10
143.8552245303272
 20
127.8027915271048
 10
143.8552245303272
 20
127.8027915271048
 10
143.8552245303272
 20
127.8027915271048
 10
141.486030802177
 20
127.8027915271048
 10
141.486030802177
 20
127.8027915271048
 10
141.486030802177
 20
127.8027915271048
 10
146.3329388378533
 20
143.2092687007094
 10
146.3329388378533
 20
143.2092687007094
 10
146.8483254624444
 20
144.8408669988801
 10
147.2314203331297
 20
146.1837661049335
 10
147.4867020769946
 20
147.224185627838
 10
147.9169947869641
 20
149.0197705792876
 10
148.0306830129768
 20
150.2400242051577
 10
147.709255392159
 20
151.3157559800812
 10
147.3874832615654
 20
152.3916600098926
 10
146.8245542879144
 20
152.6683013598569
 10
145.8840425999909
 20
152.6683013598569
 10
145.0989048209514
 20
152.6683013598569
 10
144.3282364524954
 20
152.3275811915945
 10
143.4531816219731
 20
151.6538923250251
 10
142.34627171234
 20
150.8074318058939
 10
141.901854101563
 20
150.1097995099067
 10
141.3578731655808
 20
149.289521733736
 10
140.6299240093235
 20
148.192602607601
 10
140.2850697237515
 20
147.455696197173
 10
139.6652966370942
 20
145.8385673095858
 10
139.0506911970739
 20
144.2214384219986
 10
138.463991048893
 20
142.3252566160164
 10
138.0571250036777
 20
141.0154304484394
 10
138.0571250036777
 20
141.0154304484394
 10
133.9009590684727
 20
127.8027915271048
 10
133.9009590684727
 20
127.8027915271048
 10
133.9009590684727
 20
127.8027915271048
 10
131.4180771143097
 20
127.8027915271048
 10
131.4180771143097
 20
127.8027915271048
 10
131.4180771143097
 20
127.8027915271048
 10
139.8926730891197
 20
154.8294111834263
 10
139.8926730891197
 20
154.8294111834263
 97
        0
 75
     2
 76
     1
 98
        0
  0
SPLINE
  5
6AA
330
6A2
100
AcDbEntity
  8
LOGO
370
     0
100
AcDbSpline
210
0.0
220
0.0
230
1.0
 70
    11
 71
     3
 72
    29
 73
    25
 74
     0
 42
0.000000001
 43
0.0000000001
 40
0.0
 40
0.0
 40
0.0
 40
0.0
 40
1.0
 40
1.0
 40
1.0
 40
2.0
 40
2.0
 40
2.0
 40
3.0
 40
3.0
 40
3.0
 40
4.0
 40
4.0
 40
4.0
 40
5.0
 40
5.0
 40
5.0
 40
6.0
 40
6.0
 40
6.0
 40
7.0
 40
7.0
 40
7.0
 40
8.0
 40
8.0
 40
8.0
 40
8.0
 10
101.6420971922469
 20
132.8388354296931
 30
0.0
 10
101.630039350094
 20
134.7164137077823
 30
0.0
 10
102.2236296937908
 20
138.0598810818841
 30
0.0
 10
103.7487744712405
 20
142.5378191476827
 30
0.0
 10
105.819967243327
 20
148.5896501242061
 30
0.0
 10
107.0602024361932
 20
150.8074318058939
 30
0.0
 10
108.1522984254671
 20
151.8833358357054
 30
0.0
 10
109.741177511439
 20
153.4532668840085
 30
0.0
 10
111.8740375333931
 20
153.5290590346837
 30
0.0
 10
112.5075910110823
 20
153.4532668840085
 30
0.0
 10
113.4012493694975
 20
153.3490526768302
 30
0.0
 10
114.6683563248758
 20
152.7580461564518
 30
0.0
 10
114.7493161221879
 20
150.7838328862519
 30
0.0
 10
114.8106388622796
 20
149.0909118479895
 30
0.0
 10
114.3186789024427
 20
145.9191825971221
 30
0.0
 10
112.6164561002338
 20
140.9489400617108
 30
0.0
 10
110.6444821435766
 20
135.1746117095912
 30
0.0
 10
109.4669477299053
 20
132.8960240524753
 30
0.0
 10
108.5212683953448
 20
131.9072809959403
 30
0.0
 10
106.7346406980658
 20
130.0538184021569
 30
0.0
 10
104.8222669326213
 20
130.2336525051225
 30
0.0
 10
104.5408024457958
 20
130.2336525051225
 30
0.0
 10
104.1721769856939
 20
130.2336525051225
 30
0.0
 10
101.6465758193322
 20
130.6305277668397
 30
0.0
 10
101.6420971922469
 20
132.8388354296931
 30
0.0
  0
SPLINE
  5
6AB
330
6A2
100
AcDbEntity
  8
LOGO
370
     0
100
AcDbSpline
210
0.0
220
0.0
230
1.0
 70
    11
 71
     3
 72
    32
 73
    28
 74
     0
 42
0.000000001
 43
0.0000000001
 40
0.0
 40
0.0
 40
0.0
 40
0.0
 40
1.0
 40
1.0
 40
1.0
 40
2.0
 40
2.0
 40
2.0
 40
3.0
 40
3.0
 40
3.0
 40
4.0
 40
4.0
 40
4.0
 40
5.0
 40
5.0
 40
5.0
 40
6.0
 40
6.0
 40
6.0
 40
7.0
 40
7.0
 40
7.0
 40
8.0
 40
8.0
 40
8.0
 40
9.0
 40
9.0
 40
9.0
 40
9.0
 10
106.2595617172429
 20
153.4105476718098
 30
0.0
 10
104.8222669326213
 20
151.5474388043041
 30
0.0
 10
103.7177685914188
 20
149.8758773721411
 30
0.0
 10
101.9232171692965
 20
144.6141795664062
 30
0.0
 10
100.2754269116635
 20
139.7999999594306
 30
0.0
 10
99.22777268346732
 20
136.3052927937542
 30
0.0
 10
99.06964269637689
 20
132.039572749846
 30
0.0
 10
98.94665270641765
 20
128.8673267343149
 30
0.0
 10
100.8807305877373
 20
127.8027915271048
 30
0.0
 10
103.7129454545577
 20
127.8027915271048
 30
0.0
 10
104.9352661390825
 20
127.8027915271048
 30
0.0
 10
108.0151835347002
 20
127.8827177950895
 30
0.0
 10
110.2045431598849
 20
130.5926316915021
 30
0.0
 10
111.7417457794874
 20
132.4984597712065
 30
0.0
 10
113.155269389579
 20
134.475256864725
 30
0.0
 10
115.0562743324223
 20
140.9489400617108
 30
0.0
 10
116.6361961642235
 20
146.3680788349845
 30
0.0
 10
117.7282921534974
 20
149.8639917848761
 30
0.0
 10
117.6480213757369
 20
151.8595646611754
 30
0.0
 10
117.6480213757369
 20
151.8595646611754
 30
0.0
 10
117.6480213757369
 20
151.8595646611754
 30
0.0
 10
117.6480213757369
 20
151.8595646611754
 30
0.0
 10
117.13229024137
 20
155.18150017429
 30
0.0
 10
114.7162431837115
 20
155.886194920681
 30
0.0
 10
113.3351034925446
 20
155.886194920681
 30
0.0
 10
111.9829026225447
 20
155.886194920681
 30
0.0
 10
108.3414342923792
 20
156.1251124501957
 30
0.0
 10
106.2595617172429
 20
153.4105476718098
 30
0.0
  0
HATCH
  5
6AC
330
6A2
100
AcDbEntity
  8
LOGO
 62
   250
420
  2234388
100
AcDbHatch
 10
0.0
 20
0.0
 30
0.0
210
0.0
220
0.0
230
1.0
  2
SOLID
 70
     1
 71
     0
 91
        2
 92
        1
 93
        1
 72
     4
 94
        3
 73
     0
 74
     1
 95
       29
 96
       25
 40
0.0
 40
0.0
 40
0.0
 40
0.0
 40
1.0
 40
1.0
 40
1.0
 40
2.0
 40
2.0
 40
2.0
 40
3.0
 40
3.0
 40
3.0
 40
4.0
 40
4.0
 40
4.0
 40
5.0
 40
5.0
 40
5.0
 40
6.0
 40
6.0
 40
6.0
 40
7.0
 40
7.0
 40
7.0
 40
8.0
 40
8.0
 40
8.0
 40
8.0
 10
101.6420971922469
 20
132.8388354296931
 10
101.630039350094
 20
134.7164137077823
 10
102.2236296937908
 20
138.0598810818841
 10
103.7487744712405
 20
142.5378191476827
 10
105.819967243327
 20
148.5896501242061
 10
107.0602024361932
 20
150.8074318058939
 10
108.1522984254671
 20
151.8833358357054
 10
109.741177511439
 20
153.4532668840085
 10
111.8740375333931
 20
153.5290590346837
 10
112.5075910110823
 20
153.4532668840085
 10
113.4012493694975
 20
153.3490526768302
 10
114.6683563248758
 20
152.7580461564518
 10
114.7493161221879
 20
150.7838328862519
 10
114.8106388622796
 20
149.0909118479895
 10
114.3186789024427
 20
145.9191825971221
 10
112.6164561002338
 20
140.9489400617108
 10
110.6444821435766
 20
135.1746117095912
 10
109.4669477299053
 20
132.8960240524753
 10
108.5212683953448
 20
131.9072809959403
 10
106.7346406980658
 20
130.0538184021569
 10
104.8222669326213
 20
130.2336525051225
 10
104.5408024457958
 20
130.2336525051225
 10
104.1721769856939
 20
130.2336525051225
 10
101.6465758193322
 20
130.6305277668397
 10
101.6420971922469
 20
132.8388354296931
 97
        0
 92
        1
 93
        1
 72
     4
 94
        3
 73
     0
 74
     1
 95
       32
 96
       28
 40
0.0
 40
0.0
 40
0.0
 40
0.0
 40
1.0
 40
1.0
 40
1.0
 40
2.0
 40
2.0
 40
2.0
 40
3.0
 40
3.0
 40
3.0
 40
4.0
 40
4.0
 40
4.0
 40
5.0
 40
5.0
 40
5.0
 40
6.0
 40
6.0
 40
6.0
 40
7.0
 40
7.0
 40
7.0
 40
8.0
 40
8.0
 40
8.0
 40
9.0
 40
9.0
 40
9.0
 40
9.0
 10
106.2595617172429
 20
153.4105476718098
 10
104.8222669326213
 20
151.5474388043041
 10
103.7177685914188
 20
149.8758773721411
 10
101.9232171692965
 20
144.6141795664062
 10
100.2754269116635
 20
139.7999999594306
 10
99.22777268346732
 20
136.3052927937542
 10
99.06964269637689
 20
132.039572749846
 10
98.94665270641765
 20
128.8673267343149
 10
100.8807305877373
 20
127.8027915271048
 10
103.7129454545577
 20
127.8027915271048
 10
104.9352661390825
 20
127.8027915271048
 10
108.0151835347002
 20
127.8827177950895
 10
110.2045431598849
 20
130.5926316915021
 10
111.7417457794874
 20
132.4984597712065
 10
113.155269389579
 20
134.475256864725
 10
115.0562743324223
 20
140.9489400617108
 10
116.6361961642235
 20
146.3680788349845
 10
117.7282921534974
 20
149.8639917848761
 10
117.6480213757369
 20
151.8595646611754
 10
117.6480213757369
 20
151.8595646611754
 10
117.6480213757369
 20
151.8595646611754
 10
117.6480213757369
 20
151.8595646611754
 10
117.13229024137
 20
155.18150017429
 10
114.7162431837115
 20
155.886194920681
 10
113.3351034925446
 20
155.886194920681
 10
111.9829026225447
 20
155.886194920681
 10
108.3414342923792
 20
156.1251124501957
 10
106.2595617172429
 20
153.4105476718098
 97
        0
 75
     2
 76
     1
 98
        0
  0
ENDBLK
  5
6AD
330
6A2
100
AcDbEntity
  8
0
100
AcDbBlockEnd
  0
BLOCK
  5
3709
330
3708
100
AcDbEntity
  8
0
100
AcDbBlockBegin
  2
*D6
 70
     1
 10
0.0
 20
0.0
 30
0.0
  3
*D6
  1

  0
LINE
  5
370A
330
3708
100
AcDbEntity
  8
DIM
 62
     0
370
    -2
100
AcDbLine
 10
29.13175566177949
 20
19.01996972022854
 30
0.0
 11
29.13175566177949
 21
1.0
 31
0.0
  0
LINE
  5
370B
330
3708
100
AcDbEntity
  8
DIM
 62
     0
370
    -2
100
AcDbLine
 10
229.1317556617797
 20
19.01996972022854
 30
0.0
 11
229.1317556617797
 21
1.0
 31
0.0
  0
LINE
  5
370C
330
3708
100
AcDbEntity
  8
DIM
 62
     0
370
    -2
100
AcDbLine
 10
32.13175566177949
 20
1.0
 30
0.0
 11
226.1317556617797
 21
1.0
 31
0.0
  0
INSERT
  5
370D
330
3708
100
AcDbEntity
  8
DIM
 62
     0
370
    -2
100
AcDbBlockReference
  2
_DOT
 10
29.13175566177949
 20
1.0
 30
0.0
 41
3.0
 42
3.0
 43
3.0
 50
180.0
  0
INSERT
  5
370E
330
3708
100
AcDbEntity
  8
DIM
 62
     0
370
    -2
100
AcDbBlockReference
  2
_DOT
 10
229.1317556617797
 20
1.0
 30
0.0
 41
3.0
 42
3.0
 43
3.0
  0
MTEXT
  5
370F
330
3708
100
AcDbEntity
  8
DIM
 62
     0
 48
0.05
100
AcDbMText
 10
120.2099884444102
 20
15.0
 30
0.0
 40
8.0
 41
0.0
 46
0.0
 71
     2
 72
     1
  1
\A1;200
  7
ＭＳ ゴシック
 73
     1
 44
1.0
  0
POINT
  5
3710
330
3708
100
AcDbEntity
  8
Defpoints
 62
     0
100
AcDbPoint
 10
29.13175566177949
 20
29.01996972022854
 30
0.0
  0
POINT
  5
3711
330
3708
100
AcDbEntity
  8
Defpoints
 62
     0
100
AcDbPoint
 10
229.1317556617797
 20
29.01996972022854
 30
0.0
  0
POINT
  5
3712
330
3708
100
AcDbEntity
  8
Defpoints
 62
     0
100
AcDbPoint
 10
229.1317556617797
 20
1.0
 30
0.0
  0
ENDBLK
  5
3713
330
3708
100
AcDbEntity
  8
0
100
AcDbBlockEnd
  0
BLOCK
  5
3716
330
3715
100
AcDbEntity
  8
0
100
AcDbBlockBegin
  2
*D7
 70
     1
 10
0.0
 20
0.0
 30
0.0
  3
*D7
  1

  0
LINE
  5
3717
330
3715
100
AcDbEntity
  8
DIM
 62
     0
370
    -2
100
AcDbLine
 10
32.13175566177972
 20
16.01996972022839
 30
0.0
 11
8.522489973028987
 21
16.0199697202283
 31
0.0
  0
LINE
  5
3718
330
3715
100
AcDbEntity
  8
DIM
 62
     0
370
    -2
100
AcDbLine
 10
19.13175566177949
 20
143.0199697202284
 30
0.0
 11
8.522489973028543
 21
143.0199697202283
 31
0.0
  0
LINE
  5
3719
330
3715
100
AcDbEntity
  8
DIM
 62
     0
370
    -2
100
AcDbLine
 10
8.522489973028977
 20
19.0199697202283
 30
0.0
 11
8.522489973028554
 21
140.0199697202283
 31
0.0
  0
INSERT
  5
371A
330
3715
100
AcDbEntity
  8
DIM
 62
     0
370
    -2
100
AcDbBlockReference
  2
_DOT
 10
8.522489973028987
 20
16.0199697202283
 30
0.0
 41
3.0
 42
3.0
 43
3.0
 50
270.0000000000002
  0
INSERT
  5
371B
330
3715
100
AcDbEntity
  8
DIM
 62
     0
370
    -2
100
AcDbBlockReference
  2
_DOT
 10
8.522489973028543
 20
143.0199697202283
 30
0.0
 41
3.0
 42
3.0
 43
3.0
 50
90.0000000000002
  0
MTEXT
  5
371C
330
3715
100
AcDbEntity
  8
DIM
 62
     0
 48
0.05
100
AcDbMText
 10
-5.477510026971231
 20
78.74115777198499
 30
0.0
 40
8.0
 41
0.0
 46
0.0
 71
     2
 72
     1
  1
\A1;127
  7
ＭＳ ゴシック
 11
-3.496765431890256E-15
 21
1.0
 31
0.0
 73
     1
 44
1.0
  0
POINT
  5
371D
330
3715
100
AcDbEntity
  8
Defpoints
 62
     0
100
AcDbPoint
 10
42.13175566177972
 20
16.01996972022843
 30
0.0
  0
POINT
  5
371E
330
3715
100
AcDbEntity
  8
Defpoints
 62
     0
100
AcDbPoint
 10
29.13175566177949
 20
143.0199697202284
 30
0.0
  0
POINT
  5
371F
330
3715
100
AcDbEntity
  8
Defpoints
 62
     0
100
AcDbPoint
 10
8.522489973028541
 20
143.0199697202283
 30
0.0
  0
ENDBLK
  5
3720
330
3715
100
AcDbEntity
  8
0
100
AcDbBlockEnd
  0
BLOCK
  5
3723
330
3722
100
AcDbEntity
  8
0
100
AcDbBlockBegin
  2
*D8
 70
     1
 10
0.0
 20
0.0
 30
0.0
  3
*D8
  1

  0
LINE
  5
3724
330
3722
100
AcDbEntity
  8
DIM
 62
     0
370
    -2
100
AcDbLine
 10
23.13175566177972
 20
118.0199697202284
 30
0.0
 11
19.27611620205714
 21
118.0199697202284
 31
0.0
  0
LINE
  5
3725
330
3722
100
AcDbEntity
  8
DIM
 62
     0
370
    -2
100
AcDbLine
 10
19.13175566177949
 20
143.0199697202284
 30
0.0
 11
19.27611620205705
 21
143.0199697202284
 31
0.0
  0
LINE
  5
3726
330
3722
100
AcDbEntity
  8
DIM
 62
     0
370
    -2
100
AcDbLine
 10
19.27611620205713
 20
121.0199697202284
 30
0.0
 11
19.27611620205706
 21
140.0199697202284
 31
0.0
  0
INSERT
  5
3727
330
3722
100
AcDbEntity
  8
DIM
 62
     0
370
    -2
100
AcDbBlockReference
  2
_DOT
 10
19.27611620205714
 20
118.0199697202284
 30
0.0
 41
3.0
 42
3.0
 43
3.0
 50
270.0000000000002
  0
INSERT
  5
3728
330
3722
100
AcDbEntity
  8
DIM
 62
     0
370
    -2
100
AcDbBlockReference
  2
_DOT
 10
19.27611620205705
 20
143.0199697202284
 30
0.0
 41
3.0
 42
3.0
 43
3.0
 50
90.0000000000002
  0
MTEXT
  5
3729
330
3722
100
AcDbEntity
  8
DIM
 62
     0
 48
0.05
100
AcDbMText
 10
5.276116202057096
 20
130.258455991433
 30
0.0
 40
8.0
 41
0.0
 46
0.0
 71
     2
 72
     1
  1
\A1;25
  7
ＭＳ ゴシック
 11
-3.552713678800497E-15
 21
1.0
 31
0.0
 73
     1
 44
1.0
  0
POINT
  5
372A
330
3722
100
AcDbEntity
  8
Defpoints
 62
     0
100
AcDbPoint
 10
33.13175566177972
 20
118.0199697202284
 30
0.0
  0
POINT
  5
372B
330
3722
100
AcDbEntity
  8
Defpoints
 62
     0
100
AcDbPoint
 10
29.13175566177949
 20
143.0199697202284
 30
0.0
  0
POINT
  5
372C
330
3722
100
AcDbEntity
  8
Defpoints
 62
     0
100
AcDbPoint
 10
19.27611620205704
 20
143.0199697202284
 30
0.0
  0
ENDBLK
  5
372D
330
3722
100
AcDbEntity
  8
0
100
AcDbBlockEnd
  0
BLOCK
  5
3798
330
3797
100
AcDbEntity
  8
0
100
AcDbBlockBegin
  2
*D9
 70
     1
 10
0.0
 20
0.0
 30
0.0
  3
*D9
  1

  0
LINE
  5
3799
330
3797
100
AcDbEntity
  8
DIM
 62
     0
370
    -2
100
AcDbLine
 10
45.53175566177936
 20
255.6759880333636
 30
0.0
 11
20.88962047999977
 21
255.6759880333635
 31
0.0
  0
LINE
  5
379A
330
3797
100
AcDbEntity
  8
DIM
 62
     0
370
    -2
100
AcDbLine
 10
19.13175566177949
 20
273.6759880333636
 30
0.0
 11
20.8896204799997
 21
273.6759880333636
 31
0.0
  0
LINE
  5
379B
330
3797
100
AcDbEntity
  8
DIM
 62
     0
370
    -2
100
AcDbLine
 10
20.88962047999976
 20
258.6759880333635
 30
0.0
 11
20.88962047999971
 21
270.6759880333636
 31
0.0
  0
INSERT
  5
379C
330
3797
100
AcDbEntity
  8
DIM
 62
     0
370
    -2
100
AcDbBlockReference
  2
_DOT
 10
20.88962047999977
 20
255.6759880333635
 30
0.0
 41
3.0
 42
3.0
 43
3.0
 50
270.0000000000002
  0
INSERT
  5
379D
330
3797
100
AcDbEntity
  8
DIM
 62
     0
370
    -2
100
AcDbBlockReference
  2
_DOT
 10
20.8896204799997
 20
273.6759880333636
 30
0.0
 41
3.0
 42
3.0
 43
3.0
 50
90.0000000000002
  0
MTEXT
  5
379E
330
3797
100
AcDbEntity
  8
DIM
 62
     0
 48
0.05
100
AcDbMText
 10
6.889620479999735
 20
264.3703051942095
 30
0.0
 40
8.0
 41
0.0
 46
0.0
 71
     2
 72
     1
  1
\A1;18
  7
ＭＳ ゴシック
 11
-3.552713678800478E-15
 21
1.0
 31
0.0
 73
     1
 44
1.0
  0
POINT
  5
379F
330
3797
100
AcDbEntity
  8
Defpoints
 62
     0
100
AcDbPoint
 10
55.53175566177936
 20
255.6759880333636
 30
0.0
  0
POINT
  5
37A0
330
3797
100
AcDbEntity
  8
Defpoints
 62
     0
100
AcDbPoint
 10
29.13175566177949
 20
273.6759880333636
 30
0.0
  0
POINT
  5
37A1
330
3797
100
AcDbEntity
  8
Defpoints
 62
     0
100
AcDbPoint
 10
20.88962047999968
 20
273.6759880333636
 30
0.0
  0
ENDBLK
  5
37A2
330
3797
100
AcDbEntity
  8
0
100
AcDbBlockEnd
  0
BLOCK
  5
37A5
330
37A4
100
AcDbEntity
  8
0
100
AcDbBlockBegin
  2
*D10
 70
     1
 10
0.0
 20
0.0
 30
0.0
  3
*D10
  1

  0
LINE
  5
37A6
330
37A4
100
AcDbEntity
  8
DIM
 62
     0
370
    -2
100
AcDbLine
 10
19.13175566177949
 20
273.6759880333636
 30
0.0
 11
20.88962047999967
 21
273.6759880333636
 31
0.0
  0
LINE
  5
37A7
330
37A4
100
AcDbEntity
  8
DIM
 62
     0
370
    -2
100
AcDbLine
 10
19.13175566177949
 20
293.6759880333634
 30
0.0
 11
20.8896204799996
 21
293.6759880333634
 31
0.0
  0
LINE
  5
37A8
330
37A4
100
AcDbEntity
  8
DIM
 62
     0
370
    -2
100
AcDbLine
 10
20.88962047999966
 20
276.6759880333636
 30
0.0
 11
20.88962047999961
 21
290.6759880333634
 31
0.0
  0
INSERT
  5
37A9
330
37A4
100
AcDbEntity
  8
DIM
 62
     0
370
    -2
100
AcDbBlockReference
  2
_DOT
 10
20.88962047999967
 20
273.6759880333636
 30
0.0
 41
3.0
 42
3.0
 43
3.0
 50
270.0000000000002
  0
INSERT
  5
37AA
330
37A4
100
AcDbEntity
  8
DIM
 62
     0
370
    -2
100
AcDbBlockReference
  2
_DOT
 10
20.8896204799996
 20
293.6759880333634
 30
0.0
 41
3.0
 42
3.0
 43
3.0
 50
90.0000000000002
  0
MTEXT
  5
37AB
330
37A4
100
AcDbEntity
  8
DIM
 62
     0
 48
0.05
100
AcDbMText
 10
6.889620479999621
 20
286.5166141638148
 30
0.0
 40
8.0
 41
0.0
 46
0.0
 71
     2
 72
     1
  1
\A1;20
  7
ＭＳ ゴシック
 11
-3.552713678800541E-15
 21
1.0
 31
0.0
 73
     1
 44
1.0
  0
POINT
  5
37AC
330
37A4
100
AcDbEntity
  8
Defpoints
 62
     0
100
AcDbPoint
 10
29.13175566177949
 20
273.6759880333636
 30
0.0
  0
POINT
  5
37AD
330
37A4
100
AcDbEntity
  8
Defpoints
 62
     0
100
AcDbPoint
 10
29.13175566177949
 20
293.6759880333634
 30
0.0
  0
POINT
  5
37AE
330
37A4
100
AcDbEntity
  8
Defpoints
 62
     0
100
AcDbPoint
 10
20.88962047999962
 20
293.6759880333634
 30
0.0
  0
ENDBLK
  5
37AF
330
37A4
100
AcDbEntity
  8
0
100
AcDbBlockEnd
  0
BLOCK
  5
37B2
330
37B1
100
AcDbEntity
  8
0
100
AcDbBlockBegin
  2
*D11
 70
     1
 10
0.0
 20
0.0
 30
0.0
  3
*D11
  1

  0
LINE
  5
37B3
330
37B1
100
AcDbEntity
  8
DIM
 62
     0
370
    -2
100
AcDbLine
 10
19.13175566177949
 20
293.6759880333634
 30
0.0
 11
7.999999999999844
 21
293.6759880333633
 31
0.0
  0
LINE
  5
37B4
330
37B1
100
AcDbEntity
  8
DIM
 62
     0
370
    -2
100
AcDbLine
 10
68.03175566177936
 20
211.3801726701894
 30
0.0
 11
8.000000000000131
 21
211.3801726701891
 31
0.0
  0
LINE
  5
37B5
330
37B1
100
AcDbEntity
  8
DIM
 62
     0
370
    -2
100
AcDbLine
 10
7.999999999999854
 20
290.6759880333633
 30
0.0
 11
8.00000000000012
 21
214.3801726701891
 31
0.0
  0
INSERT
  5
37B6
330
37B1
100
AcDbEntity
  8
DIM
 62
     0
370
    -2
100
AcDbBlockReference
  2
_DOT
 10
7.999999999999844
 20
293.6759880333633
 30
0.0
 41
3.0
 42
3.0
 43
3.0
 50
90.0000000000002
  0
INSERT
  5
37B7
330
37B1
100
AcDbEntity
  8
DIM
 62
     0
370
    -2
100
AcDbBlockReference
  2
_DOT
 10
8.000000000000131
 20
211.3801726701891
 30
0.0
 41
3.0
 42
3.0
 43
3.0
 50
270.0000000000002
  0
MTEXT
  5
37B8
330
37B1
100
AcDbEntity
  8
DIM
 62
     0
 48
0.05
100
AcDbMText
 10
-6.0
 20
248.8636278172117
 30
0.0
 40
8.0
 41
0.0
 46
0.0
 71
     2
 72
     1
  1
\A1;82
  7
ＭＳ ゴシック
 11
-3.496773277145419E-15
 21
1.0
 31
0.0
 73
     1
 44
1.0
  0
POINT
  5
37B9
330
37B1
100
AcDbEntity
  8
Defpoints
 62
     0
100
AcDbPoint
 10
29.13175566177949
 20
293.6759880333634
 30
0.0
  0
POINT
  5
37BA
330
37B1
100
AcDbEntity
  8
Defpoints
 62
     0
100
AcDbPoint
 10
78.03175566177936
 20
211.3801726701895
 30
0.0
  0
POINT
  5
37BB
330
37B1
100
AcDbEntity
  8
Defpoints
 62
     0
100
AcDbPoint
 10
8.000000000000114
 20
211.3801726701892
 30
0.0
  0
ENDBLK
  5
37BC
330
37B1
100
AcDbEntity
  8
0
100
AcDbBlockEnd
  0
BLOCK
  5
3801
330
3800
100
AcDbEntity
  8
0
100
AcDbBlockBegin
  2
*D12
 70
     1
 10
0.0
 20
0.0
 30
0.0
  3
*D12
  1

  0
LINE
  5
3802
330
3800
100
AcDbEntity
  8
DIM
 62
     0
370
    -2
100
AcDbLine
 10
384.150554307849
 20
281.1759880333636
 30
0.0
 11
391.3166864456414
 21
281.1759880333636
 31
0.0
  0
LINE
  5
3803
330
3800
100
AcDbEntity
  8
DIM
 62
     0
370
    -2
100
AcDbLine
 10
384.150554307849
 20
289.1759880333634
 30
0.0
 11
391.3166864456414
 21
289.1759880333634
 31
0.0
  0
LINE
  5
3804
330
3800
100
AcDbEntity
  8
DIM
 62
     0
370
    -2
100
AcDbLine
 10
391.3166864456414
 20
284.1759880333636
 30
0.0
 11
391.3166864456414
 21
286.1759880333634
 31
0.0
  0
INSERT
  5
3805
330
3800
100
AcDbEntity
  8
DIM
 62
     0
370
    -2
100
AcDbBlockReference
  2
_DOT
 10
391.3166864456414
 20
281.1759880333636
 30
0.0
 41
3.0
 42
3.0
 43
3.0
 50
270.0
  0
INSERT
  5
3806
330
3800
100
AcDbEntity
  8
DIM
 62
     0
370
    -2
100
AcDbBlockReference
  2
_DOT
 10
391.3166864456414
 20
289.1759880333634
 30
0.0
 41
3.0
 42
3.0
 43
3.0
 50
90.0
  0
MTEXT
  5
3807
330
3800
100
AcDbEntity
  8
DIM
 62
     0
 48
0.05
100
AcDbMText
 10
377.3166864456414
 20
284.977354629707
 30
0.0
 40
8.0
 41
0.0
 46
0.0
 71
     2
 72
     1
  1
\A1;8
  7
ＭＳ ゴシック
 11
0.0
 21
1.0
 31
0.0
 73
     1
 44
1.0
  0
POINT
  5
3808
330
3800
100
AcDbEntity
  8
Defpoints
 62
     0
100
AcDbPoint
 10
374.150554307849
 20
281.1759880333636
 30
0.0
  0
POINT
  5
3809
330
3800
100
AcDbEntity
  8
Defpoints
 62
     0
100
AcDbPoint
 10
374.150554307849
 20
289.1759880333634
 30
0.0
  0
POINT
  5
380A
330
3800
100
AcDbEntity
  8
Defpoints
 62
     0
100
AcDbPoint
 10
391.3166864456414
 20
289.1759880333634
 30
0.0
  0
ENDBLK
  5
380B
330
3800
100
AcDbEntity
  8
0
100
AcDbBlockEnd
  0
BLOCK
  5
38D5
330
38D4
100
AcDbEntity
  8
0
100
AcDbBlockBegin
  2
*D13
 70
     1
 10
0.0
 20
0.0
 30
0.0
  3
*D13
  1

  0
LINE
  5
38D7
330
38D4
100
AcDbEntity
  8
DIM
 62
     0
370
    -2
100
AcDbLine
 10
144.5197353129423
 20
397.6166781742713
 30
0.0
 11
144.5197353129423
 21
421.7160733658546
 31
0.0
  0
LINE
  5
38D8
330
38D4
100
AcDbEntity
  8
DIM
 62
     0
370
    -2
100
AcDbLine
 10
344.5197353129425
 20
397.6166781742713
 30
0.0
 11
344.5197353129425
 21
421.7160733658546
 31
0.0
  0
LINE
  5
38D9
330
38D4
100
AcDbEntity
  8
DIM
 62
     0
370
    -2
100
AcDbLine
 10
147.5197353129423
 20
421.7160733658546
 30
0.0
 11
341.5197353129425
 21
421.7160733658546
 31
0.0
  0
INSERT
  5
38DA
330
38D4
100
AcDbEntity
  8
DIM
 62
     0
370
    -2
100
AcDbBlockReference
  2
_DOT
 10
144.5197353129423
 20
421.7160733658546
 30
0.0
 41
3.0
 42
3.0
 43
3.0
 50
180.0
  0
INSERT
  5
38DB
330
38D4
100
AcDbEntity
  8
DIM
 62
     0
370
    -2
100
AcDbBlockReference
  2
_DOT
 10
344.5197353129425
 20
421.7160733658546
 30
0.0
 41
3.0
 42
3.0
 43
3.0
  0
MTEXT
  5
38DC
330
38D4
100
AcDbEntity
  8
DIM
 62
     0
 48
0.05
100
AcDbMText
 10
235.597968095573
 20
435.7160733658546
 30
0.0
 40
8.0
 41
0.0
 46
0.0
 71
     2
 72
     1
  1
\A1;200
  7
ＭＳ ゴシック
 73
     1
 44
1.0
  0
POINT
  5
38DD
330
38D4
100
AcDbEntity
  8
Defpoints
 62
     0
100
AcDbPoint
 10
144.5197353129423
 20
387.6166781742713
 30
0.0
  0
POINT
  5
38DE
330
38D4
100
AcDbEntity
  8
Defpoints
 62
     0
100
AcDbPoint
 10
344.5197353129425
 20
387.6166781742713
 30
0.0
  0
POINT
  5
38DF
330
38D4
100
AcDbEntity
  8
Defpoints
 62
     0
100
AcDbPoint
 10
344.5197353129425
 20
421.7160733658546
 30
0.0
  0
ENDBLK
  5
38D6
330
38D4
100
AcDbEntity
  8
0
100
AcDbBlockEnd
  0
BLOCK
  5
38E1
330
38E0
100
AcDbEntity
  8
0
100
AcDbBlockBegin
  2
*D14
 70
     1
 10
0.0
 20
0.0
 30
0.0
  3
*D14
  1

  0
LINE
  5
38E3
330
38E0
100
AcDbEntity
  8
DIM
 62
     0
370
    -2
100
AcDbLine
 10
147.5197353129425
 20
256.7508583248794
 30
0.0
 11
93.6681238409307
 21
256.7508583248792
 31
0.0
  0
LINE
  5
38E4
330
38E0
100
AcDbEntity
  8
DIM
 62
     0
370
    -2
100
AcDbLine
 10
134.5197353129423
 20
383.7508583248794
 30
0.0
 11
93.66812384093026
 21
383.7508583248793
 31
0.0
  0
LINE
  5
38E5
330
38E0
100
AcDbEntity
  8
DIM
 62
     0
370
    -2
100
AcDbLine
 10
93.66812384093069
 20
259.7508583248792
 30
0.0
 11
93.66812384093028
 21
380.7508583248793
 31
0.0
  0
INSERT
  5
38E6
330
38E0
100
AcDbEntity
  8
DIM
 62
     0
370
    -2
100
AcDbBlockReference
  2
_DOT
 10
93.6681238409307
 20
256.7508583248792
 30
0.0
 41
3.0
 42
3.0
 43
3.0
 50
270.0000000000002
  0
INSERT
  5
38E7
330
38E0
100
AcDbEntity
  8
DIM
 62
     0
370
    -2
100
AcDbBlockReference
  2
_DOT
 10
93.66812384093026
 20
383.7508583248793
 30
0.0
 41
3.0
 42
3.0
 43
3.0
 50
90.0000000000002
  0
MTEXT
  5
38E8
330
38E0
100
AcDbEntity
  8
DIM
 62
     0
 48
0.05
100
AcDbMText
 10
79.66812384093049
 20
320.2508583248792
 30
0.0
 40
8.0
 41
0.0
 46
0.0
 71
     2
 72
     1
  1
\A1;127
  7
ＭＳ ゴシック
 11
-3.468791308435133E-15
 21
1.0
 31
0.0
 73
     1
 44
1.0
  0
POINT
  5
38E9
330
38E0
100
AcDbEntity
  8
Defpoints
 62
     0
100
AcDbPoint
 10
157.5197353129425
 20
256.7508583248795
 30
0.0
  0
POINT
  5
38EA
330
38E0
100
AcDbEntity
  8
Defpoints
 62
     0
100
AcDbPoint
 10
144.5197353129423
 20
383.7508583248795
 30
0.0
  0
POINT
  5
38EB
330
38E0
100
AcDbEntity
  8
Defpoints
 62
     0
100
AcDbPoint
 10
93.66812384093026
 20
383.7508583248793
 30
0.0
  0
ENDBLK
  5
38E2
330
38E0
100
AcDbEntity
  8
0
100
AcDbBlockEnd
  0
BLOCK
  5
38ED
330
38EC
100
AcDbEntity
  8
0
100
AcDbBlockBegin
  2
*D15
 70
     1
 10
0.0
 20
0.0
 30
0.0
  3
*D15
  1

  0
LINE
  5
38EF
330
38EC
100
AcDbEntity
  8
DIM
 62
     0
370
    -2
100
AcDbLine
 10
138.5197353129425
 20
358.7508583248794
 30
0.0
 11
119.1398875350699
 21
358.7508583248793
 31
0.0
  0
LINE
  5
38F0
330
38EC
100
AcDbEntity
  8
DIM
 62
     0
370
    -2
100
AcDbLine
 10
134.5197353129423
 20
383.7508583248794
 30
0.0
 11
119.1398875350699
 21
383.7508583248793
 31
0.0
  0
LINE
  5
38F1
330
38EC
100
AcDbEntity
  8
DIM
 62
     0
370
    -2
100
AcDbLine
 10
119.1398875350699
 20
361.7508583248793
 30
0.0
 11
119.1398875350699
 21
380.7508583248793
 31
0.0
  0
INSERT
  5
38F2
330
38EC
100
AcDbEntity
  8
DIM
 62
     0
370
    -2
100
AcDbBlockReference
  2
_DOT
 10
119.1398875350699
 20
358.7508583248793
 30
0.0
 41
3.0
 42
3.0
 43
3.0
 50
270.0000000000002
  0
INSERT
  5
38F3
330
38EC
100
AcDbEntity
  8
DIM
 62
     0
370
    -2
100
AcDbBlockReference
  2
_DOT
 10
119.1398875350699
 20
383.7508583248793
 30
0.0
 41
3.0
 42
3.0
 43
3.0
 50
90.0000000000002
  0
MTEXT
  5
38F4
330
38EC
100
AcDbEntity
  8
DIM
 62
     0
 48
0.05
100
AcDbMText
 10
105.1398875350699
 20
370.989344596084
 30
0.0
 40
8.0
 41
0.0
 46
0.0
 71
     2
 72
     1
  1
\A1;25
  7
ＭＳ ゴシック
 11
-3.410605131648481E-15
 21
1.0
 31
0.0
 73
     1
 44
1.0
  0
POINT
  5
38F5
330
38EC
100
AcDbEntity
  8
Defpoints
 62
     0
100
AcDbPoint
 10
148.5197353129425
 20
358.7508583248795
 30
0.0
  0
POINT
  5
38F6
330
38EC
100
AcDbEntity
  8
Defpoints
 62
     0
100
AcDbPoint
 10
144.5197353129423
 20
383.7508583248795
 30
0.0
  0
POINT
  5
38F7
330
38EC
100
AcDbEntity
  8
Defpoints
 62
     0
100
AcDbPoint
 10
119.1398875350699
 20
383.7508583248793
 30
0.0
  0
ENDBLK
  5
38EE
330
38EC
100
AcDbEntity
  8
0
100
AcDbBlockEnd
  0
BLOCK
  5
38F9
330
38F8
100
AcDbEntity
  8
0
100
AcDbBlockBegin
  2
*D16
 70
     1
 10
0.0
 20
0.0
 30
0.0
  3
*D16
  1

  0
LINE
  5
38FB
330
38F8
100
AcDbEntity
  8
DIM
 62
     0
370
    -2
100
AcDbLine
 10
395.8656957464519
 20
582.8111309081778
 30
0.0
 11
373.0271147691125
 21
582.8111309081777
 31
0.0
  0
LINE
  5
38FC
330
38F8
100
AcDbEntity
  8
DIM
 62
     0
370
    -2
100
AcDbLine
 10
388.4069625469849
 20
600.8111309081779
 30
0.0
 11
373.0271147691124
 21
600.8111309081778
 31
0.0
  0
LINE
  5
38FD
330
38F8
100
AcDbEntity
  8
DIM
 62
     0
370
    -2
100
AcDbLine
 10
373.0271147691125
 20
585.8111309081777
 30
0.0
 11
373.0271147691124
 21
597.8111309081778
 31
0.0
  0
INSERT
  5
38FE
330
38F8
100
AcDbEntity
  8
DIM
 62
     0
370
    -2
100
AcDbBlockReference
  2
_DOT
 10
373.0271147691125
 20
582.8111309081777
 30
0.0
 41
3.0
 42
3.0
 43
3.0
 50
270.0000000000002
  0
INSERT
  5
38FF
330
38F8
100
AcDbEntity
  8
DIM
 62
     0
370
    -2
100
AcDbBlockReference
  2
_DOT
 10
373.0271147691124
 20
600.8111309081778
 30
0.0
 41
3.0
 42
3.0
 43
3.0
 50
90.00000000000018
  0
MTEXT
  5
3900
330
38F8
100
AcDbEntity
  8
DIM
 62
     0
 48
0.05
100
AcDbMText
 10
359.0271147691125
 20
591.5054480690237
 30
0.0
 40
8.0
 41
0.0
 46
0.0
 71
     2
 72
     1
  1
\A1;18
  7
ＭＳ ゴシック
 11
-3.157967714489314E-15
 21
1.0
 31
0.0
 73
     1
 44
1.0
  0
POINT
  5
3901
330
38F8
100
AcDbEntity
  8
Defpoints
 62
     0
100
AcDbPoint
 10
405.8656957464519
 20
582.8111309081778
 30
0.0
  0
POINT
  5
3902
330
38F8
100
AcDbEntity
  8
Defpoints
 62
     0
100
AcDbPoint
 10
398.4069625469849
 20
600.8111309081779
 30
0.0
  0
POINT
  5
3903
330
38F8
100
AcDbEntity
  8
Defpoints
 62
     0
100
AcDbPoint
 10
373.0271147691124
 20
600.8111309081778
 30
0.0
  0
ENDBLK
  5
38FA
330
38F8
100
AcDbEntity
  8
0
100
AcDbBlockEnd
  0
BLOCK
  5
3905
330
3904
100
AcDbEntity
  8
0
100
AcDbBlockBegin
  2
*D17
 70
     1
 10
0.0
 20
0.0
 30
0.0
  3
*D17
  1

  0
LINE
  5
3907
330
3904
100
AcDbEntity
  8
DIM
 62
     0
370
    -2
100
AcDbLine
 10
388.4069625469849
 20
600.8111309081779
 30
0.0
 11
373.0271147691124
 21
600.8111309081778
 31
0.0
  0
LINE
  5
3908
330
3904
100
AcDbEntity
  8
DIM
 62
     0
370
    -2
100
AcDbLine
 10
388.4069625469849
 20
620.8111309081777
 30
0.0
 11
373.0271147691124
 21
620.8111309081776
 31
0.0
  0
LINE
  5
3909
330
3904
100
AcDbEntity
  8
DIM
 62
     0
370
    -2
100
AcDbLine
 10
373.0271147691124
 20
603.8111309081778
 30
0.0
 11
373.0271147691124
 21
617.8111309081776
 31
0.0
  0
INSERT
  5
390A
330
3904
100
AcDbEntity
  8
DIM
 62
     0
370
    -2
100
AcDbBlockReference
  2
_DOT
 10
373.0271147691124
 20
600.8111309081778
 30
0.0
 41
3.0
 42
3.0
 43
3.0
 50
270.0000000000002
  0
INSERT
  5
390B
330
3904
100
AcDbEntity
  8
DIM
 62
     0
370
    -2
100
AcDbBlockReference
  2
_DOT
 10
373.0271147691124
 20
620.8111309081776
 30
0.0
 41
3.0
 42
3.0
 43
3.0
 50
90.00000000000016
  0
MTEXT
  5
390C
330
3904
100
AcDbEntity
  8
DIM
 62
     0
 48
0.05
100
AcDbMText
 10
359.0271147691124
 20
613.6517570386291
 30
0.0
 40
8.0
 41
0.0
 46
0.0
 71
     2
 72
     1
  1
\A1;20
  7
ＭＳ ゴシック
 11
-2.842170943040433E-15
 21
1.0
 31
0.0
 73
     1
 44
1.0
  0
POINT
  5
390D
330
3904
100
AcDbEntity
  8
Defpoints
 62
     0
100
AcDbPoint
 10
398.4069625469849
 20
600.8111309081779
 30
0.0
  0
POINT
  5
390E
330
3904
100
AcDbEntity
  8
Defpoints
 62
     0
100
AcDbPoint
 10
398.4069625469849
 20
620.8111309081777
 30
0.0
  0
POINT
  5
390F
330
3904
100
AcDbEntity
  8
Defpoints
 62
     0
100
AcDbPoint
 10
373.0271147691124
 20
620.8111309081776
 30
0.0
  0
ENDBLK
  5
3906
330
3904
100
AcDbEntity
  8
0
100
AcDbBlockEnd
  0
BLOCK
  5
3911
330
3910
100
AcDbEntity
  8
0
100
AcDbBlockBegin
  2
*D18
 70
     1
 10
0.0
 20
0.0
 30
0.0
  3
*D18
  1

  0
LINE
  5
3913
330
3910
100
AcDbEntity
  8
DIM
 62
     0
370
    -2
100
AcDbLine
 10
301.4237182916661
 20
620.8111309081777
 30
0.0
 11
315.6680073661055
 21
620.8111309081776
 31
0.0
  0
LINE
  5
3914
330
3910
100
AcDbEntity
  8
DIM
 62
     0
370
    -2
100
AcDbLine
 10
268.8027024068085
 20
538.5153155450037
 30
0.0
 11
315.6680073661052
 21
538.5153155450034
 31
0.0
  0
LINE
  5
3915
330
3910
100
AcDbEntity
  8
DIM
 62
     0
370
    -2
100
AcDbLine
 10
315.6680073661055
 20
617.8111309081776
 30
0.0
 11
315.6680073661052
 21
541.5153155450034
 31
0.0
  0
INSERT
  5
3916
330
3910
100
AcDbEntity
  8
DIM
 62
     0
370
    -2
100
AcDbBlockReference
  2
_DOT
 10
315.6680073661055
 20
620.8111309081776
 30
0.0
 41
3.0
 42
3.0
 43
3.0
 50
89.99999999999982
  0
INSERT
  5
3917
330
3910
100
AcDbEntity
  8
DIM
 62
     0
370
    -2
100
AcDbBlockReference
  2
_DOT
 10
315.6680073661052
 20
538.5153155450034
 30
0.0
 41
3.0
 42
3.0
 43
3.0
 50
269.9999999999998
  0
MTEXT
  5
3918
330
3910
100
AcDbEntity
  8
DIM
 62
     0
 48
0.05
100
AcDbMText
 10
301.6680073661053
 20
579.6632232265903
 30
0.0
 40
8.0
 41
0.0
 46
0.0
 71
     2
 72
     1
  1
\A1;82.3
  7
ＭＳ ゴシック
 11
3.453603236686831E-15
 21
1.0
 31
0.0
 73
     1
 44
1.0
  0
POINT
  5
3919
330
3910
100
AcDbEntity
  8
Defpoints
 62
     0
100
AcDbPoint
 10
291.4237182916661
 20
620.8111309081777
 30
0.0
  0
POINT
  5
391A
330
3910
100
AcDbEntity
  8
Defpoints
 62
     0
100
AcDbPoint
 10
258.8027024068085
 20
538.5153155450037
 30
0.0
  0
POINT
  5
391B
330
3910
100
AcDbEntity
  8
Defpoints
 62
     0
100
AcDbPoint
 10
315.6680073661051
 20
538.5153155450034
 30
0.0
  0
ENDBLK
  5
3912
330
3910
100
AcDbEntity
  8
0
100
AcDbBlockEnd
  0
BLOCK
  5
391D
330
391C
100
AcDbEntity
  8
0
100
AcDbBlockBegin
  2
*D19
 70
     1
 10
0.0
 20
0.0
 30
0.0
  3
*D19
  1

  0
LINE
  5
391F
330
391C
100
AcDbEntity
  8
DIM
 62
     0
370
    -2
100
AcDbLine
 10
533.4225854186852
 20
608.3111309081779
 30
0.0
 11
552.0315218561493
 21
608.3111309081778
 31
0.0
  0
LINE
  5
3920
330
391C
100
AcDbEntity
  8
DIM
 62
     0
370
    -2
100
AcDbLine
 10
533.4225854186852
 20
616.3111309081777
 30
0.0
 11
552.0315218561493
 21
616.3111309081776
 31
0.0
  0
LINE
  5
3921
330
391C
100
AcDbEntity
  8
DIM
 62
     0
370
    -2
100
AcDbLine
 10
552.0315218561493
 20
611.3111309081778
 30
0.0
 11
552.0315218561493
 21
613.3111309081776
 31
0.0
  0
INSERT
  5
3922
330
391C
100
AcDbEntity
  8
DIM
 62
     0
370
    -2
100
AcDbBlockReference
  2
_DOT
 10
552.0315218561493
 20
608.3111309081778
 30
0.0
 41
3.0
 42
3.0
 43
3.0
 50
270.0
  0
INSERT
  5
3923
330
391C
100
AcDbEntity
  8
DIM
 62
     0
370
    -2
100
AcDbBlockReference
  2
_DOT
 10
552.0315218561493
 20
616.3111309081776
 30
0.0
 41
3.0
 42
3.0
 43
3.0
 50
90.0
  0
MTEXT
  5
3924
330
391C
100
AcDbEntity
  8
DIM
 62
     0
 48
0.05
100
AcDbMText
 10
538.0315218561493
 20
612.1124975045212
 30
0.0
 40
8.0
 41
0.0
 46
0.0
 71
     2
 72
     1
  1
\A1;8
  7
ＭＳ ゴシック
 11
0.0
 21
1.0
 31
0.0
 73
     1
 44
1.0
  0
POINT
  5
3925
330
391C
100
AcDbEntity
  8
Defpoints
 62
     0
100
AcDbPoint
 10
523.4225854186852
 20
608.3111309081779
 30
0.0
  0
POINT
  5
3926
330
391C
100
AcDbEntity
  8
Defpoints
 62
     0
100
AcDbPoint
 10
523.4225854186852
 20
616.3111309081777
 30
0.0
  0
POINT
  5
3927
330
391C
100
AcDbEntity
  8
Defpoints
 62
     0
100
AcDbPoint
 10
552.0315218561493
 20
616.3111309081776
 30
0.0
  0
ENDBLK
  5
391E
330
391C
100
AcDbEntity
  8
0
100
AcDbBlockEnd
  0
BLOCK
  5
3939
330
3938
100
AcDbEntity
  8
0
100
AcDbBlockBegin
  2
*D20
 70
     1
 10
0.0
 20
0.0
 30
0.0
  3
*D20
  1

  0
LINE
  5
393B
330
3938
100
AcDbEntity
  8
DIM
 62
     0
 48
0.05
370
    -2
100
AcDbLine
 10
397.0721193496195
 20
630.8111309081779
 30
0.0
 11
397.0721193496195
 21
672.9055546212762
 31
0.0
  0
LINE
  5
393C
330
3938
100
AcDbEntity
  8
DIM
 62
     0
 48
0.05
370
    -2
100
AcDbLine
 10
523.6025107774441
 20
628.9194914780591
 30
0.0
 11
523.6025107774441
 21
672.9055546212762
 31
0.0
  0
LINE
  5
393D
330
3938
100
AcDbEntity
  8
DIM
 62
     0
 48
0.05
370
    -2
100
AcDbLine
 10
400.0721193496195
 20
672.9055546212762
 30
0.0
 11
520.6025107774441
 21
672.9055546212762
 31
0.0
  0
INSERT
  5
393E
330
3938
100
AcDbEntity
  8
DIM
 62
     0
370
    -2
100
AcDbBlockReference
  2
_DOT
 10
397.0721193496195
 20
672.9055546212762
 30
0.0
 41
3.0
 42
3.0
 43
3.0
 50
180.0
  0
INSERT
  5
393F
330
3938
100
AcDbEntity
  8
DIM
 62
     0
370
    -2
100
AcDbBlockReference
  2
_DOT
 10
523.6025107774441
 20
672.9055546212762
 30
0.0
 41
3.0
 42
3.0
 43
3.0
  0
MTEXT
  5
3940
330
3938
100
AcDbEntity
  8
DIM
 62
     0
 48
0.05
100
AcDbMText
 10
460.3373150635318
 20
682.9055546212762
 30
0.0
 40
8.0
 41
0.0
 46
0.0
 71
     5
 72
     1
  1
\A1;127
  7
ＭＳ ゴシック
 73
     1
 44
1.0
  0
POINT
  5
3941
330
3938
100
AcDbEntity
  8
Defpoints
 62
     0
100
AcDbPoint
 10
397.0721193496195
 20
620.8111309081779
 30
0.0
  0
POINT
  5
3942
330
3938
100
AcDbEntity
  8
Defpoints
 62
     0
100
AcDbPoint
 10
523.6025107774441
 20
618.9194914780591
 30
0.0
  0
POINT
  5
3943
330
3938
100
AcDbEntity
  8
Defpoints
 62
     0
100
AcDbPoint
 10
523.6025107774441
 20
672.9055546212762
 30
0.0
  0
ENDBLK
  5
393A
330
3938
100
AcDbEntity
  8
0
100
AcDbBlockEnd
  0
BLOCK
  5
3948
330
3947
100
AcDbEntity
  8
0
100
AcDbBlockBegin
  2
*D21
 70
     1
 10
0.0
 20
0.0
 30
0.0
  3
*D21
  1

  0
LINE
  5
394A
330
3947
100
AcDbEntity
  8
DIM
 62
     0
 48
0.05
370
    -2
100
AcDbLine
 10
397.0721193496195
 20
630.8111309081779
 30
0.0
 11
397.0721193496195
 21
647.0554252350634
 31
0.0
  0
LINE
  5
394B
330
3947
100
AcDbEntity
  8
DIM
 62
     0
 48
0.05
370
    -2
100
AcDbLine
 10
422.0721193496195
 20
630.8111309081779
 30
0.0
 11
422.0721193496195
 21
647.0554252350634
 31
0.0
  0
LINE
  5
394C
330
3947
100
AcDbEntity
  8
DIM
 62
     0
 48
0.05
370
    -2
100
AcDbLine
 10
400.0721193496195
 20
647.0554252350634
 30
0.0
 11
419.0721193496195
 21
647.0554252350634
 31
0.0
  0
INSERT
  5
394D
330
3947
100
AcDbEntity
  8
DIM
 62
     0
370
    -2
100
AcDbBlockReference
  2
_DOT
 10
397.0721193496195
 20
647.0554252350634
 30
0.0
 41
3.0
 42
3.0
 43
3.0
 50
180.0
  0
INSERT
  5
394E
330
3947
100
AcDbEntity
  8
DIM
 62
     0
370
    -2
100
AcDbBlockReference
  2
_DOT
 10
422.0721193496195
 20
647.0554252350634
 30
0.0
 41
3.0
 42
3.0
 43
3.0
  0
MTEXT
  5
394F
330
3947
100
AcDbEntity
  8
DIM
 62
     0
 48
0.05
100
AcDbMText
 10
409.5721193496195
 20
657.0554252350634
 30
0.0
 40
8.0
 41
0.0
 46
0.0
 71
     5
 72
     1
  1
\A1;25
  7
ＭＳ ゴシック
 73
     1
 44
1.0
  0
POINT
  5
3950
330
3947
100
AcDbEntity
  8
Defpoints
 62
     0
100
AcDbPoint
 10
397.0721193496195
 20
620.8111309081779
 30
0.0
  0
POINT
  5
3951
330
3947
100
AcDbEntity
  8
Defpoints
 62
     0
100
AcDbPoint
 10
422.0721193496195
 20
620.8111309081779
 30
0.0
  0
POINT
  5
3952
330
3947
100
AcDbEntity
  8
Defpoints
 62
     0
100
AcDbPoint
 10
422.0721193496195
 20
647.0554252350634
 30
0.0
  0
ENDBLK
  5
3949
330
3947
100
AcDbEntity
  8
0
100
AcDbBlockEnd
  0
BLOCK
  5
3957
330
3956
100
AcDbEntity
  8
0
100
AcDbBlockBegin
  2
*D22
 70
     1
 10
0.0
 20
0.0
 30
0.0
  3
*D22
  1

  0
LINE
  5
3959
330
3956
100
AcDbEntity
  8
DIM
 62
     0
 48
0.05
370
    -2
100
AcDbLine
 10
91.4237182916657
 20
406.0152432486035
 30
0.0
 11
91.4237182916657
 21
435.2153602862286
 31
0.0
  0
LINE
  5
395A
330
3956
100
AcDbEntity
  8
DIM
 62
     0
 48
0.05
370
    -2
100
AcDbLine
 10
291.4237182916659
 20
406.0152432486035
 30
0.0
 11
291.4237182916659
 21
435.2153602862286
 31
0.0
  0
LINE
  5
395B
330
3956
100
AcDbEntity
  8
DIM
 62
     0
 48
0.05
370
    -2
100
AcDbLine
 10
94.4237182916657
 20
435.2153602862286
 30
0.0
 11
288.4237182916659
 21
435.2153602862286
 31
0.0
  0
INSERT
  5
395C
330
3956
100
AcDbEntity
  8
DIM
 62
     0
370
    -2
100
AcDbBlockReference
  2
_DOT
 10
91.4237182916657
 20
435.2153602862286
 30
0.0
 41
3.0
 42
3.0
 43
3.0
 50
180.0
  0
INSERT
  5
395D
330
3956
100
AcDbEntity
  8
DIM
 62
     0
370
    -2
100
AcDbBlockReference
  2
_DOT
 10
291.4237182916659
 20
435.2153602862286
 30
0.0
 41
3.0
 42
3.0
 43
3.0
  0
MTEXT
  5
395E
330
3956
100
AcDbEntity
  8
DIM
 62
     0
 48
0.05
100
AcDbMText
 10
191.4237182916658
 20
445.2153602862286
 30
0.0
 40
8.0
 41
0.0
 46
0.0
 71
     5
 72
     1
  1
\A1;200
  7
ＭＳ ゴシック
 73
     1
 44
1.0
  0
POINT
  5
395F
330
3956
100
AcDbEntity
  8
Defpoints
 62
     0
100
AcDbPoint
 10
91.4237182916657
 20
396.0152432486035
 30
0.0
  0
POINT
  5
3960
330
3956
100
AcDbEntity
  8
Defpoints
 62
     0
100
AcDbPoint
 10
291.4237182916659
 20
396.0152432486035
 30
0.0
  0
POINT
  5
3961
330
3956
100
AcDbEntity
  8
Defpoints
 62
     0
100
AcDbPoint
 10
291.4237182916659
 20
435.2153602862286
 30
0.0
  0
ENDBLK
  5
3958
330
3956
100
AcDbEntity
  8
0
100
AcDbBlockEnd
  0
BLOCK
  5
396E
330
396D
100
AcDbEntity
  8
0
100
AcDbBlockBegin
  2
*D23
 70
     1
 10
0.0
 20
0.0
 30
0.0
  3
*D23
  1

  0
LINE
  5
3970
330
396D
100
AcDbEntity
  8
DIM
 62
     0
 48
0.05
370
    -2
100
AcDbLine
 10
301.4237182916659
 20
620.8111309081779
 30
0.0
 11
320.9096162280467
 21
620.8111309081779
 31
0.0
  0
LINE
  5
3971
330
396D
100
AcDbEntity
  8
DIM
 62
     0
 48
0.05
370
    -2
100
AcDbLine
 10
267.9350866048978
 20
538.3111309081779
 30
0.0
 11
320.9096162280467
 21
538.3111309081779
 31
0.0
  0
LINE
  5
3972
330
396D
100
AcDbEntity
  8
DIM
 62
     0
 48
0.05
370
    -2
100
AcDbLine
 10
320.9096162280467
 20
617.8111309081779
 30
0.0
 11
320.9096162280467
 21
541.3111309081779
 31
0.0
  0
INSERT
  5
3973
330
396D
100
AcDbEntity
  8
DIM
 62
     0
370
    -2
100
AcDbBlockReference
  2
_DOT
 10
320.9096162280467
 20
620.8111309081779
 30
0.0
 41
3.0
 42
3.0
 43
3.0
 50
90.0
  0
INSERT
  5
3974
330
396D
100
AcDbEntity
  8
DIM
 62
     0
370
    -2
100
AcDbBlockReference
  2
_DOT
 10
320.9096162280467
 20
538.3111309081779
 30
0.0
 41
3.0
 42
3.0
 43
3.0
 50
270.0
  0
MTEXT
  5
3975
330
396D
100
AcDbEntity
  8
DIM
 62
     0
 48
0.05
100
AcDbMText
 10
310.9096162280467
 20
579.5611309081779
 30
0.0
 40
8.0
 41
0.0
 46
0.0
 71
     5
 72
     1
  1
\A1;82.5
  7
ＭＳ ゴシック
 11
0.0
 21
1.0
 31
0.0
 73
     1
 44
1.0
  0
POINT
  5
3976
330
396D
100
AcDbEntity
  8
Defpoints
 62
     0
100
AcDbPoint
 10
291.4237182916659
 20
620.8111309081779
 30
0.0
  0
POINT
  5
3977
330
396D
100
AcDbEntity
  8
Defpoints
 62
     0
100
AcDbPoint
 10
257.9350866048978
 20
538.3111309081779
 30
0.0
  0
POINT
  5
3978
330
396D
100
AcDbEntity
  8
Defpoints
 62
     0
100
AcDbPoint
 10
320.9096162280467
 20
538.3111309081779
 30
0.0
  0
ENDBLK
  5
396F
330
396D
100
AcDbEntity
  8
0
100
AcDbBlockEnd
  0
BLOCK
  5
3998
330
3997
100
AcDbEntity
  8
0
100
AcDbBlockBegin
  2
*D24
 70
     1
 10
0.0
 20
0.0
 30
0.0
  3
*D24
  1

  0
LINE
  5
399A
330
3997
100
AcDbEntity
  8
DIM
 62
     0
 48
0.05
370
    -2
100
AcDbLine
 10
409.5721193496195
 20
551.0938797575338
 30
0.0
 11
409.5721193496195
 21
555.8761078159274
 31
0.0
  0
ARC
  5
399B
330
3997
100
AcDbEntity
  8
DIM
 62
     0
 48
0.05
370
    -2
100
AcDbCircle
 10
409.5721193496195
 20
588.8111309081779
 30
0.0
 40
32.93502309225053
100
AcDbArc
 50
275.2207893471973
 51
314.7792106528025
  0
INSERT
  5
399C
330
3997
100
AcDbEntity
  8
DIM
 62
     0
370
    -2
100
AcDbBlockReference
  2
_DOT
 10
409.5721193496195
 20
555.8761078159274
 30
0.0
 41
3.0
 42
3.0
 43
3.0
 50
182.6103946735986
  0
INSERT
  5
399D
330
3997
100
AcDbEntity
  8
DIM
 62
     0
370
    -2
100
AcDbBlockReference
  2
_DOT
 10
434.8018107734332
 20
567.6409061397392
 30
0.0
 41
3.0
 42
3.0
 43
3.0
 50
47.38960532640112
  0
MTEXT
  5
399E
330
3997
100
AcDbEntity
  8
DIM
 62
     0
 48
0.05
100
AcDbMText
 10
419.2057123852055
 20
568.151823973991
 30
0.0
 40
8.0
 41
0.0
 46
0.0
 71
     5
 72
     1
  1
\A1;50.00%%d
  7
ＭＳ ゴシック
 11
0.9063077870366506
 21
0.4226182617406983
 31
0.0
 73
     1
 44
1.0
  0
POINT
  5
399F
330
3997
100
AcDbEntity
  8
Defpoints
 62
     0
100
AcDbPoint
 10
419.0179904418914
 20
557.2597241979335
 30
0.0
  0
POINT
  5
39A0
330
3997
100
AcDbEntity
  8
Defpoints
 62
     0
100
AcDbPoint
 10
409.5721193496195
 20
585.8111309081779
 30
0.0
  0
POINT
  5
39A1
330
3997
100
AcDbEntity
  8
Defpoints
 62
     0
100
AcDbPoint
 10
409.5721193496195
 20
588.8111309081779
 30
0.0
  0
POINT
  5
39A2
330
3997
100
AcDbEntity
  8
Defpoints
 62
     0
100
AcDbPoint
 10
450.172474834925
 20
554.7433875947913
 30
0.0
  0
POINT
  5
39A3
330
3997
100
AcDbEntity
  8
Defpoints
 62
     0
100
AcDbPoint
 10
409.5721193496195
 20
561.0938797575338
 30
0.0
  0
ENDBLK
  5
3999
330
3997
100
AcDbEntity
  8
0
100
AcDbBlockEnd
  0
BLOCK
  5
39A8
330
39A7
100
AcDbEntity
  8
0
100
AcDbBlockBegin
  2
*D25
 70
     1
 10
0.0
 20
0.0
 30
0.0
  3
*D25
  1

  0
LINE
  5
39AA
330
39A7
100
AcDbEntity
  8
DIM
 62
     0
 48
0.05
370
    -2
100
AcDbLine
 10
393.0721193496194
 20
518.3111309081781
 30
0.0
 11
373.0271147691125
 21
518.3111309081781
 31
0.0
  0
LINE
  5
39AB
330
39A7
100
AcDbEntity
  8
DIM
 62
     0
 48
0.05
370
    -2
100
AcDbLine
 10
384.7269091876648
 20
582.8111309081778
 30
0.0
 11
373.0271147691125
 21
582.8111309081778
 31
0.0
  0
LINE
  5
39AC
330
39A7
100
AcDbEntity
  8
DIM
 62
     0
 48
0.05
370
    -2
100
AcDbLine
 10
373.0271147691125
 20
521.3111309081781
 30
0.0
 11
373.0271147691125
 21
579.8111309081778
 31
0.0
  0
INSERT
  5
39AD
330
39A7
100
AcDbEntity
  8
DIM
 62
     0
370
    -2
100
AcDbBlockReference
  2
_DOT
 10
373.0271147691125
 20
518.3111309081781
 30
0.0
 41
3.0
 42
3.0
 43
3.0
 50
270.0
  0
INSERT
  5
39AE
330
39A7
100
AcDbEntity
  8
DIM
 62
     0
370
    -2
100
AcDbBlockReference
  2
_DOT
 10
373.0271147691125
 20
582.8111309081778
 30
0.0
 41
3.0
 42
3.0
 43
3.0
 50
90.0
  0
MTEXT
  5
39AF
330
39A7
100
AcDbEntity
  8
DIM
 62
     0
 48
0.05
100
AcDbMText
 10
363.0271147691125
 20
550.561130908178
 30
0.0
 40
8.0
 41
0.0
 46
0.0
 71
     5
 72
     1
  1
\A1;65
  7
ＭＳ ゴシック
 11
0.0
 21
1.0
 31
0.0
 73
     1
 44
1.0
  0
POINT
  5
39B0
330
39A7
100
AcDbEntity
  8
Defpoints
 62
     0
100
AcDbPoint
 10
403.0721193496194
 20
518.3111309081781
 30
0.0
  0
POINT
  5
39B1
330
39A7
100
AcDbEntity
  8
Defpoints
 62
     0
100
AcDbPoint
 10
394.7269091876648
 20
582.8111309081778
 30
0.0
  0
POINT
  5
39B2
330
39A7
100
AcDbEntity
  8
Defpoints
 62
     0
100
AcDbPoint
 10
373.0271147691125
 20
582.8111309081778
 30
0.0
  0
ENDBLK
  5
39A9
330
39A7
100
AcDbEntity
  8
0
100
AcDbBlockEnd
  0
BLOCK
  5
39D2
330
39D1
100
AcDbEntity
  8
0
100
AcDbBlockBegin
  2
*D26
 70
     1
 10
0.0
 20
0.0
 30
0.0
  3
*D26
  1

  0
LINE
  5
39D4
330
39D1
100
AcDbEntity
  8
DIM
 62
     0
 48
0.05
370
    -2
100
AcDbLine
 10
871.0587990477505
 20
547.2915040834421
 30
0.0
 11
871.0587990477505
 21
452.6324131700912
 31
0.0
  0
LINE
  5
39D5
330
39D1
100
AcDbEntity
  8
DIM
 62
     0
 48
0.05
370
    -2
100
AcDbLine
 10
1006.058799053245
 20
547.2915040834421
 30
0.0
 11
1006.058799053245
 21
452.6324131700912
 31
0.0
  0
LINE
  5
39D6
330
39D1
100
AcDbEntity
  8
DIM
 62
     0
 48
0.05
370
    -2
100
AcDbLine
 10
874.0587990477505
 20
452.6324131700912
 30
0.0
 11
1003.058799053245
 21
452.6324131700912
 31
0.0
  0
INSERT
  5
39D7
330
39D1
100
AcDbEntity
  8
DIM
 62
     0
370
    -2
100
AcDbBlockReference
  2
_DOT
 10
871.0587990477505
 20
452.6324131700912
 30
0.0
 41
3.0
 42
3.0
 43
3.0
 50
180.0
  0
INSERT
  5
39D8
330
39D1
100
AcDbEntity
  8
DIM
 62
     0
370
    -2
100
AcDbBlockReference
  2
_DOT
 10
1006.058799053245
 20
452.6324131700912
 30
0.0
 41
3.0
 42
3.0
 43
3.0
  0
MTEXT
  5
39D9
330
39D1
100
AcDbEntity
  8
DIM
 62
     0
 48
0.05
100
AcDbMText
 10
938.5587990504979
 20
462.6324131700912
 30
0.0
 40
8.0
 41
0.0
 46
0.0
 71
     5
 72
     1
  1
\A1;135.00000001
  7
ＭＳ ゴシック
 73
     1
 44
1.0
  0
POINT
  5
39DA
330
39D1
100
AcDbEntity
  8
Defpoints
 62
     0
100
AcDbPoint
 10
871.0587990477505
 20
557.2915040834421
 30
0.0
  0
POINT
  5
39DB
330
39D1
100
AcDbEntity
  8
Defpoints
 62
     0
100
AcDbPoint
 10
1006.058799053245
 20
557.2915040834421
 30
0.0
  0
POINT
  5
39DC
330
39D1
100
AcDbEntity
  8
Defpoints
 62
     0
100
AcDbPoint
 10
1006.058799053245
 20
452.6324131700912
 30
0.0
  0
ENDBLK
  5
39D3
330
39D1
100
AcDbEntity
  8
0
100
AcDbBlockEnd
  0
BLOCK
  5
39DF
330
39DE
100
AcDbEntity
  8
0
100
AcDbBlockBegin
  2
*D27
 70
     1
 10
0.0
 20
0.0
 30
0.0
  3
*D27
  1

  0
LINE
  5
39E1
330
39DE
100
AcDbEntity
  8
DIM
 62
     0
 48
0.05
370
    -2
100
AcDbLine
 10
870.9555941246654
 20
547.2431186520928
 30
0.0
 11
870.9555941246654
 21
499.0106100205139
 31
0.0
  0
LINE
  5
39E2
330
39DE
100
AcDbEntity
  8
DIM
 62
     0
 48
0.05
370
    -2
100
AcDbLine
 10
1005.955594124665
 20
547.2431186520928
 30
0.0
 11
1005.955594124665
 21
499.0106100205139
 31
0.0
  0
LINE
  5
39E3
330
39DE
100
AcDbEntity
  8
DIM
 62
     0
 48
0.05
370
    -2
100
AcDbLine
 10
873.9555941246654
 20
499.0106100205139
 30
0.0
 11
1002.955594124665
 21
499.0106100205139
 31
0.0
  0
INSERT
  5
39E4
330
39DE
100
AcDbEntity
  8
DIM
 62
     0
370
    -2
100
AcDbBlockReference
  2
_DOT
 10
870.9555941246654
 20
499.0106100205139
 30
0.0
 41
3.0
 42
3.0
 43
3.0
 50
180.0
  0
INSERT
  5
39E5
330
39DE
100
AcDbEntity
  8
DIM
 62
     0
370
    -2
100
AcDbBlockReference
  2
_DOT
 10
1005.955594124665
 20
499.0106100205139
 30
0.0
 41
3.0
 42
3.0
 43
3.0
  0
MTEXT
  5
39E6
330
39DE
100
AcDbEntity
  8
DIM
 62
     0
 48
0.05
100
AcDbMText
 10
938.4555941246654
 20
509.0106100205139
 30
0.0
 40
8.0
 41
0.0
 46
0.0
 71
     5
 72
     1
  1
\A1;135
  7
ＭＳ ゴシック
 73
     1
 44
1.0
  0
POINT
  5
39E7
330
39DE
100
AcDbEntity
  8
Defpoints
 62
     0
100
AcDbPoint
 10
870.9555941246654
 20
557.2431186520928
 30
0.0
  0
POINT
  5
39E8
330
39DE
100
AcDbEntity
  8
Defpoints
 62
     0
100
AcDbPoint
 10
1005.955594124665
 20
557.2431186520928
 30
0.0
  0
POINT
  5
39E9
330
39DE
100
AcDbEntity
  8
Defpoints
 62
     0
100
AcDbPoint
 10
1005.955594124665
 20
499.0106100205139
 30
0.0
  0
ENDBLK
  5
39E0
330
39DE
100
AcDbEntity
  8
0
100
AcDbBlockEnd
  0
BLOCK
  5
39F0
330
39EF
100
AcDbEntity
  8
0
100
AcDbBlockBegin
  2
*D28
 70
     1
 10
0.0
 20
0.0
 30
0.0
  3
*D28
  1

  0
LINE
  5
39F2
330
39EF
100
AcDbEntity
  8
DIM
 62
     0
 48
0.05
370
    -2
100
AcDbLine
 10
1007.216734335192
 20
662.2793258099877
 30
0.0
 11
1092.456818545718
 21
662.2793258099877
 31
0.0
  0
LINE
  5
39F3
330
39EF
100
AcDbEntity
  8
DIM
 62
     0
 48
0.05
370
    -2
100
AcDbLine
 10
1007.216734335192
 20
641.5986218099877
 30
0.0
 11
1092.456818545718
 21
641.5986218099877
 31
0.0
  0
LINE
  5
39F4
330
39EF
100
AcDbEntity
  8
DIM
 62
     0
 48
0.05
370
    -2
100
AcDbLine
 10
1092.456818545718
 20
659.2793258099877
 30
0.0
 11
1092.456818545718
 21
644.5986218099877
 31
0.0
  0
INSERT
  5
39F5
330
39EF
100
AcDbEntity
  8
DIM
 62
     0
370
    -2
100
AcDbBlockReference
  2
_DOT
 10
1092.456818545718
 20
662.2793258099877
 30
0.0
 41
3.0
 42
3.0
 43
3.0
 50
90.0
  0
INSERT
  5
39F6
330
39EF
100
AcDbEntity
  8
DIM
 62
     0
370
    -2
100
AcDbBlockReference
  2
_DOT
 10
1092.456818545718
 20
641.5986218099877
 30
0.0
 41
3.0
 42
3.0
 43
3.0
 50
270.0
  0
MTEXT
  5
39F7
330
39EF
100
AcDbEntity
  8
DIM
 62
     0
 48
0.05
100
AcDbMText
 10
1082.456818545718
 20
651.9389738099876
 30
0.0
 40
8.0
 41
0.0
 46
0.0
 71
     5
 72
     1
  1
\A1;21
  7
ＭＳ ゴシック
 11
0.0
 21
1.0
 31
0.0
 73
     1
 44
1.0
  0
POINT
  5
39F8
330
39EF
100
AcDbEntity
  8
Defpoints
 62
     0
100
AcDbPoint
 10
997.2167343351916
 20
662.2793258099877
 30
0.0
  0
POINT
  5
39F9
330
39EF
100
AcDbEntity
  8
Defpoints
 62
     0
100
AcDbPoint
 10
997.2167343351916
 20
641.5986218099877
 30
0.0
  0
POINT
  5
39FA
330
39EF
100
AcDbEntity
  8
Defpoints
 62
     0
100
AcDbPoint
 10
1092.456818545718
 20
641.5986218099877
 30
0.0
  0
ENDBLK
  5
39F1
330
39EF
100
AcDbEntity
  8
0
100
AcDbBlockEnd
  0
BLOCK
  5
39FD
330
39FC
100
AcDbEntity
  8
0
100
AcDbBlockBegin
  2
*D29
 70
     1
 10
0.0
 20
0.0
 30
0.0
  3
*D29
  1

  0
LINE
  5
39FF
330
39FC
100
AcDbEntity
  8
DIM
 62
     0
 48
0.05
370
    -2
100
AcDbLine
 10
985.99180128256
 20
580.1007388626193
 30
0.0
 11
1096.81065096677
 21
580.1007388626193
 31
0.0
  0
LINE
  5
3A00
330
39FC
100
AcDbEntity
  8
DIM
 62
     0
 48
0.05
370
    -2
100
AcDbLine
 10
985.99180128256
 20
558.8758058099878
 30
0.0
 11
1096.81065096677
 21
558.8758058099878
 31
0.0
  0
LINE
  5
3A01
330
39FC
100
AcDbEntity
  8
DIM
 62
     0
 48
0.05
370
    -2
100
AcDbLine
 10
1096.81065096677
 20
577.1007388626193
 30
0.0
 11
1096.81065096677
 21
561.8758058099878
 31
0.0
  0
INSERT
  5
3A02
330
39FC
100
AcDbEntity
  8
DIM
 62
     0
370
    -2
100
AcDbBlockReference
  2
_DOT
 10
1096.81065096677
 20
580.1007388626193
 30
0.0
 41
3.0
 42
3.0
 43
3.0
 50
90.0
  0
INSERT
  5
3A03
330
39FC
100
AcDbEntity
  8
DIM
 62
     0
370
    -2
100
AcDbBlockReference
  2
_DOT
 10
1096.81065096677
 20
558.8758058099878
 30
0.0
 41
3.0
 42
3.0
 43
3.0
 50
270.0
  0
MTEXT
  5
3A04
330
39FC
100
AcDbEntity
  8
DIM
 62
     0
 48
0.05
100
AcDbMText
 10
1086.81065096677
 20
569.4882723363036
 30
0.0
 40
8.0
 41
0.0
 46
0.0
 71
     5
 72
     1
  1
\A1;21
  7
ＭＳ ゴシック
 11
0.0
 21
1.0
 31
0.0
 73
     1
 44
1.0
  0
POINT
  5
3A05
330
39FC
100
AcDbEntity
  8
Defpoints
 62
     0
100
AcDbPoint
 10
975.99180128256
 20
580.1007388626193
 30
0.0
  0
POINT
  5
3A06
330
39FC
100
AcDbEntity
  8
Defpoints
 62
     0
100
AcDbPoint
 10
975.99180128256
 20
558.8758058099878
 30
0.0
  0
POINT
  5
3A07
330
39FC
100
AcDbEntity
  8
Defpoints
 62
     0
100
AcDbPoint
 10
1096.81065096677
 20
558.8758058099878
 30
0.0
  0
ENDBLK
  5
39FE
330
39FC
100
AcDbEntity
  8
0
100
AcDbBlockEnd
  0
BLOCK
  5
3A0F
330
3A0E
100
AcDbEntity
  8
0
100
AcDbBlockBegin
  2
*D30
 70
     1
 10
0.0
 20
0.0
 30
0.0
  3
*D30
  1

  0
LINE
  5
3A11
330
3A0E
100
AcDbEntity
  8
HIDDEN
 62
     0
 48
0.05
370
    -2
100
AcDbLine
 10
905.9555941246654
 20
437.9925635215043
 30
0.0
 11
905.9555941246654
 21
460.646306679399
 31
0.0
  0
LINE
  5
3A12
330
3A0E
100
AcDbEntity
  8
HIDDEN
 62
     0
 48
0.05
370
    -2
100
AcDbLine
 10
970.9555941246654
 20
437.9925635215043
 30
0.0
 11
970.9555941246654
 21
460.646306679399
 31
0.0
  0
LINE
  5
3A13
330
3A0E
100
AcDbEntity
  8
HIDDEN
 62
     0
 48
0.05
370
    -2
100
AcDbLine
 10
908.9555941246654
 20
460.646306679399
 30
0.0
 11
967.9555941246654
 21
460.646306679399
 31
0.0
  0
INSERT
  5
3A14
330
3A0E
100
AcDbEntity
  8
HIDDEN
 62
     0
370
    -2
100
AcDbBlockReference
  2
_DOT
 10
905.9555941246654
 20
460.646306679399
 30
0.0
 41
3.0
 42
3.0
 43
3.0
 50
180.0
  0
INSERT
  5
3A15
330
3A0E
100
AcDbEntity
  8
HIDDEN
 62
     0
370
    -2
100
AcDbBlockReference
  2
_DOT
 10
970.9555941246654
 20
460.646306679399
 30
0.0
 41
3.0
 42
3.0
 43
3.0
  0
MTEXT
  5
3A16
330
3A0E
100
AcDbEntity
  8
HIDDEN
 62
     0
 48
0.05
100
AcDbMText
 10
938.4555941246654
 20
470.646306679399
 30
0.0
 40
8.0
 41
0.0
 46
0.0
 71
     5
 72
     1
  1
\A1;65
  7
ＭＳ ゴシック
 73
     1
 44
1.0
  0
POINT
  5
3A17
330
3A0E
100
AcDbEntity
  8
Defpoints
 62
     0
100
AcDbPoint
 10
905.9555941246654
 20
427.9925635215043
 30
0.0
  0
POINT
  5
3A18
330
3A0E
100
AcDbEntity
  8
Defpoints
 62
     0
100
AcDbPoint
 10
970.9555941246654
 20
427.9925635215043
 30
0.0
  0
POINT
  5
3A19
330
3A0E
100
AcDbEntity
  8
Defpoints
 62
     0
100
AcDbPoint
 10
970.9555941246654
 20
460.646306679399
 30
0.0
  0
ENDBLK
  5
3A10
330
3A0E
100
AcDbEntity
  8
0
100
AcDbBlockEnd
  0
BLOCK
  5
3A32
330
3A31
100
AcDbEntity
  8
0
100
AcDbBlockBegin
  2
*D31
 70
     1
 10
0.0
 20
0.0
 30
0.0
  3
*D31
  1

  0
LINE
  5
3A34
330
3A31
100
AcDbEntity
  8
DIM
 62
     0
 48
0.05
370
    -2
100
AcDbLine
 10
240.6443178088781
 20
581.7676884534397
 30
0.0
 11
240.6443178088781
 21
603.5205756016757
 31
0.0
  0
LINE
  5
3A35
330
3A31
100
AcDbEntity
  8
DIM
 62
     0
 48
0.05
370
    -2
100
AcDbLine
 10
175.6443178088781
 20
581.7676884534397
 30
0.0
 11
175.6443178088781
 21
603.5205756016757
 31
0.0
  0
LINE
  5
3A36
330
3A31
100
AcDbEntity
  8
DIM
 62
     0
 48
0.05
370
    -2
100
AcDbLine
 10
237.6443178088781
 20
603.5205756016757
 30
0.0
 11
178.6443178088781
 21
603.5205756016757
 31
0.0
  0
INSERT
  5
3A37
330
3A31
100
AcDbEntity
  8
DIM
 62
     0
370
    -2
100
AcDbBlockReference
  2
_DOT
 10
240.6443178088781
 20
603.5205756016757
 30
0.0
 41
3.0
 42
3.0
 43
3.0
  0
INSERT
  5
3A38
330
3A31
100
AcDbEntity
  8
DIM
 62
     0
370
    -2
100
AcDbBlockReference
  2
_DOT
 10
175.6443178088781
 20
603.5205756016757
 30
0.0
 41
3.0
 42
3.0
 43
3.0
 50
180.0
  0
MTEXT
  5
3A39
330
3A31
100
AcDbEntity
  8
DIM
 62
     0
100
AcDbMText
 10
208.1443178088781
 20
613.5205756016757
 30
0.0
 40
8.0
 41
0.0
 46
0.0
 71
     5
 72
     1
  1
\A1;65
  7
ＭＳ ゴシック
 73
     1
 44
1.0
  0
POINT
  5
3A3A
330
3A31
100
AcDbEntity
  8
Defpoints
 62
     0
100
AcDbPoint
 10
240.6443178088781
 20
571.7676884534397
 30
0.0
  0
POINT
  5
3A3B
330
3A31
100
AcDbEntity
  8
Defpoints
 62
     0
100
AcDbPoint
 10
175.6443178088781
 20
571.7676884534397
 30
0.0
  0
POINT
  5
3A3C
330
3A31
100
AcDbEntity
  8
Defpoints
 62
     0
100
AcDbPoint
 10
175.6443178088781
 20
603.5205756016757
 30
0.0
  0
ENDBLK
  5
3A33
330
3A31
100
AcDbEntity
  8
0
100
AcDbBlockEnd
  0
BLOCK
  5
3AAD
330
3AAC
100
AcDbEntity
  8
0
100
AcDbBlockBegin
  2
*D32
 70
     1
 10
0.0
 20
0.0
 30
0.0
  3
*D32
  1

  0
LINE
  5
3AAF
330
3AAC
100
AcDbEntity
  8
DIM
 62
     0
370
    -2
100
AcDbLine
 10
1119.784697609842
 20
254.2487739797565
 30
0.0
 11
1103.78228464281
 21
254.2487739797565
 31
0.0
  0
LINE
  5
3AB0
330
3AAC
100
AcDbEntity
  8
DIM
 62
     0
370
    -2
100
AcDbLine
 10
1119.784697609842
 20
233.2487739797565
 30
0.0
 11
1103.78228464281
 21
233.2487739797565
 31
0.0
  0
LINE
  5
3AB1
330
3AAC
100
AcDbEntity
  8
DIM
 62
     0
370
    -2
100
AcDbLine
 10
1103.78228464281
 20
251.2487739797565
 30
0.0
 11
1103.78228464281
 21
236.2487739797565
 31
0.0
  0
INSERT
  5
3AB2
330
3AAC
100
AcDbEntity
  8
DIM
 62
     0
370
    -2
100
AcDbBlockReference
  2
_DOT
 10
1103.78228464281
 20
254.2487739797565
 30
0.0
 41
3.0
 42
3.0
 43
3.0
 50
90.0
  0
INSERT
  5
3AB3
330
3AAC
100
AcDbEntity
  8
DIM
 62
     0
370
    -2
100
AcDbBlockReference
  2
_DOT
 10
1103.78228464281
 20
233.2487739797565
 30
0.0
 41
3.0
 42
3.0
 43
3.0
 50
270.0
  0
MTEXT
  5
3AB4
330
3AAC
100
AcDbEntity
  8
DIM
 62
     0
100
AcDbMText
 10
1093.78228464281
 20
243.7487739797565
 30
0.0
 40
8.0
 41
0.0
 46
0.0
 71
     5
 72
     1
  1
\A1;21
  7
ＭＳ ゴシック
 11
0.0
 21
1.0
 31
0.0
 73
     1
 44
1.0
  0
POINT
  5
3AB5
330
3AAC
100
AcDbEntity
  8
Defpoints
 62
     0
100
AcDbPoint
 10
1129.784697609842
 20
254.2487739797565
 30
0.0
  0
POINT
  5
3AB6
330
3AAC
100
AcDbEntity
  8
Defpoints
 62
     0
100
AcDbPoint
 10
1129.784697609842
 20
233.2487739797565
 30
0.0
  0
POINT
  5
3AB7
330
3AAC
100
AcDbEntity
  8
Defpoints
 62
     0
100
AcDbPoint
 10
1103.78228464281
 20
233.2487739797565
 30
0.0
  0
ENDBLK
  5
3AAE
330
3AAC
100
AcDbEntity
  8
0
100
AcDbBlockEnd
  0
BLOCK
  5
3ABD
330
3ABC
100
AcDbEntity
  8
0
100
AcDbBlockBegin
  2
*D33
 70
     1
 10
0.0
 20
0.0
 30
0.0
  3
*D33
  1

  0
LINE
  5
3ABF
330
3ABC
100
AcDbEntity
  8
DIM
 62
     0
370
    -2
100
AcDbLine
 10
453.2502633993174
 20
563.2676884534397
 30
0.0
 11
435.2590779879858
 21
563.2676884534397
 31
0.0
  0
LINE
  5
3AC0
330
3ABC
100
AcDbEntity
  8
DIM
 62
     0
370
    -2
100
AcDbLine
 10
453.2502633993174
 20
581.2676884534397
 30
0.0
 11
435.2590779879858
 21
581.2676884534397
 31
0.0
  0
LINE
  5
3AC1
330
3ABC
100
AcDbEntity
  8
DIM
 62
     0
370
    -2
100
AcDbLine
 10
435.2590779879858
 20
566.2676884534397
 30
0.0
 11
435.2590779879858
 21
578.2676884534397
 31
0.0
  0
INSERT
  5
3AC2
330
3ABC
100
AcDbEntity
  8
DIM
 62
     0
370
    -2
100
AcDbBlockReference
  2
_DOT
 10
435.2590779879858
 20
563.2676884534397
 30
0.0
 41
3.0
 42
3.0
 43
3.0
 50
270.0
  0
INSERT
  5
3AC3
330
3ABC
100
AcDbEntity
  8
DIM
 62
     0
370
    -2
100
AcDbBlockReference
  2
_DOT
 10
435.2590779879858
 20
581.2676884534397
 30
0.0
 41
3.0
 42
3.0
 43
3.0
 50
90.0
  0
MTEXT
  5
3AC4
330
3ABC
100
AcDbEntity
  8
DIM
 62
     0
100
AcDbMText
 10
425.2590779879858
 20
572.2676884534397
 30
0.0
 40
8.0
 41
0.0
 46
0.0
 71
     5
 72
     1
  1
\A1;18
  7
ＭＳ ゴシック
 11
0.0
 21
1.0
 31
0.0
 73
     1
 44
1.0
  0
POINT
  5
3AC5
330
3ABC
100
AcDbEntity
  8
Defpoints
 62
     0
100
AcDbPoint
 10
463.2502633993174
 20
563.2676884534397
 30
0.0
  0
POINT
  5
3AC6
330
3ABC
100
AcDbEntity
  8
Defpoints
 62
     0
100
AcDbPoint
 10
463.2502633993174
 20
581.2676884534397
 30
0.0
  0
POINT
  5
3AC7
330
3ABC
100
AcDbEntity
  8
Defpoints
 62
     0
100
AcDbPoint
 10
435.2590779879858
 20
581.2676884534397
 30
0.0
  0
ENDBLK
  5
3ABE
330
3ABC
100
AcDbEntity
  8
0
100
AcDbBlockEnd
  0
BLOCK
  5
3ACB
330
3ACA
100
AcDbEntity
  8
0
100
AcDbBlockBegin
  2
*D34
 70
     1
 10
0.0
 20
0.0
 30
0.0
  3
*D34
  1

  0
LINE
  5
3ACD
330
3ACA
100
AcDbEntity
  8
DIM
 62
     0
370
    -2
100
AcDbLine
 10
463.2502633993174
 20
592.2676884534397
 30
0.0
 11
463.2502633993174
 21
604.5205756016757
 31
0.0
  0
LINE
  5
3ACE
330
3ACA
100
AcDbEntity
  8
DIM
 62
     0
370
    -2
100
AcDbLine
 10
490.2502633993174
 20
592.2676884534397
 30
0.0
 11
490.2502633993174
 21
604.5205756016757
 31
0.0
  0
LINE
  5
3ACF
330
3ACA
100
AcDbEntity
  8
DIM
 62
     0
370
    -2
100
AcDbLine
 10
466.2502633993174
 20
604.5205756016757
 30
0.0
 11
487.2502633993174
 21
604.5205756016757
 31
0.0
  0
INSERT
  5
3AD0
330
3ACA
100
AcDbEntity
  8
DIM
 62
     0
370
    -2
100
AcDbBlockReference
  2
_DOT
 10
463.2502633993174
 20
604.5205756016757
 30
0.0
 41
3.0
 42
3.0
 43
3.0
 50
180.0
  0
INSERT
  5
3AD1
330
3ACA
100
AcDbEntity
  8
DIM
 62
     0
370
    -2
100
AcDbBlockReference
  2
_DOT
 10
490.2502633993174
 20
604.5205756016757
 30
0.0
 41
3.0
 42
3.0
 43
3.0
  0
MTEXT
  5
3AD2
330
3ACA
100
AcDbEntity
  8
DIM
 62
     0
100
AcDbMText
 10
476.7502633993174
 20
614.5205756016757
 30
0.0
 40
8.0
 41
0.0
 46
0.0
 71
     5
 72
     1
  1
\A1;27
  7
ＭＳ ゴシック
 73
     1
 44
1.0
  0
POINT
  5
3AD3
330
3ACA
100
AcDbEntity
  8
Defpoints
 62
     0
100
AcDbPoint
 10
463.2502633993174
 20
582.2676884534397
 30
0.0
  0
POINT
  5
3AD4
330
3ACA
100
AcDbEntity
  8
Defpoints
 62
     0
100
AcDbPoint
 10
490.2502633993174
 20
582.2676884534397
 30
0.0
  0
POINT
  5
3AD5
330
3ACA
100
AcDbEntity
  8
Defpoints
 62
     0
100
AcDbPoint
 10
490.2502633993174
 20
604.5205756016757
 30
0.0
  0
ENDBLK
  5
3ACC
330
3ACA
100
AcDbEntity
  8
0
100
AcDbBlockEnd
  0
BLOCK
  5
3ADA
330
3AD9
100
AcDbEntity
  8
0
100
AcDbBlockBegin
  2
*D35
 70
     1
 10
0.0
 20
0.0
 30
0.0
  3
*D35
  1

  0
LINE
  5
3ADC
330
3AD9
100
AcDbEntity
  8
DIM
 62
     0
370
    -2
100
AcDbLine
 10
140.6443178088781
 20
360.7583916203783
 30
0.0
 11
140.6443178088781
 21
391.7613408198548
 31
0.0
  0
LINE
  5
3ADD
330
3AD9
100
AcDbEntity
  8
DIM
 62
     0
370
    -2
100
AcDbLine
 10
273.6443178088781
 20
360.7583916203783
 30
0.0
 11
273.6443178088781
 21
391.7613408198548
 31
0.0
  0
LINE
  5
3ADE
330
3AD9
100
AcDbEntity
  8
DIM
 62
     0
370
    -2
100
AcDbLine
 10
143.6443178088781
 20
391.7613408198548
 30
0.0
 11
270.6443178088781
 21
391.7613408198548
 31
0.0
  0
INSERT
  5
3ADF
330
3AD9
100
AcDbEntity
  8
DIM
 62
     0
370
    -2
100
AcDbBlockReference
  2
_DOT
 10
140.6443178088781
 20
391.7613408198548
 30
0.0
 41
3.0
 42
3.0
 43
3.0
 50
180.0
  0
INSERT
  5
3AE0
330
3AD9
100
AcDbEntity
  8
DIM
 62
     0
370
    -2
100
AcDbBlockReference
  2
_DOT
 10
273.6443178088781
 20
391.7613408198548
 30
0.0
 41
3.0
 42
3.0
 43
3.0
  0
MTEXT
  5
3AE1
330
3AD9
100
AcDbEntity
  8
DIM
 62
     0
100
AcDbMText
 10
207.1443178088781
 20
401.7613408198548
 30
0.0
 40
8.0
 41
0.0
 46
0.0
 71
     5
 72
     1
  1
\A1;133
  7
ＭＳ ゴシック
 73
     1
 44
1.0
  0
POINT
  5
3AE2
330
3AD9
100
AcDbEntity
  8
Defpoints
 62
     0
100
AcDbPoint
 10
140.6443178088781
 20
350.7583916203783
 30
0.0
  0
POINT
  5
3AE3
330
3AD9
100
AcDbEntity
  8
Defpoints
 62
     0
100
AcDbPoint
 10
273.6443178088781
 20
350.7583916203783
 30
0.0
  0
POINT
  5
3AE4
330
3AD9
100
AcDbEntity
  8
Defpoints
 62
     0
100
AcDbPoint
 10
273.6443178088781
 20
391.7613408198548
 30
0.0
  0
ENDBLK
  5
3ADB
330
3AD9
100
AcDbEntity
  8
0
100
AcDbBlockEnd
  0
BLOCK
  5
3AE9
330
3AE8
100
AcDbEntity
  8
0
100
AcDbBlockBegin
  2
*D36
 70
     1
 10
0.0
 20
0.0
 30
0.0
  3
*D36
  1

  0
LINE
  5
3AEB
330
3AE8
100
AcDbEntity
  8
DIM
 62
     0
370
    -2
100
AcDbLine
 10
280.7150613878254
 20
582.2676884534397
 30
0.0
 11
314.0379164314382
 21
582.2676884534397
 31
0.0
  0
LINE
  5
3AEC
330
3AE8
100
AcDbEntity
  8
DIM
 62
     0
370
    -2
100
AcDbLine
 10
283.6443178088781
 20
477.2676884534397
 30
0.0
 11
314.0379164314382
 21
477.2676884534397
 31
0.0
  0
LINE
  5
3AED
330
3AE8
100
AcDbEntity
  8
DIM
 62
     0
370
    -2
100
AcDbLine
 10
314.0379164314382
 20
579.2676884534397
 30
0.0
 11
314.0379164314382
 21
480.2676884534397
 31
0.0
  0
INSERT
  5
3AEE
330
3AE8
100
AcDbEntity
  8
DIM
 62
     0
370
    -2
100
AcDbBlockReference
  2
_DOT
 10
314.0379164314382
 20
582.2676884534397
 30
0.0
 41
3.0
 42
3.0
 43
3.0
 50
90.0
  0
INSERT
  5
3AEF
330
3AE8
100
AcDbEntity
  8
DIM
 62
     0
370
    -2
100
AcDbBlockReference
  2
_DOT
 10
314.0379164314382
 20
477.2676884534397
 30
0.0
 41
3.0
 42
3.0
 43
3.0
 50
270.0
  0
MTEXT
  5
3AF0
330
3AE8
100
AcDbEntity
  8
DIM
 62
     0
100
AcDbMText
 10
304.0379164314382
 20
529.7676884534397
 30
0.0
 40
8.0
 41
0.0
 46
0.0
 71
     5
 72
     1
  1
\A1;105
  7
ＭＳ ゴシック
 11
0.0
 21
1.0
 31
0.0
 73
     1
 44
1.0
  0
POINT
  5
3AF1
330
3AE8
100
AcDbEntity
  8
Defpoints
 62
     0
100
AcDbPoint
 10
270.7150613878254
 20
582.2676884534397
 30
0.0
  0
POINT
  5
3AF2
330
3AE8
100
AcDbEntity
  8
Defpoints
 62
     0
100
AcDbPoint
 10
273.6443178088781
 20
477.2676884534397
 30
0.0
  0
POINT
  5
3AF3
330
3AE8
100
AcDbEntity
  8
Defpoints
 62
     0
100
AcDbPoint
 10
314.0379164314382
 20
477.2676884534397
 30
0.0
  0
ENDBLK
  5
3AEA
330
3AE8
100
AcDbEntity
  8
0
100
AcDbBlockEnd
  0
BLOCK
  5
3AF8
330
3AF7
100
AcDbEntity
  8
0
100
AcDbBlockBegin
  2
*D37
 70
     1
 10
0.0
 20
0.0
 30
0.0
  3
*D37
  1

  0
LINE
  5
3AFA
330
3AF7
100
AcDbEntity
  8
DIM
 62
     0
370
    -2
100
AcDbLine
 10
453.2502633993174
 20
564.2676884534397
 30
0.0
 11
435.2590779879858
 21
564.2676884534397
 31
0.0
  0
LINE
  5
3AFB
330
3AF7
100
AcDbEntity
  8
DIM
 62
     0
370
    -2
100
AcDbLine
 10
469.6746416777817
 20
477.2676884534397
 30
0.0
 11
435.2590779879858
 21
477.2676884534397
 31
0.0
  0
LINE
  5
3AFC
330
3AF7
100
AcDbEntity
  8
DIM
 62
     0
370
    -2
100
AcDbLine
 10
435.2590779879858
 20
561.2676884534397
 30
0.0
 11
435.2590779879858
 21
480.2676884534397
 31
0.0
  0
INSERT
  5
3AFD
330
3AF7
100
AcDbEntity
  8
DIM
 62
     0
370
    -2
100
AcDbBlockReference
  2
_DOT
 10
435.2590779879858
 20
564.2676884534397
 30
0.0
 41
3.0
 42
3.0
 43
3.0
 50
90.0
  0
INSERT
  5
3AFE
330
3AF7
100
AcDbEntity
  8
DIM
 62
     0
370
    -2
100
AcDbBlockReference
  2
_DOT
 10
435.2590779879858
 20
477.2676884534397
 30
0.0
 41
3.0
 42
3.0
 43
3.0
 50
270.0
  0
MTEXT
  5
3AFF
330
3AF7
100
AcDbEntity
  8
DIM
 62
     0
100
AcDbMText
 10
425.2590779879858
 20
520.7676884534397
 30
0.0
 40
8.0
 41
0.0
 46
0.0
 71
     5
 72
     1
  1
\A1;87
  7
ＭＳ ゴシック
 11
0.0
 21
1.0
 31
0.0
 73
     1
 44
1.0
  0
POINT
  5
3B00
330
3AF7
100
AcDbEntity
  8
Defpoints
 62
     0
100
AcDbPoint
 10
463.2502633993174
 20
564.2676884534397
 30
0.0
  0
POINT
  5
3B01
330
3AF7
100
AcDbEntity
  8
Defpoints
 62
     0
100
AcDbPoint
 10
479.6746416777817
 20
477.2676884534397
 30
0.0
  0
POINT
  5
3B02
330
3AF7
100
AcDbEntity
  8
Defpoints
 62
     0
100
AcDbPoint
 10
435.2590779879858
 20
477.2676884534397
 30
0.0
  0
ENDBLK
  5
3AF9
330
3AF7
100
AcDbEntity
  8
0
100
AcDbBlockEnd
  0
ENDSEC
  0
SECTION
  2
ENTITIES
  0
MTEXT
  5
177
330
A
100
AcDbEntity
  8
TEMPLATE
390
1D
100
AcDbMText
 10
23.76064336431923
 20
103.1195254894285
 30
0.0
 40
4.886523437499998
 41
0.0
 46
0.0
 71
     1
 72
     1
  1
品名
  7
ＭＳ ゴシック
 73
     1
 44
0.7828267384257843
  0
MTEXT
  5
178
330
A
100
AcDbEntity
  8
TEMPLATE
390
1D
100
AcDbMText
 10
23.76064336431923
 20
77.6195254894284
 30
0.0
 40
4.886523437499998
 41
0.0
 46
0.0
 71
     1
 72
     1
  1
仕様
  7
ＭＳ ゴシック
 73
     1
 44
0.7828267384257843
  0
LINE
  5
179
330
A
100
AcDbEntity
  8
TEMPLATE
390
1D
100
AcDbLine
 10
606.6606433641745
 20
80.14400205192852
 30
0.0
 11
21.66064336417462
 21
80.14400205192852
 31
0.0
  0
LWPOLYLINE
  5
17A
330
A
100
AcDbEntity
  8
TEMPLATE
390
1D
100
AcDbPolyline
 90
        5
 70
   128
 43
0.0
 10
606.6606433641745
 20
869.1440020519278
 10
21.66064336417462
 20
869.1440020519278
 10
21.66064336417462
 20
29.14400205192847
 10
606.6606433641745
 20
29.14400205192847
 10
606.6606433641745
 20
869.1440020519278
  0
LINE
  5
17B
330
A
100
AcDbEntity
  8
TEMPLATE
390
1D
100
AcDbLine
 10
606.6606433641745
 20
105.6440020519285
 30
0.0
 11
21.66064336417462
 21
105.6440020519285
 31
0.0
  0
LINE
  5
17C
330
A
100
AcDbEntity
  8
TEMPLATE
390
1D
100
AcDbLine
 10
606.6606433643196
 20
54.64400205192847
 30
0.0
 11
380.760643364319
 21
54.64400205192847
 31
0.0
  0
MTEXT
  5
17E
330
A
100
AcDbEntity
  8
TEMPLATE
390
1D
100
AcDbMText
 10
389.7220652399973
 20
45.67088370993605
 30
0.0
 40
7.329785156250001
 41
0.0
 46
0.0
 71
     1
 72
     1
  1
大洋金物株式会社 ティーフォルム事業部
  7
ＭＳ ゴシック
 73
     1
 44
0.7828267384257843
  0
MTEXT
  5
180
330
A
100
AcDbEntity
  8
TEMPLATE
390
1D
100
AcDbMText
 10
549.360643364397
 20
69.04478720817846
 30
0.0
 40
7.329785156250001
 41
0.0
 46
7.329785156250001
 71
     1
 72
     1
  1
{1:3}
  7
ＭＳ ゴシック
 73
     1
 44
0.7828267384257843
1001
ACAD
1000
ACAD_MTEXT_DEFINED_HEIGHT_BEGIN
1070
    46
1040
7.329785156250001
1000
ACAD_MTEXT_DEFINED_HEIGHT_END
  0
MTEXT
  5
181
330
A
100
AcDbEntity
  8
TEMPLATE
390
1D
100
AcDbMText
 10
533.4606433643969
 20
77.6195254894284
 30
0.0
 40
4.886523437499998
 41
0.0
 46
0.0
 71
     1
 72
     1
  1
縮尺
  7
ＭＳ ゴシック
 73
     1
 44
0.7828267384257843
  0
LINE
  5
182
330
A
100
AcDbEntity
  8
TEMPLATE
390
1D
100
AcDbLine
 10
531.360643364397
 20
54.64400205192847
 30
0.0
 11
531.360643364397
 21
80.14400205192852
 31
0.0
  0
MTEXT
  5
183
330
A
100
AcDbEntity
  8
TEMPLATE
390
1D
100
AcDbMText
 10
458.1606433643969
 20
77.6195254894284
 30
0.0
 40
4.886523437499998
 41
0.0
 46
0.0
 71
     1
 72
     1
  1
容量
  7
ＭＳ ゴシック
 73
     1
 44
0.7828267384257843
  0
LINE
  5
184
330
A
100
AcDbEntity
  8
TEMPLATE
390
1D
100
AcDbLine
 10
456.060643364397
 20
54.64400205192847
 30
0.0
 11
456.060643364397
 21
80.14400205192852
 31
0.0
  0
MTEXT
  5
185
330
A
100
AcDbEntity
  8
TEMPLATE
390
1D
100
AcDbMText
 10
382.860643364397
 20
103.1195254894285
 30
0.0
 40
4.886523437499998
 41
0.0
 46
0.0
 71
     1
 72
     1
  1
品番
  7
ＭＳ ゴシック
 73
     1
 44
0.7828267384257843
  0
MTEXT
  5
186
330
A
100
AcDbEntity
  8
TEMPLATE
390
1D
100
AcDbMText
 10
382.860643364397
 20
77.6195254894284
 30
0.0
 40
4.886523437499998
 41
0.0
 46
0.0
 71
     1
 72
     1
  1
重量
  7
ＭＳ ゴシック
 73
     1
 44
0.7828267384257843
  0
MTEXT
  5
187
330
A
100
AcDbEntity
  8
TEMPLATE
390
1D
100
AcDbMText
 10
398.760643364397
 20
94.54478720817846
 30
0.0
 40
7.329785156250001
 41
0.0
 46
7.329785156250001
 71
     1
 72
     1
  1
{FLR74-1720}
  7
ＭＳ ゴシック
 73
     1
 44
0.7828267384257843
1001
ACAD
1000
ACAD_MTEXT_DEFINED_HEIGHT_BEGIN
1070
    46
1040
7.329785156250001
1000
ACAD_MTEXT_DEFINED_HEIGHT_END
  0
LINE
  5
188
330
A
100
AcDbEntity
  8
TEMPLATE
390
1D
100
AcDbLine
 10
380.760643364397
 20
29.14400205192847
 30
0.0
 11
380.760643364397
 21
105.6440020519285
 31
0.0
  0
MTEXT
  5
189
330
A
100
AcDbEntity
  8
TEMPLATE
390
1D
100
AcDbMText
 10
39.66064336431923
 20
94.54478720817846
 30
0.0
 40
7.329785156250001
 41
0.0
 46
8.260667871093752
 71
     1
 72
     1
  1
{ペーパーホルダー　-KEUCO, Plan-}
  7
ＭＳ ゴシック
 73
     1
 44
0.7828267384257843
1001
ACAD
1000
ACAD_MTEXT_DEFINED_HEIGHT_BEGIN
1070
    46
1040
8.260667871093752
1000
ACAD_MTEXT_DEFINED_HEIGHT_END
  0
INSERT
  5
6B5
330
A
100
AcDbEntity
  8
TEMPLATE
100
AcDbBlockReference
  2
名称未設定-1
 10
561.225224426535
 20
7.784029726996145
 30
0.0
 41
0.2286
 42
0.2286
 43
0.2286
  0
INSERT
  5
68C
330
A
100
AcDbEntity
  8
TEMPLATE
100
AcDbBlockReference
  2
block 2
 10
367.7097207081031
 20
3.349230605734547
 30
0.0
 41
0.1524
 42
0.1524
 43
0.1524
  0
LWPOLYLINE
  5
D69
330
A
100
AcDbEntity
  8
BORDER
 48
0.5
100
AcDbPolyline
 90
        4
 70
     1
 43
0.0
 10
0.0
 20
0.0
 10
0.0
 20
891.0
 10
630.0
 20
891.0
 10
630.0
 20
0.0
  0
INSERT
  5
1343
330
A
100
AcDbEntity
  8
TEMPLATE
100
AcDbBlockReference
  2
block 2
 10
838.6973883465873
 20
9.774128564918277
 30
0.0
 41
0.1524
 42
0.1524
 43
0.1524
  0
MTEXT
  5
36AC
102
{ACAD_XDICTIONARY
360
36AE
102
}
330
A
100
AcDbEntity
  8
TEMPLATE
 48
0.05
100
AcDbMText
 10
22.06848147481188
 20
25.15049698669364
 30
0.0
 40
7.0
 41
0.0
 46
7.0
 71
     1
 72
     1
  1
{20170724N}
  7
ＭＳ ゴシック
 73
     1
 44
1.0
1001
ACAD
1000
ACAD_MTEXT_DEFINED_HEIGHT_BEGIN
1070
    46
1040
7.0
1000
ACAD_MTEXT_DEFINED_HEIGHT_END
  0
LINE
  5
39CC
330
A
100
AcDbEntity
  8
MODEL
 48
0.05
100
AcDbLine
 10
208.1443178088781
 20
582.2676884534397
 30
0.0
 11
270.7150613878254
 21
582.2676884534397
 31
0.0
  0
LINE
  5
39CD
102
{ACAD_REACTORS
330
3AE7
102
}
330
A
100
AcDbEntity
  8
MODEL
 48
0.05
100
AcDbLine
 10
273.6443178088781
 20
504.9281917516157
 30
0.0
 11
273.6443178088781
 21
477.2676884534397
 31
0.0
  0
LINE
  5
39CE
330
A
100
AcDbEntity
  8
MODEL
 48
0.05
100
AcDbLine
 10
273.6443178088781
 20
477.2676884534397
 30
0.0
 11
208.1443178088781
 21
477.2676884534397
 31
0.0
  0
LINE
  5
39EB
330
A
100
AcDbEntity
  8
MODEL
 48
0.05
100
AcDbLine
 10
270.7150613878254
 20
504.9281917516157
 30
0.0
 11
270.7150613878254
 21
477.2676884534397
 31
0.0
  0
LINE
  5
39ED
330
A
100
AcDbEntity
  8
HIDDEN
100
AcDbLine
 10
263.0958546509835
 20
562.2676884534397
 30
0.0
 11
208.1443178088781
 21
562.2676884534397
 31
0.0
  0
LINE
  5
3A09
330
A
100
AcDbEntity
  8
MODEL
 48
0.05
100
AcDbLine
 10
270.7150613878254
 20
498.2676884534397
 30
0.0
 11
208.1443178088781
 21
498.2676884534397
 31
0.0
  0
LINE
  5
3A0A
330
A
100
AcDbEntity
  8
MODEL
 48
0.05
100
AcDbLine
 10
270.7150613878254
 20
561.2676884534397
 30
0.0
 11
208.1443178088781
 21
561.2676884534397
 31
0.0
  0
LINE
  5
3A0B
330
A
100
AcDbEntity
  8
HIDDEN
100
AcDbLine
 10
263.0958546509835
 20
581.2676884534397
 30
0.0
 11
263.0958546509835
 21
562.2676884534397
 31
0.0
  0
LINE
  5
3A1C
102
{ACAD_REACTORS
330
3A26
102
}
330
A
100
AcDbEntity
  8
HIDDEN
 48
0.25
100
AcDbLine
 10
238.4552260072884
 20
573.9362174411901
 30
0.0
 11
242.8334096104678
 21
573.9362174411901
 31
0.0
  0
LINE
  5
3A1D
102
{ACAD_REACTORS
330
3A26
102
}
330
A
100
AcDbEntity
  8
HIDDEN
 48
0.25
100
AcDbLine
 10
238.4552260072884
 20
569.5991594656894
 30
0.0
 11
242.8334096104678
 21
569.5991594656894
 31
0.0
  0
ARC
  5
3A1E
102
{ACAD_REACTORS
330
3A26
102
}
330
A
100
AcDbEntity
  8
HIDDEN
 48
0.25
100
AcDbCircle
 10
242.8334096104678
 20
571.7676884534397
 30
0.0
 40
2.168528987750392
100
AcDbArc
 50
270.0
 51
90.0
  0
ARC
  5
3A23
102
{ACAD_REACTORS
330
3A26
102
}
330
A
100
AcDbEntity
  8
HIDDEN
 48
0.25
100
AcDbCircle
 10
238.4552260072884
 20
571.7676884534397
 30
0.0
 40
2.168528987750392
100
AcDbArc
 50
90.0
 51
270.0
  0
ARC
  5
3A27
102
{ACAD_REACTORS
330
3A2B
102
}
330
A
100
AcDbEntity
  8
HIDDEN
 48
0.25
100
AcDbCircle
 10
175.6443178088781
 20
573.9567802550295
 30
0.0
 40
2.168528987750392
100
AcDbArc
 50
0.0
 51
180.0
  0
LINE
  5
3A28
102
{ACAD_REACTORS
330
3A2B
102
}
330
A
100
AcDbEntity
  8
HIDDEN
 48
0.25
100
AcDbLine
 10
177.8128467966285
 20
569.57859665185
 30
0.0
 11
177.8128467966285
 21
573.9567802550295
 31
0.0
  0
LINE
  5
3A29
102
{ACAD_REACTORS
330
3A2B
102
}
330
A
100
AcDbEntity
  8
HIDDEN
 48
0.25
100
AcDbLine
 10
173.4757888211277
 20
569.57859665185
 30
0.0
 11
173.4757888211277
 21
573.9567802550295
 31
0.0
  0
ARC
  5
3A2A
102
{ACAD_REACTORS
330
3A2B
102
}
330
A
100
AcDbEntity
  8
HIDDEN
 48
0.25
100
AcDbCircle
 10
175.6443178088781
 20
569.57859665185
 30
0.0
 40
2.168528987750392
100
AcDbArc
 50
180.0
 51
0.0
  0
DIMENSION
  5
3A2E
330
A
100
AcDbEntity
  8
DIM
 48
0.05
100
AcDbDimension
  2
*D31
 10
175.6443178088781
 20
603.5205756016757
 30
0.0
 11
208.1443178088781
 21
613.5205756016757
 31
0.0
 70
    32
 71
     5
 42
65.0
 73
     0
 74
     0
 75
     0
  3
tfrom線あり
100
AcDbAlignedDimension
 13
240.6443178088781
 23
571.7676884534397
 33
0.0
 14
175.6443178088781
 24
571.7676884534397
 34
0.0
100
AcDbRotatedDimension
1001
ACAD
1000
DSTYLE
1002
{
1070
   144
1040
1.0
1002
}
  0
LINE
  5
3A3D
330
A
100
AcDbEntity
  8
MODEL
 48
0.05
100
AcDbLine
 10
140.6443178088781
 20
582.2676884534397
 30
0.0
 11
140.6443178088781
 21
477.2676884534397
 31
0.0
  0
LINE
  5
3A3E
330
A
100
AcDbEntity
  8
HIDDEN
100
AcDbLine
 10
153.1927809667727
 20
581.2676884534397
 30
0.0
 11
153.1927809667727
 21
562.2676884534397
 31
0.0
  0
LINE
  5
3A3F
330
A
100
AcDbEntity
  8
MODEL
 48
0.05
100
AcDbLine
 10
145.5735742299308
 20
582.2676884534397
 30
0.0
 11
145.5735742299308
 21
477.2676884534397
 31
0.0
  0
LINE
  5
3A40
330
A
100
AcDbEntity
  8
MODEL
 48
0.05
100
AcDbLine
 10
140.6443178088781
 20
477.2676884534397
 30
0.0
 11
208.1443178088781
 21
477.2676884534397
 31
0.0
  0
LINE
  5
3A41
330
A
100
AcDbEntity
  8
MODEL
 48
0.05
100
AcDbLine
 10
208.1443178088781
 20
582.2676884534397
 30
0.0
 11
140.6443178088781
 21
582.2676884534397
 31
0.0
  0
LINE
  5
3A42
330
A
100
AcDbEntity
  8
HIDDEN
100
AcDbLine
 10
153.1927809667727
 20
562.2676884534397
 30
0.0
 11
208.1443178088781
 21
562.2676884534397
 31
0.0
  0
LINE
  5
3A43
330
A
100
AcDbEntity
  8
MODEL
 48
0.05
100
AcDbLine
 10
145.5735742299308
 20
561.2676884534397
 30
0.0
 11
208.1443178088781
 21
561.2676884534397
 31
0.0
  0
LINE
  5
3A44
330
A
100
AcDbEntity
  8
MODEL
 48
0.05
100
AcDbLine
 10
145.5735742299308
 20
498.2676884534397
 30
0.0
 11
208.1443178088781
 21
498.2676884534397
 31
0.0
  0
LINE
  5
3A45
102
{ACAD_REACTORS
330
3ABB
102
}
330
A
100
AcDbEntity
  8
MODEL
 48
0.05
100
AcDbLine
 10
475.2025057227821
 20
581.2676884534397
 30
0.0
 11
463.2502633993174
 21
581.2676884534397
 31
0.0
  0
LINE
  5
3A49
330
A
100
AcDbEntity
  8
MODEL
 48
0.05
100
AcDbLine
 10
463.2502633993174
 20
581.2676884534397
 30
0.0
 11
463.2502633993174
 21
563.2676884534397
 31
0.0
  0
LINE
  5
3A4B
330
A
100
AcDbEntity
  8
MODEL
 48
0.05
100
AcDbLine
 10
490.1746416777817
 20
571.7676884534397
 30
0.0
 11
490.1746416777817
 21
487.7676884534397
 31
0.0
  0
ARC
  5
3A4E
330
A
100
AcDbEntity
  8
MODEL
100
AcDbCircle
 10
479.6746416777817
 20
571.7676884534397
 30
0.0
 40
10.5
100
AcDbArc
 50
0.0
 51
180.0
  0
LINE
  5
3A50
330
A
100
AcDbEntity
  8
MODEL
 48
0.05
100
AcDbLine
 10
469.1746416777817
 20
571.7676884534397
 30
0.0
 11
469.1746416777817
 21
487.7676884534397
 31
0.0
  0
ARC
  5
3A51
330
A
100
AcDbEntity
  8
MODEL
100
AcDbCircle
 10
479.6746416777817
 20
487.7676884534397
 30
0.0
 40
10.5
100
AcDbArc
 50
180.0
 51
0.0
  0
LINE
  5
3A54
102
{ACAD_REACTORS
330
3ABB
102
}
330
A
100
AcDbEntity
  8
MODEL
 48
0.05
100
AcDbLine
 10
469.1746416777817
 20
563.2676884534397
 30
0.0
 11
463.2502633993174
 21
563.2676884534397
 31
0.0
  0
ARC
  5
3A55
330
A
100
AcDbEntity
  8
HIDDEN
100
AcDbCircle
 10
479.6746416777817
 20
487.7676884534397
 30
0.0
 40
10.5
100
AcDbArc
 50
0.0
 51
180.0
  0
ARC
  5
3A56
330
A
100
AcDbEntity
  8
HIDDEN
100
AcDbCircle
 10
479.6746416777817
 20
571.7676884534397
 30
0.0
 40
10.5
100
AcDbArc
 50
180.0
 51
0.0
  0
LINE
  5
3A5C
330
A
100
AcDbEntity
  8
MODEL
100
AcDbLine
 10
140.6443178088781
 20
329.7583916203783
 30
0.0
 11
140.6443178088781
 21
350.7583916203783
 31
0.0
  0
LINE
  5
3A5E
330
A
100
AcDbEntity
  8
MODEL
100
AcDbLine
 10
145.5735742299308
 20
329.7583916203783
 30
0.0
 11
145.5735742299308
 21
350.7583916203783
 31
0.0
  0
LINE
  5
3A60
330
A
100
AcDbEntity
  8
MODEL
100
AcDbLine
 10
153.1927809667727
 20
343.2583916203783
 30
0.0
 11
153.1927809667727
 21
356.7583916203783
 31
0.0
  0
LINE
  5
3A61
330
A
100
AcDbEntity
  8
MODEL
100
AcDbLine
 10
153.1927809667727
 20
356.7583916203783
 30
0.0
 11
208.1443178088781
 21
356.7583916203783
 31
0.0
  0
LINE
  5
3A63
330
A
100
AcDbEntity
  8
MODEL
100
AcDbLine
 10
208.1443178088781
 20
329.7583916203783
 30
0.0
 11
140.6443178088781
 21
329.7583916203783
 31
0.0
  0
LINE
  5
3A65
330
A
100
AcDbEntity
  8
MODEL
100
AcDbLine
 10
153.1927809667727
 20
343.2583916203783
 30
0.0
 11
208.1443178088781
 21
343.2583916203783
 31
0.0
  0
LINE
  5
3A9B
330
A
100
AcDbEntity
  8
MODEL
100
AcDbLine
 10
153.1927809667727
 20
350.7583916203783
 30
0.0
 11
140.6443178088781
 21
350.7583916203783
 31
0.0
  0
LINE
  5
3A9D
330
A
100
AcDbEntity
  8
MODEL
100
AcDbLine
 10
263.0958546509835
 20
343.2583916203783
 30
0.0
 11
263.0958546509835
 21
356.7583916203783
 31
0.0
  0
LINE
  5
3A9E
330
A
100
AcDbEntity
  8
MODEL
100
AcDbLine
 10
273.6443178088781
 20
329.7583916203783
 30
0.0
 11
273.6443178088781
 21
350.7583916203783
 31
0.0
  0
LINE
  5
3A9F
330
A
100
AcDbEntity
  8
MODEL
100
AcDbLine
 10
270.7150613878254
 20
329.7583916203783
 30
0.0
 11
270.7150613878254
 21
350.7583916203783
 31
0.0
  0
LINE
  5
3AA0
330
A
100
AcDbEntity
  8
MODEL
100
AcDbLine
 10
263.0958546509835
 20
356.7583916203783
 30
0.0
 11
208.1443178088781
 21
356.7583916203783
 31
0.0
  0
LINE
  5
3AA1
330
A
100
AcDbEntity
  8
MODEL
100
AcDbLine
 10
263.0958546509835
 20
343.2583916203783
 30
0.0
 11
208.1443178088781
 21
343.2583916203783
 31
0.0
  0
LINE
  5
3AA2
330
A
100
AcDbEntity
  8
MODEL
100
AcDbLine
 10
263.0958546509835
 20
350.7583916203783
 30
0.0
 11
273.6443178088781
 21
350.7583916203783
 31
0.0
  0
LINE
  5
3AA3
330
A
100
AcDbEntity
  8
MODEL
100
AcDbLine
 10
208.1443178088781
 20
329.7583916203783
 30
0.0
 11
273.6443178088781
 21
329.7583916203783
 31
0.0
  0
DIMENSION
  5
3AB9
102
{ACAD_REACTORS
330
3ABB
102
}
102
{ACAD_XDICTIONARY
360
3ABA
102
}
330
A
100
AcDbEntity
  8
DIM
100
AcDbDimension
  2
*D33
 10
435.2590779879858
 20
581.2676884534397
 30
0.0
 11
435.2590779879858
 21
572.2676884534397
 31
0.0
 70
   160
 71
     5
 42
18.0
 73
     0
 74
     0
 75
     0
  3
tfrom線あり
100
AcDbAlignedDimension
 13
463.2502633993174
 23
563.2676884534397
 33
0.0
 14
463.2502633993174
 24
581.2676884534397
 34
0.0
 50
90.0
100
AcDbRotatedDimension
1001
ACAD
1000
DSTYLE
1002
{
1070
   144
1040
1.0
1002
}
  0
DIMENSION
  5
3AC9
330
A
100
AcDbEntity
  8
DIM
100
AcDbDimension
  2
*D34
 10
490.2502633993174
 20
604.5205756016757
 30
0.0
 11
476.7502633993174
 21
614.5205756016757
 31
0.0
 70
    32
 71
     5
 42
27.0
 73
     0
 74
     0
 75
     0
  3
tfrom線あり
100
AcDbAlignedDimension
 13
463.2502633993174
 23
582.2676884534397
 33
0.0
 14
490.2502633993174
 24
582.2676884534397
 34
0.0
100
AcDbRotatedDimension
1001
ACAD
1000
DSTYLE
1002
{
1070
   144
1040
1.0
1002
}
  0
DIMENSION
  5
3AD6
330
A
100
AcDbEntity
  8
DIM
100
AcDbDimension
  2
*D35
 10
273.6443178088781
 20
391.7613408198548
 30
0.0
 11
207.1443178088781
 21
401.7613408198548
 31
0.0
 70
    32
 71
     5
 42
133.0
 73
     0
 74
     0
 75
     0
  3
tfrom線あり
100
AcDbAlignedDimension
 13
140.6443178088781
 23
350.7583916203783
 33
0.0
 14
273.6443178088781
 24
350.7583916203783
 34
0.0
100
AcDbRotatedDimension
1001
ACAD
1000
DSTYLE
1002
{
1070
   144
1040
1.0
1002
}
  0
DIMENSION
  5
3AE5
102
{ACAD_REACTORS
330
3AE7
102
}
102
{ACAD_XDICTIONARY
360
3AE6
102
}
330
A
100
AcDbEntity
  8
DIM
100
AcDbDimension
  2
*D36
 10
314.0379164314382
 20
477.2676884534397
 30
0.0
 11
304.0379164314382
 21
529.7676884534397
 31
0.0
 70
    32
 71
     5
 42
105.0000000000001
 73
     0
 74
     0
 75
     0
  3
tfrom線あり
100
AcDbAlignedDimension
 13
270.7150613878254
 23
582.2676884534397
 33
0.0
 14
273.6443178088781
 24
477.2676884534397
 34
0.0
 50
90.0
100
AcDbRotatedDimension
1001
ACAD
1000
DSTYLE
1002
{
1070
   144
1040
1.0
1002
}
  0
LINE
  5
3B13
330
A
100
AcDbEntity
  8
MODEL
100
AcDbLine
 10
270.7150613878254
 20
561.2676884534397
 30
0.0
 11
270.7150613878254
 21
582.2676884534397
 31
0.0
  0
LINE
  5
3B14
330
A
100
AcDbEntity
  8
MODEL
100
AcDbLine
 10
273.6443178088781
 20
504.9281917516157
 30
0.0
 11
270.7150613878254
 21
504.9281917516157
 31
0.0
  0
ARC
  5
3B17
330
A
100
AcDbEntity
  8
HIDDEN
100
AcDbCircle
 10
479.6746416777818
 20
480.9582834523428
 30
0.0
 40
23.96981030074116
100
AcDbArc
 50
64.02040508220566
 51
115.9795949177946
  0
LINE
  5
3B20
330
A
100
AcDbEntity
  8
MODEL
100
AcDbLine
 10
273.644317808878
 20
502.5059470345857
 30
0.0
 11
270.7150613878254
 21
502.5059470345857
 31
0.0
  0
LINE
  5
3B2C
330
A
100
AcDbEntity
  8
HIDDEN
100
AcDbLine
 10
263.0958546509835
 20
581.2676884534397
 30
0.0
 11
208.1443178088781
 21
581.2676884534397
 31
0.0
  0
LINE
  5
3B2D
330
A
100
AcDbEntity
  8
HIDDEN
100
AcDbLine
 10
153.1927809667727
 20
581.2676884534397
 30
0.0
 11
208.1443178088781
 21
581.2676884534397
 31
0.0
  0
MTEXT
  5
3B45
330
A
100
AcDbEntity
  8
TEMPLATE
390
1D
100
AcDbMText
 10
381.3453136801865
 20
145.7458564797574
 30
0.0
 40
7.329785156250001
 41
0.0
 46
27.42532664250754
 71
     1
 72
     1
  1
{FLR74-1720-001 クローム\PFLR74-1720-003 アルミシルバー\PFLR74-1720-122 アルミシルバー/ブラックグレー}
  7
ＭＳ ゴシック
 73
     1
 44
0.9004356688916422
1001
ACAD
1000
ACAD_MTEXT_DEFINED_HEIGHT_BEGIN
1070
    46
1040
27.42532664250754
1000
ACAD_MTEXT_DEFINED_HEIGHT_END
  0
VIEWPORT
  5
349
330
B
100
AcDbEntity
 67
     1
  8
0
100
AcDbViewport
 10
202.5
 20
128.5
 30
0.0
 40
486.0
 41
308.4
 68
     1
 69
     1
 12
202.5
 22
128.5
 13
0.0
 23
0.0
 14
0.5
 24
0.5
 15
0.0
 25
0.0
 16
0.0
 26
0.0
 36
1.0
 17
0.0
 27
0.0
 37
0.0
 42
50.0
 43
0.0
 44
0.0
 45
308.4
 50
0.0
 51
0.0
 72
   100
 90
   557152
  1

281
     0
 71
     1
 74
     0
110
0.0
120
0.0
130
0.0
111
1.0
121
0.0
131
0.0
112
0.0
122
1.0
132
0.0
 79
     0
146
0.0
170
     0
 61
     5
348
26C
292
     1
282
     1
141
0.0
142
0.0
 63
   256
  0
VIEWPORT
  5
34A
330
B
100
AcDbEntity
 67
     1
  8
0
100
AcDbViewport
 10
202.5
 20
128.5
 30
0.0
 40
324.0
 41
205.6
 68
     2
 69
     2
 12
986.6781359294573
 22
1427.077061889956
 13
0.0
 23
0.0
 14
0.5
 24
0.5
 15
0.0
 25
0.0
 16
0.0
 26
0.0
 36
1.0
 17
0.0
 27
0.0
 37
0.0
 42
50.0
 43
0.0
 44
0.0
 45
2890.021615685494
 50
0.0
 51
0.0
 72
   100
 90
   557152
  1

281
     0
 71
     1
 74
     0
110
0.0
120
0.0
130
0.0
111
1.0
121
0.0
131
0.0
112
0.0
122
1.0
132
0.0
 79
     0
146
0.0
170
     0
 61
     5
348
26C
292
     1
282
     1
141
0.0
142
0.0
 63
   256
  0
ENDSEC
  0
SECTION
  2
OBJECTS
  0
DICTIONARY
  5
19
330
0
100
AcDbDictionary
281
     1
  3
ACAD_COLOR
350
674
  3
ACAD_DETAILVIEWSTYLE
350
BBF
  3
ACAD_FIELDLIST
350
36B0
  3
ACAD_GROUP
350
1A
  3
ACAD_IMAGE_DICT
350
39C8
  3
ACAD_IMAGE_VARS
350
27B
  3
ACAD_LAYOUT
350
1E
  3
ACAD_MATERIAL
350
263
  3
ACAD_MLEADERSTYLE
350
336
  3
ACAD_MLINESTYLE
350
1B
  3
ACAD_PLOTSETTINGS
350
22
  3
ACAD_PLOTSTYLENAME
350
1F
  3
ACAD_SCALELIST
350
241
  3
ACAD_SECTIONVIEWSTYLE
350
BC0
  3
ACAD_TABLESTYLE
350
278
  3
ACAD_VISUALSTYLE
350
267
  3
ACDB_RECOMPOSE_DATA
350
3B5D
  3
AcDbVariableDictionary
350
330
  3
APPDATA
350
27A
  3
CENTERLINE
350
366B
  3
DimOffsetDictionary
350
E38
  0
SUN
  5
904
330
15
100
AcDbSun
 90
        1
290
     0
 63
     7
421
 16777215
 40
1.0
291
     1
 91
  2455826
 92
 54000000
292
     0
 70
     2
 71
   256
280
     1
  0
DICTIONARY
  5
2E1
330
2
100
AcDbDictionary
280
     1
281
     1
  3
ACAD_LAYERSTATES
360
2E2
  3
ACLYDICTIONARY
360
DDE
  0
DICTIONARY
  5
36AE
330
36AC
100
AcDbDictionary
280
     1
281
     1
  3
ACAD_FIELD
360
36B2
  0
DICTIONARY
  5
3ABA
330
3AB9
100
AcDbDictionary
280
     1
281
     1
  3
ACAD_DIMASSOC
360
3ABB
  0
DICTIONARY
  5
3AE6
330
3AE5
100
AcDbDictionary
280
     1
281
     1
  3
ACAD_DIMASSOC
360
3AE7
  0
DICTIONARY
  5
674
102
{ACAD_REACTORS
330
19
102
}
330
19
100
AcDbDictionary
281
     1
  0
DICTIONARY
  5
BBF
102
{ACAD_REACTORS
330
19
102
}
330
19
100
AcDbDictionary
281
     1
  0
FIELDLIST
  5
36B0
102
{ACAD_REACTORS
330
19
102
}
330
19
100
AcDbIdSet
 90
        2
330
36B1
330
36AD
100
AcDbFieldList
  0
DICTIONARY
  5
1A
102
{ACAD_REACTORS
330
19
102
}
330
19
100
AcDbDictionary
281
     1
  3
*A1
350
3A26
  3
*A2
350
3A2B
  0
DICTIONARY
  5
39C8
102
{ACAD_REACTORS
330
19
102
}
330
19
100
AcDbDictionary
281
     1
  3
KEV14961010000_480x360
350
39C9
  0
RASTERVARIABLES
  5
27B
102
{ACAD_REACTORS
330
19
102
}
330
19
100
AcDbRasterVariables
 90
        0
 70
     1
 71
     1
 72
     1
  0
DICTIONARY
  5
1E
102
{ACAD_REACTORS
330
19
102
}
330
19
100
AcDbDictionary
281
     1
  3
Layout1
350
21
  3
Model
350
20
  0
DICTIONARY
  5
263
102
{ACAD_REACTORS
330
19
102
}
330
19
100
AcDbDictionary
281
     1
  3
ByBlock
350
265
  3
ByLayer
350
264
  3
Global
350
266
  0
DICTIONARY
  5
336
102
{ACAD_REACTORS
330
19
102
}
330
19
100
AcDbDictionary
281
     1
  3
Standard
350
D59
  0
DICTIONARY
  5
1B
102
{ACAD_REACTORS
330
19
102
}
330
19
100
AcDbDictionary
281
     1
  3
Standard
350
1C
  0
DICTIONARY
  5
22
102
{ACAD_REACTORS
330
19
102
}
330
19
100
AcDbDictionary
281
     1
  0
ACDBDICTIONARYWDFLT
  5
1F
102
{ACAD_REACTORS
330
19
102
}
330
19
100
AcDbDictionary
281
     1
  3
Normal
350
1D
100
AcDbDictionaryWithDefault
340
1D
  0
DICTIONARY
  5
241
102
{ACAD_REACTORS
330
19
102
}
330
19
100
AcDbDictionary
281
     1
  3
A0
350
242
  3
A1
350
243
  3
A2
350
244
  3
A3
350
245
  3
A4
350
246
  3
A5
350
247
  3
A6
350
248
  3
A7
350
249
  3
A8
350
24A
  3
A9
350
24B
  3
B0
350
24C
  3
B1
350
24D
  3
B2
350
24E
  3
B3
350
24F
  3
B4
350
250
  3
B5
350
251
  3
B6
350
252
  3
B7
350
253
  3
B8
350
254
  3
B9
350
255
  3
C0
350
256
  3
C1
350
257
  3
C2
350
258
  3
C3
350
259
  3
C4
350
25A
  3
C5
350
25B
  3
C6
350
25C
  3
C7
350
25D
  3
C8
350
25E
  3
C9
350
25F
  3
D0
350
260
  3
D1
350
261
  3
D2
350
262
  0
DICTIONARY
  5
BC0
102
{ACAD_REACTORS
330
19
102
}
330
19
100
AcDbDictionary
281
     1
  0
DICTIONARY
  5
278
102
{ACAD_REACTORS
330
19
102
}
330
19
100
AcDbDictionary
281
     1
  3
Standard
350
279
  0
DICTIONARY
  5
267
102
{ACAD_REACTORS
330
19
102
}
330
19
100
AcDbDictionary
281
     1
  3
*A1
350
3666
  3
2dWireframe
350
26C
  3
3D Hidden
350
26E
  3
3dWireframe
350
26D
  3
Basic
350
26F
  3
Brighten
350
273
  3
ColorChange
350
277
  3
Conceptual
350
271
  3
Dim
350
272
  3
EdgeColorOff
350
8FE
  3
Facepattern
350
276
  3
Flat
350
268
  3
FlatWithEdges
350
269
  3
Gouraud
350
26A
  3
GouraudWithEdges
350
26B
  3
Hidden
350
8FB
  3
JitterOff
350
8FC
  3
Linepattern
350
275
  3
OverhangOff
350
8FD
  3
Realistic
350
270
  3
Shaded
350
903
  3
Shaded with edges
350
902
  3
Shades of Gray
350
8FF
  3
Sketchy
350
900
  3
Thicken
350
274
  3
Wireframe
350
8FA
  3
X-Ray
350
901
  0
XRECORD
  5
3B5D
102
{ACAD_REACTORS
330
19
102
}
330
19
100
AcDbXrecord
280
     1
 90
        1
330
279
  0
DICTIONARY
  5
330
102
{ACAD_REACTORS
330
19
102
}
330
19
100
AcDbDictionary
281
     1
  3
CANNOSCALE
350
331
  3
CMLEADERSTYLE
350
D5E
  3
CTABLESTYLE
350
335
  3
HPTRANSPARENCY
350
D52
  3
XCLIPFRAME
350
896
  0
DICTIONARY
  5
27A
102
{ACAD_REACTORS
330
19
102
}
330
19
100
AcDbDictionary
281
     1
  0
DICTIONARY
  5
366B
102
{ACAD_REACTORS
330
19
102
}
330
19
100
AcDbDictionary
281
     1
  3
CLEXTENSION
350
36AB
  0
DICTIONARY
  5
E38
102
{ACAD_REACTORS
330
19
102
}
330
19
100
AcDbDictionary
281
     1
  3
DIMRAILANGLE
350
36A9
  3
DIMRAILFIRSTOFFSET
350
36A7
  3
DIMRAILOFFSET
350
36A8
  3
DIMRAILSENABLED
350
36AA
  0
DICTIONARY
  5
2E2
102
{ACAD_REACTORS
330
2E1
102
}
330
2E1
100
AcDbDictionary
281
     1
  0
DICTIONARY
  5
DDE
102
{ACAD_REACTORS
330
2E1
102
}
330
2E1
100
AcDbDictionary
281
     1
1001
ACAD
1000
<All
  0
DICTIONARY
  5
36B2
102
{ACAD_REACTORS
330
36AE
102
}
330
36AE
100
AcDbDictionary
280
     1
281
     1
  3
TEXT
360
36AD
  0
DIMASSOC
  5
3ABB
102
{ACAD_REACTORS
330
3ABA
102
}
330
3ABA
100
AcDbDimAssoc
330
3AB9
 90
        3
 70
     0
 71
     1
  1
AcDbOsnapPointRef
 72
     1
331
3A54
 73
     0
 91
        0
 40
0.0
 10
0.0
 20
0.0
 30
0.0
 75
     0
  1
AcDbOsnapPointRef
 72
     1
331
3A45
 73
     0
 91
        0
 40
0.0
 10
0.0
 20
0.0
 30
0.0
 75
     0
  0
DIMASSOC
  5
3AE7
102
{ACAD_REACTORS
330
3AE6
102
}
330
3AE6
100
AcDbDimAssoc
330
3AE5
 90
        2
 70
     0
 71
     1
  1
AcDbOsnapPointRef
 72
     1
331
39CD
 73
     0
 91
        0
 40
0.0
 10
0.0
 20
0.0
 30
0.0
 75
     0
  0
GROUP
  5
3A26
102
{ACAD_REACTORS
330
1A
102
}
330
1A
100
AcDbGroup
300

 70
     1
 71
     1
340
3A1E
340
3A1C
340
3A23
340
3A1D
  0
GROUP
  5
3A2B
102
{ACAD_REACTORS
330
1A
102
}
330
1A
100
AcDbGroup
300

 70
     1
 71
     1
340
3A27
340
3A28
340
3A29
340
3A2A
  0
IMAGEDEF
  5
39C9
102
{ACAD_REACTORS
330
39C8
102
}
330
39C8
100
AcDbRasterImageDef
 90
        0
  1
K:/DESKTOP/DXF UPDATES/KEV14961010000_480x360.gif
 10
480.0
 20
360.0
 11
0.002083333333333333
 21
0.002083333333333333
280
     1
281
     0
  0
LAYOUT
  5
21
102
{ACAD_REACTORS
330
1E
102
}
330
1E
100
AcDbPlotSettings
  1

  2
none_device
  4
ISO_A3_(420.00_x_297.00_MM)
  6

 40
7.5
 41
20.0
 42
7.5
 43
20.0
 44
420.0
 45
297.0
 46
0.0
 47
0.0
 48
0.0
 49
0.0
140
0.0
141
0.0
142
1.0
143
1.0
 70
     0
 72
     1
 73
     0
 74
     0
  7

 75
     0
 76
     0
 77
     2
 78
   300
147
1.0
148
0.0
149
0.0
100
AcDbLayout
  1
Layout1
 70
     0
 71
     0
 10
-7.5
 20
-20.0
 11
412.5
 21
277.0
 12
0.0
 22
0.0
 32
0.0
 14
0.0
 24
0.0
 34
0.0
 15
0.0
 25
0.0
 35
0.0
146
0.0
 13
0.0
 23
0.0
 33
0.0
 16
0.0
 26
0.0
 36
0.0
 17
0.0
 27
0.0
 37
0.0
 76
     0
330
B
331
349
  0
LAYOUT
  5
20
102
{ACAD_REACTORS
330
1E
102
}
330
1E
100
AcDbPlotSettings
  1

  2
none_device
  4
ISO_A3_(420.00_x_297.00_MM)
  6

 40
7.5
 41
20.0
 42
7.5
 43
20.0
 44
420.0
 45
297.0
 46
0.0
 47
0.0
 48
0.0
 49
0.0
140
0.0
141
0.0
142
1.0
143
1.0
 70
  1024
 72
     1
 73
     0
 74
     0
  7

 75
     0
 76
     0
 77
     2
 78
   300
147
1.0
148
0.0
149
0.0
100
AcDbLayout
  1
Model
 70
     0
 71
     1
 10
0.0
 20
0.0
 11
630.0
 21
891.0
 12
0.0
 22
0.0
 32
0.0
 14
0.0
 24
0.0
 34
0.0
 15
630.0
 25
891.0
 35
0.0
146
0.0
 13
0.0
 23
0.0
 33
0.0
 16
0.0
 26
0.0
 36
0.0
 17
0.0
 27
0.0
 37
0.0
 76
     0
330
A
331
15
  0
MATERIAL
  5
265
102
{ACAD_REACTORS
330
263
102
}
330
263
100
AcDbMaterial
  1
ByBlock
 72
     1
 94
      127
  0
MATERIAL
  5
264
102
{ACAD_REACTORS
330
263
102
}
330
263
100
AcDbMaterial
  1
ByLayer
 72
     1
 94
      127
  0
MATERIAL
  5
266
102
{ACAD_REACTORS
330
263
102
}
330
263
100
AcDbMaterial
  1
Global
 72
     1
 94
      127
  0
MLEADERSTYLE
  5
D59
102
{ACAD_REACTORS
330
336
102
}
330
336
100
AcDbMLeaderStyle
170
     2
171
     1
172
     0
 90
        2
 40
0.0
 41
0.0
173
     1
 91
-1056964608
340
11
 92
       -2
290
     1
 42
2.0
291
     1
 43
8.0
  3
Standard
341
0
 44
4.0
300

342
17
174
     1
178
     6
175
     1
176
     0
 93
-1056964608
 45
4.0
292
     0
297
     0
 46
4.0
343
0
 94
-1056964608
 47
1.0
 49
1.0
140
1.0
293
     1
141
0.0
294
     1
177
     0
142
1.0
295
     0
296
     0
143
3.75
1001
ACAD_MLEADERVER
1070
     2
  0
MLINESTYLE
  5
1C
102
{ACAD_REACTORS
330
1B
102
}
330
1B
100
AcDbMlineStyle
  2
Standard
 70
     0
  3

 62
     0
 51
90.0
 52
90.0
 71
     2
 49
0.5
 62
   256
  6
BYLAYER
 49
-0.5
 62
   256
  6
BYLAYER
  0
ACDBPLACEHOLDER
  5
1D
102
{ACAD_REACTORS
330
1F
102
}
330
1F
  0
SCALE
  5
242
102
{ACAD_REACTORS
330
241
102
}
330
241
100
AcDbScale
 70
     0
300
1:1
140
1.0
141
1.0
290
     1
  0
SCALE
  5
243
102
{ACAD_REACTORS
330
241
102
}
330
241
100
AcDbScale
 70
     0
300
1:2
140
1.0
141
2.0
290
     0
  0
SCALE
  5
244
102
{ACAD_REACTORS
330
241
102
}
330
241
100
AcDbScale
 70
     0
300
1:4
140
1.0
141
4.0
290
     0
  0
SCALE
  5
245
102
{ACAD_REACTORS
330
241
102
}
330
241
100
AcDbScale
 70
     0
300
1:5
140
1.0
141
5.0
290
     0
  0
SCALE
  5
246
102
{ACAD_REACTORS
330
241
102
}
330
241
100
AcDbScale
 70
     0
300
1:8
140
1.0
141
8.0
290
     0
  0
SCALE
  5
247
102
{ACAD_REACTORS
330
241
102
}
330
241
100
AcDbScale
 70
     0
300
1:10
140
1.0
141
10.0
290
     0
  0
SCALE
  5
248
102
{ACAD_REACTORS
330
241
102
}
330
241
100
AcDbScale
 70
     0
300
1:16
140
1.0
141
16.0
290
     0
  0
SCALE
  5
249
102
{ACAD_REACTORS
330
241
102
}
330
241
100
AcDbScale
 70
     0
300
1:20
140
1.0
141
20.0
290
     0
  0
SCALE
  5
24A
102
{ACAD_REACTORS
330
241
102
}
330
241
100
AcDbScale
 70
     0
300
1:30
140
1.0
141
30.0
290
     0
  0
SCALE
  5
24B
102
{ACAD_REACTORS
330
241
102
}
330
241
100
AcDbScale
 70
     0
300
1:40
140
1.0
141
40.0
290
     0
  0
SCALE
  5
24C
102
{ACAD_REACTORS
330
241
102
}
330
241
100
AcDbScale
 70
     0
300
1:50
140
1.0
141
50.0
290
     0
  0
SCALE
  5
24D
102
{ACAD_REACTORS
330
241
102
}
330
241
100
AcDbScale
 70
     0
300
1:100
140
1.0
141
100.0
290
     0
  0
SCALE
  5
24E
102
{ACAD_REACTORS
330
241
102
}
330
241
100
AcDbScale
 70
     0
300
2:1
140
2.0
141
1.0
290
     0
  0
SCALE
  5
24F
102
{ACAD_REACTORS
330
241
102
}
330
241
100
AcDbScale
 70
     0
300
4:1
140
4.0
141
1.0
290
     0
  0
SCALE
  5
250
102
{ACAD_REACTORS
330
241
102
}
330
241
100
AcDbScale
 70
     0
300
8:1
140
8.0
141
1.0
290
     0
  0
SCALE
  5
251
102
{ACAD_REACTORS
330
241
102
}
330
241
100
AcDbScale
 70
     0
300
10:1
140
10.0
141
1.0
290
     0
  0
SCALE
  5
252
102
{ACAD_REACTORS
330
241
102
}
330
241
100
AcDbScale
 70
     0
300
100:1
140
100.0
141
1.0
290
     0
  0
SCALE
  5
253
102
{ACAD_REACTORS
330
241
102
}
330
241
100
AcDbScale
 70
     0
300
1/128" = 1'-0"
140
0.0078125
141
12.0
290
     0
  0
SCALE
  5
254
102
{ACAD_REACTORS
330
241
102
}
330
241
100
AcDbScale
 70
     0
300
1/64" = 1'-0"
140
0.015625
141
12.0
290
     0
  0
SCALE
  5
255
102
{ACAD_REACTORS
330
241
102
}
330
241
100
AcDbScale
 70
     0
300
1/32" = 1'-0"
140
0.03125
141
12.0
290
     0
  0
SCALE
  5
256
102
{ACAD_REACTORS
330
241
102
}
330
241
100
AcDbScale
 70
     0
300
1/16" = 1'-0"
140
0.0625
141
12.0
290
     0
  0
SCALE
  5
257
102
{ACAD_REACTORS
330
241
102
}
330
241
100
AcDbScale
 70
     0
300
3/32" = 1'-0"
140
0.09375
141
12.0
290
     0
  0
SCALE
  5
258
102
{ACAD_REACTORS
330
241
102
}
330
241
100
AcDbScale
 70
     0
300
1/8" = 1'-0"
140
0.125
141
12.0
290
     0
  0
SCALE
  5
259
102
{ACAD_REACTORS
330
241
102
}
330
241
100
AcDbScale
 70
     0
300
3/16" = 1'-0"
140
0.1875
141
12.0
290
     0
  0
SCALE
  5
25A
102
{ACAD_REACTORS
330
241
102
}
330
241
100
AcDbScale
 70
     0
300
1/4" = 1'-0"
140
0.25
141
12.0
290
     0
  0
SCALE
  5
25B
102
{ACAD_REACTORS
330
241
102
}
330
241
100
AcDbScale
 70
     0
300
3/8" = 1'-0"
140
0.375
141
12.0
290
     0
  0
SCALE
  5
25C
102
{ACAD_REACTORS
330
241
102
}
330
241
100
AcDbScale
 70
     0
300
1/2" = 1'-0"
140
0.5
141
12.0
290
     0
  0
SCALE
  5
25D
102
{ACAD_REACTORS
330
241
102
}
330
241
100
AcDbScale
 70
     0
300
3/4" = 1'-0"
140
0.75
141
12.0
290
     0
  0
SCALE
  5
25E
102
{ACAD_REACTORS
330
241
102
}
330
241
100
AcDbScale
 70
     0
300
1" = 1'-0"
140
1.0
141
12.0
290
     0
  0
SCALE
  5
25F
102
{ACAD_REACTORS
330
241
102
}
330
241
100
AcDbScale
 70
     0
300
1-1/2" = 1'-0"
140
1.5
141
12.0
290
     0
  0
SCALE
  5
260
102
{ACAD_REACTORS
330
241
102
}
330
241
100
AcDbScale
 70
     0
300
3" = 1'-0"
140
3.0
141
12.0
290
     0
  0
SCALE
  5
261
102
{ACAD_REACTORS
330
241
102
}
330
241
100
AcDbScale
 70
     0
300
6" = 1'-0"
140
6.0
141
12.0
290
     0
  0
SCALE
  5
262
102
{ACAD_REACTORS
330
241
102
}
330
241
100
AcDbScale
 70
     0
300
1'-0" = 1'-0"
140
12.0
141
12.0
290
     0
  0
TABLESTYLE
  5
279
102
{ACAD_REACTORS
330
278
102
}
102
{ACAD_XDICTIONARY
360
3B5B
102
}
330
278
100
AcDbTableStyle
  3
Standard
 70
     0
 71
     0
 40
0.06
 41
0.06
280
     0
281
     0
  7
Standard
140
4.5
170
     2
 62
     0
 63
   257
283
     0
 90
        4
 91
        0
  1

274
    -2
284
     1
 64
     0
275
    -2
285
     1
 65
     0
276
    -2
286
     1
 66
     0
277
    -2
287
     1
 67
     0
278
    -2
288
     1
 68
     0
279
    -2
289
     1
 69
     0
  7
Standard
140
6.0
170
     5
 62
     0
 63
   257
283
     0
 90
        4
 91
        0
  1

274
    -2
284
     1
 64
     0
275
    -2
285
     1
 65
     0
276
    -2
286
     1
 66
     0
277
    -2
287
     1
 67
     0
278
    -2
288
     1
 68
     0
279
    -2
289
     1
 69
     0
  7
Standard
140
4.5
170
     5
 62
     0
 63
   257
283
     0
 90
        4
 91
        0
  1

274
    -2
284
     1
 64
     0
275
    -2
285
     1
 65
     0
276
    -2
286
     1
 66
     0
277
    -2
287
     1
 67
     0
278
    -2
288
     1
 68
     0
279
    -2
289
     1
 69
     0
  0
VISUALSTYLE
  5
3666
102
{ACAD_REACTORS
330
267
102
}
330
267
100
AcDbVisualStyle
  2
*
 70
    10
 71
     0
 72
     2
 73
     0
 90
        0
 40
-0.6
 41
-30.0
 62
     5
 63
     7
421
 16777215
 74
     1
 91
        4
 64
     7
 65
   257
 75
     1
175
     1
 42
1.0
 92
        8
 66
     7
 43
1.0
 76
     1
 77
     6
 78
     2
 67
     7
 79
     5
170
     0
171
     0
290
     0
174
     0
 93
        1
 44
0.0
173
     0
291
     0
 45
0.0
  0
VISUALSTYLE
  5
26C
102
{ACAD_REACTORS
330
267
102
}
330
267
100
AcDbVisualStyle
  2
2dWireframe
 70
     4
 71
     0
 72
     2
 73
     0
 90
        0
 40
-0.6
 41
-30.0
 62
     5
 63
     7
421
 16777215
 74
     1
 91
        4
 64
     7
 65
   257
 75
     1
175
     1
 42
1.0
 92
        0
 66
   257
 43
1.0
 76
     1
 77
     6
 78
     2
 67
     7
 79
     5
170
     0
171
     0
290
     0
174
     0
 93
        1
 44
0.0
173
     0
291
     0
 45
0.0
  0
VISUALSTYLE
  5
26E
102
{ACAD_REACTORS
330
267
102
}
330
267
100
AcDbVisualStyle
  2
3D Hidden
 70
     6
 71
     1
 72
     2
 73
     2
 90
        0
 40
-0.6
 41
-30.0
 62
     5
 63
     7
421
 16777215
 74
     2
 91
        2
 64
     7
 65
   257
 75
     2
175
     1
 42
40.0
 92
        0
 66
   257
 43
1.0
 76
     1
 77
     6
 78
     2
 67
     7
 79
     3
170
     0
171
     0
290
     0
174
     0
 93
        1
 44
0.0
173
     0
291
     0
 45
0.0
  0
VISUALSTYLE
  5
26D
102
{ACAD_REACTORS
330
267
102
}
330
267
100
AcDbVisualStyle
  2
3dWireframe
 70
     5
 71
     0
 72
     2
 73
     0
 90
        0
 40
-0.6
 41
-30.0
 62
     5
 63
     7
421
 16777215
 74
     1
 91
        4
 64
     7
 65
   257
 75
     1
175
     1
 42
1.0
 92
        0
 66
   257
 43
1.0
 76
     1
 77
     6
 78
     2
 67
     7
 79
     5
170
     0
171
     0
290
     0
174
     0
 93
        1
 44
0.0
173
     0
291
     0
 45
0.0
  0
VISUALSTYLE
  5
26F
102
{ACAD_REACTORS
330
267
102
}
330
267
100
AcDbVisualStyle
  2
Basic
 70
     7
 71
     1
 72
     0
 73
     1
 90
        0
 40
-0.6
 41
-30.0
 62
     5
 63
     7
421
 16777215
 74
     0
 91
        4
 64
     7
 65
   257
 75
     1
175
     1
 42
1.0
 92
        8
 66
     7
 43
1.0
 76
     1
 77
     6
 78
     2
 67
     7
 79
     5
170
     0
171
     0
290
     0
174
     0
 93
        1
 44
0.0
173
     0
291
     1
 45
0.0
  0
VISUALSTYLE
  5
273
102
{ACAD_REACTORS
330
267
102
}
330
267
100
AcDbVisualStyle
  2
Brighten
 70
    12
 71
     2
 72
     2
 73
     0
 90
        0
 40
-0.6
 41
-30.0
 62
     5
 63
     7
421
 16777215
 74
     1
 91
        4
 64
     7
 65
   257
 75
     1
175
     1
 42
1.0
 92
        8
 66
     7
 43
1.0
 76
     1
 77
     6
 78
     2
 67
     7
 79
     5
170
     0
171
     0
290
     0
174
     0
 93
        1
 44
50.0
173
     0
291
     1
 45
0.0
  0
VISUALSTYLE
  5
277
102
{ACAD_REACTORS
330
267
102
}
330
267
100
AcDbVisualStyle
  2
ColorChange
 70
    16
 71
     2
 72
     2
 73
     3
 90
        0
 40
-0.6
 41
-30.0
 62
     5
 63
     8
421
  8421504
 74
     1
 91
        4
 64
     7
 65
   257
 75
     1
175
     1
 42
1.0
 92
        8
 66
     8
424
  8421504
 43
1.0
 76
     1
 77
     6
 78
     2
 67
     7
 79
     5
170
     0
171
     0
290
     0
174
     0
 93
        1
 44
0.0
173
     0
291
     1
 45
0.0
  0
VISUALSTYLE
  5
271
102
{ACAD_REACTORS
330
267
102
}
330
267
100
AcDbVisualStyle
  2
Conceptual
 70
     9
 71
     3
 72
     2
 73
     0
 90
        0
 40
-0.6
 41
-30.0
 62
     5
 63
     7
421
 16777215
 74
     2
 91
        2
 64
     7
 65
   257
 75
     1
175
     1
 42
40.0
 92
        8
 66
     7
 43
1.0
 76
     1
 77
     6
 78
     2
 67
     7
 79
     3
170
     0
171
     0
290
     0
174
     0
 93
        1
 44
0.0
173
     0
291
     0
 45
0.0
  0
VISUALSTYLE
  5
272
102
{ACAD_REACTORS
330
267
102
}
330
267
100
AcDbVisualStyle
  2
Dim
 70
    11
 71
     2
 72
     2
 73
     0
 90
        0
 40
-0.6
 41
-30.0
 62
     5
 63
     7
421
 16777215
 74
     1
 91
        4
 64
     7
 65
   257
 75
     1
175
     1
 42
1.0
 92
        8
 66
     7
 43
1.0
 76
     1
 77
     6
 78
     2
 67
     7
 79
     5
170
     0
171
     0
290
     0
174
     0
 93
        1
 44
-50.0
173
     0
291
     1
 45
0.0
  0
VISUALSTYLE
  5
8FE
102
{ACAD_REACTORS
330
267
102
}
330
267
100
AcDbVisualStyle
  2
EdgeColorOff
 70
    22
 71
     2
 72
     2
 73
     0
 90
        0
 40
0.6
 41
30.0
 62
     5
 63
     7
421
 16777215
 74
     1
 91
        4
 64
     7
 65
   257
 75
     1
175
     1
 42
1.0
 92
        8
 66
     7
 43
1.0
 76
     1
 77
     6
 78
     2
 67
     7
 79
     5
170
     0
171
     0
290
     0
174
     0
 93
        1
 44
0.0
173
     0
291
     1
 45
0.0
  0
VISUALSTYLE
  5
276
102
{ACAD_REACTORS
330
267
102
}
330
267
100
AcDbVisualStyle
  2
Facepattern
 70
    15
 71
     2
 72
     2
 73
     0
 90
        0
 40
-0.6
 41
-30.0
 62
     5
 63
     7
421
 16777215
 74
     1
 91
        4
 64
     7
 65
   257
 75
     1
175
     1
 42
1.0
 92
        8
 66
     7
 43
1.0
 76
     1
 77
     6
 78
     2
 67
     7
 79
     5
170
     0
171
     0
290
     0
174
     0
 93
        1
 44
0.0
173
     0
291
     1
 45
0.0
  0
VISUALSTYLE
  5
268
102
{ACAD_REACTORS
330
267
102
}
330
267
100
AcDbVisualStyle
  2
Flat
 70
     0
 71
     2
 72
     1
 73
     1
 90
        2
 40
-0.6
 41
30.0
 62
     5
 63
     7
421
 16777215
 74
     0
 91
        4
 64
     7
 65
   257
 75
     1
175
     1
 42
1.0
 92
        8
 66
     7
 43
1.0
 76
     1
 77
     6
 78
     2
 67
     7
 79
     5
170
     0
171
     0
290
     0
174
     0
 93
       13
 44
0.0
173
     0
291
     1
 45
0.0
  0
VISUALSTYLE
  5
269
102
{ACAD_REACTORS
330
267
102
}
330
267
100
AcDbVisualStyle
  2
FlatWithEdges
 70
     1
 71
     2
 72
     1
 73
     1
 90
        2
 40
-0.6
 41
30.0
 62
     5
 63
     7
421
 16777215
 74
     1
 91
        4
 64
     7
 65
   257
 75
     1
175
     1
 42
1.0
 92
        0
 66
   257
 43
1.0
 76
     1
 77
     6
 78
     2
 67
     7
 79
     5
170
     0
171
     0
290
     0
174
     0
 93
       13
 44
0.0
173
     0
291
     1
 45
0.0
  0
VISUALSTYLE
  5
26A
102
{ACAD_REACTORS
330
267
102
}
330
267
100
AcDbVisualStyle
  2
Gouraud
 70
     2
 71
     2
 72
     2
 73
     1
 90
        2
 40
-0.6
 41
30.0
 62
     5
 63
     7
421
 16777215
 74
     0
 91
        4
 64
     7
 65
   257
 75
     1
175
     1
 42
1.0
 92
        0
 66
     7
 43
1.0
 76
     1
 77
     6
 78
     2
 67
     7
 79
     5
170
     0
171
     0
290
     0
174
     0
 93
       13
 44
0.0
173
     0
291
     1
 45
0.0
  0
VISUALSTYLE
  5
26B
102
{ACAD_REACTORS
330
267
102
}
330
267
100
AcDbVisualStyle
  2
GouraudWithEdges
 70
     3
 71
     2
 72
     2
 73
     1
 90
        2
 40
-0.6
 41
30.0
 62
     5
 63
     7
421
 16777215
 74
     1
 91
        4
 64
     7
 65
   257
 75
     1
175
     1
 42
1.0
 92
        0
 66
   257
 43
1.0
 76
     1
 77
     6
 78
     2
 67
     7
 79
     5
170
     0
171
     0
290
     0
174
     0
 93
       13
 44
0.0
173
     0
291
     1
 45
0.0
  0
VISUALSTYLE
  5
8FB
102
{ACAD_REACTORS
330
267
102
}
330
267
100
AcDbVisualStyle
  2
Hidden
 70
     6
 71
     1
 72
     2
 73
     2
 90
        0
 40
0.6
 41
30.0
 62
     5
 63
     7
421
 16777215
 74
     2
 91
        2
 64
     7
 65
   257
 75
     2
175
     1
 42
40.0
 92
        0
 66
   257
 43
1.0
 76
     1
 77
     6
 78
     2
 67
     7
 79
     3
170
     0
171
     0
290
     0
174
     0
 93
        1
 44
0.0
173
     0
291
     0
 45
0.0
  0
VISUALSTYLE
  5
8FC
102
{ACAD_REACTORS
330
267
102
}
330
267
100
AcDbVisualStyle
  2
JitterOff
 70
    20
 71
     2
 72
     2
 73
     0
 90
        0
 40
0.6
 41
30.0
 62
     5
 63
     7
421
 16777215
 74
     1
 91
        4
 64
     7
 65
   257
 75
     1
175
     1
 42
1.0
 92
       10
 66
     7
 43
1.0
 76
     1
 77
     6
 78
     2
 67
     7
 79
     5
170
     0
171
     0
290
     0
174
     0
 93
        1
 44
0.0
173
     0
291
     1
 45
0.0
  0
VISUALSTYLE
  5
275
102
{ACAD_REACTORS
330
267
102
}
330
267
100
AcDbVisualStyle
  2
Linepattern
 70
    14
 71
     2
 72
     2
 73
     0
 90
        0
 40
-0.6
 41
-30.0
 62
     5
 63
     7
421
 16777215
 74
     1
 91
        4
 64
     7
 65
   257
 75
     7
175
     7
 42
1.0
 92
        8
 66
     7
 43
1.0
 76
     1
 77
     6
 78
     2
 67
     7
 79
     5
170
     0
171
     0
290
     0
174
     0
 93
        1
 44
0.0
173
     0
291
     1
 45
0.0
  0
VISUALSTYLE
  5
8FD
102
{ACAD_REACTORS
330
267
102
}
330
267
100
AcDbVisualStyle
  2
OverhangOff
 70
    21
 71
     2
 72
     2
 73
     0
 90
        0
 40
0.6
 41
30.0
 62
     5
 63
     7
421
 16777215
 74
     1
 91
        4
 64
     7
 65
   257
 75
     1
175
     1
 42
1.0
 92
        9
 66
     7
 43
1.0
 76
     1
 77
     6
 78
     2
 67
     7
 79
     5
170
     0
171
     0
290
     0
174
     0
 93
        1
 44
0.0
173
     0
291
     1
 45
0.0
  0
VISUALSTYLE
  5
270
102
{ACAD_REACTORS
330
267
102
}
330
267
100
AcDbVisualStyle
  2
Realistic
 70
     8
 71
     2
 72
     2
 73
     0
 90
        0
 40
-0.6
 41
-30.0
 62
     5
 63
     7
421
 16777215
 74
     1
 91
        0
 64
     7
 65
   257
 75
     1
175
     1
 42
1.0
 92
        8
 66
     8
424
  7895160
 43
1.0
 76
     1
 77
     6
 78
     2
 67
     7
 79
     5
170
     0
171
     0
290
     0
174
     0
 93
       13
 44
0.0
173
     0
291
     0
 45
0.0
  0
VISUALSTYLE
  5
903
102
{ACAD_REACTORS
330
267
102
}
330
267
100
AcDbVisualStyle
  2
Shaded
 70
    27
 71
     2
 72
     2
 73
     1
 90
        2
 40
0.6
 41
30.0
 62
     5
 63
     7
421
 16777215
 74
     0
 91
        4
 64
     7
 65
   257
 75
     1
175
     1
 42
1.0
 92
        8
 66
   257
 43
1.0
 76
     1
 77
     6
 78
     2
 67
     8
425
  7895160
 79
     3
170
     0
171
     0
290
     0
174
     0
 93
        5
 44
0.0
173
     0
291
     0
 45
0.0
  0
VISUALSTYLE
  5
902
102
{ACAD_REACTORS
330
267
102
}
330
267
100
AcDbVisualStyle
  2
Shaded with edges
 70
    26
 71
     2
 72
     2
 73
     1
 90
        2
 40
0.6
 41
30.0
 62
     5
 63
     7
421
 16777215
 74
     1
 91
       10
 64
     7
 65
   257
 75
     2
175
     1
 42
1.0
 92
        8
 66
   257
 43
1.0
 76
     1
 77
     6
 78
     2
 67
     7
 79
     3
170
     0
171
     0
290
     0
174
     0
 93
        5
 44
0.0
173
     0
291
     0
 45
0.0
  0
VISUALSTYLE
  5
8FF
102
{ACAD_REACTORS
330
267
102
}
330
267
100
AcDbVisualStyle
  2
Shades of Gray
 70
    23
 71
     2
 72
     2
 73
     3
 90
        0
 40
0.6
 41
30.0
 62
     5
 63
     7
421
 16777215
 74
     2
 91
        2
 64
     7
 65
     7
 75
     1
175
     1
 42
40.0
 92
        8
 66
     7
 43
1.0
 76
     1
 77
     6
 78
     2
 67
     7
 79
     3
170
     0
171
     0
290
     0
174
     0
 93
        1
 44
0.0
173
     0
291
     0
 45
0.0
  0
VISUALSTYLE
  5
900
102
{ACAD_REACTORS
330
267
102
}
330
267
100
AcDbVisualStyle
  2
Sketchy
 70
    24
 71
     1
 72
     2
 73
     2
 90
        0
 40
0.6
 41
30.0
 62
     5
 63
     7
421
 16777215
 74
     2
 91
        2
 64
     7
 65
     7
 75
     1
175
     1
 42
40.0
 92
       11
 66
     7
 43
1.0
 76
     1
 77
     6
 78
     2
 67
     7
 79
     6
170
     0
171
     0
290
     0
174
     0
 93
        1
 44
0.0
173
     0
291
     0
 45
0.0
  0
VISUALSTYLE
  5
274
102
{ACAD_REACTORS
330
267
102
}
330
267
100
AcDbVisualStyle
  2
Thicken
 70
    13
 71
     2
 72
     2
 73
     0
 90
        0
 40
-0.6
 41
-30.0
 62
     5
 63
     7
421
 16777215
 74
     1
 91
        4
 64
     7
 65
   257
 75
     1
175
     1
 42
1.0
 92
       12
 66
     7
 43
1.0
 76
     1
 77
     6
 78
     2
 67
     7
 79
     5
170
     0
171
     0
290
     0
174
     0
 93
        1
 44
0.0
173
     0
291
     1
 45
0.0
  0
VISUALSTYLE
  5
8FA
102
{ACAD_REACTORS
330
267
102
}
330
267
100
AcDbVisualStyle
  2
Wireframe
 70
     5
 71
     0
 72
     2
 73
     0
 90
        0
 40
0.6
 41
30.0
 62
     5
 63
     7
421
 16777215
 74
     1
 91
        4
 64
     7
 65
   257
 75
     1
175
     1
 42
1.0
 92
        0
 66
   257
 43
1.0
 76
     1
 77
     6
 78
     2
 67
     7
 79
     3
170
     0
171
     0
290
     0
174
     0
 93
        1
 44
0.0
173
     0
291
     0
 45
0.0
  0
VISUALSTYLE
  5
901
102
{ACAD_REACTORS
330
267
102
}
330
267
100
AcDbVisualStyle
  2
X-Ray
 70
    25
 71
     2
 72
     2
 73
     1
 90
        1
 40
0.5
 41
30.0
 62
     5
 63
     7
421
 16777215
 74
     1
 91
        0
 64
     7
 65
   257
 75
     1
175
     1
 42
1.0
 92
        8
 66
     7
 43
1.0
 76
     1
 77
     6
 78
     2
 67
     7
 79
     3
170
     0
171
     0
290
     0
174
     0
 93
       13
 44
0.0
173
     0
291
     0
 45
0.0
  0
DICTIONARYVAR
  5
331
102
{ACAD_REACTORS
330
330
102
}
330
330
100
DictionaryVariables
280
     0
  1
1:1
  0
DICTIONARYVAR
  5
D5E
102
{ACAD_REACTORS
330
330
102
}
330
330
100
DictionaryVariables
280
     0
  1
Standard
  0
DICTIONARYVAR
  5
335
102
{ACAD_REACTORS
330
330
102
}
330
330
100
DictionaryVariables
280
     0
  1
Standard
  0
DICTIONARYVAR
  5
D52
102
{ACAD_REACTORS
330
330
102
}
330
330
100
DictionaryVariables
280
     0
  1
ByLayer
  0
DICTIONARYVAR
  5
896
102
{ACAD_REACTORS
330
330
102
}
330
330
100
DictionaryVariables
280
     0
  1
0
  0
DICTIONARYVAR
  5
36AB
102
{ACAD_REACTORS
330
366B
102
}
330
366B
100
DictionaryVariables
280
     0
  1
0.250000
  0
DICTIONARYVAR
  5
36A9
102
{ACAD_REACTORS
330
E38
102
}
330
E38
100
DictionaryVariables
280
     0
  1
0.261799
  0
DICTIONARYVAR
  5
36A7
102
{ACAD_REACTORS
330
E38
102
}
330
E38
100
DictionaryVariables
280
     0
  1
0.400000
  0
DICTIONARYVAR
  5
36A8
102
{ACAD_REACTORS
330
E38
102
}
330
E38
100
DictionaryVariables
280
     0
  1
0.250000
  0
DICTIONARYVAR
  5
36AA
102
{ACAD_REACTORS
330
E38
102
}
330
E38
100
DictionaryVariables
280
     0
  1
1
  0
FIELD
  5
36AD
102
{ACAD_REACTORS
330
36B2
102
}
330
36B2
100
AcDbField
  1
_text
  2
{%<\_FldIdx 0>%N}
 90
        1
360
36B1
 97
        0
 91
       63
 92
        0
 94
        8
 95
        2
 96
        0
300

 93
        1
  6
ACFD_FIELDTEXT_CHECKSUM
 93
        2
 90
        2
140
4534.0
 94
        0
300

302

304
ACVALUE_END
  7
ACFD_FIELD_VALUE
 93
        6
 90
        4
  1
{20170724N}
 94
        0
300

302

304
ACVALUE_END
301
{20170724N}
 98
       11
  0
DICTIONARY
  5
3B5B
330
279
100
AcDbDictionary
280
     1
281
     1
  3
ACAD_ROUNDTRIP_2008_TABLESTYLE_CELLSTYLEMAP
360
3B5C
  0
FIELD
  5
36B1
330
36AD
100
AcDbField
  1
AcVar
  2
\AcVar Date \f "yyyyMMdd"
 90
        0
 97
        0
 91
       63
 92
        0
 94
        8
 95
        2
 96
        0
300

 93
        1
  6
Variable
 93
        2
 90
        4
  1
Date
 94
        0
300

302

304
ACVALUE_END
  7
ACFD_FIELD_VALUE
 93
        6
 90
        8
 92
       16
310
E1070700000018000E00300033000000
 94
        0
300
yyyyMMdd
302

304
ACVALUE_END
301
20170724
 98
        8
  0
CELLSTYLEMAP
  5
3B5C
102
{ACAD_REACTORS
330
3B5B
102
}
330
3B5B
100
AcDbCellStyleMap
 90
        3
300
CELLSTYLE
  1
TABLEFORMAT_BEGIN
 90
        5
170
     1
 91
        0
 92
    32768
 62
   257
 93
        1
300
CONTENTFORMAT
  1
CONTENTFORMAT_BEGIN
 90
        0
 91
        0
 92
        4
 93
        0
300

 40
0.0
140
1.0
 94
        5
 62
     0
340
17
144
6.0
309
CONTENTFORMAT_END
171
     1
301
MARGIN
  1
CELLMARGIN_BEGIN
 40
0.06
 40
0.06
 40
0.06
 40
0.06
 40
0.18
 40
0.18
309
CELLMARGIN_END
 94
        6
 95
        1
302
GRIDFORMAT
  1
GRIDFORMAT_BEGIN
 90
        0
 91
        1
 62
     0
 92
       -2
340
0
 93
        0
 40
0.045
309
GRIDFORMAT_END
 95
        2
302
GRIDFORMAT
  1
GRIDFORMAT_BEGIN
 90
        0
 91
        1
 62
     0
 92
       -2
340
0
 93
        0
 40
0.045
309
GRIDFORMAT_END
 95
        4
302
GRIDFORMAT
  1
GRIDFORMAT_BEGIN
 90
        0
 91
        1
 62
     0
 92
       -2
340
0
 93
        0
 40
0.045
309
GRIDFORMAT_END
 95
        8
302
GRIDFORMAT
  1
GRIDFORMAT_BEGIN
 90
        0
 91
        1
 62
     0
 92
       -2
340
0
 93
        0
 40
0.045
309
GRIDFORMAT_END
 95
       16
302
GRIDFORMAT
  1
GRIDFORMAT_BEGIN
 90
        0
 91
        1
 62
     0
 92
       -2
340
0
 93
        0
 40
0.045
309
GRIDFORMAT_END
 95
       32
302
GRIDFORMAT
  1
GRIDFORMAT_BEGIN
 90
        0
 91
        1
 62
     0
 92
       -2
340
0
 93
        0
 40
0.045
309
GRIDFORMAT_END
309
TABLEFORMAT_END
  1
CELLSTYLE_BEGIN
 90
        1
 91
        1
300
_TITLE
309
CELLSTYLE_END
300
CELLSTYLE
  1
TABLEFORMAT_BEGIN
 90
        5
170
     1
 91
        0
 92
        0
 62
   257
 93
        1
300
CONTENTFORMAT
  1
CONTENTFORMAT_BEGIN
 90
        0
 91
        0
 92
        4
 93
        0
300

 40
0.0
140
1.0
 94
        5
 62
     0
340
17
144
4.5
309
CONTENTFORMAT_END
171
     1
301
MARGIN
  1
CELLMARGIN_BEGIN
 40
0.06
 40
0.06
 40
0.06
 40
0.06
 40
0.18
 40
0.18
309
CELLMARGIN_END
 94
        6
 95
        1
302
GRIDFORMAT
  1
GRIDFORMAT_BEGIN
 90
        0
 91
        1
 62
     0
 92
       -2
340
0
 93
        0
 40
0.045
309
GRIDFORMAT_END
 95
        2
302
GRIDFORMAT
  1
GRIDFORMAT_BEGIN
 90
        0
 91
        1
 62
     0
 92
       -2
340
0
 93
        0
 40
0.045
309
GRIDFORMAT_END
 95
        4
302
GRIDFORMAT
  1
GRIDFORMAT_BEGIN
 90
        0
 91
        1
 62
     0
 92
       -2
340
0
 93
        0
 40
0.045
309
GRIDFORMAT_END
 95
        8
302
GRIDFORMAT
  1
GRIDFORMAT_BEGIN
 90
        0
 91
        1
 62
     0
 92
       -2
340
0
 93
        0
 40
0.045
309
GRIDFORMAT_END
 95
       16
302
GRIDFORMAT
  1
GRIDFORMAT_BEGIN
 90
        0
 91
        1
 62
     0
 92
       -2
340
0
 93
        0
 40
0.045
309
GRIDFORMAT_END
 95
       32
302
GRIDFORMAT
  1
GRIDFORMAT_BEGIN
 90
        0
 91
        1
 62
     0
 92
       -2
340
0
 93
        0
 40
0.045
309
GRIDFORMAT_END
309
TABLEFORMAT_END
  1
CELLSTYLE_BEGIN
 90
        2
 91
        1
300
_HEADER
309
CELLSTYLE_END
300
CELLSTYLE
  1
TABLEFORMAT_BEGIN
 90
        5
170
     1
 91
        0
 92
        0
 62
   257
 93
        1
300
CONTENTFORMAT
  1
CONTENTFORMAT_BEGIN
 90
        0
 91
        0
 92
        4
 93
        0
300

 40
0.0
140
1.0
 94
        2
 62
     0
340
17
144
4.5
309
CONTENTFORMAT_END
171
     1
301
MARGIN
  1
CELLMARGIN_BEGIN
 40
0.06
 40
0.06
 40
0.06
 40
0.06
 40
0.18
 40
0.18
309
CELLMARGIN_END
 94
        6
 95
        1
302
GRIDFORMAT
  1
GRIDFORMAT_BEGIN
 90
        0
 91
        1
 62
     0
 92
       -2
340
0
 93
        0
 40
0.045
309
GRIDFORMAT_END
 95
        2
302
GRIDFORMAT
  1
GRIDFORMAT_BEGIN
 90
        0
 91
        1
 62
     0
 92
       -2
340
0
 93
        0
 40
0.045
309
GRIDFORMAT_END
 95
        4
302
GRIDFORMAT
  1
GRIDFORMAT_BEGIN
 90
        0
 91
        1
 62
     0
 92
       -2
340
0
 93
        0
 40
0.045
309
GRIDFORMAT_END
 95
        8
302
GRIDFORMAT
  1
GRIDFORMAT_BEGIN
 90
        0
 91
        1
 62
     0
 92
       -2
340
0
 93
        0
 40
0.045
309
GRIDFORMAT_END
 95
       16
302
GRIDFORMAT
  1
GRIDFORMAT_BEGIN
 90
        0
 91
        1
 62
     0
 92
       -2
340
0
 93
        0
 40
0.045
309
GRIDFORMAT_END
 95
       32
302
GRIDFORMAT
  1
GRIDFORMAT_BEGIN
 90
        0
 91
        1
 62
     0
 92
       -2
340
0
 93
        0
 40
0.045
309
GRIDFORMAT_END
309
TABLEFORMAT_END
  1
CELLSTYLE_BEGIN
 90
        3
 91
        2
300
_DATA
309
CELLSTYLE_END
  0
ENDSEC
  0
EOF
