  0
SECTION
  2
HEADER
  9
$ACADVER
  1
AC1021
  9
$ACADMAINTVER
 70
    25
  9
$DWGCODEPAGE
  3
ANSI_932
  9
$LASTSAVEDBY
  1
tform
  9
$INSBASE
 10
0.0
 20
0.0
 30
0.0
  9
$EXTMIN
 10
0.0
 20
0.0
 30
-0.0000000000000071
  9
$EXTMAX
 10
420.0
 20
594.0
 30
0.0000000000000071
  9
$LIMMIN
 10
0.0
 20
0.0
  9
$LIMMAX
 10
420.0
 20
594.0
  9
$ORTHOMODE
 70
     1
  9
$REGENMODE
 70
     1
  9
$FILLMODE
 70
     1
  9
$QTEXTMODE
 70
     0
  9
$MIRRTEXT
 70
     1
  9
$LTSCALE
 40
1.0
  9
$ATTMODE
 70
     1
  9
$TEXTSIZE
 40
2.5
  9
$TRACEWID
 40
1.0
  9
$TEXTSTYLE
  7
ＭＳ ゴシック
  9
$CLAYER
  8
MODEL
  9
$CELTYPE
  6
ByLayer
  9
$CECOLOR
 62
   256
  9
$CELTSCALE
 40
1.0
  9
$DISPSILH
 70
     0
  9
$DIMSCALE
 40
1.0
  9
$DIMASZ
 40
2.0
  9
$DIMEXO
 40
5.0
  9
$DIMDLI
 40
0.9999999999999999
  9
$DIMRND
 40
0.0
  9
$DIMDLE
 40
0.0
  9
$DIMEXE
 40
0.0
  9
$DIMTP
 40
0.0
  9
$DIMTM
 40
0.0
  9
$DIMTXT
 40
5.0
  9
$DIMCEN
 40
0.0
  9
$DIMTSZ
 40
0.0
  9
$DIMTOL
 70
     0
  9
$DIMLIM
 70
     0
  9
$DIMTIH
 70
     0
  9
$DIMTOH
 70
     0
  9
$DIMSE1
 70
     0
  9
$DIMSE2
 70
     0
  9
$DIMTAD
 70
     1
  9
$DIMZIN
 70
    11
  9
$DIMBLK
  1
DOT
  9
$DIMASO
 70
     1
  9
$DIMSHO
 70
     1
  9
$DIMPOST
  1
<>
  9
$DIMAPOST
  1
[]
  9
$DIMALT
 70
     0
  9
$DIMALTD
 70
     1
  9
$DIMALTF
 40
1.0
  9
$DIMLFAC
 40
1.0
  9
$DIMTOFL
 70
     0
  9
$DIMTVP
 40
0.0
  9
$DIMTIX
 70
     1
  9
$DIMSOXD
 70
     0
  9
$DIMSAH
 70
     0
  9
$DIMBLK1
  1

  9
$DIMBLK2
  1

  9
$DIMSTYLE
  2
tfrom線あり
  9
$DIMCLRD
 70
     0
  9
$DIMCLRE
 70
     0
  9
$DIMCLRT
 70
     0
  9
$DIMTFAC
 40
1.0
  9
$DIMGAP
 40
3.0
  9
$DIMJUST
 70
     0
  9
$DIMSD1
 70
     0
  9
$DIMSD2
 70
     0
  9
$DIMTOLJ
 70
     1
  9
$DIMTZIN
 70
    11
  9
$DIMALTZ
 70
    11
  9
$DIMALTTZ
 70
    11
  9
$DIMUPT
 70
     0
  9
$DIMDEC
 70
     0
  9
$DIMTDEC
 70
     1
  9
$DIMALTU
 70
     2
  9
$DIMALTTD
 70
     2
  9
$DIMTXSTY
  7
ＭＳ ゴシック
  9
$DIMAUNIT
 70
     0
  9
$DIMADEC
 70
     2
  9
$DIMALTRND
 40
0.0
  9
$DIMAZIN
 70
     0
  9
$DIMDSEP
 70
    46
  9
$DIMATFIT
 70
     0
  9
$DIMFRAC
 70
     2
  9
$DIMLDRBLK
  1
DOT
  9
$DIMLUNIT
 70
     2
  9
$DIMLWD
 70
    -2
  9
$DIMLWE
 70
    -2
  9
$DIMTMOVE
 70
     0
  9
$DIMFXL
 40
1.0
  9
$DIMFXLON
 70
     0
  9
$DIMJOGANG
 40
0.7853981633974483
  9
$DIMTFILL
 70
     0
  9
$DIMTFILLCLR
 70
     0
  9
$DIMARCSYM
 70
     0
  9
$DIMLTYPE
  6

  9
$DIMLTEX1
  6

  9
$DIMLTEX2
  6

  9
$LUNITS
 70
     2
  9
$LUPREC
 70
     0
  9
$SKETCHINC
 40
0.1
  9
$FILLETRAD
 40
0.0
  9
$AUNITS
 70
     0
  9
$AUPREC
 70
     0
  9
$MENU
  1
acad
  9
$ELEVATION
 40
0.0
  9
$PELEVATION
 40
0.0
  9
$THICKNESS
 40
0.0
  9
$LIMCHECK
 70
     0
  9
$CHAMFERA
 40
0.0
  9
$CHAMFERB
 40
0.0
  9
$CHAMFERC
 40
0.0
  9
$CHAMFERD
 40
0.0
  9
$SKPOLY
 70
     0
  9
$TDCREATE
 40
2447893.375
  9
$TDUCREATE
 40
0.0
  9
$TDUPDATE
 40
2459657.58469963
  9
$TDUUPDATE
 40
2459657.20969963
  9
$TDINDWG
 40
0.1438087616
  9
$TDUSRTIMER
 40
0.0037878472
  9
$USRTIMER
 70
     1
  9
$ANGBASE
 50
0.0
  9
$ANGDIR
 70
     0
  9
$PDMODE
 70
     1
  9
$PDSIZE
 40
-2.0
  9
$PLINEWID
 40
0.0
  9
$SPLFRAME
 70
     0
  9
$SPLINETYPE
 70
     6
  9
$SPLINESEGS
 70
     8
  9
$HANDSEED
  5
4511
  9
$SURFTAB1
 70
     6
  9
$SURFTAB2
 70
     6
  9
$SURFTYPE
 70
     6
  9
$SURFU
 70
     6
  9
$SURFV
 70
     6
  9
$UCSBASE
  2

  9
$UCSNAME
  2

  9
$UCSORG
 10
0.0
 20
0.0
 30
0.0
  9
$UCSXDIR
 10
1.0
 20
0.0
 30
0.0
  9
$UCSYDIR
 10
0.0
 20
1.0
 30
0.0
  9
$UCSORTHOREF
  2

  9
$UCSORTHOVIEW
 70
     0
  9
$UCSORGTOP
 10
0.0
 20
0.0
 30
0.0
  9
$UCSORGBOTTOM
 10
0.0
 20
0.0
 30
0.0
  9
$UCSORGLEFT
 10
0.0
 20
0.0
 30
0.0
  9
$UCSORGRIGHT
 10
0.0
 20
0.0
 30
0.0
  9
$UCSORGFRONT
 10
0.0
 20
0.0
 30
0.0
  9
$UCSORGBACK
 10
0.0
 20
0.0
 30
0.0
  9
$PUCSBASE
  2

  9
$PUCSNAME
  2

  9
$PUCSORG
 10
0.0
 20
0.0
 30
0.0
  9
$PUCSXDIR
 10
1.0
 20
0.0
 30
0.0
  9
$PUCSYDIR
 10
0.0
 20
1.0
 30
0.0
  9
$PUCSORTHOREF
  2

  9
$PUCSORTHOVIEW
 70
     0
  9
$PUCSORGTOP
 10
0.0
 20
0.0
 30
0.0
  9
$PUCSORGBOTTOM
 10
0.0
 20
0.0
 30
0.0
  9
$PUCSORGLEFT
 10
0.0
 20
0.0
 30
0.0
  9
$PUCSORGRIGHT
 10
0.0
 20
0.0
 30
0.0
  9
$PUCSORGFRONT
 10
0.0
 20
0.0
 30
0.0
  9
$PUCSORGBACK
 10
0.0
 20
0.0
 30
0.0
  9
$USERI1
 70
     0
  9
$USERI2
 70
     0
  9
$USERI3
 70
     0
  9
$USERI4
 70
     0
  9
$USERI5
 70
     0
  9
$USERR1
 40
0.0
  9
$USERR2
 40
0.0
  9
$USERR3
 40
0.0
  9
$USERR4
 40
0.0
  9
$USERR5
 40
0.0
  9
$WORLDVIEW
 70
     1
  9
$SHADEDGE
 70
     3
  9
$SHADEDIF
 70
    70
  9
$TILEMODE
 70
     1
  9
$MAXACTVP
 70
    64
  9
$PINSBASE
 10
0.0
 20
0.0
 30
0.0
  9
$PLIMCHECK
 70
     0
  9
$PEXTMIN
 10
0.0
 20
0.0
 30
0.0
  9
$PEXTMAX
 10
0.0
 20
0.0
 30
0.0
  9
$PLIMMIN
 10
-7.5
 20
-20.0
  9
$PLIMMAX
 10
412.5
 20
277.0
  9
$UNITMODE
 70
     0
  9
$VISRETAIN
 70
     0
  9
$PLINEGEN
 70
     1
  9
$PSLTSCALE
 70
     0
  9
$TREEDEPTH
 70
  3020
  9
$CMLSTYLE
  2
Standard
  9
$CMLJUST
 70
     0
  9
$CMLSCALE
 40
1.0
  9
$PROXYGRAPHICS
 70
     0
  9
$MEASUREMENT
 70
     1
  9
$CELWEIGHT
370
    -1
  9
$ENDCAPS
280
     0
  9
$JOINSTYLE
280
     0
  9
$LWDISPLAY
290
     1
  9
$INSUNITS
 70
     4
  9
$HYPERLINKBASE
  1

  9
$STYLESHEET
  1

  9
$XEDIT
290
     1
  9
$CEPSNTYPE
380
     0
  9
$PSTYLEMODE
290
     1
  9
$FINGERPRINTGUID
  2

  9
$VERSIONGUID
  2

  9
$EXTNAMES
290
     1
  9
$PSVPSCALE
 40
0.0
  9
$OLESTARTUP
290
     0
  9
$SORTENTS
280
   127
  9
$INDEXCTL
280
     0
  9
$HIDETEXT
280
     1
  9
$XCLIPFRAME
290
     0
  9
$HALOGAP
280
     0
  9
$OBSCOLOR
 70
   257
  9
$OBSLTYPE
280
     0
  9
$INTERSECTIONDISPLAY
280
     0
  9
$INTERSECTIONCOLOR
 70
   257
  9
$DIMASSOC
280
     2
  9
$PROJECTNAME
  1

  9
$CAMERADISPLAY
290
     0
  9
$LENSLENGTH
 40
50.0
  9
$CAMERAHEIGHT
 40
0.0
  9
$STEPSPERSEC
 40
2.0
  9
$STEPSIZE
 40
6.0
  9
$3DDWFPREC
 40
2.0
  9
$PSOLWIDTH
 40
0.25
  9
$PSOLHEIGHT
 40
4.0
  9
$LOFTANG1
 40
1.570796326794897
  9
$LOFTANG2
 40
1.570796326794897
  9
$LOFTMAG1
 40
0.0
  9
$LOFTMAG2
 40
0.0
  9
$LOFTPARAM
 70
     7
  9
$LOFTNORMALS
280
     1
  9
$LATITUDE
 40
37.795
  9
$LONGITUDE
 40
-122.394
  9
$NORTHDIRECTION
 40
0.0
  9
$TIMEZONE
 70
 -8000
  9
$LIGHTGLYPHDISPLAY
280
     1
  9
$TILEMODELIGHTSYNCH
280
     1
  9
$SOLIDHIST
280
     1
  9
$SHOWHIST
280
     1
  9
$DWFFRAME
280
     2
  9
$DGNFRAME
280
     2
  9
$REALWORLDSCALE
290
     1
  9
$INTERFERECOLOR
 62
   256
  9
$CSHADOW
280
     0
  9
$SHADOWPLANELOCATION
 40
0.0
  0
ENDSEC
  0
SECTION
  2
CLASSES
  0
CLASS
  1
LWPOLYLINE
  2
AcDbPolyline
  3
ObjectDBX Classes
 90
        0
 91
        1
280
     0
281
     1
  0
CLASS
  1
IMAGE
  2
AcDbRasterImage
  3
ISM
 90
      127
 91
        4
280
     0
281
     1
  0
CLASS
  1
OLE2FRAME
  2
AcDbOle2Frame
  3
ObjectDBX Classes
 90
        0
 91
        1
280
     0
281
     1
  0
CLASS
  1
HATCH
  2
AcDbHatch
  3
ObjectDBX Classes
 90
        0
 91
        1
280
     0
281
     1
  0
CLASS
  1
DICTIONARYVAR
  2
AcDbDictionaryVar
  3
ObjectDBX Classes
 90
        0
 91
        3
280
     0
281
     0
  0
CLASS
  1
RASTERVARIABLES
  2
AcDbRasterVariables
  3
ISM
 90
        0
 91
        3
280
     0
281
     0
  0
CLASS
  1
IMAGEDEF
  2
AcDbRasterImageDef
  3
ISM
 90
        0
 91
        3
280
     0
281
     0
  0
CLASS
  1
IMAGEDEF_REACTOR
  2
AcDbRasterImageDefReactor
  3
ISM
 90
        1
 91
        3
280
     0
281
     0
  0
CLASS
  1
IDBUFFER
  2
AcDbIdBuffer
  3
ObjectDBX Classes
 90
        0
 91
        3
280
     0
281
     0
  0
CLASS
  1
SPATIAL_FILTER
  2
AcDbSpatialFilter
  3
ObjectDBX Classes
 90
        0
 91
        3
280
     0
281
     0
  0
CLASS
  1
XRECORD
  2
AcDbXrecord
  3
ObjectDBX Classes
 90
        0
 91
        1
280
     0
281
     0
  0
CLASS
  1
SORTENTSTABLE
  2
AcDbSortentsTable
  3
ObjectDBX Classes
 90
        0
 91
        3
280
     0
281
     0
  0
CLASS
  1
LAYER_INDEX
  2
AcDbLayerIndex
  3
ObjectDBX Classes
 90
        0
 91
        3
280
     0
281
     0
  0
CLASS
  1
SPATIAL_INDEX
  2
AcDbSpatialIndex
  3
AutoCAD 2000
 90
        0
 91
        3
280
     0
281
     0
  0
CLASS
  1
OBJECT_PTR
  2
CAseDLPNTableRecord
  3
ASE-LPNTableRecord
 90
        1
 91
        3
280
     0
281
     0
  0
CLASS
  1
LAYOUT
  2
AcDbLayout
  3
ObjectDBX Classes
 90
        0
 91
        1
280
     0
281
     0
  0
CLASS
  1
PLOTSETTINGS
  2
AcDbPlotSettings
  3
ObjectDBX Classes
 90
        0
 91
        3
280
     0
281
     0
  0
CLASS
  1
ACDBDICTIONARYWDFLT
  2
AcDbDictionaryWithDefault
  3
ObjectDBX Classes
 90
        0
 91
        3
280
     0
281
     0
  0
CLASS
  1
ACDBPLACEHOLDER
  2
AcDbPlaceHolder
  3
ObjectDBX Classes
 90
        0
 91
        1
280
     0
281
     0
  0
CLASS
  1
SCALE
  2
AcDbScale
  3
ObjectDBX Classes
 90
     1153
 91
        3
280
     0
281
     0
  0
CLASS
  1
MATERIAL
  2
AcDbMaterial
  3
ObjectDBX Classes
 90
     1153
 91
        3
280
     0
281
     0
  0
CLASS
  1
VISUALSTYLE
  2
AcDbVisualStyle
  3
ObjectDBX Classes
 90
     4095
 91
        3
280
     0
281
     0
  0
CLASS
  1
TABLESTYLE
  2
AcDbTableStyle
  3
ObjectDBX Classes
 90
     4095
 91
        3
280
     0
281
     0
  0
CLASS
  1
DIMASSOC
  2
AcDbDimAssoc
  3
"AcDbDimAssoc|Product Desc:     AcDim ARX App For Dimension|Company:          Autodesk, Inc.|WEB Address:      www.autodesk.com"
 90
        0
 91
        3
280
     0
281
     0
  0
CLASS
  1
CELLSTYLEMAP
  2
AcDbCellStyleMap
  3
ObjectDBX Classes
 90
     1152
 91
        3
280
     0
281
     0
  0
CLASS
  1
SUN
  2
AcDbSun
  3
SCENEOE
 90
     1153
 91
        3
280
     0
281
     0
  0
CLASS
  1
MLEADERSTYLE
  2
AcDbMLeaderStyle
  3
ACDB_MLEADERSTYLE_CLASS
 90
     4095
 91
        3
280
     0
281
     0
  0
CLASS
  1
FIELD
  2
AcDbField
  3
ObjectDBX Classes
 90
     1152
 91
        3
280
     0
281
     0
  0
CLASS
  1
FIELDLIST
  2
AcDbFieldList
  3
ObjectDBX Classes
 90
     1152
 91
        3
280
     0
281
     0
  0
ENDSEC
  0
SECTION
  2
TABLES
  0
TABLE
  2
VPORT
  5
7
330
0
100
AcDbSymbolTable
 70
     1
  0
VPORT
  5
15
330
7
100
AcDbSymbolTableRecord
100
AcDbViewportTableRecord
  2
*ACTIVE
 70
     0
 10
0.0
 20
0.0
 11
1.0
 21
1.0
 12
301.0201356709008
 22
223.401285469834
 13
0.0
 23
0.0
 14
1.0
 24
1.0
 15
0.0
 25
0.0
 16
0.0
 26
0.0
 36
1.0
 17
-91.0201356709008
 27
73.59871453016603
 37
-46.86809886248109
 40
605.88
 41
2.165535956580733
 42
50.0
 43
0.0
 44
0.0
 50
0.0
 51
0.0
 71
    16
 72
  2000
 73
     1
 74
     1
 75
     0
 76
     0
 77
     0
 78
     0
281
     0
 65
     1
110
0.0
120
0.0
130
0.0
111
1.0
121
0.0
131
0.0
112
0.0
122
1.0
132
0.0
 79
     0
146
0.0
348
26C
 60
     3
 61
     5
292
     1
282
     1
141
0.0
142
0.0
 63
   256
361
904
  0
ENDTAB
  0
TABLE
  2
LTYPE
  5
4
330
0
100
AcDbSymbolTable
 70
     3
  0
LTYPE
  5
11
330
4
100
AcDbSymbolTableRecord
100
AcDbLinetypeTableRecord
  2
ByBlock
 70
     0
  3

 72
    65
 73
     0
 40
0.0
  0
LTYPE
  5
12
330
4
100
AcDbSymbolTableRecord
100
AcDbLinetypeTableRecord
  2
ByLayer
 70
     0
  3

 72
    65
 73
     0
 40
0.0
  0
LTYPE
  5
13
330
4
100
AcDbSymbolTableRecord
100
AcDbLinetypeTableRecord
  2
Continuous
 70
     0
  3
Solid line
 72
    65
 73
     0
 40
0.0
  0
LTYPE
  5
D6C
330
4
100
AcDbSymbolTableRecord
100
AcDbLinetypeTableRecord
  2
BORDER
 70
     0
  3
Border __  __  . __  __  . __  __  . __  __  . 
 72
    65
 73
     6
 40
44.45
 49
12.7
 74
     0
 49
-6.35
 74
     0
 49
12.7
 74
     0
 49
-6.35
 74
     0
 49
0.0
 74
     0
 49
-6.35
 74
     0
  0
LTYPE
  5
44DF
330
4
100
AcDbSymbolTableRecord
100
AcDbLinetypeTableRecord
  2
HIDDEN
 70
     0
  3
Hidden _ _ _ _ _ _ _ _ _ _ _ _ _ _ _ _ _ _ _ _ 
 72
    65
 73
     2
 40
9.524999999999999
 49
6.35
 74
     0
 49
-3.175
 74
     0
  0
ENDTAB
  0
TABLE
  2
LAYER
  5
2
102
{ACAD_XDICTIONARY
360
2E1
102
}
330
0
100
AcDbSymbolTable
 70
     7
  0
LAYER
  5
14
330
2
100
AcDbSymbolTableRecord
100
AcDbLayerTableRecord
  2
0
 70
     0
 62
     7
  6
Continuous
370
    -3
390
1D
347
266
  0
LAYER
  5
4B
330
2
100
AcDbSymbolTableRecord
100
AcDbLayerTableRecord
  2
TEMPLATE
 70
     0
 62
     7
  6
Continuous
370
    20
390
1D
347
266
  0
LAYER
  5
4C
330
2
100
AcDbSymbolTableRecord
100
AcDbLayerTableRecord
  2
DIM
 70
     0
 62
     3
  6
Continuous
370
    13
390
1D
347
266
  0
LAYER
  5
4D
330
2
100
AcDbSymbolTableRecord
100
AcDbLayerTableRecord
  2
MODEL
 70
     0
 62
     7
  6
Continuous
370
    20
390
1D
347
266
  0
LAYER
  5
D6B
330
2
100
AcDbSymbolTableRecord
100
AcDbLayerTableRecord
  2
BORDER
 70
     0
 62
     4
  6
BORDER
290
     0
370
    20
390
1D
347
266
1001
AcAecLayerStandard
1000

1000

  0
LAYER
  5
D8C
330
2
100
AcDbSymbolTableRecord
100
AcDbLayerTableRecord
  2
Defpoints
 70
     0
 62
     7
  6
Continuous
290
     0
370
    -3
390
1D
347
266
  0
LAYER
  5
3D4C
330
2
100
AcDbSymbolTableRecord
100
AcDbLayerTableRecord
  2
HIDDEN
 70
     0
 62
     8
  6
HIDDEN
370
    20
390
1D
347
266
  0
ENDTAB
  0
TABLE
  2
STYLE
  5
3
330
0
100
AcDbSymbolTable
 70
     2
  0
STYLE
  5
17
330
3
100
AcDbSymbolTableRecord
100
AcDbTextStyleTableRecord
  2
Standard
 70
     0
 40
0.0
 41
1.0
 50
0.0
 71
     0
 42
2.5
  3
txt
  4
BIGFONT.SHX
  0
STYLE
  5
39
330
3
100
AcDbSymbolTableRecord
100
AcDbTextStyleTableRecord
  2
ＭＳ ゴシック
 70
     0
 40
0.0
 41
1.0
 50
0.0
 71
     0
 42
2.5
  3
msgothic.ttc
  4
ＭＳ ゴシック
1001
ACAD
1000
ＭＳ ゴシック
1071
        0
  0
ENDTAB
  0
TABLE
  2
VIEW
  5
5
330
0
100
AcDbSymbolTable
 70
     0
  0
ENDTAB
  0
TABLE
  2
UCS
  5
6
330
0
100
AcDbSymbolTable
 70
     0
  0
ENDTAB
  0
TABLE
  2
APPID
  5
8
330
0
100
AcDbSymbolTable
 70
     4
  0
APPID
  5
16
330
8
100
AcDbSymbolTableRecord
100
AcDbRegAppTableRecord
  2
ACAD
 70
     0
  0
APPID
  5
7AC
330
8
100
AcDbSymbolTableRecord
100
AcDbRegAppTableRecord
  2
AcAecLayerStandard
 70
     0
  0
APPID
  5
E29
330
8
100
AcDbSymbolTableRecord
100
AcDbRegAppTableRecord
  2
ACAD_MLEADERVER
 70
     0
  0
APPID
  5
44C4
330
8
100
AcDbSymbolTableRecord
100
AcDbRegAppTableRecord
  2
PLOTTRANSPARENCY
 70
     0
  0
ENDTAB
  0
TABLE
  2
DIMSTYLE
  5
9
330
0
100
AcDbSymbolTable
 70
     1
100
AcDbDimStyleTable
  0
DIMSTYLE
105
57
102
{ACAD_REACTORS
330
447B
330
448A
330
449C
330
44AB
330
44C7
102
}
330
9
100
AcDbSymbolTableRecord
100
AcDbDimStyleTableRecord
  2
tfrom線あり
 70
     0
  3
<>
  4
[]
 41
2.0
 42
5.0
 43
0.9999999999999999
 44
0.0
 73
     0
 74
     0
 77
     1
 78
    11
140
5.0
141
0.0
143
1.0
147
3.0
171
     1
174
     1
178
     0
179
     2
271
     0
272
     1
276
     2
284
    11
285
    11
286
    11
289
     0
340
39
341
4E
342
4E
  0
ENDTAB
  0
TABLE
  2
BLOCK_RECORD
  5
1
330
0
100
AcDbSymbolTable
 70
     8
  0
BLOCK_RECORD
  5
A
102
{ACAD_XDICTIONARY
360
3D3D
102
}
330
1
100
AcDbSymbolTableRecord
100
AcDbBlockTableRecord
  2
*MODEL_SPACE
340
20
 70
     0
280
     1
281
     0
  0
BLOCK_RECORD
  5
B
330
1
100
AcDbSymbolTableRecord
100
AcDbBlockTableRecord
  2
*PAPER_SPACE
340
21
 70
     0
280
     1
281
     0
  0
BLOCK_RECORD
  5
4E
330
1
100
AcDbSymbolTableRecord
100
AcDbBlockTableRecord
  2
_DOT
340
0
102
{BLKREFS
331
3B8C
331
3B8D
331
3B98
331
3B99
331
3BA4
331
3BA5
331
3BB0
331
3BB1
331
3BBC
331
3BBD
331
3BC8
331
3BC9
331
3BD4
331
3BD5
331
3CFD
331
3CFE
331
3D0C
331
3D0D
331
3D2A
331
3D2B
331
3D36
331
3D37
331
4466
331
0
331
0
331
4465
331
4485
331
4484
331
4494
331
4493
331
44A6
331
44A5
331
44B5
331
44B4
331
44D1
331
44D0
102
}
 70
     0
280
     1
281
     0
  0
BLOCK_RECORD
  5
68D
330
1
100
AcDbSymbolTableRecord
100
AcDbBlockTableRecord
  2
block 2
340
0
102
{BLKREFS
331
68C
331
1343
331
3DA5
331
4084
102
}
 70
     0
280
     1
281
     0
  0
BLOCK_RECORD
  5
445F
330
1
100
AcDbSymbolTableRecord
100
AcDbBlockTableRecord
  2
*D15
340
0
 70
     0
280
     1
281
     0
  0
BLOCK_RECORD
  5
447E
330
1
100
AcDbSymbolTableRecord
100
AcDbBlockTableRecord
  2
*D16
340
0
 70
     0
280
     1
281
     0
  0
BLOCK_RECORD
  5
448D
330
1
100
AcDbSymbolTableRecord
100
AcDbBlockTableRecord
  2
*D17
340
0
 70
     0
280
     1
281
     0
  0
BLOCK_RECORD
  5
449F
330
1
100
AcDbSymbolTableRecord
100
AcDbBlockTableRecord
  2
*D18
340
0
 70
     0
280
     1
281
     0
  0
BLOCK_RECORD
  5
44AE
330
1
100
AcDbSymbolTableRecord
100
AcDbBlockTableRecord
  2
*D19
340
0
 70
     0
280
     1
281
     0
  0
BLOCK_RECORD
  5
44CA
330
1
100
AcDbSymbolTableRecord
100
AcDbBlockTableRecord
  2
*D20
340
0
 70
     0
280
     1
281
     0
  0
ENDTAB
  0
ENDSEC
  0
SECTION
  2
BLOCKS
  0
BLOCK
  5
D
330
A
100
AcDbEntity
  8
0
390
1D
100
AcDbBlockBegin
  2
*MODEL_SPACE
 70
     0
 10
0.0
 20
0.0
 30
0.0
  3
*MODEL_SPACE
  1
*MODEL_SPACE
  0
ENDBLK
  5
E
330
A
100
AcDbEntity
  8
0
390
1D
100
AcDbBlockEnd
  0
BLOCK
  5
F
330
B
100
AcDbEntity
 67
     1
  8
0
390
1D
100
AcDbBlockBegin
  2
*PAPER_SPACE
 70
     0
 10
0.0
 20
0.0
 30
0.0
  3
*PAPER_SPACE
  1
*PAPER_SPACE
  0
ENDBLK
  5
10
330
B
100
AcDbEntity
 67
     1
  8
0
390
1D
100
AcDbBlockEnd
  0
BLOCK
  5
2462
330
4E
100
AcDbEntity
  8
0
390
1D
100
AcDbBlockBegin
  2
_DOT
 70
     0
 10
0.0
 20
0.0
 30
0.0
  3
_DOT
  1
_DOT
  0
POLYLINE
  5
2464
330
4E
100
AcDbEntity
  8
0
  6
ByBlock
 62
     0
370
    -2
390
1D
100
AcDb2dPolyline
 66
     1
 10
0.0
 20
0.0
 30
0.0
 70
     1
 40
0.5
 41
0.5
  0
VERTEX
  5
2465
330
2464
100
AcDbEntity
  8
0
  6
ByBlock
 62
     0
370
    -2
390
1D
100
AcDbVertex
100
AcDb2dVertex
 10
-0.25
 20
0.0
 30
0.0
 42
1.0
  0
VERTEX
  5
2466
330
2464
100
AcDbEntity
  8
0
  6
ByBlock
 62
     0
370
    -2
390
1D
100
AcDbVertex
100
AcDb2dVertex
 10
0.25
 20
0.0
 30
0.0
 42
1.0
  0
SEQEND
  5
2467
330
2464
100
AcDbEntity
  8
0
390
1D
  0
LINE
  5
2468
330
4E
100
AcDbEntity
  8
0
  6
ByBlock
 62
     0
370
    -2
390
1D
100
AcDbLine
 10
-0.5
 20
0.0
 30
0.0
 11
-1.0
 21
0.0
 31
0.0
  0
ENDBLK
  5
2469
330
4E
100
AcDbEntity
  8
0
390
1D
100
AcDbBlockEnd
  0
BLOCK
  5
68E
330
68D
100
AcDbEntity
  8
0
100
AcDbBlockBegin
  2
block 2
 70
     0
 10
0.0
 20
0.0
 30
0.0
  3
block 2
  1
block 2
  0
ENDBLK
  5
6B0
330
68D
100
AcDbEntity
  8
0
100
AcDbBlockEnd
  0
BLOCK
  5
4460
330
445F
100
AcDbEntity
  8
0
100
AcDbBlockBegin
  2
*D15
 70
     1
 10
0.0
 20
0.0
 30
0.0
  3
*D15
  1

  0
LINE
  5
4462
330
445F
100
AcDbEntity
  8
DIM
 62
     0
370
    -2
100
AcDbLine
 10
88.03354223241246
 20
305.3730149731348
 30
0.0
 11
50.99047896048073
 21
305.3730149731348
 31
0.0
  0
LINE
  5
4463
330
445F
100
AcDbEntity
  8
DIM
 62
     0
370
    -2
100
AcDbLine
 10
86.988369358684
 20
421.3730210265666
 30
0.0
 11
50.99047896048075
 21
421.3730210265666
 31
0.0
  0
LINE
  5
4464
330
445F
100
AcDbEntity
  8
DIM
 62
     0
370
    -2
100
AcDbLine
 10
50.99047896048073
 20
307.3730149731348
 30
0.0
 11
50.99047896048075
 21
419.3730210265666
 31
0.0
  0
INSERT
  5
4465
330
445F
100
AcDbEntity
  8
DIM
 62
     0
370
    -2
100
AcDbBlockReference
  2
_DOT
 10
50.99047896048073
 20
305.3730149731348
 30
0.0
 41
2.0
 42
2.0
 43
2.0
 50
270.0
  0
INSERT
  5
4466
330
445F
100
AcDbEntity
  8
DIM
 62
     0
370
    -2
100
AcDbBlockReference
  2
_DOT
 10
50.99047896048075
 20
421.3730210265666
 30
0.0
 41
2.0
 42
2.0
 43
2.0
 50
89.99999999999999
  0
MTEXT
  5
4467
330
445F
100
AcDbEntity
  8
DIM
 62
     0
100
AcDbMText
 10
45.48954110878634
 20
363.3730179998508
 30
0.0
 40
5.0
 41
0.0
 46
0.0
 71
     5
 72
     1
  1
\A1;116
  7
ＭＳ ゴシック
 11
1.837610427622246E-16
 21
1.0
 31
0.0
 73
     1
 44
1.0
  0
POINT
  5
4468
330
445F
100
AcDbEntity
  8
Defpoints
 62
     0
100
AcDbPoint
 10
93.03354223241246
 20
305.3730149731348
 30
0.0
  0
POINT
  5
4469
330
445F
100
AcDbEntity
  8
Defpoints
 62
     0
100
AcDbPoint
 10
91.988369358684
 20
421.3730210265666
 30
0.0
  0
POINT
  5
446A
330
445F
100
AcDbEntity
  8
Defpoints
 62
     0
100
AcDbPoint
 10
50.99047896048075
 20
421.3730210265666
 30
0.0
  0
ENDBLK
  5
4461
330
445F
100
AcDbEntity
  8
0
100
AcDbBlockEnd
  0
BLOCK
  5
447F
330
447E
100
AcDbEntity
  8
0
100
AcDbBlockBegin
  2
*D16
 70
     1
 10
0.0
 20
0.0
 30
0.0
  3
*D16
  1

  0
LINE
  5
4481
330
447E
100
AcDbEntity
  8
DIM
 62
     0
370
    -2
100
AcDbLine
 10
316.4479434727789
 20
184.9427528660003
 30
0.0
 11
352.4458338709822
 21
184.9427528660003
 31
0.0
  0
LINE
  5
4482
330
447E
100
AcDbEntity
  8
DIM
 62
     0
370
    -2
100
AcDbLine
 10
313.3124248515936
 20
218.9065072835822
 30
0.0
 11
352.4458338709822
 21
218.9065072835822
 31
0.0
  0
LINE
  5
4483
330
447E
100
AcDbEntity
  8
DIM
 62
     0
370
    -2
100
AcDbLine
 10
352.4458338709822
 20
186.9427528660003
 30
0.0
 11
352.4458338709822
 21
216.9065072835822
 31
0.0
  0
INSERT
  5
4484
330
447E
100
AcDbEntity
  8
DIM
 62
     0
370
    -2
100
AcDbBlockReference
  2
_DOT
 10
352.4458338709822
 20
184.9427528660003
 30
0.0
 41
2.0
 42
2.0
 43
2.0
 50
270.0
  0
INSERT
  5
4485
330
447E
100
AcDbEntity
  8
DIM
 62
     0
370
    -2
100
AcDbBlockReference
  2
_DOT
 10
352.4458338709822
 20
218.9065072835822
 30
0.0
 41
2.0
 42
2.0
 43
2.0
 50
90.0
  0
MTEXT
  5
4486
330
447E
100
AcDbEntity
  8
DIM
 62
     0
100
AcDbMText
 10
346.9448960192879
 20
201.9246300747913
 30
0.0
 40
5.0
 41
0.0
 46
0.0
 71
     5
 72
     1
  1
\A1;33
  7
ＭＳ ゴシック
 11
0.0
 21
1.0
 31
0.0
 73
     1
 44
1.0
  0
POINT
  5
4487
330
447E
100
AcDbEntity
  8
Defpoints
 62
     0
100
AcDbPoint
 10
311.4479434727789
 20
184.9427528660003
 30
0.0
  0
POINT
  5
4488
330
447E
100
AcDbEntity
  8
Defpoints
 62
     0
100
AcDbPoint
 10
308.3124248515936
 20
218.9065072835822
 30
0.0
  0
POINT
  5
4489
330
447E
100
AcDbEntity
  8
Defpoints
 62
     0
100
AcDbPoint
 10
352.4458338709822
 20
218.9065072835822
 30
0.0
  0
ENDBLK
  5
4480
330
447E
100
AcDbEntity
  8
0
100
AcDbBlockEnd
  0
BLOCK
  5
448E
330
448D
100
AcDbEntity
  8
0
100
AcDbBlockBegin
  2
*D17
 70
     1
 10
0.0
 20
0.0
 30
0.0
  3
*D17
  1

  0
LINE
  5
4490
330
448D
100
AcDbEntity
  8
DIM
 62
     0
370
    -2
100
AcDbLine
 10
167.7535837521635
 20
190.4341161340496
 30
0.0
 11
167.7535837521635
 21
154.032372105082
 31
0.0
  0
LINE
  5
4491
330
448D
100
AcDbEntity
  8
DIM
 62
     0
370
    -2
100
AcDbLine
 10
235.6821835819758
 20
190.4038196674494
 30
0.0
 11
235.6821835819758
 21
154.032372105082
 31
0.0
  0
LINE
  5
4492
330
448D
100
AcDbEntity
  8
DIM
 62
     0
370
    -2
100
AcDbLine
 10
169.7535837521635
 20
154.032372105082
 30
0.0
 11
233.6821835819758
 21
154.032372105082
 31
0.0
  0
INSERT
  5
4493
330
448D
100
AcDbEntity
  8
DIM
 62
     0
370
    -2
100
AcDbBlockReference
  2
_DOT
 10
167.7535837521635
 20
154.032372105082
 30
0.0
 41
2.0
 42
2.0
 43
2.0
 50
180.0
  0
INSERT
  5
4494
330
448D
100
AcDbEntity
  8
DIM
 62
     0
370
    -2
100
AcDbBlockReference
  2
_DOT
 10
235.6821835819758
 20
154.032372105082
 30
0.0
 41
2.0
 42
2.0
 43
2.0
  0
MTEXT
  5
4495
330
448D
100
AcDbEntity
  8
DIM
 62
     0
100
AcDbMText
 10
201.7178836670697
 20
159.5333099567764
 30
0.0
 40
5.0
 41
0.0
 46
0.0
 71
     5
 72
     1
  1
\A1;65
  7
ＭＳ ゴシック
 73
     1
 44
1.0
  0
POINT
  5
4496
330
448D
100
AcDbEntity
  8
Defpoints
 62
     0
100
AcDbPoint
 10
167.7535837521635
 20
195.4341161340496
 30
0.0
  0
POINT
  5
4497
330
448D
100
AcDbEntity
  8
Defpoints
 62
     0
100
AcDbPoint
 10
235.6821835819758
 20
195.4038196674494
 30
0.0
  0
POINT
  5
4498
330
448D
100
AcDbEntity
  8
Defpoints
 62
     0
100
AcDbPoint
 10
235.6821835819758
 20
154.032372105082
 30
0.0
  0
ENDBLK
  5
448F
330
448D
100
AcDbEntity
  8
0
100
AcDbBlockEnd
  0
BLOCK
  5
44A0
330
449F
100
AcDbEntity
  8
0
100
AcDbBlockBegin
  2
*D18
 70
     1
 10
0.0
 20
0.0
 30
0.0
  3
*D18
  1

  0
LINE
  5
44A2
330
449F
100
AcDbEntity
  8
DIM
 62
     0
370
    -2
100
AcDbLine
 10
311.4479434727787
 20
426.3730210265666
 30
0.0
 11
311.4479434727787
 21
464.5855815296187
 31
0.0
  0
LINE
  5
44A3
330
449F
100
AcDbEntity
  8
DIM
 62
     0
370
    -2
100
AcDbLine
 10
91.988369358684
 20
426.3730210265666
 30
0.0
 11
91.988369358684
 21
464.5855815296187
 31
0.0
  0
LINE
  5
44A4
330
449F
100
AcDbEntity
  8
DIM
 62
     0
370
    -2
100
AcDbLine
 10
309.4479434727787
 20
464.5855815296187
 30
0.0
 11
93.988369358684
 21
464.5855815296187
 31
0.0
  0
INSERT
  5
44A5
330
449F
100
AcDbEntity
  8
DIM
 62
     0
370
    -2
100
AcDbBlockReference
  2
_DOT
 10
311.4479434727787
 20
464.5855815296187
 30
0.0
 41
2.0
 42
2.0
 43
2.0
  0
INSERT
  5
44A6
330
449F
100
AcDbEntity
  8
DIM
 62
     0
370
    -2
100
AcDbBlockReference
  2
_DOT
 10
91.988369358684
 20
464.5855815296187
 30
0.0
 41
2.0
 42
2.0
 43
2.0
 50
180.0
  0
MTEXT
  5
44A7
330
449F
100
AcDbEntity
  8
DIM
 62
     0
100
AcDbMText
 10
201.7181564157314
 20
470.0865193813131
 30
0.0
 40
5.0
 41
0.0
 46
0.0
 71
     5
 72
     1
  1
\A1;210
  7
ＭＳ ゴシック
 73
     1
 44
1.0
  0
POINT
  5
44A8
330
449F
100
AcDbEntity
  8
Defpoints
 62
     0
100
AcDbPoint
 10
311.4479434727787
 20
421.3730210265666
 30
0.0
  0
POINT
  5
44A9
330
449F
100
AcDbEntity
  8
Defpoints
 62
     0
100
AcDbPoint
 10
91.988369358684
 20
421.3730210265666
 30
0.0
  0
POINT
  5
44AA
330
449F
100
AcDbEntity
  8
Defpoints
 62
     0
100
AcDbPoint
 10
91.988369358684
 20
464.5855815296187
 30
0.0
  0
ENDBLK
  5
44A1
330
449F
100
AcDbEntity
  8
0
100
AcDbBlockEnd
  0
BLOCK
  5
44AF
330
44AE
100
AcDbEntity
  8
0
100
AcDbBlockBegin
  2
*D19
 70
     1
 10
0.0
 20
0.0
 30
0.0
  3
*D19
  1

  0
LINE
  5
44B1
330
44AE
100
AcDbEntity
  8
DIM
 62
     0
370
    -2
100
AcDbLine
 10
275.7760312934666
 20
184.9427528660003
 30
0.0
 11
280.7760312934666
 21
184.9427528660003
 31
0.0
  0
LINE
  5
44B2
330
44AE
100
AcDbEntity
  8
DIM
 62
     0
370
    -2
100
AcDbLine
 10
244.8620568309031
 20
196.438154359372
 30
0.0
 11
280.7760312934666
 21
196.438154359372
 31
0.0
  0
LINE
  5
44B3
330
44AE
100
AcDbEntity
  8
DIM
 62
     0
370
    -2
100
AcDbLine
 10
280.7760312934666
 20
186.9427528660003
 30
0.0
 11
280.7760312934666
 21
194.438154359372
 31
0.0
  0
INSERT
  5
44B4
330
44AE
100
AcDbEntity
  8
DIM
 62
     0
370
    -2
100
AcDbBlockReference
  2
_DOT
 10
280.7760312934666
 20
184.9427528660003
 30
0.0
 41
2.0
 42
2.0
 43
2.0
 50
270.0
  0
INSERT
  5
44B5
330
44AE
100
AcDbEntity
  8
DIM
 62
     0
370
    -2
100
AcDbBlockReference
  2
_DOT
 10
280.7760312934666
 20
196.438154359372
 30
0.0
 41
2.0
 42
2.0
 43
2.0
 50
90.0
  0
MTEXT
  5
44B6
330
44AE
100
AcDbEntity
  8
DIM
 62
     0
100
AcDbMText
 10
275.2750934417722
 20
191.0844916010663
 30
0.0
 40
5.0
 41
0.0
 46
0.0
 71
     5
 72
     1
  1
\A1;11
  7
ＭＳ ゴシック
 11
0.0
 21
1.0
 31
0.0
 73
     1
 44
1.0
  0
POINT
  5
44B7
330
44AE
100
AcDbEntity
  8
Defpoints
 62
     0
100
AcDbPoint
 10
280.7760312934666
 20
184.9427528660003
 30
0.0
  0
POINT
  5
44B8
330
44AE
100
AcDbEntity
  8
Defpoints
 62
     0
100
AcDbPoint
 10
239.8620568309031
 20
196.438154359372
 30
0.0
  0
POINT
  5
44B9
330
44AE
100
AcDbEntity
  8
Defpoints
 62
     0
100
AcDbPoint
 10
280.7760312934666
 20
196.438154359372
 30
0.0
  0
ENDBLK
  5
44B0
330
44AE
100
AcDbEntity
  8
0
100
AcDbBlockEnd
  0
BLOCK
  5
44CB
330
44CA
100
AcDbEntity
  8
0
100
AcDbBlockBegin
  2
*D20
 70
     1
 10
0.0
 20
0.0
 30
0.0
  3
*D20
  1

  0
LINE
  5
44CD
330
44CA
100
AcDbEntity
  8
DIM
 62
     0
370
    -2
100
AcDbLine
 10
316.4479434727787
 20
421.3730210265666
 30
0.0
 11
352.4458338709822
 21
421.3730210265666
 31
0.0
  0
LINE
  5
44CE
330
44CA
100
AcDbEntity
  8
DIM
 62
     0
370
    -2
100
AcDbLine
 10
315.4027705990498
 20
305.3730149731347
 30
0.0
 11
352.4458338709822
 21
305.3730149731347
 31
0.0
  0
LINE
  5
44CF
330
44CA
100
AcDbEntity
  8
DIM
 62
     0
370
    -2
100
AcDbLine
 10
352.4458338709822
 20
419.3730210265666
 30
0.0
 11
352.4458338709822
 21
307.3730149731347
 31
0.0
  0
INSERT
  5
44D0
330
44CA
100
AcDbEntity
  8
DIM
 62
     0
370
    -2
100
AcDbBlockReference
  2
_DOT
 10
352.4458338709822
 20
421.3730210265666
 30
0.0
 41
2.0
 42
2.0
 43
2.0
 50
90.0
  0
INSERT
  5
44D1
330
44CA
100
AcDbEntity
  8
DIM
 62
     0
370
    -2
100
AcDbBlockReference
  2
_DOT
 10
352.4458338709822
 20
305.3730149731347
 30
0.0
 41
2.0
 42
2.0
 43
2.0
 50
270.0
  0
MTEXT
  5
44D2
330
44CA
100
AcDbEntity
  8
DIM
 62
     0
100
AcDbMText
 10
346.9448960192878
 20
363.3730179998507
 30
0.0
 40
5.0
 41
0.0
 46
0.0
 71
     5
 72
     1
  1
\A1;116
  7
ＭＳ ゴシック
 11
0.0
 21
1.0
 31
0.0
 73
     1
 44
1.0
  0
POINT
  5
44D3
330
44CA
100
AcDbEntity
  8
Defpoints
 62
     0
100
AcDbPoint
 10
311.4479434727787
 20
421.3730210265666
 30
0.0
  0
POINT
  5
44D4
330
44CA
100
AcDbEntity
  8
Defpoints
 62
     0
100
AcDbPoint
 10
310.4027705990498
 20
305.3730149731347
 30
0.0
  0
POINT
  5
44D5
330
44CA
100
AcDbEntity
  8
Defpoints
 62
     0
100
AcDbPoint
 10
352.4458338709822
 20
305.3730149731347
 30
0.0
  0
ENDBLK
  5
44CC
330
44CA
100
AcDbEntity
  8
0
100
AcDbBlockEnd
  0
ENDSEC
  0
SECTION
  2
ENTITIES
  0
MTEXT
  5
177
330
A
100
AcDbEntity
  8
TEMPLATE
390
1D
100
AcDbMText
 10
15.84042890954615
 20
68.74635032628565
 30
0.0
 40
3.257682291666665
 41
0.0
 46
0.0
 71
     1
 72
     1
  1
品名
  7
ＭＳ ゴシック
 73
     1
 44
0.7828267384257843
  0
MTEXT
  5
178
330
A
100
AcDbEntity
  8
TEMPLATE
390
1D
100
AcDbMText
 10
15.84042890954615
 20
51.7463503262856
 30
0.0
 40
3.257682291666665
 41
0.0
 46
0.0
 71
     1
 72
     1
  1
仕様
  7
ＭＳ ゴシック
 73
     1
 44
0.7828267384257843
  0
LINE
  5
179
330
A
100
AcDbEntity
  8
TEMPLATE
390
1D
100
AcDbLine
 10
404.4404289094496
 20
53.42933470128568
 30
0.0
 11
14.44042890944975
 21
53.42933470128568
 31
0.0
  0
LWPOLYLINE
  5
17A
330
A
100
AcDbEntity
  8
TEMPLATE
390
1D
100
AcDbPolyline
 90
        5
 70
   128
 43
0.0
 10
404.4404289094496
 20
579.4293347012853
 10
14.44042890944975
 20
579.4293347012853
 10
14.44042890944975
 20
19.42933470128565
 10
404.4404289094496
 20
19.42933470128565
 10
404.4404289094496
 20
579.4293347012853
  0
LINE
  5
17B
330
A
100
AcDbEntity
  8
TEMPLATE
390
1D
100
AcDbLine
 10
404.4404289094496
 20
70.42933470128564
 30
0.0
 11
14.44042890944975
 21
70.42933470128564
 31
0.0
  0
LINE
  5
17C
330
A
100
AcDbEntity
  8
TEMPLATE
390
1D
100
AcDbLine
 10
404.4404289095464
 20
36.42933470128565
 30
0.0
 11
253.840428909546
 21
36.42933470128565
 31
0.0
  0
MTEXT
  5
17E
330
A
100
AcDbEntity
  8
TEMPLATE
390
1D
100
AcDbMText
 10
259.8147101599982
 20
30.44725580662403
 30
0.0
 40
4.8865234375
 41
0.0
 46
0.0
 71
     1
 72
     1
  1
大洋金物株式会社 ティーフォルム事業部
  7
ＭＳ ゴシック
 73
     1
 44
0.7828267384257843
  0
MTEXT
  5
180
330
A
100
AcDbEntity
  8
TEMPLATE
390
1D
100
AcDbMText
 10
366.240428909598
 20
46.02985813878564
 30
0.0
 40
4.8865234375
 41
0.0
 46
4.8865234375
 71
     1
 72
     1
  1
{1:2}
  7
ＭＳ ゴシック
 73
     1
 44
0.7828267384257843
1001
ACAD
1000
ACAD_MTEXT_DEFINED_HEIGHT_BEGIN
1070
    46
1040
4.8865234375
1000
ACAD_MTEXT_DEFINED_HEIGHT_END
  0
MTEXT
  5
181
330
A
100
AcDbEntity
  8
TEMPLATE
390
1D
100
AcDbMText
 10
355.640428909598
 20
51.7463503262856
 30
0.0
 40
3.257682291666665
 41
0.0
 46
0.0
 71
     1
 72
     1
  1
縮尺
  7
ＭＳ ゴシック
 73
     1
 44
0.7828267384257843
  0
LINE
  5
182
330
A
100
AcDbEntity
  8
TEMPLATE
390
1D
100
AcDbLine
 10
354.240428909598
 20
36.42933470128565
 30
0.0
 11
354.240428909598
 21
53.42933470128568
 31
0.0
  0
MTEXT
  5
183
330
A
100
AcDbEntity
  8
TEMPLATE
390
1D
100
AcDbMText
 10
305.440428909598
 20
51.7463503262856
 30
0.0
 40
3.257682291666665
 41
0.0
 46
0.0
 71
     1
 72
     1
  1
容量
  7
ＭＳ ゴシック
 73
     1
 44
0.7828267384257843
  0
LINE
  5
184
330
A
100
AcDbEntity
  8
TEMPLATE
390
1D
100
AcDbLine
 10
304.040428909598
 20
36.42933470128565
 30
0.0
 11
304.040428909598
 21
53.42933470128568
 31
0.0
  0
MTEXT
  5
185
330
A
100
AcDbEntity
  8
TEMPLATE
390
1D
100
AcDbMText
 10
255.240428909598
 20
68.74635032628565
 30
0.0
 40
3.257682291666665
 41
0.0
 46
0.0
 71
     1
 72
     1
  1
品番
  7
ＭＳ ゴシック
 73
     1
 44
0.7828267384257843
  0
MTEXT
  5
186
330
A
100
AcDbEntity
  8
TEMPLATE
390
1D
100
AcDbMText
 10
255.240428909598
 20
51.7463503262856
 30
0.0
 40
3.257682291666665
 41
0.0
 46
0.0
 71
     1
 72
     1
  1
重量
  7
ＭＳ ゴシック
 73
     1
 44
0.7828267384257843
  0
MTEXT
  5
187
330
A
100
AcDbEntity
  8
TEMPLATE
390
1D
100
AcDbMText
 10
265.840428909598
 20
63.02985813878564
 30
0.0
 40
4.8865234375
 41
0.0
 46
4.8865234375
 71
     1
 72
     1
  1
{FLR74-1729-003}
  7
ＭＳ ゴシック
 73
     1
 44
0.7828267384257843
1001
ACAD
1000
ACAD_MTEXT_DEFINED_HEIGHT_BEGIN
1070
    46
1040
4.8865234375
1000
ACAD_MTEXT_DEFINED_HEIGHT_END
  0
LINE
  5
188
330
A
100
AcDbEntity
  8
TEMPLATE
390
1D
100
AcDbLine
 10
253.840428909598
 20
19.42933470128565
 30
0.0
 11
253.840428909598
 21
70.42933470128564
 31
0.0
  0
MTEXT
  5
189
330
A
100
AcDbEntity
  8
TEMPLATE
390
1D
100
AcDbMText
 10
26.44042890954615
 20
63.02985813878564
 30
0.0
 40
4.8865234375
 41
0.0
 46
5.507344722044204
 71
     1
 72
     1
  1
{シェルフ　-KEUCO,Plan-}
  7
ＭＳ ゴシック
 73
     1
 44
0.7828267384257843
1001
ACAD
1000
ACAD_MTEXT_DEFINED_HEIGHT_BEGIN
1070
    46
1040
5.507344722044204
1000
ACAD_MTEXT_DEFINED_HEIGHT_END
  0
INSERT
  5
68C
330
A
100
AcDbEntity
  8
TEMPLATE
100
AcDbBlockReference
  2
block 2
 10
367.7097207081031
 20
3.349230605734547
 30
0.0
 41
0.1524
 42
0.1524
 43
0.1524
  0
LWPOLYLINE
  5
D69
330
A
100
AcDbEntity
  8
BORDER
100
AcDbPolyline
 90
        4
 70
     1
 43
0.0
 10
0.0
 20
0.0
 10
0.0
 20
594.0
 10
420.0
 20
594.0
 10
420.0
 20
0.0
  0
INSERT
  5
1343
330
A
100
AcDbEntity
  8
TEMPLATE
100
AcDbBlockReference
  2
block 2
 10
838.6973883465873
 20
9.774128564918277
 30
0.0
 41
0.1524
 42
0.1524
 43
0.1524
  0
HATCH
  5
3C64
102
{ACAD_REACTORS
330
3C75
102
}
330
A
100
AcDbEntity
  8
TEMPLATE
100
AcDbHatch
 10
0.0
 20
0.0
 30
0.0
210
0.0
220
0.0
230
1.0
  2
SOLID
 70
     1
 71
     1
 91
        6
 92
        1
 93
        8
 72
     1
 10
386.9584116981973
 20
30.78695932253559
 11
386.9584116981973
 21
29.60507779640349
 72
     1
 10
386.9584116981973
 20
29.60507779640349
 11
385.086293388135
 21
29.60507779640349
 72
     1
 10
385.086293388135
 20
29.60507779640349
 11
385.086293388135
 21
24.78695932282479
 72
     1
 10
385.086293388135
 20
24.78695932282479
 11
383.4397707574798
 21
24.78695932282479
 72
     1
 10
383.4397707574798
 20
24.78695932282479
 11
383.4397707574798
 21
29.60507779640349
 72
     1
 10
383.4397707574798
 20
29.60507779640349
 11
381.6008304705712
 21
29.60507779640349
 72
     1
 10
381.6008304705712
 20
29.60507779640349
 11
381.6008304705712
 21
30.78695932253559
 72
     1
 10
381.6008304705712
 20
30.78695932253559
 11
386.9584116981973
 21
30.78695932253559
 97
        1
330
3C65
 92
        1
 93
        1
 72
     4
 94
        3
 73
     0
 74
     1
 95
       56
 96
       52
 40
0.0
 40
0.0
 40
0.0
 40
0.0
 40
1.0
 40
1.0
 40
1.0
 40
2.0
 40
2.0
 40
2.0
 40
3.0
 40
3.0
 40
3.0
 40
4.0
 40
4.0
 40
4.0
 40
5.0
 40
5.0
 40
5.0
 40
6.0
 40
6.0
 40
6.0
 40
7.0
 40
7.0
 40
7.0
 40
8.0
 40
8.0
 40
8.0
 40
9.0
 40
9.0
 40
9.0
 40
10.0
 40
10.0
 40
10.0
 40
11.0
 40
11.0
 40
11.0
 40
12.0
 40
12.0
 40
12.0
 40
13.0
 40
13.0
 40
13.0
 40
14.0
 40
14.0
 40
14.0
 40
15.0
 40
15.0
 40
15.0
 40
16.0
 40
16.0
 40
16.0
 40
17.0
 40
17.0
 40
17.0
 40
17.0
 10
389.4668487850558
 20
30.64408553045313
 10
389.6976220214394
 20
30.70904304125516
 10
389.9955398401064
 20
30.65470844907718
 10
389.9955398401064
 20
30.65470844907718
 10
389.9955398401064
 20
30.65470844907718
 10
389.85241312139
 20
30.22519439059248
 10
389.85241312139
 20
30.22519439059248
 10
389.85241312139
 20
30.22519439059248
 10
389.5599406643706
 20
30.29287458221835
 10
389.3343598630008
 20
30.1149927683958
 10
389.1590668276665
 20
29.97588311974736
 10
389.0455027690426
 20
29.60625316134929
 10
389.0019398758616
 20
29.46571522112114
 10
389.0019398758616
 20
29.46571522112114
 10
388.8077219770962
 20
28.86958202304137
 10
388.8077219770962
 20
28.86958202304137
 10
388.8077219770962
 20
28.86958202304137
 10
389.4445466071603
 20
28.86958202304137
 10
389.4445466071603
 20
28.86958202304137
 10
389.4445466071603
 20
28.86958202304137
 10
389.34550351293
 20
28.49438767869736
 10
389.34550351293
 20
28.49438767869736
 10
389.34550351293
 20
28.49438767869736
 10
388.7034864478522
 20
28.49438767869736
 10
388.7034864478522
 20
28.49438767869736
 10
388.7034864478522
 20
28.49438767869736
 10
387.5547978229109
 20
24.78695932282479
 10
387.5547978229109
 20
24.78695932282479
 10
387.5547978229109
 20
24.78695932282479
 10
387.1951510275336
 20
24.78695932282479
 10
387.1951510275336
 20
24.78695932282479
 10
387.1951510275336
 20
24.78695932282479
 10
388.3448811150849
 20
28.49438767869736
 10
388.3448811150849
 20
28.49438767869736
 10
388.3448811150849
 20
28.49438767869736
 10
387.8711346517413
 20
28.49438767869736
 10
387.8711346517413
 20
28.49438767869736
 10
387.8711346517413
 20
28.49438767869736
 10
387.9704455506427
 20
28.86958202304137
 10
387.9704455506427
 20
28.86958202304137
 10
387.9704455506427
 20
28.86958202304137
 10
388.4491166443289
 20
28.86958202304137
 10
388.4491166443289
 20
28.86958202304137
 10
388.4491166443289
 20
28.86958202304137
 10
388.6184287086733
 20
29.38948015805433
 10
388.6184287086733
 20
29.38948015805433
 10
388.7553364078029
 20
29.82536201649855
 10
388.8715041229524
 20
30.059378665011
 10
388.971082826525
 20
30.23581730921654
 10
389.0696051894502
 20
30.41240473379499
 10
389.2645967461546
 20
30.58586777054282
 10
389.4668487850558
 20
30.64408553045313
 97
        1
330
3C70
 92
        1
 93
        1
 72
     4
 94
        3
 73
     0
 74
     1
 95
       32
 96
       28
 40
0.0
 40
0.0
 40
0.0
 40
0.0
 40
1.0
 40
1.0
 40
1.0
 40
2.0
 40
2.0
 40
2.0
 40
3.0
 40
3.0
 40
3.0
 40
4.0
 40
4.0
 40
4.0
 40
5.0
 40
5.0
 40
5.0
 40
6.0
 40
6.0
 40
6.0
 40
7.0
 40
7.0
 40
7.0
 40
8.0
 40
8.0
 40
8.0
 40
9.0
 40
9.0
 40
9.0
 40
9.0
 10
390.3419600603343
 20
28.64284073476305
 10
390.1254548617105
 20
28.36279143887966
 10
389.9587315758544
 20
28.11075748721071
 10
389.6888142233646
 20
27.31860614785359
 10
389.4406634394279
 20
26.59401597582401
 10
389.2827479516467
 20
26.06685735861421
 10
389.2588984578731
 20
25.42484029353638
 10
389.240747252381
 20
24.94707676012474
 10
389.5316723935223
 20
24.78695932282479
 10
389.9582257225866
 20
24.78695932282479
 10
390.1420587513246
 20
24.78695932282479
 10
390.6059559539832
 20
24.79865346013363
 10
390.9363078939394
 20
25.20702582763122
 10
391.1675721055534
 20
25.49393389870466
 10
391.38071486775
 20
25.79134586410385
 10
391.6664624519149
 20
26.76695828126675
 10
391.9042432438614
 20
27.58257228542799
 10
392.068883604497
 20
28.10971602460051
 10
392.056713369995
 20
28.40985067082352
 10
392.056713369995
 20
28.40985067082352
 10
392.056713369995
 20
28.40985067082352
 10
392.056713369995
 20
28.40985067082352
 10
391.9791690396468
 20
28.91055613773418
 10
391.615639076537
 20
29.01635386089345
 10
391.4079416759881
 20
29.01635386089345
 10
391.2033686632698
 20
29.01635386089345
 10
390.6552022574085
 20
29.05174871160303
 10
390.3419600603343
 20
28.64284073476305
 97
        1
330
3C73
 92
        1
 93
        1
 72
     4
 94
        3
 73
     0
 74
     1
 95
       38
 96
       34
 40
0.0
 40
0.0
 40
0.0
 40
0.0
 40
1.0
 40
1.0
 40
1.0
 40
2.0
 40
2.0
 40
2.0
 40
3.0
 40
3.0
 40
3.0
 40
4.0
 40
4.0
 40
4.0
 40
5.0
 40
5.0
 40
5.0
 40
6.0
 40
6.0
 40
6.0
 40
7.0
 40
7.0
 40
7.0
 40
8.0
 40
8.0
 40
8.0
 40
9.0
 40
9.0
 40
9.0
 40
10.0
 40
10.0
 40
10.0
 40
11.0
 40
11.0
 40
11.0
 40
11.0
 10
393.3716045494872
 20
28.85519496098328
 10
393.3716045494872
 20
28.85519496098328
 10
393.7413535321836
 20
28.85519496098328
 10
393.7413535321836
 20
28.85519496098328
 10
393.7413535321836
 20
28.85519496098328
 10
393.5761775622055
 20
28.32635512555987
 10
393.5761775622055
 20
28.32635512555987
 10
393.7016886847722
 20
28.47480818162555
 10
393.8997748732327
 20
28.67252241915381
 10
394.0698903515905
 20
28.77222014702475
 10
394.3240072284799
 20
28.92067320309043
 10
394.4692168724166
 20
28.94025270016223
 10
394.6289177246725
 20
28.93635465439262
 10
394.6289177246725
 20
28.93635465439262
 10
394.4728471135151
 20
28.43630382112264
 10
394.4728471135151
 20
28.43630382112264
 10
394.3712003627593
 20
28.47934598299858
 10
394.057958165685
 20
28.39741263165024
 10
393.8782612313133
 20
28.26815224368685
 10
393.7162096491659
 20
28.15159769956793
 10
393.6041780283826
 20
28.0524207030021
 10
393.4714361796937
 20
27.80309455411968
 10
393.3397060375404
 20
27.55339645430504
 10
393.2357383129677
 20
27.15524529842472
 10
393.0568150365349
 20
26.57765013480655
 10
393.0568150365349
 20
26.57765013480655
 10
392.4980257120495
 20
24.78695932282479
 10
392.4980257120495
 20
24.78695932282479
 10
392.4980257120495
 20
24.78695932282479
 10
392.1391674526484
 20
24.78695932282479
 10
392.1391674526484
 20
24.78695932282479
 10
392.1391674526484
 20
24.78695932282479
 10
393.3716045494872
 20
28.85519496098328
 10
393.3716045494872
 20
28.85519496098328
 97
        1
330
3C71
 92
        1
 93
        1
 72
     4
 94
        3
 73
     0
 74
     1
 95
      104
 96
      100
 40
0.0
 40
0.0
 40
0.0
 40
0.0
 40
1.0
 40
1.0
 40
1.0
 40
2.0
 40
2.0
 40
2.0
 40
3.0
 40
3.0
 40
3.0
 40
4.0
 40
4.0
 40
4.0
 40
5.0
 40
5.0
 40
5.0
 40
6.0
 40
6.0
 40
6.0
 40
7.0
 40
7.0
 40
7.0
 40
8.0
 40
8.0
 40
8.0
 40
9.0
 40
9.0
 40
9.0
 40
10.0
 40
10.0
 40
10.0
 40
11.0
 40
11.0
 40
11.0
 40
12.0
 40
12.0
 40
12.0
 40
13.0
 40
13.0
 40
13.0
 40
14.0
 40
14.0
 40
14.0
 40
15.0
 40
15.0
 40
15.0
 40
16.0
 40
16.0
 40
16.0
 40
17.0
 40
17.0
 40
17.0
 40
18.0
 40
18.0
 40
18.0
 40
19.0
 40
19.0
 40
19.0
 40
20.0
 40
20.0
 40
20.0
 40
21.0
 40
21.0
 40
21.0
 40
22.0
 40
22.0
 40
22.0
 40
23.0
 40
23.0
 40
23.0
 40
24.0
 40
24.0
 40
24.0
 40
25.0
 40
25.0
 40
25.0
 40
26.0
 40
26.0
 40
26.0
 40
27.0
 40
27.0
 40
27.0
 40
28.0
 40
28.0
 40
28.0
 40
29.0
 40
29.0
 40
29.0
 40
30.0
 40
30.0
 40
30.0
 40
31.0
 40
31.0
 40
31.0
 40
32.0
 40
32.0
 40
32.0
 40
33.0
 40
33.0
 40
33.0
 40
33.0
 10
395.4068307823444
 20
28.857396910502
 10
395.4068307823444
 20
28.857396910502
 10
395.7296544354325
 20
28.857396910502
 10
395.7296544354325
 20
28.857396910502
 10
395.7296544354325
 20
28.857396910502
 10
395.5665613906749
 20
28.32805122181077
 10
395.5665613906749
 20
28.32805122181077
 10
395.7081110374387
 20
28.55000178208216
 10
395.8351694758834
 20
28.64892585201409
 10
396.0039756869598
 20
28.77675794839777
 10
396.1732877513042
 20
28.90277492423224
 10
396.3742602789986
 20
28.92845441659237
 10
396.5137567566165
 20
28.92845441659237
 10
396.6864610134627
 20
28.92845441659237
 10
396.8531842993187
 20
28.8943539551269
 10
396.9408159389486
 20
28.70506068670399
 10
397.0079753992694
 20
28.55662250867558
 10
397.0110997871
 20
28.5391110587869
 10
396.9919071189977
 20
28.24610299242514
 10
397.1674382029287
 20
28.54650544331934
 10
397.2970854198616
 20
28.67589973361832
 10
397.5174886642549
 20
28.80022061320189
 10
397.7487826319435
 20
28.92845441659237
 10
397.8836074058529
 20
28.93805075064353
 10
398.0402433824273
 20
28.9149600367716
 10
398.2710017407735
 20
28.88087445334342
 10
398.4182943099307
 20
28.79853939498828
 10
398.4953030309365
 20
28.54832056386854
 10
398.5725795566135
 20
28.29887539068781
 10
398.5308317839817
 20
28.16507720135141
 10
398.4354040528126
 20
27.76796750808128
 10
398.3918411596316
 20
27.58711008680102
 10
398.3288177936771
 20
27.36812025595006
 10
398.2463637110236
 20
27.10754631087745
 10
398.2463637110236
 20
27.10754631087745
 10
397.5174886642549
 20
24.78695932282479
 10
397.5174886642549
 20
24.78695932282479
 10
397.5174886642549
 20
24.78695932282479
 10
397.1383962741413
 20
24.78695932282479
 10
397.1383962741413
 20
24.78695932282479
 10
397.1383962741413
 20
24.78695932282479
 10
397.7765450495241
 20
26.81569873142421
 10
397.7765450495241
 20
26.81569873142421
 10
397.9098225075554
 20
27.24016913526807
 10
398.0000429256735
 20
27.55015304217612
 10
398.0467302066851
 20
27.74450484327716
 10
398.1053199175276
 20
27.98694246089495
 10
398.1286486799962
 20
28.06694166739577
 10
398.1009160184902
 20
28.24339518963862
 10
398.0755043308013
 20
28.4076487213048
 10
397.9925146388055
 20
28.51460693137258
 10
397.8504293826993
 20
28.51460693137258
 10
397.6990007191758
 20
28.51460693137258
 10
397.5763461797686
 20
28.49775011512458
 10
397.4047131416073
 20
28.32532854098695
 10
397.2330503473714
 20
28.15159769956793
 10
397.0912031398618
 20
27.94766444245305
 10
396.9799749330922
 20
27.71312706263549
 10
396.8689847749192
 20
27.47716139123824
 10
396.7564473008682
 20
27.17806820762544
 10
396.6423625109393
 20
26.81569873142421
 10
396.6423625109393
 20
26.81569873142421
 10
396.0039756869598
 20
24.78695932282479
 10
396.0039756869598
 20
24.78695932282479
 10
396.0039756869598
 20
24.78695932282479
 10
395.6474384013758
 20
24.78695932282479
 10
395.6474384013758
 20
24.78695932282479
 10
395.6474384013758
 20
24.78695932282479
 10
396.3773549107547
 20
27.10650484826726
 10
396.3773549107547
 20
27.10650484826726
 10
396.4543636317604
 20
27.35336124295977
 10
396.5122094407385
 20
27.55457181925085
 10
396.5503269722719
 20
27.71183267339138
 10
396.6151357027011
 20
27.98253856185753
 10
396.6332869081932
 20
28.1655979326565
 10
396.5842786533645
 20
28.32805122181077
 10
396.5360440564749
 20
28.48998377965993
 10
396.4512690000045
 20
28.53134472332225
 10
396.3096895971661
 20
28.53134472332225
 10
396.1909331035284
 20
28.53134472332225
 10
396.0750331930502
 20
28.48038744560878
 10
395.9427971976291
 20
28.37899362148695
 10
395.7763119603696
 20
28.25142932977446
 10
395.7096881093912
 20
28.1466730692254
 10
395.6280076846768
 20
28.02220340926895
 10
395.5177911844429
 20
27.85754817059597
 10
395.4661941511259
 20
27.74670679279587
 10
395.3731171498484
 20
27.50348063920177
 10
395.2800103924964
 20
27.25882619402798
 10
395.1918728995987
 20
26.97412007247326
 10
395.1303968495222
 20
26.77719437092129
 10
395.1303968495222
 20
26.77719437092129
 10
394.5042100161195
 20
24.78695932282479
 10
394.5042100161195
 20
24.78695932282479
 10
394.5042100161195
 20
24.78695932282479
 10
394.1308307923247
 20
24.78695932282479
 10
394.1308307923247
 20
24.78695932282479
 10
394.1308307923247
 20
24.78695932282479
 10
395.4068307823444
 20
28.857396910502
 10
395.4068307823444
 20
28.857396910502
 97
        1
330
3C72
 92
       16
 93
        1
 72
     4
 94
        3
 73
     0
 74
     1
 95
       29
 96
       25
 40
0.0
 40
0.0
 40
0.0
 40
0.0
 40
1.0
 40
1.0
 40
1.0
 40
2.0
 40
2.0
 40
2.0
 40
3.0
 40
3.0
 40
3.0
 40
4.0
 40
4.0
 40
4.0
 40
5.0
 40
5.0
 40
5.0
 40
6.0
 40
6.0
 40
6.0
 40
7.0
 40
7.0
 40
7.0
 40
8.0
 40
8.0
 40
8.0
 40
8.0
 10
389.6462927927937
 20
25.54487629838084
 10
389.6447157208412
 20
25.82830290872873
 10
389.7341922370948
 20
26.33186495879882
 10
389.9634032795631
 20
27.00563175545052
 10
390.2756040140271
 20
27.91796788002499
 10
390.4628292352669
 20
28.25142932977446
 10
390.6266661818889
 20
28.41374871659313
 10
390.866024045788
 20
28.65010121695988
 10
391.1878062362659
 20
28.66188462249246
 10
391.2827281141673
 20
28.65010121695988
 10
391.4178206927478
 20
28.6338841563153
 10
391.6086463990114
 20
28.54546398070914
 10
391.6200429755745
 20
28.24779908867604
 10
391.629148334395
 20
27.99304245618328
 10
391.5557400984131
 20
27.51593355641234
 10
391.2987963944389
 20
26.76695828126675
 10
391.0026639402465
 20
25.896622855958
 10
390.824782126424
 20
25.55448751046927
 10
390.6821910170501
 20
25.40537982076289
 10
390.413553175767
 20
25.1258512561846
 10
390.1254548617105
 20
25.15269123545324
 10
390.0829334311396
 20
25.15269123545324
 10
390.0277061567243
 20
25.15269123545324
 10
389.6470664507327
 20
25.21261996965174
 10
389.6462927927937
 20
25.54487629838084
 97
        1
330
3C74
 75
     0
 76
     1
 98
        1
 10
371.9300318427923
 20
14.61939790801677
1001
ACAD
1010
0.0
1020
0.0
1030
0.0
  0
POLYLINE
  5
3C65
102
{ACAD_REACTORS
330
3C64
330
3C75
102
}
330
A
100
AcDbEntity
  8
TEMPLATE
100
AcDb2dPolyline
 66
     1
 10
0.0
 20
0.0
 30
0.0
  0
VERTEX
  5
3C66
330
3C65
100
AcDbEntity
  8
TEMPLATE
100
AcDbVertex
100
AcDb2dVertex
 10
386.9584116981973
 20
30.78695932253559
 30
0.0
  0
VERTEX
  5
3C67
330
3C65
100
AcDbEntity
  8
TEMPLATE
100
AcDbVertex
100
AcDb2dVertex
 10
386.9584116981973
 20
29.60507779640349
 30
0.0
  0
VERTEX
  5
3C68
330
3C65
100
AcDbEntity
  8
TEMPLATE
100
AcDbVertex
100
AcDb2dVertex
 10
385.086293388135
 20
29.60507779640349
 30
0.0
  0
VERTEX
  5
3C69
330
3C65
100
AcDbEntity
  8
TEMPLATE
100
AcDbVertex
100
AcDb2dVertex
 10
385.086293388135
 20
24.78695932282479
 30
0.0
  0
VERTEX
  5
3C6A
330
3C65
100
AcDbEntity
  8
TEMPLATE
100
AcDbVertex
100
AcDb2dVertex
 10
383.4397707574798
 20
24.78695932282479
 30
0.0
  0
VERTEX
  5
3C6B
330
3C65
100
AcDbEntity
  8
TEMPLATE
100
AcDbVertex
100
AcDb2dVertex
 10
383.4397707574798
 20
29.60507779640349
 30
0.0
  0
VERTEX
  5
3C6C
330
3C65
100
AcDbEntity
  8
TEMPLATE
100
AcDbVertex
100
AcDb2dVertex
 10
381.6008304705712
 20
29.60507779640349
 30
0.0
  0
VERTEX
  5
3C6D
330
3C65
100
AcDbEntity
  8
TEMPLATE
100
AcDbVertex
100
AcDb2dVertex
 10
381.6008304705712
 20
30.78695932253559
 30
0.0
  0
VERTEX
  5
3C6E
330
3C65
100
AcDbEntity
  8
TEMPLATE
100
AcDbVertex
100
AcDb2dVertex
 10
386.9584116981973
 20
30.78695932253559
 30
0.0
  0
SEQEND
  5
3C6F
330
3C65
100
AcDbEntity
  8
TEMPLATE
  0
SPLINE
  5
3C70
102
{ACAD_REACTORS
330
3C64
330
3C75
102
}
330
A
100
AcDbEntity
  8
TEMPLATE
100
AcDbSpline
210
0.0
220
0.0
230
1.0
 70
    11
 71
     3
 72
    56
 73
    52
 74
     0
 42
0.000000001
 43
0.0000000001
 40
0.0
 40
0.0
 40
0.0
 40
0.0
 40
1.0
 40
1.0
 40
1.0
 40
2.0
 40
2.0
 40
2.0
 40
3.0
 40
3.0
 40
3.0
 40
4.0
 40
4.0
 40
4.0
 40
5.0
 40
5.0
 40
5.0
 40
6.0
 40
6.0
 40
6.0
 40
7.0
 40
7.0
 40
7.0
 40
8.0
 40
8.0
 40
8.0
 40
9.0
 40
9.0
 40
9.0
 40
10.0
 40
10.0
 40
10.0
 40
11.0
 40
11.0
 40
11.0
 40
12.0
 40
12.0
 40
12.0
 40
13.0
 40
13.0
 40
13.0
 40
14.0
 40
14.0
 40
14.0
 40
15.0
 40
15.0
 40
15.0
 40
16.0
 40
16.0
 40
16.0
 40
17.0
 40
17.0
 40
17.0
 40
17.0
 10
389.4668487850558
 20
30.64408553045313
 30
0.0
 10
389.6976220214394
 20
30.70904304125516
 30
0.0
 10
389.9955398401064
 20
30.65470844907718
 30
0.0
 10
389.9955398401064
 20
30.65470844907718
 30
0.0
 10
389.9955398401064
 20
30.65470844907718
 30
0.0
 10
389.85241312139
 20
30.22519439059248
 30
0.0
 10
389.85241312139
 20
30.22519439059248
 30
0.0
 10
389.85241312139
 20
30.22519439059248
 30
0.0
 10
389.5599406643706
 20
30.29287458221835
 30
0.0
 10
389.3343598630008
 20
30.1149927683958
 30
0.0
 10
389.1590668276665
 20
29.97588311974736
 30
0.0
 10
389.0455027690426
 20
29.60625316134929
 30
0.0
 10
389.0019398758616
 20
29.46571522112114
 30
0.0
 10
389.0019398758616
 20
29.46571522112114
 30
0.0
 10
388.8077219770962
 20
28.86958202304137
 30
0.0
 10
388.8077219770962
 20
28.86958202304137
 30
0.0
 10
388.8077219770962
 20
28.86958202304137
 30
0.0
 10
389.4445466071603
 20
28.86958202304137
 30
0.0
 10
389.4445466071603
 20
28.86958202304137
 30
0.0
 10
389.4445466071603
 20
28.86958202304137
 30
0.0
 10
389.34550351293
 20
28.49438767869736
 30
0.0
 10
389.34550351293
 20
28.49438767869736
 30
0.0
 10
389.34550351293
 20
28.49438767869736
 30
0.0
 10
388.7034864478522
 20
28.49438767869736
 30
0.0
 10
388.7034864478522
 20
28.49438767869736
 30
0.0
 10
388.7034864478522
 20
28.49438767869736
 30
0.0
 10
387.5547978229109
 20
24.78695932282479
 30
0.0
 10
387.5547978229109
 20
24.78695932282479
 30
0.0
 10
387.5547978229109
 20
24.78695932282479
 30
0.0
 10
387.1951510275336
 20
24.78695932282479
 30
0.0
 10
387.1951510275336
 20
24.78695932282479
 30
0.0
 10
387.1951510275336
 20
24.78695932282479
 30
0.0
 10
388.3448811150849
 20
28.49438767869736
 30
0.0
 10
388.3448811150849
 20
28.49438767869736
 30
0.0
 10
388.3448811150849
 20
28.49438767869736
 30
0.0
 10
387.8711346517413
 20
28.49438767869736
 30
0.0
 10
387.8711346517413
 20
28.49438767869736
 30
0.0
 10
387.8711346517413
 20
28.49438767869736
 30
0.0
 10
387.9704455506427
 20
28.86958202304137
 30
0.0
 10
387.9704455506427
 20
28.86958202304137
 30
0.0
 10
387.9704455506427
 20
28.86958202304137
 30
0.0
 10
388.4491166443289
 20
28.86958202304137
 30
0.0
 10
388.4491166443289
 20
28.86958202304137
 30
0.0
 10
388.4491166443289
 20
28.86958202304137
 30
0.0
 10
388.6184287086733
 20
29.38948015805433
 30
0.0
 10
388.6184287086733
 20
29.38948015805433
 30
0.0
 10
388.7553364078029
 20
29.82536201649855
 30
0.0
 10
388.8715041229524
 20
30.059378665011
 30
0.0
 10
388.971082826525
 20
30.23581730921654
 30
0.0
 10
389.0696051894502
 20
30.41240473379499
 30
0.0
 10
389.2645967461546
 20
30.58586777054282
 30
0.0
 10
389.4668487850558
 20
30.64408553045313
 30
0.0
  0
SPLINE
  5
3C71
102
{ACAD_REACTORS
330
3C64
330
3C75
102
}
330
A
100
AcDbEntity
  8
TEMPLATE
100
AcDbSpline
210
0.0
220
0.0
230
1.0
 70
    11
 71
     3
 72
    38
 73
    34
 74
     0
 42
0.000000001
 43
0.0000000001
 40
0.0
 40
0.0
 40
0.0
 40
0.0
 40
1.0
 40
1.0
 40
1.0
 40
2.0
 40
2.0
 40
2.0
 40
3.0
 40
3.0
 40
3.0
 40
4.0
 40
4.0
 40
4.0
 40
5.0
 40
5.0
 40
5.0
 40
6.0
 40
6.0
 40
6.0
 40
7.0
 40
7.0
 40
7.0
 40
8.0
 40
8.0
 40
8.0
 40
9.0
 40
9.0
 40
9.0
 40
10.0
 40
10.0
 40
10.0
 40
11.0
 40
11.0
 40
11.0
 40
11.0
 10
393.3716045494872
 20
28.85519496098328
 30
0.0
 10
393.3716045494872
 20
28.85519496098328
 30
0.0
 10
393.7413535321836
 20
28.85519496098328
 30
0.0
 10
393.7413535321836
 20
28.85519496098328
 30
0.0
 10
393.7413535321836
 20
28.85519496098328
 30
0.0
 10
393.5761775622055
 20
28.32635512555987
 30
0.0
 10
393.5761775622055
 20
28.32635512555987
 30
0.0
 10
393.7016886847722
 20
28.47480818162555
 30
0.0
 10
393.8997748732327
 20
28.67252241915381
 30
0.0
 10
394.0698903515905
 20
28.77222014702475
 30
0.0
 10
394.3240072284799
 20
28.92067320309043
 30
0.0
 10
394.4692168724166
 20
28.94025270016223
 30
0.0
 10
394.6289177246725
 20
28.93635465439262
 30
0.0
 10
394.6289177246725
 20
28.93635465439262
 30
0.0
 10
394.4728471135151
 20
28.43630382112264
 30
0.0
 10
394.4728471135151
 20
28.43630382112264
 30
0.0
 10
394.3712003627593
 20
28.47934598299858
 30
0.0
 10
394.057958165685
 20
28.39741263165024
 30
0.0
 10
393.8782612313133
 20
28.26815224368685
 30
0.0
 10
393.7162096491659
 20
28.15159769956793
 30
0.0
 10
393.6041780283826
 20
28.0524207030021
 30
0.0
 10
393.4714361796937
 20
27.80309455411968
 30
0.0
 10
393.3397060375404
 20
27.55339645430504
 30
0.0
 10
393.2357383129677
 20
27.15524529842472
 30
0.0
 10
393.0568150365349
 20
26.57765013480655
 30
0.0
 10
393.0568150365349
 20
26.57765013480655
 30
0.0
 10
392.4980257120495
 20
24.78695932282479
 30
0.0
 10
392.4980257120495
 20
24.78695932282479
 30
0.0
 10
392.4980257120495
 20
24.78695932282479
 30
0.0
 10
392.1391674526484
 20
24.78695932282479
 30
0.0
 10
392.1391674526484
 20
24.78695932282479
 30
0.0
 10
392.1391674526484
 20
24.78695932282479
 30
0.0
 10
393.3716045494872
 20
28.85519496098328
 30
0.0
 10
393.3716045494872
 20
28.85519496098328
 30
0.0
  0
SPLINE
  5
3C72
102
{ACAD_REACTORS
330
3C64
330
3C75
102
}
330
A
100
AcDbEntity
  8
TEMPLATE
100
AcDbSpline
210
0.0
220
0.0
230
1.0
 70
    11
 71
     3
 72
   104
 73
   100
 74
     0
 42
0.000000001
 43
0.0000000001
 40
0.0
 40
0.0
 40
0.0
 40
0.0
 40
1.0
 40
1.0
 40
1.0
 40
2.0
 40
2.0
 40
2.0
 40
3.0
 40
3.0
 40
3.0
 40
4.0
 40
4.0
 40
4.0
 40
5.0
 40
5.0
 40
5.0
 40
6.0
 40
6.0
 40
6.0
 40
7.0
 40
7.0
 40
7.0
 40
8.0
 40
8.0
 40
8.0
 40
9.0
 40
9.0
 40
9.0
 40
10.0
 40
10.0
 40
10.0
 40
11.0
 40
11.0
 40
11.0
 40
12.0
 40
12.0
 40
12.0
 40
13.0
 40
13.0
 40
13.0
 40
14.0
 40
14.0
 40
14.0
 40
15.0
 40
15.0
 40
15.0
 40
16.0
 40
16.0
 40
16.0
 40
17.0
 40
17.0
 40
17.0
 40
18.0
 40
18.0
 40
18.0
 40
19.0
 40
19.0
 40
19.0
 40
20.0
 40
20.0
 40
20.0
 40
21.0
 40
21.0
 40
21.0
 40
22.0
 40
22.0
 40
22.0
 40
23.0
 40
23.0
 40
23.0
 40
24.0
 40
24.0
 40
24.0
 40
25.0
 40
25.0
 40
25.0
 40
26.0
 40
26.0
 40
26.0
 40
27.0
 40
27.0
 40
27.0
 40
28.0
 40
28.0
 40
28.0
 40
29.0
 40
29.0
 40
29.0
 40
30.0
 40
30.0
 40
30.0
 40
31.0
 40
31.0
 40
31.0
 40
32.0
 40
32.0
 40
32.0
 40
33.0
 40
33.0
 40
33.0
 40
33.0
 10
395.4068307823444
 20
28.857396910502
 30
0.0
 10
395.4068307823444
 20
28.857396910502
 30
0.0
 10
395.7296544354325
 20
28.857396910502
 30
0.0
 10
395.7296544354325
 20
28.857396910502
 30
0.0
 10
395.7296544354325
 20
28.857396910502
 30
0.0
 10
395.5665613906749
 20
28.32805122181077
 30
0.0
 10
395.5665613906749
 20
28.32805122181077
 30
0.0
 10
395.7081110374387
 20
28.55000178208216
 30
0.0
 10
395.8351694758834
 20
28.64892585201409
 30
0.0
 10
396.0039756869598
 20
28.77675794839777
 30
0.0
 10
396.1732877513042
 20
28.90277492423224
 30
0.0
 10
396.3742602789986
 20
28.92845441659237
 30
0.0
 10
396.5137567566165
 20
28.92845441659237
 30
0.0
 10
396.6864610134627
 20
28.92845441659237
 30
0.0
 10
396.8531842993187
 20
28.8943539551269
 30
0.0
 10
396.9408159389486
 20
28.70506068670399
 30
0.0
 10
397.0079753992694
 20
28.55662250867558
 30
0.0
 10
397.0110997871
 20
28.5391110587869
 30
0.0
 10
396.9919071189977
 20
28.24610299242514
 30
0.0
 10
397.1674382029287
 20
28.54650544331934
 30
0.0
 10
397.2970854198616
 20
28.67589973361832
 30
0.0
 10
397.5174886642549
 20
28.80022061320189
 30
0.0
 10
397.7487826319435
 20
28.92845441659237
 30
0.0
 10
397.8836074058529
 20
28.93805075064353
 30
0.0
 10
398.0402433824273
 20
28.9149600367716
 30
0.0
 10
398.2710017407735
 20
28.88087445334342
 30
0.0
 10
398.4182943099307
 20
28.79853939498828
 30
0.0
 10
398.4953030309365
 20
28.54832056386854
 30
0.0
 10
398.5725795566135
 20
28.29887539068781
 30
0.0
 10
398.5308317839817
 20
28.16507720135141
 30
0.0
 10
398.4354040528126
 20
27.76796750808128
 30
0.0
 10
398.3918411596316
 20
27.58711008680102
 30
0.0
 10
398.3288177936771
 20
27.36812025595006
 30
0.0
 10
398.2463637110236
 20
27.10754631087745
 30
0.0
 10
398.2463637110236
 20
27.10754631087745
 30
0.0
 10
397.5174886642549
 20
24.78695932282479
 30
0.0
 10
397.5174886642549
 20
24.78695932282479
 30
0.0
 10
397.5174886642549
 20
24.78695932282479
 30
0.0
 10
397.1383962741413
 20
24.78695932282479
 30
0.0
 10
397.1383962741413
 20
24.78695932282479
 30
0.0
 10
397.1383962741413
 20
24.78695932282479
 30
0.0
 10
397.7765450495241
 20
26.81569873142421
 30
0.0
 10
397.7765450495241
 20
26.81569873142421
 30
0.0
 10
397.9098225075554
 20
27.24016913526807
 30
0.0
 10
398.0000429256735
 20
27.55015304217612
 30
0.0
 10
398.0467302066851
 20
27.74450484327716
 30
0.0
 10
398.1053199175276
 20
27.98694246089495
 30
0.0
 10
398.1286486799962
 20
28.06694166739577
 30
0.0
 10
398.1009160184902
 20
28.24339518963862
 30
0.0
 10
398.0755043308013
 20
28.4076487213048
 30
0.0
 10
397.9925146388055
 20
28.51460693137258
 30
0.0
 10
397.8504293826993
 20
28.51460693137258
 30
0.0
 10
397.6990007191758
 20
28.51460693137258
 30
0.0
 10
397.5763461797686
 20
28.49775011512458
 30
0.0
 10
397.4047131416073
 20
28.32532854098695
 30
0.0
 10
397.2330503473714
 20
28.15159769956793
 30
0.0
 10
397.0912031398618
 20
27.94766444245305
 30
0.0
 10
396.9799749330922
 20
27.71312706263549
 30
0.0
 10
396.8689847749192
 20
27.47716139123824
 30
0.0
 10
396.7564473008682
 20
27.17806820762544
 30
0.0
 10
396.6423625109393
 20
26.81569873142421
 30
0.0
 10
396.6423625109393
 20
26.81569873142421
 30
0.0
 10
396.0039756869598
 20
24.78695932282479
 30
0.0
 10
396.0039756869598
 20
24.78695932282479
 30
0.0
 10
396.0039756869598
 20
24.78695932282479
 30
0.0
 10
395.6474384013758
 20
24.78695932282479
 30
0.0
 10
395.6474384013758
 20
24.78695932282479
 30
0.0
 10
395.6474384013758
 20
24.78695932282479
 30
0.0
 10
396.3773549107547
 20
27.10650484826726
 30
0.0
 10
396.3773549107547
 20
27.10650484826726
 30
0.0
 10
396.4543636317604
 20
27.35336124295977
 30
0.0
 10
396.5122094407385
 20
27.55457181925085
 30
0.0
 10
396.5503269722719
 20
27.71183267339138
 30
0.0
 10
396.6151357027011
 20
27.98253856185753
 30
0.0
 10
396.6332869081932
 20
28.1655979326565
 30
0.0
 10
396.5842786533645
 20
28.32805122181077
 30
0.0
 10
396.5360440564749
 20
28.48998377965993
 30
0.0
 10
396.4512690000045
 20
28.53134472332225
 30
0.0
 10
396.3096895971661
 20
28.53134472332225
 30
0.0
 10
396.1909331035284
 20
28.53134472332225
 30
0.0
 10
396.0750331930502
 20
28.48038744560878
 30
0.0
 10
395.9427971976291
 20
28.37899362148695
 30
0.0
 10
395.7763119603696
 20
28.25142932977446
 30
0.0
 10
395.7096881093912
 20
28.1466730692254
 30
0.0
 10
395.6280076846768
 20
28.02220340926895
 30
0.0
 10
395.5177911844429
 20
27.85754817059597
 30
0.0
 10
395.4661941511259
 20
27.74670679279587
 30
0.0
 10
395.3731171498484
 20
27.50348063920177
 30
0.0
 10
395.2800103924964
 20
27.25882619402798
 30
0.0
 10
395.1918728995987
 20
26.97412007247326
 30
0.0
 10
395.1303968495222
 20
26.77719437092129
 30
0.0
 10
395.1303968495222
 20
26.77719437092129
 30
0.0
 10
394.5042100161195
 20
24.78695932282479
 30
0.0
 10
394.5042100161195
 20
24.78695932282479
 30
0.0
 10
394.5042100161195
 20
24.78695932282479
 30
0.0
 10
394.1308307923247
 20
24.78695932282479
 30
0.0
 10
394.1308307923247
 20
24.78695932282479
 30
0.0
 10
394.1308307923247
 20
24.78695932282479
 30
0.0
 10
395.4068307823444
 20
28.857396910502
 30
0.0
 10
395.4068307823444
 20
28.857396910502
 30
0.0
  0
SPLINE
  5
3C73
102
{ACAD_REACTORS
330
3C64
330
3C75
102
}
330
A
100
AcDbEntity
  8
TEMPLATE
100
AcDbSpline
210
0.0
220
0.0
230
1.0
 70
    11
 71
     3
 72
    32
 73
    28
 74
     0
 42
0.000000001
 43
0.0000000001
 40
0.0
 40
0.0
 40
0.0
 40
0.0
 40
1.0
 40
1.0
 40
1.0
 40
2.0
 40
2.0
 40
2.0
 40
3.0
 40
3.0
 40
3.0
 40
4.0
 40
4.0
 40
4.0
 40
5.0
 40
5.0
 40
5.0
 40
6.0
 40
6.0
 40
6.0
 40
7.0
 40
7.0
 40
7.0
 40
8.0
 40
8.0
 40
8.0
 40
9.0
 40
9.0
 40
9.0
 40
9.0
 10
390.3419600603343
 20
28.64284073476305
 30
0.0
 10
390.1254548617105
 20
28.36279143887966
 30
0.0
 10
389.9587315758544
 20
28.11075748721071
 30
0.0
 10
389.6888142233646
 20
27.31860614785359
 30
0.0
 10
389.4406634394279
 20
26.59401597582401
 30
0.0
 10
389.2827479516467
 20
26.06685735861421
 30
0.0
 10
389.2588984578731
 20
25.42484029353638
 30
0.0
 10
389.240747252381
 20
24.94707676012474
 30
0.0
 10
389.5316723935223
 20
24.78695932282479
 30
0.0
 10
389.9582257225866
 20
24.78695932282479
 30
0.0
 10
390.1420587513246
 20
24.78695932282479
 30
0.0
 10
390.6059559539832
 20
24.79865346013363
 30
0.0
 10
390.9363078939394
 20
25.20702582763122
 30
0.0
 10
391.1675721055534
 20
25.49393389870466
 30
0.0
 10
391.38071486775
 20
25.79134586410385
 30
0.0
 10
391.6664624519149
 20
26.76695828126675
 30
0.0
 10
391.9042432438614
 20
27.58257228542799
 30
0.0
 10
392.068883604497
 20
28.10971602460051
 30
0.0
 10
392.056713369995
 20
28.40985067082352
 30
0.0
 10
392.056713369995
 20
28.40985067082352
 30
0.0
 10
392.056713369995
 20
28.40985067082352
 30
0.0
 10
392.056713369995
 20
28.40985067082352
 30
0.0
 10
391.9791690396468
 20
28.91055613773418
 30
0.0
 10
391.615639076537
 20
29.01635386089345
 30
0.0
 10
391.4079416759881
 20
29.01635386089345
 30
0.0
 10
391.2033686632698
 20
29.01635386089345
 30
0.0
 10
390.6552022574085
 20
29.05174871160303
 30
0.0
 10
390.3419600603343
 20
28.64284073476305
 30
0.0
  0
SPLINE
  5
3C74
102
{ACAD_REACTORS
330
3C64
330
3C75
102
}
330
A
100
AcDbEntity
  8
TEMPLATE
100
AcDbSpline
210
0.0
220
0.0
230
1.0
 70
    11
 71
     3
 72
    29
 73
    25
 74
     0
 42
0.000000001
 43
0.0000000001
 40
0.0
 40
0.0
 40
0.0
 40
0.0
 40
1.0
 40
1.0
 40
1.0
 40
2.0
 40
2.0
 40
2.0
 40
3.0
 40
3.0
 40
3.0
 40
4.0
 40
4.0
 40
4.0
 40
5.0
 40
5.0
 40
5.0
 40
6.0
 40
6.0
 40
6.0
 40
7.0
 40
7.0
 40
7.0
 40
8.0
 40
8.0
 40
8.0
 40
8.0
 10
389.6462927927937
 20
25.54487629838084
 30
0.0
 10
389.6447157208412
 20
25.82830290872873
 30
0.0
 10
389.7341922370948
 20
26.33186495879882
 30
0.0
 10
389.9634032795631
 20
27.00563175545052
 30
0.0
 10
390.2756040140271
 20
27.91796788002499
 30
0.0
 10
390.4628292352669
 20
28.25142932977446
 30
0.0
 10
390.6266661818889
 20
28.41374871659313
 30
0.0
 10
390.866024045788
 20
28.65010121695988
 30
0.0
 10
391.1878062362659
 20
28.66188462249246
 30
0.0
 10
391.2827281141673
 20
28.65010121695988
 30
0.0
 10
391.4178206927478
 20
28.6338841563153
 30
0.0
 10
391.6086463990114
 20
28.54546398070914
 30
0.0
 10
391.6200429755745
 20
28.24779908867604
 30
0.0
 10
391.629148334395
 20
27.99304245618328
 30
0.0
 10
391.5557400984131
 20
27.51593355641234
 30
0.0
 10
391.2987963944389
 20
26.76695828126675
 30
0.0
 10
391.0026639402465
 20
25.896622855958
 30
0.0
 10
390.824782126424
 20
25.55448751046927
 30
0.0
 10
390.6821910170501
 20
25.40537982076289
 30
0.0
 10
390.413553175767
 20
25.1258512561846
 30
0.0
 10
390.1254548617105
 20
25.15269123545324
 30
0.0
 10
390.0829334311396
 20
25.15269123545324
 30
0.0
 10
390.0277061567243
 20
25.15269123545324
 30
0.0
 10
389.6470664507327
 20
25.21261996965174
 30
0.0
 10
389.6462927927937
 20
25.54487629838084
 30
0.0
  0
MTEXT
  5
3C9A
330
A
100
AcDbEntity
  8
TEMPLATE
390
1D
100
AcDbMText
 10
26.44042890954615
 20
46.02985813878568
 30
0.0
 40
4.8865234375
 41
0.0
 46
4.959848786068213
 71
     1
 72
     1
  1
{シェルフ：マットガラス}
  7
ＭＳ ゴシック
 73
     1
 44
0.7828267384257843
1001
ACAD
1000
ACAD_MTEXT_DEFINED_HEIGHT_BEGIN
1070
    46
1040
4.959848786068213
1000
ACAD_MTEXT_DEFINED_HEIGHT_END
  0
MTEXT
  5
3CB5
102
{ACAD_XDICTIONARY
360
3CB7
102
}
330
A
100
AcDbEntity
  8
TEMPLATE
100
AcDbMText
 10
15.00779663219942
 20
17.57619761830519
 30
0.0
 40
4.0
 41
0.0
 46
4.0
 71
     1
 72
     1
  1
{20220318M}
  7
ＭＳ ゴシック
 73
     1
 44
1.0
1001
ACAD
1000
ACAD_MTEXT_DEFINED_HEIGHT_BEGIN
1070
    46
1040
4.0
1000
ACAD_MTEXT_DEFINED_HEIGHT_END
  0
INSERT
  5
4084
330
A
100
AcDbEntity
  8
HIDDEN
100
AcDbBlockReference
  2
block 2
 10
557.1863957766757
 20
311.2364791919007
 30
0.0
  0
LINE
  5
4290
330
A
100
AcDbEntity
  8
MODEL
100
AcDbLine
 10
91.98836935868422
 20
184.9427528660003
 30
0.0
 11
91.98836935868422
 21
207.9332831040815
 31
0.0
  0
LINE
  5
4291
330
A
100
AcDbEntity
  8
HIDDEN
100
AcDbLine
 10
144.7630535140823
 20
186.8236276408522
 30
0.0
 11
144.7630535140823
 21
206.0524083292296
 31
0.0
  0
LINE
  5
4293
330
A
100
AcDbEntity
  8
MODEL
100
AcDbLine
 10
311.4479434727789
 20
184.9427528660003
 30
0.0
 11
91.98836935868422
 21
184.9427528660003
 31
0.0
  0
LINE
  5
4295
330
A
100
AcDbEntity
  8
HIDDEN
100
AcDbLine
 10
258.3601438531221
 20
186.5099666792687
 30
0.0
 11
145.0772599729901
 21
186.5099666792687
 31
0.0
  0
LINE
  5
4296
330
A
100
AcDbEntity
  8
HIDDEN
100
AcDbLine
 10
258.3601438531221
 20
206.3660692908131
 30
0.0
 11
145.0772599729901
 21
206.3660692908131
 31
0.0
  0
LINE
  5
4299
330
A
100
AcDbEntity
  8
HIDDEN
100
AcDbLine
 10
258.6732593173813
 20
186.8236276408522
 30
0.0
 11
258.6732593173813
 21
206.0524083292296
 31
0.0
  0
LINE
  5
429A
102
{ACAD_REACTORS
330
447D
102
}
330
A
100
AcDbEntity
  8
MODEL
100
AcDbLine
 10
311.4479434727789
 20
184.9427528660003
 30
0.0
 11
311.4479434727789
 21
207.9332831040815
 31
0.0
  0
LINE
  5
429B
102
{ACAD_REACTORS
330
449E
330
44C9
102
}
330
A
100
AcDbEntity
  8
MODEL
100
AcDbLine
 10
311.4479434727787
 20
421.3730210265666
 30
0.0
 11
311.4479434727787
 21
399.3872968602017
 31
0.0
  0
LINE
  5
429C
330
A
100
AcDbEntity
  8
MODEL
100
AcDbLine
 10
258.6732593173807
 20
426.0752079636961
 30
0.0
 11
258.6732593173807
 21
416.7341117790783
 31
0.0
  0
LINE
  5
429D
330
A
100
AcDbEntity
  8
MODEL
100
AcDbLine
 10
144.7630535140816
 20
426.0752079636961
 30
0.0
 11
258.6727138200563
 21
426.0752079636961
 31
0.0
  0
LINE
  5
429E
330
A
100
AcDbEntity
  8
MODEL
100
AcDbLine
 10
91.988369358684
 20
421.3730210265666
 30
0.0
 11
144.7630535140816
 21
421.3730210265666
 31
0.0
  0
LINE
  5
429F
330
A
100
AcDbEntity
  8
MODEL
100
AcDbLine
 10
258.6732593173807
 20
421.3730210265666
 30
0.0
 11
311.447397975454
 21
421.3730210265666
 31
0.0
  0
LINE
  5
42A0
330
A
100
AcDbEntity
  8
MODEL
100
AcDbLine
 10
258.3595983557971
 20
416.4209963148195
 30
0.0
 11
145.0761689783408
 21
416.4209963148195
 31
0.0
  0
LINE
  5
42A1
330
A
100
AcDbEntity
  8
MODEL
100
AcDbLine
 10
91.988369358684
 20
399.3872968602017
 30
0.0
 11
311.4479434727787
 21
399.3872968602017
 31
0.0
  0
LINE
  5
42A2
330
A
100
AcDbEntity
  8
MODEL
100
AcDbLine
 10
144.7630535140816
 20
416.7341117790783
 30
0.0
 11
144.7630535140816
 21
426.0752079636961
 31
0.0
  0
LINE
  5
42A3
102
{ACAD_REACTORS
330
449E
102
}
330
A
100
AcDbEntity
  8
MODEL
100
AcDbLine
 10
91.988369358684
 20
421.3730210265666
 30
0.0
 11
91.988369358684
 21
399.3872968602017
 31
0.0
  0
SPLINE
  5
42A4
330
A
100
AcDbEntity
  8
HIDDEN
100
AcDbSpline
210
0.0
220
0.0
230
1.0
 70
     8
 71
     3
 72
     8
 73
     4
 74
     0
 42
0.000000001
 43
0.0000000001
 40
0.0
 40
0.0
 40
0.0
 40
0.0
 40
1.0
 40
1.0
 40
1.0
 40
1.0
 10
258.6732593173813
 20
206.0524083292296
 30
0.0
 10
258.6732593173813
 20
206.225330981094
 30
0.0
 10
258.5325210076624
 20
206.3660692908131
 30
0.0
 10
258.3601438531221
 20
206.3660692908131
 30
0.0
  0
SPLINE
  5
42A5
330
A
100
AcDbEntity
  8
HIDDEN
100
AcDbSpline
210
0.0
220
0.0
230
1.0
 70
     8
 71
     3
 72
     8
 73
     4
 74
     0
 42
0.000000001
 43
0.0000000001
 40
0.0
 40
0.0
 40
0.0
 40
0.0
 40
1.0
 40
1.0
 40
1.0
 40
1.0
 10
145.0767144756658
 20
206.3660692908131
 30
0.0
 10
144.9037918238012
 20
206.3660692908131
 30
0.0
 10
144.7630535140823
 20
206.2264219757428
 30
0.0
 10
144.7630535140823
 20
206.0524083292296
 30
0.0
  0
SPLINE
  5
42A6
330
A
100
AcDbEntity
  8
HIDDEN
100
AcDbSpline
210
0.0
220
0.0
230
1.0
 70
     8
 71
     3
 72
     8
 73
     4
 74
     0
 42
0.000000001
 43
0.0000000001
 40
0.0
 40
0.0
 40
0.0
 40
0.0
 40
1.0
 40
1.0
 40
1.0
 40
1.0
 10
144.7630535140823
 20
186.8236276408522
 30
0.0
 10
144.7630535140823
 20
186.6507049889879
 30
0.0
 10
144.9037918238012
 20
186.5099666792687
 30
0.0
 10
145.0767144756658
 20
186.5099666792687
 30
0.0
  0
SPLINE
  5
42A7
330
A
100
AcDbEntity
  8
HIDDEN
100
AcDbSpline
210
0.0
220
0.0
230
1.0
 70
     8
 71
     3
 72
     8
 73
     4
 74
     0
 42
0.000000001
 43
0.0000000001
 40
0.0
 40
0.0
 40
0.0
 40
0.0
 40
1.0
 40
1.0
 40
1.0
 40
1.0
 10
258.3601438531221
 20
186.5099666792687
 30
0.0
 10
258.5325210076624
 20
186.5099666792687
 30
0.0
 10
258.6732593173813
 20
186.6496139943388
 30
0.0
 10
258.6732593173813
 20
186.8236276408522
 30
0.0
  0
SPLINE
  5
42A8
330
A
100
AcDbEntity
  8
MODEL
100
AcDbSpline
210
0.0
220
0.0
230
1.0
 70
     8
 71
     3
 72
     8
 73
     4
 74
     0
 42
0.000000001
 43
0.0000000001
 40
0.0
 40
0.0
 40
0.0
 40
0.0
 40
1.0
 40
1.0
 40
1.0
 40
1.0
 10
258.3595983557971
 20
416.4209963148195
 30
0.0
 10
258.5325210076617
 20
416.4209963148195
 30
0.0
 10
258.6732593173807
 20
416.5617346245387
 30
0.0
 10
258.6732593173807
 20
416.7341117790783
 30
0.0
  0
SPLINE
  5
42A9
330
A
100
AcDbEntity
  8
MODEL
100
AcDbSpline
210
0.0
220
0.0
230
1.0
 70
     8
 71
     3
 72
     8
 73
     4
 74
     0
 42
0.000000001
 43
0.0000000001
 40
0.0
 40
0.0
 40
0.0
 40
0.0
 40
1.0
 40
1.0
 40
1.0
 40
1.0
 10
144.9332486793233
 20
416.455908143587
 30
0.0
 10
144.8285131930207
 20
416.5093668813874
 30
0.0
 10
144.7630535140816
 20
416.6162843569879
 30
0.0
 10
144.7630535140816
 20
416.7341117790783
 30
0.0
  0
POLYLINE
  5
42CD
330
A
100
AcDbEntity
  8
MODEL
100
AcDb2dPolyline
 66
     1
 10
0.0
 20
0.0
 30
0.0
  0
VERTEX
  5
42CE
330
42CD
100
AcDbEntity
  8
MODEL
100
AcDbVertex
100
AcDb2dVertex
 10
144.9332486793233
 20
416.455908143587
 30
0.0
  0
VERTEX
  5
42CF
330
42CD
100
AcDbEntity
  8
MODEL
100
AcDbVertex
100
AcDb2dVertex
 10
144.9463406151113
 20
416.4493621756932
 30
0.0
  0
VERTEX
  5
42D0
330
42CD
100
AcDbEntity
  8
MODEL
100
AcDbVertex
100
AcDb2dVertex
 10
144.9605235455479
 20
416.4428162077992
 30
0.0
  0
VERTEX
  5
42D1
330
42CD
100
AcDbEntity
  8
MODEL
100
AcDbVertex
100
AcDb2dVertex
 10
144.974706475985
 20
416.4384522292032
 30
0.0
  0
VERTEX
  5
42D2
330
42CD
100
AcDbEntity
  8
MODEL
100
AcDbVertex
100
AcDb2dVertex
 10
144.9888894064216
 20
416.4319062613094
 30
0.0
  0
VERTEX
  5
42D3
330
42CD
100
AcDbEntity
  8
MODEL
100
AcDbVertex
100
AcDb2dVertex
 10
145.0019813422096
 20
416.4297242720112
 30
0.0
  0
VERTEX
  5
42D4
330
42CD
100
AcDbEntity
  8
MODEL
100
AcDbVertex
100
AcDb2dVertex
 10
145.0172552672953
 20
416.4264512880642
 30
0.0
  0
VERTEX
  5
42D5
330
42CD
100
AcDbEntity
  8
MODEL
100
AcDbVertex
100
AcDb2dVertex
 10
145.032529192381
 20
416.4242692987663
 30
0.0
  0
VERTEX
  5
42D6
330
42CD
100
AcDbEntity
  8
MODEL
100
AcDbVertex
100
AcDb2dVertex
 10
145.0478031174667
 20
416.4220873094686
 30
0.0
  0
VERTEX
  5
42D7
330
42CD
100
AcDbEntity
  8
MODEL
100
AcDbVertex
100
AcDb2dVertex
 10
145.0619860479038
 20
416.4209963148195
 30
0.0
  0
VERTEX
  5
42D8
330
42CD
100
AcDbEntity
  8
MODEL
100
AcDbVertex
100
AcDb2dVertex
 10
145.0772599729895
 20
416.4209963148195
 30
0.0
  0
SEQEND
  5
42D9
330
42CD
100
AcDbEntity
  8
MODEL
  0
SPLINE
  5
42DA
330
A
100
AcDbEntity
  8
MODEL
100
AcDbSpline
210
0.0
220
0.0
230
1.0
 70
     8
 71
     3
 72
     8
 73
     4
 74
     0
 42
0.000000001
 43
0.0000000001
 40
0.0
 40
0.0
 40
0.0
 40
0.0
 40
1.0
 40
1.0
 40
1.0
 40
1.0
 10
116.0240724704936
 20
320.9606010205218
 30
0.0
 10
114.871982121164
 20
320.9595100258728
 30
0.0
 10
113.807171343754
 20
321.5742855105766
 30
0.0
 10
113.2311261690894
 20
322.5714546197496
 30
0.0
  0
SPLINE
  5
42DB
330
A
100
AcDbEntity
  8
MODEL
100
AcDbSpline
210
0.0
220
0.0
230
1.0
 70
     8
 71
     3
 72
     8
 73
     4
 74
     0
 42
0.000000001
 43
0.0000000001
 40
0.0
 40
0.0
 40
0.0
 40
0.0
 40
1.0
 40
1.0
 40
1.0
 40
1.0
 10
113.2311261690894
 20
322.5714546197496
 30
0.0
 10
112.6539899997757
 20
323.5691692262474
 30
0.0
 10
112.6539899997757
 20
324.7981746983298
 30
0.0
 10
113.2311261690894
 20
325.7958893048276
 30
0.0
  0
SPLINE
  5
42DC
330
A
100
AcDbEntity
  8
MODEL
100
AcDbSpline
210
0.0
220
0.0
230
1.0
 70
     8
 71
     3
 72
     8
 73
     4
 74
     0
 42
0.000000001
 43
0.0000000001
 40
0.0
 40
0.0
 40
0.0
 40
0.0
 40
1.0
 40
1.0
 40
1.0
 40
1.0
 10
113.2311261690894
 20
325.7958893048276
 30
0.0
 10
113.807171343754
 20
326.7936039113254
 30
0.0
 10
114.871982121164
 20
327.4078338987042
 30
0.0
 10
116.0240724704936
 20
327.4067429040554
 30
0.0
  0
SPLINE
  5
42DD
330
A
100
AcDbEntity
  8
MODEL
100
AcDbSpline
210
0.0
220
0.0
230
1.0
 70
     8
 71
     3
 72
     8
 73
     4
 74
     0
 42
0.000000001
 43
0.0000000001
 40
0.0
 40
0.0
 40
0.0
 40
0.0
 40
1.0
 40
1.0
 40
1.0
 40
1.0
 10
290.2046411650486
 20
325.7958893048275
 30
0.0
 10
289.6291414877083
 20
326.7936039113253
 30
0.0
 10
288.5632397156492
 20
327.4078338987042
 30
0.0
 10
287.4116948636443
 20
327.4067429040553
 30
0.0
  0
SPLINE
  5
42DE
330
A
100
AcDbEntity
  8
MODEL
100
AcDbSpline
210
0.0
220
0.0
230
1.0
 70
     8
 71
     3
 72
     8
 73
     4
 74
     0
 42
0.000000001
 43
0.0000000001
 40
0.0
 40
0.0
 40
0.0
 40
0.0
 40
1.0
 40
1.0
 40
1.0
 40
1.0
 10
290.2046411650486
 20
322.5714546197495
 30
0.0
 10
290.7823228316866
 20
323.5691692262473
 30
0.0
 10
290.7823228316866
 20
324.7981746983298
 30
0.0
 10
290.2046411650486
 20
325.7958893048275
 30
0.0
  0
SPLINE
  5
42DF
330
A
100
AcDbEntity
  8
MODEL
100
AcDbSpline
210
0.0
220
0.0
230
1.0
 70
     8
 71
     3
 72
     8
 73
     4
 74
     0
 42
0.000000001
 43
0.0000000001
 40
0.0
 40
0.0
 40
0.0
 40
0.0
 40
1.0
 40
1.0
 40
1.0
 40
1.0
 10
287.4116948636443
 20
320.9606010205218
 30
0.0
 10
288.5632397156492
 20
320.9595100258727
 30
0.0
 10
289.6291414877083
 20
321.5737400132518
 30
0.0
 10
290.2046411650486
 20
322.5714546197495
 30
0.0
  0
SPLINE
  5
42E0
330
A
100
AcDbEntity
  8
MODEL
100
AcDbSpline
210
0.0
220
0.0
230
1.0
 70
     8
 71
     3
 72
     8
 73
     4
 74
     0
 42
0.000000001
 43
0.0000000001
 40
0.0
 40
0.0
 40
0.0
 40
0.0
 40
1.0
 40
1.0
 40
1.0
 40
1.0
 10
116.0240724704936
 20
334.5462118870194
 30
0.0
 10
114.871982121164
 20
334.5451208923705
 30
0.0
 10
113.807171343754
 20
335.1593508797496
 30
0.0
 10
113.2311261690894
 20
336.1565199889228
 30
0.0
  0
SPLINE
  5
42E1
330
A
100
AcDbEntity
  8
MODEL
100
AcDbSpline
210
0.0
220
0.0
230
1.0
 70
     8
 71
     3
 72
     8
 73
     4
 74
     0
 42
0.000000001
 43
0.0000000001
 40
0.0
 40
0.0
 40
0.0
 40
0.0
 40
1.0
 40
1.0
 40
1.0
 40
1.0
 10
113.2311261690894
 20
336.1565199889228
 30
0.0
 10
112.6539899997757
 20
337.1547800927449
 30
0.0
 10
112.6539899997757
 20
338.3843310621521
 30
0.0
 10
113.2311261690894
 20
339.3815001713253
 30
0.0
  0
SPLINE
  5
42E2
330
A
100
AcDbEntity
  8
MODEL
100
AcDbSpline
210
0.0
220
0.0
230
1.0
 70
     8
 71
     3
 72
     8
 73
     4
 74
     0
 42
0.000000001
 43
0.0000000001
 40
0.0
 40
0.0
 40
0.0
 40
0.0
 40
1.0
 40
1.0
 40
1.0
 40
1.0
 10
113.2311261690894
 20
339.3815001713253
 30
0.0
 10
113.807171343754
 20
340.3797602751471
 30
0.0
 10
114.871982121164
 20
340.9928992678774
 30
0.0
 10
116.0240724704936
 20
340.9928992678774
 30
0.0
  0
SPLINE
  5
42E3
330
A
100
AcDbEntity
  8
MODEL
100
AcDbSpline
210
0.0
220
0.0
230
1.0
 70
     8
 71
     3
 72
     8
 73
     4
 74
     0
 42
0.000000001
 43
0.0000000001
 40
0.0
 40
0.0
 40
0.0
 40
0.0
 40
1.0
 40
1.0
 40
1.0
 40
1.0
 10
290.2046411650486
 20
339.3815001713253
 30
0.0
 10
289.6291414877083
 20
340.3797602751471
 30
0.0
 10
288.5632397156492
 20
340.9928992678774
 30
0.0
 10
287.4116948636443
 20
340.9928992678774
 30
0.0
  0
SPLINE
  5
42E4
330
A
100
AcDbEntity
  8
MODEL
100
AcDbSpline
210
0.0
220
0.0
230
1.0
 70
     8
 71
     3
 72
     8
 73
     4
 74
     0
 42
0.000000001
 43
0.0000000001
 40
0.0
 40
0.0
 40
0.0
 40
0.0
 40
1.0
 40
1.0
 40
1.0
 40
1.0
 10
290.2046411650486
 20
336.1565199889228
 30
0.0
 10
290.7823228316866
 20
337.1547800927448
 30
0.0
 10
290.7823228316866
 20
338.3843310621521
 30
0.0
 10
290.2046411650486
 20
339.3815001713253
 30
0.0
  0
SPLINE
  5
42E5
330
A
100
AcDbEntity
  8
MODEL
100
AcDbSpline
210
0.0
220
0.0
230
1.0
 70
     8
 71
     3
 72
     8
 73
     4
 74
     0
 42
0.000000001
 43
0.0000000001
 40
0.0
 40
0.0
 40
0.0
 40
0.0
 40
1.0
 40
1.0
 40
1.0
 40
1.0
 10
287.4116948636443
 20
334.5462118870193
 30
0.0
 10
288.5632397156492
 20
334.5451208923704
 30
0.0
 10
289.6291414877083
 20
335.1593508797495
 30
0.0
 10
290.2046411650486
 20
336.1565199889228
 30
0.0
  0
SPLINE
  5
42E6
330
A
100
AcDbEntity
  8
MODEL
100
AcDbSpline
210
0.0
220
0.0
230
1.0
 70
     8
 71
     3
 72
     8
 73
     4
 74
     0
 42
0.000000001
 43
0.0000000001
 40
0.0
 40
0.0
 40
0.0
 40
0.0
 40
1.0
 40
1.0
 40
1.0
 40
1.0
 10
116.0240724704936
 20
348.1312772561925
 30
0.0
 10
114.871982121164
 20
348.1301862615434
 30
0.0
 10
113.807171343754
 20
348.7444162489227
 30
0.0
 10
113.2311261690894
 20
349.7426763527448
 30
0.0
  0
SPLINE
  5
42E7
330
A
100
AcDbEntity
  8
MODEL
100
AcDbSpline
210
0.0
220
0.0
230
1.0
 70
     8
 71
     3
 72
     8
 73
     4
 74
     0
 42
0.000000001
 43
0.0000000001
 40
0.0
 40
0.0
 40
0.0
 40
0.0
 40
1.0
 40
1.0
 40
1.0
 40
1.0
 10
113.2311261690894
 20
349.7426763527448
 30
0.0
 10
112.6539899997757
 20
350.739845461918
 30
0.0
 10
112.6539899997757
 20
351.969396431325
 30
0.0
 10
113.2311261690894
 20
352.9676565351471
 30
0.0
  0
SPLINE
  5
42E8
330
A
100
AcDbEntity
  8
MODEL
100
AcDbSpline
210
0.0
220
0.0
230
1.0
 70
     8
 71
     3
 72
     8
 73
     4
 74
     0
 42
0.000000001
 43
0.0000000001
 40
0.0
 40
0.0
 40
0.0
 40
0.0
 40
1.0
 40
1.0
 40
1.0
 40
1.0
 10
113.2311261690894
 20
352.9676565351471
 30
0.0
 10
113.807171343754
 20
353.9648256443203
 30
0.0
 10
114.871982121164
 20
354.5790556316994
 30
0.0
 10
116.0240724704936
 20
354.5779646370503
 30
0.0
  0
SPLINE
  5
42E9
330
A
100
AcDbEntity
  8
MODEL
100
AcDbSpline
210
0.0
220
0.0
230
1.0
 70
     8
 71
     3
 72
     8
 73
     4
 74
     0
 42
0.000000001
 43
0.0000000001
 40
0.0
 40
0.0
 40
0.0
 40
0.0
 40
1.0
 40
1.0
 40
1.0
 40
1.0
 10
290.2046411650486
 20
352.9676565351471
 30
0.0
 10
289.6291414877083
 20
353.9648256443203
 30
0.0
 10
288.5632397156492
 20
354.5790556316994
 30
0.0
 10
287.4116948636443
 20
354.5790556316994
 30
0.0
  0
SPLINE
  5
42EA
330
A
100
AcDbEntity
  8
MODEL
100
AcDbSpline
210
0.0
220
0.0
230
1.0
 70
     8
 71
     3
 72
     8
 73
     4
 74
     0
 42
0.000000001
 43
0.0000000001
 40
0.0
 40
0.0
 40
0.0
 40
0.0
 40
1.0
 40
1.0
 40
1.0
 40
1.0
 10
290.2046411650486
 20
349.7426763527448
 30
0.0
 10
290.7823228316866
 20
350.739845461918
 30
0.0
 10
290.7823228316866
 20
351.969396431325
 30
0.0
 10
290.2046411650486
 20
352.9676565351471
 30
0.0
  0
SPLINE
  5
42EB
330
A
100
AcDbEntity
  8
MODEL
100
AcDbSpline
210
0.0
220
0.0
230
1.0
 70
     8
 71
     3
 72
     8
 73
     4
 74
     0
 42
0.000000001
 43
0.0000000001
 40
0.0
 40
0.0
 40
0.0
 40
0.0
 40
1.0
 40
1.0
 40
1.0
 40
1.0
 10
287.4116948636443
 20
348.1312772561925
 30
0.0
 10
288.5632397156492
 20
348.1301862615434
 30
0.0
 10
289.6291414877083
 20
348.7444162489227
 30
0.0
 10
290.2046411650486
 20
349.7426763527448
 30
0.0
  0
SPLINE
  5
42EC
330
A
100
AcDbEntity
  8
MODEL
100
AcDbSpline
210
0.0
220
0.0
230
1.0
 70
     8
 71
     3
 72
     8
 73
     4
 74
     0
 42
0.000000001
 43
0.0000000001
 40
0.0
 40
0.0
 40
0.0
 40
0.0
 40
1.0
 40
1.0
 40
1.0
 40
1.0
 10
116.0240724704936
 20
361.7174336200146
 30
0.0
 10
114.871982121164
 20
361.7163426253657
 30
0.0
 10
113.807171343754
 20
362.3305726127446
 30
0.0
 10
113.2311261690894
 20
363.327741721918
 30
0.0
  0
SPLINE
  5
42ED
330
A
100
AcDbEntity
  8
MODEL
100
AcDbSpline
210
0.0
220
0.0
230
1.0
 70
     8
 71
     3
 72
     8
 73
     4
 74
     0
 42
0.000000001
 43
0.0000000001
 40
0.0
 40
0.0
 40
0.0
 40
0.0
 40
1.0
 40
1.0
 40
1.0
 40
1.0
 10
113.2311261690894
 20
363.327741721918
 30
0.0
 10
112.6539899997757
 20
364.3260018257399
 30
0.0
 10
112.6539899997757
 20
365.5555527951471
 30
0.0
 10
113.2311261690894
 20
366.5527219043203
 30
0.0
  0
SPLINE
  5
42EE
330
A
100
AcDbEntity
  8
MODEL
100
AcDbSpline
210
0.0
220
0.0
230
1.0
 70
     8
 71
     3
 72
     8
 73
     4
 74
     0
 42
0.000000001
 43
0.0000000001
 40
0.0
 40
0.0
 40
0.0
 40
0.0
 40
1.0
 40
1.0
 40
1.0
 40
1.0
 10
113.2311261690894
 20
366.5527219043203
 30
0.0
 10
113.807171343754
 20
367.5498910134935
 30
0.0
 10
114.871982121164
 20
368.1641210008726
 30
0.0
 10
116.0240724704936
 20
368.1641210008726
 30
0.0
  0
SPLINE
  5
42EF
330
A
100
AcDbEntity
  8
MODEL
100
AcDbSpline
210
0.0
220
0.0
230
1.0
 70
     8
 71
     3
 72
     8
 73
     4
 74
     0
 42
0.000000001
 43
0.0000000001
 40
0.0
 40
0.0
 40
0.0
 40
0.0
 40
1.0
 40
1.0
 40
1.0
 40
1.0
 10
290.2046411650486
 20
366.5527219043203
 30
0.0
 10
289.6291414877083
 20
367.5498910134935
 30
0.0
 10
288.5632397156492
 20
368.1641210008726
 30
0.0
 10
287.4116948636443
 20
368.1641210008726
 30
0.0
  0
SPLINE
  5
42F0
330
A
100
AcDbEntity
  8
MODEL
100
AcDbSpline
210
0.0
220
0.0
230
1.0
 70
     8
 71
     3
 72
     8
 73
     4
 74
     0
 42
0.000000001
 43
0.0000000001
 40
0.0
 40
0.0
 40
0.0
 40
0.0
 40
1.0
 40
1.0
 40
1.0
 40
1.0
 10
290.2046411650486
 20
363.327741721918
 30
0.0
 10
290.7823228316866
 20
364.3260018257399
 30
0.0
 10
290.7823228316866
 20
365.5555527951471
 30
0.0
 10
290.2046411650486
 20
366.5527219043203
 30
0.0
  0
SPLINE
  5
42F1
330
A
100
AcDbEntity
  8
MODEL
100
AcDbSpline
210
0.0
220
0.0
230
1.0
 70
     8
 71
     3
 72
     8
 73
     4
 74
     0
 42
0.000000001
 43
0.0000000001
 40
0.0
 40
0.0
 40
0.0
 40
0.0
 40
1.0
 40
1.0
 40
1.0
 40
1.0
 10
287.4116948636443
 20
361.7174336200146
 30
0.0
 10
288.5632397156492
 20
361.7163426253657
 30
0.0
 10
289.6291414877083
 20
362.3305726127446
 30
0.0
 10
290.2046411650486
 20
363.327741721918
 30
0.0
  0
SPLINE
  5
42F2
330
A
100
AcDbEntity
  8
MODEL
100
AcDbSpline
210
0.0
220
0.0
230
1.0
 70
     8
 71
     3
 72
     8
 73
     4
 74
     0
 42
0.000000001
 43
0.0000000001
 40
0.0
 40
0.0
 40
0.0
 40
0.0
 40
1.0
 40
1.0
 40
1.0
 40
1.0
 10
116.0240724704936
 20
375.3024989891878
 30
0.0
 10
114.871982121164
 20
375.3014079945389
 30
0.0
 10
113.807171343754
 20
375.9156379819178
 30
0.0
 10
113.2311261690894
 20
376.9138980857398
 30
0.0
  0
SPLINE
  5
42F3
330
A
100
AcDbEntity
  8
MODEL
100
AcDbSpline
210
0.0
220
0.0
230
1.0
 70
     8
 71
     3
 72
     8
 73
     4
 74
     0
 42
0.000000001
 43
0.0000000001
 40
0.0
 40
0.0
 40
0.0
 40
0.0
 40
1.0
 40
1.0
 40
1.0
 40
1.0
 10
113.2311261690894
 20
376.9138980857398
 30
0.0
 10
112.6539899997757
 20
377.9110671949131
 30
0.0
 10
112.6539899997757
 20
379.1406181643203
 30
0.0
 10
113.2311261690894
 20
380.1388782681424
 30
0.0
  0
SPLINE
  5
42F4
330
A
100
AcDbEntity
  8
MODEL
100
AcDbSpline
210
0.0
220
0.0
230
1.0
 70
     8
 71
     3
 72
     8
 73
     4
 74
     0
 42
0.000000001
 43
0.0000000001
 40
0.0
 40
0.0
 40
0.0
 40
0.0
 40
1.0
 40
1.0
 40
1.0
 40
1.0
 10
113.2311261690894
 20
380.1388782681424
 30
0.0
 10
113.807171343754
 20
381.1360473773156
 30
0.0
 10
114.871982121164
 20
381.7502773646947
 30
0.0
 10
116.0240724704936
 20
381.7491863700456
 30
0.0
  0
SPLINE
  5
42F5
330
A
100
AcDbEntity
  8
MODEL
100
AcDbSpline
210
0.0
220
0.0
230
1.0
 70
     8
 71
     3
 72
     8
 73
     4
 74
     0
 42
0.000000001
 43
0.0000000001
 40
0.0
 40
0.0
 40
0.0
 40
0.0
 40
1.0
 40
1.0
 40
1.0
 40
1.0
 10
290.2046411650486
 20
380.1388782681424
 30
0.0
 10
289.6291414877083
 20
381.1360473773156
 30
0.0
 10
288.5632397156492
 20
381.7502773646947
 30
0.0
 10
287.4116948636443
 20
381.7502773646947
 30
0.0
  0
SPLINE
  5
42F6
330
A
100
AcDbEntity
  8
MODEL
100
AcDbSpline
210
0.0
220
0.0
230
1.0
 70
     8
 71
     3
 72
     8
 73
     4
 74
     0
 42
0.000000001
 43
0.0000000001
 40
0.0
 40
0.0
 40
0.0
 40
0.0
 40
1.0
 40
1.0
 40
1.0
 40
1.0
 10
290.2046411650486
 20
376.9138980857398
 30
0.0
 10
290.7823228316866
 20
377.9110671949131
 30
0.0
 10
290.7823228316866
 20
379.1406181643203
 30
0.0
 10
290.2046411650486
 20
380.1388782681424
 30
0.0
  0
SPLINE
  5
42F7
330
A
100
AcDbEntity
  8
MODEL
100
AcDbSpline
210
0.0
220
0.0
230
1.0
 70
     8
 71
     3
 72
     8
 73
     4
 74
     0
 42
0.000000001
 43
0.0000000001
 40
0.0
 40
0.0
 40
0.0
 40
0.0
 40
1.0
 40
1.0
 40
1.0
 40
1.0
 10
287.4116948636443
 20
375.3024989891878
 30
0.0
 10
288.5632397156492
 20
375.3014079945389
 30
0.0
 10
289.6291414877083
 20
375.9156379819178
 30
0.0
 10
290.2046411650486
 20
376.9138980857398
 30
0.0
  0
SPLINE
  5
42F8
330
A
100
AcDbEntity
  8
MODEL
100
AcDbSpline
210
0.0
220
0.0
230
1.0
 70
     8
 71
     3
 72
     8
 73
     4
 74
     0
 42
0.000000001
 43
0.0000000001
 40
0.0
 40
0.0
 40
0.0
 40
0.0
 40
1.0
 40
1.0
 40
1.0
 40
1.0
 10
116.0240724704936
 20
388.8886553530098
 30
0.0
 10
114.871982121164
 20
388.887564358361
 30
0.0
 10
113.807171343754
 20
389.5017943457398
 30
0.0
 10
113.2311261690894
 20
390.4989634549131
 30
0.0
  0
SPLINE
  5
42F9
330
A
100
AcDbEntity
  8
MODEL
100
AcDbSpline
210
0.0
220
0.0
230
1.0
 70
     8
 71
     3
 72
     8
 73
     4
 74
     0
 42
0.000000001
 43
0.0000000001
 40
0.0
 40
0.0
 40
0.0
 40
0.0
 40
1.0
 40
1.0
 40
1.0
 40
1.0
 10
113.2311261690894
 20
390.4989634549131
 30
0.0
 10
112.6539899997757
 20
391.4972235587351
 30
0.0
 10
112.6539899997757
 20
392.7267745281424
 30
0.0
 10
113.2311261690894
 20
393.7239436373156
 30
0.0
  0
SPLINE
  5
42FA
330
A
100
AcDbEntity
  8
MODEL
100
AcDbSpline
210
0.0
220
0.0
230
1.0
 70
     8
 71
     3
 72
     8
 73
     4
 74
     0
 42
0.000000001
 43
0.0000000001
 40
0.0
 40
0.0
 40
0.0
 40
0.0
 40
1.0
 40
1.0
 40
1.0
 40
1.0
 10
113.2311261690894
 20
393.7239436373156
 30
0.0
 10
113.807171343754
 20
394.7211127464888
 30
0.0
 10
114.871982121164
 20
395.3353427338679
 30
0.0
 10
116.0240724704936
 20
395.3353427338679
 30
0.0
  0
SPLINE
  5
42FB
330
A
100
AcDbEntity
  8
MODEL
100
AcDbSpline
210
0.0
220
0.0
230
1.0
 70
     8
 71
     3
 72
     8
 73
     4
 74
     0
 42
0.000000001
 43
0.0000000001
 40
0.0
 40
0.0
 40
0.0
 40
0.0
 40
1.0
 40
1.0
 40
1.0
 40
1.0
 10
290.2046411650486
 20
393.7239436373156
 30
0.0
 10
289.6291414877083
 20
394.7211127464888
 30
0.0
 10
288.5632397156492
 20
395.3353427338679
 30
0.0
 10
287.4116948636443
 20
395.3353427338679
 30
0.0
  0
SPLINE
  5
42FC
330
A
100
AcDbEntity
  8
MODEL
100
AcDbSpline
210
0.0
220
0.0
230
1.0
 70
     8
 71
     3
 72
     8
 73
     4
 74
     0
 42
0.000000001
 43
0.0000000001
 40
0.0
 40
0.0
 40
0.0
 40
0.0
 40
1.0
 40
1.0
 40
1.0
 40
1.0
 10
290.2046411650486
 20
390.4989634549131
 30
0.0
 10
290.7823228316866
 20
391.4972235587351
 30
0.0
 10
290.7823228316866
 20
392.7267745281424
 30
0.0
 10
290.2046411650486
 20
393.7239436373156
 30
0.0
  0
SPLINE
  5
42FD
330
A
100
AcDbEntity
  8
MODEL
100
AcDbSpline
210
0.0
220
0.0
230
1.0
 70
     8
 71
     3
 72
     8
 73
     4
 74
     0
 42
0.000000001
 43
0.0000000001
 40
0.0
 40
0.0
 40
0.0
 40
0.0
 40
1.0
 40
1.0
 40
1.0
 40
1.0
 10
287.4116948636443
 20
388.8886553530098
 30
0.0
 10
288.5632397156492
 20
388.887564358361
 30
0.0
 10
289.6291414877083
 20
389.5017943457398
 30
0.0
 10
290.2046411650486
 20
390.4989634549131
 30
0.0
  0
POLYLINE
  5
42FE
330
A
100
AcDbEntity
  8
MODEL
100
AcDb2dPolyline
 66
     1
 10
0.0
 20
0.0
 30
0.0
  0
VERTEX
  5
42FF
330
42FE
100
AcDbEntity
  8
MODEL
100
AcDbVertex
100
AcDb2dVertex
 10
287.4116948636443
 20
327.4067429040553
 30
0.0
  0
VERTEX
  5
4300
330
42FE
100
AcDbEntity
  8
MODEL
100
AcDbVertex
100
AcDb2dVertex
 10
278.8452048798068
 20
327.4001969361613
 30
0.0
  0
VERTEX
  5
4301
330
42FE
100
AcDbEntity
  8
MODEL
100
AcDbVertex
100
AcDb2dVertex
 10
261.7067699388863
 20
327.3903779843205
 30
0.0
  0
VERTEX
  5
4302
330
42FE
100
AcDbEntity
  8
MODEL
100
AcDbVertex
100
AcDb2dVertex
 10
244.5677895006411
 20
327.3816500271286
 30
0.0
  0
VERTEX
  5
4303
330
42FE
100
AcDbEntity
  8
MODEL
100
AcDbVertex
100
AcDb2dVertex
 10
235.9958445435587
 20
327.3783770431816
 30
0.0
  0
VERTEX
  5
4304
330
42FE
100
AcDbEntity
  8
MODEL
100
AcDbVertex
100
AcDb2dVertex
 10
218.8574096026383
 20
327.3751040592346
 30
0.0
  0
VERTEX
  5
4305
330
42FE
100
AcDbEntity
  8
MODEL
100
AcDbVertex
100
AcDb2dVertex
 10
201.7173381697444
 20
327.3740130645855
 30
0.0
  0
VERTEX
  5
4306
330
42FE
100
AcDbEntity
  8
MODEL
100
AcDbVertex
100
AcDb2dVertex
 10
184.578903228824
 20
327.3751040592346
 30
0.0
  0
VERTEX
  5
4307
330
42FE
100
AcDbEntity
  8
MODEL
100
AcDbVertex
100
AcDb2dVertex
 10
167.440468287904
 20
327.3783770431817
 30
0.0
  0
VERTEX
  5
4308
330
42FE
100
AcDbEntity
  8
MODEL
100
AcDbVertex
100
AcDb2dVertex
 10
150.3020333469831
 20
327.3860140057245
 30
0.0
  0
VERTEX
  5
4309
330
42FE
100
AcDbEntity
  8
MODEL
100
AcDbVertex
100
AcDb2dVertex
 10
133.1625074114136
 20
327.3947419629164
 30
0.0
  0
VERTEX
  5
430A
330
42FE
100
AcDbEntity
  8
MODEL
100
AcDbVertex
100
AcDb2dVertex
 10
116.0240724704936
 20
327.4067429040554
 30
0.0
  0
SEQEND
  5
430B
330
42FE
100
AcDbEntity
  8
MODEL
  0
POLYLINE
  5
430C
330
A
100
AcDbEntity
  8
MODEL
100
AcDb2dPolyline
 66
     1
 10
0.0
 20
0.0
 30
0.0
  0
VERTEX
  5
430D
330
430C
100
AcDbEntity
  8
MODEL
100
AcDbVertex
100
AcDb2dVertex
 10
287.4116948636443
 20
320.9606010205218
 30
0.0
  0
VERTEX
  5
430E
330
430C
100
AcDbEntity
  8
MODEL
100
AcDbVertex
100
AcDb2dVertex
 10
278.8452048798068
 20
320.9660559937667
 30
0.0
  0
VERTEX
  5
430F
330
430C
100
AcDbEntity
  8
MODEL
100
AcDbVertex
100
AcDb2dVertex
 10
261.7067699388863
 20
320.9775114375811
 30
0.0
  0
VERTEX
  5
4310
330
430C
100
AcDbEntity
  8
MODEL
100
AcDbVertex
100
AcDb2dVertex
 10
244.5677895006411
 20
320.9851484001239
 30
0.0
  0
VERTEX
  5
4311
330
430C
100
AcDbEntity
  8
MODEL
100
AcDbVertex
100
AcDb2dVertex
 10
235.9958445435587
 20
320.9884213840709
 30
0.0
  0
VERTEX
  5
4312
330
430C
100
AcDbEntity
  8
MODEL
100
AcDbVertex
100
AcDb2dVertex
 10
218.8574096026383
 20
320.9916943680179
 30
0.0
  0
VERTEX
  5
4313
330
430C
100
AcDbEntity
  8
MODEL
100
AcDbVertex
100
AcDb2dVertex
 10
201.7173381697444
 20
320.9938763573159
 30
0.0
  0
VERTEX
  5
4314
330
430C
100
AcDbEntity
  8
MODEL
100
AcDbVertex
100
AcDb2dVertex
 10
184.578903228824
 20
320.9916943680179
 30
0.0
  0
VERTEX
  5
4315
330
430C
100
AcDbEntity
  8
MODEL
100
AcDbVertex
100
AcDb2dVertex
 10
167.440468287904
 20
320.988421384071
 30
0.0
  0
VERTEX
  5
4316
330
430C
100
AcDbEntity
  8
MODEL
100
AcDbVertex
100
AcDb2dVertex
 10
150.3020333469831
 20
320.9818754161772
 30
0.0
  0
VERTEX
  5
4317
330
430C
100
AcDbEntity
  8
MODEL
100
AcDbVertex
100
AcDb2dVertex
 10
133.1625074114136
 20
320.9731474589851
 30
0.0
  0
VERTEX
  5
4318
330
430C
100
AcDbEntity
  8
MODEL
100
AcDbVertex
100
AcDb2dVertex
 10
116.0240724704936
 20
320.9606010205218
 30
0.0
  0
SEQEND
  5
4319
330
430C
100
AcDbEntity
  8
MODEL
  0
POLYLINE
  5
431A
330
A
100
AcDbEntity
  8
MODEL
100
AcDb2dPolyline
 66
     1
 10
0.0
 20
0.0
 30
0.0
  0
VERTEX
  5
431B
330
431A
100
AcDbEntity
  8
MODEL
100
AcDbVertex
100
AcDb2dVertex
 10
287.4116948636443
 20
395.3353427338679
 30
0.0
  0
VERTEX
  5
431C
330
431A
100
AcDbEntity
  8
MODEL
100
AcDbVertex
100
AcDb2dVertex
 10
278.8452048798068
 20
395.3287967659741
 30
0.0
  0
VERTEX
  5
431D
330
431A
100
AcDbEntity
  8
MODEL
100
AcDbVertex
100
AcDb2dVertex
 10
261.7067699388863
 20
395.317886819484
 30
0.0
  0
VERTEX
  5
431E
330
431A
100
AcDbEntity
  8
MODEL
100
AcDbVertex
100
AcDb2dVertex
 10
244.5677895006411
 20
395.3102498569412
 30
0.0
  0
VERTEX
  5
431F
330
431A
100
AcDbEntity
  8
MODEL
100
AcDbVertex
100
AcDb2dVertex
 10
235.9958445435587
 20
395.3069768729942
 30
0.0
  0
VERTEX
  5
4320
330
431A
100
AcDbEntity
  8
MODEL
100
AcDbVertex
100
AcDb2dVertex
 10
218.8574096026383
 20
395.3026128943984
 30
0.0
  0
VERTEX
  5
4321
330
431A
100
AcDbEntity
  8
MODEL
100
AcDbVertex
100
AcDb2dVertex
 10
201.7173381697444
 20
395.3015218997493
 30
0.0
  0
VERTEX
  5
4322
330
431A
100
AcDbEntity
  8
MODEL
100
AcDbVertex
100
AcDb2dVertex
 10
184.578903228824
 20
395.3026128943984
 30
0.0
  0
VERTEX
  5
4323
330
431A
100
AcDbEntity
  8
MODEL
100
AcDbVertex
100
AcDb2dVertex
 10
167.440468287904
 20
395.3069768729942
 30
0.0
  0
VERTEX
  5
4324
330
431A
100
AcDbEntity
  8
MODEL
100
AcDbVertex
100
AcDb2dVertex
 10
150.3020333469831
 20
395.313522840888
 30
0.0
  0
VERTEX
  5
4325
330
431A
100
AcDbEntity
  8
MODEL
100
AcDbVertex
100
AcDb2dVertex
 10
133.1625074114136
 20
395.323341792729
 30
0.0
  0
VERTEX
  5
4326
330
431A
100
AcDbEntity
  8
MODEL
100
AcDbVertex
100
AcDb2dVertex
 10
116.0240724704936
 20
395.3353427338679
 30
0.0
  0
SEQEND
  5
4327
330
431A
100
AcDbEntity
  8
MODEL
  0
POLYLINE
  5
4328
330
A
100
AcDbEntity
  8
MODEL
100
AcDb2dPolyline
 66
     1
 10
0.0
 20
0.0
 30
0.0
  0
VERTEX
  5
4329
330
4328
100
AcDbEntity
  8
MODEL
100
AcDbVertex
100
AcDb2dVertex
 10
287.4116948636443
 20
388.8886553530098
 30
0.0
  0
VERTEX
  5
432A
330
4328
100
AcDbEntity
  8
MODEL
100
AcDbVertex
100
AcDb2dVertex
 10
278.8452048798068
 20
388.8952013209036
 30
0.0
  0
VERTEX
  5
432B
330
4328
100
AcDbEntity
  8
MODEL
100
AcDbVertex
100
AcDb2dVertex
 10
261.7067699388863
 20
388.9050202727446
 30
0.0
  0
VERTEX
  5
432C
330
4328
100
AcDbEntity
  8
MODEL
100
AcDbVertex
100
AcDb2dVertex
 10
244.5677895006411
 20
388.9137482299365
 30
0.0
  0
VERTEX
  5
432D
330
4328
100
AcDbEntity
  8
MODEL
100
AcDbVertex
100
AcDb2dVertex
 10
235.9958445435587
 20
388.9159302192344
 30
0.0
  0
VERTEX
  5
432E
330
4328
100
AcDbEntity
  8
MODEL
100
AcDbVertex
100
AcDb2dVertex
 10
218.8574096026383
 20
388.9202941978305
 30
0.0
  0
VERTEX
  5
432F
330
4328
100
AcDbEntity
  8
MODEL
100
AcDbVertex
100
AcDb2dVertex
 10
201.7173381697444
 20
388.9213851924796
 30
0.0
  0
VERTEX
  5
4330
330
4328
100
AcDbEntity
  8
MODEL
100
AcDbVertex
100
AcDb2dVertex
 10
184.578903228824
 20
388.9202941978305
 30
0.0
  0
VERTEX
  5
4331
330
4328
100
AcDbEntity
  8
MODEL
100
AcDbVertex
100
AcDb2dVertex
 10
167.440468287904
 20
388.9159302192344
 30
0.0
  0
VERTEX
  5
4332
330
4328
100
AcDbEntity
  8
MODEL
100
AcDbVertex
100
AcDb2dVertex
 10
150.3020333469831
 20
388.9093842513404
 30
0.0
  0
VERTEX
  5
4333
330
4328
100
AcDbEntity
  8
MODEL
100
AcDbVertex
100
AcDb2dVertex
 10
133.1625074114136
 20
388.9006562941487
 30
0.0
  0
VERTEX
  5
4334
330
4328
100
AcDbEntity
  8
MODEL
100
AcDbVertex
100
AcDb2dVertex
 10
116.0240724704936
 20
388.8886553530098
 30
0.0
  0
SEQEND
  5
4335
330
4328
100
AcDbEntity
  8
MODEL
  0
POLYLINE
  5
4336
330
A
100
AcDbEntity
  8
MODEL
100
AcDb2dPolyline
 66
     1
 10
0.0
 20
0.0
 30
0.0
  0
VERTEX
  5
4337
330
4336
100
AcDbEntity
  8
MODEL
100
AcDbVertex
100
AcDb2dVertex
 10
287.4116948636443
 20
381.7491863700456
 30
0.0
  0
VERTEX
  5
4338
330
4336
100
AcDbEntity
  8
MODEL
100
AcDbVertex
100
AcDb2dVertex
 10
278.8452048798068
 20
381.7426404021518
 30
0.0
  0
VERTEX
  5
4339
330
4336
100
AcDbEntity
  8
MODEL
100
AcDbVertex
100
AcDb2dVertex
 10
261.7067699388863
 20
381.731730455662
 30
0.0
  0
VERTEX
  5
433A
330
4336
100
AcDbEntity
  8
MODEL
100
AcDbVertex
100
AcDb2dVertex
 10
244.5677895006411
 20
381.7240934931191
 30
0.0
  0
VERTEX
  5
433B
330
4336
100
AcDbEntity
  8
MODEL
100
AcDbVertex
100
AcDb2dVertex
 10
235.9958445435587
 20
381.7208205091721
 30
0.0
  0
VERTEX
  5
433C
330
4336
100
AcDbEntity
  8
MODEL
100
AcDbVertex
100
AcDb2dVertex
 10
218.8574096026383
 20
381.7175475252251
 30
0.0
  0
VERTEX
  5
433D
330
4336
100
AcDbEntity
  8
MODEL
100
AcDbVertex
100
AcDb2dVertex
 10
201.7173381697444
 20
381.7153655359272
 30
0.0
  0
VERTEX
  5
433E
330
4336
100
AcDbEntity
  8
MODEL
100
AcDbVertex
100
AcDb2dVertex
 10
184.578903228824
 20
381.7175475252251
 30
0.0
  0
VERTEX
  5
433F
330
4336
100
AcDbEntity
  8
MODEL
100
AcDbVertex
100
AcDb2dVertex
 10
167.440468287904
 20
381.7208205091721
 30
0.0
  0
VERTEX
  5
4340
330
4336
100
AcDbEntity
  8
MODEL
100
AcDbVertex
100
AcDb2dVertex
 10
150.3020333469831
 20
381.728457471715
 30
0.0
  0
VERTEX
  5
4341
330
4336
100
AcDbEntity
  8
MODEL
100
AcDbVertex
100
AcDb2dVertex
 10
133.1625074114136
 20
381.7371854289069
 30
0.0
  0
VERTEX
  5
4342
330
4336
100
AcDbEntity
  8
MODEL
100
AcDbVertex
100
AcDb2dVertex
 10
116.0240724704936
 20
381.7491863700456
 30
0.0
  0
SEQEND
  5
4343
330
4336
100
AcDbEntity
  8
MODEL
  0
POLYLINE
  5
4344
330
A
100
AcDbEntity
  8
MODEL
100
AcDb2dPolyline
 66
     1
 10
0.0
 20
0.0
 30
0.0
  0
VERTEX
  5
4345
330
4344
100
AcDbEntity
  8
MODEL
100
AcDbVertex
100
AcDb2dVertex
 10
287.4116948636443
 20
375.3024989891878
 30
0.0
  0
VERTEX
  5
4346
330
4344
100
AcDbEntity
  8
MODEL
100
AcDbVertex
100
AcDb2dVertex
 10
278.8452048798068
 20
375.3090449570818
 30
0.0
  0
VERTEX
  5
4347
330
4344
100
AcDbEntity
  8
MODEL
100
AcDbVertex
100
AcDb2dVertex
 10
261.7067699388863
 20
375.3199549035714
 30
0.0
  0
VERTEX
  5
4348
330
4344
100
AcDbEntity
  8
MODEL
100
AcDbVertex
100
AcDb2dVertex
 10
244.5677895006411
 20
375.3275918661145
 30
0.0
  0
VERTEX
  5
4349
330
4344
100
AcDbEntity
  8
MODEL
100
AcDbVertex
100
AcDb2dVertex
 10
235.9958445435587
 20
375.3308648500612
 30
0.0
  0
VERTEX
  5
434A
330
4344
100
AcDbEntity
  8
MODEL
100
AcDbVertex
100
AcDb2dVertex
 10
218.8574096026383
 20
375.3352288286573
 30
0.0
  0
VERTEX
  5
434B
330
4344
100
AcDbEntity
  8
MODEL
100
AcDbVertex
100
AcDb2dVertex
 10
201.7173381697444
 20
375.3363198233064
 30
0.0
  0
VERTEX
  5
434C
330
4344
100
AcDbEntity
  8
MODEL
100
AcDbVertex
100
AcDb2dVertex
 10
184.578903228824
 20
375.3352288286573
 30
0.0
  0
VERTEX
  5
434D
330
4344
100
AcDbEntity
  8
MODEL
100
AcDbVertex
100
AcDb2dVertex
 10
167.440468287904
 20
375.3308648500612
 30
0.0
  0
VERTEX
  5
434E
330
4344
100
AcDbEntity
  8
MODEL
100
AcDbVertex
100
AcDb2dVertex
 10
150.3020333469831
 20
375.3243188821675
 30
0.0
  0
VERTEX
  5
434F
330
4344
100
AcDbEntity
  8
MODEL
100
AcDbVertex
100
AcDb2dVertex
 10
133.1625074114136
 20
375.3144999303265
 30
0.0
  0
VERTEX
  5
4350
330
4344
100
AcDbEntity
  8
MODEL
100
AcDbVertex
100
AcDb2dVertex
 10
116.0240724704936
 20
375.3024989891878
 30
0.0
  0
SEQEND
  5
4351
330
4344
100
AcDbEntity
  8
MODEL
  0
POLYLINE
  5
4352
330
A
100
AcDbEntity
  8
MODEL
100
AcDb2dPolyline
 66
     1
 10
0.0
 20
0.0
 30
0.0
  0
VERTEX
  5
4353
330
4352
100
AcDbEntity
  8
MODEL
100
AcDbVertex
100
AcDb2dVertex
 10
287.4116948636443
 20
368.1641210008726
 30
0.0
  0
VERTEX
  5
4354
330
4352
100
AcDbEntity
  8
MODEL
100
AcDbVertex
100
AcDb2dVertex
 10
278.8452048798068
 20
368.1575750329786
 30
0.0
  0
VERTEX
  5
4355
330
4352
100
AcDbEntity
  8
MODEL
100
AcDbVertex
100
AcDb2dVertex
 10
261.7067699388863
 20
368.1466650864888
 30
0.0
  0
VERTEX
  5
4356
330
4352
100
AcDbEntity
  8
MODEL
100
AcDbVertex
100
AcDb2dVertex
 10
244.5677895006411
 20
368.1390281239459
 30
0.0
  0
VERTEX
  5
4357
330
4352
100
AcDbEntity
  8
MODEL
100
AcDbVertex
100
AcDb2dVertex
 10
235.9958445435587
 20
368.1357551399989
 30
0.0
  0
VERTEX
  5
4358
330
4352
100
AcDbEntity
  8
MODEL
100
AcDbVertex
100
AcDb2dVertex
 10
218.8574096026383
 20
368.1313911614031
 30
0.0
  0
VERTEX
  5
4359
330
4352
100
AcDbEntity
  8
MODEL
100
AcDbVertex
100
AcDb2dVertex
 10
201.7173381697444
 20
368.130300166754
 30
0.0
  0
VERTEX
  5
435A
330
4352
100
AcDbEntity
  8
MODEL
100
AcDbVertex
100
AcDb2dVertex
 10
184.578903228824
 20
368.1313911614031
 30
0.0
  0
VERTEX
  5
435B
330
4352
100
AcDbEntity
  8
MODEL
100
AcDbVertex
100
AcDb2dVertex
 10
167.440468287904
 20
368.1357551399989
 30
0.0
  0
VERTEX
  5
435C
330
4352
100
AcDbEntity
  8
MODEL
100
AcDbVertex
100
AcDb2dVertex
 10
150.3020333469831
 20
368.1412101132439
 30
0.0
  0
VERTEX
  5
435D
330
4352
100
AcDbEntity
  8
MODEL
100
AcDbVertex
100
AcDb2dVertex
 10
133.1625074114136
 20
368.1521200597339
 30
0.0
  0
VERTEX
  5
435E
330
4352
100
AcDbEntity
  8
MODEL
100
AcDbVertex
100
AcDb2dVertex
 10
116.0240724704936
 20
368.1641210008726
 30
0.0
  0
SEQEND
  5
435F
330
4352
100
AcDbEntity
  8
MODEL
  0
POLYLINE
  5
4360
330
A
100
AcDbEntity
  8
MODEL
100
AcDb2dPolyline
 66
     1
 10
0.0
 20
0.0
 30
0.0
  0
VERTEX
  5
4361
330
4360
100
AcDbEntity
  8
MODEL
100
AcDbVertex
100
AcDb2dVertex
 10
287.4116948636443
 20
361.7174336200146
 30
0.0
  0
VERTEX
  5
4362
330
4360
100
AcDbEntity
  8
MODEL
100
AcDbVertex
100
AcDb2dVertex
 10
278.8452048798068
 20
361.7239795879086
 30
0.0
  0
VERTEX
  5
4363
330
4360
100
AcDbEntity
  8
MODEL
100
AcDbVertex
100
AcDb2dVertex
 10
261.7067699388863
 20
361.7337985397496
 30
0.0
  0
VERTEX
  5
4364
330
4360
100
AcDbEntity
  8
MODEL
100
AcDbVertex
100
AcDb2dVertex
 10
244.5677895006411
 20
361.7414355022922
 30
0.0
  0
VERTEX
  5
4365
330
4360
100
AcDbEntity
  8
MODEL
100
AcDbVertex
100
AcDb2dVertex
 10
235.9958445435587
 20
361.7447084862392
 30
0.0
  0
VERTEX
  5
4366
330
4360
100
AcDbEntity
  8
MODEL
100
AcDbVertex
100
AcDb2dVertex
 10
218.8574096026383
 20
361.749072464835
 30
0.0
  0
VERTEX
  5
4367
330
4360
100
AcDbEntity
  8
MODEL
100
AcDbVertex
100
AcDb2dVertex
 10
201.7173381697444
 20
361.7501634594841
 30
0.0
  0
VERTEX
  5
4368
330
4360
100
AcDbEntity
  8
MODEL
100
AcDbVertex
100
AcDb2dVertex
 10
184.578903228824
 20
361.749072464835
 30
0.0
  0
VERTEX
  5
4369
330
4360
100
AcDbEntity
  8
MODEL
100
AcDbVertex
100
AcDb2dVertex
 10
167.440468287904
 20
361.7447084862392
 30
0.0
  0
VERTEX
  5
436A
330
4360
100
AcDbEntity
  8
MODEL
100
AcDbVertex
100
AcDb2dVertex
 10
150.3020333469831
 20
361.7381625183452
 30
0.0
  0
VERTEX
  5
436B
330
4360
100
AcDbEntity
  8
MODEL
100
AcDbVertex
100
AcDb2dVertex
 10
133.1625074114136
 20
361.7294345611535
 30
0.0
  0
VERTEX
  5
436C
330
4360
100
AcDbEntity
  8
MODEL
100
AcDbVertex
100
AcDb2dVertex
 10
116.0240724704936
 20
361.7174336200146
 30
0.0
  0
SEQEND
  5
436D
330
4360
100
AcDbEntity
  8
MODEL
  0
POLYLINE
  5
436E
330
A
100
AcDbEntity
  8
MODEL
100
AcDb2dPolyline
 66
     1
 10
0.0
 20
0.0
 30
0.0
  0
VERTEX
  5
436F
330
436E
100
AcDbEntity
  8
MODEL
100
AcDbVertex
100
AcDb2dVertex
 10
287.4116948636443
 20
354.5779646370503
 30
0.0
  0
VERTEX
  5
4370
330
436E
100
AcDbEntity
  8
MODEL
100
AcDbVertex
100
AcDb2dVertex
 10
278.8452048798068
 20
354.5714186691566
 30
0.0
  0
VERTEX
  5
4371
330
436E
100
AcDbEntity
  8
MODEL
100
AcDbVertex
100
AcDb2dVertex
 10
261.7067699388863
 20
354.5615997173156
 30
0.0
  0
VERTEX
  5
4372
330
436E
100
AcDbEntity
  8
MODEL
100
AcDbVertex
100
AcDb2dVertex
 10
244.5677895006411
 20
354.5528717601239
 30
0.0
  0
VERTEX
  5
4373
330
436E
100
AcDbEntity
  8
MODEL
100
AcDbVertex
100
AcDb2dVertex
 10
235.9958445435587
 20
354.5495987761769
 30
0.0
  0
VERTEX
  5
4374
330
436E
100
AcDbEntity
  8
MODEL
100
AcDbVertex
100
AcDb2dVertex
 10
218.8574096026383
 20
354.5463257922299
 30
0.0
  0
VERTEX
  5
4375
330
436E
100
AcDbEntity
  8
MODEL
100
AcDbVertex
100
AcDb2dVertex
 10
201.7173381697444
 20
354.5452347975808
 30
0.0
  0
VERTEX
  5
4376
330
436E
100
AcDbEntity
  8
MODEL
100
AcDbVertex
100
AcDb2dVertex
 10
184.578903228824
 20
354.5463257922299
 30
0.0
  0
VERTEX
  5
4377
330
436E
100
AcDbEntity
  8
MODEL
100
AcDbVertex
100
AcDb2dVertex
 10
167.440468287904
 20
354.5495987761769
 30
0.0
  0
VERTEX
  5
4378
330
436E
100
AcDbEntity
  8
MODEL
100
AcDbVertex
100
AcDb2dVertex
 10
150.3020333469831
 20
354.5572357387197
 30
0.0
  0
VERTEX
  5
4379
330
436E
100
AcDbEntity
  8
MODEL
100
AcDbVertex
100
AcDb2dVertex
 10
133.1625074114136
 20
354.5659636959116
 30
0.0
  0
VERTEX
  5
437A
330
436E
100
AcDbEntity
  8
MODEL
100
AcDbVertex
100
AcDb2dVertex
 10
116.0240724704936
 20
354.5779646370503
 30
0.0
  0
SEQEND
  5
437B
330
436E
100
AcDbEntity
  8
MODEL
  0
POLYLINE
  5
437C
330
A
100
AcDbEntity
  8
MODEL
100
AcDb2dPolyline
 66
     1
 10
0.0
 20
0.0
 30
0.0
  0
VERTEX
  5
437D
330
437C
100
AcDbEntity
  8
MODEL
100
AcDbVertex
100
AcDb2dVertex
 10
287.4116948636443
 20
348.1312772561925
 30
0.0
  0
VERTEX
  5
437E
330
437C
100
AcDbEntity
  8
MODEL
100
AcDbVertex
100
AcDb2dVertex
 10
278.8452048798068
 20
348.1378232240865
 30
0.0
  0
VERTEX
  5
437F
330
437C
100
AcDbEntity
  8
MODEL
100
AcDbVertex
100
AcDb2dVertex
 10
261.7067699388863
 20
348.1487331705763
 30
0.0
  0
VERTEX
  5
4380
330
437C
100
AcDbEntity
  8
MODEL
100
AcDbVertex
100
AcDb2dVertex
 10
244.5677895006411
 20
348.1563701331192
 30
0.0
  0
VERTEX
  5
4381
330
437C
100
AcDbEntity
  8
MODEL
100
AcDbVertex
100
AcDb2dVertex
 10
235.9958445435587
 20
348.1596431170662
 30
0.0
  0
VERTEX
  5
4382
330
437C
100
AcDbEntity
  8
MODEL
100
AcDbVertex
100
AcDb2dVertex
 10
218.8574096026383
 20
348.164007095662
 30
0.0
  0
VERTEX
  5
4383
330
437C
100
AcDbEntity
  8
MODEL
100
AcDbVertex
100
AcDb2dVertex
 10
201.7173381697444
 20
348.1650980903111
 30
0.0
  0
VERTEX
  5
4384
330
437C
100
AcDbEntity
  8
MODEL
100
AcDbVertex
100
AcDb2dVertex
 10
184.578903228824
 20
348.164007095662
 30
0.0
  0
VERTEX
  5
4385
330
437C
100
AcDbEntity
  8
MODEL
100
AcDbVertex
100
AcDb2dVertex
 10
167.440468287904
 20
348.1596431170662
 30
0.0
  0
VERTEX
  5
4386
330
437C
100
AcDbEntity
  8
MODEL
100
AcDbVertex
100
AcDb2dVertex
 10
150.3020333469831
 20
348.1530971491722
 30
0.0
  0
VERTEX
  5
4387
330
437C
100
AcDbEntity
  8
MODEL
100
AcDbVertex
100
AcDb2dVertex
 10
133.1625074114136
 20
348.1432781973312
 30
0.0
  0
VERTEX
  5
4388
330
437C
100
AcDbEntity
  8
MODEL
100
AcDbVertex
100
AcDb2dVertex
 10
116.0240724704936
 20
348.1312772561925
 30
0.0
  0
SEQEND
  5
4389
330
437C
100
AcDbEntity
  8
MODEL
  0
POLYLINE
  5
438A
330
A
100
AcDbEntity
  8
MODEL
100
AcDb2dPolyline
 66
     1
 10
0.0
 20
0.0
 30
0.0
  0
VERTEX
  5
438B
330
438A
100
AcDbEntity
  8
MODEL
100
AcDbVertex
100
AcDb2dVertex
 10
287.4116948636443
 20
340.9928992678774
 30
0.0
  0
VERTEX
  5
438C
330
438A
100
AcDbEntity
  8
MODEL
100
AcDbVertex
100
AcDb2dVertex
 10
278.8452048798068
 20
340.9863532999834
 30
0.0
  0
VERTEX
  5
438D
330
438A
100
AcDbEntity
  8
MODEL
100
AcDbVertex
100
AcDb2dVertex
 10
261.7067699388863
 20
340.9754433534935
 30
0.0
  0
VERTEX
  5
438E
330
438A
100
AcDbEntity
  8
MODEL
100
AcDbVertex
100
AcDb2dVertex
 10
244.5677895006411
 20
340.9678063909507
 30
0.0
  0
VERTEX
  5
438F
330
438A
100
AcDbEntity
  8
MODEL
100
AcDbVertex
100
AcDb2dVertex
 10
235.9958445435587
 20
340.9645334070037
 30
0.0
  0
VERTEX
  5
4390
330
438A
100
AcDbEntity
  8
MODEL
100
AcDbVertex
100
AcDb2dVertex
 10
218.8574096026383
 20
340.9601694284078
 30
0.0
  0
VERTEX
  5
4391
330
438A
100
AcDbEntity
  8
MODEL
100
AcDbVertex
100
AcDb2dVertex
 10
201.7173381697444
 20
340.9590784337587
 30
0.0
  0
VERTEX
  5
4392
330
438A
100
AcDbEntity
  8
MODEL
100
AcDbVertex
100
AcDb2dVertex
 10
184.578903228824
 20
340.9601694284078
 30
0.0
  0
VERTEX
  5
4393
330
438A
100
AcDbEntity
  8
MODEL
100
AcDbVertex
100
AcDb2dVertex
 10
167.440468287904
 20
340.9645334070037
 30
0.0
  0
VERTEX
  5
4394
330
438A
100
AcDbEntity
  8
MODEL
100
AcDbVertex
100
AcDb2dVertex
 10
150.3020333469831
 20
340.9699883802486
 30
0.0
  0
VERTEX
  5
4395
330
438A
100
AcDbEntity
  8
MODEL
100
AcDbVertex
100
AcDb2dVertex
 10
133.1625074114136
 20
340.9808983267387
 30
0.0
  0
VERTEX
  5
4396
330
438A
100
AcDbEntity
  8
MODEL
100
AcDbVertex
100
AcDb2dVertex
 10
116.0240724704936
 20
340.9928992678774
 30
0.0
  0
SEQEND
  5
4397
330
438A
100
AcDbEntity
  8
MODEL
  0
POLYLINE
  5
4398
330
A
100
AcDbEntity
  8
MODEL
100
AcDb2dPolyline
 66
     1
 10
0.0
 20
0.0
 30
0.0
  0
VERTEX
  5
4399
330
4398
100
AcDbEntity
  8
MODEL
100
AcDbVertex
100
AcDb2dVertex
 10
287.4116948636443
 20
334.5462118870193
 30
0.0
  0
VERTEX
  5
439A
330
4398
100
AcDbEntity
  8
MODEL
100
AcDbVertex
100
AcDb2dVertex
 10
278.8452048798068
 20
334.5527578549133
 30
0.0
  0
VERTEX
  5
439B
330
4398
100
AcDbEntity
  8
MODEL
100
AcDbVertex
100
AcDb2dVertex
 10
261.7067699388863
 20
334.5625768067541
 30
0.0
  0
VERTEX
  5
439C
330
4398
100
AcDbEntity
  8
MODEL
100
AcDbVertex
100
AcDb2dVertex
 10
244.5677895006411
 20
334.5702137692971
 30
0.0
  0
VERTEX
  5
439D
330
4398
100
AcDbEntity
  8
MODEL
100
AcDbVertex
100
AcDb2dVertex
 10
235.9958445435587
 20
334.5734867532439
 30
0.0
  0
VERTEX
  5
439E
330
4398
100
AcDbEntity
  8
MODEL
100
AcDbVertex
100
AcDb2dVertex
 10
218.8574096026383
 20
334.57785073184
 30
0.0
  0
VERTEX
  5
439F
330
4398
100
AcDbEntity
  8
MODEL
100
AcDbVertex
100
AcDb2dVertex
 10
201.7173381697444
 20
334.5789417264888
 30
0.0
  0
VERTEX
  5
43A0
330
4398
100
AcDbEntity
  8
MODEL
100
AcDbVertex
100
AcDb2dVertex
 10
184.578903228824
 20
334.57785073184
 30
0.0
  0
VERTEX
  5
43A1
330
4398
100
AcDbEntity
  8
MODEL
100
AcDbVertex
100
AcDb2dVertex
 10
167.440468287904
 20
334.573486753244
 30
0.0
  0
VERTEX
  5
43A2
330
4398
100
AcDbEntity
  8
MODEL
100
AcDbVertex
100
AcDb2dVertex
 10
150.3020333469831
 20
334.5669407853502
 30
0.0
  0
VERTEX
  5
43A3
330
4398
100
AcDbEntity
  8
MODEL
100
AcDbVertex
100
AcDb2dVertex
 10
133.1625074114136
 20
334.5582128281583
 30
0.0
  0
VERTEX
  5
43A4
330
4398
100
AcDbEntity
  8
MODEL
100
AcDbVertex
100
AcDb2dVertex
 10
116.0240724704936
 20
334.5462118870194
 30
0.0
  0
SEQEND
  5
43A5
330
4398
100
AcDbEntity
  8
MODEL
  0
POLYLINE
  5
43C9
330
A
100
AcDbEntity
  8
MODEL
100
AcDb2dPolyline
 66
     1
 10
0.0
 20
0.0
 30
0.0
  0
VERTEX
  5
43CA
330
43C9
100
AcDbEntity
  8
MODEL
100
AcDbVertex
100
AcDb2dVertex
 10
91.98836935868422
 20
215.7715341597211
 30
0.0
  0
VERTEX
  5
43CB
330
43C9
100
AcDbEntity
  8
MODEL
100
AcDbVertex
100
AcDb2dVertex
 10
91.98836935868422
 20
207.9332831040815
 30
0.0
  0
SEQEND
  5
43CC
330
43C9
100
AcDbEntity
  8
MODEL
  0
POLYLINE
  5
43DD
330
A
100
AcDbEntity
  8
MODEL
100
AcDb2dPolyline
 66
     1
 10
0.0
 20
0.0
 30
0.0
  0
VERTEX
  5
43DE
330
43DD
100
AcDbEntity
  8
MODEL
100
AcDbVertex
100
AcDb2dVertex
 10
308.3124248515936
 20
218.9065072835822
 30
0.0
  0
VERTEX
  5
43DF
330
43DD
100
AcDbEntity
  8
MODEL
100
AcDbVertex
100
AcDb2dVertex
 10
95.12334248254575
 20
218.9065072835822
 30
0.0
  0
SEQEND
  5
43E0
330
43DD
100
AcDbEntity
  8
MODEL
  0
POLYLINE
  5
43E1
330
A
100
AcDbEntity
  8
MODEL
100
AcDb2dPolyline
 66
     1
 10
0.0
 20
0.0
 30
0.0
  0
VERTEX
  5
43E2
330
43E1
100
AcDbEntity
  8
MODEL
100
AcDbVertex
100
AcDb2dVertex
 10
311.4479434727789
 20
207.9332831040815
 30
0.0
  0
VERTEX
  5
43E3
330
43E1
100
AcDbEntity
  8
MODEL
100
AcDbVertex
100
AcDb2dVertex
 10
311.4479434727789
 20
215.7715341597211
 30
0.0
  0
SEQEND
  5
43E4
330
43E1
100
AcDbEntity
  8
MODEL
  0
POLYLINE
  5
43E5
330
A
100
AcDbEntity
  8
MODEL
100
AcDb2dPolyline
 66
     1
 10
0.0
 20
0.0
 30
0.0
  0
VERTEX
  5
43E6
330
43E5
100
AcDbEntity
  8
MODEL
100
AcDbVertex
100
AcDb2dVertex
 10
311.4479434727787
 20
399.3872968602017
 30
0.0
  0
VERTEX
  5
43E7
330
43E5
100
AcDbEntity
  8
MODEL
100
AcDbVertex
100
AcDb2dVertex
 10
311.4479434727787
 20
306.4181878468634
 30
0.0
  0
SEQEND
  5
43E8
330
43E5
100
AcDbEntity
  8
MODEL
  0
POLYLINE
  5
43E9
330
A
100
AcDbEntity
  8
MODEL
100
AcDb2dPolyline
 66
     1
 10
0.0
 20
0.0
 30
0.0
  0
VERTEX
  5
43EA
330
43E9
100
AcDbEntity
  8
MODEL
100
AcDbVertex
100
AcDb2dVertex
 10
93.03354223241246
 20
398.903986230701
 30
0.0
  0
VERTEX
  5
43EB
330
43E9
100
AcDbEntity
  8
MODEL
100
AcDbVertex
100
AcDb2dVertex
 10
113.5693345102755
 20
398.903986230701
 30
0.0
  0
SEQEND
  5
43EC
330
43E9
100
AcDbEntity
  8
MODEL
  0
POLYLINE
  5
43ED
330
A
100
AcDbEntity
  8
MODEL
100
AcDb2dPolyline
 66
     1
 10
0.0
 20
0.0
 30
0.0
  0
VERTEX
  5
43EE
330
43ED
100
AcDbEntity
  8
MODEL
100
AcDbVertex
100
AcDb2dVertex
 10
275.5896768472326
 20
398.903986230701
 30
0.0
  0
VERTEX
  5
43EF
330
43ED
100
AcDbEntity
  8
MODEL
100
AcDbVertex
100
AcDb2dVertex
 10
310.4033160963741
 20
398.903986230701
 30
0.0
  0
SEQEND
  5
43F0
330
43ED
100
AcDbEntity
  8
MODEL
  0
POLYLINE
  5
43F1
330
A
100
AcDbEntity
  8
MODEL
100
AcDb2dPolyline
 66
     1
 10
0.0
 20
0.0
 30
0.0
  0
VERTEX
  5
43F2
330
43F1
100
AcDbEntity
  8
MODEL
100
AcDbVertex
100
AcDb2dVertex
 10
93.03354223241246
 20
305.3730149731348
 30
0.0
  0
VERTEX
  5
43F3
330
43F1
100
AcDbEntity
  8
MODEL
100
AcDbVertex
100
AcDb2dVertex
 10
310.4027705990498
 20
305.3730149731347
 30
0.0
  0
SEQEND
  5
43F4
330
43F1
100
AcDbEntity
  8
MODEL
  0
POLYLINE
  5
43F5
330
A
100
AcDbEntity
  8
MODEL
100
AcDb2dPolyline
 66
     1
 10
0.0
 20
0.0
 30
0.0
  0
VERTEX
  5
43F6
330
43F5
100
AcDbEntity
  8
MODEL
100
AcDbVertex
100
AcDb2dVertex
 10
91.988369358684
 20
399.3872968602017
 30
0.0
  0
VERTEX
  5
43F7
330
43F5
100
AcDbEntity
  8
MODEL
100
AcDbVertex
100
AcDb2dVertex
 10
91.988369358684
 20
306.4181878468635
 30
0.0
  0
SEQEND
  5
43F8
330
43F5
100
AcDbEntity
  8
MODEL
  0
SPLINE
  5
43F9
102
{ACAD_REACTORS
330
447D
102
}
330
A
100
AcDbEntity
  8
MODEL
100
AcDbSpline
210
0.0
220
0.0
230
1.0
 70
     8
 71
     3
 72
     8
 73
     4
 74
     0
 42
0.000000001
 43
0.0000000001
 40
0.0
 40
0.0
 40
0.0
 40
0.0
 40
1.0
 40
1.0
 40
1.0
 40
1.0
 10
311.4479434727789
 20
215.7715341597211
 30
0.0
 10
311.4479434727789
 20
217.5029426676617
 30
0.0
 10
310.0449243541833
 20
218.9065072835822
 30
0.0
 10
308.3124248515936
 20
218.9065072835822
 30
0.0
  0
SPLINE
  5
43FA
330
A
100
AcDbEntity
  8
MODEL
100
AcDbSpline
210
0.0
220
0.0
230
1.0
 70
     8
 71
     3
 72
     8
 73
     4
 74
     0
 42
0.000000001
 43
0.0000000001
 40
0.0
 40
0.0
 40
0.0
 40
0.0
 40
1.0
 40
1.0
 40
1.0
 40
1.0
 10
95.12334248254575
 20
218.9065072835822
 30
0.0
 10
93.39193397460514
 20
218.9065072835822
 30
0.0
 10
91.98836935868422
 20
217.5034881649863
 30
0.0
 10
91.98836935868422
 20
215.7715341597211
 30
0.0
  0
SPLINE
  5
4404
330
A
100
AcDbEntity
  8
MODEL
100
AcDbSpline
210
0.0
220
0.0
230
1.0
 70
     8
 71
     3
 72
     8
 73
     4
 74
     0
 42
0.000000001
 43
0.0000000001
 40
0.0
 40
0.0
 40
0.0
 40
0.0
 40
1.0
 40
1.0
 40
1.0
 40
1.0
 10
93.03354223241246
 20
315.2552445036497
 30
0.0
 10
165.4897698555165
 20
315.075230386567
 30
0.0
 10
237.945997478621
 20
315.0752303865669
 30
0.0
 10
310.4027705990498
 20
315.2552445036496
 30
0.0
  0
SPLINE
  5
4405
330
A
100
AcDbEntity
  8
MODEL
100
AcDbSpline
210
0.0
220
0.0
230
1.0
 70
     8
 71
     3
 72
     8
 73
     4
 74
     0
 42
0.000000001
 43
0.0000000001
 40
0.0
 40
0.0
 40
0.0
 40
0.0
 40
1.0
 40
1.0
 40
1.0
 40
1.0
 10
91.988369358684
 20
306.4176423495389
 30
0.0
 10
91.988369358684
 20
305.8399606829009
 30
0.0
 10
92.45640606309877
 20
305.3730149731348
 30
0.0
 10
93.03354223241246
 20
305.3730149731348
 30
0.0
  0
SPLINE
  5
4406
102
{ACAD_REACTORS
330
44C9
102
}
330
A
100
AcDbEntity
  8
MODEL
100
AcDbSpline
210
0.0
220
0.0
230
1.0
 70
     8
 71
     3
 72
     8
 73
     4
 74
     0
 42
0.000000001
 43
0.0000000001
 40
0.0
 40
0.0
 40
0.0
 40
0.0
 40
1.0
 40
1.0
 40
1.0
 40
1.0
 10
310.4027705990498
 20
305.3730149731347
 30
0.0
 10
310.9804522656883
 20
305.3730149731347
 30
0.0
 10
311.448488970103
 20
305.8399606829009
 30
0.0
 10
311.448488970103
 20
306.4176423495389
 30
0.0
  0
SPLINE
  5
4407
330
A
100
AcDbEntity
  8
MODEL
100
AcDbSpline
210
0.0
220
0.0
230
1.0
 70
     8
 71
     3
 72
     8
 73
     4
 74
     0
 42
0.000000001
 43
0.0000000001
 40
0.0
 40
0.0
 40
0.0
 40
0.0
 40
1.0
 40
1.0
 40
1.0
 40
1.0
 10
310.4027705990498
 20
398.903986230701
 30
0.0
 10
310.751343389401
 20
398.903986230701
 30
0.0
 10
311.0775507894478
 20
399.0785453745386
 30
0.0
 10
311.2717478369673
 20
399.3687499511688
 30
0.0
  0
SPLINE
  5
4408
330
A
100
AcDbEntity
  8
MODEL
100
AcDbSpline
210
0.0
220
0.0
230
1.0
 70
     8
 71
     3
 72
     8
 73
     4
 74
     0
 42
0.000000001
 43
0.0000000001
 40
0.0
 40
0.0
 40
0.0
 40
0.0
 40
1.0
 40
1.0
 40
1.0
 40
1.0
 10
92.16401949717061
 20
399.3687499511688
 30
0.0
 10
92.35821654469015
 20
399.0785453745386
 30
0.0
 10
92.68442394473692
 20
398.903986230701
 30
0.0
 10
93.03354223241246
 20
398.903986230701
 30
0.0
  0
POLYLINE
  5
4409
330
A
100
AcDbEntity
  8
MODEL
100
AcDb2dPolyline
 66
     1
 10
0.0
 20
0.0
 30
0.0
  0
VERTEX
  5
440A
330
4409
100
AcDbEntity
  8
MODEL
100
AcDbVertex
100
AcDb2dVertex
 10
201.7178836670687
 20
398.9094412039457
 30
0.0
  0
VERTEX
  5
440B
330
4409
100
AcDbEntity
  8
MODEL
100
AcDbVertex
100
AcDb2dVertex
 10
197.3097197878411
 20
398.9443530327134
 30
0.0
  0
VERTEX
  5
440C
330
4409
100
AcDbEntity
  8
MODEL
100
AcDbVertex
100
AcDb2dVertex
 10
188.4950285213591
 20
398.9858108293749
 30
0.0
  0
VERTEX
  5
440D
330
4409
100
AcDbEntity
  8
MODEL
100
AcDbVertex
100
AcDb2dVertex
 10
179.679246260228
 20
398.9999937598117
 30
0.0
  0
VERTEX
  5
440E
330
4409
100
AcDbEntity
  8
MODEL
100
AcDbVertex
100
AcDb2dVertex
 10
177.4743460746272
 20
398.9999937598117
 30
0.0
  0
VERTEX
  5
440F
330
4409
100
AcDbEntity
  8
MODEL
100
AcDbVertex
100
AcDb2dVertex
 10
168.66020030547
 20
398.9945387865668
 30
0.0
  0
VERTEX
  5
4410
330
4409
100
AcDbEntity
  8
MODEL
100
AcDbVertex
100
AcDb2dVertex
 10
166.4553001198693
 20
398.9912658026198
 30
0.0
  0
VERTEX
  5
4411
330
4409
100
AcDbEntity
  8
MODEL
100
AcDbVertex
100
AcDb2dVertex
 10
157.641154350712
 20
398.977082872183
 30
0.0
  0
VERTEX
  5
4412
330
4409
100
AcDbEntity
  8
MODEL
100
AcDbVertex
100
AcDb2dVertex
 10
153.2335359688087
 20
398.9672639203422
 30
0.0
  0
VERTEX
  5
4413
330
4409
100
AcDbEntity
  8
MODEL
100
AcDbVertex
100
AcDb2dVertex
 10
144.419390199651
 20
398.9487170113095
 30
0.0
  0
VERTEX
  5
4414
330
4409
100
AcDbEntity
  8
MODEL
100
AcDbVertex
100
AcDb2dVertex
 10
135.6041534358447
 20
398.9290791076275
 30
0.0
  0
VERTEX
  5
4415
330
4409
100
AcDbEntity
  8
MODEL
100
AcDbVertex
100
AcDb2dVertex
 10
131.1998080378881
 20
398.9214421450849
 30
0.0
  0
VERTEX
  5
4416
330
4409
100
AcDbEntity
  8
MODEL
100
AcDbVertex
100
AcDb2dVertex
 10
122.3845712740818
 20
398.9094412039457
 30
0.0
  0
VERTEX
  5
4417
330
4409
100
AcDbEntity
  8
MODEL
100
AcDbVertex
100
AcDb2dVertex
 10
113.5693345102755
 20
398.903986230701
 30
0.0
  0
SEQEND
  5
4418
330
4409
100
AcDbEntity
  8
MODEL
  0
POLYLINE
  5
4419
330
A
100
AcDbEntity
  8
MODEL
100
AcDb2dPolyline
 66
     1
 10
0.0
 20
0.0
 30
0.0
  0
VERTEX
  5
441A
330
4419
100
AcDbEntity
  8
MODEL
100
AcDbVertex
100
AcDb2dVertex
 10
275.5896768472326
 20
398.903986230701
 30
0.0
  0
VERTEX
  5
441B
330
4419
100
AcDbEntity
  8
MODEL
100
AcDbVertex
100
AcDb2dVertex
 10
268.2041885709219
 20
398.9083502092969
 30
0.0
  0
VERTEX
  5
441C
330
4419
100
AcDbEntity
  8
MODEL
100
AcDbVertex
100
AcDb2dVertex
 10
260.8170638026382
 20
398.9170781664888
 30
0.0
  0
VERTEX
  5
441D
330
4419
100
AcDbEntity
  8
MODEL
100
AcDbVertex
100
AcDb2dVertex
 10
253.4304845316788
 20
398.9290791076275
 30
0.0
  0
VERTEX
  5
441E
330
4419
100
AcDbEntity
  8
MODEL
100
AcDbVertex
100
AcDb2dVertex
 10
246.0428142660704
 20
398.9432620380643
 30
0.0
  0
VERTEX
  5
441F
330
4419
100
AcDbEntity
  8
MODEL
100
AcDbVertex
100
AcDb2dVertex
 10
238.6556894977867
 20
398.9574449685012
 30
0.0
  0
VERTEX
  5
4420
330
4419
100
AcDbEntity
  8
MODEL
100
AcDbVertex
100
AcDb2dVertex
 10
234.9610361189953
 20
398.9639909363952
 30
0.0
  0
VERTEX
  5
4421
330
4419
100
AcDbEntity
  8
MODEL
100
AcDbVertex
100
AcDb2dVertex
 10
227.5744568480364
 20
398.9727188935871
 30
0.0
  0
VERTEX
  5
4422
330
4419
100
AcDbEntity
  8
MODEL
100
AcDbVertex
100
AcDb2dVertex
 10
220.1867865824279
 20
398.973809888236
 30
0.0
  0
VERTEX
  5
4423
330
4419
100
AcDbEntity
  8
MODEL
100
AcDbVertex
100
AcDb2dVertex
 10
216.4921332036366
 20
398.9683549149913
 30
0.0
  0
VERTEX
  5
4424
330
4419
100
AcDbEntity
  8
MODEL
100
AcDbVertex
100
AcDb2dVertex
 10
209.1055539326772
 20
398.9498080059583
 30
0.0
  0
VERTEX
  5
4425
330
4419
100
AcDbEntity
  8
MODEL
100
AcDbVertex
100
AcDb2dVertex
 10
201.7173381697444
 20
398.9094412039457
 30
0.0
  0
SEQEND
  5
4426
330
4419
100
AcDbEntity
  8
MODEL
  0
POLYLINE
  5
4427
330
A
100
AcDbEntity
  8
MODEL
100
AcDb2dPolyline
 66
     1
 10
0.0
 20
0.0
 30
0.0
  0
VERTEX
  5
4428
330
4427
100
AcDbEntity
  8
MODEL
100
AcDbVertex
100
AcDb2dVertex
 10
310.4027705990498
 20
315.2552445036496
 30
0.0
  0
VERTEX
  5
4429
330
4427
100
AcDbEntity
  8
MODEL
100
AcDbVertex
100
AcDb2dVertex
 10
310.4856861923727
 20
315.2519715197026
 30
0.0
  0
VERTEX
  5
442A
330
4427
100
AcDbEntity
  8
MODEL
100
AcDbVertex
100
AcDb2dVertex
 10
310.6460624057741
 20
315.2263331454516
 30
0.0
  0
VERTEX
  5
442B
330
4427
100
AcDbEntity
  8
MODEL
100
AcDbVertex
100
AcDb2dVertex
 10
310.8026201379035
 20
315.1761473915982
 30
0.0
  0
VERTEX
  5
442C
330
4427
100
AcDbEntity
  8
MODEL
100
AcDbVertex
100
AcDb2dVertex
 10
310.877353271359
 20
315.1412355628306
 30
0.0
  0
VERTEX
  5
442D
330
4427
100
AcDbEntity
  8
MODEL
100
AcDbVertex
100
AcDb2dVertex
 10
311.0170005864289
 20
315.0566834775342
 30
0.0
  0
VERTEX
  5
442E
330
4427
100
AcDbEntity
  8
MODEL
100
AcDbVertex
100
AcDb2dVertex
 10
311.1424649710626
 20
314.950311499258
 30
0.0
  0
VERTEX
  5
442F
330
4427
100
AcDbEntity
  8
MODEL
100
AcDbVertex
100
AcDb2dVertex
 10
311.1970147035118
 20
314.8897612962393
 30
0.0
  0
VERTEX
  5
4430
330
4427
100
AcDbEntity
  8
MODEL
100
AcDbVertex
100
AcDb2dVertex
 10
311.2930222326227
 20
314.7582964410366
 30
0.0
  0
VERTEX
  5
4431
330
4427
100
AcDbEntity
  8
MODEL
100
AcDbVertex
100
AcDb2dVertex
 10
311.3677553660783
 20
314.6126486553969
 30
0.0
  0
VERTEX
  5
4432
330
4427
100
AcDbEntity
  8
MODEL
100
AcDbVertex
100
AcDb2dVertex
 10
311.3972122216006
 20
314.5357335326434
 30
0.0
  0
VERTEX
  5
4433
330
4427
100
AcDbEntity
  8
MODEL
100
AcDbVertex
100
AcDb2dVertex
 10
311.4348515369907
 20
314.375902816567
 30
0.0
  0
VERTEX
  5
4434
330
4427
100
AcDbEntity
  8
MODEL
100
AcDbVertex
100
AcDb2dVertex
 10
311.448488970103
 20
314.2138901111925
 30
0.0
  0
SEQEND
  5
4435
330
4427
100
AcDbEntity
  8
MODEL
  0
POLYLINE
  5
4436
330
A
100
AcDbEntity
  8
MODEL
100
AcDb2dPolyline
 66
     1
 10
0.0
 20
0.0
 30
0.0
  0
VERTEX
  5
4437
330
4436
100
AcDbEntity
  8
MODEL
100
AcDbVertex
100
AcDb2dVertex
 10
93.03354223241246
 20
315.2552445036497
 30
0.0
  0
VERTEX
  5
4438
330
4436
100
AcDbEntity
  8
MODEL
100
AcDbVertex
100
AcDb2dVertex
 10
92.95062663908953
 20
315.2519715197027
 30
0.0
  0
VERTEX
  5
4439
330
4436
100
AcDbEntity
  8
MODEL
100
AcDbVertex
100
AcDb2dVertex
 10
92.78915943103954
 20
315.2263331454517
 30
0.0
  0
VERTEX
  5
443A
330
4436
100
AcDbEntity
  8
MODEL
100
AcDbVertex
100
AcDb2dVertex
 10
92.63314719623446
 20
315.1761473915983
 30
0.0
  0
VERTEX
  5
443B
330
4436
100
AcDbEntity
  8
MODEL
100
AcDbVertex
100
AcDb2dVertex
 10
92.55895956010369
 20
315.1412355628306
 30
0.0
  0
VERTEX
  5
443C
330
4436
100
AcDbEntity
  8
MODEL
100
AcDbVertex
100
AcDb2dVertex
 10
92.41931224503338
 20
315.0566834775343
 30
0.0
  0
VERTEX
  5
443D
330
4436
100
AcDbEntity
  8
MODEL
100
AcDbVertex
100
AcDb2dVertex
 10
92.29384786040015
 20
314.9503114992581
 30
0.0
  0
VERTEX
  5
443E
330
4436
100
AcDbEntity
  8
MODEL
100
AcDbVertex
100
AcDb2dVertex
 10
92.23929812795092
 20
314.8897612962394
 30
0.0
  0
VERTEX
  5
443F
330
4436
100
AcDbEntity
  8
MODEL
100
AcDbVertex
100
AcDb2dVertex
 10
92.14219960419092
 20
314.7582964410367
 30
0.0
  0
VERTEX
  5
4440
330
4436
100
AcDbEntity
  8
MODEL
100
AcDbVertex
100
AcDb2dVertex
 10
92.0680119680597
 20
314.6126486553969
 30
0.0
  0
VERTEX
  5
4441
330
4436
100
AcDbEntity
  8
MODEL
100
AcDbVertex
100
AcDb2dVertex
 10
92.039646107186
 20
314.5357335326435
 30
0.0
  0
VERTEX
  5
4442
330
4436
100
AcDbEntity
  8
MODEL
100
AcDbVertex
100
AcDb2dVertex
 10
92.001461294472
 20
314.3759028165671
 30
0.0
  0
VERTEX
  5
4443
330
4436
100
AcDbEntity
  8
MODEL
100
AcDbVertex
100
AcDb2dVertex
 10
91.988369358684
 20
314.2138901111925
 30
0.0
  0
SEQEND
  5
4444
330
4436
100
AcDbEntity
  8
MODEL
  0
POLYLINE
  5
4445
330
A
100
AcDbEntity
  8
MODEL
100
AcDb2dPolyline
 66
     1
 10
0.0
 20
0.0
 30
0.0
  0
VERTEX
  5
4446
330
4445
100
AcDbEntity
  8
MODEL
100
AcDbVertex
100
AcDb2dVertex
 10
93.03354223241246
 20
398.903986230701
 30
0.0
  0
VERTEX
  5
4447
330
4445
100
AcDbEntity
  8
MODEL
100
AcDbVertex
100
AcDb2dVertex
 10
93.03245123776338
 20
398.906168219999
 30
0.0
  0
VERTEX
  5
4448
330
4445
100
AcDbEntity
  8
MODEL
100
AcDbVertex
100
AcDb2dVertex
 10
93.03245123776338
 20
398.9127141878927
 30
0.0
  0
VERTEX
  5
4449
330
4445
100
AcDbEntity
  8
MODEL
100
AcDbVertex
100
AcDb2dVertex
 10
93.03136024311476
 20
398.9225331397337
 30
0.0
  0
VERTEX
  5
444A
330
4445
100
AcDbEntity
  8
MODEL
100
AcDbVertex
100
AcDb2dVertex
 10
93.03136024311476
 20
398.9367160701706
 30
0.0
  0
VERTEX
  5
444B
330
4445
100
AcDbEntity
  8
MODEL
100
AcDbVertex
100
AcDb2dVertex
 10
93.03026924846569
 20
398.9759918775341
 30
0.0
  0
VERTEX
  5
444C
330
4445
100
AcDbEntity
  8
MODEL
100
AcDbVertex
100
AcDb2dVertex
 10
93.03026924846569
 20
398.9836288400767
 30
0.0
  0
VERTEX
  5
444D
330
4445
100
AcDbEntity
  8
MODEL
100
AcDbVertex
100
AcDb2dVertex
 10
93.02917825381661
 20
399.0316326046322
 30
0.0
  0
VERTEX
  5
444E
330
4445
100
AcDbEntity
  8
MODEL
100
AcDbVertex
100
AcDb2dVertex
 10
93.02917825381661
 20
399.052361502963
 30
0.0
  0
VERTEX
  5
444F
330
4445
100
AcDbEntity
  8
MODEL
100
AcDbVertex
100
AcDb2dVertex
 10
93.02917825381661
 20
399.1014562621673
 30
0.0
  0
VERTEX
  5
4450
330
4445
100
AcDbEntity
  8
MODEL
100
AcDbVertex
100
AcDb2dVertex
 10
93.02917825381661
 20
399.135277096286
 30
0.0
  0
VERTEX
  5
4451
330
4445
100
AcDbEntity
  8
MODEL
100
AcDbVertex
100
AcDb2dVertex
 10
93.02808725916753
 20
399.1843718554903
 30
0.0
  0
VERTEX
  5
4452
330
4445
100
AcDbEntity
  8
MODEL
100
AcDbVertex
100
AcDb2dVertex
 10
93.02808725916753
 20
399.1930998126822
 30
0.0
  0
VERTEX
  5
4453
330
4445
100
AcDbEntity
  8
MODEL
100
AcDbVertex
100
AcDb2dVertex
 10
93.02808725916753
 20
399.2421945718865
 30
0.0
  0
VERTEX
  5
4454
330
4445
100
AcDbEntity
  8
MODEL
100
AcDbVertex
100
AcDb2dVertex
 10
93.02808725916753
 20
399.290198336442
 30
0.0
  0
VERTEX
  5
4455
330
4445
100
AcDbEntity
  8
MODEL
100
AcDbVertex
100
AcDb2dVertex
 10
93.02808725916753
 20
399.3382021009972
 30
0.0
  0
VERTEX
  5
4456
330
4445
100
AcDbEntity
  8
MODEL
100
AcDbVertex
100
AcDb2dVertex
 10
93.02808725916753
 20
399.3862058655527
 30
0.0
  0
SEQEND
  5
4457
330
4445
100
AcDbEntity
  8
MODEL
  0
DIMENSION
  5
447B
102
{ACAD_REACTORS
330
447D
102
}
102
{ACAD_XDICTIONARY
360
447C
102
}
330
A
100
AcDbEntity
  8
DIM
100
AcDbDimension
  2
*D16
 10
352.4458338709822
 20
218.9065072835822
 30
0.0
 11
346.9448960192879
 21
201.9246300747913
 31
0.0
 70
    32
  1
33
 71
     5
 42
33.96375441758187
 73
     0
 74
     0
 75
     0
  3
tfrom線あり
100
AcDbAlignedDimension
 13
311.4479434727789
 23
184.9427528660003
 33
0.0
 14
308.3124248515936
 24
218.9065072835822
 34
0.0
 50
90.0
100
AcDbRotatedDimension
  0
DIMENSION
  5
448A
102
{ACAD_XDICTIONARY
360
448B
102
}
330
A
100
AcDbEntity
  8
DIM
100
AcDbDimension
  2
*D17
 10
235.6821835819758
 20
154.032372105082
 30
0.0
 11
201.7178836670697
 21
159.5333099567764
 31
0.0
 70
    32
  1
65
 71
     5
 42
67.92859982981236
 73
     0
 74
     0
 75
     0
  3
tfrom線あり
100
AcDbAlignedDimension
 13
167.7535837521635
 23
195.4341161340496
 33
0.0
 14
235.6821835819758
 24
195.4038196674494
 34
0.0
100
AcDbRotatedDimension
  0
DIMENSION
  5
449C
102
{ACAD_REACTORS
330
449E
102
}
102
{ACAD_XDICTIONARY
360
449D
102
}
330
A
100
AcDbEntity
  8
DIM
100
AcDbDimension
  2
*D18
 10
91.988369358684
 20
464.5855815296187
 30
0.0
 11
201.7181564157314
 21
470.0865193813131
 31
0.0
 70
    32
  1
210
 71
     5
 42
219.4595741140947
 73
     0
 74
     0
 75
     0
 52
-270.0
  3
tfrom線あり
100
AcDbAlignedDimension
 13
311.4479434727787
 23
421.3730210265666
 33
0.0
 14
91.988369358684
 24
421.3730210265666
 34
0.0
 50
180.0
100
AcDbRotatedDimension
  0
DIMENSION
  5
44AB
102
{ACAD_XDICTIONARY
360
44AC
102
}
330
A
100
AcDbEntity
  8
DIM
100
AcDbDimension
  2
*D19
 10
280.7760312934666
 20
196.438154359372
 30
0.0
 11
280.7760312934666
 21
191.0844916010663
 31
0.0
 70
   160
 71
     5
 42
11.49540149337173
 73
     0
 74
     0
 75
     0
  3
tfrom線あり
100
AcDbAlignedDimension
 13
280.7760312934666
 23
184.9427528660003
 33
0.0
 14
239.8620568309031
 24
196.438154359372
 34
0.0
 50
90.0
100
AcDbRotatedDimension
  0
DIMENSION
  5
44C7
102
{ACAD_REACTORS
330
44C9
102
}
102
{ACAD_XDICTIONARY
360
44C8
102
}
330
A
100
AcDbEntity
  8
DIM
100
AcDbDimension
  2
*D20
 10
352.4458338709822
 20
305.3730149731347
 30
0.0
 11
346.9448960192878
 21
363.3730179998507
 31
0.0
 70
    32
 71
     5
 42
116.0000060534319
 73
     0
 74
     0
 75
     0
  3
tfrom線あり
100
AcDbAlignedDimension
 13
311.4479434727787
 23
421.3730210265666
 33
0.0
 14
310.4027705990498
 24
305.3730149731347
 34
0.0
 50
90.0
100
AcDbRotatedDimension
  0
SPLINE
  5
44E6
330
A
100
AcDbEntity
  8
HIDDEN
100
AcDbSpline
210
0.0
220
0.0
230
1.0
 70
    24
 71
     3
 72
     8
 73
     4
 74
     0
 42
0.000000001
 43
0.0000000001
 40
0.0
 40
0.0
 40
0.0
 40
0.0
 40
0.0002666834720064
 40
0.0002666834720064
 40
0.0002666834720064
 40
0.0002666834720064
 10
235.6821835819758
 20
198.7896569509301
 30
0.0
 10
235.6822724426701
 20
198.7896583969023
 30
0.0
 10
235.6823613033645
 20
198.7896598428746
 30
0.0
 10
235.6824501640588
 20
198.7896612888468
 30
0.0
  0
SPLINE
  5
44E7
330
A
100
AcDbEntity
  8
HIDDEN
 48
0.4
100
AcDbSpline
210
0.0
220
0.0
230
1.0
 70
     8
 71
     3
 72
    67
 73
    63
 74
     0
 42
0.000000001
 43
0.0000000001
 40
3.078442982727192
 40
3.078442982727192
 40
3.078442982727192
 40
3.078442982727192
 40
3.236666748342676
 40
3.593653350386456
 40
4.006166141936614
 40
4.402160422863382
 40
4.614042803445999
 40
4.815854285355718
 40
5.063125416300045
 40
5.290069412836348
 40
5.51932056679178
 40
5.800834731033921
 40
6.05119440879177
 40
6.281865518774575
 40
6.550506847484329
 40
6.830517788305851
 40
7.165506239326622
 40
7.472987233587648
 40
7.882385517682879
 40
8.028607317420423
 40
8.30988090145026
 40
8.571688880784075
 40
8.875230155660315
 40
9.085457957811792
 40
9.468043825513192
 40
10.39977378089155
 40
11.03950324948094
 40
11.81910907958458
 40
12.57225746018214
 40
12.86855577850586
 40
13.07752091415158
 40
13.61514855810984
 40
14.01688294903028
 40
14.55606129136196
 40
14.86373458251746
 40
15.47634255722029
 40
15.95959181941476
 40
16.17297555842667
 40
16.46584894423529
 40
16.70005362245654
 40
16.98985923619976
 40
17.39257597860003
 40
17.69400596010607
 40
17.9952843182527
 40
18.37152238558398
 40
18.69311220200732
 40
18.98283207626323
 40
19.20219577203347
 40
19.58387701006116
 40
19.73155802295043
 40
20.0465198845476
 40
20.21038938200722
 40
20.36567575308454
 40
20.90142047742709
 40
21.45389360561914
 40
21.80484522214503
 40
22.22412370206528
 40
22.60923875028832
 40
22.91049810252733
 40
23.26766125208903
 40
23.54718023870254
 40
23.76121355855604
 40
23.76121355855604
 40
23.76121355855604
 40
23.76121355855604
 10
238.7031932502528
 20
198.4647568297506
 30
0.0
 10
238.7486818986471
 20
198.4379703077906
 30
0.0
 10
238.8938870909612
 20
198.3457671694528
 30
0.0
 10
239.1361193317082
 20
198.151671283136
 30
0.0
 10
239.3969218792464
 20
197.8609886493829
 30
0.0
 10
239.5783039315642
 20
197.5712557649361
 30
0.0
 10
239.6912784948485
 20
197.3257934721032
 30
0.0
 10
239.7653932001793
 20
197.1180227646453
 30
0.0
 10
239.8205471792751
 20
196.899086530507
 30
0.0
 10
239.8546413437857
 20
196.6667254482569
 30
0.0
 10
239.8666343020332
 20
196.4207405621704
 30
0.0
 10
239.851433252501
 20
196.1668516923715
 30
0.0
 10
239.8076254546665
 20
195.9159909671552
 30
0.0
 10
239.7395994397004
 20
195.6751346074846
 30
0.0
 10
239.6426048401328
 20
195.4335132764328
 30
0.0
 10
239.5014250046913
 20
195.1742527140328
 30
0.0
 10
239.3198708457181
 20
194.9247044400302
 30
0.0
 10
239.076309330063
 20
194.6712798117265
 30
0.0
 10
238.8463865542579
 20
194.495493287409
 30
0.0
 10
238.6062894853497
 20
194.3532872165402
 30
0.0
 10
238.3982349128842
 20
194.2543099768043
 30
0.0
 10
238.1305947724092
 20
194.1631541951491
 30
0.0
 10
237.8768854396774
 20
194.1095645138712
 30
0.0
 10
237.5790543376157
 20
194.0806757130451
 30
0.0
 10
237.0703521747129
 20
194.0913640429373
 30
0.0
 10
236.4193037350151
 20
194.0851477982344
 30
0.0
 10
235.6355420863451
 20
194.0868618007638
 30
0.0
 10
234.9114012307701
 20
194.0855764566724
 30
0.0
 10
234.3017130923278
 20
194.0882684294737
 30
0.0
 10
233.8822412045316
 20
194.0841561444422
 30
0.0
 10
233.5346157702004
 20
194.0958028406932
 30
0.0
 10
233.1557247043078
 20
194.1751467361755
 30
0.0
 10
232.7007614378858
 20
194.3692788515152
 30
0.0
 10
232.3549823412651
 20
194.6086143636426
 30
0.0
 10
232.0100056521649
 20
194.9528790413677
 30
0.0
 10
231.7456490518943
 20
195.3461459113021
 30
0.0
 10
231.5922430926803
 20
195.7581047438576
 30
0.0
 10
231.524254009578
 20
196.0812206715557
 30
0.0
 10
231.4997108908551
 20
196.3275260867389
 30
0.0
 10
231.5027021925044
 20
196.6002004665869
 30
0.0
 10
231.5400537879543
 20
196.9075919131496
 30
0.0
 10
231.6286700434731
 20
197.2287101263722
 30
0.0
 10
231.7658061768127
 20
197.5354643655088
 30
0.0
 10
231.9365082868896
 20
197.8145839726019
 30
0.0
 10
232.1501575736931
 20
198.0720051800979
 30
0.0
 10
232.396080159676
 20
198.2922901337946
 30
0.0
 10
232.625082224545
 20
198.4492696707989
 30
0.0
 10
232.8869754091961
 20
198.5898585710315
 30
0.0
 10
233.1214758074364
 20
198.6792162570116
 30
0.0
 10
233.3942191268446
 20
198.748932646883
 30
0.0
 10
233.6014237541825
 20
198.7807241433583
 30
0.0
 10
233.8126840222924
 20
198.7907868265931
 30
0.0
 10
234.0976839889497
 20
198.7885008071997
 30
0.0
 10
234.512161928623
 20
198.7901214997329
 30
0.0
 10
234.9918929061663
 20
198.7895813754172
 30
0.0
 10
235.4327925972744
 20
198.7896769374189
 30
0.0
 10
235.8179080113542
 20
198.789651671681
 30
0.0
 10
236.1864588801176
 20
198.7896579811994
 30
0.0
 10
236.5343047494056
 20
198.7896566497346
 30
0.0
 10
236.8469519068902
 20
198.7896570171425
 30
0.0
 10
237.1305237266818
 20
198.7896569401101
 30
0.0
 10
237.2950411620618
 20
198.7896569476403
 30
0.0
 10
237.5104366892197
 20
198.789656950918
 30
0.0
  0
SPLINE
  5
4507
330
A
100
AcDbEntity
  8
HIDDEN
100
AcDbSpline
210
0.0
220
0.0
230
1.0
 70
    24
 71
     3
 72
     8
 73
     4
 74
     0
 42
0.000000001
 43
0.0000000001
 40
0.0
 40
0.0
 40
0.0
 40
0.0
 40
0.0002666834720064
 40
0.0002666834720064
 40
0.0002666834720064
 40
0.0002666834720064
 10
181.4901792769124
 20
194.6552368943658
 30
0.0
 10
181.4901778309401
 20
194.6553257550601
 30
0.0
 10
181.4901763849678
 20
194.6554146157545
 30
0.0
 10
181.4901749389956
 20
194.6555034764488
 30
0.0
  0
SPLINE
  5
4508
330
A
100
AcDbEntity
  8
HIDDEN
 48
0.4
100
AcDbSpline
210
0.0
220
0.0
230
1.0
 70
     8
 71
     3
 72
    67
 73
    63
 74
     0
 42
0.000000001
 43
0.0000000001
 40
3.078442982727192
 40
3.078442982727192
 40
3.078442982727192
 40
3.078442982727192
 40
3.236666748342676
 40
3.593653350386456
 40
4.006166141936614
 40
4.402160422863382
 40
4.614042803445999
 40
4.815854285355718
 40
5.063125416300045
 40
5.290069412836348
 40
5.51932056679178
 40
5.800834731033921
 40
6.05119440879177
 40
6.281865518774575
 40
6.550506847484329
 40
6.830517788305851
 40
7.165506239326622
 40
7.472987233587648
 40
7.882385517682879
 40
8.028607317420423
 40
8.30988090145026
 40
8.571688880784075
 40
8.875230155660315
 40
9.085457957811792
 40
9.468043825513192
 40
10.39977378089155
 40
11.03950324948094
 40
11.81910907958458
 40
12.57225746018214
 40
12.86855577850586
 40
13.07752091415158
 40
13.61514855810984
 40
14.01688294903028
 40
14.55606129136196
 40
14.86373458251746
 40
15.47634255722029
 40
15.95959181941476
 40
16.17297555842667
 40
16.46584894423529
 40
16.70005362245654
 40
16.98985923619976
 40
17.39257597860003
 40
17.69400596010607
 40
17.9952843182527
 40
18.37152238558398
 40
18.69311220200732
 40
18.98283207626323
 40
19.20219577203347
 40
19.58387701006116
 40
19.73155802295043
 40
20.0465198845476
 40
20.21038938200722
 40
20.36567575308454
 40
20.90142047742709
 40
21.45389360561914
 40
21.80484522214503
 40
22.22412370206528
 40
22.60923875028832
 40
22.91049810252733
 40
23.26766125208903
 40
23.54718023870254
 40
23.76121355855604
 40
23.76121355855604
 40
23.76121355855604
 40
23.76121355855604
 10
165.722214363691
 20
199.4639292485609
 30
0.0
 10
165.7490008856509
 20
199.5094178969551
 30
0.0
 10
165.8412040239887
 20
199.6546230892693
 30
0.0
 10
166.0352999103055
 20
199.8968553300163
 30
0.0
 10
166.3259825440587
 20
200.1576578775544
 30
0.0
 10
166.6157154285054
 20
200.3390399298723
 30
0.0
 10
166.8611777213383
 20
200.4520144931566
 30
0.0
 10
167.0689484287962
 20
200.5261291984874
 30
0.0
 10
167.2878846629346
 20
200.5812831775832
 30
0.0
 10
167.5202457451846
 20
200.6153773420938
 30
0.0
 10
167.7662306312711
 20
200.6273703003413
 30
0.0
 10
168.02011950107
 20
200.6121692508091
 30
0.0
 10
168.2709802262863
 20
200.5683614529746
 30
0.0
 10
168.511836585957
 20
200.5003354380084
 30
0.0
 10
168.7534579170087
 20
200.4033408384408
 30
0.0
 10
169.0127184794088
 20
200.2621610029994
 30
0.0
 10
169.2622667534114
 20
200.0806068440262
 30
0.0
 10
169.515691381715
 20
199.8370453283711
 30
0.0
 10
169.6914779060326
 20
199.607122552566
 30
0.0
 10
169.8336839769013
 20
199.3670254836578
 30
0.0
 10
169.9326612166372
 20
199.1589709111922
 30
0.0
 10
170.0238169982925
 20
198.8913307707173
 30
0.0
 10
170.0774066795703
 20
198.6376214379855
 30
0.0
 10
170.1062954803965
 20
198.3397903359238
 30
0.0
 10
170.0956071505042
 20
197.8310881730209
 30
0.0
 10
170.1018233952071
 20
197.1800397333232
 30
0.0
 10
170.1001093926778
 20
196.3962780846531
 30
0.0
 10
170.1013947367691
 20
195.6721372290782
 30
0.0
 10
170.0987027639678
 20
195.0624490906359
 30
0.0
 10
170.1028150489993
 20
194.6429772028397
 30
0.0
 10
170.0911683527483
 20
194.2953517685085
 30
0.0
 10
170.011824457266
 20
193.9164607026159
 30
0.0
 10
169.8176923419264
 20
193.4614974361939
 30
0.0
 10
169.578356829799
 20
193.1157183395732
 30
0.0
 10
169.2340921520739
 20
192.770741650473
 30
0.0
 10
168.8408252821395
 20
192.5063850502024
 30
0.0
 10
168.428866449584
 20
192.3529790909884
 30
0.0
 10
168.1057505218859
 20
192.2849900078861
 30
0.0
 10
167.8594451067027
 20
192.2604468891631
 30
0.0
 10
167.5867707268547
 20
192.2634381908125
 30
0.0
 10
167.2793792802919
 20
192.3007897862623
 30
0.0
 10
166.9582610670693
 20
192.3894060417811
 30
0.0
 10
166.6515068279327
 20
192.5265421751208
 30
0.0
 10
166.3723872208396
 20
192.6972442851977
 30
0.0
 10
166.1149660133436
 20
192.9108935720012
 30
0.0
 10
165.8946810596469
 20
193.1568161579841
 30
0.0
 10
165.7377015226426
 20
193.3858182228531
 30
0.0
 10
165.5971126224101
 20
193.6477114075041
 30
0.0
 10
165.50775493643
 20
193.8822118057445
 30
0.0
 10
165.4380385465585
 20
194.1549551251527
 30
0.0
 10
165.4062470500832
 20
194.3621597524906
 30
0.0
 10
165.3961843668484
 20
194.5734200206005
 30
0.0
 10
165.3984703862419
 20
194.8584199872577
 30
0.0
 10
165.3968496937086
 20
195.2728979269311
 30
0.0
 10
165.3973898180243
 20
195.7526289044744
 30
0.0
 10
165.3972942560226
 20
196.1935285955824
 30
0.0
 10
165.3973195217606
 20
196.5786440096623
 30
0.0
 10
165.3973132122422
 20
196.9471948784256
 30
0.0
 10
165.3973145437069
 20
197.2950407477137
 30
0.0
 10
165.3973141762991
 20
197.6076879051982
 30
0.0
 10
165.3973142533314
 20
197.8912597249899
 30
0.0
 10
165.3973142458012
 20
198.0557771603698
 30
0.0
 10
165.3973142425235
 20
198.2711726875278
 30
0.0
  0
VIEWPORT
  5
349
330
B
100
AcDbEntity
 67
     1
  8
0
100
AcDbViewport
 10
202.5
 20
128.5
 30
0.0
 40
486.0
 41
308.4
 68
     1
 69
     1
 12
202.5
 22
128.5
 13
0.0
 23
0.0
 14
0.5
 24
0.5
 15
0.0
 25
0.0
 16
0.0
 26
0.0
 36
1.0
 17
0.0
 27
0.0
 37
0.0
 42
50.0
 43
0.0
 44
0.0
 45
308.4
 50
0.0
 51
0.0
 72
   100
 90
   557152
  1

281
     0
 71
     1
 74
     0
110
0.0
120
0.0
130
0.0
111
1.0
121
0.0
131
0.0
112
0.0
122
1.0
132
0.0
 79
     0
146
0.0
170
     0
 61
     5
348
26C
292
     1
282
     1
141
0.0
142
0.0
 63
   256
  0
VIEWPORT
  5
34A
330
B
100
AcDbEntity
 67
     1
  8
0
100
AcDbViewport
 10
202.5
 20
128.5
 30
0.0
 40
324.0
 41
205.6
 68
     2
 69
     2
 12
986.6781359294573
 22
1427.077061889956
 13
0.0
 23
0.0
 14
0.5
 24
0.5
 15
0.0
 25
0.0
 16
0.0
 26
0.0
 36
1.0
 17
0.0
 27
0.0
 37
0.0
 42
50.0
 43
0.0
 44
0.0
 45
2890.021615685494
 50
0.0
 51
0.0
 72
   100
 90
   557152
  1

281
     0
 71
     1
 74
     0
110
0.0
120
0.0
130
0.0
111
1.0
121
0.0
131
0.0
112
0.0
122
1.0
132
0.0
 79
     0
146
0.0
170
     0
 61
     5
348
26C
292
     1
282
     1
141
0.0
142
0.0
 63
   256
  0
ENDSEC
  0
SECTION
  2
OBJECTS
  0
DICTIONARY
  5
19
330
0
100
AcDbDictionary
281
     1
  3
ACAD_COLOR
350
674
  3
ACAD_DETAILVIEWSTYLE
350
BBF
  3
ACAD_FIELDLIST
350
3BE4
  3
ACAD_GROUP
350
1A
  3
ACAD_IMAGE_VARS
350
27B
  3
ACAD_LAYOUT
350
1E
  3
ACAD_MATERIAL
350
263
  3
ACAD_MLEADERSTYLE
350
336
  3
ACAD_MLINESTYLE
350
1B
  3
ACAD_PLOTSETTINGS
350
22
  3
ACAD_PLOTSTYLENAME
350
1F
  3
ACAD_SCALELIST
350
241
  3
ACAD_SECTIONVIEWSTYLE
350
BC0
  3
ACAD_TABLESTYLE
350
278
  3
ACAD_VISUALSTYLE
350
267
  3
ACDB_RECOMPOSE_DATA
350
4510
  3
AcDbVariableDictionary
350
330
  3
APPDATA
350
27A
  3
DimOffsetDictionary
350
E38
  0
SUN
  5
904
330
15
100
AcDbSun
 90
        1
290
     0
 63
     7
421
 16777215
 40
1.0
291
     1
 91
  2455826
 92
 54000000
292
     0
 70
     2
 71
   256
280
     1
  0
DICTIONARY
  5
2E1
330
2
100
AcDbDictionary
280
     1
281
     1
  3
ACAD_LAYERSTATES
360
2E2
  3
ACLYDICTIONARY
360
44E5
  0
DICTIONARY
  5
3D3D
330
A
100
AcDbDictionary
280
     1
281
     1
  3
ACAD_SORTENTS
360
3D3E
  0
DICTIONARY
  5
3CB7
330
3CB5
100
AcDbDictionary
280
     1
281
     1
  3
ACAD_FIELD
360
44BA
  0
DICTIONARY
  5
447C
330
447B
100
AcDbDictionary
280
     1
281
     1
  3
ACAD_DIMASSOC
360
447D
  0
DICTIONARY
  5
448B
330
448A
100
AcDbDictionary
280
     1
281
     1
  0
DICTIONARY
  5
449D
330
449C
100
AcDbDictionary
280
     1
281
     1
  3
ACAD_DIMASSOC
360
449E
  0
DICTIONARY
  5
44AC
330
44AB
100
AcDbDictionary
280
     1
281
     1
  0
DICTIONARY
  5
44C8
330
44C7
100
AcDbDictionary
280
     1
281
     1
  3
ACAD_DIMASSOC
360
44C9
  0
DICTIONARY
  5
674
102
{ACAD_REACTORS
330
19
102
}
330
19
100
AcDbDictionary
281
     1
  0
DICTIONARY
  5
BBF
102
{ACAD_REACTORS
330
19
102
}
330
19
100
AcDbDictionary
281
     1
  0
FIELDLIST
  5
3BE4
102
{ACAD_REACTORS
330
19
102
}
330
19
100
AcDbIdSet
 90
        2
330
3CB9
330
3CB6
100
AcDbFieldList
  0
DICTIONARY
  5
1A
102
{ACAD_REACTORS
330
19
102
}
330
19
100
AcDbDictionary
281
     1
  3
*A1
350
3C75
  0
RASTERVARIABLES
  5
27B
102
{ACAD_REACTORS
330
19
102
}
330
19
100
AcDbRasterVariables
 90
        0
 70
     1
 71
     1
 72
     1
  0
DICTIONARY
  5
1E
102
{ACAD_REACTORS
330
19
102
}
330
19
100
AcDbDictionary
281
     1
  3
Layout1
350
21
  3
Model
350
20
  0
DICTIONARY
  5
263
102
{ACAD_REACTORS
330
19
102
}
330
19
100
AcDbDictionary
281
     1
  3
ByBlock
350
265
  3
ByLayer
350
264
  3
Global
350
266
  0
DICTIONARY
  5
336
102
{ACAD_REACTORS
330
19
102
}
330
19
100
AcDbDictionary
281
     1
  3
Standard
350
D59
  0
DICTIONARY
  5
1B
102
{ACAD_REACTORS
330
19
102
}
330
19
100
AcDbDictionary
281
     1
  3
Standard
350
1C
  0
DICTIONARY
  5
22
102
{ACAD_REACTORS
330
19
102
}
330
19
100
AcDbDictionary
281
     1
  0
ACDBDICTIONARYWDFLT
  5
1F
102
{ACAD_REACTORS
330
19
102
}
330
19
100
AcDbDictionary
281
     1
  3
Normal
350
1D
100
AcDbDictionaryWithDefault
340
1D
  0
DICTIONARY
  5
241
102
{ACAD_REACTORS
330
19
102
}
330
19
100
AcDbDictionary
281
     1
  3
A0
350
242
  3
A1
350
243
  3
A2
350
244
  3
A3
350
245
  3
A4
350
246
  3
A5
350
247
  3
A6
350
248
  3
A7
350
249
  3
A8
350
24A
  3
A9
350
24B
  3
B0
350
24C
  3
B1
350
24D
  3
B2
350
24E
  3
B3
350
24F
  3
B4
350
250
  3
B5
350
251
  3
B6
350
252
  3
B7
350
253
  3
B8
350
254
  3
B9
350
255
  3
C0
350
256
  3
C1
350
257
  3
C2
350
258
  3
C3
350
259
  3
C4
350
25A
  3
C5
350
25B
  3
C6
350
25C
  3
C7
350
25D
  3
C8
350
25E
  3
C9
350
25F
  3
D0
350
260
  3
D1
350
261
  3
D2
350
262
  0
DICTIONARY
  5
BC0
102
{ACAD_REACTORS
330
19
102
}
330
19
100
AcDbDictionary
281
     1
  0
DICTIONARY
  5
278
102
{ACAD_REACTORS
330
19
102
}
330
19
100
AcDbDictionary
281
     1
  3
Standard
350
279
  0
DICTIONARY
  5
267
102
{ACAD_REACTORS
330
19
102
}
330
19
100
AcDbDictionary
281
     1
  3
2dWireframe
350
26C
  3
3D Hidden
350
26E
  3
3dWireframe
350
26D
  3
Basic
350
26F
  3
Brighten
350
273
  3
ColorChange
350
277
  3
Conceptual
350
271
  3
Dim
350
272
  3
EdgeColorOff
350
8FE
  3
Facepattern
350
276
  3
Flat
350
268
  3
FlatWithEdges
350
269
  3
Gouraud
350
26A
  3
GouraudWithEdges
350
26B
  3
Hidden
350
8FB
  3
JitterOff
350
8FC
  3
Linepattern
350
275
  3
OverhangOff
350
8FD
  3
Realistic
350
270
  3
Shaded
350
903
  3
Shaded with edges
350
902
  3
Shades of Gray
350
8FF
  3
Sketchy
350
900
  3
Thicken
350
274
  3
Wireframe
350
8FA
  3
X-Ray
350
901
  0
XRECORD
  5
4510
102
{ACAD_REACTORS
330
19
102
}
330
19
100
AcDbXrecord
280
     1
 90
        1
330
279
  0
DICTIONARY
  5
330
102
{ACAD_REACTORS
330
19
102
}
330
19
100
AcDbDictionary
281
     1
  3
CANNOSCALE
350
331
  3
CMLEADERSTYLE
350
D5E
  3
CTABLESTYLE
350
335
  3
HPTRANSPARENCY
350
D52
  3
XCLIPFRAME
350
896
  0
DICTIONARY
  5
27A
102
{ACAD_REACTORS
330
19
102
}
330
19
100
AcDbDictionary
281
     1
  0
DICTIONARY
  5
E38
102
{ACAD_REACTORS
330
19
102
}
330
19
100
AcDbDictionary
281
     1
  3
DIMRAILANGLE
350
246C
  3
DIMRAILFIRSTOFFSET
350
246A
  3
DIMRAILOFFSET
350
246B
  3
DIMRAILSENABLED
350
246D
  0
DICTIONARY
  5
2E2
102
{ACAD_REACTORS
330
2E1
102
}
330
2E1
100
AcDbDictionary
281
     1
  0
DICTIONARY
  5
44E5
102
{ACAD_REACTORS
330
2E1
102
}
330
2E1
100
AcDbDictionary
281
     1
1001
ACAD
1000
<All
  0
SORTENTSTABLE
  5
3D3E
102
{ACAD_REACTORS
330
3D3D
102
}
330
3D3D
100
AcDbSortentsTable
330
A
331
0
  5
3D23
331
0
  5
3D22
331
3C64
  5
3C1F
331
3C65
  5
3C63
331
3C70
  5
3C64
331
3C71
  5
3C65
331
3C72
  5
3C70
331
3C73
  5
3C71
331
3C74
  5
3C72
331
0
  5
3C73
331
3C9A
  5
3C74
331
3CB5
  5
3C92
331
0
  5
3CB5
331
0
  5
3D18
331
0
  5
3D19
331
0
  5
3D1A
331
0
  5
3D1B
331
0
  5
3D1E
331
0
  5
3D21
  0
DICTIONARY
  5
44BA
102
{ACAD_REACTORS
330
3CB7
102
}
330
3CB7
100
AcDbDictionary
280
     1
281
     1
  3
TEXT
360
3CB6
  0
DIMASSOC
  5
447D
102
{ACAD_REACTORS
330
447C
102
}
330
447C
100
AcDbDimAssoc
330
447B
 90
        3
 70
     0
 71
     1
  1
AcDbOsnapPointRef
 72
    13
331
429A
 73
     0
 91
        0
 40
0.0
 10
0.0
 20
0.0
 30
0.0
 75
     0
  1
AcDbOsnapPointRef
 72
     1
331
43F9
 73
     0
 91
        0
 40
0.0
 10
0.0
 20
0.0
 30
0.0
 75
     0
  0
DIMASSOC
  5
449E
102
{ACAD_REACTORS
330
449D
102
}
330
449D
100
AcDbDimAssoc
330
449C
 90
        3
 70
     0
 71
     1
  1
AcDbOsnapPointRef
 72
    13
331
429B
 73
     0
 91
        0
 40
0.0
 10
0.0
 20
0.0
 30
0.0
 75
     0
  1
AcDbOsnapPointRef
 72
    13
331
42A3
 73
     0
 91
        0
 40
0.0
 10
0.0
 20
0.0
 30
0.0
 75
     0
  0
DIMASSOC
  5
44C9
102
{ACAD_REACTORS
330
44C8
102
}
330
44C8
100
AcDbDimAssoc
330
44C7
 90
        3
 70
     0
 71
     1
  1
AcDbOsnapPointRef
 72
    13
331
429B
 73
     0
 91
        0
 40
0.0
 10
0.0
 20
0.0
 30
0.0
 75
     0
  1
AcDbOsnapPointRef
 72
    13
331
4406
 73
     0
 91
        0
 40
0.0
 10
0.0
 20
0.0
 30
0.0
 75
     0
  0
GROUP
  5
3C75
102
{ACAD_REACTORS
330
1A
102
}
330
1A
100
AcDbGroup
300

 70
     1
 71
     1
340
3C64
340
3C65
340
3C70
340
3C71
340
3C72
340
3C73
340
3C74
  0
LAYOUT
  5
21
102
{ACAD_REACTORS
330
1E
102
}
330
1E
100
AcDbPlotSettings
  1

  2
none_device
  4
ISO_A3_(420.00_x_297.00_MM)
  6

 40
7.5
 41
20.0
 42
7.5
 43
20.0
 44
420.0
 45
297.0
 46
0.0
 47
0.0
 48
0.0
 49
0.0
140
0.0
141
0.0
142
1.0
143
1.0
 70
     0
 72
     1
 73
     0
 74
     0
  7

 75
     0
 76
     0
 77
     2
 78
   300
147
1.0
148
0.0
149
0.0
100
AcDbLayout
  1
Layout1
 70
     0
 71
     0
 10
-7.5
 20
-20.0
 11
412.5
 21
277.0
 12
0.0
 22
0.0
 32
0.0
 14
0.0
 24
0.0
 34
0.0
 15
0.0
 25
0.0
 35
0.0
146
0.0
 13
0.0
 23
0.0
 33
0.0
 16
0.0
 26
0.0
 36
0.0
 17
0.0
 27
0.0
 37
0.0
 76
     0
330
B
331
349
  0
LAYOUT
  5
20
102
{ACAD_REACTORS
330
1E
102
}
330
1E
100
AcDbPlotSettings
  1

  2
none_device
  4
ISO_A3_(420.00_x_297.00_MM)
  6

 40
7.5
 41
20.0
 42
7.5
 43
20.0
 44
420.0
 45
297.0
 46
0.0
 47
0.0
 48
0.0
 49
0.0
140
0.0
141
0.0
142
1.0
143
1.0
 70
  1024
 72
     1
 73
     0
 74
     0
  7

 75
     0
 76
     0
 77
     2
 78
   300
147
1.0
148
0.0
149
0.0
100
AcDbLayout
  1
Model
 70
     0
 71
     1
 10
0.0
 20
0.0
 11
420.0
 21
594.0
 12
0.0
 22
0.0
 32
0.0
 14
0.0
 24
0.0
 34
-0.0000000000000071
 15
420.0
 25
594.0
 35
0.0000000000000071
146
0.0
 13
0.0
 23
0.0
 33
0.0
 16
0.0
 26
0.0
 36
0.0
 17
0.0
 27
0.0
 37
0.0
 76
     0
330
A
331
15
  0
MATERIAL
  5
265
102
{ACAD_REACTORS
330
263
102
}
330
263
100
AcDbMaterial
  1
ByBlock
 72
     1
 94
      127
  0
MATERIAL
  5
264
102
{ACAD_REACTORS
330
263
102
}
330
263
100
AcDbMaterial
  1
ByLayer
 72
     1
 94
      127
  0
MATERIAL
  5
266
102
{ACAD_REACTORS
330
263
102
}
330
263
100
AcDbMaterial
  1
Global
 72
     1
 94
      127
  0
MLEADERSTYLE
  5
D59
102
{ACAD_REACTORS
330
336
102
}
330
336
100
AcDbMLeaderStyle
170
     2
171
     1
172
     0
 90
        2
 40
0.0
 41
0.0
173
     1
 91
-1056964608
340
11
 92
       -2
290
     1
 42
2.0
291
     1
 43
8.0
  3
Standard
341
0
 44
4.0
300

342
17
174
     1
178
     6
175
     1
176
     0
 93
-1056964608
 45
4.0
292
     0
297
     0
 46
4.0
343
0
 94
-1056964608
 47
1.0
 49
1.0
140
1.0
293
     1
141
0.0
294
     1
177
     0
142
1.0
295
     0
296
     0
143
3.75
1001
ACAD_MLEADERVER
1070
     2
  0
MLINESTYLE
  5
1C
102
{ACAD_REACTORS
330
1B
102
}
330
1B
100
AcDbMlineStyle
  2
Standard
 70
     0
  3

 62
     0
 51
90.0
 52
90.0
 71
     2
 49
0.5
 62
   256
  6
BYLAYER
 49
-0.5
 62
   256
  6
BYLAYER
  0
ACDBPLACEHOLDER
  5
1D
102
{ACAD_REACTORS
330
1F
102
}
330
1F
  0
SCALE
  5
242
102
{ACAD_REACTORS
330
241
102
}
330
241
100
AcDbScale
 70
     0
300
1:1
140
1.0
141
1.0
290
     1
  0
SCALE
  5
243
102
{ACAD_REACTORS
330
241
102
}
330
241
100
AcDbScale
 70
     0
300
1:2
140
1.0
141
2.0
290
     0
  0
SCALE
  5
244
102
{ACAD_REACTORS
330
241
102
}
330
241
100
AcDbScale
 70
     0
300
1:4
140
1.0
141
4.0
290
     0
  0
SCALE
  5
245
102
{ACAD_REACTORS
330
241
102
}
330
241
100
AcDbScale
 70
     0
300
1:5
140
1.0
141
5.0
290
     0
  0
SCALE
  5
246
102
{ACAD_REACTORS
330
241
102
}
330
241
100
AcDbScale
 70
     0
300
1:8
140
1.0
141
8.0
290
     0
  0
SCALE
  5
247
102
{ACAD_REACTORS
330
241
102
}
330
241
100
AcDbScale
 70
     0
300
1:10
140
1.0
141
10.0
290
     0
  0
SCALE
  5
248
102
{ACAD_REACTORS
330
241
102
}
330
241
100
AcDbScale
 70
     0
300
1:16
140
1.0
141
16.0
290
     0
  0
SCALE
  5
249
102
{ACAD_REACTORS
330
241
102
}
330
241
100
AcDbScale
 70
     0
300
1:20
140
1.0
141
20.0
290
     0
  0
SCALE
  5
24A
102
{ACAD_REACTORS
330
241
102
}
330
241
100
AcDbScale
 70
     0
300
1:30
140
1.0
141
30.0
290
     0
  0
SCALE
  5
24B
102
{ACAD_REACTORS
330
241
102
}
330
241
100
AcDbScale
 70
     0
300
1:40
140
1.0
141
40.0
290
     0
  0
SCALE
  5
24C
102
{ACAD_REACTORS
330
241
102
}
330
241
100
AcDbScale
 70
     0
300
1:50
140
1.0
141
50.0
290
     0
  0
SCALE
  5
24D
102
{ACAD_REACTORS
330
241
102
}
330
241
100
AcDbScale
 70
     0
300
1:100
140
1.0
141
100.0
290
     0
  0
SCALE
  5
24E
102
{ACAD_REACTORS
330
241
102
}
330
241
100
AcDbScale
 70
     0
300
2:1
140
2.0
141
1.0
290
     0
  0
SCALE
  5
24F
102
{ACAD_REACTORS
330
241
102
}
330
241
100
AcDbScale
 70
     0
300
4:1
140
4.0
141
1.0
290
     0
  0
SCALE
  5
250
102
{ACAD_REACTORS
330
241
102
}
330
241
100
AcDbScale
 70
     0
300
8:1
140
8.0
141
1.0
290
     0
  0
SCALE
  5
251
102
{ACAD_REACTORS
330
241
102
}
330
241
100
AcDbScale
 70
     0
300
10:1
140
10.0
141
1.0
290
     0
  0
SCALE
  5
252
102
{ACAD_REACTORS
330
241
102
}
330
241
100
AcDbScale
 70
     0
300
100:1
140
100.0
141
1.0
290
     0
  0
SCALE
  5
253
102
{ACAD_REACTORS
330
241
102
}
330
241
100
AcDbScale
 70
     0
300
1/128" = 1'-0"
140
0.0078125
141
12.0
290
     0
  0
SCALE
  5
254
102
{ACAD_REACTORS
330
241
102
}
330
241
100
AcDbScale
 70
     0
300
1/64" = 1'-0"
140
0.015625
141
12.0
290
     0
  0
SCALE
  5
255
102
{ACAD_REACTORS
330
241
102
}
330
241
100
AcDbScale
 70
     0
300
1/32" = 1'-0"
140
0.03125
141
12.0
290
     0
  0
SCALE
  5
256
102
{ACAD_REACTORS
330
241
102
}
330
241
100
AcDbScale
 70
     0
300
1/16" = 1'-0"
140
0.0625
141
12.0
290
     0
  0
SCALE
  5
257
102
{ACAD_REACTORS
330
241
102
}
330
241
100
AcDbScale
 70
     0
300
3/32" = 1'-0"
140
0.09375
141
12.0
290
     0
  0
SCALE
  5
258
102
{ACAD_REACTORS
330
241
102
}
330
241
100
AcDbScale
 70
     0
300
1/8" = 1'-0"
140
0.125
141
12.0
290
     0
  0
SCALE
  5
259
102
{ACAD_REACTORS
330
241
102
}
330
241
100
AcDbScale
 70
     0
300
3/16" = 1'-0"
140
0.1875
141
12.0
290
     0
  0
SCALE
  5
25A
102
{ACAD_REACTORS
330
241
102
}
330
241
100
AcDbScale
 70
     0
300
1/4" = 1'-0"
140
0.25
141
12.0
290
     0
  0
SCALE
  5
25B
102
{ACAD_REACTORS
330
241
102
}
330
241
100
AcDbScale
 70
     0
300
3/8" = 1'-0"
140
0.375
141
12.0
290
     0
  0
SCALE
  5
25C
102
{ACAD_REACTORS
330
241
102
}
330
241
100
AcDbScale
 70
     0
300
1/2" = 1'-0"
140
0.5
141
12.0
290
     0
  0
SCALE
  5
25D
102
{ACAD_REACTORS
330
241
102
}
330
241
100
AcDbScale
 70
     0
300
3/4" = 1'-0"
140
0.75
141
12.0
290
     0
  0
SCALE
  5
25E
102
{ACAD_REACTORS
330
241
102
}
330
241
100
AcDbScale
 70
     0
300
1" = 1'-0"
140
1.0
141
12.0
290
     0
  0
SCALE
  5
25F
102
{ACAD_REACTORS
330
241
102
}
330
241
100
AcDbScale
 70
     0
300
1-1/2" = 1'-0"
140
1.5
141
12.0
290
     0
  0
SCALE
  5
260
102
{ACAD_REACTORS
330
241
102
}
330
241
100
AcDbScale
 70
     0
300
3" = 1'-0"
140
3.0
141
12.0
290
     0
  0
SCALE
  5
261
102
{ACAD_REACTORS
330
241
102
}
330
241
100
AcDbScale
 70
     0
300
6" = 1'-0"
140
6.0
141
12.0
290
     0
  0
SCALE
  5
262
102
{ACAD_REACTORS
330
241
102
}
330
241
100
AcDbScale
 70
     0
300
1'-0" = 1'-0"
140
12.0
141
12.0
290
     0
  0
TABLESTYLE
  5
279
102
{ACAD_REACTORS
330
278
102
}
102
{ACAD_XDICTIONARY
360
450E
102
}
330
278
100
AcDbTableStyle
  3
Standard
 70
     0
 71
     0
 40
0.06
 41
0.06
280
     0
281
     0
  7
Standard
140
4.5
170
     2
 62
     0
 63
   257
283
     0
 90
        4
 91
        0
  1

274
    -2
284
     1
 64
     0
275
    -2
285
     1
 65
     0
276
    -2
286
     1
 66
     0
277
    -2
287
     1
 67
     0
278
    -2
288
     1
 68
     0
279
    -2
289
     1
 69
     0
  7
Standard
140
6.0
170
     5
 62
     0
 63
   257
283
     0
 90
        4
 91
        0
  1

274
    -2
284
     1
 64
     0
275
    -2
285
     1
 65
     0
276
    -2
286
     1
 66
     0
277
    -2
287
     1
 67
     0
278
    -2
288
     1
 68
     0
279
    -2
289
     1
 69
     0
  7
Standard
140
4.5
170
     5
 62
     0
 63
   257
283
     0
 90
        4
 91
        0
  1

274
    -2
284
     1
 64
     0
275
    -2
285
     1
 65
     0
276
    -2
286
     1
 66
     0
277
    -2
287
     1
 67
     0
278
    -2
288
     1
 68
     0
279
    -2
289
     1
 69
     0
  0
VISUALSTYLE
  5
26C
102
{ACAD_REACTORS
330
267
102
}
330
267
100
AcDbVisualStyle
  2
2dWireframe
 70
     4
 71
     0
 72
     2
 73
     0
 90
        0
 40
-0.6
 41
-30.0
 62
     5
 63
     7
421
 16777215
 74
     1
 91
        4
 64
     7
 65
   257
 75
     1
175
     1
 42
1.0
 92
        0
 66
   257
 43
1.0
 76
     1
 77
     6
 78
     2
 67
     7
 79
     5
170
     0
171
     0
290
     0
174
     0
 93
        1
 44
0.0
173
     0
291
     0
 45
0.0
  0
VISUALSTYLE
  5
26E
102
{ACAD_REACTORS
330
267
102
}
330
267
100
AcDbVisualStyle
  2
3D Hidden
 70
     6
 71
     1
 72
     2
 73
     2
 90
        0
 40
-0.6
 41
-30.0
 62
     5
 63
     7
421
 16777215
 74
     2
 91
        2
 64
     7
 65
   257
 75
     2
175
     1
 42
40.0
 92
        0
 66
   257
 43
1.0
 76
     1
 77
     6
 78
     2
 67
     7
 79
     3
170
     0
171
     0
290
     0
174
     0
 93
        1
 44
0.0
173
     0
291
     0
 45
0.0
  0
VISUALSTYLE
  5
26D
102
{ACAD_REACTORS
330
267
102
}
330
267
100
AcDbVisualStyle
  2
3dWireframe
 70
     5
 71
     0
 72
     2
 73
     0
 90
        0
 40
-0.6
 41
-30.0
 62
     5
 63
     7
421
 16777215
 74
     1
 91
        4
 64
     7
 65
   257
 75
     1
175
     1
 42
1.0
 92
        0
 66
   257
 43
1.0
 76
     1
 77
     6
 78
     2
 67
     7
 79
     5
170
     0
171
     0
290
     0
174
     0
 93
        1
 44
0.0
173
     0
291
     0
 45
0.0
  0
VISUALSTYLE
  5
26F
102
{ACAD_REACTORS
330
267
102
}
330
267
100
AcDbVisualStyle
  2
Basic
 70
     7
 71
     1
 72
     0
 73
     1
 90
        0
 40
-0.6
 41
-30.0
 62
     5
 63
     7
421
 16777215
 74
     0
 91
        4
 64
     7
 65
   257
 75
     1
175
     1
 42
1.0
 92
        8
 66
     7
 43
1.0
 76
     1
 77
     6
 78
     2
 67
     7
 79
     5
170
     0
171
     0
290
     0
174
     0
 93
        1
 44
0.0
173
     0
291
     1
 45
0.0
  0
VISUALSTYLE
  5
273
102
{ACAD_REACTORS
330
267
102
}
330
267
100
AcDbVisualStyle
  2
Brighten
 70
    12
 71
     2
 72
     2
 73
     0
 90
        0
 40
-0.6
 41
-30.0
 62
     5
 63
     7
421
 16777215
 74
     1
 91
        4
 64
     7
 65
   257
 75
     1
175
     1
 42
1.0
 92
        8
 66
     7
 43
1.0
 76
     1
 77
     6
 78
     2
 67
     7
 79
     5
170
     0
171
     0
290
     0
174
     0
 93
        1
 44
50.0
173
     0
291
     1
 45
0.0
  0
VISUALSTYLE
  5
277
102
{ACAD_REACTORS
330
267
102
}
330
267
100
AcDbVisualStyle
  2
ColorChange
 70
    16
 71
     2
 72
     2
 73
     3
 90
        0
 40
-0.6
 41
-30.0
 62
     5
 63
     8
421
  8421504
 74
     1
 91
        4
 64
     7
 65
   257
 75
     1
175
     1
 42
1.0
 92
        8
 66
     8
424
  8421504
 43
1.0
 76
     1
 77
     6
 78
     2
 67
     7
 79
     5
170
     0
171
     0
290
     0
174
     0
 93
        1
 44
0.0
173
     0
291
     1
 45
0.0
  0
VISUALSTYLE
  5
271
102
{ACAD_REACTORS
330
267
102
}
330
267
100
AcDbVisualStyle
  2
Conceptual
 70
     9
 71
     3
 72
     2
 73
     0
 90
        0
 40
-0.6
 41
-30.0
 62
     5
 63
     7
421
 16777215
 74
     2
 91
        2
 64
     7
 65
   257
 75
     1
175
     1
 42
40.0
 92
        8
 66
     7
 43
1.0
 76
     1
 77
     6
 78
     2
 67
     7
 79
     3
170
     0
171
     0
290
     0
174
     0
 93
        1
 44
0.0
173
     0
291
     0
 45
0.0
  0
VISUALSTYLE
  5
272
102
{ACAD_REACTORS
330
267
102
}
330
267
100
AcDbVisualStyle
  2
Dim
 70
    11
 71
     2
 72
     2
 73
     0
 90
        0
 40
-0.6
 41
-30.0
 62
     5
 63
     7
421
 16777215
 74
     1
 91
        4
 64
     7
 65
   257
 75
     1
175
     1
 42
1.0
 92
        8
 66
     7
 43
1.0
 76
     1
 77
     6
 78
     2
 67
     7
 79
     5
170
     0
171
     0
290
     0
174
     0
 93
        1
 44
-50.0
173
     0
291
     1
 45
0.0
  0
VISUALSTYLE
  5
8FE
102
{ACAD_REACTORS
330
267
102
}
330
267
100
AcDbVisualStyle
  2
EdgeColorOff
 70
    22
 71
     2
 72
     2
 73
     0
 90
        0
 40
0.6
 41
30.0
 62
     5
 63
     7
421
 16777215
 74
     1
 91
        4
 64
     7
 65
   257
 75
     1
175
     1
 42
1.0
 92
        8
 66
     7
 43
1.0
 76
     1
 77
     6
 78
     2
 67
     7
 79
     5
170
     0
171
     0
290
     0
174
     0
 93
        1
 44
0.0
173
     0
291
     1
 45
0.0
  0
VISUALSTYLE
  5
276
102
{ACAD_REACTORS
330
267
102
}
330
267
100
AcDbVisualStyle
  2
Facepattern
 70
    15
 71
     2
 72
     2
 73
     0
 90
        0
 40
-0.6
 41
-30.0
 62
     5
 63
     7
421
 16777215
 74
     1
 91
        4
 64
     7
 65
   257
 75
     1
175
     1
 42
1.0
 92
        8
 66
     7
 43
1.0
 76
     1
 77
     6
 78
     2
 67
     7
 79
     5
170
     0
171
     0
290
     0
174
     0
 93
        1
 44
0.0
173
     0
291
     1
 45
0.0
  0
VISUALSTYLE
  5
268
102
{ACAD_REACTORS
330
267
102
}
330
267
100
AcDbVisualStyle
  2
Flat
 70
     0
 71
     2
 72
     1
 73
     1
 90
        2
 40
-0.6
 41
30.0
 62
     5
 63
     7
421
 16777215
 74
     0
 91
        4
 64
     7
 65
   257
 75
     1
175
     1
 42
1.0
 92
        8
 66
     7
 43
1.0
 76
     1
 77
     6
 78
     2
 67
     7
 79
     5
170
     0
171
     0
290
     0
174
     0
 93
       13
 44
0.0
173
     0
291
     1
 45
0.0
  0
VISUALSTYLE
  5
269
102
{ACAD_REACTORS
330
267
102
}
330
267
100
AcDbVisualStyle
  2
FlatWithEdges
 70
     1
 71
     2
 72
     1
 73
     1
 90
        2
 40
-0.6
 41
30.0
 62
     5
 63
     7
421
 16777215
 74
     1
 91
        4
 64
     7
 65
   257
 75
     1
175
     1
 42
1.0
 92
        0
 66
   257
 43
1.0
 76
     1
 77
     6
 78
     2
 67
     7
 79
     5
170
     0
171
     0
290
     0
174
     0
 93
       13
 44
0.0
173
     0
291
     1
 45
0.0
  0
VISUALSTYLE
  5
26A
102
{ACAD_REACTORS
330
267
102
}
330
267
100
AcDbVisualStyle
  2
Gouraud
 70
     2
 71
     2
 72
     2
 73
     1
 90
        2
 40
-0.6
 41
30.0
 62
     5
 63
     7
421
 16777215
 74
     0
 91
        4
 64
     7
 65
   257
 75
     1
175
     1
 42
1.0
 92
        0
 66
     7
 43
1.0
 76
     1
 77
     6
 78
     2
 67
     7
 79
     5
170
     0
171
     0
290
     0
174
     0
 93
       13
 44
0.0
173
     0
291
     1
 45
0.0
  0
VISUALSTYLE
  5
26B
102
{ACAD_REACTORS
330
267
102
}
330
267
100
AcDbVisualStyle
  2
GouraudWithEdges
 70
     3
 71
     2
 72
     2
 73
     1
 90
        2
 40
-0.6
 41
30.0
 62
     5
 63
     7
421
 16777215
 74
     1
 91
        4
 64
     7
 65
   257
 75
     1
175
     1
 42
1.0
 92
        0
 66
   257
 43
1.0
 76
     1
 77
     6
 78
     2
 67
     7
 79
     5
170
     0
171
     0
290
     0
174
     0
 93
       13
 44
0.0
173
     0
291
     1
 45
0.0
  0
VISUALSTYLE
  5
8FB
102
{ACAD_REACTORS
330
267
102
}
330
267
100
AcDbVisualStyle
  2
Hidden
 70
     6
 71
     1
 72
     2
 73
     2
 90
        0
 40
0.6
 41
30.0
 62
     5
 63
     7
421
 16777215
 74
     2
 91
        2
 64
     7
 65
   257
 75
     2
175
     1
 42
40.0
 92
        0
 66
   257
 43
1.0
 76
     1
 77
     6
 78
     2
 67
     7
 79
     3
170
     0
171
     0
290
     0
174
     0
 93
        1
 44
0.0
173
     0
291
     0
 45
0.0
  0
VISUALSTYLE
  5
8FC
102
{ACAD_REACTORS
330
267
102
}
330
267
100
AcDbVisualStyle
  2
JitterOff
 70
    20
 71
     2
 72
     2
 73
     0
 90
        0
 40
0.6
 41
30.0
 62
     5
 63
     7
421
 16777215
 74
     1
 91
        4
 64
     7
 65
   257
 75
     1
175
     1
 42
1.0
 92
       10
 66
     7
 43
1.0
 76
     1
 77
     6
 78
     2
 67
     7
 79
     5
170
     0
171
     0
290
     0
174
     0
 93
        1
 44
0.0
173
     0
291
     1
 45
0.0
  0
VISUALSTYLE
  5
275
102
{ACAD_REACTORS
330
267
102
}
330
267
100
AcDbVisualStyle
  2
Linepattern
 70
    14
 71
     2
 72
     2
 73
     0
 90
        0
 40
-0.6
 41
-30.0
 62
     5
 63
     7
421
 16777215
 74
     1
 91
        4
 64
     7
 65
   257
 75
     7
175
     7
 42
1.0
 92
        8
 66
     7
 43
1.0
 76
     1
 77
     6
 78
     2
 67
     7
 79
     5
170
     0
171
     0
290
     0
174
     0
 93
        1
 44
0.0
173
     0
291
     1
 45
0.0
  0
VISUALSTYLE
  5
8FD
102
{ACAD_REACTORS
330
267
102
}
330
267
100
AcDbVisualStyle
  2
OverhangOff
 70
    21
 71
     2
 72
     2
 73
     0
 90
        0
 40
0.6
 41
30.0
 62
     5
 63
     7
421
 16777215
 74
     1
 91
        4
 64
     7
 65
   257
 75
     1
175
     1
 42
1.0
 92
        9
 66
     7
 43
1.0
 76
     1
 77
     6
 78
     2
 67
     7
 79
     5
170
     0
171
     0
290
     0
174
     0
 93
        1
 44
0.0
173
     0
291
     1
 45
0.0
  0
VISUALSTYLE
  5
270
102
{ACAD_REACTORS
330
267
102
}
330
267
100
AcDbVisualStyle
  2
Realistic
 70
     8
 71
     2
 72
     2
 73
     0
 90
        0
 40
-0.6
 41
-30.0
 62
     5
 63
     7
421
 16777215
 74
     1
 91
        0
 64
     7
 65
   257
 75
     1
175
     1
 42
1.0
 92
        8
 66
     8
424
  7895160
 43
1.0
 76
     1
 77
     6
 78
     2
 67
     7
 79
     5
170
     0
171
     0
290
     0
174
     0
 93
       13
 44
0.0
173
     0
291
     0
 45
0.0
  0
VISUALSTYLE
  5
903
102
{ACAD_REACTORS
330
267
102
}
330
267
100
AcDbVisualStyle
  2
Shaded
 70
    27
 71
     2
 72
     2
 73
     1
 90
        2
 40
0.6
 41
30.0
 62
     5
 63
     7
421
 16777215
 74
     0
 91
        4
 64
     7
 65
   257
 75
     1
175
     1
 42
1.0
 92
        8
 66
   257
 43
1.0
 76
     1
 77
     6
 78
     2
 67
     8
425
  7895160
 79
     3
170
     0
171
     0
290
     0
174
     0
 93
        5
 44
0.0
173
     0
291
     0
 45
0.0
  0
VISUALSTYLE
  5
902
102
{ACAD_REACTORS
330
267
102
}
330
267
100
AcDbVisualStyle
  2
Shaded with edges
 70
    26
 71
     2
 72
     2
 73
     1
 90
        2
 40
0.6
 41
30.0
 62
     5
 63
     7
421
 16777215
 74
     1
 91
       10
 64
     7
 65
   257
 75
     2
175
     1
 42
1.0
 92
        8
 66
   257
 43
1.0
 76
     1
 77
     6
 78
     2
 67
     7
 79
     3
170
     0
171
     0
290
     0
174
     0
 93
        5
 44
0.0
173
     0
291
     0
 45
0.0
  0
VISUALSTYLE
  5
8FF
102
{ACAD_REACTORS
330
267
102
}
330
267
100
AcDbVisualStyle
  2
Shades of Gray
 70
    23
 71
     2
 72
     2
 73
     3
 90
        0
 40
0.6
 41
30.0
 62
     5
 63
     7
421
 16777215
 74
     2
 91
        2
 64
     7
 65
     7
 75
     1
175
     1
 42
40.0
 92
        8
 66
     7
 43
1.0
 76
     1
 77
     6
 78
     2
 67
     7
 79
     3
170
     0
171
     0
290
     0
174
     0
 93
        1
 44
0.0
173
     0
291
     0
 45
0.0
  0
VISUALSTYLE
  5
900
102
{ACAD_REACTORS
330
267
102
}
330
267
100
AcDbVisualStyle
  2
Sketchy
 70
    24
 71
     1
 72
     2
 73
     2
 90
        0
 40
0.6
 41
30.0
 62
     5
 63
     7
421
 16777215
 74
     2
 91
        2
 64
     7
 65
     7
 75
     1
175
     1
 42
40.0
 92
       11
 66
     7
 43
1.0
 76
     1
 77
     6
 78
     2
 67
     7
 79
     6
170
     0
171
     0
290
     0
174
     0
 93
        1
 44
0.0
173
     0
291
     0
 45
0.0
  0
VISUALSTYLE
  5
274
102
{ACAD_REACTORS
330
267
102
}
330
267
100
AcDbVisualStyle
  2
Thicken
 70
    13
 71
     2
 72
     2
 73
     0
 90
        0
 40
-0.6
 41
-30.0
 62
     5
 63
     7
421
 16777215
 74
     1
 91
        4
 64
     7
 65
   257
 75
     1
175
     1
 42
1.0
 92
       12
 66
     7
 43
1.0
 76
     1
 77
     6
 78
     2
 67
     7
 79
     5
170
     0
171
     0
290
     0
174
     0
 93
        1
 44
0.0
173
     0
291
     1
 45
0.0
  0
VISUALSTYLE
  5
8FA
102
{ACAD_REACTORS
330
267
102
}
330
267
100
AcDbVisualStyle
  2
Wireframe
 70
     5
 71
     0
 72
     2
 73
     0
 90
        0
 40
0.6
 41
30.0
 62
     5
 63
     7
421
 16777215
 74
     1
 91
        4
 64
     7
 65
   257
 75
     1
175
     1
 42
1.0
 92
        0
 66
   257
 43
1.0
 76
     1
 77
     6
 78
     2
 67
     7
 79
     3
170
     0
171
     0
290
     0
174
     0
 93
        1
 44
0.0
173
     0
291
     0
 45
0.0
  0
VISUALSTYLE
  5
901
102
{ACAD_REACTORS
330
267
102
}
330
267
100
AcDbVisualStyle
  2
X-Ray
 70
    25
 71
     2
 72
     2
 73
     1
 90
        1
 40
0.5
 41
30.0
 62
     5
 63
     7
421
 16777215
 74
     1
 91
        0
 64
     7
 65
   257
 75
     1
175
     1
 42
1.0
 92
        8
 66
     7
 43
1.0
 76
     1
 77
     6
 78
     2
 67
     7
 79
     3
170
     0
171
     0
290
     0
174
     0
 93
       13
 44
0.0
173
     0
291
     0
 45
0.0
  0
DICTIONARYVAR
  5
331
102
{ACAD_REACTORS
330
330
102
}
330
330
100
DictionaryVariables
280
     0
  1
1:1
  0
DICTIONARYVAR
  5
D5E
102
{ACAD_REACTORS
330
330
102
}
330
330
100
DictionaryVariables
280
     0
  1
Standard
  0
DICTIONARYVAR
  5
335
102
{ACAD_REACTORS
330
330
102
}
330
330
100
DictionaryVariables
280
     0
  1
Standard
  0
DICTIONARYVAR
  5
D52
102
{ACAD_REACTORS
330
330
102
}
330
330
100
DictionaryVariables
280
     0
  1
ByLayer
  0
DICTIONARYVAR
  5
896
102
{ACAD_REACTORS
330
330
102
}
330
330
100
DictionaryVariables
280
     0
  1
0
  0
DICTIONARYVAR
  5
246C
102
{ACAD_REACTORS
330
E38
102
}
330
E38
100
DictionaryVariables
280
     0
  1
0.261799
  0
DICTIONARYVAR
  5
246A
102
{ACAD_REACTORS
330
E38
102
}
330
E38
100
DictionaryVariables
280
     0
  1
0.400000
  0
DICTIONARYVAR
  5
246B
102
{ACAD_REACTORS
330
E38
102
}
330
E38
100
DictionaryVariables
280
     0
  1
0.250000
  0
DICTIONARYVAR
  5
246D
102
{ACAD_REACTORS
330
E38
102
}
330
E38
100
DictionaryVariables
280
     0
  1
1
  0
FIELD
  5
3CB6
102
{ACAD_REACTORS
330
3CBA
330
44BA
102
}
330
44BA
100
AcDbField
  1
_text
  2
{%<\_FldIdx 0>%M}
 90
        1
360
3CB9
 97
        0
 91
       63
 92
        0
 94
       11
 95
        2
 96
        0
300

 93
        1
  6
ACFD_FIELDTEXT_CHECKSUM
 93
        2
 90
        2
140
4503.0
 94
        0
300

302

304
ACVALUE_END
  7
ACFD_FIELD_VALUE
 93
        6
 90
        4
  1
{20220318M}
 94
        0
300

302

304
ACVALUE_END
301
{20220318M}
 98
       11
  0
DICTIONARY
  5
450E
330
279
100
AcDbDictionary
280
     1
281
     1
  3
ACAD_ROUNDTRIP_2008_TABLESTYLE_CELLSTYLEMAP
360
450F
  0
FIELD
  5
3CB9
330
3CB6
100
AcDbField
  1
AcVar
  2
\AcVar CreateDate \f "yyyyMMdd"
 90
        0
 97
        0
 91
       63
 92
        0
 94
       11
 95
        2
 96
        0
300

 93
        1
  6
Variable
 93
        2
 90
        4
  1
CreateDate
 94
        0
300

302

304
ACVALUE_END
  7
ACFD_FIELD_VALUE
 93
        6
 90
        8
 92
       16
310
E60703000000120002002E001F000000
 94
        0
300
yyyyMMdd
302

304
ACVALUE_END
301
20220318
 98
        8
  0
CELLSTYLEMAP
  5
450F
102
{ACAD_REACTORS
330
450E
102
}
330
450E
100
AcDbCellStyleMap
 90
        3
300
CELLSTYLE
  1
TABLEFORMAT_BEGIN
 90
        5
170
     1
 91
        0
 92
    32768
 62
   257
 93
        1
300
CONTENTFORMAT
  1
CONTENTFORMAT_BEGIN
 90
        0
 91
        0
 92
        4
 93
        0
300

 40
0.0
140
1.0
 94
        5
 62
     0
340
17
144
6.0
309
CONTENTFORMAT_END
171
     1
301
MARGIN
  1
CELLMARGIN_BEGIN
 40
0.06
 40
0.06
 40
0.06
 40
0.06
 40
0.18
 40
0.18
309
CELLMARGIN_END
 94
        6
 95
        1
302
GRIDFORMAT
  1
GRIDFORMAT_BEGIN
 90
        0
 91
        1
 62
     0
 92
       -2
340
0
 93
        0
 40
0.045
309
GRIDFORMAT_END
 95
        2
302
GRIDFORMAT
  1
GRIDFORMAT_BEGIN
 90
        0
 91
        1
 62
     0
 92
       -2
340
0
 93
        0
 40
0.045
309
GRIDFORMAT_END
 95
        4
302
GRIDFORMAT
  1
GRIDFORMAT_BEGIN
 90
        0
 91
        1
 62
     0
 92
       -2
340
0
 93
        0
 40
0.045
309
GRIDFORMAT_END
 95
        8
302
GRIDFORMAT
  1
GRIDFORMAT_BEGIN
 90
        0
 91
        1
 62
     0
 92
       -2
340
0
 93
        0
 40
0.045
309
GRIDFORMAT_END
 95
       16
302
GRIDFORMAT
  1
GRIDFORMAT_BEGIN
 90
        0
 91
        1
 62
     0
 92
       -2
340
0
 93
        0
 40
0.045
309
GRIDFORMAT_END
 95
       32
302
GRIDFORMAT
  1
GRIDFORMAT_BEGIN
 90
        0
 91
        1
 62
     0
 92
       -2
340
0
 93
        0
 40
0.045
309
GRIDFORMAT_END
309
TABLEFORMAT_END
  1
CELLSTYLE_BEGIN
 90
        1
 91
        1
300
_TITLE
309
CELLSTYLE_END
300
CELLSTYLE
  1
TABLEFORMAT_BEGIN
 90
        5
170
     1
 91
        0
 92
        0
 62
   257
 93
        1
300
CONTENTFORMAT
  1
CONTENTFORMAT_BEGIN
 90
        0
 91
        0
 92
        4
 93
        0
300

 40
0.0
140
1.0
 94
        5
 62
     0
340
17
144
4.5
309
CONTENTFORMAT_END
171
     1
301
MARGIN
  1
CELLMARGIN_BEGIN
 40
0.06
 40
0.06
 40
0.06
 40
0.06
 40
0.18
 40
0.18
309
CELLMARGIN_END
 94
        6
 95
        1
302
GRIDFORMAT
  1
GRIDFORMAT_BEGIN
 90
        0
 91
        1
 62
     0
 92
       -2
340
0
 93
        0
 40
0.045
309
GRIDFORMAT_END
 95
        2
302
GRIDFORMAT
  1
GRIDFORMAT_BEGIN
 90
        0
 91
        1
 62
     0
 92
       -2
340
0
 93
        0
 40
0.045
309
GRIDFORMAT_END
 95
        4
302
GRIDFORMAT
  1
GRIDFORMAT_BEGIN
 90
        0
 91
        1
 62
     0
 92
       -2
340
0
 93
        0
 40
0.045
309
GRIDFORMAT_END
 95
        8
302
GRIDFORMAT
  1
GRIDFORMAT_BEGIN
 90
        0
 91
        1
 62
     0
 92
       -2
340
0
 93
        0
 40
0.045
309
GRIDFORMAT_END
 95
       16
302
GRIDFORMAT
  1
GRIDFORMAT_BEGIN
 90
        0
 91
        1
 62
     0
 92
       -2
340
0
 93
        0
 40
0.045
309
GRIDFORMAT_END
 95
       32
302
GRIDFORMAT
  1
GRIDFORMAT_BEGIN
 90
        0
 91
        1
 62
     0
 92
       -2
340
0
 93
        0
 40
0.045
309
GRIDFORMAT_END
309
TABLEFORMAT_END
  1
CELLSTYLE_BEGIN
 90
        2
 91
        1
300
_HEADER
309
CELLSTYLE_END
300
CELLSTYLE
  1
TABLEFORMAT_BEGIN
 90
        5
170
     1
 91
        0
 92
        0
 62
   257
 93
        1
300
CONTENTFORMAT
  1
CONTENTFORMAT_BEGIN
 90
        0
 91
        0
 92
        4
 93
        0
300

 40
0.0
140
1.0
 94
        2
 62
     0
340
17
144
4.5
309
CONTENTFORMAT_END
171
     1
301
MARGIN
  1
CELLMARGIN_BEGIN
 40
0.06
 40
0.06
 40
0.06
 40
0.06
 40
0.18
 40
0.18
309
CELLMARGIN_END
 94
        6
 95
        1
302
GRIDFORMAT
  1
GRIDFORMAT_BEGIN
 90
        0
 91
        1
 62
     0
 92
       -2
340
0
 93
        0
 40
0.045
309
GRIDFORMAT_END
 95
        2
302
GRIDFORMAT
  1
GRIDFORMAT_BEGIN
 90
        0
 91
        1
 62
     0
 92
       -2
340
0
 93
        0
 40
0.045
309
GRIDFORMAT_END
 95
        4
302
GRIDFORMAT
  1
GRIDFORMAT_BEGIN
 90
        0
 91
        1
 62
     0
 92
       -2
340
0
 93
        0
 40
0.045
309
GRIDFORMAT_END
 95
        8
302
GRIDFORMAT
  1
GRIDFORMAT_BEGIN
 90
        0
 91
        1
 62
     0
 92
       -2
340
0
 93
        0
 40
0.045
309
GRIDFORMAT_END
 95
       16
302
GRIDFORMAT
  1
GRIDFORMAT_BEGIN
 90
        0
 91
        1
 62
     0
 92
       -2
340
0
 93
        0
 40
0.045
309
GRIDFORMAT_END
 95
       32
302
GRIDFORMAT
  1
GRIDFORMAT_BEGIN
 90
        0
 91
        1
 62
     0
 92
       -2
340
0
 93
        0
 40
0.045
309
GRIDFORMAT_END
309
TABLEFORMAT_END
  1
CELLSTYLE_BEGIN
 90
        3
 91
        2
300
_DATA
309
CELLSTYLE_END
  0
ENDSEC
  0
EOF
