  0
SECTION
  2
HEADER
  9
$ACADVER
  1
AC1021
  9
$ACADMAINTVER
 70
    25
  9
$DWGCODEPAGE
  3
ANSI_932
  9
$LASTSAVEDBY
  1
howeNelson
  9
$INSBASE
 10
0.0
 20
0.0
 30
0.0
  9
$EXTMIN
 10
0.0
 20
0.0
 30
-0.0000000000000071
  9
$EXTMAX
 10
840.0
 20
1188.0
 30
0.0000000000000071
  9
$LIMMIN
 10
0.0
 20
0.0
  9
$LIMMAX
 10
840.0
 20
1188.0
  9
$ORTHOMODE
 70
     0
  9
$REGENMODE
 70
     1
  9
$FILLMODE
 70
     1
  9
$QTEXTMODE
 70
     0
  9
$MIRRTEXT
 70
     1
  9
$LTSCALE
 40
2.0
  9
$ATTMODE
 70
     1
  9
$TEXTSIZE
 40
2.5
  9
$TRACEWID
 40
1.0
  9
$TEXTSTYLE
  7
ＭＳ ゴシック
  9
$CLAYER
  8
DIM
  9
$CELTYPE
  6
ByLayer
  9
$CECOLOR
 62
   256
  9
$CELTSCALE
 40
1.0
  9
$DISPSILH
 70
     0
  9
$DIMSCALE
 40
1.0
  9
$DIMASZ
 40
4.0
  9
$DIMEXO
 40
10.0
  9
$DIMDLI
 40
0.9999999999999999
  9
$DIMRND
 40
0.0
  9
$DIMDLE
 40
0.0
  9
$DIMEXE
 40
0.0
  9
$DIMTP
 40
0.0
  9
$DIMTM
 40
0.0
  9
$DIMTXT
 40
10.0
  9
$DIMCEN
 40
0.0
  9
$DIMTSZ
 40
0.0
  9
$DIMTOL
 70
     0
  9
$DIMLIM
 70
     0
  9
$DIMTIH
 70
     0
  9
$DIMTOH
 70
     0
  9
$DIMSE1
 70
     0
  9
$DIMSE2
 70
     0
  9
$DIMTAD
 70
     1
  9
$DIMZIN
 70
    11
  9
$DIMBLK
  1
DOT
  9
$DIMASO
 70
     1
  9
$DIMSHO
 70
     1
  9
$DIMPOST
  1
<>
  9
$DIMAPOST
  1
[]
  9
$DIMALT
 70
     0
  9
$DIMALTD
 70
     1
  9
$DIMALTF
 40
1.0
  9
$DIMLFAC
 40
1.0
  9
$DIMTOFL
 70
     0
  9
$DIMTVP
 40
0.0
  9
$DIMTIX
 70
     1
  9
$DIMSOXD
 70
     0
  9
$DIMSAH
 70
     0
  9
$DIMBLK1
  1

  9
$DIMBLK2
  1

  9
$DIMSTYLE
  2
tfrom線あり
  9
$DIMCLRD
 70
     0
  9
$DIMCLRE
 70
     0
  9
$DIMCLRT
 70
     0
  9
$DIMTFAC
 40
1.0
  9
$DIMGAP
 40
4.0
  9
$DIMJUST
 70
     0
  9
$DIMSD1
 70
     0
  9
$DIMSD2
 70
     0
  9
$DIMTOLJ
 70
     1
  9
$DIMTZIN
 70
    11
  9
$DIMALTZ
 70
    11
  9
$DIMALTTZ
 70
    11
  9
$DIMUPT
 70
     0
  9
$DIMDEC
 70
     0
  9
$DIMTDEC
 70
     1
  9
$DIMALTU
 70
     2
  9
$DIMALTTD
 70
     2
  9
$DIMTXSTY
  7
ＭＳ ゴシック
  9
$DIMAUNIT
 70
     0
  9
$DIMADEC
 70
     2
  9
$DIMALTRND
 40
0.0
  9
$DIMAZIN
 70
     0
  9
$DIMDSEP
 70
    46
  9
$DIMATFIT
 70
     0
  9
$DIMFRAC
 70
     2
  9
$DIMLDRBLK
  1
DOT
  9
$DIMLUNIT
 70
     2
  9
$DIMLWD
 70
    -2
  9
$DIMLWE
 70
    -2
  9
$DIMTMOVE
 70
     0
  9
$DIMFXL
 40
1.0
  9
$DIMFXLON
 70
     0
  9
$DIMJOGANG
 40
0.7853981633974483
  9
$DIMTFILL
 70
     0
  9
$DIMTFILLCLR
 70
     0
  9
$DIMARCSYM
 70
     0
  9
$DIMLTYPE
  6

  9
$DIMLTEX1
  6

  9
$DIMLTEX2
  6

  9
$LUNITS
 70
     2
  9
$LUPREC
 70
     0
  9
$SKETCHINC
 40
0.1
  9
$FILLETRAD
 40
0.0
  9
$AUNITS
 70
     0
  9
$AUPREC
 70
     0
  9
$MENU
  1
acad
  9
$ELEVATION
 40
0.0
  9
$PELEVATION
 40
0.0
  9
$THICKNESS
 40
0.0
  9
$LIMCHECK
 70
     0
  9
$CHAMFERA
 40
0.0
  9
$CHAMFERB
 40
0.0
  9
$CHAMFERC
 40
0.0
  9
$CHAMFERD
 40
0.0
  9
$SKPOLY
 70
     0
  9
$TDCREATE
 40
2447893.375
  9
$TDUCREATE
 40
0.0
  9
$TDUPDATE
 40
2458465.656265405
  9
$TDUUPDATE
 40
2458465.281265405
  9
$TDINDWG
 40
0.1639534028
  9
$TDUSRTIMER
 40
0.0092973958
  9
$USRTIMER
 70
     1
  9
$ANGBASE
 50
0.0
  9
$ANGDIR
 70
     0
  9
$PDMODE
 70
     1
  9
$PDSIZE
 40
-2.0
  9
$PLINEWID
 40
0.0
  9
$SPLFRAME
 70
     0
  9
$SPLINETYPE
 70
     6
  9
$SPLINESEGS
 70
     8
  9
$HANDSEED
  5
4D03
  9
$SURFTAB1
 70
     6
  9
$SURFTAB2
 70
     6
  9
$SURFTYPE
 70
     6
  9
$SURFU
 70
     6
  9
$SURFV
 70
     6
  9
$UCSBASE
  2

  9
$UCSNAME
  2

  9
$UCSORG
 10
0.0
 20
0.0
 30
0.0
  9
$UCSXDIR
 10
1.0
 20
0.0
 30
0.0
  9
$UCSYDIR
 10
0.0
 20
1.0
 30
0.0
  9
$UCSORTHOREF
  2

  9
$UCSORTHOVIEW
 70
     0
  9
$UCSORGTOP
 10
0.0
 20
0.0
 30
0.0
  9
$UCSORGBOTTOM
 10
0.0
 20
0.0
 30
0.0
  9
$UCSORGLEFT
 10
0.0
 20
0.0
 30
0.0
  9
$UCSORGRIGHT
 10
0.0
 20
0.0
 30
0.0
  9
$UCSORGFRONT
 10
0.0
 20
0.0
 30
0.0
  9
$UCSORGBACK
 10
0.0
 20
0.0
 30
0.0
  9
$PUCSBASE
  2

  9
$PUCSNAME
  2

  9
$PUCSORG
 10
0.0
 20
0.0
 30
0.0
  9
$PUCSXDIR
 10
1.0
 20
0.0
 30
0.0
  9
$PUCSYDIR
 10
0.0
 20
1.0
 30
0.0
  9
$PUCSORTHOREF
  2

  9
$PUCSORTHOVIEW
 70
     0
  9
$PUCSORGTOP
 10
0.0
 20
0.0
 30
0.0
  9
$PUCSORGBOTTOM
 10
0.0
 20
0.0
 30
0.0
  9
$PUCSORGLEFT
 10
0.0
 20
0.0
 30
0.0
  9
$PUCSORGRIGHT
 10
0.0
 20
0.0
 30
0.0
  9
$PUCSORGFRONT
 10
0.0
 20
0.0
 30
0.0
  9
$PUCSORGBACK
 10
0.0
 20
0.0
 30
0.0
  9
$USERI1
 70
     0
  9
$USERI2
 70
     0
  9
$USERI3
 70
     0
  9
$USERI4
 70
     0
  9
$USERI5
 70
     0
  9
$USERR1
 40
0.0
  9
$USERR2
 40
0.0
  9
$USERR3
 40
0.0
  9
$USERR4
 40
0.0
  9
$USERR5
 40
0.0
  9
$WORLDVIEW
 70
     1
  9
$SHADEDGE
 70
     3
  9
$SHADEDIF
 70
    70
  9
$TILEMODE
 70
     1
  9
$MAXACTVP
 70
    64
  9
$PINSBASE
 10
0.0
 20
0.0
 30
0.0
  9
$PLIMCHECK
 70
     0
  9
$PEXTMIN
 10
0.0
 20
0.0
 30
0.0
  9
$PEXTMAX
 10
0.0
 20
0.0
 30
0.0
  9
$PLIMMIN
 10
-7.5
 20
-20.0
  9
$PLIMMAX
 10
412.5
 20
277.0
  9
$UNITMODE
 70
     0
  9
$VISRETAIN
 70
     0
  9
$PLINEGEN
 70
     1
  9
$PSLTSCALE
 70
     0
  9
$TREEDEPTH
 70
  3020
  9
$CMLSTYLE
  2
Standard
  9
$CMLJUST
 70
     0
  9
$CMLSCALE
 40
1.0
  9
$PROXYGRAPHICS
 70
     0
  9
$MEASUREMENT
 70
     1
  9
$CELWEIGHT
370
    -1
  9
$ENDCAPS
280
     0
  9
$JOINSTYLE
280
     0
  9
$LWDISPLAY
290
     1
  9
$INSUNITS
 70
     4
  9
$HYPERLINKBASE
  1

  9
$STYLESHEET
  1

  9
$XEDIT
290
     1
  9
$CEPSNTYPE
380
     0
  9
$PSTYLEMODE
290
     1
  9
$FINGERPRINTGUID
  2

  9
$VERSIONGUID
  2

  9
$EXTNAMES
290
     1
  9
$PSVPSCALE
 40
0.0
  9
$OLESTARTUP
290
     0
  9
$SORTENTS
280
   127
  9
$INDEXCTL
280
     0
  9
$HIDETEXT
280
     1
  9
$XCLIPFRAME
290
     0
  9
$HALOGAP
280
     0
  9
$OBSCOLOR
 70
   257
  9
$OBSLTYPE
280
     0
  9
$INTERSECTIONDISPLAY
280
     0
  9
$INTERSECTIONCOLOR
 70
   257
  9
$DIMASSOC
280
     2
  9
$PROJECTNAME
  1

  9
$CAMERADISPLAY
290
     0
  9
$LENSLENGTH
 40
50.0
  9
$CAMERAHEIGHT
 40
0.0
  9
$STEPSPERSEC
 40
2.0
  9
$STEPSIZE
 40
6.0
  9
$3DDWFPREC
 40
2.0
  9
$PSOLWIDTH
 40
0.25
  9
$PSOLHEIGHT
 40
4.0
  9
$LOFTANG1
 40
1.570796326794897
  9
$LOFTANG2
 40
1.570796326794897
  9
$LOFTMAG1
 40
0.0
  9
$LOFTMAG2
 40
0.0
  9
$LOFTPARAM
 70
     7
  9
$LOFTNORMALS
280
     1
  9
$LATITUDE
 40
37.795
  9
$LONGITUDE
 40
-122.394
  9
$NORTHDIRECTION
 40
0.0
  9
$TIMEZONE
 70
 -8000
  9
$LIGHTGLYPHDISPLAY
280
     1
  9
$TILEMODELIGHTSYNCH
280
     1
  9
$SOLIDHIST
280
     1
  9
$SHOWHIST
280
     1
  9
$DWFFRAME
280
     2
  9
$DGNFRAME
280
     2
  9
$REALWORLDSCALE
290
     1
  9
$INTERFERECOLOR
 62
   256
  9
$CSHADOW
280
     0
  9
$SHADOWPLANELOCATION
 40
0.0
  0
ENDSEC
  0
SECTION
  2
CLASSES
  0
CLASS
  1
LWPOLYLINE
  2
AcDbPolyline
  3
ObjectDBX Classes
 90
        0
 91
        1
280
     0
281
     1
  0
CLASS
  1
IMAGE
  2
AcDbRasterImage
  3
ISM
 90
      127
 91
        5
280
     0
281
     1
  0
CLASS
  1
OLE2FRAME
  2
AcDbOle2Frame
  3
ObjectDBX Classes
 90
        0
 91
        1
280
     0
281
     1
  0
CLASS
  1
HATCH
  2
AcDbHatch
  3
ObjectDBX Classes
 90
        0
 91
        1
280
     0
281
     1
  0
CLASS
  1
DICTIONARYVAR
  2
AcDbDictionaryVar
  3
ObjectDBX Classes
 90
        0
 91
        7
280
     0
281
     0
  0
CLASS
  1
RASTERVARIABLES
  2
AcDbRasterVariables
  3
ISM
 90
        0
 91
        4
280
     0
281
     0
  0
CLASS
  1
IMAGEDEF
  2
AcDbRasterImageDef
  3
ISM
 90
        0
 91
        4
280
     0
281
     0
  0
CLASS
  1
IMAGEDEF_REACTOR
  2
AcDbRasterImageDefReactor
  3
ISM
 90
        1
 91
        4
280
     0
281
     0
  0
CLASS
  1
IDBUFFER
  2
AcDbIdBuffer
  3
ObjectDBX Classes
 90
        0
 91
        4
280
     0
281
     0
  0
CLASS
  1
SPATIAL_FILTER
  2
AcDbSpatialFilter
  3
ObjectDBX Classes
 90
        0
 91
        4
280
     0
281
     0
  0
CLASS
  1
XRECORD
  2
AcDbXrecord
  3
ObjectDBX Classes
 90
        0
 91
        1
280
     0
281
     0
  0
CLASS
  1
SORTENTSTABLE
  2
AcDbSortentsTable
  3
ObjectDBX Classes
 90
        0
 91
        4
280
     0
281
     0
  0
CLASS
  1
LAYER_INDEX
  2
AcDbLayerIndex
  3
ObjectDBX Classes
 90
        0
 91
        4
280
     0
281
     0
  0
CLASS
  1
SPATIAL_INDEX
  2
AcDbSpatialIndex
  3
AutoCAD 2000
 90
        0
 91
        4
280
     0
281
     0
  0
CLASS
  1
OBJECT_PTR
  2
CAseDLPNTableRecord
  3
ASE-LPNTableRecord
 90
        1
 91
        4
280
     0
281
     0
  0
CLASS
  1
LAYOUT
  2
AcDbLayout
  3
ObjectDBX Classes
 90
        0
 91
        1
280
     0
281
     0
  0
CLASS
  1
PLOTSETTINGS
  2
AcDbPlotSettings
  3
ObjectDBX Classes
 90
        0
 91
        4
280
     0
281
     0
  0
CLASS
  1
ACDBDICTIONARYWDFLT
  2
AcDbDictionaryWithDefault
  3
ObjectDBX Classes
 90
        0
 91
        7
280
     0
281
     0
  0
CLASS
  1
ACDBPLACEHOLDER
  2
AcDbPlaceHolder
  3
ObjectDBX Classes
 90
        0
 91
        1
280
     0
281
     0
  0
CLASS
  1
SCALE
  2
AcDbScale
  3
ObjectDBX Classes
 90
     1153
 91
        7
280
     0
281
     0
  0
CLASS
  1
MATERIAL
  2
AcDbMaterial
  3
ObjectDBX Classes
 90
     1153
 91
        7
280
     0
281
     0
  0
CLASS
  1
VISUALSTYLE
  2
AcDbVisualStyle
  3
ObjectDBX Classes
 90
     4095
 91
        7
280
     0
281
     0
  0
CLASS
  1
TABLESTYLE
  2
AcDbTableStyle
  3
ObjectDBX Classes
 90
     4095
 91
        7
280
     0
281
     0
  0
CLASS
  1
DIMASSOC
  2
AcDbDimAssoc
  3
"AcDbDimAssoc|Product Desc:     AcDim ARX App For Dimension|Company:          Autodesk, Inc.|WEB Address:      www.autodesk.com"
 90
        0
 91
        4
280
     0
281
     0
  0
CLASS
  1
CELLSTYLEMAP
  2
AcDbCellStyleMap
  3
ObjectDBX Classes
 90
     1152
 91
        4
280
     0
281
     0
  0
CLASS
  1
SUN
  2
AcDbSun
  3
SCENEOE
 90
     1153
 91
        4
280
     0
281
     0
  0
CLASS
  1
MLEADERSTYLE
  2
AcDbMLeaderStyle
  3
ACDB_MLEADERSTYLE_CLASS
 90
     4095
 91
        7
280
     0
281
     0
  0
CLASS
  1
FIELD
  2
AcDbField
  3
ObjectDBX Classes
 90
     1152
 91
        4
280
     0
281
     0
  0
CLASS
  1
FIELDLIST
  2
AcDbFieldList
  3
ObjectDBX Classes
 90
     1152
 91
        4
280
     0
281
     0
  0
ENDSEC
  0
SECTION
  2
TABLES
  0
TABLE
  2
VPORT
  5
7
330
0
100
AcDbSymbolTable
 70
     1
  0
VPORT
  5
15
330
7
100
AcDbSymbolTableRecord
100
AcDbViewportTableRecord
  2
*ACTIVE
 70
     0
 10
0.0
 20
0.0
 11
1.0
 21
1.0
 12
511.0201356709008
 22
520.401285469834
 13
0.0
 23
0.0
 14
1.0
 24
1.0
 15
0.0
 25
0.0
 16
0.0
 26
0.0
 36
1.0
 17
-91.0201356709008
 27
73.59871453016603
 37
-46.86809886248109
 40
1211.76
 41
2.419452887537994
 42
50.0
 43
0.0
 44
0.0
 50
0.0
 51
0.0
 71
    16
 72
  2000
 73
     1
 74
     1
 75
     0
 76
     0
 77
     0
 78
     0
281
     0
 65
     1
110
0.0
120
0.0
130
0.0
111
1.0
121
0.0
131
0.0
112
0.0
122
1.0
132
0.0
 79
     0
146
0.0
348
26C
 60
     3
 61
     5
292
     1
282
     1
141
0.0
142
0.0
 63
   256
361
904
  0
ENDTAB
  0
TABLE
  2
LTYPE
  5
4
330
0
100
AcDbSymbolTable
 70
     3
  0
LTYPE
  5
11
330
4
100
AcDbSymbolTableRecord
100
AcDbLinetypeTableRecord
  2
ByBlock
 70
     0
  3

 72
    65
 73
     0
 40
0.0
  0
LTYPE
  5
12
330
4
100
AcDbSymbolTableRecord
100
AcDbLinetypeTableRecord
  2
ByLayer
 70
     0
  3

 72
    65
 73
     0
 40
0.0
  0
LTYPE
  5
13
330
4
100
AcDbSymbolTableRecord
100
AcDbLinetypeTableRecord
  2
Continuous
 70
     0
  3
Solid line
 72
    65
 73
     0
 40
0.0
  0
LTYPE
  5
D6C
330
4
100
AcDbSymbolTableRecord
100
AcDbLinetypeTableRecord
  2
BORDER
 70
     0
  3
Border __  __  . __  __  . __  __  . __  __  . 
 72
    65
 73
     6
 40
44.45
 49
12.7
 74
     0
 49
-6.35
 74
     0
 49
12.7
 74
     0
 49
-6.35
 74
     0
 49
0.0
 74
     0
 49
-6.35
 74
     0
  0
LTYPE
  5
D6D
330
4
100
AcDbSymbolTableRecord
100
AcDbLinetypeTableRecord
  2
HIDDEN
 70
     0
  3
Hidden _ _ _ _ _ _ _ _ _ _ _ _ _ _ _ _ _ _ _ _ 
 72
    65
 73
     2
 40
9.524999999999999
 49
6.35
 74
     0
 49
-3.175
 74
     0
  0
ENDTAB
  0
TABLE
  2
LAYER
  5
2
102
{ACAD_XDICTIONARY
360
2E1
102
}
330
0
100
AcDbSymbolTable
 70
     8
  0
LAYER
  5
14
330
2
100
AcDbSymbolTableRecord
100
AcDbLayerTableRecord
  2
0
 70
     0
 62
     7
  6
Continuous
370
    -3
390
1D
347
266
  0
LAYER
  5
4B
330
2
100
AcDbSymbolTableRecord
100
AcDbLayerTableRecord
  2
TEMPLATE
 70
     0
 62
     7
  6
Continuous
370
    20
390
1D
347
266
  0
LAYER
  5
4C
330
2
100
AcDbSymbolTableRecord
100
AcDbLayerTableRecord
  2
DIM
 70
     0
 62
     3
  6
Continuous
370
    13
390
1D
347
266
  0
LAYER
  5
4D
330
2
100
AcDbSymbolTableRecord
100
AcDbLayerTableRecord
  2
MODEL
 70
     0
 62
     7
  6
Continuous
370
    20
390
1D
347
266
  0
LAYER
  5
88C
330
2
100
AcDbSymbolTableRecord
100
AcDbLayerTableRecord
  2
HIDDEN
 70
     0
 62
     8
  6
HIDDEN
370
    20
390
1D
347
266
1001
AcAecLayerStandard
1000

1000

  0
LAYER
  5
D6B
330
2
100
AcDbSymbolTableRecord
100
AcDbLayerTableRecord
  2
BORDER
 70
     0
 62
     4
  6
BORDER
290
     0
370
    20
390
1D
347
266
1001
AcAecLayerStandard
1000

1000

  0
LAYER
  5
D8C
330
2
100
AcDbSymbolTableRecord
100
AcDbLayerTableRecord
  2
Defpoints
 70
     0
 62
     7
  6
Continuous
290
     0
370
    -3
390
1D
347
266
  0
LAYER
  5
3653
330
2
100
AcDbSymbolTableRecord
100
AcDbLayerTableRecord
  2
Standard
 70
     0
 62
     7
  6
Continuous
370
    -3
390
1D
347
266
  0
ENDTAB
  0
TABLE
  2
STYLE
  5
3
330
0
100
AcDbSymbolTable
 70
     2
  0
STYLE
  5
17
330
3
100
AcDbSymbolTableRecord
100
AcDbTextStyleTableRecord
  2
Standard
 70
     0
 40
0.0
 41
1.0
 50
0.0
 71
     0
 42
2.5
  3
txt
  4
BIGFONT.SHX
  0
STYLE
  5
39
330
3
100
AcDbSymbolTableRecord
100
AcDbTextStyleTableRecord
  2
ＭＳ ゴシック
 70
     0
 40
0.0
 41
1.0
 50
0.0
 71
     0
 42
2.5
  3
msgothic.ttc
  4
ＭＳ ゴシック
1001
ACAD
1000
ＭＳ ゴシック
1071
        0
  0
ENDTAB
  0
TABLE
  2
VIEW
  5
5
330
0
100
AcDbSymbolTable
 70
     0
  0
ENDTAB
  0
TABLE
  2
UCS
  5
6
330
0
100
AcDbSymbolTable
 70
     0
  0
ENDTAB
  0
TABLE
  2
APPID
  5
8
330
0
100
AcDbSymbolTable
 70
     3
  0
APPID
  5
16
330
8
100
AcDbSymbolTableRecord
100
AcDbRegAppTableRecord
  2
ACAD
 70
     0
  0
APPID
  5
7AC
330
8
100
AcDbSymbolTableRecord
100
AcDbRegAppTableRecord
  2
AcAecLayerStandard
 70
     0
  0
APPID
  5
E29
330
8
100
AcDbSymbolTableRecord
100
AcDbRegAppTableRecord
  2
ACAD_MLEADERVER
 70
     0
  0
ENDTAB
  0
TABLE
  2
DIMSTYLE
  5
9
330
0
100
AcDbSymbolTable
 70
     2
100
AcDbDimStyleTable
  0
DIMSTYLE
105
18
330
9
100
AcDbSymbolTableRecord
100
AcDbDimStyleTableRecord
  2
Standard
 70
     0
178
     0
340
17
  0
DIMSTYLE
105
57
102
{ACAD_REACTORS
330
4BCB
330
4BDA
330
4BE9
330
4BF8
330
4C07
102
}
330
9
100
AcDbSymbolTableRecord
100
AcDbDimStyleTableRecord
  2
tfrom線あり
 70
     0
  3
<>
  4
[]
 41
4.0
 42
10.0
 43
0.9999999999999999
 44
0.0
 73
     0
 74
     0
 77
     1
 78
    11
140
10.0
141
0.0
143
1.0
147
4.0
171
     1
174
     1
178
     0
179
     2
271
     0
272
     1
276
     2
284
    11
285
    11
286
    11
289
     0
340
39
341
4E
342
4E
  0
ENDTAB
  0
TABLE
  2
BLOCK_RECORD
  5
1
330
0
100
AcDbSymbolTable
 70
    17
  0
BLOCK_RECORD
  5
A
102
{ACAD_XDICTIONARY
360
3E3E
102
}
330
1
100
AcDbSymbolTableRecord
100
AcDbBlockTableRecord
  2
*MODEL_SPACE
340
20
 70
     0
280
     1
281
     0
  0
BLOCK_RECORD
  5
B
330
1
100
AcDbSymbolTableRecord
100
AcDbBlockTableRecord
  2
*PAPER_SPACE
340
21
 70
     0
280
     1
281
     0
  0
BLOCK_RECORD
  5
4E
330
1
100
AcDbSymbolTableRecord
100
AcDbBlockTableRecord
  2
_DOT
340
0
102
{BLKREFS
331
3E2C
331
3E2D
331
3E38
331
3E39
331
4BC4
331
4BC5
331
4BD4
331
4BD5
331
4BE3
331
4BE4
331
4BF2
331
4BF3
331
4C01
331
4C02
331
4C10
331
4C11
331
4C1F
331
4C20
331
4CA4
331
4CA3
331
4CB3
331
4CB2
331
4CC2
331
4CC1
331
4CD1
331
4CD0
331
4CE0
331
4CDF
331
4CEF
331
4CEE
102
}
 70
     0
280
     1
281
     0
  0
BLOCK_RECORD
  5
68D
330
1
100
AcDbSymbolTableRecord
100
AcDbBlockTableRecord
  2
block 2
340
0
102
{BLKREFS
331
68C
331
1343
102
}
 70
     0
280
     1
281
     0
  0
BLOCK_RECORD
  5
3E26
330
1
100
AcDbSymbolTableRecord
100
AcDbBlockTableRecord
  2
*D2
340
0
 70
     0
280
     1
281
     0
  0
BLOCK_RECORD
  5
3E32
330
1
100
AcDbSymbolTableRecord
100
AcDbBlockTableRecord
  2
*D3
340
0
 70
     0
280
     1
281
     0
  0
BLOCK_RECORD
  5
4BBE
330
1
100
AcDbSymbolTableRecord
100
AcDbBlockTableRecord
  2
*D4
340
0
 70
     0
280
     1
281
     0
  0
BLOCK_RECORD
  5
4BCE
330
1
100
AcDbSymbolTableRecord
100
AcDbBlockTableRecord
  2
*D5
340
0
 70
     0
280
     1
281
     0
  0
BLOCK_RECORD
  5
4BDD
330
1
100
AcDbSymbolTableRecord
100
AcDbBlockTableRecord
  2
*D6
340
0
 70
     0
280
     1
281
     0
  0
BLOCK_RECORD
  5
4BEC
330
1
100
AcDbSymbolTableRecord
100
AcDbBlockTableRecord
  2
*D7
340
0
 70
     0
280
     1
281
     0
  0
BLOCK_RECORD
  5
4BFB
330
1
100
AcDbSymbolTableRecord
100
AcDbBlockTableRecord
  2
*D8
340
0
 70
     0
280
     1
281
     0
  0
BLOCK_RECORD
  5
4C0A
330
1
100
AcDbSymbolTableRecord
100
AcDbBlockTableRecord
  2
*D9
340
0
 70
     0
280
     1
281
     0
  0
BLOCK_RECORD
  5
4C19
330
1
100
AcDbSymbolTableRecord
100
AcDbBlockTableRecord
  2
*D10
340
0
 70
     0
280
     1
281
     0
  0
BLOCK_RECORD
  5
4C9D
330
1
100
AcDbSymbolTableRecord
100
AcDbBlockTableRecord
  2
*D11
340
0
 70
     0
280
     1
281
     0
  0
BLOCK_RECORD
  5
4CAC
330
1
100
AcDbSymbolTableRecord
100
AcDbBlockTableRecord
  2
*D12
340
0
 70
     0
280
     1
281
     0
  0
BLOCK_RECORD
  5
4CBB
330
1
100
AcDbSymbolTableRecord
100
AcDbBlockTableRecord
  2
*D13
340
0
 70
     0
280
     1
281
     0
  0
BLOCK_RECORD
  5
4CCA
330
1
100
AcDbSymbolTableRecord
100
AcDbBlockTableRecord
  2
*D14
340
0
 70
     0
280
     1
281
     0
  0
BLOCK_RECORD
  5
4CD9
330
1
100
AcDbSymbolTableRecord
100
AcDbBlockTableRecord
  2
*D15
340
0
 70
     0
280
     1
281
     0
  0
BLOCK_RECORD
  5
4CE8
330
1
100
AcDbSymbolTableRecord
100
AcDbBlockTableRecord
  2
*D16
340
0
 70
     0
280
     1
281
     0
  0
ENDTAB
  0
ENDSEC
  0
SECTION
  2
BLOCKS
  0
BLOCK
  5
D
330
A
100
AcDbEntity
  8
0
390
1D
100
AcDbBlockBegin
  2
*MODEL_SPACE
 70
     0
 10
0.0
 20
0.0
 30
0.0
  3
*MODEL_SPACE
  1
*MODEL_SPACE
  0
ENDBLK
  5
E
330
A
100
AcDbEntity
  8
0
390
1D
100
AcDbBlockEnd
  0
BLOCK
  5
F
330
B
100
AcDbEntity
 67
     1
  8
0
390
1D
100
AcDbBlockBegin
  2
*PAPER_SPACE
 70
     0
 10
0.0
 20
0.0
 30
0.0
  3
*PAPER_SPACE
  1
*PAPER_SPACE
  0
ENDBLK
  5
10
330
B
100
AcDbEntity
 67
     1
  8
0
390
1D
100
AcDbBlockEnd
  0
BLOCK
  5
4C76
330
4E
100
AcDbEntity
  8
0
390
1D
100
AcDbBlockBegin
  2
_DOT
 70
     0
 10
0.0
 20
0.0
 30
0.0
  3
_DOT
  1
_DOT
  0
POLYLINE
  5
4C78
330
4E
100
AcDbEntity
  8
0
  6
ByBlock
 62
     0
370
    -2
390
1D
100
AcDb2dPolyline
 66
     1
 10
0.0
 20
0.0
 30
0.0
 70
     1
 40
0.5
 41
0.5
  0
VERTEX
  5
4C79
330
4C78
100
AcDbEntity
  8
0
  6
ByBlock
 62
     0
370
    -2
390
1D
100
AcDbVertex
100
AcDb2dVertex
 10
-0.25
 20
0.0
 30
0.0
 42
1.0
  0
VERTEX
  5
4C7A
330
4C78
100
AcDbEntity
  8
0
  6
ByBlock
 62
     0
370
    -2
390
1D
100
AcDbVertex
100
AcDb2dVertex
 10
0.25
 20
0.0
 30
0.0
 42
1.0
  0
SEQEND
  5
4C7B
330
4C78
100
AcDbEntity
  8
0
390
1D
  0
LINE
  5
4C7C
330
4E
100
AcDbEntity
  8
0
  6
ByBlock
 62
     0
370
    -2
390
1D
100
AcDbLine
 10
-0.5
 20
0.0
 30
0.0
 11
-1.0
 21
0.0
 31
0.0
  0
ENDBLK
  5
4C7D
330
4E
100
AcDbEntity
  8
0
390
1D
100
AcDbBlockEnd
  0
BLOCK
  5
68E
330
68D
100
AcDbEntity
  8
0
100
AcDbBlockBegin
  2
block 2
 70
     0
 10
0.0
 20
0.0
 30
0.0
  3
block 2
  1
block 2
  0
ENDBLK
  5
6B0
330
68D
100
AcDbEntity
  8
0
100
AcDbBlockEnd
  0
BLOCK
  5
3E27
330
3E26
100
AcDbEntity
  8
0
100
AcDbBlockBegin
  2
*D2
 70
     1
 10
0.0
 20
0.0
 30
0.0
  3
*D2
  1

  0
LINE
  5
3E29
330
3E26
100
AcDbEntity
  8
DIM
 62
     0
370
    -2
100
AcDbLine
 10
303.9804255319157
 20
657.9305775075987
 30
0.0
 11
303.9804255319157
 21
793.2230675452882
 31
0.0
  0
LINE
  5
3E2A
330
3E26
100
AcDbEntity
  8
DIM
 62
     0
370
    -2
100
AcDbLine
 10
532.3364133738603
 20
657.9305775075987
 30
0.0
 11
532.3364133738603
 21
793.2230675452882
 31
0.0
  0
LINE
  5
3E2B
330
3E26
100
AcDbEntity
  8
DIM
 62
     0
370
    -2
100
AcDbLine
 10
307.9804255319157
 20
793.2230675452882
 30
0.0
 11
528.3364133738603
 21
793.2230675452882
 31
0.0
  0
INSERT
  5
3E2C
330
3E26
100
AcDbEntity
  8
DIM
 62
     0
370
    -2
100
AcDbBlockReference
  2
_DOT
 10
303.9804255319157
 20
793.2230675452882
 30
0.0
 41
4.0
 42
4.0
 43
4.0
 50
180.0
  0
INSERT
  5
3E2D
330
3E26
100
AcDbEntity
  8
DIM
 62
     0
370
    -2
100
AcDbBlockReference
  2
_DOT
 10
532.3364133738603
 20
793.2230675452882
 30
0.0
 41
4.0
 42
4.0
 43
4.0
  0
MTEXT
  5
3E2E
330
3E26
100
AcDbEntity
  8
DIM
 62
     0
100
AcDbMText
 10
418.1584194528875
 20
802.2230675452882
 30
0.0
 40
10.0
 41
0.0
 46
0.0
 71
     5
 72
     1
  1
\A1;228
  7
ＭＳ ゴシック
 73
     1
 44
1.0
  0
POINT
  5
3E2F
330
3E26
100
AcDbEntity
  8
Defpoints
 62
     0
100
AcDbPoint
 10
303.9804255319157
 20
652.9305775075987
 30
0.0
  0
POINT
  5
3E30
330
3E26
100
AcDbEntity
  8
Defpoints
 62
     0
100
AcDbPoint
 10
532.3364133738603
 20
652.9305775075987
 30
0.0
  0
POINT
  5
3E31
330
3E26
100
AcDbEntity
  8
Defpoints
 62
     0
100
AcDbPoint
 10
532.3364133738603
 20
793.2230675452882
 30
0.0
  0
ENDBLK
  5
3E28
330
3E26
100
AcDbEntity
  8
0
100
AcDbBlockEnd
  0
BLOCK
  5
3E33
330
3E32
100
AcDbEntity
  8
0
100
AcDbBlockBegin
  2
*D3
 70
     1
 10
0.0
 20
0.0
 30
0.0
  3
*D3
  1

  0
LINE
  5
3E35
330
3E32
100
AcDbEntity
  8
DIM
 62
     0
370
    -2
100
AcDbLine
 10
342.3845966829192
 20
647.9305775075987
 30
0.0
 11
342.3845966829192
 21
479.5332462492401
 31
0.0
  0
LINE
  5
3E36
330
3E32
100
AcDbEntity
  8
DIM
 62
     0
370
    -2
100
AcDbLine
 10
493.9322422228568
 20
647.9305775075987
 30
0.0
 11
493.9322422228568
 21
479.5332462492401
 31
0.0
  0
LINE
  5
3E37
330
3E32
100
AcDbEntity
  8
DIM
 62
     0
370
    -2
100
AcDbLine
 10
346.3845966829192
 20
479.5332462492401
 30
0.0
 11
489.9322422228568
 21
479.5332462492401
 31
0.0
  0
INSERT
  5
3E38
330
3E32
100
AcDbEntity
  8
DIM
 62
     0
370
    -2
100
AcDbBlockReference
  2
_DOT
 10
342.3845966829192
 20
479.5332462492401
 30
0.0
 41
4.0
 42
4.0
 43
4.0
 50
180.0
  0
INSERT
  5
3E39
330
3E32
100
AcDbEntity
  8
DIM
 62
     0
370
    -2
100
AcDbBlockReference
  2
_DOT
 10
493.9322422228568
 20
479.5332462492401
 30
0.0
 41
4.0
 42
4.0
 43
4.0
  0
MTEXT
  5
3E3A
330
3E32
100
AcDbEntity
  8
DIM
 62
     0
100
AcDbMText
 10
418.158419452888
 20
488.5332462492401
 30
0.0
 40
10.0
 41
0.0
 46
0.0
 71
     5
 72
     1
  1
\A1;152
  7
ＭＳ ゴシック
 73
     1
 44
1.0
  0
POINT
  5
3E3B
330
3E32
100
AcDbEntity
  8
Defpoints
 62
     0
100
AcDbPoint
 10
342.3845966829192
 20
652.9305775075987
 30
0.0
  0
POINT
  5
3E3C
330
3E32
100
AcDbEntity
  8
Defpoints
 62
     0
100
AcDbPoint
 10
493.9322422228568
 20
652.9305775075987
 30
0.0
  0
POINT
  5
3E3D
330
3E32
100
AcDbEntity
  8
Defpoints
 62
     0
100
AcDbPoint
 10
493.9322422228568
 20
479.5332462492401
 30
0.0
  0
ENDBLK
  5
3E34
330
3E32
100
AcDbEntity
  8
0
100
AcDbBlockEnd
  0
BLOCK
  5
4BBF
330
4BBE
100
AcDbEntity
  8
0
100
AcDbBlockBegin
  2
*D4
 70
     1
 10
0.0
 20
0.0
 30
0.0
  3
*D4
  1

  0
LINE
  5
4BC1
330
4BBE
100
AcDbEntity
  8
MODEL
 62
     0
370
    -2
100
AcDbLine
 10
281.8954177642984
 20
1065.099949249595
 30
0.0
 11
281.8954177642984
 21
1104.117811550152
 31
0.0
  0
LINE
  5
4BC2
330
4BBE
100
AcDbEntity
  8
MODEL
 62
     0
370
    -2
100
AcDbLine
 10
681.8954177640655
 20
1065.099949249595
 30
0.0
 11
681.8954177640655
 21
1104.117811550152
 31
0.0
  0
LINE
  5
4BC3
330
4BBE
100
AcDbEntity
  8
MODEL
 62
     0
370
    -2
100
AcDbLine
 10
285.8954177642984
 20
1104.117811550152
 30
0.0
 11
677.8954177640655
 21
1104.117811550152
 31
0.0
  0
INSERT
  5
4BC4
330
4BBE
100
AcDbEntity
  8
MODEL
 62
     0
370
    -2
100
AcDbBlockReference
  2
_DOT
 10
281.8954177642984
 20
1104.117811550152
 30
0.0
 41
4.0
 42
4.0
 43
4.0
 50
180.0
  0
INSERT
  5
4BC5
330
4BBE
100
AcDbEntity
  8
MODEL
 62
     0
370
    -2
100
AcDbBlockReference
  2
_DOT
 10
681.8954177640655
 20
1104.117811550152
 30
0.0
 41
4.0
 42
4.0
 43
4.0
  0
MTEXT
  5
4BC6
330
4BBE
100
AcDbEntity
  8
MODEL
 62
     0
100
AcDbMText
 10
481.895417764182
 20
1113.117811550152
 30
0.0
 40
10.0
 41
0.0
 46
0.0
 71
     5
 72
     1
  1
\A1;400
  7
ＭＳ ゴシック
 73
     1
 44
1.0
  0
POINT
  5
4BC7
330
4BBE
100
AcDbEntity
  8
Defpoints
 62
     0
100
AcDbPoint
 10
281.8954177642984
 20
1060.099949249595
 30
0.0
  0
POINT
  5
4BC8
330
4BBE
100
AcDbEntity
  8
Defpoints
 62
     0
100
AcDbPoint
 10
681.8954177640655
 20
1060.099949249595
 30
0.0
  0
POINT
  5
4BC9
330
4BBE
100
AcDbEntity
  8
Defpoints
 62
     0
100
AcDbPoint
 10
681.8954177640655
 20
1104.117811550152
 30
0.0
  0
ENDBLK
  5
4BC0
330
4BBE
100
AcDbEntity
  8
0
100
AcDbBlockEnd
  0
BLOCK
  5
4BCF
330
4BCE
100
AcDbEntity
  8
0
100
AcDbBlockBegin
  2
*D5
 70
     1
 10
0.0
 20
0.0
 30
0.0
  3
*D5
  1

  0
LINE
  5
4BD1
330
4BCE
100
AcDbEntity
  8
DIM
 62
     0
370
    -2
100
AcDbLine
 10
326.0933508949975
 20
1078.939535875735
 30
0.0
 11
326.0933508949975
 21
1096.251758064438
 31
0.0
  0
LINE
  5
4BD2
330
4BCE
100
AcDbEntity
  8
DIM
 62
     0
370
    -2
100
AcDbLine
 10
726.0933508947646
 20
1078.939535875735
 30
0.0
 11
726.0933508947646
 21
1096.251758064438
 31
0.0
  0
LINE
  5
4BD3
330
4BCE
100
AcDbEntity
  8
DIM
 62
     0
370
    -2
100
AcDbLine
 10
330.0933508949975
 20
1096.251758064438
 30
0.0
 11
722.0933508947646
 21
1096.251758064438
 31
0.0
  0
INSERT
  5
4BD4
330
4BCE
100
AcDbEntity
  8
DIM
 62
     0
370
    -2
100
AcDbBlockReference
  2
_DOT
 10
326.0933508949975
 20
1096.251758064438
 30
0.0
 41
4.0
 42
4.0
 43
4.0
 50
180.0
  0
INSERT
  5
4BD5
330
4BCE
100
AcDbEntity
  8
DIM
 62
     0
370
    -2
100
AcDbBlockReference
  2
_DOT
 10
726.0933508947646
 20
1096.251758064438
 30
0.0
 41
4.0
 42
4.0
 43
4.0
  0
MTEXT
  5
4BD6
330
4BCE
100
AcDbEntity
  8
DIM
 62
     0
100
AcDbMText
 10
526.0933508948812
 20
1105.251758064438
 30
0.0
 40
10.0
 41
0.0
 46
0.0
 71
     5
 72
     1
  1
\A1;400
  7
ＭＳ ゴシック
 73
     1
 44
1.0
  0
POINT
  5
4BD7
330
4BCE
100
AcDbEntity
  8
Defpoints
 62
     0
100
AcDbPoint
 10
326.0933508949975
 20
1068.939535875735
 30
0.0
  0
POINT
  5
4BD8
330
4BCE
100
AcDbEntity
  8
Defpoints
 62
     0
100
AcDbPoint
 10
726.0933508947646
 20
1068.939535875735
 30
0.0
  0
POINT
  5
4BD9
330
4BCE
100
AcDbEntity
  8
Defpoints
 62
     0
100
AcDbPoint
 10
726.0933508947646
 20
1096.251758064438
 30
0.0
  0
ENDBLK
  5
4BD0
330
4BCE
100
AcDbEntity
  8
0
100
AcDbBlockEnd
  0
BLOCK
  5
4BDE
330
4BDD
100
AcDbEntity
  8
0
100
AcDbBlockBegin
  2
*D6
 70
     1
 10
0.0
 20
0.0
 30
0.0
  3
*D6
  1

  0
LINE
  5
4BE0
330
4BDD
100
AcDbEntity
  8
DIM
 62
     0
370
    -2
100
AcDbLine
 10
160.0933508949976
 20
912.9395358757641
 30
0.0
 11
132.7134346504561
 21
912.9395358757641
 31
0.0
  0
LINE
  5
4BE1
330
4BDD
100
AcDbEntity
  8
DIM
 62
     0
370
    -2
100
AcDbLine
 10
160.0933508949976
 20
512.9395358758223
 30
0.0
 11
132.7134346504561
 21
512.9395358758223
 31
0.0
  0
LINE
  5
4BE2
330
4BDD
100
AcDbEntity
  8
DIM
 62
     0
370
    -2
100
AcDbLine
 10
132.7134346504561
 20
908.9395358757641
 30
0.0
 11
132.7134346504561
 21
516.9395358758223
 31
0.0
  0
INSERT
  5
4BE3
330
4BDD
100
AcDbEntity
  8
DIM
 62
     0
370
    -2
100
AcDbBlockReference
  2
_DOT
 10
132.7134346504561
 20
912.9395358757641
 30
0.0
 41
4.0
 42
4.0
 43
4.0
 50
90.0
  0
INSERT
  5
4BE4
330
4BDD
100
AcDbEntity
  8
DIM
 62
     0
370
    -2
100
AcDbBlockReference
  2
_DOT
 10
132.7134346504561
 20
512.9395358758223
 30
0.0
 41
4.0
 42
4.0
 43
4.0
 50
270.0
  0
MTEXT
  5
4BE5
330
4BDD
100
AcDbEntity
  8
DIM
 62
     0
100
AcDbMText
 10
123.7134346504561
 20
712.9395358757932
 30
0.0
 40
10.0
 41
0.0
 46
0.0
 71
     5
 72
     1
  1
\A1;600
  7
ＭＳ ゴシック
 11
7.105427357602036E-17
 21
1.0
 31
0.0
 73
     1
 44
1.0
  0
POINT
  5
4BE6
330
4BDD
100
AcDbEntity
  8
Defpoints
 62
     0
100
AcDbPoint
 10
170.0933508949976
 20
912.9395358757641
 30
0.0
  0
POINT
  5
4BE7
330
4BDD
100
AcDbEntity
  8
Defpoints
 62
     0
100
AcDbPoint
 10
170.0933508949976
 20
512.9395358758223
 30
0.0
  0
POINT
  5
4BE8
330
4BDD
100
AcDbEntity
  8
Defpoints
 62
     0
100
AcDbPoint
 10
132.7134346504561
 20
512.9395358758223
 30
0.0
  0
ENDBLK
  5
4BDF
330
4BDD
100
AcDbEntity
  8
0
100
AcDbBlockEnd
  0
BLOCK
  5
4BED
330
4BEC
100
AcDbEntity
  8
0
100
AcDbBlockBegin
  2
*D7
 70
     1
 10
0.0
 20
0.0
 30
0.0
  3
*D7
  1

  0
LINE
  5
4BEF
330
4BEC
100
AcDbEntity
  8
DIM
 62
     0
370
    -2
100
AcDbLine
 10
767.0933508947646
 20
1078.939535875735
 30
0.0
 11
767.0933508947646
 21
1131.855255771429
 31
0.0
  0
LINE
  5
4BF0
330
4BEC
100
AcDbEntity
  8
DIM
 62
     0
370
    -2
100
AcDbLine
 10
170.0933508949977
 20
1078.939535875735
 30
0.0
 11
170.0933508949977
 21
1131.855255771429
 31
0.0
  0
LINE
  5
4BF1
330
4BEC
100
AcDbEntity
  8
DIM
 62
     0
370
    -2
100
AcDbLine
 10
763.0933508947646
 20
1131.855255771429
 30
0.0
 11
174.0933508949977
 21
1131.855255771429
 31
0.0
  0
INSERT
  5
4BF2
330
4BEC
100
AcDbEntity
  8
DIM
 62
     0
370
    -2
100
AcDbBlockReference
  2
_DOT
 10
767.0933508947646
 20
1131.855255771429
 30
0.0
 41
4.0
 42
4.0
 43
4.0
  0
INSERT
  5
4BF3
330
4BEC
100
AcDbEntity
  8
DIM
 62
     0
370
    -2
100
AcDbBlockReference
  2
_DOT
 10
170.0933508949977
 20
1131.855255771429
 30
0.0
 41
4.0
 42
4.0
 43
4.0
 50
180.0
  0
MTEXT
  5
4BF4
330
4BEC
100
AcDbEntity
  8
DIM
 62
     0
100
AcDbMText
 10
468.5933508948813
 20
1140.855255771429
 30
0.0
 40
10.0
 41
0.0
 46
0.0
 71
     5
 72
     1
  1
\A1;597
  7
ＭＳ ゴシック
 73
     1
 44
1.0
  0
POINT
  5
4BF5
330
4BEC
100
AcDbEntity
  8
Defpoints
 62
     0
100
AcDbPoint
 10
767.0933508947646
 20
1068.939535875735
 30
0.0
  0
POINT
  5
4BF6
330
4BEC
100
AcDbEntity
  8
Defpoints
 62
     0
100
AcDbPoint
 10
170.0933508949977
 20
1068.939535875735
 30
0.0
  0
POINT
  5
4BF7
330
4BEC
100
AcDbEntity
  8
Defpoints
 62
     0
100
AcDbPoint
 10
170.0933508949977
 20
1131.855255771429
 30
0.0
  0
ENDBLK
  5
4BEE
330
4BEC
100
AcDbEntity
  8
0
100
AcDbBlockEnd
  0
BLOCK
  5
4BFC
330
4BFB
100
AcDbEntity
  8
0
100
AcDbBlockBegin
  2
*D8
 70
     1
 10
0.0
 20
0.0
 30
0.0
  3
*D8
  1

  0
LINE
  5
4BFE
330
4BFB
100
AcDbEntity
  8
DIM
 62
     0
370
    -2
100
AcDbLine
 10
160.0933508949975
 20
471.9395358758223
 30
0.0
 11
86.92437592705183
 21
471.9395358758223
 31
0.0
  0
LINE
  5
4BFF
330
4BFB
100
AcDbEntity
  8
DIM
 62
     0
370
    -2
100
AcDbLine
 10
160.0933508949977
 20
1068.939535875735
 30
0.0
 11
86.92437592705187
 21
1068.939535875735
 31
0.0
  0
LINE
  5
4C00
330
4BFB
100
AcDbEntity
  8
DIM
 62
     0
370
    -2
100
AcDbLine
 10
86.92437592705183
 20
475.9395358758223
 30
0.0
 11
86.92437592705187
 21
1064.939535875735
 31
0.0
  0
INSERT
  5
4C01
330
4BFB
100
AcDbEntity
  8
DIM
 62
     0
370
    -2
100
AcDbBlockReference
  2
_DOT
 10
86.92437592705183
 20
471.9395358758223
 30
0.0
 41
4.0
 42
4.0
 43
4.0
 50
270.0
  0
INSERT
  5
4C02
330
4BFB
100
AcDbEntity
  8
DIM
 62
     0
370
    -2
100
AcDbBlockReference
  2
_DOT
 10
86.92437592705187
 20
1068.939535875735
 30
0.0
 41
4.0
 42
4.0
 43
4.0
 50
90.0
  0
MTEXT
  5
4C03
330
4BFB
100
AcDbEntity
  8
DIM
 62
     0
100
AcDbMText
 10
77.92437592705184
 20
770.4395358757788
 30
0.0
 40
10.0
 41
0.0
 46
0.0
 71
     5
 72
     1
  1
\A1;797
  7
ＭＳ ゴシック
 11
7.141133022715618E-17
 21
1.0
 31
0.0
 73
     1
 44
1.0
  0
POINT
  5
4C04
330
4BFB
100
AcDbEntity
  8
Defpoints
 62
     0
100
AcDbPoint
 10
170.0933508949975
 20
471.9395358758223
 30
0.0
  0
POINT
  5
4C05
330
4BFB
100
AcDbEntity
  8
Defpoints
 62
     0
100
AcDbPoint
 10
170.0933508949977
 20
1068.939535875735
 30
0.0
  0
POINT
  5
4C06
330
4BFB
100
AcDbEntity
  8
Defpoints
 62
     0
100
AcDbPoint
 10
86.92437592705187
 20
1068.939535875735
 30
0.0
  0
ENDBLK
  5
4BFD
330
4BFB
100
AcDbEntity
  8
0
100
AcDbBlockEnd
  0
BLOCK
  5
4C0B
330
4C0A
100
AcDbEntity
  8
0
100
AcDbBlockBegin
  2
*D9
 70
     1
 10
0.0
 20
0.0
 30
0.0
  3
*D9
  1

  0
LINE
  5
4C0D
330
4C0A
100
AcDbEntity
  8
DIM
 62
     0
370
    -2
100
AcDbLine
 10
170.0933508949975
 20
442.7583978601826
 30
0.0
 11
170.0933508949975
 21
422.1693075007811
 31
0.0
  0
LINE
  5
4C0E
330
4C0A
100
AcDbEntity
  8
DIM
 62
     0
370
    -2
100
AcDbLine
 10
260.0933508949976
 20
480.9395358757932
 30
0.0
 11
260.0933508949976
 21
422.1693075007811
 31
0.0
  0
LINE
  5
4C0F
330
4C0A
100
AcDbEntity
  8
DIM
 62
     0
370
    -2
100
AcDbLine
 10
174.0933508949975
 20
422.1693075007811
 30
0.0
 11
256.0933508949976
 21
422.1693075007811
 31
0.0
  0
INSERT
  5
4C10
330
4C0A
100
AcDbEntity
  8
DIM
 62
     0
370
    -2
100
AcDbBlockReference
  2
_DOT
 10
170.0933508949975
 20
422.1693075007811
 30
0.0
 41
4.0
 42
4.0
 43
4.0
 50
180.0
  0
INSERT
  5
4C11
330
4C0A
100
AcDbEntity
  8
DIM
 62
     0
370
    -2
100
AcDbBlockReference
  2
_DOT
 10
260.0933508949976
 20
422.1693075007811
 30
0.0
 41
4.0
 42
4.0
 43
4.0
  0
MTEXT
  5
4C12
330
4C0A
100
AcDbEntity
  8
DIM
 62
     0
100
AcDbMText
 10
215.0933508949976
 20
431.1693075007811
 30
0.0
 40
10.0
 41
0.0
 46
0.0
 71
     5
 72
     1
  1
\A1;90
  7
ＭＳ ゴシック
 73
     1
 44
1.0
  0
POINT
  5
4C13
330
4C0A
100
AcDbEntity
  8
Defpoints
 62
     0
100
AcDbPoint
 10
170.0933508949975
 20
452.7583978601826
 30
0.0
  0
POINT
  5
4C14
330
4C0A
100
AcDbEntity
  8
Defpoints
 62
     0
100
AcDbPoint
 10
260.0933508949976
 20
490.9395358757932
 30
0.0
  0
POINT
  5
4C15
330
4C0A
100
AcDbEntity
  8
Defpoints
 62
     0
100
AcDbPoint
 10
260.0933508949976
 20
422.1693075007811
 30
0.0
  0
ENDBLK
  5
4C0C
330
4C0A
100
AcDbEntity
  8
0
100
AcDbBlockEnd
  0
BLOCK
  5
4C1A
330
4C19
100
AcDbEntity
  8
0
100
AcDbBlockBegin
  2
*D10
 70
     1
 10
0.0
 20
0.0
 30
0.0
  3
*D10
  1

  0
LINE
  5
4C1C
330
4C19
100
AcDbEntity
  8
DIM
 62
     0
370
    -2
100
AcDbLine
 10
753.0933508949976
 20
952.5356939304459
 30
0.0
 11
784.0395174127657
 21
952.5356939304459
 31
0.0
  0
LINE
  5
4C1D
330
4C19
100
AcDbEntity
  8
DIM
 62
     0
370
    -2
100
AcDbLine
 10
753.0933508949976
 20
918.535693930504
 30
0.0
 11
784.0395174127657
 21
918.535693930504
 31
0.0
  0
LINE
  5
4C1E
330
4C19
100
AcDbEntity
  8
DIM
 62
     0
370
    -2
100
AcDbLine
 10
784.0395174127657
 20
948.5356939304459
 30
0.0
 11
784.0395174127657
 21
922.535693930504
 31
0.0
  0
INSERT
  5
4C1F
330
4C19
100
AcDbEntity
  8
DIM
 62
     0
370
    -2
100
AcDbBlockReference
  2
_DOT
 10
784.0395174127657
 20
952.5356939304459
 30
0.0
 41
4.0
 42
4.0
 43
4.0
 50
90.0
  0
INSERT
  5
4C20
330
4C19
100
AcDbEntity
  8
DIM
 62
     0
370
    -2
100
AcDbBlockReference
  2
_DOT
 10
784.0395174127657
 20
918.535693930504
 30
0.0
 41
4.0
 42
4.0
 43
4.0
 50
270.0
  0
MTEXT
  5
4C21
330
4C19
100
AcDbEntity
  8
DIM
 62
     0
100
AcDbMText
 10
775.0395174127657
 20
935.535693930475
 30
0.0
 40
10.0
 41
0.0
 46
0.0
 71
     5
 72
     1
  1
\A1;34
  7
ＭＳ ゴシック
 11
0.0
 21
1.0
 31
0.0
 73
     1
 44
1.0
  0
POINT
  5
4C22
330
4C19
100
AcDbEntity
  8
Defpoints
 62
     0
100
AcDbPoint
 10
748.0933508949976
 20
952.5356939304459
 30
0.0
  0
POINT
  5
4C23
330
4C19
100
AcDbEntity
  8
Defpoints
 62
     0
100
AcDbPoint
 10
748.0933508949976
 20
918.535693930504
 30
0.0
  0
POINT
  5
4C24
330
4C19
100
AcDbEntity
  8
Defpoints
 62
     0
100
AcDbPoint
 10
784.0395174127657
 20
918.535693930504
 30
0.0
  0
ENDBLK
  5
4C1B
330
4C19
100
AcDbEntity
  8
0
100
AcDbBlockEnd
  0
BLOCK
  5
4C9E
330
4C9D
100
AcDbEntity
  8
0
100
AcDbBlockBegin
  2
*D11
 70
     1
 10
0.0
 20
0.0
 30
0.0
  3
*D11
  1

  0
LINE
  5
4CA0
330
4C9D
100
AcDbEntity
  8
DIM
 62
     0
370
    -2
100
AcDbLine
 10
177.7840593313069
 20
1068.939535875735
 30
0.0
 11
142.5253758054711
 21
1068.939535875735
 31
0.0
  0
LINE
  5
4CA1
330
4C9D
100
AcDbEntity
  8
DIM
 62
     0
370
    -2
100
AcDbLine
 10
160.0933508949977
 20
953.9395358757641
 30
0.0
 11
142.5253758054711
 21
953.9395358757641
 31
0.0
  0
LINE
  5
4CA2
330
4C9D
100
AcDbEntity
  8
DIM
 62
     0
370
    -2
100
AcDbLine
 10
142.5253758054711
 20
1064.939535875735
 30
0.0
 11
142.5253758054711
 21
957.9395358757641
 31
0.0
  0
INSERT
  5
4CA3
330
4C9D
100
AcDbEntity
  8
DIM
 62
     0
370
    -2
100
AcDbBlockReference
  2
_DOT
 10
142.5253758054711
 20
1068.939535875735
 30
0.0
 41
4.0
 42
4.0
 43
4.0
 50
90.0
  0
INSERT
  5
4CA4
330
4C9D
100
AcDbEntity
  8
DIM
 62
     0
370
    -2
100
AcDbBlockReference
  2
_DOT
 10
142.5253758054711
 20
953.9395358757641
 30
0.0
 41
4.0
 42
4.0
 43
4.0
 50
270.0
  0
MTEXT
  5
4CA5
330
4C9D
100
AcDbEntity
  8
DIM
 62
     0
100
AcDbMText
 10
133.5253758054711
 20
1011.43953587575
 30
0.0
 40
10.0
 41
0.0
 46
0.0
 71
     5
 72
     1
  1
\A1;115
  7
ＭＳ ゴシック
 11
0.0
 21
1.0
 31
0.0
 73
     1
 44
1.0
  0
POINT
  5
4CA6
330
4C9D
100
AcDbEntity
  8
Defpoints
 62
     0
100
AcDbPoint
 10
187.7840593313069
 20
1068.939535875735
 30
0.0
  0
POINT
  5
4CA7
330
4C9D
100
AcDbEntity
  8
Defpoints
 62
     0
100
AcDbPoint
 10
170.0933508949977
 20
953.9395358757641
 30
0.0
  0
POINT
  5
4CA8
330
4C9D
100
AcDbEntity
  8
Defpoints
 62
     0
100
AcDbPoint
 10
142.5253758054711
 20
953.9395358757641
 30
0.0
  0
ENDBLK
  5
4C9F
330
4C9D
100
AcDbEntity
  8
0
100
AcDbBlockEnd
  0
BLOCK
  5
4CAD
330
4CAC
100
AcDbEntity
  8
0
100
AcDbBlockBegin
  2
*D12
 70
     1
 10
0.0
 20
0.0
 30
0.0
  3
*D12
  1

  0
LINE
  5
4CAF
330
4CAC
100
AcDbEntity
  8
DIM
 62
     0
370
    -2
100
AcDbLine
 10
150.0933508949977
 20
953.9395358757641
 30
0.0
 11
132.7134346504561
 21
953.9395358757641
 31
0.0
  0
LINE
  5
4CB0
330
4CAC
100
AcDbEntity
  8
DIM
 62
     0
370
    -2
100
AcDbLine
 10
150.0933508949976
 20
912.9395358757641
 30
0.0
 11
132.7134346504561
 21
912.9395358757641
 31
0.0
  0
LINE
  5
4CB1
330
4CAC
100
AcDbEntity
  8
DIM
 62
     0
370
    -2
100
AcDbLine
 10
132.7134346504561
 20
949.9395358757641
 30
0.0
 11
132.7134346504561
 21
916.9395358757641
 31
0.0
  0
INSERT
  5
4CB2
330
4CAC
100
AcDbEntity
  8
DIM
 62
     0
370
    -2
100
AcDbBlockReference
  2
_DOT
 10
132.7134346504561
 20
953.9395358757641
 30
0.0
 41
4.0
 42
4.0
 43
4.0
 50
90.0
  0
INSERT
  5
4CB3
330
4CAC
100
AcDbEntity
  8
DIM
 62
     0
370
    -2
100
AcDbBlockReference
  2
_DOT
 10
132.7134346504561
 20
912.9395358757641
 30
0.0
 41
4.0
 42
4.0
 43
4.0
 50
270.0
  0
MTEXT
  5
4CB4
330
4CAC
100
AcDbEntity
  8
DIM
 62
     0
100
AcDbMText
 10
123.7134346504561
 20
933.4395358757641
 30
0.0
 40
10.0
 41
0.0
 46
0.0
 71
     5
 72
     1
  1
\A1;41
  7
ＭＳ ゴシック
 11
0.0
 21
1.0
 31
0.0
 73
     1
 44
1.0
  0
POINT
  5
4CB5
330
4CAC
100
AcDbEntity
  8
Defpoints
 62
     0
100
AcDbPoint
 10
160.0933508949977
 20
953.9395358757641
 30
0.0
  0
POINT
  5
4CB6
330
4CAC
100
AcDbEntity
  8
Defpoints
 62
     0
100
AcDbPoint
 10
160.0933508949976
 20
912.9395358757641
 30
0.0
  0
POINT
  5
4CB7
330
4CAC
100
AcDbEntity
  8
Defpoints
 62
     0
100
AcDbPoint
 10
132.7134346504561
 20
912.9395358757641
 30
0.0
  0
ENDBLK
  5
4CAE
330
4CAC
100
AcDbEntity
  8
0
100
AcDbBlockEnd
  0
BLOCK
  5
4CBC
330
4CBB
100
AcDbEntity
  8
0
100
AcDbBlockBegin
  2
*D13
 70
     1
 10
0.0
 20
0.0
 30
0.0
  3
*D13
  1

  0
LINE
  5
4CBE
330
4CBB
100
AcDbEntity
  8
DIM
 62
     0
370
    -2
100
AcDbLine
 10
275.0933508949975
 20
1058.939535875735
 30
0.0
 11
-86.59670954407315
 21
1058.939535875735
 31
0.0
  0
LINE
  5
4CBF
330
4CBB
100
AcDbEntity
  8
DIM
 62
     0
370
    -2
100
AcDbLine
 10
144.7829359270515
 20
512.9395358758223
 30
0.0
 11
-86.59670954407318
 21
512.9395358758223
 31
0.0
  0
LINE
  5
4CC0
330
4CBB
100
AcDbEntity
  8
DIM
 62
     0
370
    -2
100
AcDbLine
 10
-86.59670954407315
 20
1054.939535875735
 30
0.0
 11
-86.59670954407318
 21
516.9395358758223
 31
0.0
  0
INSERT
  5
4CC1
330
4CBB
100
AcDbEntity
  8
DIM
 62
     0
370
    -2
100
AcDbBlockReference
  2
_DOT
 10
-86.59670954407315
 20
1058.939535875735
 30
0.0
 41
4.0
 42
4.0
 43
4.0
 50
90.0
  0
INSERT
  5
4CC2
330
4CBB
100
AcDbEntity
  8
DIM
 62
     0
370
    -2
100
AcDbBlockReference
  2
_DOT
 10
-86.59670954407318
 20
512.9395358758223
 30
0.0
 41
4.0
 42
4.0
 43
4.0
 50
270.0
  0
MTEXT
  5
4CC3
330
4CBB
100
AcDbEntity
  8
DIM
 62
     0
100
AcDbMText
 10
-95.59670954407316
 20
785.9395358757786
 30
0.0
 40
10.0
 41
0.0
 46
0.0
 71
     5
 72
     1
  1
\A1;546
  7
ＭＳ ゴシック
 11
5.205441287620615E-17
 21
1.0
 31
0.0
 73
     1
 44
1.0
  0
POINT
  5
4CC4
330
4CBB
100
AcDbEntity
  8
Defpoints
 62
     0
100
AcDbPoint
 10
285.0933508949975
 20
1058.939535875735
 30
0.0
  0
POINT
  5
4CC5
330
4CBB
100
AcDbEntity
  8
Defpoints
 62
     0
100
AcDbPoint
 10
154.7829359270515
 20
512.9395358758223
 30
0.0
  0
POINT
  5
4CC6
330
4CBB
100
AcDbEntity
  8
Defpoints
 62
     0
100
AcDbPoint
 10
-86.59670954407318
 20
512.9395358758223
 30
0.0
  0
ENDBLK
  5
4CBD
330
4CBB
100
AcDbEntity
  8
0
100
AcDbBlockEnd
  0
BLOCK
  5
4CCB
330
4CCA
100
AcDbEntity
  8
0
100
AcDbBlockBegin
  2
*D14
 70
     1
 10
0.0
 20
0.0
 30
0.0
  3
*D14
  1

  0
LINE
  5
4CCD
330
4CCA
100
AcDbEntity
  8
DIM
 62
     0
370
    -2
100
AcDbLine
 10
150.0933508949975
 20
471.9395358758223
 30
0.0
 11
-19.59877169799418
 21
471.9395358758223
 31
0.0
  0
LINE
  5
4CCE
330
4CCA
100
AcDbEntity
  8
DIM
 62
     0
370
    -2
100
AcDbLine
 10
150.0933508949976
 20
912.9395358757641
 30
0.0
 11
-19.59877169799415
 21
912.9395358757641
 31
0.0
  0
LINE
  5
4CCF
330
4CCA
100
AcDbEntity
  8
DIM
 62
     0
370
    -2
100
AcDbLine
 10
-19.59877169799418
 20
475.9395358758223
 30
0.0
 11
-19.59877169799415
 21
908.9395358757641
 31
0.0
  0
INSERT
  5
4CD0
330
4CCA
100
AcDbEntity
  8
DIM
 62
     0
370
    -2
100
AcDbBlockReference
  2
_DOT
 10
-19.59877169799418
 20
471.9395358758223
 30
0.0
 41
4.0
 42
4.0
 43
4.0
 50
270.0
  0
INSERT
  5
4CD1
330
4CCA
100
AcDbEntity
  8
DIM
 62
     0
370
    -2
100
AcDbBlockReference
  2
_DOT
 10
-19.59877169799415
 20
912.9395358757641
 30
0.0
 41
4.0
 42
4.0
 43
4.0
 50
90.0
  0
MTEXT
  5
4CD2
330
4CCA
100
AcDbEntity
  8
DIM
 62
     0
100
AcDbMText
 10
-28.59877169799416
 20
692.4395358757932
 30
0.0
 40
10.0
 41
0.0
 46
0.0
 71
     5
 72
     1
  1
\A1;441
  7
ＭＳ ゴシック
 11
6.444832070387247E-17
 21
1.0
 31
0.0
 73
     1
 44
1.0
  0
POINT
  5
4CD3
330
4CCA
100
AcDbEntity
  8
Defpoints
 62
     0
100
AcDbPoint
 10
160.0933508949975
 20
471.9395358758223
 30
0.0
  0
POINT
  5
4CD4
330
4CCA
100
AcDbEntity
  8
Defpoints
 62
     0
100
AcDbPoint
 10
160.0933508949976
 20
912.9395358757641
 30
0.0
  0
POINT
  5
4CD5
330
4CCA
100
AcDbEntity
  8
Defpoints
 62
     0
100
AcDbPoint
 10
-19.59877169799415
 20
912.9395358757641
 30
0.0
  0
ENDBLK
  5
4CCC
330
4CCA
100
AcDbEntity
  8
0
100
AcDbBlockEnd
  0
BLOCK
  5
4CDA
330
4CD9
100
AcDbEntity
  8
0
100
AcDbBlockBegin
  2
*D15
 70
     1
 10
0.0
 20
0.0
 30
0.0
  3
*D15
  1

  0
LINE
  5
4CDC
330
4CD9
100
AcDbEntity
  8
DIM
 62
     0
370
    -2
100
AcDbLine
 10
150.0933508949976
 20
912.9395358757641
 30
0.0
 11
132.7134346504561
 21
912.9395358757641
 31
0.0
  0
LINE
  5
4CDD
330
4CD9
100
AcDbEntity
  8
DIM
 62
     0
370
    -2
100
AcDbLine
 10
178.1887684849664
 20
1066.388705018009
 30
0.0
 11
132.7134346504561
 21
1066.388705018009
 31
0.0
  0
LINE
  5
4CDE
330
4CD9
100
AcDbEntity
  8
DIM
 62
     0
370
    -2
100
AcDbLine
 10
132.7134346504561
 20
916.9395358757641
 30
0.0
 11
132.7134346504561
 21
1062.388705018009
 31
0.0
  0
INSERT
  5
4CDF
330
4CD9
100
AcDbEntity
  8
DIM
 62
     0
370
    -2
100
AcDbBlockReference
  2
_DOT
 10
132.7134346504561
 20
912.9395358757641
 30
0.0
 41
4.0
 42
4.0
 43
4.0
 50
270.0
  0
INSERT
  5
4CE0
330
4CD9
100
AcDbEntity
  8
DIM
 62
     0
370
    -2
100
AcDbBlockReference
  2
_DOT
 10
132.7134346504561
 20
1066.388705018009
 30
0.0
 41
4.0
 42
4.0
 43
4.0
 50
90.0
  0
MTEXT
  5
4CE1
330
4CD9
100
AcDbEntity
  8
DIM
 62
     0
100
AcDbMText
 10
123.7134346504561
 20
989.6641204468865
 30
0.0
 40
10.0
 41
0.0
 46
0.0
 71
     5
 72
     1
  1
\A1;153
  7
ＭＳ ゴシック
 11
0.0
 21
1.0
 31
0.0
 73
     1
 44
1.0
  0
POINT
  5
4CE2
330
4CD9
100
AcDbEntity
  8
Defpoints
 62
     0
100
AcDbPoint
 10
160.0933508949976
 20
912.9395358757641
 30
0.0
  0
POINT
  5
4CE3
330
4CD9
100
AcDbEntity
  8
Defpoints
 62
     0
100
AcDbPoint
 10
188.1887684849664
 20
1066.388705018009
 30
0.0
  0
POINT
  5
4CE4
330
4CD9
100
AcDbEntity
  8
Defpoints
 62
     0
100
AcDbPoint
 10
132.7134346504561
 20
1066.388705018009
 30
0.0
  0
ENDBLK
  5
4CDB
330
4CD9
100
AcDbEntity
  8
0
100
AcDbBlockEnd
  0
BLOCK
  5
4CE9
330
4CE8
100
AcDbEntity
  8
0
100
AcDbBlockBegin
  2
*D16
 70
     1
 10
0.0
 20
0.0
 30
0.0
  3
*D16
  1

  0
LINE
  5
4CEB
330
4CE8
100
AcDbEntity
  8
DIM
 62
     0
370
    -2
100
AcDbLine
 10
150.0933508949976
 20
912.9395358757641
 30
0.0
 11
132.7134346504561
 21
912.9395358757641
 31
0.0
  0
LINE
  5
4CEC
330
4CE8
100
AcDbEntity
  8
DIM
 62
     0
370
    -2
100
AcDbLine
 10
150.0933508949973
 20
1068.939535875764
 30
0.0
 11
132.7134346504561
 21
1068.939535875764
 31
0.0
  0
LINE
  5
4CED
330
4CE8
100
AcDbEntity
  8
DIM
 62
     0
370
    -2
100
AcDbLine
 10
132.7134346504561
 20
916.9395358757641
 30
0.0
 11
132.7134346504561
 21
1064.939535875764
 31
0.0
  0
INSERT
  5
4CEE
330
4CE8
100
AcDbEntity
  8
DIM
 62
     0
370
    -2
100
AcDbBlockReference
  2
_DOT
 10
132.7134346504561
 20
912.9395358757641
 30
0.0
 41
4.0
 42
4.0
 43
4.0
 50
270.0
  0
INSERT
  5
4CEF
330
4CE8
100
AcDbEntity
  8
DIM
 62
     0
370
    -2
100
AcDbBlockReference
  2
_DOT
 10
132.7134346504561
 20
1068.939535875764
 30
0.0
 41
4.0
 42
4.0
 43
4.0
 50
90.0
  0
MTEXT
  5
4CF0
330
4CE8
100
AcDbEntity
  8
DIM
 62
     0
100
AcDbMText
 10
123.7134346504561
 20
990.9395358757642
 30
0.0
 40
10.0
 41
0.0
 46
0.0
 71
     5
 72
     1
  1
\A1;156
  7
ＭＳ ゴシック
 11
0.0
 21
1.0
 31
0.0
 73
     1
 44
1.0
  0
POINT
  5
4CF1
330
4CE8
100
AcDbEntity
  8
Defpoints
 62
     0
100
AcDbPoint
 10
160.0933508949976
 20
912.9395358757641
 30
0.0
  0
POINT
  5
4CF2
330
4CE8
100
AcDbEntity
  8
Defpoints
 62
     0
100
AcDbPoint
 10
160.0933508949973
 20
1068.939535875764
 30
0.0
  0
POINT
  5
4CF3
330
4CE8
100
AcDbEntity
  8
Defpoints
 62
     0
100
AcDbPoint
 10
132.7134346504561
 20
1068.939535875764
 30
0.0
  0
ENDBLK
  5
4CEA
330
4CE8
100
AcDbEntity
  8
0
100
AcDbBlockEnd
  0
ENDSEC
  0
SECTION
  2
ENTITIES
  0
MTEXT
  5
177
330
A
100
AcDbEntity
  8
TEMPLATE
390
1D
100
AcDbMText
 10
31.6808578190923
 20
137.4927006525713
 30
0.0
 40
6.51536458333333
 41
0.0
 46
0.0
 71
     1
 72
     1
  1
品名
  7
ＭＳ ゴシック
 73
     1
 44
0.7828267384257843
  0
MTEXT
  5
178
330
A
100
AcDbEntity
  8
TEMPLATE
390
1D
100
AcDbMText
 10
31.6808578190923
 20
103.4927006525712
 30
0.0
 40
6.51536458333333
 41
0.0
 46
0.0
 71
     1
 72
     1
  1
仕様
  7
ＭＳ ゴシック
 73
     1
 44
0.7828267384257843
  0
LINE
  5
179
330
A
100
AcDbEntity
  8
TEMPLATE
390
1D
100
AcDbLine
 10
808.8808578188992
 20
106.8586694025714
 30
0.0
 11
28.8808578188995
 21
106.8586694025714
 31
0.0
  0
LWPOLYLINE
  5
17A
330
A
100
AcDbEntity
  8
TEMPLATE
390
1D
100
AcDbPolyline
 90
        5
 70
   128
 43
0.0
 10
808.8808578188992
 20
1158.858669402571
 10
28.8808578188995
 20
1158.858669402571
 10
28.8808578188995
 20
38.8586694025713
 10
808.8808578188992
 20
38.8586694025713
 10
808.8808578188992
 20
1158.858669402571
  0
LINE
  5
17B
330
A
100
AcDbEntity
  8
TEMPLATE
390
1D
100
AcDbLine
 10
808.8808578188992
 20
140.8586694025713
 30
0.0
 11
28.8808578188995
 21
140.8586694025713
 31
0.0
  0
LINE
  5
17C
330
A
100
AcDbEntity
  8
TEMPLATE
390
1D
100
AcDbLine
 10
808.8808578190929
 20
72.8586694025713
 30
0.0
 11
507.680857819092
 21
72.8586694025713
 31
0.0
  0
MTEXT
  5
17E
330
A
100
AcDbEntity
  8
TEMPLATE
390
1D
100
AcDbMText
 10
519.6294203199964
 20
60.89451161324806
 30
0.0
 40
9.773046875
 41
0.0
 46
0.0
 71
     1
 72
     1
  1
大洋金物株式会社 ティーフォルム事業部
  7
ＭＳ ゴシック
 73
     1
 44
0.7828267384257843
  0
MTEXT
  5
180
330
A
100
AcDbEntity
  8
TEMPLATE
390
1D
100
AcDbMText
 10
732.480857819196
 20
92.05971627757128
 30
0.0
 40
9.773046875
 41
0.0
 46
9.773046875
 71
     1
 72
     1
  1
{1:4}
  7
ＭＳ ゴシック
 73
     1
 44
0.7828267384257843
1001
ACAD
1000
ACAD_MTEXT_DEFINED_HEIGHT_BEGIN
1070
    46
1040
9.773046875
1000
ACAD_MTEXT_DEFINED_HEIGHT_END
  0
MTEXT
  5
181
330
A
100
AcDbEntity
  8
TEMPLATE
390
1D
100
AcDbMText
 10
711.280857819196
 20
103.4927006525712
 30
0.0
 40
6.51536458333333
 41
0.0
 46
0.0
 71
     1
 72
     1
  1
縮尺
  7
ＭＳ ゴシック
 73
     1
 44
0.7828267384257843
  0
LINE
  5
182
330
A
100
AcDbEntity
  8
TEMPLATE
390
1D
100
AcDbLine
 10
708.480857819196
 20
72.8586694025713
 30
0.0
 11
708.480857819196
 21
106.8586694025714
 31
0.0
  0
MTEXT
  5
183
330
A
100
AcDbEntity
  8
TEMPLATE
390
1D
100
AcDbMText
 10
610.880857819196
 20
103.4927006525712
 30
0.0
 40
6.51536458333333
 41
0.0
 46
0.0
 71
     1
 72
     1
  1
容量
  7
ＭＳ ゴシック
 73
     1
 44
0.7828267384257843
  0
LINE
  5
184
330
A
100
AcDbEntity
  8
TEMPLATE
390
1D
100
AcDbLine
 10
608.080857819196
 20
72.8586694025713
 30
0.0
 11
608.080857819196
 21
106.8586694025714
 31
0.0
  0
MTEXT
  5
185
330
A
100
AcDbEntity
  8
TEMPLATE
390
1D
100
AcDbMText
 10
510.480857819196
 20
137.4927006525713
 30
0.0
 40
6.51536458333333
 41
0.0
 46
0.0
 71
     1
 72
     1
  1
品番
  7
ＭＳ ゴシック
 73
     1
 44
0.7828267384257843
  0
MTEXT
  5
186
330
A
100
AcDbEntity
  8
TEMPLATE
390
1D
100
AcDbMText
 10
510.480857819196
 20
103.4927006525712
 30
0.0
 40
6.51536458333333
 41
0.0
 46
0.0
 71
     1
 72
     1
  1
重量
  7
ＭＳ ゴシック
 73
     1
 44
0.7828267384257843
  0
MTEXT
  5
187
330
A
100
AcDbEntity
  8
TEMPLATE
390
1D
100
AcDbMText
 10
531.680857819196
 20
126.0597162775713
 30
0.0
 40
9.773046875
 41
0.0
 46
9.773046875
 71
     1
 72
     1
  1
{FLR74-1823}
  7
ＭＳ ゴシック
 73
     1
 44
0.7828267384257843
1001
ACAD
1000
ACAD_MTEXT_DEFINED_HEIGHT_BEGIN
1070
    46
1040
9.773046875
1000
ACAD_MTEXT_DEFINED_HEIGHT_END
  0
LINE
  5
188
330
A
100
AcDbEntity
  8
TEMPLATE
390
1D
100
AcDbLine
 10
507.680857819196
 20
38.8586694025713
 30
0.0
 11
507.680857819196
 21
140.8586694025713
 31
0.0
  0
MTEXT
  5
189
330
A
100
AcDbEntity
  8
TEMPLATE
390
1D
100
AcDbMText
 10
52.8808578190923
 20
126.0597162775713
 30
0.0
 40
9.773046875
 41
0.0
 46
11.014223828125
 71
     1
 72
     1
  1
{グラブレール　-KEUCO, Plan Care-}
  7
ＭＳ ゴシック
 73
     1
 44
0.7828267384257843
1001
ACAD
1000
ACAD_MTEXT_DEFINED_HEIGHT_BEGIN
1070
    46
1040
11.014223828125
1000
ACAD_MTEXT_DEFINED_HEIGHT_END
  0
INSERT
  5
68C
330
A
100
AcDbEntity
  8
TEMPLATE
100
AcDbBlockReference
  2
block 2
 10
367.7097207081031
 20
3.349230605734547
 30
0.0
 41
0.1524
 42
0.1524
 43
0.1524
  0
LWPOLYLINE
  5
D69
330
A
100
AcDbEntity
  8
BORDER
100
AcDbPolyline
 90
        4
 70
     1
 43
0.0
 10
0.0
 20
0.0
 10
0.0
 20
1188.0
 10
840.0
 20
1188.0
 10
840.0
 20
0.0
  0
INSERT
  5
1343
330
A
100
AcDbEntity
  8
TEMPLATE
100
AcDbBlockReference
  2
block 2
 10
838.6973883465873
 20
9.774128564918277
 30
0.0
 41
0.1524
 42
0.1524
 43
0.1524
  0
HATCH
  5
3CE3
102
{ACAD_REACTORS
330
3CF4
102
}
330
A
100
AcDbEntity
  8
TEMPLATE
100
AcDbHatch
 10
0.0
 20
0.0
 30
0.0
210
0.0
220
0.0
230
1.0
  2
SOLID
 70
     1
 71
     1
 91
        6
 92
        1
 93
        8
 72
     1
 10
773.8270902791126
 20
61.34344299952348
 11
773.8270902791126
 21
58.97967994725929
 72
     1
 10
773.8270902791126
 20
58.97967994725929
 11
770.0828536589879
 21
58.97967994725929
 72
     1
 10
770.0828536589879
 20
58.97967994725929
 11
770.0828536589879
 21
49.34344300010187
 72
     1
 10
770.0828536589879
 20
49.34344300010187
 11
766.7898083976775
 21
49.34344300010187
 72
     1
 10
766.7898083976775
 20
49.34344300010187
 11
766.7898083976775
 21
58.97967994725929
 72
     1
 10
766.7898083976775
 20
58.97967994725929
 11
763.1119278238602
 21
58.97967994725929
 72
     1
 10
763.1119278238602
 20
58.97967994725929
 11
763.1119278238602
 21
61.34344299952348
 72
     1
 10
763.1119278238602
 20
61.34344299952348
 11
773.8270902791126
 21
61.34344299952348
 97
        1
330
3CE4
 92
        1
 93
        1
 72
     4
 94
        3
 73
     0
 74
     1
 95
       56
 96
       52
 40
0.0
 40
0.0
 40
0.0
 40
0.0
 40
1.0
 40
1.0
 40
1.0
 40
2.0
 40
2.0
 40
2.0
 40
3.0
 40
3.0
 40
3.0
 40
4.0
 40
4.0
 40
4.0
 40
5.0
 40
5.0
 40
5.0
 40
6.0
 40
6.0
 40
6.0
 40
7.0
 40
7.0
 40
7.0
 40
8.0
 40
8.0
 40
8.0
 40
9.0
 40
9.0
 40
9.0
 40
10.0
 40
10.0
 40
10.0
 40
11.0
 40
11.0
 40
11.0
 40
12.0
 40
12.0
 40
12.0
 40
13.0
 40
13.0
 40
13.0
 40
14.0
 40
14.0
 40
14.0
 40
15.0
 40
15.0
 40
15.0
 40
16.0
 40
16.0
 40
16.0
 40
17.0
 40
17.0
 40
17.0
 40
17.0
 10
778.8439644528296
 20
61.05769541535855
 10
779.3055109255968
 20
61.18761043696263
 10
779.9013465629307
 20
61.07894125260667
 10
779.9013465629307
 20
61.07894125260667
 10
779.9013465629307
 20
61.07894125260667
 10
779.6150931254979
 20
60.21991313563727
 10
779.6150931254979
 20
60.21991313563727
 10
779.6150931254979
 20
60.21991313563727
 10
779.0301482114592
 20
60.35527351888899
 10
778.5789866087196
 20
59.9995098912439
 10
778.2284005380509
 20
59.72129059394702
 10
778.0012724208032
 20
58.98203067715087
 10
777.9141466344411
 20
58.70095479669457
 10
777.9141466344411
 20
58.70095479669457
 10
777.5257108369103
 20
57.50868840053504
 10
777.5257108369103
 20
57.50868840053504
 10
777.5257108369103
 20
57.50868840053504
 10
778.7993600970385
 20
57.50868840053504
 10
778.7993600970385
 20
57.50868840053504
 10
778.7993600970385
 20
57.50868840053504
 10
778.6012739085779
 20
56.75829971184702
 10
778.6012739085779
 20
56.75829971184702
 10
778.6012739085779
 20
56.75829971184702
 10
777.3172397784224
 20
56.75829971184702
 10
777.3172397784224
 20
56.75829971184702
 10
777.3172397784224
 20
56.75829971184702
 10
775.0198625285398
 20
49.34344300010187
 10
775.0198625285398
 20
49.34344300010187
 10
775.0198625285398
 20
49.34344300010187
 10
774.3005689377851
 20
49.34344300010187
 10
774.3005689377851
 20
49.34344300010187
 10
774.3005689377851
 20
49.34344300010187
 10
776.6000291128878
 20
56.75829971184702
 10
776.6000291128878
 20
56.75829971184702
 10
776.6000291128878
 20
56.75829971184702
 10
775.6525361862005
 20
56.75829971184702
 10
775.6525361862005
 20
56.75829971184702
 10
775.6525361862005
 20
56.75829971184702
 10
775.8511579840033
 20
57.50868840053504
 10
775.8511579840033
 20
57.50868840053504
 10
775.8511579840033
 20
57.50868840053504
 10
776.8085001713757
 20
57.50868840053504
 10
776.8085001713757
 20
57.50868840053504
 10
776.8085001713757
 20
57.50868840053504
 10
777.1471243000644
 20
58.54848467056097
 10
777.1471243000644
 20
58.54848467056097
 10
777.4209396983238
 20
59.4202483874494
 10
777.6532751286227
 20
59.88828168447431
 10
777.852432535768
 20
60.24115897288539
 10
778.0494772616182
 20
60.59433382204227
 10
778.439460375027
 20
60.94125989553794
 10
778.8439644528296
 20
61.05769541535855
 97
        1
330
3CEF
 92
        1
 93
        1
 72
     4
 94
        3
 73
     0
 74
     1
 95
       32
 96
       28
 40
0.0
 40
0.0
 40
0.0
 40
0.0
 40
1.0
 40
1.0
 40
1.0
 40
2.0
 40
2.0
 40
2.0
 40
3.0
 40
3.0
 40
3.0
 40
4.0
 40
4.0
 40
4.0
 40
5.0
 40
5.0
 40
5.0
 40
6.0
 40
6.0
 40
6.0
 40
7.0
 40
7.0
 40
7.0
 40
8.0
 40
8.0
 40
8.0
 40
9.0
 40
9.0
 40
9.0
 40
9.0
 10
780.5941870033864
 20
57.0552058239784
 10
780.161176606139
 20
56.49510723221162
 10
779.8277300344266
 20
55.99103932887373
 10
779.2878953294471
 20
54.40673665015949
 10
778.7915937615737
 20
52.95755630610032
 10
778.4757627860113
 20
51.90323907168072
 10
778.4280637984641
 20
50.61920494152507
 10
778.3917613874798
 20
49.66367787470179
 10
778.9736116697625
 20
49.34344300010187
 10
779.8267183278911
 20
49.34344300010187
 10
780.1943843853671
 20
49.34344300010187
 10
781.1221787906843
 20
49.36683127471956
 10
781.7828826705968
 20
50.18357600971474
 10
782.2454110938247
 20
50.75739215186162
 10
782.671696618218
 20
51.35221608265999
 10
783.2431917865476
 20
53.30344091698579
 10
783.7187533704407
 20
54.93466892530829
 10
784.048034091712
 20
55.98895640365332
 10
784.0236936227079
 20
56.58922569609933
 10
784.0236936227079
 20
56.58922569609933
 10
784.0236936227079
 20
56.58922569609933
 10
784.0236936227079
 20
56.58922569609933
 10
783.8686049620114
 20
57.59063662992067
 10
783.141545035792
 20
57.80223207623919
 10
782.7261502346942
 20
57.80223207623919
 10
782.3170042092574
 20
57.80223207623919
 10
781.2206713975349
 20
57.87302177765837
 10
780.5941870033864
 20
57.0552058239784
 97
        1
330
3CF2
 92
        1
 93
        1
 72
     4
 94
        3
 73
     0
 74
     1
 95
       38
 96
       34
 40
0.0
 40
0.0
 40
0.0
 40
0.0
 40
1.0
 40
1.0
 40
1.0
 40
2.0
 40
2.0
 40
2.0
 40
3.0
 40
3.0
 40
3.0
 40
4.0
 40
4.0
 40
4.0
 40
5.0
 40
5.0
 40
5.0
 40
6.0
 40
6.0
 40
6.0
 40
7.0
 40
7.0
 40
7.0
 40
8.0
 40
8.0
 40
8.0
 40
9.0
 40
9.0
 40
9.0
 40
10.0
 40
10.0
 40
10.0
 40
11.0
 40
11.0
 40
11.0
 40
11.0
 10
786.6534759816923
 20
57.47991427641887
 10
786.6534759816923
 20
57.47991427641887
 10
787.392973947085
 20
57.47991427641887
 10
787.392973947085
 20
57.47991427641887
 10
787.392973947085
 20
57.47991427641887
 10
787.062622007129
 20
56.42223460557204
 10
787.062622007129
 20
56.42223460557204
 10
787.3136442522623
 20
56.71914071770341
 10
787.7098166291833
 20
57.11456919275992
 10
788.0500475858989
 20
57.31396464850179
 10
788.5582813396777
 20
57.61087076063316
 10
788.8487006275511
 20
57.65002975477677
 10
789.168102332063
 20
57.64223366323755
 10
789.168102332063
 20
57.64223366323755
 10
788.855961109748
 20
56.64213199669759
 10
788.855961109748
 20
56.64213199669759
 10
788.6526676082365
 20
56.72821632044946
 10
788.026183214088
 20
56.56434961775278
 10
787.6667893453446
 20
56.305828841826
 10
787.3426861810497
 20
56.07271975358816
 10
787.1186229394832
 20
55.8743657604565
 10
786.8531392421053
 20
55.37571346269166
 10
786.5896789577987
 20
54.87631726306238
 10
786.3817435086532
 20
54.08001495130175
 10
786.0238969557877
 20
52.92482462406541
 10
786.0238969557877
 20
52.92482462406541
 10
784.906318306817
 20
49.34344300010187
 10
784.906318306817
 20
49.34344300010187
 10
784.906318306817
 20
49.34344300010187
 10
784.1886017880147
 20
49.34344300010187
 10
784.1886017880147
 20
49.34344300010187
 10
784.1886017880147
 20
49.34344300010187
 10
786.6534759816923
 20
57.47991427641887
 10
786.6534759816923
 20
57.47991427641887
 97
        1
330
3CF0
 92
        1
 93
        1
 72
     4
 94
        3
 73
     0
 74
     1
 95
      104
 96
      100
 40
0.0
 40
0.0
 40
0.0
 40
0.0
 40
1.0
 40
1.0
 40
1.0
 40
2.0
 40
2.0
 40
2.0
 40
3.0
 40
3.0
 40
3.0
 40
4.0
 40
4.0
 40
4.0
 40
5.0
 40
5.0
 40
5.0
 40
6.0
 40
6.0
 40
6.0
 40
7.0
 40
7.0
 40
7.0
 40
8.0
 40
8.0
 40
8.0
 40
9.0
 40
9.0
 40
9.0
 40
10.0
 40
10.0
 40
10.0
 40
11.0
 40
11.0
 40
11.0
 40
12.0
 40
12.0
 40
12.0
 40
13.0
 40
13.0
 40
13.0
 40
14.0
 40
14.0
 40
14.0
 40
15.0
 40
15.0
 40
15.0
 40
16.0
 40
16.0
 40
16.0
 40
17.0
 40
17.0
 40
17.0
 40
18.0
 40
18.0
 40
18.0
 40
19.0
 40
19.0
 40
19.0
 40
20.0
 40
20.0
 40
20.0
 40
21.0
 40
21.0
 40
21.0
 40
22.0
 40
22.0
 40
22.0
 40
23.0
 40
23.0
 40
23.0
 40
24.0
 40
24.0
 40
24.0
 40
25.0
 40
25.0
 40
25.0
 40
26.0
 40
26.0
 40
26.0
 40
27.0
 40
27.0
 40
27.0
 40
28.0
 40
28.0
 40
28.0
 40
29.0
 40
29.0
 40
29.0
 40
30.0
 40
30.0
 40
30.0
 40
31.0
 40
31.0
 40
31.0
 40
32.0
 40
32.0
 40
32.0
 40
33.0
 40
33.0
 40
33.0
 40
33.0
 10
790.7239284474067
 20
57.48431817545629
 10
790.7239284474067
 20
57.48431817545629
 10
791.3695757535829
 20
57.48431817545629
 10
791.3695757535829
 20
57.48431817545629
 10
791.3695757535829
 20
57.48431817545629
 10
791.0433896640677
 20
56.42562679807384
 10
791.0433896640677
 20
56.42562679807384
 10
791.3264889575953
 20
56.86952791861661
 10
791.5806058344847
 20
57.06737605848048
 10
791.9182182566376
 20
57.32304025124783
 10
792.2568423853263
 20
57.57507420291678
 10
792.6587874407151
 20
57.62643318763705
 10
792.937780395951
 20
57.62643318763705
 10
793.2831889096433
 20
57.62643318763705
 10
793.6166354813554
 20
57.55823226470609
 10
793.7918987606151
 20
57.17964572786029
 10
793.9262176812567
 20
56.88276937180346
 10
793.9324664569178
 20
56.8477464720261
 10
793.8940811207133
 20
56.26173033930257
 10
794.2451432885753
 20
56.86253524109098
 10
794.504437722441
 20
57.12132382168895
 10
794.9452442112276
 20
57.36996558085609
 10
795.407832146605
 20
57.62643318763705
 10
795.6774816944237
 20
57.64562585573935
 10
795.9907536475725
 20
57.59944442799551
 10
796.4522703642649
 20
57.53127326113913
 10
796.7468555025794
 20
57.36660314442886
 10
796.9008729445909
 20
56.86616548218939
 10
797.0554259959449
 20
56.36727513582792
 10
796.9719304506814
 20
56.09967875715512
 10
796.7810749883431
 20
55.30545937061487
 10
796.693949201981
 20
54.94374452805434
 10
796.5679024700721
 20
54.50576486635242
 10
796.4029943047651
 20
53.98461697620721
 10
796.4029943047651
 20
53.98461697620721
 10
794.9452442112276
 20
49.34344300010187
 10
794.9452442112276
 20
49.34344300010187
 10
794.9452442112276
 20
49.34344300010187
 10
794.1870594310005
 20
49.34344300010187
 10
794.1870594310005
 20
49.34344300010187
 10
794.1870594310005
 20
49.34344300010187
 10
795.4633569817661
 20
53.40092181730071
 10
795.4633569817661
 20
53.40092181730071
 10
795.7299118978287
 20
54.24986262498844
 10
795.9103527340649
 20
54.86983043880454
 10
796.0037272960881
 20
55.25853404100661
 10
796.1209067177731
 20
55.7434092762422
 10
796.1675642427103
 20
55.90340768924385
 10
796.1120989196984
 20
56.25631473372954
 10
796.0612755443206
 20
56.58482179706189
 10
795.8952961603288
 20
56.79873821719745
 10
795.6111256481165
 20
56.79873821719745
 10
795.3082683210696
 20
56.79873821719745
 10
795.0629592422551
 20
56.76502458470146
 10
794.7196931659325
 20
56.4201814364262
 10
794.3763675774608
 20
56.07271975358816
 10
794.0926731624415
 20
55.66485323935839
 10
793.8702167489023
 20
55.19577847972329
 10
793.6482364325564
 20
54.72384713692878
 10
793.4231614844543
 20
54.12566076970317
 10
793.1949919045965
 20
53.40092181730071
 10
793.1949919045965
 20
53.40092181730071
 10
791.9182182566376
 20
49.34344300010187
 10
791.9182182566376
 20
49.34344300010187
 10
791.9182182566376
 20
49.34344300010187
 10
791.2051436854695
 20
49.34344300010187
 10
791.2051436854695
 20
49.34344300010187
 10
791.2051436854695
 20
49.34344300010187
 10
792.6649767042272
 20
53.98253405098681
 10
792.6649767042272
 20
53.98253405098681
 10
792.8189941462388
 20
54.47624684037184
 10
792.9346857641949
 20
54.87866799295399
 10
793.0109208272618
 20
55.19318970123506
 10
793.1405382881201
 20
55.73460147816736
 10
793.1768406991043
 20
56.10072021976531
 10
793.078824189447
 20
56.42562679807384
 10
792.9823549956677
 20
56.74949191377216
 10
792.8128048827268
 20
56.8322138010968
 10
792.5296460770501
 20
56.8322138010968
 10
792.2921330897748
 20
56.8322138010968
 10
792.0603332688183
 20
56.73029924566987
 10
791.7958612779762
 20
56.5275115974262
 10
791.4628908034572
 20
56.27238301400122
 10
791.3296431015003
 20
56.0628704929031
 10
791.1662822520716
 20
55.81393117299019
 10
790.9458492516037
 20
55.48462069564424
 10
790.8426551849698
 20
55.26293794004404
 10
790.6565011824148
 20
54.77648563285584
 10
790.4702876677106
 20
54.28717674250827
 10
790.2940126819153
 20
53.71776449939881
 10
790.1710605817623
 20
53.32391309629489
 10
790.1710605817623
 20
53.32391309629489
 10
788.9186869149569
 20
49.34344300010187
 10
788.9186869149569
 20
49.34344300010187
 10
788.9186869149569
 20
49.34344300010187
 10
788.1719284673673
 20
49.34344300010187
 10
788.1719284673673
 20
49.34344300010187
 10
788.1719284673673
 20
49.34344300010187
 10
790.7239284474067
 20
57.48431817545629
 10
790.7239284474067
 20
57.48431817545629
 97
        1
330
3CF1
 92
       16
 93
        1
 72
     4
 94
        3
 73
     0
 74
     1
 95
       29
 96
       25
 40
0.0
 40
0.0
 40
0.0
 40
0.0
 40
1.0
 40
1.0
 40
1.0
 40
2.0
 40
2.0
 40
2.0
 40
3.0
 40
3.0
 40
3.0
 40
4.0
 40
4.0
 40
4.0
 40
5.0
 40
5.0
 40
5.0
 40
6.0
 40
6.0
 40
6.0
 40
7.0
 40
7.0
 40
7.0
 40
8.0
 40
8.0
 40
8.0
 40
8.0
 10
779.2028524683053
 20
50.85927695121397
 10
779.1996983244003
 20
51.42613017190976
 10
779.3786513569075
 20
52.43325427204994
 10
779.837073441844
 20
53.78078786535333
 10
780.461474910772
 20
55.60546011450228
 10
780.8359253532517
 20
56.27238301400122
 10
781.1635992464958
 20
56.59702178763855
 10
781.6423149742939
 20
57.06972678837207
 10
782.2858793552498
 20
57.09329359943722
 10
782.4757231110525
 20
57.06972678837207
 10
782.7459082682135
 20
57.03729266708291
 10
783.1275596807407
 20
56.86045231587057
 10
783.1503528338669
 20
56.26512253180438
 10
783.168563551508
 20
55.75560926681887
 10
783.0217470795442
 20
54.80139146727697
 10
782.5078596715957
 20
53.30344091698579
 10
781.915594763211
 20
51.5627700663683
 10
781.5598311355659
 20
50.87849937539085
 10
781.274648916818
 20
50.58028399597808
 10
780.7373732342519
 20
50.02122686682151
 10
780.161176606139
 20
50.07490682535878
 10
780.0761337449972
 20
50.07490682535878
 10
779.9656791961665
 20
50.07490682535878
 10
779.2043997841834
 20
50.19476429375578
 10
779.2028524683053
 20
50.85927695121397
 97
        1
330
3CF3
 75
     0
 76
     1
 98
        1
 10
743.7703305683026
 20
29.00832017048585
1001
ACAD
1010
0.0
1020
0.0
1030
0.0
  0
POLYLINE
  5
3CE4
102
{ACAD_REACTORS
330
3CE3
330
3CF4
102
}
330
A
100
AcDbEntity
  8
TEMPLATE
100
AcDb2dPolyline
 66
     1
 10
0.0
 20
0.0
 30
0.0
  0
VERTEX
  5
3CE5
330
3CE4
100
AcDbEntity
  8
TEMPLATE
100
AcDbVertex
100
AcDb2dVertex
 10
773.8270902791126
 20
61.34344299952348
 30
0.0
  0
VERTEX
  5
3CE6
330
3CE4
100
AcDbEntity
  8
TEMPLATE
100
AcDbVertex
100
AcDb2dVertex
 10
773.8270902791126
 20
58.97967994725929
 30
0.0
  0
VERTEX
  5
3CE7
330
3CE4
100
AcDbEntity
  8
TEMPLATE
100
AcDbVertex
100
AcDb2dVertex
 10
770.0828536589879
 20
58.97967994725929
 30
0.0
  0
VERTEX
  5
3CE8
330
3CE4
100
AcDbEntity
  8
TEMPLATE
100
AcDbVertex
100
AcDb2dVertex
 10
770.0828536589879
 20
49.34344300010187
 30
0.0
  0
VERTEX
  5
3CE9
330
3CE4
100
AcDbEntity
  8
TEMPLATE
100
AcDbVertex
100
AcDb2dVertex
 10
766.7898083976775
 20
49.34344300010187
 30
0.0
  0
VERTEX
  5
3CEA
330
3CE4
100
AcDbEntity
  8
TEMPLATE
100
AcDbVertex
100
AcDb2dVertex
 10
766.7898083976775
 20
58.97967994725929
 30
0.0
  0
VERTEX
  5
3CEB
330
3CE4
100
AcDbEntity
  8
TEMPLATE
100
AcDbVertex
100
AcDb2dVertex
 10
763.1119278238602
 20
58.97967994725929
 30
0.0
  0
VERTEX
  5
3CEC
330
3CE4
100
AcDbEntity
  8
TEMPLATE
100
AcDbVertex
100
AcDb2dVertex
 10
763.1119278238602
 20
61.34344299952348
 30
0.0
  0
VERTEX
  5
3CED
330
3CE4
100
AcDbEntity
  8
TEMPLATE
100
AcDbVertex
100
AcDb2dVertex
 10
773.8270902791126
 20
61.34344299952348
 30
0.0
  0
SEQEND
  5
3CEE
330
3CE4
100
AcDbEntity
  8
TEMPLATE
  0
SPLINE
  5
3CEF
102
{ACAD_REACTORS
330
3CE3
330
3CF4
102
}
330
A
100
AcDbEntity
  8
TEMPLATE
100
AcDbSpline
210
0.0
220
0.0
230
1.0
 70
    11
 71
     3
 72
    56
 73
    52
 74
     0
 42
0.000000001
 43
0.0000000001
 40
0.0
 40
0.0
 40
0.0
 40
0.0
 40
1.0
 40
1.0
 40
1.0
 40
2.0
 40
2.0
 40
2.0
 40
3.0
 40
3.0
 40
3.0
 40
4.0
 40
4.0
 40
4.0
 40
5.0
 40
5.0
 40
5.0
 40
6.0
 40
6.0
 40
6.0
 40
7.0
 40
7.0
 40
7.0
 40
8.0
 40
8.0
 40
8.0
 40
9.0
 40
9.0
 40
9.0
 40
10.0
 40
10.0
 40
10.0
 40
11.0
 40
11.0
 40
11.0
 40
12.0
 40
12.0
 40
12.0
 40
13.0
 40
13.0
 40
13.0
 40
14.0
 40
14.0
 40
14.0
 40
15.0
 40
15.0
 40
15.0
 40
16.0
 40
16.0
 40
16.0
 40
17.0
 40
17.0
 40
17.0
 40
17.0
 10
778.8439644528296
 20
61.05769541535855
 30
0.0
 10
779.3055109255968
 20
61.18761043696263
 30
0.0
 10
779.9013465629307
 20
61.07894125260667
 30
0.0
 10
779.9013465629307
 20
61.07894125260667
 30
0.0
 10
779.9013465629307
 20
61.07894125260667
 30
0.0
 10
779.6150931254979
 20
60.21991313563727
 30
0.0
 10
779.6150931254979
 20
60.21991313563727
 30
0.0
 10
779.6150931254979
 20
60.21991313563727
 30
0.0
 10
779.0301482114592
 20
60.35527351888899
 30
0.0
 10
778.5789866087196
 20
59.9995098912439
 30
0.0
 10
778.2284005380509
 20
59.72129059394702
 30
0.0
 10
778.0012724208032
 20
58.98203067715087
 30
0.0
 10
777.9141466344411
 20
58.70095479669457
 30
0.0
 10
777.9141466344411
 20
58.70095479669457
 30
0.0
 10
777.5257108369103
 20
57.50868840053504
 30
0.0
 10
777.5257108369103
 20
57.50868840053504
 30
0.0
 10
777.5257108369103
 20
57.50868840053504
 30
0.0
 10
778.7993600970385
 20
57.50868840053504
 30
0.0
 10
778.7993600970385
 20
57.50868840053504
 30
0.0
 10
778.7993600970385
 20
57.50868840053504
 30
0.0
 10
778.6012739085779
 20
56.75829971184702
 30
0.0
 10
778.6012739085779
 20
56.75829971184702
 30
0.0
 10
778.6012739085779
 20
56.75829971184702
 30
0.0
 10
777.3172397784224
 20
56.75829971184702
 30
0.0
 10
777.3172397784224
 20
56.75829971184702
 30
0.0
 10
777.3172397784224
 20
56.75829971184702
 30
0.0
 10
775.0198625285398
 20
49.34344300010187
 30
0.0
 10
775.0198625285398
 20
49.34344300010187
 30
0.0
 10
775.0198625285398
 20
49.34344300010187
 30
0.0
 10
774.3005689377851
 20
49.34344300010187
 30
0.0
 10
774.3005689377851
 20
49.34344300010187
 30
0.0
 10
774.3005689377851
 20
49.34344300010187
 30
0.0
 10
776.6000291128878
 20
56.75829971184702
 30
0.0
 10
776.6000291128878
 20
56.75829971184702
 30
0.0
 10
776.6000291128878
 20
56.75829971184702
 30
0.0
 10
775.6525361862005
 20
56.75829971184702
 30
0.0
 10
775.6525361862005
 20
56.75829971184702
 30
0.0
 10
775.6525361862005
 20
56.75829971184702
 30
0.0
 10
775.8511579840033
 20
57.50868840053504
 30
0.0
 10
775.8511579840033
 20
57.50868840053504
 30
0.0
 10
775.8511579840033
 20
57.50868840053504
 30
0.0
 10
776.8085001713757
 20
57.50868840053504
 30
0.0
 10
776.8085001713757
 20
57.50868840053504
 30
0.0
 10
776.8085001713757
 20
57.50868840053504
 30
0.0
 10
777.1471243000644
 20
58.54848467056097
 30
0.0
 10
777.1471243000644
 20
58.54848467056097
 30
0.0
 10
777.4209396983238
 20
59.4202483874494
 30
0.0
 10
777.6532751286227
 20
59.88828168447431
 30
0.0
 10
777.852432535768
 20
60.24115897288539
 30
0.0
 10
778.0494772616182
 20
60.59433382204227
 30
0.0
 10
778.439460375027
 20
60.94125989553794
 30
0.0
 10
778.8439644528296
 20
61.05769541535855
 30
0.0
  0
SPLINE
  5
3CF0
102
{ACAD_REACTORS
330
3CE3
330
3CF4
102
}
330
A
100
AcDbEntity
  8
TEMPLATE
100
AcDbSpline
210
0.0
220
0.0
230
1.0
 70
    11
 71
     3
 72
    38
 73
    34
 74
     0
 42
0.000000001
 43
0.0000000001
 40
0.0
 40
0.0
 40
0.0
 40
0.0
 40
1.0
 40
1.0
 40
1.0
 40
2.0
 40
2.0
 40
2.0
 40
3.0
 40
3.0
 40
3.0
 40
4.0
 40
4.0
 40
4.0
 40
5.0
 40
5.0
 40
5.0
 40
6.0
 40
6.0
 40
6.0
 40
7.0
 40
7.0
 40
7.0
 40
8.0
 40
8.0
 40
8.0
 40
9.0
 40
9.0
 40
9.0
 40
10.0
 40
10.0
 40
10.0
 40
11.0
 40
11.0
 40
11.0
 40
11.0
 10
786.6534759816923
 20
57.47991427641887
 30
0.0
 10
786.6534759816923
 20
57.47991427641887
 30
0.0
 10
787.392973947085
 20
57.47991427641887
 30
0.0
 10
787.392973947085
 20
57.47991427641887
 30
0.0
 10
787.392973947085
 20
57.47991427641887
 30
0.0
 10
787.062622007129
 20
56.42223460557204
 30
0.0
 10
787.062622007129
 20
56.42223460557204
 30
0.0
 10
787.3136442522623
 20
56.71914071770341
 30
0.0
 10
787.7098166291833
 20
57.11456919275992
 30
0.0
 10
788.0500475858989
 20
57.31396464850179
 30
0.0
 10
788.5582813396777
 20
57.61087076063316
 30
0.0
 10
788.8487006275511
 20
57.65002975477677
 30
0.0
 10
789.168102332063
 20
57.64223366323755
 30
0.0
 10
789.168102332063
 20
57.64223366323755
 30
0.0
 10
788.855961109748
 20
56.64213199669759
 30
0.0
 10
788.855961109748
 20
56.64213199669759
 30
0.0
 10
788.6526676082365
 20
56.72821632044946
 30
0.0
 10
788.026183214088
 20
56.56434961775278
 30
0.0
 10
787.6667893453446
 20
56.305828841826
 30
0.0
 10
787.3426861810497
 20
56.07271975358816
 30
0.0
 10
787.1186229394832
 20
55.8743657604565
 30
0.0
 10
786.8531392421053
 20
55.37571346269166
 30
0.0
 10
786.5896789577987
 20
54.87631726306238
 30
0.0
 10
786.3817435086532
 20
54.08001495130175
 30
0.0
 10
786.0238969557877
 20
52.92482462406541
 30
0.0
 10
786.0238969557877
 20
52.92482462406541
 30
0.0
 10
784.906318306817
 20
49.34344300010187
 30
0.0
 10
784.906318306817
 20
49.34344300010187
 30
0.0
 10
784.906318306817
 20
49.34344300010187
 30
0.0
 10
784.1886017880147
 20
49.34344300010187
 30
0.0
 10
784.1886017880147
 20
49.34344300010187
 30
0.0
 10
784.1886017880147
 20
49.34344300010187
 30
0.0
 10
786.6534759816923
 20
57.47991427641887
 30
0.0
 10
786.6534759816923
 20
57.47991427641887
 30
0.0
  0
SPLINE
  5
3CF1
102
{ACAD_REACTORS
330
3CE3
330
3CF4
102
}
330
A
100
AcDbEntity
  8
TEMPLATE
100
AcDbSpline
210
0.0
220
0.0
230
1.0
 70
    11
 71
     3
 72
   104
 73
   100
 74
     0
 42
0.000000001
 43
0.0000000001
 40
0.0
 40
0.0
 40
0.0
 40
0.0
 40
1.0
 40
1.0
 40
1.0
 40
2.0
 40
2.0
 40
2.0
 40
3.0
 40
3.0
 40
3.0
 40
4.0
 40
4.0
 40
4.0
 40
5.0
 40
5.0
 40
5.0
 40
6.0
 40
6.0
 40
6.0
 40
7.0
 40
7.0
 40
7.0
 40
8.0
 40
8.0
 40
8.0
 40
9.0
 40
9.0
 40
9.0
 40
10.0
 40
10.0
 40
10.0
 40
11.0
 40
11.0
 40
11.0
 40
12.0
 40
12.0
 40
12.0
 40
13.0
 40
13.0
 40
13.0
 40
14.0
 40
14.0
 40
14.0
 40
15.0
 40
15.0
 40
15.0
 40
16.0
 40
16.0
 40
16.0
 40
17.0
 40
17.0
 40
17.0
 40
18.0
 40
18.0
 40
18.0
 40
19.0
 40
19.0
 40
19.0
 40
20.0
 40
20.0
 40
20.0
 40
21.0
 40
21.0
 40
21.0
 40
22.0
 40
22.0
 40
22.0
 40
23.0
 40
23.0
 40
23.0
 40
24.0
 40
24.0
 40
24.0
 40
25.0
 40
25.0
 40
25.0
 40
26.0
 40
26.0
 40
26.0
 40
27.0
 40
27.0
 40
27.0
 40
28.0
 40
28.0
 40
28.0
 40
29.0
 40
29.0
 40
29.0
 40
30.0
 40
30.0
 40
30.0
 40
31.0
 40
31.0
 40
31.0
 40
32.0
 40
32.0
 40
32.0
 40
33.0
 40
33.0
 40
33.0
 40
33.0
 10
790.7239284474067
 20
57.48431817545629
 30
0.0
 10
790.7239284474067
 20
57.48431817545629
 30
0.0
 10
791.3695757535829
 20
57.48431817545629
 30
0.0
 10
791.3695757535829
 20
57.48431817545629
 30
0.0
 10
791.3695757535829
 20
57.48431817545629
 30
0.0
 10
791.0433896640677
 20
56.42562679807384
 30
0.0
 10
791.0433896640677
 20
56.42562679807384
 30
0.0
 10
791.3264889575953
 20
56.86952791861661
 30
0.0
 10
791.5806058344847
 20
57.06737605848048
 30
0.0
 10
791.9182182566376
 20
57.32304025124783
 30
0.0
 10
792.2568423853263
 20
57.57507420291678
 30
0.0
 10
792.6587874407151
 20
57.62643318763705
 30
0.0
 10
792.937780395951
 20
57.62643318763705
 30
0.0
 10
793.2831889096433
 20
57.62643318763705
 30
0.0
 10
793.6166354813554
 20
57.55823226470609
 30
0.0
 10
793.7918987606151
 20
57.17964572786029
 30
0.0
 10
793.9262176812567
 20
56.88276937180346
 30
0.0
 10
793.9324664569178
 20
56.8477464720261
 30
0.0
 10
793.8940811207133
 20
56.26173033930257
 30
0.0
 10
794.2451432885753
 20
56.86253524109098
 30
0.0
 10
794.504437722441
 20
57.12132382168895
 30
0.0
 10
794.9452442112276
 20
57.36996558085609
 30
0.0
 10
795.407832146605
 20
57.62643318763705
 30
0.0
 10
795.6774816944237
 20
57.64562585573935
 30
0.0
 10
795.9907536475725
 20
57.59944442799551
 30
0.0
 10
796.4522703642649
 20
57.53127326113913
 30
0.0
 10
796.7468555025794
 20
57.36660314442886
 30
0.0
 10
796.9008729445909
 20
56.86616548218939
 30
0.0
 10
797.0554259959449
 20
56.36727513582792
 30
0.0
 10
796.9719304506814
 20
56.09967875715512
 30
0.0
 10
796.7810749883431
 20
55.30545937061487
 30
0.0
 10
796.693949201981
 20
54.94374452805434
 30
0.0
 10
796.5679024700721
 20
54.50576486635242
 30
0.0
 10
796.4029943047651
 20
53.98461697620721
 30
0.0
 10
796.4029943047651
 20
53.98461697620721
 30
0.0
 10
794.9452442112276
 20
49.34344300010187
 30
0.0
 10
794.9452442112276
 20
49.34344300010187
 30
0.0
 10
794.9452442112276
 20
49.34344300010187
 30
0.0
 10
794.1870594310005
 20
49.34344300010187
 30
0.0
 10
794.1870594310005
 20
49.34344300010187
 30
0.0
 10
794.1870594310005
 20
49.34344300010187
 30
0.0
 10
795.4633569817661
 20
53.40092181730071
 30
0.0
 10
795.4633569817661
 20
53.40092181730071
 30
0.0
 10
795.7299118978287
 20
54.24986262498844
 30
0.0
 10
795.9103527340649
 20
54.86983043880454
 30
0.0
 10
796.0037272960881
 20
55.25853404100661
 30
0.0
 10
796.1209067177731
 20
55.7434092762422
 30
0.0
 10
796.1675642427103
 20
55.90340768924385
 30
0.0
 10
796.1120989196984
 20
56.25631473372954
 30
0.0
 10
796.0612755443206
 20
56.58482179706189
 30
0.0
 10
795.8952961603288
 20
56.79873821719745
 30
0.0
 10
795.6111256481165
 20
56.79873821719745
 30
0.0
 10
795.3082683210696
 20
56.79873821719745
 30
0.0
 10
795.0629592422551
 20
56.76502458470146
 30
0.0
 10
794.7196931659325
 20
56.4201814364262
 30
0.0
 10
794.3763675774608
 20
56.07271975358816
 30
0.0
 10
794.0926731624415
 20
55.66485323935839
 30
0.0
 10
793.8702167489023
 20
55.19577847972329
 30
0.0
 10
793.6482364325564
 20
54.72384713692878
 30
0.0
 10
793.4231614844543
 20
54.12566076970317
 30
0.0
 10
793.1949919045965
 20
53.40092181730071
 30
0.0
 10
793.1949919045965
 20
53.40092181730071
 30
0.0
 10
791.9182182566376
 20
49.34344300010187
 30
0.0
 10
791.9182182566376
 20
49.34344300010187
 30
0.0
 10
791.9182182566376
 20
49.34344300010187
 30
0.0
 10
791.2051436854695
 20
49.34344300010187
 30
0.0
 10
791.2051436854695
 20
49.34344300010187
 30
0.0
 10
791.2051436854695
 20
49.34344300010187
 30
0.0
 10
792.6649767042272
 20
53.98253405098681
 30
0.0
 10
792.6649767042272
 20
53.98253405098681
 30
0.0
 10
792.8189941462388
 20
54.47624684037184
 30
0.0
 10
792.9346857641949
 20
54.87866799295399
 30
0.0
 10
793.0109208272618
 20
55.19318970123506
 30
0.0
 10
793.1405382881201
 20
55.73460147816736
 30
0.0
 10
793.1768406991043
 20
56.10072021976531
 30
0.0
 10
793.078824189447
 20
56.42562679807384
 30
0.0
 10
792.9823549956677
 20
56.74949191377216
 30
0.0
 10
792.8128048827268
 20
56.8322138010968
 30
0.0
 10
792.5296460770501
 20
56.8322138010968
 30
0.0
 10
792.2921330897748
 20
56.8322138010968
 30
0.0
 10
792.0603332688183
 20
56.73029924566987
 30
0.0
 10
791.7958612779762
 20
56.5275115974262
 30
0.0
 10
791.4628908034572
 20
56.27238301400122
 30
0.0
 10
791.3296431015003
 20
56.0628704929031
 30
0.0
 10
791.1662822520716
 20
55.81393117299019
 30
0.0
 10
790.9458492516037
 20
55.48462069564424
 30
0.0
 10
790.8426551849698
 20
55.26293794004404
 30
0.0
 10
790.6565011824148
 20
54.77648563285584
 30
0.0
 10
790.4702876677106
 20
54.28717674250827
 30
0.0
 10
790.2940126819153
 20
53.71776449939881
 30
0.0
 10
790.1710605817623
 20
53.32391309629489
 30
0.0
 10
790.1710605817623
 20
53.32391309629489
 30
0.0
 10
788.9186869149569
 20
49.34344300010187
 30
0.0
 10
788.9186869149569
 20
49.34344300010187
 30
0.0
 10
788.9186869149569
 20
49.34344300010187
 30
0.0
 10
788.1719284673673
 20
49.34344300010187
 30
0.0
 10
788.1719284673673
 20
49.34344300010187
 30
0.0
 10
788.1719284673673
 20
49.34344300010187
 30
0.0
 10
790.7239284474067
 20
57.48431817545629
 30
0.0
 10
790.7239284474067
 20
57.48431817545629
 30
0.0
  0
SPLINE
  5
3CF2
102
{ACAD_REACTORS
330
3CE3
330
3CF4
102
}
330
A
100
AcDbEntity
  8
TEMPLATE
100
AcDbSpline
210
0.0
220
0.0
230
1.0
 70
    11
 71
     3
 72
    32
 73
    28
 74
     0
 42
0.000000001
 43
0.0000000001
 40
0.0
 40
0.0
 40
0.0
 40
0.0
 40
1.0
 40
1.0
 40
1.0
 40
2.0
 40
2.0
 40
2.0
 40
3.0
 40
3.0
 40
3.0
 40
4.0
 40
4.0
 40
4.0
 40
5.0
 40
5.0
 40
5.0
 40
6.0
 40
6.0
 40
6.0
 40
7.0
 40
7.0
 40
7.0
 40
8.0
 40
8.0
 40
8.0
 40
9.0
 40
9.0
 40
9.0
 40
9.0
 10
780.5941870033864
 20
57.0552058239784
 30
0.0
 10
780.161176606139
 20
56.49510723221162
 30
0.0
 10
779.8277300344266
 20
55.99103932887373
 30
0.0
 10
779.2878953294471
 20
54.40673665015949
 30
0.0
 10
778.7915937615737
 20
52.95755630610032
 30
0.0
 10
778.4757627860113
 20
51.90323907168072
 30
0.0
 10
778.4280637984641
 20
50.61920494152507
 30
0.0
 10
778.3917613874798
 20
49.66367787470179
 30
0.0
 10
778.9736116697625
 20
49.34344300010187
 30
0.0
 10
779.8267183278911
 20
49.34344300010187
 30
0.0
 10
780.1943843853671
 20
49.34344300010187
 30
0.0
 10
781.1221787906843
 20
49.36683127471956
 30
0.0
 10
781.7828826705968
 20
50.18357600971474
 30
0.0
 10
782.2454110938247
 20
50.75739215186162
 30
0.0
 10
782.671696618218
 20
51.35221608265999
 30
0.0
 10
783.2431917865476
 20
53.30344091698579
 30
0.0
 10
783.7187533704407
 20
54.93466892530829
 30
0.0
 10
784.048034091712
 20
55.98895640365332
 30
0.0
 10
784.0236936227079
 20
56.58922569609933
 30
0.0
 10
784.0236936227079
 20
56.58922569609933
 30
0.0
 10
784.0236936227079
 20
56.58922569609933
 30
0.0
 10
784.0236936227079
 20
56.58922569609933
 30
0.0
 10
783.8686049620114
 20
57.59063662992067
 30
0.0
 10
783.141545035792
 20
57.80223207623919
 30
0.0
 10
782.7261502346942
 20
57.80223207623919
 30
0.0
 10
782.3170042092574
 20
57.80223207623919
 30
0.0
 10
781.2206713975349
 20
57.87302177765837
 30
0.0
 10
780.5941870033864
 20
57.0552058239784
 30
0.0
  0
SPLINE
  5
3CF3
102
{ACAD_REACTORS
330
3CE3
330
3CF4
102
}
330
A
100
AcDbEntity
  8
TEMPLATE
100
AcDbSpline
210
0.0
220
0.0
230
1.0
 70
    11
 71
     3
 72
    29
 73
    25
 74
     0
 42
0.000000001
 43
0.0000000001
 40
0.0
 40
0.0
 40
0.0
 40
0.0
 40
1.0
 40
1.0
 40
1.0
 40
2.0
 40
2.0
 40
2.0
 40
3.0
 40
3.0
 40
3.0
 40
4.0
 40
4.0
 40
4.0
 40
5.0
 40
5.0
 40
5.0
 40
6.0
 40
6.0
 40
6.0
 40
7.0
 40
7.0
 40
7.0
 40
8.0
 40
8.0
 40
8.0
 40
8.0
 10
779.2028524683053
 20
50.85927695121397
 30
0.0
 10
779.1996983244003
 20
51.42613017190976
 30
0.0
 10
779.3786513569075
 20
52.43325427204994
 30
0.0
 10
779.837073441844
 20
53.78078786535333
 30
0.0
 10
780.461474910772
 20
55.60546011450228
 30
0.0
 10
780.8359253532517
 20
56.27238301400122
 30
0.0
 10
781.1635992464958
 20
56.59702178763855
 30
0.0
 10
781.6423149742939
 20
57.06972678837207
 30
0.0
 10
782.2858793552498
 20
57.09329359943722
 30
0.0
 10
782.4757231110525
 20
57.06972678837207
 30
0.0
 10
782.7459082682135
 20
57.03729266708291
 30
0.0
 10
783.1275596807407
 20
56.86045231587057
 30
0.0
 10
783.1503528338669
 20
56.26512253180438
 30
0.0
 10
783.168563551508
 20
55.75560926681887
 30
0.0
 10
783.0217470795442
 20
54.80139146727697
 30
0.0
 10
782.5078596715957
 20
53.30344091698579
 30
0.0
 10
781.915594763211
 20
51.5627700663683
 30
0.0
 10
781.5598311355659
 20
50.87849937539085
 30
0.0
 10
781.274648916818
 20
50.58028399597808
 30
0.0
 10
780.7373732342519
 20
50.02122686682151
 30
0.0
 10
780.161176606139
 20
50.07490682535878
 30
0.0
 10
780.0761337449972
 20
50.07490682535878
 30
0.0
 10
779.9656791961665
 20
50.07490682535878
 30
0.0
 10
779.2043997841834
 20
50.19476429375578
 30
0.0
 10
779.2028524683053
 20
50.85927695121397
 30
0.0
  0
MTEXT
  5
3DB7
102
{ACAD_XDICTIONARY
360
3DB8
102
}
330
A
100
AcDbEntity
  8
TEMPLATE
100
AcDbMText
 10
29.38137849384168
 20
35.9671265159328
 30
0.0
 40
8.0
 41
0.0
 46
8.0
 71
     1
 72
     1
  1
{20181212N}
  7
ＭＳ ゴシック
 73
     1
 44
1.0
1001
ACAD
1000
ACAD_MTEXT_DEFINED_HEIGHT_BEGIN
1070
    46
1040
8.0
1000
ACAD_MTEXT_DEFINED_HEIGHT_END
  0
LINE
  5
495E
330
A
100
AcDbEntity
  8
MODEL
100
AcDbLine
 10
180.0933508949975
 20
897.939535875735
 30
0.0
 11
226.0933508949975
 21
897.939535875735
 31
0.0
  0
LINE
  5
495F
330
A
100
AcDbEntity
  8
MODEL
100
AcDbLine
 10
226.0933508949975
 20
927.9395358757932
 30
0.0
 11
180.0933508949975
 21
927.9395358757932
 31
0.0
  0
LINE
  5
497E
330
A
100
AcDbEntity
  8
MODEL
100
AcDbLine
 10
311.0933508952304
 20
1058.939535875735
 30
0.0
 11
311.0933508952304
 21
1012.939535875735
 31
0.0
  0
LINE
  5
497F
330
A
100
AcDbEntity
  8
MODEL
100
AcDbLine
 10
341.0933508949975
 20
1012.939535875735
 30
0.0
 11
341.0933508949975
 21
1058.939535875735
 31
0.0
  0
LINE
  5
499E
330
A
100
AcDbEntity
  8
MODEL
100
AcDbLine
 10
180.0933508949975
 20
497.9395358757932
 30
0.0
 11
226.0933508949975
 21
497.9395358757932
 31
0.0
  0
LINE
  5
499F
330
A
100
AcDbEntity
  8
MODEL
100
AcDbLine
 10
226.0933508949975
 20
527.939535875735
 30
0.0
 11
180.0933508949975
 21
527.939535875735
 31
0.0
  0
LINE
  5
49BE
330
A
100
AcDbEntity
  8
MODEL
100
AcDbLine
 10
711.0933508949976
 20
1058.939535875735
 30
0.0
 11
711.0933508949976
 21
1012.939535875735
 31
0.0
  0
LINE
  5
49BF
330
A
100
AcDbEntity
  8
MODEL
100
AcDbLine
 10
741.0933508949976
 20
1012.939535875735
 30
0.0
 11
741.0933508949976
 21
1058.939535875735
 31
0.0
  0
LINE
  5
49C0
330
A
100
AcDbEntity
  8
MODEL
100
AcDbLine
 10
226.9253508949342
 20
934.9395358757932
 30
0.0
 11
229.3393508950404
 21
934.9395358757932
 31
0.0
  0
LINE
  5
49C1
330
A
100
AcDbEntity
  8
MODEL
100
AcDbLine
 10
229.3393508950404
 20
934.9395358757932
 30
0.0
 11
233.1003508949808
 21
934.9395358757932
 31
0.0
  0
LINE
  5
49C2
330
A
100
AcDbEntity
  8
MODEL
100
AcDbLine
 10
233.1003508949808
 20
934.9395358757932
 30
0.0
 11
237.8393508950404
 21
934.9395358757932
 31
0.0
  0
LINE
  5
49C3
330
A
100
AcDbEntity
  8
MODEL
100
AcDbLine
 10
237.8393508950404
 20
934.9395358757932
 30
0.0
 11
243.0923508950665
 21
934.9395358757932
 31
0.0
  0
LINE
  5
49C4
330
A
100
AcDbEntity
  8
MODEL
100
AcDbLine
 10
243.0923508950665
 20
934.9395358757932
 30
0.0
 11
248.3463508950236
 21
934.9395358757932
 31
0.0
  0
LINE
  5
49C5
330
A
100
AcDbEntity
  8
MODEL
100
AcDbLine
 10
248.3463508950236
 20
934.9395358757932
 30
0.0
 11
253.0853508950832
 21
934.9395358757932
 31
0.0
  0
LINE
  5
49C6
330
A
100
AcDbEntity
  8
MODEL
100
AcDbLine
 10
253.0853508950832
 20
934.9395358757932
 30
0.0
 11
256.8463508950236
 21
934.9395358757932
 31
0.0
  0
LINE
  5
49C7
330
A
100
AcDbEntity
  8
MODEL
100
AcDbLine
 10
256.8463508950236
 20
934.9395358757932
 30
0.0
 11
259.2613508950609
 21
934.9395358757932
 31
0.0
  0
LINE
  5
49C8
330
A
100
AcDbEntity
  8
MODEL
100
AcDbLine
 10
259.2613508950609
 20
934.9395358757932
 30
0.0
 11
260.0933508949976
 21
934.9395358757932
 31
0.0
  0
LINE
  5
49C9
330
A
100
AcDbEntity
  8
MODEL
100
AcDbLine
 10
260.0933508949976
 20
978.939535875793
 30
0.0
 11
260.0933508949976
 21
934.9395358757932
 31
0.0
  0
LINE
  5
49CA
330
A
100
AcDbEntity
  8
MODEL
100
AcDbLine
 10
226.0933508949975
 20
934.9395358757932
 30
0.0
 11
226.9253508949342
 21
934.9395358757932
 31
0.0
  0
LINE
  5
49CB
330
A
100
AcDbEntity
  8
MODEL
100
AcDbLine
 10
226.0933508949975
 20
987.321535875776
 30
0.0
 11
226.0933508949975
 21
934.9395358757932
 31
0.0
  0
LINE
  5
49CE
330
A
100
AcDbEntity
  8
MODEL
100
AcDbLine
 10
304.0933508949975
 20
1012.939535875735
 30
0.0
 11
251.7113508950143
 21
1012.939535875735
 31
0.0
  0
LINE
  5
49CF
330
A
100
AcDbEntity
  8
MODEL
100
AcDbLine
 10
304.0933508949975
 20
978.939535875793
 30
0.0
 11
260.0933508949976
 21
978.939535875793
 31
0.0
  0
LINE
  5
49D0
330
A
100
AcDbEntity
  8
MODEL
100
AcDbLine
 10
304.0933508949975
 20
979.771535875788
 30
0.0
 11
304.0933508949975
 21
978.939535875793
 31
0.0
  0
LINE
  5
49D1
330
A
100
AcDbEntity
  8
MODEL
100
AcDbLine
 10
304.0933508949975
 20
982.186535875767
 30
0.0
 11
304.0933508949975
 21
979.771535875788
 31
0.0
  0
LINE
  5
49D2
330
A
100
AcDbEntity
  8
MODEL
100
AcDbLine
 10
304.0933508949975
 20
985.947535875766
 30
0.0
 11
304.0933508949975
 21
982.186535875767
 31
0.0
  0
LINE
  5
49D3
330
A
100
AcDbEntity
  8
MODEL
100
AcDbLine
 10
304.0933508949975
 20
990.686535875767
 30
0.0
 11
304.0933508949975
 21
985.947535875766
 31
0.0
  0
LINE
  5
49D4
330
A
100
AcDbEntity
  8
MODEL
100
AcDbLine
 10
304.0933508949975
 20
995.9405358757831
 30
0.0
 11
304.0933508949975
 21
990.686535875767
 31
0.0
  0
LINE
  5
49D5
330
A
100
AcDbEntity
  8
MODEL
100
AcDbLine
 10
304.0933508949975
 20
1001.193535875751
 30
0.0
 11
304.0933508949975
 21
995.9405358757831
 31
0.0
  0
LINE
  5
49D6
330
A
100
AcDbEntity
  8
MODEL
100
AcDbLine
 10
304.0933508949975
 20
1005.932535875752
 30
0.0
 11
304.0933508949975
 21
1001.193535875751
 31
0.0
  0
LINE
  5
49D7
330
A
100
AcDbEntity
  8
MODEL
100
AcDbLine
 10
304.0933508949975
 20
1009.693535875751
 30
0.0
 11
304.0933508949975
 21
1005.932535875752
 31
0.0
  0
LINE
  5
49D8
330
A
100
AcDbEntity
  8
MODEL
100
AcDbLine
 10
304.0933508949975
 20
1012.10753587574
 30
0.0
 11
304.0933508949975
 21
1009.693535875751
 31
0.0
  0
LINE
  5
49D9
330
A
100
AcDbEntity
  8
MODEL
100
AcDbLine
 10
304.0933508949975
 20
1012.939535875735
 30
0.0
 11
304.0933508949975
 21
1012.10753587574
 31
0.0
  0
LINE
  5
49DA
330
A
100
AcDbEntity
  8
MODEL
100
AcDbLine
 10
748.0933508949976
 20
1012.939535875735
 30
0.0
 11
741.0933508949976
 21
1012.939535875735
 31
0.0
  0
LINE
  5
49DB
330
A
100
AcDbEntity
  8
MODEL
100
AcDbLine
 10
711.0933508949976
 20
1012.939535875735
 30
0.0
 11
341.0933508949975
 21
1012.939535875735
 31
0.0
  0
LINE
  5
49DC
330
A
100
AcDbEntity
  8
MODEL
100
AcDbLine
 10
311.0933508952304
 20
1012.939535875735
 30
0.0
 11
304.0933508949975
 21
1012.939535875735
 31
0.0
  0
LINE
  5
49DD
330
A
100
AcDbEntity
  8
MODEL
100
AcDbLine
 10
748.0933508949976
 20
1012.10753587574
 30
0.0
 11
748.0933508949976
 21
1012.939535875735
 31
0.0
  0
LINE
  5
49DE
330
A
100
AcDbEntity
  8
MODEL
100
AcDbLine
 10
304.0933508949975
 20
1012.939535875735
 30
0.0
 11
304.0933508949975
 21
1012.10753587574
 31
0.0
  0
LINE
  5
49DF
330
A
100
AcDbEntity
  8
MODEL
100
AcDbLine
 10
748.0933508949976
 20
1009.692535875761
 30
0.0
 11
748.0933508949976
 21
1012.10753587574
 31
0.0
  0
LINE
  5
49E0
330
A
100
AcDbEntity
  8
MODEL
100
AcDbLine
 10
304.0933508949975
 20
1012.10753587574
 30
0.0
 11
304.0933508949975
 21
1009.692535875761
 31
0.0
  0
LINE
  5
49E1
330
A
100
AcDbEntity
  8
MODEL
100
AcDbLine
 10
748.0933508949976
 20
1005.931535875763
 30
0.0
 11
748.0933508949976
 21
1009.692535875761
 31
0.0
  0
LINE
  5
49E2
330
A
100
AcDbEntity
  8
MODEL
100
AcDbLine
 10
304.0933508949975
 20
1009.692535875761
 30
0.0
 11
304.0933508949975
 21
1005.931535875763
 31
0.0
  0
LINE
  5
49E3
330
A
100
AcDbEntity
  8
MODEL
100
AcDbLine
 10
748.0933508949976
 20
1001.192535875761
 30
0.0
 11
748.0933508949976
 21
1005.931535875763
 31
0.0
  0
LINE
  5
49E4
330
A
100
AcDbEntity
  8
MODEL
100
AcDbLine
 10
304.0933508949975
 20
1005.931535875763
 30
0.0
 11
304.0933508949975
 21
1001.192535875761
 31
0.0
  0
LINE
  5
49E5
330
A
100
AcDbEntity
  8
MODEL
100
AcDbLine
 10
748.0933508949976
 20
995.9395358757929
 30
0.0
 11
748.0933508949976
 21
1001.192535875761
 31
0.0
  0
LINE
  5
49E6
330
A
100
AcDbEntity
  8
MODEL
100
AcDbLine
 10
304.0933508949975
 20
1001.192535875761
 30
0.0
 11
304.0933508949975
 21
995.9395358757929
 31
0.0
  0
LINE
  5
49E7
330
A
100
AcDbEntity
  8
MODEL
100
AcDbLine
 10
748.0933508949976
 20
990.685535875778
 30
0.0
 11
748.0933508949976
 21
995.9395358757929
 31
0.0
  0
LINE
  5
49E8
330
A
100
AcDbEntity
  8
MODEL
100
AcDbLine
 10
304.0933508949975
 20
995.9395358757929
 30
0.0
 11
304.0933508949975
 21
990.685535875778
 31
0.0
  0
LINE
  5
49E9
330
A
100
AcDbEntity
  8
MODEL
100
AcDbLine
 10
748.0933508949976
 20
985.946535875776
 30
0.0
 11
748.0933508949976
 21
990.685535875778
 31
0.0
  0
LINE
  5
49EA
330
A
100
AcDbEntity
  8
MODEL
100
AcDbLine
 10
304.0933508949975
 20
990.685535875778
 30
0.0
 11
304.0933508949975
 21
985.946535875776
 31
0.0
  0
LINE
  5
49EB
330
A
100
AcDbEntity
  8
MODEL
100
AcDbLine
 10
748.0933508949976
 20
982.185535875778
 30
0.0
 11
748.0933508949976
 21
985.946535875776
 31
0.0
  0
LINE
  5
49EC
330
A
100
AcDbEntity
  8
MODEL
100
AcDbLine
 10
304.0933508949975
 20
985.946535875776
 30
0.0
 11
304.0933508949975
 21
982.185535875778
 31
0.0
  0
LINE
  5
49ED
330
A
100
AcDbEntity
  8
MODEL
100
AcDbLine
 10
748.0933508949976
 20
979.771535875788
 30
0.0
 11
748.0933508949976
 21
982.185535875778
 31
0.0
  0
LINE
  5
49EE
330
A
100
AcDbEntity
  8
MODEL
100
AcDbLine
 10
304.0933508949975
 20
982.185535875778
 30
0.0
 11
304.0933508949975
 21
979.771535875788
 31
0.0
  0
LINE
  5
49EF
330
A
100
AcDbEntity
  8
MODEL
100
AcDbLine
 10
748.0933508949976
 20
978.939535875793
 30
0.0
 11
748.0933508949976
 21
979.771535875788
 31
0.0
  0
LINE
  5
49F0
330
A
100
AcDbEntity
  8
MODEL
100
AcDbLine
 10
304.0933508949975
 20
978.939535875793
 30
0.0
 11
748.0933508949976
 21
978.939535875793
 31
0.0
  0
LINE
  5
49F1
330
A
100
AcDbEntity
  8
MODEL
100
AcDbLine
 10
304.0933508949975
 20
979.771535875788
 30
0.0
 11
304.0933508949975
 21
978.939535875793
 31
0.0
  0
LINE
  5
49F2
330
A
100
AcDbEntity
  8
MODEL
100
AcDbLine
 10
226.0933508949975
 20
934.9395358757932
 30
0.0
 11
226.0933508949975
 21
927.9395358757932
 31
0.0
  0
LINE
  5
49F3
330
A
100
AcDbEntity
  8
MODEL
100
AcDbLine
 10
226.0933508949975
 20
897.939535875735
 30
0.0
 11
226.0933508949975
 21
733.1296402948589
 31
0.0
  0
LINE
  5
49F4
330
A
100
AcDbEntity
  8
MODEL
100
AcDbLine
 10
226.0933508949975
 20
497.9395358757932
 30
0.0
 11
226.0933508949975
 21
490.9395358757932
 31
0.0
  0
LINE
  5
49F5
330
A
100
AcDbEntity
  8
MODEL
100
AcDbLine
 10
226.9253508949342
 20
934.9395358757932
 30
0.0
 11
226.0933508949975
 21
934.9395358757932
 31
0.0
  0
LINE
  5
49F6
330
A
100
AcDbEntity
  8
MODEL
100
AcDbLine
 10
226.0933508949975
 20
490.9395358757932
 30
0.0
 11
226.9253508949342
 21
490.9395358757932
 31
0.0
  0
LINE
  5
49F7
330
A
100
AcDbEntity
  8
MODEL
100
AcDbLine
 10
229.3403508949715
 20
934.9395358757932
 30
0.0
 11
226.9253508949342
 21
934.9395358757932
 31
0.0
  0
LINE
  5
49F8
330
A
100
AcDbEntity
  8
MODEL
100
AcDbLine
 10
226.9253508949342
 20
490.9395358757932
 30
0.0
 11
229.3403508949715
 21
490.9395358757932
 31
0.0
  0
LINE
  5
49F9
330
A
100
AcDbEntity
  8
MODEL
100
AcDbLine
 10
233.1013508951447
 20
934.9395358757932
 30
0.0
 11
229.3403508949715
 21
934.9395358757932
 31
0.0
  0
LINE
  5
49FA
330
A
100
AcDbEntity
  8
MODEL
100
AcDbLine
 10
229.3403508949715
 20
490.9395358757932
 30
0.0
 11
233.1013508951447
 21
490.9395358757932
 31
0.0
  0
LINE
  5
49FB
330
A
100
AcDbEntity
  8
MODEL
100
AcDbLine
 10
237.8403508952043
 20
934.9395358757932
 30
0.0
 11
233.1013508951447
 21
934.9395358757932
 31
0.0
  0
LINE
  5
49FC
330
A
100
AcDbEntity
  8
MODEL
100
AcDbLine
 10
233.1013508951447
 20
490.9395358757932
 30
0.0
 11
237.8403508952043
 21
490.9395358757932
 31
0.0
  0
LINE
  5
49FD
330
A
100
AcDbEntity
  8
MODEL
100
AcDbLine
 10
243.0933508952304
 20
934.9395358757932
 30
0.0
 11
237.8403508952043
 21
934.9395358757932
 31
0.0
  0
LINE
  5
49FE
330
A
100
AcDbEntity
  8
MODEL
100
AcDbLine
 10
237.8403508952043
 20
490.9395358757932
 30
0.0
 11
243.0933508952304
 21
490.9395358757932
 31
0.0
  0
LINE
  5
49FF
330
A
100
AcDbEntity
  8
MODEL
100
AcDbLine
 10
248.3473508951875
 20
934.9395358757932
 30
0.0
 11
243.0933508952304
 21
934.9395358757932
 31
0.0
  0
LINE
  5
4A00
330
A
100
AcDbEntity
  8
MODEL
100
AcDbLine
 10
243.0933508952304
 20
490.9395358757932
 30
0.0
 11
248.3473508951875
 21
490.9395358757932
 31
0.0
  0
LINE
  5
4A01
330
A
100
AcDbEntity
  8
MODEL
100
AcDbLine
 10
253.0863508950143
 20
934.9395358757932
 30
0.0
 11
248.3473508951875
 21
934.9395358757932
 31
0.0
  0
LINE
  5
4A02
330
A
100
AcDbEntity
  8
MODEL
100
AcDbLine
 10
248.3473508951875
 20
490.9395358757932
 30
0.0
 11
253.0863508950143
 21
490.9395358757932
 31
0.0
  0
LINE
  5
4A03
330
A
100
AcDbEntity
  8
MODEL
100
AcDbLine
 10
256.8473508949547
 20
934.9395358757932
 30
0.0
 11
253.0863508950143
 21
934.9395358757932
 31
0.0
  0
LINE
  5
4A04
330
A
100
AcDbEntity
  8
MODEL
100
AcDbLine
 10
253.0863508950143
 20
490.9395358757932
 30
0.0
 11
256.8473508949547
 21
490.9395358757932
 31
0.0
  0
LINE
  5
4A05
330
A
100
AcDbEntity
  8
MODEL
100
AcDbLine
 10
259.2613508950609
 20
934.9395358757932
 30
0.0
 11
256.8473508949547
 21
934.9395358757932
 31
0.0
  0
LINE
  5
4A06
330
A
100
AcDbEntity
  8
MODEL
100
AcDbLine
 10
256.8473508949547
 20
490.9395358757932
 30
0.0
 11
259.2613508950609
 21
490.9395358757932
 31
0.0
  0
LINE
  5
4A07
330
A
100
AcDbEntity
  8
MODEL
100
AcDbLine
 10
260.0933508949976
 20
934.9395358757932
 30
0.0
 11
259.2613508950609
 21
934.9395358757932
 31
0.0
  0
LINE
  5
4A08
102
{ACAD_REACTORS
330
4C09
102
}
330
A
100
AcDbEntity
  8
MODEL
100
AcDbLine
 10
260.0933508949976
 20
490.9395358757932
 30
0.0
 11
260.0933508949976
 21
731.1795014226402
 31
0.0
  0
LINE
  5
4A09
330
A
100
AcDbEntity
  8
MODEL
100
AcDbLine
 10
259.2613508950609
 20
490.9395358757932
 30
0.0
 11
260.0933508949976
 21
490.9395358757932
 31
0.0
  0
LINE
  5
4B39
330
A
100
AcDbEntity
  8
MODEL
100
AcDbLine
 10
235.0933508957254
 20
297.716554008919
 30
0.0
 11
180.0933508949978
 21
297.716554008919
 31
0.0
  0
LINE
  5
4B3A
330
A
100
AcDbEntity
  8
MODEL
100
AcDbLine
 10
180.0933508949978
 20
267.716554008919
 30
0.0
 11
235.0933508957254
 21
267.716554008919
 31
0.0
  0
LINE
  5
4B55
330
A
100
AcDbEntity
  8
MODEL
100
AcDbLine
 10
246.6083508948953
 20
265.716554008919
 30
0.0
 11
255.0933508949978
 21
265.716554008919
 31
0.0
  0
LINE
  5
4B59
330
A
100
AcDbEntity
  8
MODEL
100
AcDbLine
 10
304.0933508949979
 20
299.716554008919
 30
0.0
 11
243.0933508952306
 21
299.7165540086862
 31
0.0
  0
LINE
  5
4B5A
330
A
100
AcDbEntity
  8
MODEL
100
AcDbLine
 10
304.0933508949979
 20
265.716554008919
 30
0.0
 11
243.0933508952306
 21
265.7165540091519
 31
0.0
  0
LINE
  5
4B65
330
A
100
AcDbEntity
  8
MODEL
100
AcDbLine
 10
748.0933508949978
 20
299.716554008919
 30
0.0
 11
304.0933508949979
 21
299.716554008919
 31
0.0
  0
LINE
  5
4B66
330
A
100
AcDbEntity
  8
MODEL
100
AcDbLine
 10
748.0933508949978
 20
298.8845540089242
 30
0.0
 11
748.0933508949978
 21
299.716554008919
 31
0.0
  0
LINE
  5
4B68
330
A
100
AcDbEntity
  8
MODEL
100
AcDbLine
 10
748.0933508949978
 20
296.4695540089451
 30
0.0
 11
748.0933508949978
 21
298.8845540089242
 31
0.0
  0
LINE
  5
4B6A
330
A
100
AcDbEntity
  8
MODEL
100
AcDbLine
 10
748.0933508949978
 20
292.7085540089465
 30
0.0
 11
748.0933508949978
 21
296.4695540089451
 31
0.0
  0
LINE
  5
4B6C
330
A
100
AcDbEntity
  8
MODEL
100
AcDbLine
 10
748.0933508949978
 20
287.9695540088869
 30
0.0
 11
748.0933508949978
 21
292.7085540089465
 31
0.0
  0
LINE
  5
4B6E
330
A
100
AcDbEntity
  8
MODEL
100
AcDbLine
 10
748.0933508949978
 20
282.716554008919
 30
0.0
 11
748.0933508949978
 21
287.9695540088869
 31
0.0
  0
LINE
  5
4B70
330
A
100
AcDbEntity
  8
MODEL
100
AcDbLine
 10
748.0933508949978
 20
277.4635540089512
 30
0.0
 11
748.0933508949978
 21
282.716554008919
 31
0.0
  0
LINE
  5
4B72
330
A
100
AcDbEntity
  8
MODEL
100
AcDbLine
 10
748.0933508949978
 20
272.7245540088916
 30
0.0
 11
748.0933508949978
 21
277.4635540089512
 31
0.0
  0
LINE
  5
4B74
330
A
100
AcDbEntity
  8
MODEL
100
AcDbLine
 10
748.0933508949978
 20
268.963554008893
 30
0.0
 11
748.0933508949978
 21
272.7245540088916
 31
0.0
  0
LINE
  5
4B76
330
A
100
AcDbEntity
  8
MODEL
100
AcDbLine
 10
748.0933508949978
 20
266.5485540089139
 30
0.0
 11
748.0933508949978
 21
268.963554008893
 31
0.0
  0
LINE
  5
4B78
330
A
100
AcDbEntity
  8
MODEL
100
AcDbLine
 10
748.0933508949978
 20
265.716554008919
 30
0.0
 11
748.0933508949978
 21
266.5485540089139
 31
0.0
  0
LINE
  5
4B79
330
A
100
AcDbEntity
  8
MODEL
100
AcDbLine
 10
304.0933508949979
 20
265.716554008919
 30
0.0
 11
748.0933508949978
 21
265.716554008919
 31
0.0
  0
ARC
  5
4B99
330
A
100
AcDbEntity
  8
MODEL
100
AcDbCircle
 10
251.9319500173467
 20
987.1009367533853
 30
0.0
 40
25.83954079658266
100
AcDbArc
 50
90.48915545038135
 51
179.5108445494892
  0
ARC
  5
4B9E
330
A
100
AcDbEntity
  8
MODEL
100
AcDbCircle
 10
326.093350895114
 20
1020.110502295508
 30
0.0
 40
16.62596641973088
100
AcDbArc
 50
205.5508044106048
 51
334.4491955893952
  0
ARC
  5
4B9F
330
A
100
AcDbEntity
  8
MODEL
100
AcDbCircle
 10
218.9223844751987
 20
912.9395358757641
 30
0.0
 40
16.62596641987335
100
AcDbArc
 50
295.550804410469
 51
64.449195589531
  0
ARC
  5
4BA0
330
A
100
AcDbEntity
  8
MODEL
100
AcDbCircle
 10
218.922384475291
 20
512.9395358757641
 30
0.0
 40
16.625966419781
100
AcDbArc
 50
295.5508044102684
 51
64.4491955897316
  0
ARC
  5
4BA1
330
A
100
AcDbEntity
  8
MODEL
100
AcDbCircle
 10
726.093350895114
 20
1020.110502295508
 30
0.0
 40
16.62596641973088
100
AcDbArc
 50
205.5508044106048
 51
334.4491955893952
  0
CIRCLE
  5
4BA4
330
A
100
AcDbEntity
  8
MODEL
100
AcDbCircle
 10
243.0933508952306
 20
282.716554008919
 30
0.0
 40
16.99999999976717
  0
ARC
  5
4BA6
330
A
100
AcDbEntity
  8
MODEL
100
AcDbCircle
 10
326.0933508949979
 20
282.716554008919
 30
0.0
 40
41.0
100
AcDbArc
 50
24.49627905117822
 51
155.5037209489115
  0
ARC
  5
4BA8
330
A
100
AcDbEntity
  8
MODEL
100
AcDbCircle
 10
726.0933508949978
 20
282.716554008919
 30
0.0
 40
41.0
100
AcDbArc
 50
204.4962790511781
 51
155.5037209488217
  0
ARC
  5
4BA9
330
A
100
AcDbEntity
  8
MODEL
100
AcDbCircle
 10
326.0933508949979
 20
282.716554008919
 30
0.0
 40
41.0
100
AcDbArc
 50
204.4962790510885
 51
335.5037209488219
  0
LWPOLYLINE
  5
4BB0
102
{ACAD_REACTORS
330
4BCD
330
4CBA
102
}
330
A
100
AcDbEntity
  8
MODEL
100
AcDbPolyline
 90
        4
 70
     1
 43
0.0
 10
285.0933508949975
 20
1058.939535875735
 10
285.0933508949975
 20
1068.939535875735
 10
367.0933508949975
 20
1068.939535875735
 10
367.0933508949975
 20
1058.939535875735
  0
LWPOLYLINE
  5
4BB1
102
{ACAD_REACTORS
330
4BCD
102
}
330
A
100
AcDbEntity
  8
MODEL
100
AcDbPolyline
 90
        4
 70
     1
 43
0.0
 10
685.0933508947646
 20
1058.939535875735
 10
685.0933508947646
 20
1068.939535875735
 10
767.0933508947646
 20
1068.939535875735
 10
767.0933508947646
 20
1058.939535875735
  0
LWPOLYLINE
  5
4BB2
102
{ACAD_REACTORS
330
4BDC
330
4C9C
102
}
330
A
100
AcDbEntity
  8
MODEL
100
AcDbPolyline
 90
        4
 70
     1
 43
0.0
 10
170.0933508949977
 20
953.9395358757641
 10
180.0933508949977
 20
953.9395358757641
 10
180.0933508949975
 20
871.9395358757641
 10
170.0933508949975
 20
871.9395358757641
  0
LWPOLYLINE
  5
4BB5
102
{ACAD_REACTORS
330
4BDC
330
4BFA
102
}
330
A
100
AcDbEntity
  8
MODEL
100
AcDbPolyline
 90
        4
 70
     1
 43
0.0
 10
170.0933508949977
 20
553.9395358758223
 10
180.0933508949977
 20
553.9395358758223
 10
180.0933508949975
 20
471.9395358758223
 10
170.0933508949975
 20
471.9395358758223
  0
LWPOLYLINE
  5
4BB6
330
A
100
AcDbEntity
  8
MODEL
100
AcDbPolyline
 90
        4
 70
     1
 43
0.0
 10
170.0933508949979
 20
323.7165540089481
 10
180.0933508949979
 20
323.7165540089481
 10
180.0933508949977
 20
241.7165540089481
 10
170.0933508949977
 20
241.7165540089481
  0
LINE
  5
4BB7
330
A
100
AcDbEntity
  8
MODEL
100
AcDbLine
 10
304.0933508949979
 20
299.716554008919
 30
0.0
 11
304.0933508949979
 21
265.716554008919
 31
0.0
  0
DIMENSION
  5
4BCB
102
{ACAD_REACTORS
330
4BCD
102
}
102
{ACAD_XDICTIONARY
360
4BCC
102
}
330
A
100
AcDbEntity
  8
DIM
100
AcDbDimension
  2
*D5
 10
726.0933508947646
 20
1096.251758064438
 30
0.0
 11
526.0933508948812
 21
1096.251758064438
 31
0.0
 70
   160
 71
     5
 42
399.9999999997671
 73
     0
 74
     0
 75
     0
  3
tfrom線あり
100
AcDbAlignedDimension
 13
326.0933508949975
 23
1068.939535875735
 33
0.0
 14
726.0933508947646
 24
1068.939535875735
 34
0.0
100
AcDbRotatedDimension
1001
ACAD
1000
DSTYLE
1002
{
1070
   144
1040
1.0
1002
}
  0
DIMENSION
  5
4BDA
102
{ACAD_REACTORS
330
4BDC
102
}
102
{ACAD_XDICTIONARY
360
4BDB
102
}
330
A
100
AcDbEntity
  8
DIM
100
AcDbDimension
  2
*D6
 10
132.7134346504561
 20
512.9395358758223
 30
0.0
 11
123.7134346504561
 21
712.9395358757932
 31
0.0
 70
    32
  1
600
 71
     5
 42
399.9999999999418
 73
     0
 74
     0
 75
     0
  3
tfrom線あり
100
AcDbAlignedDimension
 13
170.0933508949976
 23
912.9395358757641
 33
0.0
 14
170.0933508949976
 24
512.9395358758223
 34
0.0
 50
90.0
100
AcDbRotatedDimension
1001
ACAD
1000
DSTYLE
1002
{
1070
   144
1040
1.0
1002
}
  0
DIMENSION
  5
4BE9
330
A
100
AcDbEntity
  8
DIM
100
AcDbDimension
  2
*D7
 10
170.0933508949977
 20
1131.855255771429
 30
0.0
 11
468.5933508948813
 21
1131.855255771429
 31
0.0
 70
   160
 71
     5
 42
596.9999999997669
 73
     0
 74
     0
 75
     0
  3
tfrom線あり
100
AcDbAlignedDimension
 13
767.0933508947646
 23
1068.939535875735
 33
0.0
 14
170.0933508949977
 24
1068.939535875735
 34
0.0
100
AcDbRotatedDimension
1001
ACAD
1000
DSTYLE
1002
{
1070
   144
1040
1.0
1002
}
  0
DIMENSION
  5
4BF8
102
{ACAD_REACTORS
330
4BFA
102
}
102
{ACAD_XDICTIONARY
360
4BF9
102
}
330
A
100
AcDbEntity
  8
DIM
100
AcDbDimension
  2
*D8
 10
86.92437592705187
 20
1068.939535875735
 30
0.0
 11
77.92437592705184
 21
770.4395358757788
 31
0.0
 70
    32
  1
797
 71
     5
 42
596.9999999999128
 73
     0
 74
     0
 75
     0
  3
tfrom線あり
100
AcDbAlignedDimension
 13
170.0933508949975
 23
471.9395358758223
 33
0.0
 14
170.0933508949977
 24
1068.939535875735
 34
0.0
 50
90.0
100
AcDbRotatedDimension
1001
ACAD
1000
DSTYLE
1002
{
1070
   144
1040
1.0
1002
}
  0
DIMENSION
  5
4C07
102
{ACAD_REACTORS
330
4C09
102
}
102
{ACAD_XDICTIONARY
360
4C08
102
}
330
A
100
AcDbEntity
  8
DIM
100
AcDbDimension
  2
*D9
 10
260.0933508949976
 20
422.1693075007811
 30
0.0
 11
215.0933508949976
 21
422.1693075007811
 31
0.0
 70
   160
 71
     5
 42
90.00000000000011
 73
     0
 74
     0
 75
     0
  3
tfrom線あり
100
AcDbAlignedDimension
 13
170.0933508949975
 23
452.7583978601826
 33
0.0
 14
260.0933508949976
 24
490.9395358757932
 34
0.0
100
AcDbRotatedDimension
1001
ACAD
1000
DSTYLE
1002
{
1070
   144
1040
1.0
1002
}
  0
LINE
  5
4C25
330
A
100
AcDbEntity
  8
DIM
100
AcDbLine
 10
511.9328795234042
 20
299.716554008919
 30
0.0
 11
537.7150071829785
 21
335.6725097434646
 31
0.0
  0
LINE
  5
4C26
330
A
100
AcDbEntity
  8
DIM
100
AcDbLine
 10
537.7150071829785
 20
335.6725097434646
 30
0.0
 11
567.1802959367778
 21
335.6725097434646
 31
0.0
  0
MTEXT
  5
4C5A
330
A
100
AcDbEntity
  8
DIM
390
1D
100
AcDbMText
 10
541.9639018212762
 20
350.8902469643045
 30
0.0
 40
9.773046875
 41
0.0
 46
9.773046875
 71
     1
 72
     1
  1
{%%c33}
  7
ＭＳ ゴシック
 73
     1
 44
0.7828267384257843
1001
ACAD
1000
ACAD_MTEXT_DEFINED_HEIGHT_BEGIN
1070
    46
1040
9.773046875
1000
ACAD_MTEXT_DEFINED_HEIGHT_END
  0
LINE
  5
4C5E
330
A
100
AcDbEntity
  8
DIM
100
AcDbLine
 10
330.4267007999999
 20
324.4673965621105
 30
0.0
 11
356.2088284595743
 21
360.4233522966561
 31
0.0
  0
LINE
  5
4C5F
330
A
100
AcDbEntity
  8
DIM
100
AcDbLine
 10
356.2088284595743
 20
360.4233522966561
 30
0.0
 11
385.6741172133736
 21
360.4233522966561
 31
0.0
  0
MTEXT
  5
4C60
330
A
100
AcDbEntity
  8
DIM
390
1D
100
AcDbMText
 10
360.4577230978721
 20
377.9983126178
 30
0.0
 40
9.773046875
 41
0.0
 46
9.773046875
 71
     1
 72
     1
  1
{Ø82}
  7
ＭＳ ゴシック
 73
     1
 44
0.7828267384257843
1001
ACAD
1000
ACAD_MTEXT_DEFINED_HEIGHT_BEGIN
1070
    46
1040
9.773046875
1000
ACAD_MTEXT_DEFINED_HEIGHT_END
  0
MTEXT
  5
4C64
330
A
100
AcDbEntity
  8
TEMPLATE
390
1D
100
AcDbMText
 10
531.6808578191959
 20
156.8356210751398
 30
0.0
 40
9.773046875
 41
0.0
 46
10.3203375
 71
     1
 72
     1
  1
{FLR74-1823-N03 アルミシルバー}
  7
ＭＳ ゴシック
 73
     1
 44
0.7828267384257843
1001
ACAD
1000
ACAD_MTEXT_DEFINED_HEIGHT_BEGIN
1070
    46
1040
10.3203375
1000
ACAD_MTEXT_DEFINED_HEIGHT_END
  0
MTEXT
  5
4C65
330
A
100
AcDbEntity
  8
TEMPLATE
390
1D
100
AcDbMText
 10
531.6808578191959
 20
174.3356453717963
 30
0.0
 40
9.773046875
 41
0.0
 46
9.919642578125
 71
     1
 72
     1
  1
{FLR74-1823-N01 クローム}
  7
ＭＳ ゴシック
 73
     1
 44
0.7828267384257843
1001
ACAD
1000
ACAD_MTEXT_DEFINED_HEIGHT_BEGIN
1070
    46
1040
9.919642578125
1000
ACAD_MTEXT_DEFINED_HEIGHT_END
  0
LINE
  5
4C70
330
A
100
AcDbEntity
  8
DIM
100
AcDbLine
 10
170.0933508949977
 20
350.7286829908813
 30
0.0
 11
170.0933508949977
 21
204.3922729240119
 31
0.0
  0
LINE
  5
4C71
102
{ACAD_REACTORS
330
4CD8
102
}
330
A
100
AcDbEntity
  8
DIM
100
AcDbLine
 10
170.0933508949977
 20
1068.939535875735
 30
0.0
 11
170.0933508949975
 21
452.7583978601826
 31
0.0
  0
LINE
  5
4C72
102
{ACAD_REACTORS
330
4C9C
102
}
330
A
100
AcDbEntity
  8
DIM
100
AcDbLine
 10
170.0933508949977
 20
1068.939535875735
 30
0.0
 11
785.7997737629181
 21
1068.939535875735
 31
0.0
  0
LINE
  5
4C90
330
A
100
AcDbEntity
  8
DIM
100
AcDbLine
 10
269.6770542258965
 20
757.2397740523775
 30
0.0
 11
214.2823113687536
 21
726.595873748426
 31
0.0
  0
LINE
  5
4C91
330
A
100
AcDbEntity
  8
DIM
100
AcDbLine
 10
269.6770542258964
 20
736.4811245418608
 30
0.0
 11
214.2823113687535
 21
705.8372242379094
 31
0.0
  0
LINE
  5
4C92
330
A
100
AcDbEntity
  8
MODEL
100
AcDbLine
 10
260.0933508949976
 20
751.9381509331567
 30
0.0
 11
260.0933508949976
 21
934.9395358757932
 31
0.0
  0
LINE
  5
4C93
330
A
100
AcDbEntity
  8
MODEL
100
AcDbLine
 10
226.0933508949975
 20
712.3709907843422
 30
0.0
 11
226.0933508949975
 21
527.939535875735
 31
0.0
  0
VIEWPORT
  5
349
330
B
100
AcDbEntity
 67
     1
  8
0
100
AcDbViewport
 10
202.5
 20
128.5
 30
0.0
 40
486.0
 41
308.4
 68
     1
 69
     1
 12
202.5
 22
128.5
 13
0.0
 23
0.0
 14
0.5
 24
0.5
 15
0.0
 25
0.0
 16
0.0
 26
0.0
 36
1.0
 17
0.0
 27
0.0
 37
0.0
 42
50.0
 43
0.0
 44
0.0
 45
308.4
 50
0.0
 51
0.0
 72
   100
 90
   557152
  1

281
     0
 71
     1
 74
     0
110
0.0
120
0.0
130
0.0
111
1.0
121
0.0
131
0.0
112
0.0
122
1.0
132
0.0
 79
     0
146
0.0
170
     0
 61
     5
348
26C
292
     1
282
     1
141
0.0
142
0.0
 63
   256
  0
VIEWPORT
  5
34A
330
B
100
AcDbEntity
 67
     1
  8
0
100
AcDbViewport
 10
202.5
 20
128.5
 30
0.0
 40
324.0
 41
205.6
 68
     2
 69
     2
 12
986.6781359294573
 22
1427.077061889956
 13
0.0
 23
0.0
 14
0.5
 24
0.5
 15
0.0
 25
0.0
 16
0.0
 26
0.0
 36
1.0
 17
0.0
 27
0.0
 37
0.0
 42
50.0
 43
0.0
 44
0.0
 45
2890.021615685494
 50
0.0
 51
0.0
 72
   100
 90
   557152
  1

281
     0
 71
     1
 74
     0
110
0.0
120
0.0
130
0.0
111
1.0
121
0.0
131
0.0
112
0.0
122
1.0
132
0.0
 79
     0
146
0.0
170
     0
 61
     5
348
26C
292
     1
282
     1
141
0.0
142
0.0
 63
   256
  0
ENDSEC
  0
SECTION
  2
OBJECTS
  0
DICTIONARY
  5
19
330
0
100
AcDbDictionary
281
     1
  3
ACAD_COLOR
350
674
  3
ACAD_DETAILVIEWSTYLE
350
BBF
  3
ACAD_FIELDLIST
350
3BE4
  3
ACAD_GROUP
350
1A
  3
ACAD_IMAGE_VARS
350
27B
  3
ACAD_LAYOUT
350
1E
  3
ACAD_MATERIAL
350
263
  3
ACAD_MLEADERSTYLE
350
336
  3
ACAD_MLINESTYLE
350
1B
  3
ACAD_PLOTSETTINGS
350
22
  3
ACAD_PLOTSTYLENAME
350
1F
  3
ACAD_SCALELIST
350
241
  3
ACAD_SECTIONVIEWSTYLE
350
BC0
  3
ACAD_TABLESTYLE
350
278
  3
ACAD_VISUALSTYLE
350
267
  3
ACDB_RECOMPOSE_DATA
350
4D02
  3
AcDbVariableDictionary
350
330
  3
APPDATA
350
27A
  3
DimOffsetDictionary
350
E38
  0
SUN
  5
904
330
15
100
AcDbSun
 90
        1
290
     0
 63
     7
421
 16777215
 40
1.0
291
     1
 91
  2455826
 92
 54000000
292
     0
 70
     2
 71
   256
280
     1
  0
DICTIONARY
  5
2E1
330
2
100
AcDbDictionary
280
     1
281
     1
  3
ACAD_LAYERSTATES
360
2E2
  3
ACLYDICTIONARY
360
DDE
  0
DICTIONARY
  5
3E3E
330
A
100
AcDbDictionary
280
     1
281
     1
  3
ACAD_SORTENTS
360
3E3F
  0
DICTIONARY
  5
3DB8
330
3DB7
100
AcDbDictionary
280
     1
281
     1
  3
ACAD_FIELD
360
4C66
  0
DICTIONARY
  5
4BCC
330
4BCB
100
AcDbDictionary
280
     1
281
     1
  3
ACAD_DIMASSOC
360
4BCD
  0
DICTIONARY
  5
4BDB
330
4BDA
100
AcDbDictionary
280
     1
281
     1
  3
ACAD_DIMASSOC
360
4BDC
  0
DICTIONARY
  5
4BF9
330
4BF8
100
AcDbDictionary
280
     1
281
     1
  3
ACAD_DIMASSOC
360
4BFA
  0
DICTIONARY
  5
4C08
330
4C07
100
AcDbDictionary
280
     1
281
     1
  3
ACAD_DIMASSOC
360
4C09
  0
DICTIONARY
  5
674
102
{ACAD_REACTORS
330
19
102
}
330
19
100
AcDbDictionary
281
     1
  0
DICTIONARY
  5
BBF
102
{ACAD_REACTORS
330
19
102
}
330
19
100
AcDbDictionary
281
     1
  0
FIELDLIST
  5
3BE4
102
{ACAD_REACTORS
330
19
102
}
330
19
100
AcDbIdSet
 90
        2
330
3DBB
330
3DBA
100
AcDbFieldList
  0
DICTIONARY
  5
1A
102
{ACAD_REACTORS
330
19
102
}
330
19
100
AcDbDictionary
281
     1
  3
*A1
350
3CF4
  0
RASTERVARIABLES
  5
27B
102
{ACAD_REACTORS
330
19
102
}
330
19
100
AcDbRasterVariables
 90
        0
 70
     1
 71
     1
 72
     1
  0
DICTIONARY
  5
1E
102
{ACAD_REACTORS
330
19
102
}
330
19
100
AcDbDictionary
281
     1
  3
Layout1
350
21
  3
Model
350
20
  0
DICTIONARY
  5
263
102
{ACAD_REACTORS
330
19
102
}
330
19
100
AcDbDictionary
281
     1
  3
ByBlock
350
265
  3
ByLayer
350
264
  3
Global
350
266
  0
DICTIONARY
  5
336
102
{ACAD_REACTORS
330
19
102
}
330
19
100
AcDbDictionary
281
     1
  3
Standard
350
D59
  0
DICTIONARY
  5
1B
102
{ACAD_REACTORS
330
19
102
}
330
19
100
AcDbDictionary
281
     1
  3
Standard
350
1C
  0
DICTIONARY
  5
22
102
{ACAD_REACTORS
330
19
102
}
330
19
100
AcDbDictionary
281
     1
  0
ACDBDICTIONARYWDFLT
  5
1F
102
{ACAD_REACTORS
330
19
102
}
330
19
100
AcDbDictionary
281
     1
  3
Normal
350
1D
100
AcDbDictionaryWithDefault
340
1D
  0
DICTIONARY
  5
241
102
{ACAD_REACTORS
330
19
102
}
330
19
100
AcDbDictionary
281
     1
  3
A0
350
242
  3
A1
350
243
  3
A2
350
244
  3
A3
350
245
  3
A4
350
246
  3
A5
350
247
  3
A6
350
248
  3
A7
350
249
  3
A8
350
24A
  3
A9
350
24B
  3
B0
350
24C
  3
B1
350
24D
  3
B2
350
24E
  3
B3
350
24F
  3
B4
350
250
  3
B5
350
251
  3
B6
350
252
  3
B7
350
253
  3
B8
350
254
  3
B9
350
255
  3
C0
350
256
  3
C1
350
257
  3
C2
350
258
  3
C3
350
259
  3
C4
350
25A
  3
C5
350
25B
  3
C6
350
25C
  3
C7
350
25D
  3
C8
350
25E
  3
C9
350
25F
  3
D0
350
260
  3
D1
350
261
  3
D2
350
262
  0
DICTIONARY
  5
BC0
102
{ACAD_REACTORS
330
19
102
}
330
19
100
AcDbDictionary
281
     1
  0
DICTIONARY
  5
278
102
{ACAD_REACTORS
330
19
102
}
330
19
100
AcDbDictionary
281
     1
  3
Standard
350
279
  0
DICTIONARY
  5
267
102
{ACAD_REACTORS
330
19
102
}
330
19
100
AcDbDictionary
281
     1
  3
2dWireframe
350
26C
  3
3D Hidden
350
26E
  3
3dWireframe
350
26D
  3
Basic
350
26F
  3
Brighten
350
273
  3
ColorChange
350
277
  3
Conceptual
350
271
  3
Dim
350
272
  3
EdgeColorOff
350
8FE
  3
Facepattern
350
276
  3
Flat
350
268
  3
FlatWithEdges
350
269
  3
Gouraud
350
26A
  3
GouraudWithEdges
350
26B
  3
Hidden
350
8FB
  3
JitterOff
350
8FC
  3
Linepattern
350
275
  3
OverhangOff
350
8FD
  3
Realistic
350
270
  3
Shaded
350
903
  3
Shaded with edges
350
902
  3
Shades of Gray
350
8FF
  3
Sketchy
350
900
  3
Thicken
350
274
  3
Wireframe
350
8FA
  3
X-Ray
350
901
  0
XRECORD
  5
4D02
102
{ACAD_REACTORS
330
19
102
}
330
19
100
AcDbXrecord
280
     1
 90
        1
330
279
  0
DICTIONARY
  5
330
102
{ACAD_REACTORS
330
19
102
}
330
19
100
AcDbDictionary
281
     1
  3
CANNOSCALE
350
331
  3
CMLEADERSTYLE
350
D5E
  3
CTABLESTYLE
350
335
  3
HPTRANSPARENCY
350
D52
  3
XCLIPFRAME
350
896
  0
DICTIONARY
  5
27A
102
{ACAD_REACTORS
330
19
102
}
330
19
100
AcDbDictionary
281
     1
  0
DICTIONARY
  5
E38
102
{ACAD_REACTORS
330
19
102
}
330
19
100
AcDbDictionary
281
     1
  3
DIMRAILANGLE
350
246C
  3
DIMRAILFIRSTOFFSET
350
246A
  3
DIMRAILOFFSET
350
246B
  3
DIMRAILSENABLED
350
246D
  0
DICTIONARY
  5
2E2
102
{ACAD_REACTORS
330
2E1
102
}
330
2E1
100
AcDbDictionary
281
     1
  0
DICTIONARY
  5
DDE
102
{ACAD_REACTORS
330
2E1
102
}
330
2E1
100
AcDbDictionary
281
     1
1001
ACAD
1000
<All
  0
SORTENTSTABLE
  5
3E3F
102
{ACAD_REACTORS
330
3E3E
102
}
330
3E3E
100
AcDbSortentsTable
330
A
331
0
  5
3C4A
331
3CE3
  5
3C4B
331
3CE4
  5
3CE2
331
3CEF
  5
3CE3
331
3CF0
  5
3CE4
331
3CF1
  5
3CEF
331
3CF2
  5
3CF0
331
3CF3
  5
3CF1
331
3DB7
  5
3D2F
  0
DICTIONARY
  5
4C66
102
{ACAD_REACTORS
330
3DB8
102
}
330
3DB8
100
AcDbDictionary
280
     1
281
     1
  3
TEXT
360
3DBA
  0
DIMASSOC
  5
4BCD
102
{ACAD_REACTORS
330
4BCC
102
}
330
4BCC
100
AcDbDimAssoc
330
4BCB
 90
        3
 70
     0
 71
     1
  1
AcDbOsnapPointRef
 72
     2
331
4BB0
 73
     2
 91
        2
 40
0.5
 10
0.0
 20
0.0
 30
0.0
 75
     0
  1
AcDbOsnapPointRef
 72
     2
331
4BB1
 73
     2
 91
        2
 40
0.5
 10
0.0
 20
0.0
 30
0.0
 75
     0
  0
DIMASSOC
  5
4BDC
102
{ACAD_REACTORS
330
4BDB
102
}
330
4BDB
100
AcDbDimAssoc
330
4BDA
 90
        3
 70
     0
 71
     1
  1
AcDbOsnapPointRef
 72
     2
331
4BB2
 73
     2
 91
        4
 40
0.5
 10
0.0
 20
0.0
 30
0.0
 75
     0
  1
AcDbOsnapPointRef
 72
     2
331
4BB5
 73
     2
 91
        4
 40
0.5
 10
0.0
 20
0.0
 30
0.0
 75
     0
  0
DIMASSOC
  5
4BFA
102
{ACAD_REACTORS
330
4BF9
102
}
330
4BF9
100
AcDbDimAssoc
330
4BF8
 90
        1
 70
     0
 71
     1
  1
AcDbOsnapPointRef
 72
     1
331
4BB5
 73
     2
 91
        3
 40
1.0
 10
0.0
 20
0.0
 30
0.0
 75
     0
  0
DIMASSOC
  5
4C09
102
{ACAD_REACTORS
330
4C08
102
}
330
4C08
100
AcDbDimAssoc
330
4C07
 90
        2
 70
     0
 71
     1
  1
AcDbOsnapPointRef
 72
    13
331
4A08
 73
     0
 91
        0
 40
0.0
 10
0.0
 20
0.0
 30
0.0
 75
     0
  0
GROUP
  5
3CF4
102
{ACAD_REACTORS
330
1A
102
}
330
1A
100
AcDbGroup
300

 70
     1
 71
     1
340
3CE3
340
3CE4
340
3CEF
340
3CF0
340
3CF1
340
3CF2
340
3CF3
  0
LAYOUT
  5
21
102
{ACAD_REACTORS
330
1E
102
}
330
1E
100
AcDbPlotSettings
  1

  2
none_device
  4
ISO_A3_(420.00_x_297.00_MM)
  6

 40
7.5
 41
20.0
 42
7.5
 43
20.0
 44
420.0
 45
297.0
 46
0.0
 47
0.0
 48
0.0
 49
0.0
140
0.0
141
0.0
142
1.0
143
1.0
 70
     0
 72
     1
 73
     0
 74
     0
  7

 75
     0
 76
     0
 77
     2
 78
   300
147
1.0
148
0.0
149
0.0
100
AcDbLayout
  1
Layout1
 70
     0
 71
     0
 10
-7.5
 20
-20.0
 11
412.5
 21
277.0
 12
0.0
 22
0.0
 32
0.0
 14
0.0
 24
0.0
 34
0.0
 15
0.0
 25
0.0
 35
0.0
146
0.0
 13
0.0
 23
0.0
 33
0.0
 16
0.0
 26
0.0
 36
0.0
 17
0.0
 27
0.0
 37
0.0
 76
     0
330
B
331
349
  0
LAYOUT
  5
20
102
{ACAD_REACTORS
330
1E
102
}
330
1E
100
AcDbPlotSettings
  1

  2
none_device
  4
ISO_A3_(420.00_x_297.00_MM)
  6

 40
7.5
 41
20.0
 42
7.5
 43
20.0
 44
420.0
 45
297.0
 46
0.0
 47
0.0
 48
0.0
 49
0.0
140
0.0
141
0.0
142
1.0
143
1.0
 70
  1024
 72
     1
 73
     0
 74
     0
  7

 75
     0
 76
     0
 77
     2
 78
   300
147
1.0
148
0.0
149
0.0
100
AcDbLayout
  1
Model
 70
     0
 71
     1
 10
0.0
 20
0.0
 11
840.0
 21
1188.0
 12
0.0
 22
0.0
 32
0.0
 14
0.0
 24
0.0
 34
-0.0000000000000071
 15
840.0
 25
1188.0
 35
0.0000000000000071
146
0.0
 13
0.0
 23
0.0
 33
0.0
 16
0.0
 26
0.0
 36
0.0
 17
0.0
 27
0.0
 37
0.0
 76
     0
330
A
331
15
  0
MATERIAL
  5
265
102
{ACAD_REACTORS
330
263
102
}
330
263
100
AcDbMaterial
  1
ByBlock
 72
     1
 94
      127
  0
MATERIAL
  5
264
102
{ACAD_REACTORS
330
263
102
}
330
263
100
AcDbMaterial
  1
ByLayer
 72
     1
 94
      127
  0
MATERIAL
  5
266
102
{ACAD_REACTORS
330
263
102
}
330
263
100
AcDbMaterial
  1
Global
 72
     1
 94
      127
  0
MLEADERSTYLE
  5
D59
102
{ACAD_REACTORS
330
336
102
}
330
336
100
AcDbMLeaderStyle
170
     2
171
     1
172
     0
 90
        2
 40
0.0
 41
0.0
173
     1
 91
-1056964608
340
11
 92
       -2
290
     1
 42
2.0
291
     1
 43
8.0
  3
Standard
341
0
 44
4.0
300

342
17
174
     1
178
     6
175
     1
176
     0
 93
-1056964608
 45
4.0
292
     0
297
     0
 46
4.0
343
0
 94
-1056964608
 47
1.0
 49
1.0
140
1.0
293
     1
141
0.0
294
     1
177
     0
142
1.0
295
     0
296
     0
143
3.75
1001
ACAD_MLEADERVER
1070
     2
  0
MLINESTYLE
  5
1C
102
{ACAD_REACTORS
330
1B
102
}
330
1B
100
AcDbMlineStyle
  2
Standard
 70
     0
  3

 62
     0
 51
90.0
 52
90.0
 71
     2
 49
0.5
 62
   256
  6
BYLAYER
 49
-0.5
 62
   256
  6
BYLAYER
  0
ACDBPLACEHOLDER
  5
1D
102
{ACAD_REACTORS
330
1F
102
}
330
1F
  0
SCALE
  5
242
102
{ACAD_REACTORS
330
241
102
}
330
241
100
AcDbScale
 70
     0
300
1:1
140
1.0
141
1.0
290
     1
  0
SCALE
  5
243
102
{ACAD_REACTORS
330
241
102
}
330
241
100
AcDbScale
 70
     0
300
1:2
140
1.0
141
2.0
290
     0
  0
SCALE
  5
244
102
{ACAD_REACTORS
330
241
102
}
330
241
100
AcDbScale
 70
     0
300
1:4
140
1.0
141
4.0
290
     0
  0
SCALE
  5
245
102
{ACAD_REACTORS
330
241
102
}
330
241
100
AcDbScale
 70
     0
300
1:5
140
1.0
141
5.0
290
     0
  0
SCALE
  5
246
102
{ACAD_REACTORS
330
241
102
}
330
241
100
AcDbScale
 70
     0
300
1:8
140
1.0
141
8.0
290
     0
  0
SCALE
  5
247
102
{ACAD_REACTORS
330
241
102
}
330
241
100
AcDbScale
 70
     0
300
1:10
140
1.0
141
10.0
290
     0
  0
SCALE
  5
248
102
{ACAD_REACTORS
330
241
102
}
330
241
100
AcDbScale
 70
     0
300
1:16
140
1.0
141
16.0
290
     0
  0
SCALE
  5
249
102
{ACAD_REACTORS
330
241
102
}
330
241
100
AcDbScale
 70
     0
300
1:20
140
1.0
141
20.0
290
     0
  0
SCALE
  5
24A
102
{ACAD_REACTORS
330
241
102
}
330
241
100
AcDbScale
 70
     0
300
1:30
140
1.0
141
30.0
290
     0
  0
SCALE
  5
24B
102
{ACAD_REACTORS
330
241
102
}
330
241
100
AcDbScale
 70
     0
300
1:40
140
1.0
141
40.0
290
     0
  0
SCALE
  5
24C
102
{ACAD_REACTORS
330
241
102
}
330
241
100
AcDbScale
 70
     0
300
1:50
140
1.0
141
50.0
290
     0
  0
SCALE
  5
24D
102
{ACAD_REACTORS
330
241
102
}
330
241
100
AcDbScale
 70
     0
300
1:100
140
1.0
141
100.0
290
     0
  0
SCALE
  5
24E
102
{ACAD_REACTORS
330
241
102
}
330
241
100
AcDbScale
 70
     0
300
2:1
140
2.0
141
1.0
290
     0
  0
SCALE
  5
24F
102
{ACAD_REACTORS
330
241
102
}
330
241
100
AcDbScale
 70
     0
300
4:1
140
4.0
141
1.0
290
     0
  0
SCALE
  5
250
102
{ACAD_REACTORS
330
241
102
}
330
241
100
AcDbScale
 70
     0
300
8:1
140
8.0
141
1.0
290
     0
  0
SCALE
  5
251
102
{ACAD_REACTORS
330
241
102
}
330
241
100
AcDbScale
 70
     0
300
10:1
140
10.0
141
1.0
290
     0
  0
SCALE
  5
252
102
{ACAD_REACTORS
330
241
102
}
330
241
100
AcDbScale
 70
     0
300
100:1
140
100.0
141
1.0
290
     0
  0
SCALE
  5
253
102
{ACAD_REACTORS
330
241
102
}
330
241
100
AcDbScale
 70
     0
300
1/128" = 1'-0"
140
0.0078125
141
12.0
290
     0
  0
SCALE
  5
254
102
{ACAD_REACTORS
330
241
102
}
330
241
100
AcDbScale
 70
     0
300
1/64" = 1'-0"
140
0.015625
141
12.0
290
     0
  0
SCALE
  5
255
102
{ACAD_REACTORS
330
241
102
}
330
241
100
AcDbScale
 70
     0
300
1/32" = 1'-0"
140
0.03125
141
12.0
290
     0
  0
SCALE
  5
256
102
{ACAD_REACTORS
330
241
102
}
330
241
100
AcDbScale
 70
     0
300
1/16" = 1'-0"
140
0.0625
141
12.0
290
     0
  0
SCALE
  5
257
102
{ACAD_REACTORS
330
241
102
}
330
241
100
AcDbScale
 70
     0
300
3/32" = 1'-0"
140
0.09375
141
12.0
290
     0
  0
SCALE
  5
258
102
{ACAD_REACTORS
330
241
102
}
330
241
100
AcDbScale
 70
     0
300
1/8" = 1'-0"
140
0.125
141
12.0
290
     0
  0
SCALE
  5
259
102
{ACAD_REACTORS
330
241
102
}
330
241
100
AcDbScale
 70
     0
300
3/16" = 1'-0"
140
0.1875
141
12.0
290
     0
  0
SCALE
  5
25A
102
{ACAD_REACTORS
330
241
102
}
330
241
100
AcDbScale
 70
     0
300
1/4" = 1'-0"
140
0.25
141
12.0
290
     0
  0
SCALE
  5
25B
102
{ACAD_REACTORS
330
241
102
}
330
241
100
AcDbScale
 70
     0
300
3/8" = 1'-0"
140
0.375
141
12.0
290
     0
  0
SCALE
  5
25C
102
{ACAD_REACTORS
330
241
102
}
330
241
100
AcDbScale
 70
     0
300
1/2" = 1'-0"
140
0.5
141
12.0
290
     0
  0
SCALE
  5
25D
102
{ACAD_REACTORS
330
241
102
}
330
241
100
AcDbScale
 70
     0
300
3/4" = 1'-0"
140
0.75
141
12.0
290
     0
  0
SCALE
  5
25E
102
{ACAD_REACTORS
330
241
102
}
330
241
100
AcDbScale
 70
     0
300
1" = 1'-0"
140
1.0
141
12.0
290
     0
  0
SCALE
  5
25F
102
{ACAD_REACTORS
330
241
102
}
330
241
100
AcDbScale
 70
     0
300
1-1/2" = 1'-0"
140
1.5
141
12.0
290
     0
  0
SCALE
  5
260
102
{ACAD_REACTORS
330
241
102
}
330
241
100
AcDbScale
 70
     0
300
3" = 1'-0"
140
3.0
141
12.0
290
     0
  0
SCALE
  5
261
102
{ACAD_REACTORS
330
241
102
}
330
241
100
AcDbScale
 70
     0
300
6" = 1'-0"
140
6.0
141
12.0
290
     0
  0
SCALE
  5
262
102
{ACAD_REACTORS
330
241
102
}
330
241
100
AcDbScale
 70
     0
300
1'-0" = 1'-0"
140
12.0
141
12.0
290
     0
  0
TABLESTYLE
  5
279
102
{ACAD_REACTORS
330
278
102
}
102
{ACAD_XDICTIONARY
360
4D00
102
}
330
278
100
AcDbTableStyle
  3
Standard
 70
     0
 71
     0
 40
0.06
 41
0.06
280
     0
281
     0
  7
Standard
140
4.5
170
     2
 62
     0
 63
   257
283
     0
 90
        4
 91
        0
  1

274
    -2
284
     1
 64
     0
275
    -2
285
     1
 65
     0
276
    -2
286
     1
 66
     0
277
    -2
287
     1
 67
     0
278
    -2
288
     1
 68
     0
279
    -2
289
     1
 69
     0
  7
Standard
140
6.0
170
     5
 62
     0
 63
   257
283
     0
 90
        4
 91
        0
  1

274
    -2
284
     1
 64
     0
275
    -2
285
     1
 65
     0
276
    -2
286
     1
 66
     0
277
    -2
287
     1
 67
     0
278
    -2
288
     1
 68
     0
279
    -2
289
     1
 69
     0
  7
Standard
140
4.5
170
     5
 62
     0
 63
   257
283
     0
 90
        4
 91
        0
  1

274
    -2
284
     1
 64
     0
275
    -2
285
     1
 65
     0
276
    -2
286
     1
 66
     0
277
    -2
287
     1
 67
     0
278
    -2
288
     1
 68
     0
279
    -2
289
     1
 69
     0
  0
VISUALSTYLE
  5
26C
102
{ACAD_REACTORS
330
267
102
}
330
267
100
AcDbVisualStyle
  2
2dWireframe
 70
     4
 71
     0
 72
     2
 73
     0
 90
        0
 40
-0.6
 41
-30.0
 62
     5
 63
     7
421
 16777215
 74
     1
 91
        4
 64
     7
 65
   257
 75
     1
175
     1
 42
1.0
 92
        0
 66
   257
 43
1.0
 76
     1
 77
     6
 78
     2
 67
     7
 79
     5
170
     0
171
     0
290
     0
174
     0
 93
        1
 44
0.0
173
     0
291
     0
 45
0.0
  0
VISUALSTYLE
  5
26E
102
{ACAD_REACTORS
330
267
102
}
330
267
100
AcDbVisualStyle
  2
3D Hidden
 70
     6
 71
     1
 72
     2
 73
     2
 90
        0
 40
-0.6
 41
-30.0
 62
     5
 63
     7
421
 16777215
 74
     2
 91
        2
 64
     7
 65
   257
 75
     2
175
     1
 42
40.0
 92
        0
 66
   257
 43
1.0
 76
     1
 77
     6
 78
     2
 67
     7
 79
     3
170
     0
171
     0
290
     0
174
     0
 93
        1
 44
0.0
173
     0
291
     0
 45
0.0
  0
VISUALSTYLE
  5
26D
102
{ACAD_REACTORS
330
267
102
}
330
267
100
AcDbVisualStyle
  2
3dWireframe
 70
     5
 71
     0
 72
     2
 73
     0
 90
        0
 40
-0.6
 41
-30.0
 62
     5
 63
     7
421
 16777215
 74
     1
 91
        4
 64
     7
 65
   257
 75
     1
175
     1
 42
1.0
 92
        0
 66
   257
 43
1.0
 76
     1
 77
     6
 78
     2
 67
     7
 79
     5
170
     0
171
     0
290
     0
174
     0
 93
        1
 44
0.0
173
     0
291
     0
 45
0.0
  0
VISUALSTYLE
  5
26F
102
{ACAD_REACTORS
330
267
102
}
330
267
100
AcDbVisualStyle
  2
Basic
 70
     7
 71
     1
 72
     0
 73
     1
 90
        0
 40
-0.6
 41
-30.0
 62
     5
 63
     7
421
 16777215
 74
     0
 91
        4
 64
     7
 65
   257
 75
     1
175
     1
 42
1.0
 92
        8
 66
     7
 43
1.0
 76
     1
 77
     6
 78
     2
 67
     7
 79
     5
170
     0
171
     0
290
     0
174
     0
 93
        1
 44
0.0
173
     0
291
     1
 45
0.0
  0
VISUALSTYLE
  5
273
102
{ACAD_REACTORS
330
267
102
}
330
267
100
AcDbVisualStyle
  2
Brighten
 70
    12
 71
     2
 72
     2
 73
     0
 90
        0
 40
-0.6
 41
-30.0
 62
     5
 63
     7
421
 16777215
 74
     1
 91
        4
 64
     7
 65
   257
 75
     1
175
     1
 42
1.0
 92
        8
 66
     7
 43
1.0
 76
     1
 77
     6
 78
     2
 67
     7
 79
     5
170
     0
171
     0
290
     0
174
     0
 93
        1
 44
50.0
173
     0
291
     1
 45
0.0
  0
VISUALSTYLE
  5
277
102
{ACAD_REACTORS
330
267
102
}
330
267
100
AcDbVisualStyle
  2
ColorChange
 70
    16
 71
     2
 72
     2
 73
     3
 90
        0
 40
-0.6
 41
-30.0
 62
     5
 63
     8
421
  8421504
 74
     1
 91
        4
 64
     7
 65
   257
 75
     1
175
     1
 42
1.0
 92
        8
 66
     8
424
  8421504
 43
1.0
 76
     1
 77
     6
 78
     2
 67
     7
 79
     5
170
     0
171
     0
290
     0
174
     0
 93
        1
 44
0.0
173
     0
291
     1
 45
0.0
  0
VISUALSTYLE
  5
271
102
{ACAD_REACTORS
330
267
102
}
330
267
100
AcDbVisualStyle
  2
Conceptual
 70
     9
 71
     3
 72
     2
 73
     0
 90
        0
 40
-0.6
 41
-30.0
 62
     5
 63
     7
421
 16777215
 74
     2
 91
        2
 64
     7
 65
   257
 75
     1
175
     1
 42
40.0
 92
        8
 66
     7
 43
1.0
 76
     1
 77
     6
 78
     2
 67
     7
 79
     3
170
     0
171
     0
290
     0
174
     0
 93
        1
 44
0.0
173
     0
291
     0
 45
0.0
  0
VISUALSTYLE
  5
272
102
{ACAD_REACTORS
330
267
102
}
330
267
100
AcDbVisualStyle
  2
Dim
 70
    11
 71
     2
 72
     2
 73
     0
 90
        0
 40
-0.6
 41
-30.0
 62
     5
 63
     7
421
 16777215
 74
     1
 91
        4
 64
     7
 65
   257
 75
     1
175
     1
 42
1.0
 92
        8
 66
     7
 43
1.0
 76
     1
 77
     6
 78
     2
 67
     7
 79
     5
170
     0
171
     0
290
     0
174
     0
 93
        1
 44
-50.0
173
     0
291
     1
 45
0.0
  0
VISUALSTYLE
  5
8FE
102
{ACAD_REACTORS
330
267
102
}
330
267
100
AcDbVisualStyle
  2
EdgeColorOff
 70
    22
 71
     2
 72
     2
 73
     0
 90
        0
 40
0.6
 41
30.0
 62
     5
 63
     7
421
 16777215
 74
     1
 91
        4
 64
     7
 65
   257
 75
     1
175
     1
 42
1.0
 92
        8
 66
     7
 43
1.0
 76
     1
 77
     6
 78
     2
 67
     7
 79
     5
170
     0
171
     0
290
     0
174
     0
 93
        1
 44
0.0
173
     0
291
     1
 45
0.0
  0
VISUALSTYLE
  5
276
102
{ACAD_REACTORS
330
267
102
}
330
267
100
AcDbVisualStyle
  2
Facepattern
 70
    15
 71
     2
 72
     2
 73
     0
 90
        0
 40
-0.6
 41
-30.0
 62
     5
 63
     7
421
 16777215
 74
     1
 91
        4
 64
     7
 65
   257
 75
     1
175
     1
 42
1.0
 92
        8
 66
     7
 43
1.0
 76
     1
 77
     6
 78
     2
 67
     7
 79
     5
170
     0
171
     0
290
     0
174
     0
 93
        1
 44
0.0
173
     0
291
     1
 45
0.0
  0
VISUALSTYLE
  5
268
102
{ACAD_REACTORS
330
267
102
}
330
267
100
AcDbVisualStyle
  2
Flat
 70
     0
 71
     2
 72
     1
 73
     1
 90
        2
 40
-0.6
 41
30.0
 62
     5
 63
     7
421
 16777215
 74
     0
 91
        4
 64
     7
 65
   257
 75
     1
175
     1
 42
1.0
 92
        8
 66
     7
 43
1.0
 76
     1
 77
     6
 78
     2
 67
     7
 79
     5
170
     0
171
     0
290
     0
174
     0
 93
       13
 44
0.0
173
     0
291
     1
 45
0.0
  0
VISUALSTYLE
  5
269
102
{ACAD_REACTORS
330
267
102
}
330
267
100
AcDbVisualStyle
  2
FlatWithEdges
 70
     1
 71
     2
 72
     1
 73
     1
 90
        2
 40
-0.6
 41
30.0
 62
     5
 63
     7
421
 16777215
 74
     1
 91
        4
 64
     7
 65
   257
 75
     1
175
     1
 42
1.0
 92
        0
 66
   257
 43
1.0
 76
     1
 77
     6
 78
     2
 67
     7
 79
     5
170
     0
171
     0
290
     0
174
     0
 93
       13
 44
0.0
173
     0
291
     1
 45
0.0
  0
VISUALSTYLE
  5
26A
102
{ACAD_REACTORS
330
267
102
}
330
267
100
AcDbVisualStyle
  2
Gouraud
 70
     2
 71
     2
 72
     2
 73
     1
 90
        2
 40
-0.6
 41
30.0
 62
     5
 63
     7
421
 16777215
 74
     0
 91
        4
 64
     7
 65
   257
 75
     1
175
     1
 42
1.0
 92
        0
 66
     7
 43
1.0
 76
     1
 77
     6
 78
     2
 67
     7
 79
     5
170
     0
171
     0
290
     0
174
     0
 93
       13
 44
0.0
173
     0
291
     1
 45
0.0
  0
VISUALSTYLE
  5
26B
102
{ACAD_REACTORS
330
267
102
}
330
267
100
AcDbVisualStyle
  2
GouraudWithEdges
 70
     3
 71
     2
 72
     2
 73
     1
 90
        2
 40
-0.6
 41
30.0
 62
     5
 63
     7
421
 16777215
 74
     1
 91
        4
 64
     7
 65
   257
 75
     1
175
     1
 42
1.0
 92
        0
 66
   257
 43
1.0
 76
     1
 77
     6
 78
     2
 67
     7
 79
     5
170
     0
171
     0
290
     0
174
     0
 93
       13
 44
0.0
173
     0
291
     1
 45
0.0
  0
VISUALSTYLE
  5
8FB
102
{ACAD_REACTORS
330
267
102
}
330
267
100
AcDbVisualStyle
  2
Hidden
 70
     6
 71
     1
 72
     2
 73
     2
 90
        0
 40
0.6
 41
30.0
 62
     5
 63
     7
421
 16777215
 74
     2
 91
        2
 64
     7
 65
   257
 75
     2
175
     1
 42
40.0
 92
        0
 66
   257
 43
1.0
 76
     1
 77
     6
 78
     2
 67
     7
 79
     3
170
     0
171
     0
290
     0
174
     0
 93
        1
 44
0.0
173
     0
291
     0
 45
0.0
  0
VISUALSTYLE
  5
8FC
102
{ACAD_REACTORS
330
267
102
}
330
267
100
AcDbVisualStyle
  2
JitterOff
 70
    20
 71
     2
 72
     2
 73
     0
 90
        0
 40
0.6
 41
30.0
 62
     5
 63
     7
421
 16777215
 74
     1
 91
        4
 64
     7
 65
   257
 75
     1
175
     1
 42
1.0
 92
       10
 66
     7
 43
1.0
 76
     1
 77
     6
 78
     2
 67
     7
 79
     5
170
     0
171
     0
290
     0
174
     0
 93
        1
 44
0.0
173
     0
291
     1
 45
0.0
  0
VISUALSTYLE
  5
275
102
{ACAD_REACTORS
330
267
102
}
330
267
100
AcDbVisualStyle
  2
Linepattern
 70
    14
 71
     2
 72
     2
 73
     0
 90
        0
 40
-0.6
 41
-30.0
 62
     5
 63
     7
421
 16777215
 74
     1
 91
        4
 64
     7
 65
   257
 75
     7
175
     7
 42
1.0
 92
        8
 66
     7
 43
1.0
 76
     1
 77
     6
 78
     2
 67
     7
 79
     5
170
     0
171
     0
290
     0
174
     0
 93
        1
 44
0.0
173
     0
291
     1
 45
0.0
  0
VISUALSTYLE
  5
8FD
102
{ACAD_REACTORS
330
267
102
}
330
267
100
AcDbVisualStyle
  2
OverhangOff
 70
    21
 71
     2
 72
     2
 73
     0
 90
        0
 40
0.6
 41
30.0
 62
     5
 63
     7
421
 16777215
 74
     1
 91
        4
 64
     7
 65
   257
 75
     1
175
     1
 42
1.0
 92
        9
 66
     7
 43
1.0
 76
     1
 77
     6
 78
     2
 67
     7
 79
     5
170
     0
171
     0
290
     0
174
     0
 93
        1
 44
0.0
173
     0
291
     1
 45
0.0
  0
VISUALSTYLE
  5
270
102
{ACAD_REACTORS
330
267
102
}
330
267
100
AcDbVisualStyle
  2
Realistic
 70
     8
 71
     2
 72
     2
 73
     0
 90
        0
 40
-0.6
 41
-30.0
 62
     5
 63
     7
421
 16777215
 74
     1
 91
        0
 64
     7
 65
   257
 75
     1
175
     1
 42
1.0
 92
        8
 66
     8
424
  7895160
 43
1.0
 76
     1
 77
     6
 78
     2
 67
     7
 79
     5
170
     0
171
     0
290
     0
174
     0
 93
       13
 44
0.0
173
     0
291
     0
 45
0.0
  0
VISUALSTYLE
  5
903
102
{ACAD_REACTORS
330
267
102
}
330
267
100
AcDbVisualStyle
  2
Shaded
 70
    27
 71
     2
 72
     2
 73
     1
 90
        2
 40
0.6
 41
30.0
 62
     5
 63
     7
421
 16777215
 74
     0
 91
        4
 64
     7
 65
   257
 75
     1
175
     1
 42
1.0
 92
        8
 66
   257
 43
1.0
 76
     1
 77
     6
 78
     2
 67
     8
425
  7895160
 79
     3
170
     0
171
     0
290
     0
174
     0
 93
        5
 44
0.0
173
     0
291
     0
 45
0.0
  0
VISUALSTYLE
  5
902
102
{ACAD_REACTORS
330
267
102
}
330
267
100
AcDbVisualStyle
  2
Shaded with edges
 70
    26
 71
     2
 72
     2
 73
     1
 90
        2
 40
0.6
 41
30.0
 62
     5
 63
     7
421
 16777215
 74
     1
 91
       10
 64
     7
 65
   257
 75
     2
175
     1
 42
1.0
 92
        8
 66
   257
 43
1.0
 76
     1
 77
     6
 78
     2
 67
     7
 79
     3
170
     0
171
     0
290
     0
174
     0
 93
        5
 44
0.0
173
     0
291
     0
 45
0.0
  0
VISUALSTYLE
  5
8FF
102
{ACAD_REACTORS
330
267
102
}
330
267
100
AcDbVisualStyle
  2
Shades of Gray
 70
    23
 71
     2
 72
     2
 73
     3
 90
        0
 40
0.6
 41
30.0
 62
     5
 63
     7
421
 16777215
 74
     2
 91
        2
 64
     7
 65
     7
 75
     1
175
     1
 42
40.0
 92
        8
 66
     7
 43
1.0
 76
     1
 77
     6
 78
     2
 67
     7
 79
     3
170
     0
171
     0
290
     0
174
     0
 93
        1
 44
0.0
173
     0
291
     0
 45
0.0
  0
VISUALSTYLE
  5
900
102
{ACAD_REACTORS
330
267
102
}
330
267
100
AcDbVisualStyle
  2
Sketchy
 70
    24
 71
     1
 72
     2
 73
     2
 90
        0
 40
0.6
 41
30.0
 62
     5
 63
     7
421
 16777215
 74
     2
 91
        2
 64
     7
 65
     7
 75
     1
175
     1
 42
40.0
 92
       11
 66
     7
 43
1.0
 76
     1
 77
     6
 78
     2
 67
     7
 79
     6
170
     0
171
     0
290
     0
174
     0
 93
        1
 44
0.0
173
     0
291
     0
 45
0.0
  0
VISUALSTYLE
  5
274
102
{ACAD_REACTORS
330
267
102
}
330
267
100
AcDbVisualStyle
  2
Thicken
 70
    13
 71
     2
 72
     2
 73
     0
 90
        0
 40
-0.6
 41
-30.0
 62
     5
 63
     7
421
 16777215
 74
     1
 91
        4
 64
     7
 65
   257
 75
     1
175
     1
 42
1.0
 92
       12
 66
     7
 43
1.0
 76
     1
 77
     6
 78
     2
 67
     7
 79
     5
170
     0
171
     0
290
     0
174
     0
 93
        1
 44
0.0
173
     0
291
     1
 45
0.0
  0
VISUALSTYLE
  5
8FA
102
{ACAD_REACTORS
330
267
102
}
330
267
100
AcDbVisualStyle
  2
Wireframe
 70
     5
 71
     0
 72
     2
 73
     0
 90
        0
 40
0.6
 41
30.0
 62
     5
 63
     7
421
 16777215
 74
     1
 91
        4
 64
     7
 65
   257
 75
     1
175
     1
 42
1.0
 92
        0
 66
   257
 43
1.0
 76
     1
 77
     6
 78
     2
 67
     7
 79
     3
170
     0
171
     0
290
     0
174
     0
 93
        1
 44
0.0
173
     0
291
     0
 45
0.0
  0
VISUALSTYLE
  5
901
102
{ACAD_REACTORS
330
267
102
}
330
267
100
AcDbVisualStyle
  2
X-Ray
 70
    25
 71
     2
 72
     2
 73
     1
 90
        1
 40
0.5
 41
30.0
 62
     5
 63
     7
421
 16777215
 74
     1
 91
        0
 64
     7
 65
   257
 75
     1
175
     1
 42
1.0
 92
        8
 66
     7
 43
1.0
 76
     1
 77
     6
 78
     2
 67
     7
 79
     3
170
     0
171
     0
290
     0
174
     0
 93
       13
 44
0.0
173
     0
291
     0
 45
0.0
  0
DICTIONARYVAR
  5
331
102
{ACAD_REACTORS
330
330
102
}
330
330
100
DictionaryVariables
280
     0
  1
1:1
  0
DICTIONARYVAR
  5
D5E
102
{ACAD_REACTORS
330
330
102
}
330
330
100
DictionaryVariables
280
     0
  1
Standard
  0
DICTIONARYVAR
  5
335
102
{ACAD_REACTORS
330
330
102
}
330
330
100
DictionaryVariables
280
     0
  1
Standard
  0
DICTIONARYVAR
  5
D52
102
{ACAD_REACTORS
330
330
102
}
330
330
100
DictionaryVariables
280
     0
  1
ByLayer
  0
DICTIONARYVAR
  5
896
102
{ACAD_REACTORS
330
330
102
}
330
330
100
DictionaryVariables
280
     0
  1
0
  0
DICTIONARYVAR
  5
246C
102
{ACAD_REACTORS
330
E38
102
}
330
E38
100
DictionaryVariables
280
     0
  1
0.261799
  0
DICTIONARYVAR
  5
246A
102
{ACAD_REACTORS
330
E38
102
}
330
E38
100
DictionaryVariables
280
     0
  1
0.400000
  0
DICTIONARYVAR
  5
246B
102
{ACAD_REACTORS
330
E38
102
}
330
E38
100
DictionaryVariables
280
     0
  1
0.250000
  0
DICTIONARYVAR
  5
246D
102
{ACAD_REACTORS
330
E38
102
}
330
E38
100
DictionaryVariables
280
     0
  1
1
  0
FIELD
  5
3DBA
102
{ACAD_REACTORS
330
4C66
102
}
330
4C66
100
AcDbField
  1
_text
  2
{%<\_FldIdx 0>%N}
 90
        1
360
3DBB
 97
        0
 91
       63
 92
        0
 94
       11
 95
        2
 96
        0
300

 93
        1
  6
ACFD_FIELDTEXT_CHECKSUM
 93
        2
 90
        2
140
4484.0
 94
        0
300

302

304
ACVALUE_END
  7
ACFD_FIELD_VALUE
 93
        6
 90
        4
  1
{20181212N}
 94
        0
300

302

304
ACVALUE_END
301
{20181212N}
 98
       11
  0
DICTIONARY
  5
4D00
330
279
100
AcDbDictionary
280
     1
281
     1
  3
ACAD_ROUNDTRIP_2008_TABLESTYLE_CELLSTYLEMAP
360
4D01
  0
FIELD
  5
3DBB
330
3DBA
100
AcDbField
  1
AcVar
  2
\AcVar CreateDate \f "yyyyMMdd"
 90
        0
 97
        0
 91
       63
 92
        0
 94
       11
 95
        2
 96
        0
300

 93
        1
  6
Variable
 93
        2
 90
        4
  1
CreateDate
 94
        0
300

302

304
ACVALUE_END
  7
ACFD_FIELD_VALUE
 93
        6
 90
        8
 92
       16
310
E2070C0000000C0006002C0036000000
 94
        0
300
yyyyMMdd
302

304
ACVALUE_END
301
20181212
 98
        8
  0
CELLSTYLEMAP
  5
4D01
102
{ACAD_REACTORS
330
4D00
102
}
330
4D00
100
AcDbCellStyleMap
 90
        3
300
CELLSTYLE
  1
TABLEFORMAT_BEGIN
 90
        5
170
     1
 91
        0
 92
    32768
 62
   257
 93
        1
300
CONTENTFORMAT
  1
CONTENTFORMAT_BEGIN
 90
        0
 91
        0
 92
        4
 93
        0
300

 40
0.0
140
1.0
 94
        5
 62
     0
340
17
144
6.0
309
CONTENTFORMAT_END
171
     1
301
MARGIN
  1
CELLMARGIN_BEGIN
 40
0.06
 40
0.06
 40
0.06
 40
0.06
 40
0.18
 40
0.18
309
CELLMARGIN_END
 94
        6
 95
        1
302
GRIDFORMAT
  1
GRIDFORMAT_BEGIN
 90
        0
 91
        1
 62
     0
 92
       -2
340
0
 93
        0
 40
0.045
309
GRIDFORMAT_END
 95
        2
302
GRIDFORMAT
  1
GRIDFORMAT_BEGIN
 90
        0
 91
        1
 62
     0
 92
       -2
340
0
 93
        0
 40
0.045
309
GRIDFORMAT_END
 95
        4
302
GRIDFORMAT
  1
GRIDFORMAT_BEGIN
 90
        0
 91
        1
 62
     0
 92
       -2
340
0
 93
        0
 40
0.045
309
GRIDFORMAT_END
 95
        8
302
GRIDFORMAT
  1
GRIDFORMAT_BEGIN
 90
        0
 91
        1
 62
     0
 92
       -2
340
0
 93
        0
 40
0.045
309
GRIDFORMAT_END
 95
       16
302
GRIDFORMAT
  1
GRIDFORMAT_BEGIN
 90
        0
 91
        1
 62
     0
 92
       -2
340
0
 93
        0
 40
0.045
309
GRIDFORMAT_END
 95
       32
302
GRIDFORMAT
  1
GRIDFORMAT_BEGIN
 90
        0
 91
        1
 62
     0
 92
       -2
340
0
 93
        0
 40
0.045
309
GRIDFORMAT_END
309
TABLEFORMAT_END
  1
CELLSTYLE_BEGIN
 90
        1
 91
        1
300
_TITLE
309
CELLSTYLE_END
300
CELLSTYLE
  1
TABLEFORMAT_BEGIN
 90
        5
170
     1
 91
        0
 92
        0
 62
   257
 93
        1
300
CONTENTFORMAT
  1
CONTENTFORMAT_BEGIN
 90
        0
 91
        0
 92
        4
 93
        0
300

 40
0.0
140
1.0
 94
        5
 62
     0
340
17
144
4.5
309
CONTENTFORMAT_END
171
     1
301
MARGIN
  1
CELLMARGIN_BEGIN
 40
0.06
 40
0.06
 40
0.06
 40
0.06
 40
0.18
 40
0.18
309
CELLMARGIN_END
 94
        6
 95
        1
302
GRIDFORMAT
  1
GRIDFORMAT_BEGIN
 90
        0
 91
        1
 62
     0
 92
       -2
340
0
 93
        0
 40
0.045
309
GRIDFORMAT_END
 95
        2
302
GRIDFORMAT
  1
GRIDFORMAT_BEGIN
 90
        0
 91
        1
 62
     0
 92
       -2
340
0
 93
        0
 40
0.045
309
GRIDFORMAT_END
 95
        4
302
GRIDFORMAT
  1
GRIDFORMAT_BEGIN
 90
        0
 91
        1
 62
     0
 92
       -2
340
0
 93
        0
 40
0.045
309
GRIDFORMAT_END
 95
        8
302
GRIDFORMAT
  1
GRIDFORMAT_BEGIN
 90
        0
 91
        1
 62
     0
 92
       -2
340
0
 93
        0
 40
0.045
309
GRIDFORMAT_END
 95
       16
302
GRIDFORMAT
  1
GRIDFORMAT_BEGIN
 90
        0
 91
        1
 62
     0
 92
       -2
340
0
 93
        0
 40
0.045
309
GRIDFORMAT_END
 95
       32
302
GRIDFORMAT
  1
GRIDFORMAT_BEGIN
 90
        0
 91
        1
 62
     0
 92
       -2
340
0
 93
        0
 40
0.045
309
GRIDFORMAT_END
309
TABLEFORMAT_END
  1
CELLSTYLE_BEGIN
 90
        2
 91
        1
300
_HEADER
309
CELLSTYLE_END
300
CELLSTYLE
  1
TABLEFORMAT_BEGIN
 90
        5
170
     1
 91
        0
 92
        0
 62
   257
 93
        1
300
CONTENTFORMAT
  1
CONTENTFORMAT_BEGIN
 90
        0
 91
        0
 92
        4
 93
        0
300

 40
0.0
140
1.0
 94
        2
 62
     0
340
17
144
4.5
309
CONTENTFORMAT_END
171
     1
301
MARGIN
  1
CELLMARGIN_BEGIN
 40
0.06
 40
0.06
 40
0.06
 40
0.06
 40
0.18
 40
0.18
309
CELLMARGIN_END
 94
        6
 95
        1
302
GRIDFORMAT
  1
GRIDFORMAT_BEGIN
 90
        0
 91
        1
 62
     0
 92
       -2
340
0
 93
        0
 40
0.045
309
GRIDFORMAT_END
 95
        2
302
GRIDFORMAT
  1
GRIDFORMAT_BEGIN
 90
        0
 91
        1
 62
     0
 92
       -2
340
0
 93
        0
 40
0.045
309
GRIDFORMAT_END
 95
        4
302
GRIDFORMAT
  1
GRIDFORMAT_BEGIN
 90
        0
 91
        1
 62
     0
 92
       -2
340
0
 93
        0
 40
0.045
309
GRIDFORMAT_END
 95
        8
302
GRIDFORMAT
  1
GRIDFORMAT_BEGIN
 90
        0
 91
        1
 62
     0
 92
       -2
340
0
 93
        0
 40
0.045
309
GRIDFORMAT_END
 95
       16
302
GRIDFORMAT
  1
GRIDFORMAT_BEGIN
 90
        0
 91
        1
 62
     0
 92
       -2
340
0
 93
        0
 40
0.045
309
GRIDFORMAT_END
 95
       32
302
GRIDFORMAT
  1
GRIDFORMAT_BEGIN
 90
        0
 91
        1
 62
     0
 92
       -2
340
0
 93
        0
 40
0.045
309
GRIDFORMAT_END
309
TABLEFORMAT_END
  1
CELLSTYLE_BEGIN
 90
        3
 91
        2
300
_DATA
309
CELLSTYLE_END
  0
ENDSEC
  0
EOF
