  0
SECTION
  2
HEADER
  9
$ACADVER
  1
AC1032
  9
$ACADMAINTVER
 90
      228
  9
$DWGCODEPAGE
  3
ANSI_932
  9
$LASTSAVEDBY
  1
T-HOWE-PC
  9
$REQUIREDVERSIONS
160
                 0
  9
$INSBASE
 10
0.0
 20
0.0
 30
0.0
  9
$EXTMIN
 10
0.0
 20
0.0
 30
0.0
  9
$EXTMAX
 10
630.0
 20
891.0
 30
0.0
  9
$LIMMIN
 10
0.0
 20
0.0
  9
$LIMMAX
 10
630.0
 20
891.0
  9
$ORTHOMODE
 70
     1
  9
$REGENMODE
 70
     1
  9
$FILLMODE
 70
     1
  9
$QTEXTMODE
 70
     0
  9
$MIRRTEXT
 70
     1
  9
$LTSCALE
 40
1.5
  9
$ATTMODE
 70
     1
  9
$TEXTSIZE
 40
2.5
  9
$TRACEWID
 40
1.0
  9
$TEXTSTYLE
  7
ＭＳ ゴシック
  9
$CLAYER
  8
DIM
  9
$CELTYPE
  6
ByLayer
  9
$CECOLOR
 62
   256
  9
$CELTSCALE
 40
1.0
  9
$DISPSILH
 70
     0
  9
$DIMSCALE
 40
1.0
  9
$DIMASZ
 40
3.0
  9
$DIMEXO
 40
10.0
  9
$DIMDLI
 40
1.0
  9
$DIMRND
 40
0.0
  9
$DIMDLE
 40
0.0
  9
$DIMEXE
 40
0.0
  9
$DIMTP
 40
0.0
  9
$DIMTM
 40
0.0
  9
$DIMTXT
 40
8.0
  9
$DIMCEN
 40
0.0
  9
$DIMTSZ
 40
0.0
  9
$DIMTOL
 70
     0
  9
$DIMLIM
 70
     0
  9
$DIMTIH
 70
     0
  9
$DIMTOH
 70
     0
  9
$DIMSE1
 70
     0
  9
$DIMSE2
 70
     0
  9
$DIMTAD
 70
     1
  9
$DIMZIN
 70
    11
  9
$DIMBLK
  1
DOT
  9
$DIMASO
 70
     1
  9
$DIMSHO
 70
     1
  9
$DIMPOST
  1
<>
  9
$DIMAPOST
  1
[]
  9
$DIMALT
 70
     0
  9
$DIMALTD
 70
     1
  9
$DIMALTF
 40
1.0
  9
$DIMLFAC
 40
1.0
  9
$DIMTOFL
 70
     0
  9
$DIMTVP
 40
0.0
  9
$DIMTIX
 70
     1
  9
$DIMSOXD
 70
     0
  9
$DIMSAH
 70
     0
  9
$DIMBLK1
  1

  9
$DIMBLK2
  1

  9
$DIMSTYLE
  2
tfrom線あり
  9
$DIMCLRD
 70
     0
  9
$DIMCLRE
 70
     0
  9
$DIMCLRT
 70
     0
  9
$DIMTFAC
 40
1.0
  9
$DIMGAP
 40
6.0
  9
$DIMJUST
 70
     0
  9
$DIMSD1
 70
     0
  9
$DIMSD2
 70
     0
  9
$DIMTOLJ
 70
     1
  9
$DIMTZIN
 70
    11
  9
$DIMALTZ
 70
    11
  9
$DIMALTTZ
 70
    11
  9
$DIMUPT
 70
     0
  9
$DIMDEC
 70
     0
  9
$DIMTDEC
 70
     1
  9
$DIMALTU
 70
     2
  9
$DIMALTTD
 70
     2
  9
$DIMTXSTY
  7
ＭＳ ゴシック
  9
$DIMAUNIT
 70
     0
  9
$DIMADEC
 70
     2
  9
$DIMALTRND
 40
0.0
  9
$DIMAZIN
 70
     0
  9
$DIMDSEP
 70
    46
  9
$DIMATFIT
 70
     0
  9
$DIMFRAC
 70
     2
  9
$DIMLDRBLK
  1
DOT
  9
$DIMLUNIT
 70
     2
  9
$DIMLWD
 70
    -2
  9
$DIMLWE
 70
    -2
  9
$DIMTMOVE
 70
     0
  9
$DIMFXL
 40
1.0
  9
$DIMFXLON
 70
     0
  9
$DIMJOGANG
 40
0.7853981633974483
  9
$DIMTFILL
 70
     0
  9
$DIMTFILLCLR
 70
     0
  9
$DIMARCSYM
 70
     0
  9
$DIMLTYPE
  6

  9
$DIMLTEX1
  6

  9
$DIMLTEX2
  6

  9
$DIMTXTDIRECTION
 70
     0
  9
$LUNITS
 70
     2
  9
$LUPREC
 70
     0
  9
$SKETCHINC
 40
0.1
  9
$FILLETRAD
 40
0.0
  9
$AUNITS
 70
     0
  9
$AUPREC
 70
     0
  9
$MENU
  1
acad
  9
$ELEVATION
 40
0.0
  9
$PELEVATION
 40
0.0
  9
$THICKNESS
 40
0.0
  9
$LIMCHECK
 70
     0
  9
$CHAMFERA
 40
0.0
  9
$CHAMFERB
 40
0.0
  9
$CHAMFERC
 40
0.0
  9
$CHAMFERD
 40
0.0
  9
$SKPOLY
 70
     0
  9
$TDCREATE
 40
2460208.601863426
  9
$TDUCREATE
 40
2460208.226863426
  9
$TDUPDATE
 40
2460216.444583334
  9
$TDUUPDATE
 40
2460216.069583334
  9
$TDINDWG
 40
8.1486808912
  9
$TDUSRTIMER
 40
7.8430634722
  9
$USRTIMER
 70
     1
  9
$ANGBASE
 50
0.0
  9
$ANGDIR
 70
     0
  9
$PDMODE
 70
     1
  9
$PDSIZE
 40
-2.0
  9
$PLINEWID
 40
0.0
  9
$SPLFRAME
 70
     0
  9
$SPLINETYPE
 70
     6
  9
$SPLINESEGS
 70
     8
  9
$HANDSEED
  5
18A45
  9
$SURFTAB1
 70
     6
  9
$SURFTAB2
 70
     6
  9
$SURFTYPE
 70
     6
  9
$SURFU
 70
     6
  9
$SURFV
 70
     6
  9
$UCSBASE
  2

  9
$UCSNAME
  2

  9
$UCSORG
 10
0.0
 20
0.0
 30
0.0
  9
$UCSXDIR
 10
1.0
 20
0.0
 30
0.0
  9
$UCSYDIR
 10
0.0
 20
1.0
 30
0.0
  9
$UCSORTHOREF
  2

  9
$UCSORTHOVIEW
 70
     0
  9
$UCSORGTOP
 10
0.0
 20
0.0
 30
0.0
  9
$UCSORGBOTTOM
 10
0.0
 20
0.0
 30
0.0
  9
$UCSORGLEFT
 10
0.0
 20
0.0
 30
0.0
  9
$UCSORGRIGHT
 10
0.0
 20
0.0
 30
0.0
  9
$UCSORGFRONT
 10
0.0
 20
0.0
 30
0.0
  9
$UCSORGBACK
 10
0.0
 20
0.0
 30
0.0
  9
$PUCSBASE
  2

  9
$PUCSNAME
  2

  9
$PUCSORG
 10
0.0
 20
0.0
 30
0.0
  9
$PUCSXDIR
 10
1.0
 20
0.0
 30
0.0
  9
$PUCSYDIR
 10
0.0
 20
1.0
 30
0.0
  9
$PUCSORTHOREF
  2

  9
$PUCSORTHOVIEW
 70
     0
  9
$PUCSORGTOP
 10
0.0
 20
0.0
 30
0.0
  9
$PUCSORGBOTTOM
 10
0.0
 20
0.0
 30
0.0
  9
$PUCSORGLEFT
 10
0.0
 20
0.0
 30
0.0
  9
$PUCSORGRIGHT
 10
0.0
 20
0.0
 30
0.0
  9
$PUCSORGFRONT
 10
0.0
 20
0.0
 30
0.0
  9
$PUCSORGBACK
 10
0.0
 20
0.0
 30
0.0
  9
$USERI1
 70
     0
  9
$USERI2
 70
     0
  9
$USERI3
 70
     0
  9
$USERI4
 70
     0
  9
$USERI5
 70
     0
  9
$USERR1
 40
0.0
  9
$USERR2
 40
0.0
  9
$USERR3
 40
0.0
  9
$USERR4
 40
0.0
  9
$USERR5
 40
0.0
  9
$WORLDVIEW
 70
     1
  9
$SHADEDGE
 70
     3
  9
$SHADEDIF
 70
    70
  9
$TILEMODE
 70
     1
  9
$MAXACTVP
 70
    64
  9
$PINSBASE
 10
0.0
 20
0.0
 30
0.0
  9
$PLIMCHECK
 70
     0
  9
$PEXTMIN
 10
0.0
 20
0.0
 30
0.0
  9
$PEXTMAX
 10
0.0
 20
0.0
 30
0.0
  9
$PLIMMIN
 10
-7.5
 20
-20.0
  9
$PLIMMAX
 10
412.5
 20
277.0
  9
$UNITMODE
 70
     0
  9
$VISRETAIN
 70
     0
  9
$PLINEGEN
 70
     1
  9
$PSLTSCALE
 70
     0
  9
$TREEDEPTH
 70
  3020
  9
$CMLSTYLE
  2
Standard
  9
$CMLJUST
 70
     0
  9
$CMLSCALE
 40
1.0
  9
$PROXYGRAPHICS
 70
     0
  9
$MEASUREMENT
 70
     1
  9
$CELWEIGHT
370
    -1
  9
$ENDCAPS
280
     0
  9
$JOINSTYLE
280
     0
  9
$LWDISPLAY
290
     1
  9
$INSUNITS
 70
     4
  9
$HYPERLINKBASE
  1

  9
$STYLESHEET
  1
monochrome.ctb
  9
$XEDIT
290
     1
  9
$CEPSNTYPE
380
     0
  9
$PSTYLEMODE
290
     1
  9
$FINGERPRINTGUID
  2

  9
$VERSIONGUID
  2
{4F6D40FD-801B-C440-AFAD-B7A7D4A97BA5}
  9
$EXTNAMES
290
     1
  9
$PSVPSCALE
 40
0.0
  9
$OLESTARTUP
290
     0
  9
$SORTENTS
280
   127
  9
$INDEXCTL
280
     0
  9
$HIDETEXT
280
     1
  9
$XCLIPFRAME
280
     0
  9
$HALOGAP
280
     0
  9
$OBSCOLOR
 70
   257
  9
$OBSLTYPE
280
     0
  9
$INTERSECTIONDISPLAY
280
     0
  9
$INTERSECTIONCOLOR
 70
   257
  9
$DIMASSOC
280
     2
  9
$PROJECTNAME
  1

  9
$CAMERADISPLAY
290
     0
  9
$LENSLENGTH
 40
50.0
  9
$CAMERAHEIGHT
 40
0.0
  9
$STEPSPERSEC
 40
2.0
  9
$STEPSIZE
 40
6.0
  9
$3DDWFPREC
 40
2.0
  9
$PSOLWIDTH
 40
0.25
  9
$PSOLHEIGHT
 40
4.0
  9
$LOFTANG1
 40
1.570796326794897
  9
$LOFTANG2
 40
1.570796326794897
  9
$LOFTMAG1
 40
0.0
  9
$LOFTMAG2
 40
0.0
  9
$LOFTPARAM
 70
     7
  9
$LOFTNORMALS
280
     1
  9
$LATITUDE
 40
37.795
  9
$LONGITUDE
 40
-122.394
  9
$NORTHDIRECTION
 40
0.0
  9
$TIMEZONE
 70
 -8000
  9
$LIGHTGLYPHDISPLAY
280
     1
  9
$TILEMODELIGHTSYNCH
280
     1
  9
$CMATERIAL
347
264
  9
$SOLIDHIST
280
     1
  9
$SHOWHIST
280
     1
  9
$DWFFRAME
280
     2
  9
$DGNFRAME
280
     2
  9
$REALWORLDSCALE
290
     1
  9
$INTERFERECOLOR
 62
   256
  9
$INTERFEREOBJVS
345
270
  9
$INTERFEREVPVS
346
8FA
  9
$CSHADOW
280
     0
  9
$SHADOWPLANELOCATION
 40
0.0
  0
ENDSEC
  0
SECTION
  2
CLASSES
  0
CLASS
  1
IMAGE
  2
AcDbRasterImage
  3
ISM
 90
     2175
 91
        0
280
     0
281
     1
  0
CLASS
  1
DICTIONARYVAR
  2
AcDbDictionaryVar
  3
ObjectDBX Classes
 90
        0
 91
       19
280
     0
281
     0
  0
CLASS
  1
RASTERVARIABLES
  2
AcDbRasterVariables
  3
ISM
 90
        0
 91
        1
280
     0
281
     0
  0
CLASS
  1
IMAGEDEF
  2
AcDbRasterImageDef
  3
ISM
 90
        0
 91
        0
280
     0
281
     0
  0
CLASS
  1
IMAGEDEF_REACTOR
  2
AcDbRasterImageDefReactor
  3
ISM
 90
        1
 91
        0
280
     0
281
     0
  0
CLASS
  1
IDBUFFER
  2
AcDbIdBuffer
  3
ObjectDBX Classes
 90
        0
 91
        0
280
     0
281
     0
  0
CLASS
  1
SPATIAL_FILTER
  2
AcDbSpatialFilter
  3
ObjectDBX Classes
 90
        0
 91
        0
280
     0
281
     0
  0
CLASS
  1
SORTENTSTABLE
  2
AcDbSortentsTable
  3
ObjectDBX Classes
 90
        0
 91
        1
280
     0
281
     0
  0
CLASS
  1
LAYER_INDEX
  2
AcDbLayerIndex
  3
ObjectDBX Classes
 90
        0
 91
        0
280
     0
281
     0
  0
CLASS
  1
SPATIAL_INDEX
  2
AcDbSpatialIndex
  3
ObjectDBX Classes
 90
        0
 91
        0
280
     0
281
     0
  0
CLASS
  1
OBJECT_PTR
  2
CAseDLPNTableRecord
  3
ASE-LPNTableRecord
 90
        1
 91
        0
280
     0
281
     0
  0
CLASS
  1
PLOTSETTINGS
  2
AcDbPlotSettings
  3
ObjectDBX Classes
 90
        0
 91
        0
280
     0
281
     0
  0
CLASS
  1
ACDBDICTIONARYWDFLT
  2
AcDbDictionaryWithDefault
  3
ObjectDBX Classes
 90
        0
 91
        1
280
     0
281
     0
  0
CLASS
  1
SCALE
  2
AcDbScale
  3
ObjectDBX Classes
 90
     1153
 91
       33
280
     0
281
     0
  0
CLASS
  1
MATERIAL
  2
AcDbMaterial
  3
ObjectDBX Classes
 90
     1153
 91
        3
280
     0
281
     0
  0
CLASS
  1
VISUALSTYLE
  2
AcDbVisualStyle
  3
ObjectDBX Classes
 90
     4095
 91
       27
280
     0
281
     0
  0
CLASS
  1
TABLESTYLE
  2
AcDbTableStyle
  3
ObjectDBX Classes
 90
     4095
 91
        1
280
     0
281
     0
  0
CLASS
  1
DIMASSOC
  2
AcDbDimAssoc
  3
"AcDbDimAssoc|Product Desc:     AcDim ARX App For Dimension|Company:          Autodesk, Inc.|WEB Address:      www.autodesk.com"
 90
        0
 91
        6
280
     0
281
     0
  0
CLASS
  1
CELLSTYLEMAP
  2
AcDbCellStyleMap
  3
ObjectDBX Classes
 90
     1152
 91
        4
280
     0
281
     0
  0
CLASS
  1
SUN
  2
AcDbSun
  3
SCENEOE
 90
     1153
 91
        1
280
     0
281
     0
  0
CLASS
  1
MLEADERSTYLE
  2
AcDbMLeaderStyle
  3
ACDB_MLEADERSTYLE_CLASS
 90
     4095
 91
        1
280
     0
281
     0
  0
CLASS
  1
FIELD
  2
AcDbField
  3
ObjectDBX Classes
 90
     1152
 91
        2
280
     0
281
     0
  0
CLASS
  1
FIELDLIST
  2
AcDbFieldList
  3
ObjectDBX Classes
 90
     1152
 91
        1
280
     0
281
     0
  0
CLASS
  1
ACDBSECTIONVIEWSTYLE
  2
AcDbSectionViewStyle
  3
ObjectDBX Classes
 90
     1025
 91
        1
280
     0
281
     0
  0
CLASS
  1
ACDBDETAILVIEWSTYLE
  2
AcDbDetailViewStyle
  3
ObjectDBX Classes
 90
     1025
 91
        1
280
     0
281
     0
  0
CLASS
  1
SOLID_BACKGROUND
  2
AcDbSolidBackground
  3
SCENEOE
 90
     4095
 91
        1
280
     0
281
     0
  0
CLASS
  1
NPOCOLLECTION
  2
AcDbImpNonPersistentObjectsCollection
  3
ObjectDBX Classes
 90
     1153
 91
        1
280
     0
281
     0
  0
ENDSEC
  0
SECTION
  2
TABLES
  0
TABLE
  2
VPORT
  5
7
330
0
100
AcDbSymbolTable
 70
     1
  0
VPORT
  5
15
330
7
100
AcDbSymbolTableRecord
100
AcDbViewportTableRecord
  2
*ACTIVE
 70
     0
 10
0.0
 20
0.0
 11
1.0
 21
1.0
 12
0.0
 22
0.0
 13
0.0
 23
0.0
 14
1.0
 24
1.0
 15
0.0
 25
0.0
 16
0.0
 26
0.0
 36
1669.094957493451
 17
315.0000000000001
 27
445.5
 37
-46.86809886248109
 40
893.6918429003021
 41
1.332063975628332
 42
50.0
 43
0.0
 44
0.0
 50
0.0
 51
0.0
 71
     0
 72
  2000
 73
     1
 74
     1
 75
     0
 76
     0
 77
     0
 78
     0
281
     1
 65
     1
110
0.0
120
0.0
130
0.0
111
1.0
121
0.0
131
0.0
112
0.0
122
1.0
132
0.0
 79
     0
146
0.0
348
3666
 60
     3
 61
     5
292
     1
282
     1
141
0.0
142
0.0
361
904
1001
ACAD_NAV_VCDISPLAY
1070
     3
  0
ENDTAB
  0
TABLE
  2
LTYPE
  5
4
330
0
100
AcDbSymbolTable
 70
     4
  0
LTYPE
  5
11
330
4
100
AcDbSymbolTableRecord
100
AcDbLinetypeTableRecord
  2
ByBlock
 70
     0
  3

 72
    65
 73
     0
 40
0.0
  0
LTYPE
  5
12
330
4
100
AcDbSymbolTableRecord
100
AcDbLinetypeTableRecord
  2
ByLayer
 70
     0
  3

 72
    65
 73
     0
 40
0.0
  0
LTYPE
  5
13
330
4
100
AcDbSymbolTableRecord
100
AcDbLinetypeTableRecord
  2
Continuous
 70
     0
  3
Solid line
 72
    65
 73
     0
 40
0.0
  0
LTYPE
  5
D6C
330
4
100
AcDbSymbolTableRecord
100
AcDbLinetypeTableRecord
  2
BORDER
 70
     0
  3
Border __  __  . __  __  . __  __  . __  __  . 
 72
    65
 73
     6
 40
44.45
 49
12.7
 74
     0
 49
-6.349999999999999
 74
     0
 49
12.7
 74
     0
 49
-6.349999999999999
 74
     0
 49
0.0
 74
     0
 49
-6.349999999999999
 74
     0
  0
LTYPE
  5
D6D
330
4
100
AcDbSymbolTableRecord
100
AcDbLinetypeTableRecord
  2
HIDDEN
 70
     0
  3
Hidden _ _ _ _ _ _ _ _ _ _ _ _ _ _ _ _ _ _ _ _ 
 72
    65
 73
     2
 40
9.525
 49
6.349999999999999
 74
     0
 49
-3.174999999999999
 74
     0
  0
ENDTAB
  0
TABLE
  2
LAYER
  5
2
102
{ACAD_XDICTIONARY
360
2E1
102
}
330
0
100
AcDbSymbolTable
 70
     7
  0
LAYER
  5
14
102
{ACAD_XDICTIONARY
360
18A08
102
}
330
2
100
AcDbSymbolTableRecord
100
AcDbLayerTableRecord
  2
0
 70
     0
 62
     7
  6
Continuous
370
    -3
390
1D
347
266
348
0
  0
LAYER
  5
4B
102
{ACAD_XDICTIONARY
360
18A0A
102
}
330
2
100
AcDbSymbolTableRecord
100
AcDbLayerTableRecord
  2
TEMPLATE
 70
     0
 62
     7
  6
Continuous
370
    20
390
1D
347
266
348
0
  0
LAYER
  5
4C
102
{ACAD_XDICTIONARY
360
18A0C
102
}
330
2
100
AcDbSymbolTableRecord
100
AcDbLayerTableRecord
  2
DIM
 70
     0
 62
     3
  6
Continuous
370
    13
390
1D
347
266
348
0
  0
LAYER
  5
4D
102
{ACAD_XDICTIONARY
360
18A0E
102
}
330
2
100
AcDbSymbolTableRecord
100
AcDbLayerTableRecord
  2
MODEL
 70
     0
 62
     7
  6
Continuous
370
    20
390
1D
347
266
348
0
  0
LAYER
  5
88C
102
{ACAD_XDICTIONARY
360
18A10
102
}
330
2
100
AcDbSymbolTableRecord
100
AcDbLayerTableRecord
  2
HIDDEN
 70
     0
 62
     8
  6
HIDDEN
370
    20
390
1D
347
266
348
0
1001
AcAecLayerStandard
1000

1000

  0
LAYER
  5
D6B
102
{ACAD_XDICTIONARY
360
18A12
102
}
330
2
100
AcDbSymbolTableRecord
100
AcDbLayerTableRecord
  2
BORDER
 70
     0
 62
     4
  6
BORDER
290
     0
370
    20
390
1D
347
266
348
0
1001
AcAecLayerStandard
1000

1000

  0
LAYER
  5
A5DF
330
2
100
AcDbSymbolTableRecord
100
AcDbLayerTableRecord
  2
Defpoints
 70
     0
 62
     7
  6
Continuous
290
     0
370
    -3
390
1D
347
266
348
0
  0
ENDTAB
  0
TABLE
  2
STYLE
  5
3
330
0
100
AcDbSymbolTable
 70
     3
  0
STYLE
  5
17
330
3
100
AcDbSymbolTableRecord
100
AcDbTextStyleTableRecord
  2
Standard
 70
     0
 40
0.0
 41
1.0
 50
0.0
 71
     0
 42
2.5
  3
txt
  4
BIGFONT.SHX
  0
STYLE
  5
39
330
3
100
AcDbSymbolTableRecord
100
AcDbTextStyleTableRecord
  2
ＭＳ ゴシック
 70
     0
 40
0.0
 41
1.0
 50
0.0
 71
     0
 42
2.5
  3
msgothic.ttc
  4
ＭＳ ゴシック
1001
ACAD
1000
ＭＳ ゴシック
1071
        0
  0
ENDTAB
  0
TABLE
  2
VIEW
  5
5
330
0
100
AcDbSymbolTable
 70
     3
  0
ENDTAB
  0
TABLE
  2
UCS
  5
6
330
0
100
AcDbSymbolTable
 70
     0
  0
ENDTAB
  0
TABLE
  2
APPID
  5
8
330
0
100
AcDbSymbolTable
 70
     9
  0
APPID
  5
16
330
8
100
AcDbSymbolTableRecord
100
AcDbRegAppTableRecord
  2
ACAD
 70
     0
  0
APPID
  5
7AC
330
8
100
AcDbSymbolTableRecord
100
AcDbRegAppTableRecord
  2
AcAecLayerStandard
 70
     0
  0
APPID
  5
E29
330
8
100
AcDbSymbolTableRecord
100
AcDbRegAppTableRecord
  2
ACAD_MLEADERVER
 70
     0
  0
APPID
  5
18779
330
8
100
AcDbSymbolTableRecord
100
AcDbRegAppTableRecord
  2
PLOTTRANSPARENCY
 70
     0
  0
APPID
  5
18A05
330
8
100
AcDbSymbolTableRecord
100
AcDbRegAppTableRecord
  2
ACAD_EXEMPT_FROM_CAD_STANDARDS
 70
     0
  0
APPID
  5
18A07
330
8
100
AcDbSymbolTableRecord
100
AcDbRegAppTableRecord
  2
PE_URL
 70
     0
  0
APPID
  5
18A16
330
8
100
AcDbSymbolTableRecord
100
AcDbRegAppTableRecord
  2
DCO15
 70
     0
  0
APPID
  5
18A23
330
8
100
AcDbSymbolTableRecord
100
AcDbRegAppTableRecord
  2
ACAD_NAV_VCDISPLAY
 70
     0
  0
APPID
  5
18A3A
330
8
100
AcDbSymbolTableRecord
100
AcDbRegAppTableRecord
  2
ACAD_PSEXT
 70
     0
  0
ENDTAB
  0
TABLE
  2
DIMSTYLE
  5
9
330
0
100
AcDbSymbolTable
 70
     3
100
AcDbDimStyleTable
 71
     1
340
57
  0
DIMSTYLE
105
18
330
9
100
AcDbSymbolTableRecord
100
AcDbDimStyleTableRecord
  2
Standard
 70
     0
340
17
  0
DIMSTYLE
105
57
102
{ACAD_REACTORS
330
18702
330
18704
330
18707
330
1870A
330
1870D
330
187BB
330
187C8
330
187FB
330
188B2
330
188C5
330
189A5
330
189B4
102
}
330
9
100
AcDbSymbolTableRecord
100
AcDbDimStyleTableRecord
  2
tfrom線あり
 70
     0
  3
<>
  4
[]
 41
3.0
 42
10.0
 43
1.0
 44
0.0
 73
     0
 74
     0
 77
     1
 78
    11
140
8.0
141
0.0
143
1.0
147
6.0
171
     1
174
     1
179
     2
271
     0
272
     1
276
     2
284
    11
285
    11
286
    11
289
     0
340
39
341
4E
342
4E
  0
ENDTAB
  0
TABLE
  2
BLOCK_RECORD
  5
1
330
0
100
AcDbSymbolTable
 70
    52
  0
BLOCK_RECORD
  5
A
102
{ACAD_XDICTIONARY
360
1733E
102
}
330
1
100
AcDbSymbolTableRecord
100
AcDbBlockTableRecord
  2
*MODEL_SPACE
340
20
 70
     0
280
     1
281
     0
  0
BLOCK_RECORD
  5
B
330
1
100
AcDbSymbolTableRecord
100
AcDbBlockTableRecord
  2
*PAPER_SPACE
340
21
 70
     0
280
     1
281
     0
  0
BLOCK_RECORD
  5
4E
330
1
100
AcDbSymbolTableRecord
100
AcDbBlockTableRecord
  2
_DOT
340
0
102
{BLKREFS
331
1886A
331
1886B
331
188BB
331
188BC
331
188CE
331
188CF
331
188E7
331
188E8
331
189AE
331
189AF
331
189C0
331
189C1
331
1875E
331
1875F
331
1878F
331
18790
331
187A7
331
187A8
331
187B5
331
187B6
331
187C2
331
187C3
331
187D1
331
187D2
331
187E2
331
187E3
331
187F5
331
187F6
331
18802
331
18803
331
18812
331
18813
331
18822
331
18823
331
18832
331
18833
331
18843
331
18844
331
183F8
331
18494
331
18495
331
185DE
331
185DF
331
185ED
331
185EE
331
185FC
331
185FD
331
1860B
331
1860C
331
18618
331
18619
331
18625
331
18626
331
18632
331
18633
331
18716
331
18717
331
18722
331
18723
331
1872E
331
1872F
331
1873A
331
1873B
331
18746
331
18747
331
18752
331
18753
331
17326
331
17327
331
17335
331
17336
331
173AB
331
173AC
331
173BA
331
173BB
331
173D8
331
173D9
331
173E4
331
173E5
331
177D9
331
177DA
331
17B56
331
17B57
331
17B65
331
17B66
331
17B72
331
17B73
331
17DC5
331
17DC6
331
1808D
331
1808E
331
1809E
331
1809F
331
180B1
331
180B2
331
180C0
331
180C1
331
183F7
102
}
 70
     0
280
     1
281
     0
  0
BLOCK_RECORD
  5
68D
330
1
100
AcDbSymbolTableRecord
100
AcDbBlockTableRecord
  2
block 2
340
0
102
{BLKREFS
331
68C
331
1343
102
}
 70
     0
280
     1
281
     0
  0
BLOCK_RECORD
  5
17320
330
1
100
AcDbSymbolTableRecord
100
AcDbBlockTableRecord
  2
*D2
340
0
 70
     0
280
     1
281
     0
  0
BLOCK_RECORD
  5
1732F
330
1
100
AcDbSymbolTableRecord
100
AcDbBlockTableRecord
  2
*D3
340
0
 70
     0
280
     1
281
     0
  0
BLOCK_RECORD
  5
173A6
330
1
100
AcDbSymbolTableRecord
100
AcDbBlockTableRecord
  2
*D4
340
0
 70
     0
280
     1
281
     0
  0
BLOCK_RECORD
  5
173B5
330
1
100
AcDbSymbolTableRecord
100
AcDbBlockTableRecord
  2
*D5
340
0
 70
     0
280
     1
281
     0
  0
BLOCK_RECORD
  5
173D2
330
1
100
AcDbSymbolTableRecord
100
AcDbBlockTableRecord
  2
*D6
340
0
 70
     0
280
     1
281
     0
  0
BLOCK_RECORD
  5
173DE
330
1
100
AcDbSymbolTableRecord
100
AcDbBlockTableRecord
  2
*D7
340
0
 70
     0
280
     1
281
     0
  0
BLOCK_RECORD
  5
177D3
330
1
100
AcDbSymbolTableRecord
100
AcDbBlockTableRecord
  2
*D8
340
0
 70
     0
280
     1
281
     0
  0
BLOCK_RECORD
  5
17B50
330
1
100
AcDbSymbolTableRecord
100
AcDbBlockTableRecord
  2
*D9
340
0
 70
     0
280
     1
281
     0
  0
BLOCK_RECORD
  5
17B5F
330
1
100
AcDbSymbolTableRecord
100
AcDbBlockTableRecord
  2
*D10
340
0
 70
     0
280
     1
281
     0
  0
BLOCK_RECORD
  5
17B6C
330
1
100
AcDbSymbolTableRecord
100
AcDbBlockTableRecord
  2
*D11
340
0
 70
     0
280
     1
281
     0
  0
BLOCK_RECORD
  5
17DBF
330
1
100
AcDbSymbolTableRecord
100
AcDbBlockTableRecord
  2
*D12
340
0
 70
     0
280
     1
281
     0
  0
BLOCK_RECORD
  5
18087
330
1
100
AcDbSymbolTableRecord
100
AcDbBlockTableRecord
  2
*D13
340
0
 70
     0
280
     1
281
     0
  0
BLOCK_RECORD
  5
18098
330
1
100
AcDbSymbolTableRecord
100
AcDbBlockTableRecord
  2
*D14
340
0
 70
     0
280
     1
281
     0
  0
BLOCK_RECORD
  5
180AB
330
1
100
AcDbSymbolTableRecord
100
AcDbBlockTableRecord
  2
*D15
340
0
 70
     0
280
     1
281
     0
  0
BLOCK_RECORD
  5
180BA
330
1
100
AcDbSymbolTableRecord
100
AcDbBlockTableRecord
  2
*D16
340
0
 70
     0
280
     1
281
     0
  0
BLOCK_RECORD
  5
183F1
330
1
100
AcDbSymbolTableRecord
100
AcDbBlockTableRecord
  2
*D17
340
0
 70
     0
280
     1
281
     0
  0
BLOCK_RECORD
  5
1848E
330
1
100
AcDbSymbolTableRecord
100
AcDbBlockTableRecord
  2
*D18
340
0
 70
     0
280
     1
281
     0
  0
BLOCK_RECORD
  5
185D9
330
1
100
AcDbSymbolTableRecord
100
AcDbBlockTableRecord
  2
*D19
340
0
 70
     0
280
     1
281
     0
  0
BLOCK_RECORD
  5
185E8
330
1
100
AcDbSymbolTableRecord
100
AcDbBlockTableRecord
  2
*D20
340
0
 70
     0
280
     1
281
     0
  0
BLOCK_RECORD
  5
185F7
330
1
100
AcDbSymbolTableRecord
100
AcDbBlockTableRecord
  2
*D21
340
0
 70
     0
280
     1
281
     0
  0
BLOCK_RECORD
  5
18606
330
1
100
AcDbSymbolTableRecord
100
AcDbBlockTableRecord
  2
*D22
340
0
 70
     0
280
     1
281
     0
  0
BLOCK_RECORD
  5
18613
330
1
100
AcDbSymbolTableRecord
100
AcDbBlockTableRecord
  2
*D23
340
0
 70
     0
280
     1
281
     0
  0
BLOCK_RECORD
  5
18620
330
1
100
AcDbSymbolTableRecord
100
AcDbBlockTableRecord
  2
*D24
340
0
 70
     0
280
     1
281
     0
  0
BLOCK_RECORD
  5
1862D
330
1
100
AcDbSymbolTableRecord
100
AcDbBlockTableRecord
  2
*D25
340
0
 70
     0
280
     1
281
     0
  0
BLOCK_RECORD
  5
18710
330
1
100
AcDbSymbolTableRecord
100
AcDbBlockTableRecord
  2
*D26
340
0
 70
     0
280
     1
281
     0
  0
BLOCK_RECORD
  5
1871C
330
1
100
AcDbSymbolTableRecord
100
AcDbBlockTableRecord
  2
*D27
340
0
 70
     0
280
     1
281
     0
  0
BLOCK_RECORD
  5
18728
330
1
100
AcDbSymbolTableRecord
100
AcDbBlockTableRecord
  2
*D28
340
0
 70
     0
280
     1
281
     0
  0
BLOCK_RECORD
  5
18734
330
1
100
AcDbSymbolTableRecord
100
AcDbBlockTableRecord
  2
*D29
340
0
 70
     0
280
     1
281
     0
  0
BLOCK_RECORD
  5
18740
330
1
100
AcDbSymbolTableRecord
100
AcDbBlockTableRecord
  2
*D30
340
0
 70
     0
280
     1
281
     0
  0
BLOCK_RECORD
  5
1874C
330
1
100
AcDbSymbolTableRecord
100
AcDbBlockTableRecord
  2
*D31
340
0
 70
     0
280
     1
281
     0
  0
BLOCK_RECORD
  5
18758
330
1
100
AcDbSymbolTableRecord
100
AcDbBlockTableRecord
  2
*D32
340
0
 70
     0
280
     1
281
     0
  0
BLOCK_RECORD
  5
18789
330
1
100
AcDbSymbolTableRecord
100
AcDbBlockTableRecord
  2
*D33
340
0
 70
     0
280
     1
281
     0
  0
BLOCK_RECORD
  5
187A0
330
1
100
AcDbSymbolTableRecord
100
AcDbBlockTableRecord
  2
*D34
340
0
 70
     0
280
     1
281
     0
  0
BLOCK_RECORD
  5
187AE
330
1
100
AcDbSymbolTableRecord
100
AcDbBlockTableRecord
  2
*D35
340
0
 70
     0
280
     1
281
     0
  0
BLOCK_RECORD
  5
187BC
330
1
100
AcDbSymbolTableRecord
100
AcDbBlockTableRecord
  2
*D36
340
0
 70
     0
280
     1
281
     0
  0
BLOCK_RECORD
  5
187CB
330
1
100
AcDbSymbolTableRecord
100
AcDbBlockTableRecord
  2
*D37
340
0
 70
     0
280
     1
281
     0
  0
BLOCK_RECORD
  5
187DB
330
1
100
AcDbSymbolTableRecord
100
AcDbBlockTableRecord
  2
*D38
340
0
 70
     0
280
     1
281
     0
  0
BLOCK_RECORD
  5
187EF
330
1
100
AcDbSymbolTableRecord
100
AcDbBlockTableRecord
  2
*D39
340
0
 70
     0
280
     1
281
     0
  0
BLOCK_RECORD
  5
187FC
330
1
100
AcDbSymbolTableRecord
100
AcDbBlockTableRecord
  2
*D40
340
0
 70
     0
280
     1
281
     0
  0
BLOCK_RECORD
  5
1880C
330
1
100
AcDbSymbolTableRecord
100
AcDbBlockTableRecord
  2
*D41
340
0
 70
     0
280
     1
281
     0
  0
BLOCK_RECORD
  5
1881B
330
1
100
AcDbSymbolTableRecord
100
AcDbBlockTableRecord
  2
*D42
340
0
 70
     0
280
     1
281
     0
  0
BLOCK_RECORD
  5
1882B
330
1
100
AcDbSymbolTableRecord
100
AcDbBlockTableRecord
  2
*D43
340
0
 70
     0
280
     1
281
     0
  0
BLOCK_RECORD
  5
1883B
330
1
100
AcDbSymbolTableRecord
100
AcDbBlockTableRecord
  2
*D44
340
0
 70
     0
280
     1
281
     0
  0
BLOCK_RECORD
  5
18863
330
1
100
AcDbSymbolTableRecord
100
AcDbBlockTableRecord
  2
*D45
340
0
 70
     0
280
     1
281
     0
  0
BLOCK_RECORD
  5
188B5
330
1
100
AcDbSymbolTableRecord
100
AcDbBlockTableRecord
  2
*D46
340
0
 70
     0
280
     1
281
     0
  0
BLOCK_RECORD
  5
188C8
330
1
100
AcDbSymbolTableRecord
100
AcDbBlockTableRecord
  2
*D47
340
0
 70
     0
280
     1
281
     0
  0
BLOCK_RECORD
  5
188E0
330
1
100
AcDbSymbolTableRecord
100
AcDbBlockTableRecord
  2
*D48
340
0
 70
     0
280
     1
281
     0
  0
BLOCK_RECORD
  5
189A8
330
1
100
AcDbSymbolTableRecord
100
AcDbBlockTableRecord
  2
*D49
340
0
 70
     0
280
     1
281
     0
  0
BLOCK_RECORD
  5
189B7
330
1
100
AcDbSymbolTableRecord
100
AcDbBlockTableRecord
  2
*D50
340
0
 70
     0
280
     1
281
     0
  0
ENDTAB
  0
ENDSEC
  0
SECTION
  2
BLOCKS
  0
BLOCK
  5
D
330
A
100
AcDbEntity
  8
0
390
1D
100
AcDbBlockBegin
  2
*MODEL_SPACE
 70
     0
 10
0.0
 20
0.0
 30
0.0
  3
*MODEL_SPACE
  1
*MODEL_SPACE
  0
ENDBLK
  5
E
330
A
100
AcDbEntity
  8
0
390
1D
100
AcDbBlockEnd
  0
BLOCK
  5
F
330
B
100
AcDbEntity
 67
     1
  8
0
390
1D
100
AcDbBlockBegin
  2
*PAPER_SPACE
 70
     0
 10
0.0
 20
0.0
 30
0.0
  3
*PAPER_SPACE
  1
*PAPER_SPACE
  0
ENDBLK
  5
10
330
B
100
AcDbEntity
 67
     1
  8
0
390
1D
100
AcDbBlockEnd
  0
BLOCK
  5
369F
330
4E
100
AcDbEntity
  8
0
390
1D
100
AcDbBlockBegin
  2
_DOT
 70
     0
 10
0.0
 20
0.0
 30
0.0
  3
_DOT
  1
_DOT
  0
POLYLINE
  5
36A1
330
4E
100
AcDbEntity
  8
0
  6
ByBlock
 62
     0
370
    -2
390
1D
100
AcDb2dPolyline
 66
     1
 10
0.0
 20
0.0
 30
0.0
 70
     1
 40
0.5
 41
0.5
  0
VERTEX
  5
36A2
330
36A1
100
AcDbEntity
  8
0
  6
ByBlock
 62
     0
370
    -2
390
1D
100
AcDbVertex
100
AcDb2dVertex
 10
-0.25
 20
0.0
 30
0.0
 42
1.0
  0
VERTEX
  5
36A3
330
36A1
100
AcDbEntity
  8
0
  6
ByBlock
 62
     0
370
    -2
390
1D
100
AcDbVertex
100
AcDb2dVertex
 10
0.25
 20
0.0
 30
0.0
 42
1.0
  0
SEQEND
  5
36A4
330
36A1
100
AcDbEntity
  8
0
390
1D
  0
LINE
  5
36A5
330
4E
100
AcDbEntity
  8
0
  6
ByBlock
 62
     0
370
    -2
390
1D
100
AcDbLine
 10
-0.5
 20
0.0
 30
0.0
 11
-1.0
 21
0.0
 31
0.0
  0
ENDBLK
  5
36A6
330
4E
100
AcDbEntity
  8
0
390
1D
100
AcDbBlockEnd
  0
BLOCK
  5
68E
330
68D
100
AcDbEntity
  8
0
100
AcDbBlockBegin
  2
block 2
 70
     0
 10
0.0
 20
0.0
 30
0.0
  3
block 2
  1
block 2
  0
ENDBLK
  5
6B0
330
68D
100
AcDbEntity
  8
0
100
AcDbBlockEnd
  0
BLOCK
  5
17321
330
17320
100
AcDbEntity
  8
0
100
AcDbBlockBegin
  2
*D2
 70
     1
 10
0.0
 20
0.0
 30
0.0
  3
*D2
  1

  0
LINE
  5
17323
330
17320
100
AcDbEntity
  8
DIM
 62
     0
370
    -2
100
AcDbLine
 10
405.9245501690547
 20
309.7529598971253
 30
0.0
 11
405.9245501690547
 21
297.8784471131835
 31
0.0
  0
LINE
  5
17324
330
17320
100
AcDbEntity
  8
DIM
 62
     0
370
    -2
100
AcDbLine
 10
370.465565794055
 20
307.7217551386165
 30
0.0
 11
370.465565794055
 21
297.8784471131835
 31
0.0
  0
LINE
  5
17325
330
17320
100
AcDbEntity
  8
DIM
 62
     0
370
    -2
100
AcDbLine
 10
402.9245501690548
 20
297.8784471131835
 30
0.0
 11
373.465565794055
 21
297.8784471131835
 31
0.0
  0
INSERT
  5
17326
330
17320
100
AcDbEntity
  8
DIM
 62
     0
370
    -2
100
AcDbBlockReference
  2
_DOT
 10
405.9245501690547
 20
297.8784471131835
 30
0.0
 41
3.0
 42
3.0
 43
3.0
  0
INSERT
  5
17327
330
17320
100
AcDbEntity
  8
DIM
 62
     0
370
    -2
100
AcDbBlockReference
  2
_DOT
 10
370.465565794055
 20
297.8784471131835
 30
0.0
 41
3.0
 42
3.0
 43
3.0
 50
180.0
  0
MTEXT
  5
17328
330
17320
100
AcDbEntity
  8
DIM
 62
     0
100
AcDbMText
 10
388.1950579815549
 20
307.8784471131835
 30
0.0
 40
8.0
 41
0.0
 46
0.0
 71
     5
 72
     1
  1
\A1;35
  7
ＭＳ ゴシック
 73
     1
 44
1.0
  0
POINT
  5
17329
330
17320
100
AcDbEntity
  8
Defpoints
 62
     0
100
AcDbPoint
 10
405.9245501690547
 20
319.7529598971253
 30
0.0
  0
POINT
  5
1732A
330
17320
100
AcDbEntity
  8
Defpoints
 62
     0
100
AcDbPoint
 10
370.465565794055
 20
317.7217551386164
 30
0.0
  0
POINT
  5
1732B
330
17320
100
AcDbEntity
  8
Defpoints
 62
     0
100
AcDbPoint
 10
370.465565794055
 20
297.8784471131835
 30
0.0
  0
ENDBLK
  5
17322
330
17320
100
AcDbEntity
  8
0
100
AcDbBlockEnd
  0
BLOCK
  5
17330
330
1732F
100
AcDbEntity
  8
0
100
AcDbBlockBegin
  2
*D3
 70
     1
 10
0.0
 20
0.0
 30
0.0
  3
*D3
  1

  0
LINE
  5
17332
330
1732F
100
AcDbEntity
  8
DIM
 62
     0
370
    -2
100
AcDbLine
 10
336.4182475173941
 20
457.0429158371508
 30
0.0
 11
315.1384266419194
 21
457.0429158371508
 31
0.0
  0
LINE
  5
17333
330
1732F
100
AcDbEntity
  8
DIM
 62
     0
370
    -2
100
AcDbLine
 10
331.4592515249408
 20
386.1825642746509
 30
0.0
 11
315.1384266419194
 21
386.1825642746509
 31
0.0
  0
LINE
  5
17334
330
1732F
100
AcDbEntity
  8
DIM
 62
     0
370
    -2
100
AcDbLine
 10
315.1384266419194
 20
454.0429158371508
 30
0.0
 11
315.1384266419194
 21
389.1825642746509
 31
0.0
  0
INSERT
  5
17335
330
1732F
100
AcDbEntity
  8
DIM
 62
     0
370
    -2
100
AcDbBlockReference
  2
_DOT
 10
315.1384266419194
 20
457.0429158371508
 30
0.0
 41
3.0
 42
3.0
 43
3.0
 50
90.0
  0
INSERT
  5
17336
330
1732F
100
AcDbEntity
  8
DIM
 62
     0
370
    -2
100
AcDbBlockReference
  2
_DOT
 10
315.1384266419194
 20
386.1825642746509
 30
0.0
 41
3.0
 42
3.0
 43
3.0
 50
270.0
  0
MTEXT
  5
17337
330
1732F
100
AcDbEntity
  8
DIM
 62
     0
100
AcDbMText
 10
305.1384266419193
 20
421.6127400559008
 30
0.0
 40
8.0
 41
0.0
 46
0.0
 71
     5
 72
     1
  1
\A1;71
  7
ＭＳ ゴシック
 11
0.0
 21
1.0
 31
0.0
 73
     1
 44
1.0
  0
POINT
  5
17338
330
1732F
100
AcDbEntity
  8
Defpoints
 62
     0
100
AcDbPoint
 10
346.4182475173941
 20
457.0429158371508
 30
0.0
  0
POINT
  5
17339
330
1732F
100
AcDbEntity
  8
Defpoints
 62
     0
100
AcDbPoint
 10
341.4592515249408
 20
386.1825642746509
 30
0.0
  0
POINT
  5
1733A
330
1732F
100
AcDbEntity
  8
Defpoints
 62
     0
100
AcDbPoint
 10
315.1384266419194
 20
386.1825642746509
 30
0.0
  0
ENDBLK
  5
17331
330
1732F
100
AcDbEntity
  8
0
100
AcDbBlockEnd
  0
BLOCK
  5
173A7
330
173A6
100
AcDbEntity
  8
0
100
AcDbBlockBegin
  2
*D4
 70
     1
 10
0.0
 20
0.0
 30
0.0
  3
*D4
  1

  0
LINE
  5
173A8
330
173A6
100
AcDbEntity
  8
DIM
 62
     0
370
    -2
100
AcDbLine
 10
1.0
 20
135.0035410091185
 30
0.0
 11
1.0
 21
195.1497860279634
 31
0.0
  0
LINE
  5
173A9
330
173A6
100
AcDbEntity
  8
DIM
 62
     0
370
    -2
100
AcDbLine
 10
115.1779939209722
 20
135.0035410091185
 30
0.0
 11
115.1779939209722
 21
195.1497860279634
 31
0.0
  0
LINE
  5
173AA
330
173A6
100
AcDbEntity
  8
DIM
 62
     0
370
    -2
100
AcDbLine
 10
4.0
 20
195.1497860279634
 30
0.0
 11
112.1779939209723
 21
195.1497860279634
 31
0.0
  0
INSERT
  5
173AB
330
173A6
100
AcDbEntity
  8
DIM
 62
     0
370
    -2
100
AcDbBlockReference
  2
_DOT
 10
1.0
 20
195.1497860279634
 30
0.0
 41
3.0
 42
3.0
 43
3.0
 50
180.0
  0
INSERT
  5
173AC
330
173A6
100
AcDbEntity
  8
DIM
 62
     0
370
    -2
100
AcDbBlockReference
  2
_DOT
 10
115.1779939209722
 20
195.1497860279634
 30
0.0
 41
3.0
 42
3.0
 43
3.0
  0
MTEXT
  5
173AD
330
173A6
100
AcDbEntity
  8
DIM
 62
     0
100
AcDbMText
 10
58.08899696048616
 20
205.1497860279634
 30
0.0
 40
8.0
 41
0.0
 46
0.0
 71
     5
 72
     1
  1
\A1;114
  7
ＭＳ ゴシック
 73
     1
 44
1.0
  0
POINT
  5
173AE
330
173A6
100
AcDbEntity
  8
Defpoints
 62
     0
100
AcDbPoint
 10
1.0
 20
125.0035410091185
 30
0.0
  0
POINT
  5
173AF
330
173A6
100
AcDbEntity
  8
Defpoints
 62
     0
100
AcDbPoint
 10
115.1779939209722
 20
125.0035410091185
 30
0.0
  0
POINT
  5
173B0
330
173A6
100
AcDbEntity
  8
Defpoints
 62
     0
100
AcDbPoint
 10
115.1779939209722
 20
195.1497860279634
 30
0.0
  0
ENDBLK
  5
173B1
330
173A6
100
AcDbEntity
  8
0
100
AcDbBlockEnd
  0
BLOCK
  5
173B6
330
173B5
100
AcDbEntity
  8
0
100
AcDbBlockBegin
  2
*D5
 70
     1
 10
0.0
 20
0.0
 30
0.0
  3
*D5
  1

  0
LINE
  5
173B7
330
173B5
100
AcDbEntity
  8
DIM
 62
     0
370
    -2
100
AcDbLine
 10
20.20208557550177
 20
115.0035410091185
 30
0.0
 11
20.20208557550177
 21
38.30487537993926
 31
0.0
  0
LINE
  5
173B8
330
173B5
100
AcDbEntity
  8
DIM
 62
     0
370
    -2
100
AcDbLine
 10
95.97590834547053
 20
115.0035410091185
 30
0.0
 11
95.97590834547053
 21
38.30487537993926
 31
0.0
  0
LINE
  5
173B9
330
173B5
100
AcDbEntity
  8
DIM
 62
     0
370
    -2
100
AcDbLine
 10
23.20208557550177
 20
38.30487537993926
 30
0.0
 11
92.97590834547055
 21
38.30487537993926
 31
0.0
  0
INSERT
  5
173BA
330
173B5
100
AcDbEntity
  8
DIM
 62
     0
370
    -2
100
AcDbBlockReference
  2
_DOT
 10
20.20208557550177
 20
38.30487537993926
 30
0.0
 41
3.0
 42
3.0
 43
3.0
 50
180.0
  0
INSERT
  5
173BB
330
173B5
100
AcDbEntity
  8
DIM
 62
     0
370
    -2
100
AcDbBlockReference
  2
_DOT
 10
95.97590834547053
 20
38.30487537993926
 30
0.0
 41
3.0
 42
3.0
 43
3.0
  0
MTEXT
  5
173BC
330
173B5
100
AcDbEntity
  8
DIM
 62
     0
100
AcDbMText
 10
58.08899696048616
 20
48.30487537993926
 30
0.0
 40
8.0
 41
0.0
 46
0.0
 71
     5
 72
     1
  1
\A1;76
  7
ＭＳ ゴシック
 73
     1
 44
1.0
  0
POINT
  5
173BD
330
173B5
100
AcDbEntity
  8
Defpoints
 62
     0
100
AcDbPoint
 10
20.20208557550177
 20
125.0035410091185
 30
0.0
  0
POINT
  5
173BE
330
173B5
100
AcDbEntity
  8
Defpoints
 62
     0
100
AcDbPoint
 10
95.97590834547053
 20
125.0035410091185
 30
0.0
  0
POINT
  5
173BF
330
173B5
100
AcDbEntity
  8
Defpoints
 62
     0
100
AcDbPoint
 10
95.97590834547053
 20
38.30487537993926
 30
0.0
  0
ENDBLK
  5
173C0
330
173B5
100
AcDbEntity
  8
0
100
AcDbBlockEnd
  0
BLOCK
  5
173D3
330
173D2
100
AcDbEntity
  8
0
100
AcDbBlockBegin
  2
*D6
 70
     1
 10
0.0
 20
0.0
 30
0.0
  3
*D6
  1

  0
LINE
  5
173D5
330
173D2
100
AcDbEntity
  8
DIM
 62
     0
370
    -2
100
AcDbLine
 10
228.7947264437692
 20
485.5501747355622
 30
0.0
 11
228.7947264437692
 21
580.7695422638293
 31
0.0
  0
LINE
  5
173D6
330
173D2
100
AcDbEntity
  8
DIM
 62
     0
370
    -2
100
AcDbLine
 10
400.0617173252273
 20
485.5501747355622
 30
0.0
 11
400.0617173252273
 21
580.7695422638293
 31
0.0
  0
LINE
  5
173D7
330
173D2
100
AcDbEntity
  8
DIM
 62
     0
370
    -2
100
AcDbLine
 10
231.7947264437692
 20
580.7695422638293
 30
0.0
 11
397.0617173252273
 21
580.7695422638293
 31
0.0
  0
INSERT
  5
173D8
330
173D2
100
AcDbEntity
  8
DIM
 62
     0
370
    -2
100
AcDbBlockReference
  2
_DOT
 10
228.7947264437692
 20
580.7695422638293
 30
0.0
 41
3.0
 42
3.0
 43
3.0
 50
180.0
  0
INSERT
  5
173D9
330
173D2
100
AcDbEntity
  8
DIM
 62
     0
370
    -2
100
AcDbBlockReference
  2
_DOT
 10
400.0617173252273
 20
580.7695422638293
 30
0.0
 41
3.0
 42
3.0
 43
3.0
  0
MTEXT
  5
173DA
330
173D2
100
AcDbEntity
  8
DIM
 62
     0
100
AcDbMText
 10
314.4282218844983
 20
590.7695422638292
 30
0.0
 40
8.0
 41
0.0
 46
0.0
 71
     5
 72
     1
  1
\A1;171
  7
ＭＳ ゴシック
 73
     1
 44
1.0
  0
POINT
  5
173DB
330
173D2
100
AcDbEntity
  8
Defpoints
 62
     0
100
AcDbPoint
 10
228.7947264437692
 20
475.5501747355622
 30
0.0
  0
POINT
  5
173DC
330
173D2
100
AcDbEntity
  8
Defpoints
 62
     0
100
AcDbPoint
 10
400.0617173252273
 20
475.5501747355622
 30
0.0
  0
POINT
  5
173DD
330
173D2
100
AcDbEntity
  8
Defpoints
 62
     0
100
AcDbPoint
 10
400.0617173252273
 20
580.7695422638293
 30
0.0
  0
ENDBLK
  5
173D4
330
173D2
100
AcDbEntity
  8
0
100
AcDbBlockEnd
  0
BLOCK
  5
173DF
330
173DE
100
AcDbEntity
  8
0
100
AcDbBlockBegin
  2
*D7
 70
     1
 10
0.0
 20
0.0
 30
0.0
  3
*D7
  1

  0
LINE
  5
173E1
330
173DE
100
AcDbEntity
  8
DIM
 62
     0
370
    -2
100
AcDbLine
 10
257.5978548070218
 20
465.5501747355621
 30
0.0
 11
257.5978548070218
 21
345.5021762917933
 31
0.0
  0
LINE
  5
173E2
330
173DE
100
AcDbEntity
  8
DIM
 62
     0
370
    -2
100
AcDbLine
 10
371.2585889619747
 20
465.5501747355621
 30
0.0
 11
371.2585889619747
 21
345.5021762917933
 31
0.0
  0
LINE
  5
173E3
330
173DE
100
AcDbEntity
  8
DIM
 62
     0
370
    -2
100
AcDbLine
 10
260.5978548070218
 20
345.5021762917933
 30
0.0
 11
368.2585889619748
 21
345.5021762917933
 31
0.0
  0
INSERT
  5
173E4
330
173DE
100
AcDbEntity
  8
DIM
 62
     0
370
    -2
100
AcDbBlockReference
  2
_DOT
 10
257.5978548070218
 20
345.5021762917933
 30
0.0
 41
3.0
 42
3.0
 43
3.0
 50
180.0
  0
INSERT
  5
173E5
330
173DE
100
AcDbEntity
  8
DIM
 62
     0
370
    -2
100
AcDbBlockReference
  2
_DOT
 10
371.2585889619747
 20
345.5021762917933
 30
0.0
 41
3.0
 42
3.0
 43
3.0
  0
MTEXT
  5
173E6
330
173DE
100
AcDbEntity
  8
DIM
 62
     0
100
AcDbMText
 10
314.4282218844983
 20
355.5021762917933
 30
0.0
 40
8.0
 41
0.0
 46
0.0
 71
     5
 72
     1
  1
\A1;114
  7
ＭＳ ゴシック
 73
     1
 44
1.0
  0
POINT
  5
173E7
330
173DE
100
AcDbEntity
  8
Defpoints
 62
     0
100
AcDbPoint
 10
257.5978548070218
 20
475.5501747355622
 30
0.0
  0
POINT
  5
173E8
330
173DE
100
AcDbEntity
  8
Defpoints
 62
     0
100
AcDbPoint
 10
371.2585889619747
 20
475.5501747355622
 30
0.0
  0
POINT
  5
173E9
330
173DE
100
AcDbEntity
  8
Defpoints
 62
     0
100
AcDbPoint
 10
371.2585889619747
 20
345.5021762917933
 30
0.0
  0
ENDBLK
  5
173E0
330
173DE
100
AcDbEntity
  8
0
100
AcDbBlockEnd
  0
BLOCK
  5
177D4
330
177D3
100
AcDbEntity
  8
0
100
AcDbBlockBegin
  2
*D8
 70
     1
 10
0.0
 20
0.0
 30
0.0
  3
*D8
  1

  0
LINE
  5
177D6
330
177D3
100
AcDbEntity
  8
DIM
 62
     0
370
    -2
100
AcDbLine
 10
121.0525751367782
 20
651.2628997563528
 30
0.0
 11
121.0525751367782
 21
672.347742138016
 31
0.0
  0
LINE
  5
177D7
330
177D3
100
AcDbEntity
  8
DIM
 62
     0
370
    -2
100
AcDbLine
 10
281.0525751367782
 20
651.2628997563528
 30
0.0
 11
281.0525751367782
 21
672.347742138016
 31
0.0
  0
LINE
  5
177D8
330
177D3
100
AcDbEntity
  8
DIM
 62
     0
370
    -2
100
AcDbLine
 10
124.0525751367782
 20
672.347742138016
 30
0.0
 11
278.0525751367782
 21
672.347742138016
 31
0.0
  0
INSERT
  5
177D9
330
177D3
100
AcDbEntity
  8
DIM
 62
     0
370
    -2
100
AcDbBlockReference
  2
_DOT
 10
121.0525751367782
 20
672.347742138016
 30
0.0
 41
3.0
 42
3.0
 43
3.0
 50
180.0
  0
INSERT
  5
177DA
330
177D3
100
AcDbEntity
  8
DIM
 62
     0
370
    -2
100
AcDbBlockReference
  2
_DOT
 10
281.0525751367782
 20
672.347742138016
 30
0.0
 41
3.0
 42
3.0
 43
3.0
  0
MTEXT
  5
177DB
330
177D3
100
AcDbEntity
  8
DIM
 62
     0
100
AcDbMText
 10
201.0525751367782
 20
682.3477421380159
 30
0.0
 40
8.0
 41
0.0
 46
0.0
 71
     5
 72
     1
  1
\A1;160
  7
ＭＳ ゴシック
 73
     1
 44
1.0
  0
POINT
  5
177DC
330
177D3
100
AcDbEntity
  8
Defpoints
 62
     0
100
AcDbPoint
 10
121.0525751367782
 20
641.2628997563528
 30
0.0
  0
POINT
  5
177DD
330
177D3
100
AcDbEntity
  8
Defpoints
 62
     0
100
AcDbPoint
 10
281.0525751367782
 20
641.2628997563528
 30
0.0
  0
POINT
  5
177DE
330
177D3
100
AcDbEntity
  8
Defpoints
 62
     0
100
AcDbPoint
 10
281.0525751367782
 20
672.347742138016
 30
0.0
  0
ENDBLK
  5
177D5
330
177D3
100
AcDbEntity
  8
0
100
AcDbBlockEnd
  0
BLOCK
  5
17B51
330
17B50
100
AcDbEntity
  8
0
100
AcDbBlockBegin
  2
*D9
 70
     1
 10
0.0
 20
0.0
 30
0.0
  3
*D9
  1

  0
LINE
  5
17B53
330
17B50
100
AcDbEntity
  8
DIM
 62
     0
370
    -2
100
AcDbLine
 10
372.7317411114082
 20
606.129768605805
 30
0.0
 11
390.1401326516718
 21
606.129768605805
 31
0.0
  0
LINE
  5
17B54
330
17B50
100
AcDbEntity
  8
DIM
 62
     0
370
    -2
100
AcDbLine
 10
336.6115751367781
 20
504.129768605805
 30
0.0
 11
390.1401326516718
 21
504.129768605805
 31
0.0
  0
LINE
  5
17B55
330
17B50
100
AcDbEntity
  8
DIM
 62
     0
370
    -2
100
AcDbLine
 10
390.1401326516718
 20
603.1297686058049
 30
0.0
 11
390.1401326516718
 21
507.1297686058049
 31
0.0
  0
INSERT
  5
17B56
330
17B50
100
AcDbEntity
  8
DIM
 62
     0
370
    -2
100
AcDbBlockReference
  2
_DOT
 10
390.1401326516718
 20
606.129768605805
 30
0.0
 41
3.0
 42
3.0
 43
3.0
 50
90.0
  0
INSERT
  5
17B57
330
17B50
100
AcDbEntity
  8
DIM
 62
     0
370
    -2
100
AcDbBlockReference
  2
_DOT
 10
390.1401326516718
 20
504.129768605805
 30
0.0
 41
3.0
 42
3.0
 43
3.0
 50
270.0
  0
MTEXT
  5
17B58
330
17B50
100
AcDbEntity
  8
DIM
 62
     0
100
AcDbMText
 10
380.1401326516718
 20
555.129768605805
 30
0.0
 40
8.0
 41
0.0
 46
0.0
 71
     5
 72
     1
  1
\A1;102
  7
ＭＳ ゴシック
 11
0.0
 21
1.0
 31
0.0
 73
     1
 44
1.0
  0
POINT
  5
17B59
330
17B50
100
AcDbEntity
  8
Defpoints
 62
     0
100
AcDbPoint
 10
362.7317411114082
 20
606.129768605805
 30
0.0
  0
POINT
  5
17B5A
330
17B50
100
AcDbEntity
  8
Defpoints
 62
     0
100
AcDbPoint
 10
326.6115751367781
 20
504.129768605805
 30
0.0
  0
POINT
  5
17B5B
330
17B50
100
AcDbEntity
  8
Defpoints
 62
     0
100
AcDbPoint
 10
390.1401326516718
 20
504.129768605805
 30
0.0
  0
ENDBLK
  5
17B52
330
17B50
100
AcDbEntity
  8
0
100
AcDbBlockEnd
  0
BLOCK
  5
17B60
330
17B5F
100
AcDbEntity
  8
0
100
AcDbBlockBegin
  2
*D10
 70
     1
 10
0.0
 20
0.0
 30
0.0
  3
*D10
  1

  0
LINE
  5
17B62
330
17B5F
100
AcDbEntity
  8
DIM
 62
     0
370
    -2
100
AcDbLine
 10
57.05257513677815
 20
589.6322686058049
 30
0.0
 11
57.05257513677815
 21
704.7865499716934
 31
0.0
  0
LINE
  5
17B63
330
17B5F
100
AcDbEntity
  8
DIM
 62
     0
370
    -2
100
AcDbLine
 10
345.0525751367782
 20
591.0937686058049
 30
0.0
 11
345.0525751367782
 21
704.7865499716934
 31
0.0
  0
LINE
  5
17B64
330
17B5F
100
AcDbEntity
  8
DIM
 62
     0
370
    -2
100
AcDbLine
 10
60.05257513677815
 20
704.7865499716934
 30
0.0
 11
342.0525751367782
 21
704.7865499716934
 31
0.0
  0
INSERT
  5
17B65
330
17B5F
100
AcDbEntity
  8
DIM
 62
     0
370
    -2
100
AcDbBlockReference
  2
_DOT
 10
57.05257513677815
 20
704.7865499716934
 30
0.0
 41
3.0
 42
3.0
 43
3.0
 50
180.0
  0
INSERT
  5
17B66
330
17B5F
100
AcDbEntity
  8
DIM
 62
     0
370
    -2
100
AcDbBlockReference
  2
_DOT
 10
345.0525751367782
 20
704.7865499716934
 30
0.0
 41
3.0
 42
3.0
 43
3.0
  0
MTEXT
  5
17B67
330
17B5F
100
AcDbEntity
  8
DIM
 62
     0
100
AcDbMText
 10
201.0525751367782
 20
714.7865499716933
 30
0.0
 40
8.0
 41
0.0
 46
0.0
 71
     5
 72
     1
  1
\A1;288
  7
ＭＳ ゴシック
 73
     1
 44
1.0
  0
POINT
  5
17B68
330
17B5F
100
AcDbEntity
  8
Defpoints
 62
     0
100
AcDbPoint
 10
57.05257513677815
 20
579.6322686058049
 30
0.0
  0
POINT
  5
17B69
330
17B5F
100
AcDbEntity
  8
Defpoints
 62
     0
100
AcDbPoint
 10
345.0525751367782
 20
581.0937686058049
 30
0.0
  0
POINT
  5
17B6A
330
17B5F
100
AcDbEntity
  8
Defpoints
 62
     0
100
AcDbPoint
 10
345.0525751367782
 20
704.7865499716934
 30
0.0
  0
ENDBLK
  5
17B61
330
17B5F
100
AcDbEntity
  8
0
100
AcDbBlockEnd
  0
BLOCK
  5
17B6D
330
17B6C
100
AcDbEntity
  8
0
100
AcDbBlockBegin
  2
*D11
 70
     1
 10
0.0
 20
0.0
 30
0.0
  3
*D11
  1

  0
LINE
  5
17B6F
330
17B6C
100
AcDbEntity
  8
DIM
 62
     0
370
    -2
100
AcDbLine
 10
353.051582457655
 20
333.2206483428572
 30
0.0
 11
373.4919224029824
 21
333.2206483428572
 31
0.0
  0
LINE
  5
17B70
330
17B6C
100
AcDbEntity
  8
DIM
 62
     0
370
    -2
100
AcDbLine
 10
353.0515824576549
 20
304.2206483428572
 30
0.0
 11
373.4919224029824
 21
304.2206483428572
 31
0.0
  0
LINE
  5
17B71
330
17B6C
100
AcDbEntity
  8
DIM
 62
     0
370
    -2
100
AcDbLine
 10
373.4919224029824
 20
330.2206483428571
 30
0.0
 11
373.4919224029824
 21
307.2206483428571
 31
0.0
  0
INSERT
  5
17B72
330
17B6C
100
AcDbEntity
  8
DIM
 62
     0
370
    -2
100
AcDbBlockReference
  2
_DOT
 10
373.4919224029824
 20
333.2206483428572
 30
0.0
 41
3.0
 42
3.0
 43
3.0
 50
90.0
  0
INSERT
  5
17B73
330
17B6C
100
AcDbEntity
  8
DIM
 62
     0
370
    -2
100
AcDbBlockReference
  2
_DOT
 10
373.4919224029824
 20
304.2206483428572
 30
0.0
 41
3.0
 42
3.0
 43
3.0
 50
270.0
  0
MTEXT
  5
17B74
330
17B6C
100
AcDbEntity
  8
DIM
 62
     0
100
AcDbMText
 10
363.4919224029824
 20
318.7206483428572
 30
0.0
 40
8.0
 41
0.0
 46
0.0
 71
     5
 72
     1
  1
\A1;29
  7
ＭＳ ゴシック
 11
0.0
 21
1.0
 31
0.0
 73
     1
 44
1.0
  0
POINT
  5
17B75
330
17B6C
100
AcDbEntity
  8
Defpoints
 62
     0
100
AcDbPoint
 10
343.051582457655
 20
333.2206483428572
 30
0.0
  0
POINT
  5
17B76
330
17B6C
100
AcDbEntity
  8
Defpoints
 62
     0
100
AcDbPoint
 10
343.0515824576549
 20
304.2206483428572
 30
0.0
  0
POINT
  5
17B77
330
17B6C
100
AcDbEntity
  8
Defpoints
 62
     0
100
AcDbPoint
 10
373.4919224029824
 20
304.2206483428572
 30
0.0
  0
ENDBLK
  5
17B6E
330
17B6C
100
AcDbEntity
  8
0
100
AcDbBlockEnd
  0
BLOCK
  5
17DC0
330
17DBF
100
AcDbEntity
  8
0
100
AcDbBlockBegin
  2
*D12
 70
     1
 10
0.0
 20
0.0
 30
0.0
  3
*D12
  1

  0
LINE
  5
17DC2
330
17DBF
100
AcDbEntity
  8
DIM
 62
     0
370
    -2
100
AcDbLine
 10
467.7501832813391
 20
332.790648342857
 30
0.0
 11
420.4629209459089
 21
332.790648342857
 31
0.0
  0
LINE
  5
17DC3
330
17DBF
100
AcDbEntity
  8
DIM
 62
     0
370
    -2
100
AcDbLine
 10
434.2154063370072
 20
317.8238287645452
 30
0.0
 11
420.4629209459089
 21
317.8238287645452
 31
0.0
  0
LINE
  5
17DC4
330
17DBF
100
AcDbEntity
  8
DIM
 62
     0
370
    -2
100
AcDbLine
 10
420.4629209459089
 20
329.790648342857
 30
0.0
 11
420.4629209459089
 21
320.8238287645452
 31
0.0
  0
INSERT
  5
17DC5
330
17DBF
100
AcDbEntity
  8
DIM
 62
     0
370
    -2
100
AcDbBlockReference
  2
_DOT
 10
420.4629209459089
 20
332.790648342857
 30
0.0
 41
3.0
 42
3.0
 43
3.0
 50
90.0
  0
INSERT
  5
17DC6
330
17DBF
100
AcDbEntity
  8
DIM
 62
     0
370
    -2
100
AcDbBlockReference
  2
_DOT
 10
420.4629209459089
 20
317.8238287645452
 30
0.0
 41
3.0
 42
3.0
 43
3.0
 50
270.0
  0
MTEXT
  5
17DC7
330
17DBF
100
AcDbEntity
  8
DIM
 62
     0
100
AcDbMText
 10
410.462920945909
 20
325.290648342857
 30
0.0
 40
8.0
 41
0.0
 46
0.0
 71
     5
 72
     1
  1
\A1;15
  7
ＭＳ ゴシック
 11
0.0
 21
1.0
 31
0.0
 73
     1
 44
1.0
  0
POINT
  5
17DC8
330
17DBF
100
AcDbEntity
  8
Defpoints
 62
     0
100
AcDbPoint
 10
477.7501832813391
 20
332.790648342857
 30
0.0
  0
POINT
  5
17DC9
330
17DBF
100
AcDbEntity
  8
Defpoints
 62
     0
100
AcDbPoint
 10
444.2154063370072
 20
317.8238287645452
 30
0.0
  0
POINT
  5
17DCA
330
17DBF
100
AcDbEntity
  8
Defpoints
 62
     0
100
AcDbPoint
 10
420.4629209459089
 20
317.8238287645452
 30
0.0
  0
ENDBLK
  5
17DC1
330
17DBF
100
AcDbEntity
  8
0
100
AcDbBlockEnd
  0
BLOCK
  5
18088
330
18087
100
AcDbEntity
  8
0
100
AcDbBlockBegin
  2
*D13
 70
     1
 10
0.0
 20
0.0
 30
0.0
  3
*D13
  1

  0
LINE
  5
1808A
330
18087
100
AcDbEntity
  8
DIM
 62
     0
370
    -2
100
AcDbLine
 10
1276.286208082511
 20
302.8799707746752
 30
0.0
 11
1215.236824735996
 21
302.8799707746752
 31
0.0
  0
LINE
  5
1808B
330
18087
100
AcDbEntity
  8
DIM
 62
     0
370
    -2
100
AcDbLine
 10
1276.286208082511
 20
286.8799707746751
 30
0.0
 11
1215.236824735996
 21
286.8799707746751
 31
0.0
  0
LINE
  5
1808C
330
18087
100
AcDbEntity
  8
DIM
 62
     0
370
    -2
100
AcDbLine
 10
1215.236824735996
 20
299.8799707746751
 30
0.0
 11
1215.236824735996
 21
289.8799707746751
 31
0.0
  0
INSERT
  5
1808D
330
18087
100
AcDbEntity
  8
DIM
 62
     0
370
    -2
100
AcDbBlockReference
  2
_DOT
 10
1215.236824735996
 20
302.8799707746752
 30
0.0
 41
3.0
 42
3.0
 43
3.0
 50
90.0
  0
INSERT
  5
1808E
330
18087
100
AcDbEntity
  8
DIM
 62
     0
370
    -2
100
AcDbBlockReference
  2
_DOT
 10
1215.236824735996
 20
286.8799707746751
 30
0.0
 41
3.0
 42
3.0
 43
3.0
 50
270.0
  0
MTEXT
  5
1808F
330
18087
100
AcDbEntity
  8
DIM
 62
     0
100
AcDbMText
 10
1205.236824735996
 20
300.19750119618
 30
0.0
 40
8.0
 41
0.0
 46
0.0
 71
     5
 72
     1
  1
\A1;16
  7
ＭＳ ゴシック
 11
0.0
 21
1.0
 31
0.0
 73
     1
 44
1.0
  0
POINT
  5
18090
330
18087
100
AcDbEntity
  8
Defpoints
 62
     0
100
AcDbPoint
 10
1286.286208082511
 20
302.8799707746752
 30
0.0
  0
POINT
  5
18091
330
18087
100
AcDbEntity
  8
Defpoints
 62
     0
100
AcDbPoint
 10
1286.286208082511
 20
286.8799707746751
 30
0.0
  0
POINT
  5
18092
330
18087
100
AcDbEntity
  8
Defpoints
 62
     0
100
AcDbPoint
 10
1215.236824735996
 20
286.8799707746751
 30
0.0
  0
ENDBLK
  5
18089
330
18087
100
AcDbEntity
  8
0
100
AcDbBlockEnd
  0
BLOCK
  5
18099
330
18098
100
AcDbEntity
  8
0
100
AcDbBlockBegin
  2
*D14
 70
     1
 10
0.0
 20
0.0
 30
0.0
  3
*D14
  1

  0
LINE
  5
1809B
330
18098
100
AcDbEntity
  8
DIM
 62
     0
370
    -2
100
AcDbLine
 10
-229.833566391645
 20
279.3998187989912
 30
0.0
 11
-208.2180288238364
 21
279.3998187989912
 31
0.0
  0
LINE
  5
1809C
330
18098
100
AcDbEntity
  8
DIM
 62
     0
370
    -2
100
AcDbLine
 10
-327.6578637077267
 20
262.6896364551245
 30
0.0
 11
-208.2180288238364
 21
262.6896364551245
 31
0.0
  0
LINE
  5
1809D
330
18098
100
AcDbEntity
  8
DIM
 62
     0
370
    -2
100
AcDbLine
 10
-208.2180288238364
 20
276.3998187989912
 30
0.0
 11
-208.2180288238364
 21
265.6896364551245
 31
0.0
  0
INSERT
  5
1809E
330
18098
100
AcDbEntity
  8
DIM
 62
     0
370
    -2
100
AcDbBlockReference
  2
_DOT
 10
-208.2180288238364
 20
279.3998187989912
 30
0.0
 41
3.0
 42
3.0
 43
3.0
 50
90.0
  0
INSERT
  5
1809F
330
18098
100
AcDbEntity
  8
DIM
 62
     0
370
    -2
100
AcDbBlockReference
  2
_DOT
 10
-208.2180288238364
 20
262.6896364551245
 30
0.0
 41
3.0
 42
3.0
 43
3.0
 50
270.0
  0
MTEXT
  5
180A0
330
18098
100
AcDbEntity
  8
DIM
 62
     0
100
AcDbMText
 10
-218.2195293865475
 20
271.0447276270577
 30
0.0
 40
8.0
 41
0.0
 46
0.0
 71
     5
 72
     1
  1
\A1;17
  7
ＭＳ ゴシック
 11
0.0
 21
1.0
 31
0.0
 73
     1
 44
1.0
  0
POINT
  5
180A1
330
18098
100
AcDbEntity
  8
Defpoints
 62
     0
100
AcDbPoint
 10
-239.833566391645
 20
279.3998187989912
 30
0.0
  0
POINT
  5
180A2
330
18098
100
AcDbEntity
  8
Defpoints
 62
     0
100
AcDbPoint
 10
-337.6578637077267
 20
262.6896364551245
 30
0.0
  0
POINT
  5
180A3
330
18098
100
AcDbEntity
  8
Defpoints
 62
     0
100
AcDbPoint
 10
-208.2180288238364
 20
262.6896364551246
 30
0.0
  0
ENDBLK
  5
1809A
330
18098
100
AcDbEntity
  8
0
100
AcDbBlockEnd
  0
BLOCK
  5
180AC
330
180AB
100
AcDbEntity
  8
0
100
AcDbBlockBegin
  2
*D15
 70
     1
 10
0.0
 20
0.0
 30
0.0
  3
*D15
  1

  0
LINE
  5
180AE
330
180AB
100
AcDbEntity
  8
DIM
 62
     0
370
    -2
100
AcDbLine
 10
-565.0552513522407
 20
602.8178304218958
 30
0.0
 11
-565.0552513522407
 21
688.8768407463048
 31
0.0
  0
LINE
  5
180AF
330
180AB
100
AcDbEntity
  8
DIM
 62
     0
370
    -2
100
AcDbLine
 10
-237.0552513522407
 20
602.8178304218958
 30
0.0
 11
-237.0552513522407
 21
688.8768407463048
 31
0.0
  0
LINE
  5
180B0
330
180AB
100
AcDbEntity
  8
DIM
 62
     0
370
    -2
100
AcDbLine
 10
-562.0552513522408
 20
688.8768407463048
 30
0.0
 11
-240.0552513522407
 21
688.8768407463048
 31
0.0
  0
INSERT
  5
180B1
330
180AB
100
AcDbEntity
  8
DIM
 62
     0
370
    -2
100
AcDbBlockReference
  2
_DOT
 10
-565.0552513522407
 20
688.8768407463048
 30
0.0
 41
3.0
 42
3.0
 43
3.0
 50
180.0
  0
INSERT
  5
180B2
330
180AB
100
AcDbEntity
  8
DIM
 62
     0
370
    -2
100
AcDbBlockReference
  2
_DOT
 10
-237.0552513522407
 20
688.8768407463048
 30
0.0
 41
3.0
 42
3.0
 43
3.0
  0
MTEXT
  5
180B3
330
180AB
100
AcDbEntity
  8
DIM
 62
     0
100
AcDbMText
 10
-401.0552513522408
 20
698.8783413090158
 30
0.0
 40
8.0
 41
0.0
 46
0.0
 71
     5
 72
     1
  1
\A1;328
  7
ＭＳ ゴシック
 73
     1
 44
1.0
  0
POINT
  5
180B4
330
180AB
100
AcDbEntity
  8
Defpoints
 62
     0
100
AcDbPoint
 10
-565.0552513522407
 20
592.8178304218959
 30
0.0
  0
POINT
  5
180B5
330
180AB
100
AcDbEntity
  8
Defpoints
 62
     0
100
AcDbPoint
 10
-237.0552513522407
 20
592.8178304218959
 30
0.0
  0
POINT
  5
180B6
330
180AB
100
AcDbEntity
  8
Defpoints
 62
     0
100
AcDbPoint
 10
-237.0552513522407
 20
688.8768407463048
 30
0.0
  0
ENDBLK
  5
180AD
330
180AB
100
AcDbEntity
  8
0
100
AcDbBlockEnd
  0
BLOCK
  5
180BB
330
180BA
100
AcDbEntity
  8
0
100
AcDbBlockBegin
  2
*D16
 70
     1
 10
0.0
 20
0.0
 30
0.0
  3
*D16
  1

  0
LINE
  5
180BD
330
180BA
100
AcDbEntity
  8
DIM
 62
     0
370
    -2
100
AcDbLine
 10
-195.9332773637588
 20
593.8178304218959
 30
0.0
 11
-179.2486235532758
 21
593.8178304218959
 31
0.0
  0
LINE
  5
180BE
330
180BA
100
AcDbEntity
  8
DIM
 62
     0
370
    -2
100
AcDbLine
 10
-227.0552513522407
 20
493.8178304218668
 30
0.0
 11
-179.2486235532758
 21
493.8178304218668
 31
0.0
  0
LINE
  5
180BF
330
180BA
100
AcDbEntity
  8
DIM
 62
     0
370
    -2
100
AcDbLine
 10
-179.2486235532758
 20
590.8178304218958
 30
0.0
 11
-179.2486235532758
 21
496.8178304218668
 31
0.0
  0
INSERT
  5
180C0
330
180BA
100
AcDbEntity
  8
DIM
 62
     0
370
    -2
100
AcDbBlockReference
  2
_DOT
 10
-179.2486235532758
 20
593.8178304218959
 30
0.0
 41
3.0
 42
3.0
 43
3.0
 50
90.0
  0
INSERT
  5
180C1
330
180BA
100
AcDbEntity
  8
DIM
 62
     0
370
    -2
100
AcDbBlockReference
  2
_DOT
 10
-179.2486235532758
 20
493.8178304218668
 30
0.0
 41
3.0
 42
3.0
 43
3.0
 50
270.0
  0
MTEXT
  5
180C2
330
180BA
100
AcDbEntity
  8
DIM
 62
     0
100
AcDbMText
 10
-189.2501241159869
 20
543.8178304218813
 30
0.0
 40
8.0
 41
0.0
 46
0.0
 71
     5
 72
     1
  1
\A1;100
  7
ＭＳ ゴシック
 11
0.0
 21
1.0
 31
0.0
 73
     1
 44
1.0
  0
POINT
  5
180C3
330
180BA
100
AcDbEntity
  8
Defpoints
 62
     0
100
AcDbPoint
 10
-205.9332773637588
 20
593.8178304218959
 30
0.0
  0
POINT
  5
180C4
330
180BA
100
AcDbEntity
  8
Defpoints
 62
     0
100
AcDbPoint
 10
-237.0552513522407
 20
493.8178304218668
 30
0.0
  0
POINT
  5
180C5
330
180BA
100
AcDbEntity
  8
Defpoints
 62
     0
100
AcDbPoint
 10
-179.2486235532758
 20
493.8178304218668
 30
0.0
  0
ENDBLK
  5
180BC
330
180BA
100
AcDbEntity
  8
0
100
AcDbBlockEnd
  0
BLOCK
  5
183F2
330
183F1
100
AcDbEntity
  8
0
100
AcDbBlockBegin
  2
*D17
 70
     1
 10
0.0
 20
0.0
 30
0.0
  3
*D17
  1

  0
LINE
  5
183F4
330
183F1
100
AcDbEntity
  8
DIM
 62
     0
370
    -2
100
AcDbLine
 10
-453.0552513522409
 20
643.7872288901323
 30
0.0
 11
-453.0552513522409
 21
664.4621364589597
 31
0.0
  0
LINE
  5
183F5
330
183F1
100
AcDbEntity
  8
DIM
 62
     0
370
    -2
100
AcDbLine
 10
-349.055251352241
 20
643.7872288901323
 30
0.0
 11
-349.055251352241
 21
664.4621364589597
 31
0.0
  0
LINE
  5
183F6
330
183F1
100
AcDbEntity
  8
DIM
 62
     0
370
    -2
100
AcDbLine
 10
-450.0552513522409
 20
664.4621364589597
 30
0.0
 11
-352.0552513522409
 21
664.4621364589597
 31
0.0
  0
INSERT
  5
183F7
330
183F1
100
AcDbEntity
  8
DIM
 62
     0
370
    -2
100
AcDbBlockReference
  2
_DOT
 10
-453.0552513522409
 20
664.4621364589597
 30
0.0
 41
3.0
 42
3.0
 43
3.0
 50
180.0
  0
INSERT
  5
183F8
330
183F1
100
AcDbEntity
  8
DIM
 62
     0
370
    -2
100
AcDbBlockReference
  2
_DOT
 10
-349.055251352241
 20
664.4621364589597
 30
0.0
 41
3.0
 42
3.0
 43
3.0
  0
MTEXT
  5
183F9
330
183F1
100
AcDbEntity
  8
DIM
 62
     0
100
AcDbMText
 10
-401.0552513522409
 20
674.4636370216706
 30
0.0
 40
8.0
 41
0.0
 46
0.0
 71
     5
 72
     1
  1
\A1;104
  7
ＭＳ ゴシック
 73
     1
 44
1.0
  0
POINT
  5
183FA
330
183F1
100
AcDbEntity
  8
Defpoints
 62
     0
100
AcDbPoint
 10
-453.0552513522409
 20
633.7872288901324
 30
0.0
  0
POINT
  5
183FB
330
183F1
100
AcDbEntity
  8
Defpoints
 62
     0
100
AcDbPoint
 10
-349.055251352241
 20
633.7872288901324
 30
0.0
  0
POINT
  5
183FC
330
183F1
100
AcDbEntity
  8
Defpoints
 62
     0
100
AcDbPoint
 10
-349.055251352241
 20
664.4621364589597
 30
0.0
  0
ENDBLK
  5
183F3
330
183F1
100
AcDbEntity
  8
0
100
AcDbBlockEnd
  0
BLOCK
  5
1848F
330
1848E
100
AcDbEntity
  8
0
100
AcDbBlockBegin
  2
*D18
 70
     1
 10
0.0
 20
0.0
 30
0.0
  3
*D18
  1

  0
LINE
  5
18491
330
1848E
100
AcDbEntity
  8
DIM
 62
     0
370
    -2
100
AcDbLine
 10
-134.0055286396136
 20
213.0787054058669
 30
0.0
 11
-134.0055286396136
 21
196.4914818641974
 31
0.0
  0
LINE
  5
18492
330
1848E
100
AcDbEntity
  8
DIM
 62
     0
370
    -2
100
AcDbLine
 10
-34.00552863961367
 20
257.0950281645014
 30
0.0
 11
-34.00552863961367
 21
196.4914818641974
 31
0.0
  0
LINE
  5
18493
330
1848E
100
AcDbEntity
  8
DIM
 62
     0
370
    -2
100
AcDbLine
 10
-131.0055286396136
 20
196.4914818641974
 30
0.0
 11
-37.00552863961366
 21
196.4914818641974
 31
0.0
  0
INSERT
  5
18494
330
1848E
100
AcDbEntity
  8
DIM
 62
     0
370
    -2
100
AcDbBlockReference
  2
_DOT
 10
-134.0055286396136
 20
196.4914818641974
 30
0.0
 41
3.0
 42
3.0
 43
3.0
 50
180.0
  0
INSERT
  5
18495
330
1848E
100
AcDbEntity
  8
DIM
 62
     0
370
    -2
100
AcDbBlockReference
  2
_DOT
 10
-34.00552863961367
 20
196.4914818641974
 30
0.0
 41
3.0
 42
3.0
 43
3.0
  0
MTEXT
  5
18496
330
1848E
100
AcDbEntity
  8
DIM
 62
     0
100
AcDbMText
 10
-84.00552863961364
 20
206.4929824269084
 30
0.0
 40
8.0
 41
0.0
 46
0.0
 71
     5
 72
     1
  1
\A1;100
  7
ＭＳ ゴシック
 73
     1
 44
1.0
  0
POINT
  5
18497
330
1848E
100
AcDbEntity
  8
Defpoints
 62
     0
100
AcDbPoint
 10
-134.0055286396136
 20
223.0787054058669
 30
0.0
  0
POINT
  5
18498
330
1848E
100
AcDbEntity
  8
Defpoints
 62
     0
100
AcDbPoint
 10
-34.00552863961367
 20
267.0950281645014
 30
0.0
  0
POINT
  5
18499
330
1848E
100
AcDbEntity
  8
Defpoints
 62
     0
100
AcDbPoint
 10
-34.00552863961367
 20
196.4914818641974
 30
0.0
  0
ENDBLK
  5
18490
330
1848E
100
AcDbEntity
  8
0
100
AcDbBlockEnd
  0
BLOCK
  5
185DA
330
185D9
100
AcDbEntity
  8
0
100
AcDbBlockBegin
  2
*D19
 70
     1
 10
0.0
 20
0.0
 30
0.0
  3
*D19
  1

  0
LINE
  5
185DB
330
185D9
100
AcDbEntity
  8
DIM
 62
     0
370
    -2
100
AcDbLine
 10
72.97226340330076
 20
31.5
 30
0.0
 11
52.1531038572334
 21
31.5
 31
0.0
  0
LINE
  5
185DC
330
185D9
100
AcDbEntity
  8
DIM
 62
     0
370
    -2
100
AcDbLine
 10
69.60141782794972
 20
371.5
 30
0.0
 11
52.15310385723341
 21
371.5
 31
0.0
  0
LINE
  5
185DD
330
185D9
100
AcDbEntity
  8
DIM
 62
     0
370
    -2
100
AcDbLine
 10
52.1531038572334
 20
34.5
 30
0.0
 11
52.15310385723341
 21
368.5
 31
0.0
  0
INSERT
  5
185DE
330
185D9
100
AcDbEntity
  8
DIM
 62
     0
370
    -2
100
AcDbBlockReference
  2
_DOT
 10
52.1531038572334
 20
31.5
 30
0.0
 41
3.0
 42
3.0
 43
3.0
 50
270.0
  0
INSERT
  5
185DF
330
185D9
100
AcDbEntity
  8
DIM
 62
     0
370
    -2
100
AcDbBlockReference
  2
_DOT
 10
52.15310385723341
 20
371.5
 30
0.0
 41
3.0
 42
3.0
 43
3.0
 50
90.0
  0
MTEXT
  5
185E0
330
185D9
100
AcDbEntity
  8
DIM
 62
     0
100
AcDbMText
 10
42.15160329452238
 20
201.5
 30
0.0
 40
8.0
 41
0.0
 46
0.0
 71
     5
 72
     1
  1
\A1;340
  7
ＭＳ ゴシック
 11
0.0000000000000001
 21
1.0
 31
0.0
 73
     1
 44
1.0
  0
POINT
  5
185E1
330
185D9
100
AcDbEntity
  8
Defpoints
 62
     0
100
AcDbPoint
 10
82.97226340330075
 20
31.5
 30
0.0
  0
POINT
  5
185E2
330
185D9
100
AcDbEntity
  8
Defpoints
 62
     0
100
AcDbPoint
 10
79.60141782794972
 20
371.5
 30
0.0
  0
POINT
  5
185E3
330
185D9
100
AcDbEntity
  8
Defpoints
 62
     0
100
AcDbPoint
 10
52.15310385723341
 20
371.5
 30
0.0
  0
ENDBLK
  5
185E4
330
185D9
100
AcDbEntity
  8
0
100
AcDbBlockEnd
  0
BLOCK
  5
185E9
330
185E8
100
AcDbEntity
  8
0
100
AcDbBlockBegin
  2
*D20
 70
     1
 10
0.0
 20
0.0
 30
0.0
  3
*D20
  1

  0
LINE
  5
185EA
330
185E8
100
AcDbEntity
  8
DIM
 62
     0
370
    -2
100
AcDbLine
 10
116.8076239533948
 20
1.5
 30
0.0
 11
16.99999999999998
 21
1.5
 31
0.0
  0
LINE
  5
185EB
330
185E8
100
AcDbEntity
  8
DIM
 62
     0
370
    -2
100
AcDbLine
 10
116.8076239533948
 20
401.4999999999999
 30
0.0
 11
17.0
 21
401.4999999999999
 31
0.0
  0
LINE
  5
185EC
330
185E8
100
AcDbEntity
  8
DIM
 62
     0
370
    -2
100
AcDbLine
 10
16.99999999999998
 20
4.5
 30
0.0
 11
17.0
 21
398.5
 31
0.0
  0
INSERT
  5
185ED
330
185E8
100
AcDbEntity
  8
DIM
 62
     0
370
    -2
100
AcDbBlockReference
  2
_DOT
 10
16.99999999999998
 20
1.5
 30
0.0
 41
3.0
 42
3.0
 43
3.0
 50
270.0
  0
INSERT
  5
185EE
330
185E8
100
AcDbEntity
  8
DIM
 62
     0
370
    -2
100
AcDbBlockReference
  2
_DOT
 10
17.0
 20
401.4999999999999
 30
0.0
 41
3.0
 42
3.0
 43
3.0
 50
90.0
  0
MTEXT
  5
185EF
330
185E8
100
AcDbEntity
  8
DIM
 62
     0
100
AcDbMText
 10
6.999999999999986
 20
201.5
 30
0.0
 40
8.0
 41
0.0
 46
0.0
 71
     5
 72
     1
  1
\A1;400
  7
ＭＳ ゴシック
 11
0.0000000000000001
 21
1.0
 31
0.0
 73
     1
 44
1.0
  0
POINT
  5
185F0
330
185E8
100
AcDbEntity
  8
Defpoints
 62
     0
100
AcDbPoint
 10
126.8076239533948
 20
1.5
 30
0.0
  0
POINT
  5
185F1
330
185E8
100
AcDbEntity
  8
Defpoints
 62
     0
100
AcDbPoint
 10
126.8076239533948
 20
401.4999999999999
 30
0.0
  0
POINT
  5
185F2
330
185E8
100
AcDbEntity
  8
Defpoints
 62
     0
100
AcDbPoint
 10
17.0
 20
401.4999999999999
 30
0.0
  0
ENDBLK
  5
185F3
330
185E8
100
AcDbEntity
  8
0
100
AcDbBlockEnd
  0
BLOCK
  5
185F8
330
185F7
100
AcDbEntity
  8
0
100
AcDbBlockBegin
  2
*D21
 70
     1
 10
0.0
 20
0.0
 30
0.0
  3
*D21
  1

  0
LINE
  5
185F9
330
185F7
100
AcDbEntity
  8
DIM
 62
     0
370
    -2
100
AcDbLine
 10
126.8076239533948
 20
411.5
 30
0.0
 11
126.8076239533948
 21
458.291927350778
 31
0.0
  0
LINE
  5
185FA
330
185F7
100
AcDbEntity
  8
DIM
 62
     0
370
    -2
100
AcDbLine
 10
236.8076239533948
 20
390.5
 30
0.0
 11
236.8076239533948
 21
458.291927350778
 31
0.0
  0
LINE
  5
185FB
330
185F7
100
AcDbEntity
  8
DIM
 62
     0
370
    -2
100
AcDbLine
 10
129.8076239533948
 20
458.291927350778
 30
0.0
 11
233.8076239533948
 21
458.291927350778
 31
0.0
  0
INSERT
  5
185FC
330
185F7
100
AcDbEntity
  8
DIM
 62
     0
370
    -2
100
AcDbBlockReference
  2
_DOT
 10
126.8076239533948
 20
458.291927350778
 30
0.0
 41
3.0
 42
3.0
 43
3.0
 50
180.0
  0
INSERT
  5
185FD
330
185F7
100
AcDbEntity
  8
DIM
 62
     0
370
    -2
100
AcDbBlockReference
  2
_DOT
 10
236.8076239533948
 20
458.291927350778
 30
0.0
 41
3.0
 42
3.0
 43
3.0
  0
MTEXT
  5
185FE
330
185F7
100
AcDbEntity
  8
DIM
 62
     0
100
AcDbMText
 10
181.8076239533948
 20
468.2934279134889
 30
0.0
 40
8.0
 41
0.0
 46
0.0
 71
     5
 72
     1
  1
\A1;110
  7
ＭＳ ゴシック
 73
     1
 44
1.0
  0
POINT
  5
185FF
330
185F7
100
AcDbEntity
  8
Defpoints
 62
     0
100
AcDbPoint
 10
126.8076239533948
 20
401.4999999999999
 30
0.0
  0
POINT
  5
18600
330
185F7
100
AcDbEntity
  8
Defpoints
 62
     0
100
AcDbPoint
 10
236.8076239533948
 20
380.5
 30
0.0
  0
POINT
  5
18601
330
185F7
100
AcDbEntity
  8
Defpoints
 62
     0
100
AcDbPoint
 10
236.8076239533948
 20
458.291927350778
 30
0.0
  0
ENDBLK
  5
18602
330
185F7
100
AcDbEntity
  8
0
100
AcDbBlockEnd
  0
BLOCK
  5
18607
330
18606
100
AcDbEntity
  8
0
100
AcDbBlockBegin
  2
*D22
 70
     1
 10
0.0
 20
0.0
 30
0.0
  3
*D22
  1

  0
LINE
  5
18608
330
18606
100
AcDbEntity
  8
DIM
 62
     0
370
    -2
100
AcDbLine
 10
440.2514840182988
 20
499.0074962771821
 30
0.0
 11
440.2514840182988
 21
459.8184388470445
 31
0.0
  0
LINE
  5
18609
330
18606
100
AcDbEntity
  8
DIM
 62
     0
370
    -2
100
AcDbLine
 10
380.2514840182989
 20
499.0074962771821
 30
0.0
 11
380.2514840182989
 21
459.8184388470445
 31
0.0
  0
LINE
  5
1860A
330
18606
100
AcDbEntity
  8
DIM
 62
     0
370
    -2
100
AcDbLine
 10
437.2514840182988
 20
459.8184388470445
 30
0.0
 11
383.2514840182989
 21
459.8184388470445
 31
0.0
  0
INSERT
  5
1860B
330
18606
100
AcDbEntity
  8
DIM
 62
     0
370
    -2
100
AcDbBlockReference
  2
_DOT
 10
440.2514840182988
 20
459.8184388470445
 30
0.0
 41
3.0
 42
3.0
 43
3.0
  0
INSERT
  5
1860C
330
18606
100
AcDbEntity
  8
DIM
 62
     0
370
    -2
100
AcDbBlockReference
  2
_DOT
 10
380.2514840182989
 20
459.8184388470445
 30
0.0
 41
3.0
 42
3.0
 43
3.0
 50
180.0
  0
MTEXT
  5
1860D
330
18606
100
AcDbEntity
  8
DIM
 62
     0
100
AcDbMText
 10
410.2514840182989
 20
469.8184388470445
 30
0.0
 40
8.0
 41
0.0
 46
0.0
 71
     5
 72
     1
  1
\A1;%%c60
  7
ＭＳ ゴシック
 73
     1
 44
1.0
  0
POINT
  5
1860E
330
18606
100
AcDbEntity
  8
Defpoints
 62
     0
100
AcDbPoint
 10
440.2514840182988
 20
509.0074962771821
 30
0.0
  0
POINT
  5
1860F
330
18606
100
AcDbEntity
  8
Defpoints
 62
     0
100
AcDbPoint
 10
380.2514840182989
 20
509.0074962771821
 30
0.0
  0
POINT
  5
18610
330
18606
100
AcDbEntity
  8
Defpoints
 62
     0
100
AcDbPoint
 10
380.2514840182989
 20
459.8184388470445
 30
0.0
  0
ENDBLK
  5
18611
330
18606
100
AcDbEntity
  8
0
100
AcDbBlockEnd
  0
BLOCK
  5
18614
330
18613
100
AcDbEntity
  8
0
100
AcDbBlockBegin
  2
*D23
 70
     1
 10
0.0
 20
0.0
 30
0.0
  3
*D23
  1

  0
LINE
  5
18615
330
18613
100
AcDbEntity
  8
DIM
 62
     0
370
    -2
100
AcDbLine
 10
428.2515040182988
 20
502.5192016708206
 30
0.0
 11
428.2515040182988
 21
482.9279930129167
 31
0.0
  0
LINE
  5
18616
330
18613
100
AcDbEntity
  8
DIM
 62
     0
370
    -2
100
AcDbLine
 10
392.2515040182989
 20
502.5192016708206
 30
0.0
 11
392.2515040182989
 21
482.9279930129167
 31
0.0
  0
LINE
  5
18617
330
18613
100
AcDbEntity
  8
DIM
 62
     0
370
    -2
100
AcDbLine
 10
425.2515040182989
 20
482.9279930129167
 30
0.0
 11
395.2515040182989
 21
482.9279930129167
 31
0.0
  0
INSERT
  5
18618
330
18613
100
AcDbEntity
  8
DIM
 62
     0
370
    -2
100
AcDbBlockReference
  2
_DOT
 10
428.2515040182988
 20
482.9279930129167
 30
0.0
 41
3.0
 42
3.0
 43
3.0
  0
INSERT
  5
18619
330
18613
100
AcDbEntity
  8
DIM
 62
     0
370
    -2
100
AcDbBlockReference
  2
_DOT
 10
392.2515040182989
 20
482.9279930129167
 30
0.0
 41
3.0
 42
3.0
 43
3.0
 50
180.0
  0
MTEXT
  5
1861A
330
18613
100
AcDbEntity
  8
DIM
 62
     0
100
AcDbMText
 10
410.2515040182988
 20
492.9294935756276
 30
0.0
 40
8.0
 41
0.0
 46
0.0
 71
     5
 72
     1
  1
\A1;36
  7
ＭＳ ゴシック
 73
     1
 44
1.0
  0
POINT
  5
1861B
330
18613
100
AcDbEntity
  8
Defpoints
 62
     0
100
AcDbPoint
 10
428.2515040182988
 20
512.5192016708206
 30
0.0
  0
POINT
  5
1861C
330
18613
100
AcDbEntity
  8
Defpoints
 62
     0
100
AcDbPoint
 10
392.2515040182989
 20
512.5192016708206
 30
0.0
  0
POINT
  5
1861D
330
18613
100
AcDbEntity
  8
Defpoints
 62
     0
100
AcDbPoint
 10
392.2515040182989
 20
482.9279930129167
 30
0.0
  0
ENDBLK
  5
1861E
330
18613
100
AcDbEntity
  8
0
100
AcDbBlockEnd
  0
BLOCK
  5
18621
330
18620
100
AcDbEntity
  8
0
100
AcDbBlockBegin
  2
*D24
 70
     1
 10
0.0
 20
0.0
 30
0.0
  3
*D24
  1

  0
LINE
  5
18622
330
18620
100
AcDbEntity
  8
DIM
 62
     0
370
    -2
100
AcDbLine
 10
114.8118119304811
 20
389.4999999999992
 30
0.0
 11
104.8287434080585
 21
389.4999999999992
 31
0.0
  0
LINE
  5
18623
330
18620
100
AcDbEntity
  8
DIM
 62
     0
370
    -2
100
AcDbLine
 10
114.8118119304811
 20
353.4999999999992
 30
0.0
 11
104.8287434080585
 21
353.4999999999992
 31
0.0
  0
LINE
  5
18624
330
18620
100
AcDbEntity
  8
DIM
 62
     0
370
    -2
100
AcDbLine
 10
104.8287434080585
 20
386.4999999999992
 30
0.0
 11
104.8287434080585
 21
356.4999999999991
 31
0.0
  0
INSERT
  5
18625
330
18620
100
AcDbEntity
  8
DIM
 62
     0
370
    -2
100
AcDbBlockReference
  2
_DOT
 10
104.8287434080585
 20
389.4999999999992
 30
0.0
 41
3.0
 42
3.0
 43
3.0
 50
90.0
  0
INSERT
  5
18626
330
18620
100
AcDbEntity
  8
DIM
 62
     0
370
    -2
100
AcDbBlockReference
  2
_DOT
 10
104.8287434080585
 20
353.4999999999992
 30
0.0
 41
3.0
 42
3.0
 43
3.0
 50
270.0
  0
MTEXT
  5
18627
330
18620
100
AcDbEntity
  8
DIM
 62
     0
100
AcDbMText
 10
94.82724284534745
 20
371.4999999999991
 30
0.0
 40
8.0
 41
0.0
 46
0.0
 71
     5
 72
     1
  1
\A1;36
  7
ＭＳ ゴシック
 11
0.0
 21
1.0
 31
0.0
 73
     1
 44
1.0
  0
POINT
  5
18628
330
18620
100
AcDbEntity
  8
Defpoints
 62
     0
100
AcDbPoint
 10
124.8118119304811
 20
389.4999999999992
 30
0.0
  0
POINT
  5
18629
330
18620
100
AcDbEntity
  8
Defpoints
 62
     0
100
AcDbPoint
 10
124.8118119304811
 20
353.4999999999992
 30
0.0
  0
POINT
  5
1862A
330
18620
100
AcDbEntity
  8
Defpoints
 62
     0
100
AcDbPoint
 10
104.8287434080585
 20
353.4999999999992
 30
0.0
  0
ENDBLK
  5
1862B
330
18620
100
AcDbEntity
  8
0
100
AcDbBlockEnd
  0
BLOCK
  5
1862E
330
1862D
100
AcDbEntity
  8
0
100
AcDbBlockBegin
  2
*D25
 70
     1
 10
0.0
 20
0.0
 30
0.0
  3
*D25
  1

  0
LINE
  5
1862F
330
1862D
100
AcDbEntity
  8
DIM
 62
     0
370
    -2
100
AcDbLine
 10
114.8118119304811
 20
13.50000000000091
 30
0.0
 11
104.8287434080585
 21
13.5000000000009
 31
0.0
  0
LINE
  5
18630
330
1862D
100
AcDbEntity
  8
DIM
 62
     0
370
    -2
100
AcDbLine
 10
114.8118119304811
 20
49.50000000000089
 30
0.0
 11
104.8287434080585
 21
49.50000000000089
 31
0.0
  0
LINE
  5
18631
330
1862D
100
AcDbEntity
  8
DIM
 62
     0
370
    -2
100
AcDbLine
 10
104.8287434080585
 20
16.5000000000009
 30
0.0
 11
104.8287434080585
 21
46.5000000000009
 31
0.0
  0
INSERT
  5
18632
330
1862D
100
AcDbEntity
  8
DIM
 62
     0
370
    -2
100
AcDbBlockReference
  2
_DOT
 10
104.8287434080585
 20
13.5000000000009
 30
0.0
 41
3.0
 42
3.0
 43
3.0
 50
270.0
  0
INSERT
  5
18633
330
1862D
100
AcDbEntity
  8
DIM
 62
     0
370
    -2
100
AcDbBlockReference
  2
_DOT
 10
104.8287434080585
 20
49.50000000000089
 30
0.0
 41
3.0
 42
3.0
 43
3.0
 50
90.0
  0
MTEXT
  5
18634
330
1862D
100
AcDbEntity
  8
DIM
 62
     0
100
AcDbMText
 10
94.82724284534745
 20
31.5000000000009
 30
0.0
 40
8.0
 41
0.0
 46
0.0
 71
     5
 72
     1
  1
\A1;36
  7
ＭＳ ゴシック
 11
0.0
 21
1.0
 31
0.0
 73
     1
 44
1.0
  0
POINT
  5
18635
330
1862D
100
AcDbEntity
  8
Defpoints
 62
     0
100
AcDbPoint
 10
124.8118119304811
 20
13.50000000000091
 30
0.0
  0
POINT
  5
18636
330
1862D
100
AcDbEntity
  8
Defpoints
 62
     0
100
AcDbPoint
 10
124.8118119304811
 20
49.50000000000091
 30
0.0
  0
POINT
  5
18637
330
1862D
100
AcDbEntity
  8
Defpoints
 62
     0
100
AcDbPoint
 10
104.8287434080585
 20
49.50000000000089
 30
0.0
  0
ENDBLK
  5
18638
330
1862D
100
AcDbEntity
  8
0
100
AcDbBlockEnd
  0
BLOCK
  5
18711
330
18710
100
AcDbEntity
  8
0
100
AcDbBlockBegin
  2
*D26
 70
     1
 10
0.0
 20
0.0
 30
0.0
  3
*D26
  1

  0
LINE
  5
18713
330
18710
100
AcDbEntity
  8
DIM
 62
     0
440
 16777216
370
    -2
100
AcDbLine
 10
463.4946478651259
 20
534.9577852686426
 30
0.0
 11
484.3138074111932
 21
534.9577852686426
 31
0.0
  0
LINE
  5
18714
330
18710
100
AcDbEntity
  8
DIM
 62
     0
440
 16777216
370
    -2
100
AcDbLine
 10
462.5444778863437
 20
194.9577852686428
 30
0.0
 11
484.3138074111932
 21
194.9577852686428
 31
0.0
  0
LINE
  5
18715
330
18710
100
AcDbEntity
  8
DIM
 62
     0
440
 16777216
370
    -2
100
AcDbLine
 10
484.3138074111932
 20
531.9577852686426
 30
0.0
 11
484.3138074111932
 21
197.9577852686428
 31
0.0
  0
INSERT
  5
18716
330
18710
100
AcDbEntity
  8
DIM
 62
     0
440
 16777216
370
    -2
100
AcDbBlockReference
  2
_DOT
 10
484.3138074111932
 20
534.9577852686426
 30
0.0
 41
3.0
 42
3.0
 43
3.0
 50
90.0
  0
INSERT
  5
18717
330
18710
100
AcDbEntity
  8
DIM
 62
     0
440
 16777216
370
    -2
100
AcDbBlockReference
  2
_DOT
 10
484.3138074111932
 20
194.9577852686428
 30
0.0
 41
3.0
 42
3.0
 43
3.0
 50
270.0
  0
MTEXT
  5
18718
330
18710
100
AcDbEntity
  8
DIM
 62
     0
440
 16777216
100
AcDbMText
 10
474.3123068484821
 20
364.9577852686427
 30
0.0
 40
8.0
 41
0.0
 46
0.0
 71
     5
 72
     1
  1
\A1;340
  7
ＭＳ ゴシック
 11
0.0000000000000002
 21
1.0
 31
0.0
 73
     1
 44
1.0
  0
POINT
  5
18719
330
18710
100
AcDbEntity
  8
Defpoints
 62
     0
440
 16777216
100
AcDbPoint
 10
453.4946478651258
 20
534.9577852686426
 30
0.0
  0
POINT
  5
1871A
330
18710
100
AcDbEntity
  8
Defpoints
 62
     0
440
 16777216
100
AcDbPoint
 10
452.5444778863437
 20
194.9577852686428
 30
0.0
  0
POINT
  5
1871B
330
18710
100
AcDbEntity
  8
Defpoints
 62
     0
440
 16777216
100
AcDbPoint
 10
484.3138074111932
 20
194.9577852686428
 30
0.0
  0
ENDBLK
  5
18712
330
18710
100
AcDbEntity
  8
0
100
AcDbBlockEnd
  0
BLOCK
  5
1871D
330
1871C
100
AcDbEntity
  8
0
100
AcDbBlockBegin
  2
*D27
 70
     1
 10
0.0
 20
0.0
 30
0.0
  3
*D27
  1

  0
LINE
  5
1871F
330
1871C
100
AcDbEntity
  8
DIM
 62
     0
440
 16777216
370
    -2
100
AcDbLine
 10
159.4985403067786
 20
164.9577852686427
 30
0.0
 11
112.6526365312404
 21
164.9577852686427
 31
0.0
  0
LINE
  5
18720
330
1871C
100
AcDbEntity
  8
DIM
 62
     0
440
 16777216
370
    -2
100
AcDbLine
 10
159.4985403067786
 20
564.9577852686427
 30
0.0
 11
112.6526365312404
 21
564.9577852686427
 31
0.0
  0
LINE
  5
18721
330
1871C
100
AcDbEntity
  8
DIM
 62
     0
440
 16777216
370
    -2
100
AcDbLine
 10
112.6526365312404
 20
167.9577852686427
 30
0.0
 11
112.6526365312404
 21
561.9577852686425
 31
0.0
  0
INSERT
  5
18722
330
1871C
100
AcDbEntity
  8
DIM
 62
     0
440
 16777216
370
    -2
100
AcDbBlockReference
  2
_DOT
 10
112.6526365312404
 20
164.9577852686427
 30
0.0
 41
3.0
 42
3.0
 43
3.0
 50
270.0
  0
INSERT
  5
18723
330
1871C
100
AcDbEntity
  8
DIM
 62
     0
440
 16777216
370
    -2
100
AcDbBlockReference
  2
_DOT
 10
112.6526365312404
 20
564.9577852686427
 30
0.0
 41
3.0
 42
3.0
 43
3.0
 50
90.0
  0
MTEXT
  5
18724
330
1871C
100
AcDbEntity
  8
DIM
 62
     0
440
 16777216
100
AcDbMText
 10
102.6526365312404
 20
364.9577852686428
 30
0.0
 40
8.0
 41
0.0
 46
0.0
 71
     5
 72
     1
  1
\A1;400
  7
ＭＳ ゴシック
 11
0.0000000000000001
 21
1.0
 31
0.0
 73
     1
 44
1.0
  0
POINT
  5
18725
330
1871C
100
AcDbEntity
  8
Defpoints
 62
     0
440
 16777216
100
AcDbPoint
 10
169.4985403067786
 20
164.9577852686427
 30
0.0
  0
POINT
  5
18726
330
1871C
100
AcDbEntity
  8
Defpoints
 62
     0
440
 16777216
100
AcDbPoint
 10
169.4985403067786
 20
564.9577852686427
 30
0.0
  0
POINT
  5
18727
330
1871C
100
AcDbEntity
  8
Defpoints
 62
     0
440
 16777216
100
AcDbPoint
 10
112.6526365312404
 20
564.9577852686427
 30
0.0
  0
ENDBLK
  5
1871E
330
1871C
100
AcDbEntity
  8
0
100
AcDbBlockEnd
  0
BLOCK
  5
18729
330
18728
100
AcDbEntity
  8
0
100
AcDbBlockBegin
  2
*D28
 70
     1
 10
0.0
 20
0.0
 30
0.0
  3
*D28
  1

  0
LINE
  5
1872B
330
18728
100
AcDbEntity
  8
DIM
 62
     0
440
 16777216
370
    -2
100
AcDbLine
 10
169.4985403067786
 20
574.9577852686427
 30
0.0
 11
169.4985403067786
 21
592.506091363908
 31
0.0
  0
LINE
  5
1872C
330
18728
100
AcDbEntity
  8
DIM
 62
     0
440
 16777216
370
    -2
100
AcDbLine
 10
279.4985403067787
 20
553.9577852686426
 30
0.0
 11
279.4985403067787
 21
592.506091363908
 31
0.0
  0
LINE
  5
1872D
330
18728
100
AcDbEntity
  8
DIM
 62
     0
440
 16777216
370
    -2
100
AcDbLine
 10
172.4985403067786
 20
592.506091363908
 30
0.0
 11
276.4985403067787
 21
592.506091363908
 31
0.0
  0
INSERT
  5
1872E
330
18728
100
AcDbEntity
  8
DIM
 62
     0
440
 16777216
370
    -2
100
AcDbBlockReference
  2
_DOT
 10
169.4985403067786
 20
592.506091363908
 30
0.0
 41
3.0
 42
3.0
 43
3.0
 50
180.0
  0
INSERT
  5
1872F
330
18728
100
AcDbEntity
  8
DIM
 62
     0
440
 16777216
370
    -2
100
AcDbBlockReference
  2
_DOT
 10
279.4985403067787
 20
592.506091363908
 30
0.0
 41
3.0
 42
3.0
 43
3.0
  0
MTEXT
  5
18730
330
18728
100
AcDbEntity
  8
DIM
 62
     0
440
 16777216
100
AcDbMText
 10
224.4985403067786
 20
602.507591926619
 30
0.0
 40
8.0
 41
0.0
 46
0.0
 71
     5
 72
     1
  1
\A1;110
  7
ＭＳ ゴシック
 73
     1
 44
1.0
  0
POINT
  5
18731
330
18728
100
AcDbEntity
  8
Defpoints
 62
     0
440
 16777216
100
AcDbPoint
 10
169.4985403067786
 20
564.9577852686427
 30
0.0
  0
POINT
  5
18732
330
18728
100
AcDbEntity
  8
Defpoints
 62
     0
440
 16777216
100
AcDbPoint
 10
279.4985403067787
 20
543.9577852686426
 30
0.0
  0
POINT
  5
18733
330
18728
100
AcDbEntity
  8
Defpoints
 62
     0
440
 16777216
100
AcDbPoint
 10
279.4985403067787
 20
592.506091363908
 30
0.0
  0
ENDBLK
  5
1872A
330
18728
100
AcDbEntity
  8
0
100
AcDbBlockEnd
  0
BLOCK
  5
18735
330
18734
100
AcDbEntity
  8
0
100
AcDbBlockBegin
  2
*D29
 70
     1
 10
0.0
 20
0.0
 30
0.0
  3
*D29
  1

  0
LINE
  5
18737
330
18734
100
AcDbEntity
  8
DIM
 62
     0
440
 16777216
370
    -2
100
AcDbLine
 10
451.3861503716827
 20
682.3955447037197
 30
0.0
 11
451.3861503716827
 21
602.0774966931542
 31
0.0
  0
LINE
  5
18738
330
18734
100
AcDbEntity
  8
DIM
 62
     0
440
 16777216
370
    -2
100
AcDbLine
 10
391.3861503716828
 20
682.3955447037197
 30
0.0
 11
391.3861503716828
 21
602.0774966931542
 31
0.0
  0
LINE
  5
18739
330
18734
100
AcDbEntity
  8
DIM
 62
     0
440
 16777216
370
    -2
100
AcDbLine
 10
448.3861503716828
 20
602.0774966931542
 30
0.0
 11
394.3861503716828
 21
602.0774966931542
 31
0.0
  0
INSERT
  5
1873A
330
18734
100
AcDbEntity
  8
DIM
 62
     0
440
 16777216
370
    -2
100
AcDbBlockReference
  2
_DOT
 10
451.3861503716827
 20
602.0774966931542
 30
0.0
 41
3.0
 42
3.0
 43
3.0
  0
INSERT
  5
1873B
330
18734
100
AcDbEntity
  8
DIM
 62
     0
440
 16777216
370
    -2
100
AcDbBlockReference
  2
_DOT
 10
391.3861503716828
 20
602.0774966931542
 30
0.0
 41
3.0
 42
3.0
 43
3.0
 50
180.0
  0
MTEXT
  5
1873C
330
18734
100
AcDbEntity
  8
DIM
 62
     0
440
 16777216
100
AcDbMText
 10
421.3861503716827
 20
612.0774966931541
 30
0.0
 40
8.0
 41
0.0
 46
0.0
 71
     5
 72
     1
  1
\A1;%%c60
  7
ＭＳ ゴシック
 73
     1
 44
1.0
  0
POINT
  5
1873D
330
18734
100
AcDbEntity
  8
Defpoints
 62
     0
440
 16777216
100
AcDbPoint
 10
451.3861503716827
 20
692.3955447037196
 30
0.0
  0
POINT
  5
1873E
330
18734
100
AcDbEntity
  8
Defpoints
 62
     0
440
 16777216
100
AcDbPoint
 10
391.3861503716828
 20
692.3955447037196
 30
0.0
  0
POINT
  5
1873F
330
18734
100
AcDbEntity
  8
Defpoints
 62
     0
440
 16777216
100
AcDbPoint
 10
391.3861503716828
 20
602.0774966931542
 30
0.0
  0
ENDBLK
  5
18736
330
18734
100
AcDbEntity
  8
0
100
AcDbBlockEnd
  0
BLOCK
  5
18741
330
18740
100
AcDbEntity
  8
0
100
AcDbBlockBegin
  2
*D30
 70
     1
 10
0.0
 20
0.0
 30
0.0
  3
*D30
  1

  0
LINE
  5
18743
330
18740
100
AcDbEntity
  8
DIM
 62
     0
440
 16777216
370
    -2
100
AcDbLine
 10
439.3861703716827
 20
627.9267412863096
 30
0.0
 11
439.3861703716827
 21
620.2385582775922
 31
0.0
  0
LINE
  5
18744
330
18740
100
AcDbEntity
  8
DIM
 62
     0
440
 16777216
370
    -2
100
AcDbLine
 10
403.3861703716826
 20
627.9267412863096
 30
0.0
 11
403.3861703716826
 21
620.2385582775922
 31
0.0
  0
LINE
  5
18745
330
18740
100
AcDbEntity
  8
DIM
 62
     0
440
 16777216
370
    -2
100
AcDbLine
 10
436.3861703716827
 20
620.2385582775922
 30
0.0
 11
406.3861703716827
 21
620.2385582775922
 31
0.0
  0
INSERT
  5
18746
330
18740
100
AcDbEntity
  8
DIM
 62
     0
440
 16777216
370
    -2
100
AcDbBlockReference
  2
_DOT
 10
439.3861703716827
 20
620.2385582775922
 30
0.0
 41
3.0
 42
3.0
 43
3.0
  0
INSERT
  5
18747
330
18740
100
AcDbEntity
  8
DIM
 62
     0
440
 16777216
370
    -2
100
AcDbBlockReference
  2
_DOT
 10
403.3861703716826
 20
620.2385582775922
 30
0.0
 41
3.0
 42
3.0
 43
3.0
 50
180.0
  0
MTEXT
  5
18748
330
18740
100
AcDbEntity
  8
DIM
 62
     0
440
 16777216
100
AcDbMText
 10
421.3861703716824
 20
630.2400588403032
 30
0.0
 40
8.0
 41
0.0
 46
0.0
 71
     5
 72
     1
  1
\A1;36
  7
ＭＳ ゴシック
 73
     1
 44
1.0
  0
POINT
  5
18749
330
18740
100
AcDbEntity
  8
Defpoints
 62
     0
440
 16777216
100
AcDbPoint
 10
439.3861703716827
 20
637.9267412863096
 30
0.0
  0
POINT
  5
1874A
330
18740
100
AcDbEntity
  8
Defpoints
 62
     0
440
 16777216
100
AcDbPoint
 10
403.3861703716826
 20
637.9267412863096
 30
0.0
  0
POINT
  5
1874B
330
18740
100
AcDbEntity
  8
Defpoints
 62
     0
440
 16777216
100
AcDbPoint
 10
403.3861703716826
 20
620.2385582775922
 30
0.0
  0
ENDBLK
  5
18742
330
18740
100
AcDbEntity
  8
0
100
AcDbBlockEnd
  0
BLOCK
  5
1874D
330
1874C
100
AcDbEntity
  8
0
100
AcDbBlockBegin
  2
*D31
 70
     1
 10
0.0
 20
0.0
 30
0.0
  3
*D31
  1

  0
LINE
  5
1874F
330
1874C
100
AcDbEntity
  8
DIM
 62
     0
370
    -2
100
AcDbLine
 10
203.1762480207071
 20
572.8880484265366
 30
0.0
 11
193.1931794982844
 21
572.8880484265366
 31
0.0
  0
LINE
  5
18750
330
1874C
100
AcDbEntity
  8
DIM
 62
     0
370
    -2
100
AcDbLine
 10
203.1762480207071
 20
536.8880484265367
 30
0.0
 11
193.1931794982844
 21
536.8880484265367
 31
0.0
  0
LINE
  5
18751
330
1874C
100
AcDbEntity
  8
DIM
 62
     0
370
    -2
100
AcDbLine
 10
193.1931794982844
 20
569.8880484265366
 30
0.0
 11
193.1931794982844
 21
539.8880484265366
 31
0.0
  0
INSERT
  5
18752
330
1874C
100
AcDbEntity
  8
DIM
 62
     0
370
    -2
100
AcDbBlockReference
  2
_DOT
 10
193.1931794982844
 20
572.8880484265366
 30
0.0
 41
3.0
 42
3.0
 43
3.0
 50
90.0
  0
INSERT
  5
18753
330
1874C
100
AcDbEntity
  8
DIM
 62
     0
370
    -2
100
AcDbBlockReference
  2
_DOT
 10
193.1931794982844
 20
536.8880484265367
 30
0.0
 41
3.0
 42
3.0
 43
3.0
 50
270.0
  0
MTEXT
  5
18754
330
1874C
100
AcDbEntity
  8
DIM
 62
     0
100
AcDbMText
 10
183.1916789355735
 20
554.8880484265366
 30
0.0
 40
8.0
 41
0.0
 46
0.0
 71
     5
 72
     1
  1
\A1;36
  7
ＭＳ ゴシック
 11
0.0
 21
1.0
 31
0.0
 73
     1
 44
1.0
  0
POINT
  5
18755
330
1874C
100
AcDbEntity
  8
Defpoints
 62
     0
100
AcDbPoint
 10
213.1762480207071
 20
572.8880484265366
 30
0.0
  0
POINT
  5
18756
330
1874C
100
AcDbEntity
  8
Defpoints
 62
     0
100
AcDbPoint
 10
213.1762480207071
 20
536.8880484265367
 30
0.0
  0
POINT
  5
18757
330
1874C
100
AcDbEntity
  8
Defpoints
 62
     0
100
AcDbPoint
 10
193.1931794982844
 20
536.8880484265367
 30
0.0
  0
ENDBLK
  5
1874E
330
1874C
100
AcDbEntity
  8
0
100
AcDbBlockEnd
  0
BLOCK
  5
18759
330
18758
100
AcDbEntity
  8
0
100
AcDbBlockBegin
  2
*D32
 70
     1
 10
0.0
 20
0.0
 30
0.0
  3
*D32
  1

  0
LINE
  5
1875B
330
18758
100
AcDbEntity
  8
DIM
 62
     0
370
    -2
100
AcDbLine
 10
203.1762480207071
 20
196.8880484265383
 30
0.0
 11
193.1931794982844
 21
196.8880484265383
 31
0.0
  0
LINE
  5
1875C
330
18758
100
AcDbEntity
  8
DIM
 62
     0
370
    -2
100
AcDbLine
 10
203.1762480207071
 20
232.8880484265383
 30
0.0
 11
193.1931794982844
 21
232.8880484265383
 31
0.0
  0
LINE
  5
1875D
330
18758
100
AcDbEntity
  8
DIM
 62
     0
370
    -2
100
AcDbLine
 10
193.1931794982844
 20
199.8880484265383
 30
0.0
 11
193.1931794982844
 21
229.8880484265383
 31
0.0
  0
INSERT
  5
1875E
330
18758
100
AcDbEntity
  8
DIM
 62
     0
370
    -2
100
AcDbBlockReference
  2
_DOT
 10
193.1931794982844
 20
196.8880484265383
 30
0.0
 41
3.0
 42
3.0
 43
3.0
 50
270.0
  0
INSERT
  5
1875F
330
18758
100
AcDbEntity
  8
DIM
 62
     0
370
    -2
100
AcDbBlockReference
  2
_DOT
 10
193.1931794982844
 20
232.8880484265383
 30
0.0
 41
3.0
 42
3.0
 43
3.0
 50
90.0
  0
MTEXT
  5
18760
330
18758
100
AcDbEntity
  8
DIM
 62
     0
100
AcDbMText
 10
183.1916789355735
 20
214.8880484265383
 30
0.0
 40
8.0
 41
0.0
 46
0.0
 71
     5
 72
     1
  1
\A1;36
  7
ＭＳ ゴシック
 11
0.0
 21
1.0
 31
0.0
 73
     1
 44
1.0
  0
POINT
  5
18761
330
18758
100
AcDbEntity
  8
Defpoints
 62
     0
100
AcDbPoint
 10
213.1762480207071
 20
196.8880484265383
 30
0.0
  0
POINT
  5
18762
330
18758
100
AcDbEntity
  8
Defpoints
 62
     0
100
AcDbPoint
 10
213.1762480207071
 20
232.8880484265383
 30
0.0
  0
POINT
  5
18763
330
18758
100
AcDbEntity
  8
Defpoints
 62
     0
100
AcDbPoint
 10
193.1931794982844
 20
232.8880484265383
 30
0.0
  0
ENDBLK
  5
1875A
330
18758
100
AcDbEntity
  8
0
100
AcDbBlockEnd
  0
BLOCK
  5
1878A
330
18789
100
AcDbEntity
  8
0
100
AcDbBlockBegin
  2
*D33
 70
     1
 10
0.0
 20
0.0
 30
0.0
  3
*D33
  1

  0
LINE
  5
1878C
330
18789
100
AcDbEntity
  8
DIM
 62
     0
370
    -2
100
AcDbLine
 10
505.8071101085246
 20
708.5254247037195
 30
0.0
 11
523.2391435471831
 21
708.5254247037195
 31
0.0
  0
LINE
  5
1878D
330
18789
100
AcDbEntity
  8
DIM
 62
     0
370
    -2
100
AcDbLine
 10
507.0596701085248
 20
701.8955447037196
 30
0.0
 11
523.2391435471831
 21
701.8955447037196
 31
0.0
  0
LINE
  5
1878E
330
18789
100
AcDbEntity
  8
DIM
 62
     0
370
    -2
100
AcDbLine
 10
523.2391435471831
 20
705.5254247037195
 30
0.0
 11
523.2391435471831
 21
704.8955447037196
 31
0.0
  0
INSERT
  5
1878F
330
18789
100
AcDbEntity
  8
DIM
 62
     0
370
    -2
100
AcDbBlockReference
  2
_DOT
 10
523.2391435471831
 20
708.5254247037195
 30
0.0
 41
3.0
 42
3.0
 43
3.0
 50
90.0
  0
INSERT
  5
18790
330
18789
100
AcDbEntity
  8
DIM
 62
     0
370
    -2
100
AcDbBlockReference
  2
_DOT
 10
523.2391435471831
 20
701.8955447037196
 30
0.0
 41
3.0
 42
3.0
 43
3.0
 50
270.0
  0
MTEXT
  5
18791
330
18789
100
AcDbEntity
  8
DIM
 62
     0
100
AcDbMText
 10
513.2376429844721
 20
705.2104847037193
 30
0.0
 40
8.0
 41
0.0
 46
0.0
 71
     5
 72
     1
  1
\A1;7
  7
ＭＳ ゴシック
 11
0.0
 21
1.0
 31
0.0
 73
     1
 44
1.0
  0
POINT
  5
18792
330
18789
100
AcDbEntity
  8
Defpoints
 62
     0
100
AcDbPoint
 10
495.8071101085247
 20
708.5254247037195
 30
0.0
  0
POINT
  5
18793
330
18789
100
AcDbEntity
  8
Defpoints
 62
     0
100
AcDbPoint
 10
497.0596701085248
 20
701.8955447037196
 30
0.0
  0
POINT
  5
18794
330
18789
100
AcDbEntity
  8
Defpoints
 62
     0
100
AcDbPoint
 10
523.2391435471831
 20
701.8955447037196
 30
0.0
  0
ENDBLK
  5
1878B
330
18789
100
AcDbEntity
  8
0
100
AcDbBlockEnd
  0
BLOCK
  5
187A1
330
187A0
100
AcDbEntity
  8
0
100
AcDbBlockBegin
  2
*D34
 70
     1
 10
0.0
 20
0.0
 30
0.0
  3
*D34
  1

  0
LINE
  5
187A3
330
187A0
100
AcDbEntity
  8
DIM
 62
     0
370
    -2
100
AcDbLine
 10
486.0596701085248
 20
802.3955447037197
 30
0.0
 11
514.8630665822654
 21
802.3955447037197
 31
0.0
  0
LINE
  5
187A4
330
187A0
100
AcDbEntity
  8
DIM
 62
     0
370
    -2
100
AcDbLine
 10
505.8071101085246
 20
797.4211747037197
 30
0.0
 11
514.8630665822654
 21
797.4211747037197
 31
0.0
  0
LINE
  5
187A5
330
187A0
100
AcDbEntity
  8
DIM
 62
     0
370
    -2
100
AcDbLine
 10
514.8630665822654
 20
805.3955447037196
 30
0.0
 11
514.8630665822654
 21
808.3955447037196
 31
0.0
  0
LINE
  5
187A6
330
187A0
100
AcDbEntity
  8
DIM
 62
     0
370
    -2
100
AcDbLine
 10
514.8630665822654
 20
794.4211747037197
 30
0.0
 11
514.8630665822654
 21
791.4211747037198
 31
0.0
  0
INSERT
  5
187A7
330
187A0
100
AcDbEntity
  8
DIM
 62
     0
370
    -2
100
AcDbBlockReference
  2
_DOT
 10
514.8630665822654
 20
802.3955447037197
 30
0.0
 41
3.0
 42
3.0
 43
3.0
 50
270.0
  0
INSERT
  5
187A8
330
187A0
100
AcDbEntity
  8
DIM
 62
     0
370
    -2
100
AcDbBlockReference
  2
_DOT
 10
514.8630665822654
 20
797.4211747037197
 30
0.0
 41
3.0
 42
3.0
 43
3.0
 50
90.0
  0
MTEXT
  5
187A9
330
187A0
100
AcDbEntity
  8
DIM
 62
     0
100
AcDbMText
 10
504.8615660195543
 20
799.9083597037196
 30
0.0
 40
8.0
 41
0.0
 46
0.0
 71
     5
 72
     1
  1
\A1;5
  7
ＭＳ ゴシック
 11
0.0
 21
1.0
 31
0.0
 73
     1
 44
1.0
  0
POINT
  5
187AA
330
187A0
100
AcDbEntity
  8
Defpoints
 62
     0
100
AcDbPoint
 10
476.0596701085249
 20
802.3955447037197
 30
0.0
  0
POINT
  5
187AB
330
187A0
100
AcDbEntity
  8
Defpoints
 62
     0
100
AcDbPoint
 10
495.8071101085247
 20
797.4211747037197
 30
0.0
  0
POINT
  5
187AC
330
187A0
100
AcDbEntity
  8
Defpoints
 62
     0
100
AcDbPoint
 10
514.8630665822654
 20
797.4211747037197
 30
0.0
  0
ENDBLK
  5
187A2
330
187A0
100
AcDbEntity
  8
0
100
AcDbBlockEnd
  0
BLOCK
  5
187AF
330
187AE
100
AcDbEntity
  8
0
100
AcDbBlockBegin
  2
*D35
 70
     1
 10
0.0
 20
0.0
 30
0.0
  3
*D35
  1

  0
LINE
  5
187B1
330
187AE
100
AcDbEntity
  8
DIM
 62
     0
370
    -2
100
AcDbLine
 10
486.0596701085248
 20
802.3955447037197
 30
0.0
 11
531.6568819405663
 21
802.3955447037197
 31
0.0
  0
LINE
  5
187B2
330
187AE
100
AcDbEntity
  8
DIM
 62
     0
370
    -2
100
AcDbLine
 10
486.0596701085248
 20
796.3955447037196
 30
0.0
 11
531.6568819405663
 21
796.3955447037196
 31
0.0
  0
LINE
  5
187B3
330
187AE
100
AcDbEntity
  8
DIM
 62
     0
370
    -2
100
AcDbLine
 10
531.6568819405663
 20
805.3955447037196
 30
0.0
 11
531.6568819405663
 21
808.3955447037196
 31
0.0
  0
LINE
  5
187B4
330
187AE
100
AcDbEntity
  8
DIM
 62
     0
370
    -2
100
AcDbLine
 10
531.6568819405663
 20
793.3955447037196
 30
0.0
 11
531.6568819405663
 21
790.3955447037197
 31
0.0
  0
INSERT
  5
187B5
330
187AE
100
AcDbEntity
  8
DIM
 62
     0
370
    -2
100
AcDbBlockReference
  2
_DOT
 10
531.6568819405663
 20
802.3955447037197
 30
0.0
 41
3.0
 42
3.0
 43
3.0
 50
270.0
  0
INSERT
  5
187B6
330
187AE
100
AcDbEntity
  8
DIM
 62
     0
370
    -2
100
AcDbBlockReference
  2
_DOT
 10
531.6568819405663
 20
796.3955447037196
 30
0.0
 41
3.0
 42
3.0
 43
3.0
 50
90.0
  0
MTEXT
  5
187B7
330
187AE
100
AcDbEntity
  8
DIM
 62
     0
100
AcDbMText
 10
521.6568819405663
 20
799.3955447037197
 30
0.0
 40
8.0
 41
0.0
 46
0.0
 71
     5
 72
     1
  1
\A1;6
  7
ＭＳ ゴシック
 11
0.0
 21
1.0
 31
0.0
 73
     1
 44
1.0
  0
POINT
  5
187B8
330
187AE
100
AcDbEntity
  8
Defpoints
 62
     0
100
AcDbPoint
 10
476.0596701085249
 20
802.3955447037197
 30
0.0
  0
POINT
  5
187B9
330
187AE
100
AcDbEntity
  8
Defpoints
 62
     0
100
AcDbPoint
 10
476.0596701085249
 20
796.3955447037196
 30
0.0
  0
POINT
  5
187BA
330
187AE
100
AcDbEntity
  8
Defpoints
 62
     0
100
AcDbPoint
 10
531.6568819405663
 20
796.3955447037196
 30
0.0
  0
ENDBLK
  5
187B0
330
187AE
100
AcDbEntity
  8
0
100
AcDbBlockEnd
  0
BLOCK
  5
187BD
330
187BC
100
AcDbEntity
  8
0
100
AcDbBlockBegin
  2
*D36
 70
     1
 10
0.0
 20
0.0
 30
0.0
  3
*D36
  1

  0
LINE
  5
187BF
330
187BC
100
AcDbEntity
  8
DIM
 62
     0
440
 16777216
370
    -2
100
AcDbLine
 10
462.3861503716828
 20
796.3955447037196
 30
0.0
 11
484.3138074111932
 21
796.3955447037196
 31
0.0
  0
LINE
  5
187C0
330
187BC
100
AcDbEntity
  8
DIM
 62
     0
440
 16777216
370
    -2
100
AcDbLine
 10
462.3861503716827
 20
713.3955447037196
 30
0.0
 11
484.3138074111932
 21
713.3955447037196
 31
0.0
  0
LINE
  5
187C1
330
187BC
100
AcDbEntity
  8
DIM
 62
     0
440
 16777216
370
    -2
100
AcDbLine
 10
484.3138074111932
 20
793.3955447037196
 30
0.0
 11
484.3138074111932
 21
716.3955447037197
 31
0.0
  0
INSERT
  5
187C2
330
187BC
100
AcDbEntity
  8
DIM
 62
     0
440
 16777216
370
    -2
100
AcDbBlockReference
  2
_DOT
 10
484.3138074111932
 20
796.3955447037196
 30
0.0
 41
3.0
 42
3.0
 43
3.0
 50
90.0
  0
INSERT
  5
187C3
330
187BC
100
AcDbEntity
  8
DIM
 62
     0
440
 16777216
370
    -2
100
AcDbBlockReference
  2
_DOT
 10
484.3138074111932
 20
713.3955447037196
 30
0.0
 41
3.0
 42
3.0
 43
3.0
 50
270.0
  0
MTEXT
  5
187C4
330
187BC
100
AcDbEntity
  8
DIM
 62
     0
440
 16777216
100
AcDbMText
 10
474.3123068484821
 20
754.8955447037196
 30
0.0
 40
8.0
 41
0.0
 46
0.0
 71
     5
 72
     1
  1
\A1;83
  7
ＭＳ ゴシック
 11
0.0
 21
1.0
 31
0.0
 73
     1
 44
1.0
  0
POINT
  5
187C5
330
187BC
100
AcDbEntity
  8
Defpoints
 62
     0
440
 16777216
100
AcDbPoint
 10
452.3861503716828
 20
796.3955447037196
 30
0.0
  0
POINT
  5
187C6
330
187BC
100
AcDbEntity
  8
Defpoints
 62
     0
440
 16777216
100
AcDbPoint
 10
452.3861503716826
 20
713.3955447037196
 30
0.0
  0
POINT
  5
187C7
330
187BC
100
AcDbEntity
  8
Defpoints
 62
     0
440
 16777216
100
AcDbPoint
 10
484.3138074111932
 20
713.3955447037196
 30
0.0
  0
ENDBLK
  5
187BE
330
187BC
100
AcDbEntity
  8
0
100
AcDbBlockEnd
  0
BLOCK
  5
187CC
330
187CB
100
AcDbEntity
  8
0
100
AcDbBlockBegin
  2
*D37
 70
     1
 10
0.0
 20
0.0
 30
0.0
  3
*D37
  1

  0
LINE
  5
187CE
330
187CB
100
AcDbEntity
  8
DIM
 62
     0
440
 16777216
370
    -2
100
AcDbLine
 10
461.4183175000495
 20
796.3955447037196
 30
0.0
 11
484.3138074111932
 21
796.3955447037196
 31
0.0
  0
LINE
  5
187CF
330
187CB
100
AcDbEntity
  8
DIM
 62
     0
440
 16777216
370
    -2
100
AcDbLine
 10
442.6387103716829
 20
802.3955447037197
 30
0.0
 11
484.3138074111932
 21
802.3955447037197
 31
0.0
  0
LINE
  5
187D0
330
187CB
100
AcDbEntity
  8
DIM
 62
     0
440
 16777216
370
    -2
100
AcDbLine
 10
484.3138074111932
 20
799.3955447037197
 30
0.0
 11
484.3138074111932
 21
799.3955447037197
 31
0.0
  0
INSERT
  5
187D1
330
187CB
100
AcDbEntity
  8
DIM
 62
     0
440
 16777216
370
    -2
100
AcDbBlockReference
  2
_DOT
 10
484.3138074111932
 20
796.3955447037196
 30
0.0
 41
3.0
 42
3.0
 43
3.0
 50
270.0
  0
INSERT
  5
187D2
330
187CB
100
AcDbEntity
  8
DIM
 62
     0
440
 16777216
370
    -2
100
AcDbBlockReference
  2
_DOT
 10
484.3138074111932
 20
802.3955447037197
 30
0.0
 41
3.0
 42
3.0
 43
3.0
 50
90.0
  0
MTEXT
  5
187D3
330
187CB
100
AcDbEntity
  8
DIM
 62
     0
440
 16777216
100
AcDbMText
 10
474.3138074111931
 20
799.3955447037197
 30
0.0
 40
8.0
 41
0.0
 46
0.0
 71
     5
 72
     1
  1
\A1;6
  7
ＭＳ ゴシック
 11
0.0
 21
1.0
 31
0.0
 73
     1
 44
1.0
  0
POINT
  5
187D4
330
187CB
100
AcDbEntity
  8
Defpoints
 62
     0
440
 16777216
100
AcDbPoint
 10
451.4183175000495
 20
796.3955447037196
 30
0.0
  0
POINT
  5
187D5
330
187CB
100
AcDbEntity
  8
Defpoints
 62
     0
440
 16777216
100
AcDbPoint
 10
432.638710371683
 20
802.3955447037197
 30
0.0
  0
POINT
  5
187D6
330
187CB
100
AcDbEntity
  8
Defpoints
 62
     0
440
 16777216
100
AcDbPoint
 10
484.3138074111932
 20
802.3955447037197
 30
0.0
  0
ENDBLK
  5
187CD
330
187CB
100
AcDbEntity
  8
0
100
AcDbBlockEnd
  0
BLOCK
  5
187DC
330
187DB
100
AcDbEntity
  8
0
100
AcDbBlockBegin
  2
*D38
 70
     1
 10
0.0
 20
0.0
 30
0.0
  3
*D38
  1

  0
LINE
  5
187DE
330
187DB
100
AcDbEntity
  8
DIM
 62
     0
370
    -2
100
AcDbLine
 10
515.8071101085247
 20
713.3955447037196
 30
0.0
 11
522.6048035136421
 21
713.3955447037196
 31
0.0
  0
LINE
  5
187DF
330
187DB
100
AcDbEntity
  8
DIM
 62
     0
370
    -2
100
AcDbLine
 10
505.1071101085247
 20
708.5254247037195
 30
0.0
 11
522.6048035136421
 21
708.5254247037195
 31
0.0
  0
LINE
  5
187E0
330
187DB
100
AcDbEntity
  8
DIM
 62
     0
370
    -2
100
AcDbLine
 10
522.6048035136421
 20
716.3955447037197
 30
0.0
 11
522.6048035136421
 21
719.3955447037197
 31
0.0
  0
LINE
  5
187E1
330
187DB
100
AcDbEntity
  8
DIM
 62
     0
370
    -2
100
AcDbLine
 10
522.6048035136421
 20
705.5254247037195
 30
0.0
 11
522.6048035136421
 21
702.5254247037195
 31
0.0
  0
INSERT
  5
187E2
330
187DB
100
AcDbEntity
  8
DIM
 62
     0
370
    -2
100
AcDbBlockReference
  2
_DOT
 10
522.6048035136421
 20
713.3955447037196
 30
0.0
 41
3.0
 42
3.0
 43
3.0
 50
270.0
  0
INSERT
  5
187E3
330
187DB
100
AcDbEntity
  8
DIM
 62
     0
370
    -2
100
AcDbBlockReference
  2
_DOT
 10
522.6048035136421
 20
708.5254247037195
 30
0.0
 41
3.0
 42
3.0
 43
3.0
 50
90.0
  0
MTEXT
  5
187E4
330
187DB
100
AcDbEntity
  8
DIM
 62
     0
100
AcDbMText
 10
512.603302950931
 20
710.9604847037194
 30
0.0
 40
8.0
 41
0.0
 46
0.0
 71
     5
 72
     1
  1
\A1;5
  7
ＭＳ ゴシック
 11
0.0
 21
1.0
 31
0.0
 73
     1
 44
1.0
  0
POINT
  5
187E5
330
187DB
100
AcDbEntity
  8
Defpoints
 62
     0
100
AcDbPoint
 10
505.8071101085246
 20
713.3955447037196
 30
0.0
  0
POINT
  5
187E6
330
187DB
100
AcDbEntity
  8
Defpoints
 62
     0
100
AcDbPoint
 10
495.1071101085246
 20
708.5254247037195
 30
0.0
  0
POINT
  5
187E7
330
187DB
100
AcDbEntity
  8
Defpoints
 62
     0
100
AcDbPoint
 10
522.6048035136421
 20
708.5254247037195
 30
0.0
  0
ENDBLK
  5
187DD
330
187DB
100
AcDbEntity
  8
0
100
AcDbBlockEnd
  0
BLOCK
  5
187F0
330
187EF
100
AcDbEntity
  8
0
100
AcDbBlockBegin
  2
*D39
 70
     1
 10
0.0
 20
0.0
 30
0.0
  3
*D39
  1

  0
LINE
  5
187F2
330
187EF
100
AcDbEntity
  8
DIM
 62
     0
370
    -2
100
AcDbLine
 10
458.0596701085248
 20
812.3955447037197
 30
0.0
 11
458.0596701085248
 21
816.3855506983962
 31
0.0
  0
LINE
  5
187F3
330
187EF
100
AcDbEntity
  8
DIM
 62
     0
370
    -2
100
AcDbLine
 10
495.8071101085247
 20
805.6955447037191
 30
0.0
 11
495.8071101085247
 21
816.3855506983962
 31
0.0
  0
LINE
  5
187F4
330
187EF
100
AcDbEntity
  8
DIM
 62
     0
370
    -2
100
AcDbLine
 10
461.0596701085248
 20
816.3855506983962
 30
0.0
 11
492.8071101085246
 21
816.3855506983962
 31
0.0
  0
INSERT
  5
187F5
330
187EF
100
AcDbEntity
  8
DIM
 62
     0
370
    -2
100
AcDbBlockReference
  2
_DOT
 10
458.0596701085248
 20
816.3855506983962
 30
0.0
 41
3.0
 42
3.0
 43
3.0
 50
180.0
  0
INSERT
  5
187F6
330
187EF
100
AcDbEntity
  8
DIM
 62
     0
370
    -2
100
AcDbBlockReference
  2
_DOT
 10
495.8071101085247
 20
816.3855506983962
 30
0.0
 41
3.0
 42
3.0
 43
3.0
  0
MTEXT
  5
187F7
330
187EF
100
AcDbEntity
  8
DIM
 62
     0
100
AcDbMText
 10
476.9333901085247
 20
826.3870512611072
 30
0.0
 40
8.0
 41
0.0
 46
0.0
 71
     5
 72
     1
  1
\A1;38
  7
ＭＳ ゴシック
 73
     1
 44
1.0
  0
POINT
  5
187F8
330
187EF
100
AcDbEntity
  8
Defpoints
 62
     0
100
AcDbPoint
 10
458.0596701085248
 20
802.3955447037197
 30
0.0
  0
POINT
  5
187F9
330
187EF
100
AcDbEntity
  8
Defpoints
 62
     0
100
AcDbPoint
 10
495.8071101085247
 20
795.6955447037191
 30
0.0
  0
POINT
  5
187FA
330
187EF
100
AcDbEntity
  8
Defpoints
 62
     0
100
AcDbPoint
 10
495.8071101085247
 20
816.3855506983962
 30
0.0
  0
ENDBLK
  5
187F1
330
187EF
100
AcDbEntity
  8
0
100
AcDbBlockEnd
  0
BLOCK
  5
187FD
330
187FC
100
AcDbEntity
  8
0
100
AcDbBlockBegin
  2
*D40
 70
     1
 10
0.0
 20
0.0
 30
0.0
  3
*D40
  1

  0
LINE
  5
187FF
330
187FC
100
AcDbEntity
  8
DIM
 62
     0
440
 16777216
370
    -2
100
AcDbLine
 10
411.3861503716828
 20
812.3955447037197
 30
0.0
 11
411.3861503716828
 21
825.4805324726781
 31
0.0
  0
LINE
  5
18800
330
187FC
100
AcDbEntity
  8
DIM
 62
     0
440
 16777216
370
    -2
100
AcDbLine
 10
451.3861503716827
 20
812.3955447037195
 30
0.0
 11
451.3861503716827
 21
825.4805324726781
 31
0.0
  0
LINE
  5
18801
330
187FC
100
AcDbEntity
  8
DIM
 62
     0
440
 16777216
370
    -2
100
AcDbLine
 10
414.3861503716827
 20
825.4805324726781
 30
0.0
 11
448.3861503716828
 21
825.4805324726781
 31
0.0
  0
INSERT
  5
18802
330
187FC
100
AcDbEntity
  8
DIM
 62
     0
440
 16777216
370
    -2
100
AcDbBlockReference
  2
_DOT
 10
411.3861503716828
 20
825.4805324726781
 30
0.0
 41
3.0
 42
3.0
 43
3.0
 50
180.0
  0
INSERT
  5
18803
330
187FC
100
AcDbEntity
  8
DIM
 62
     0
440
 16777216
370
    -2
100
AcDbBlockReference
  2
_DOT
 10
451.3861503716827
 20
825.4805324726781
 30
0.0
 41
3.0
 42
3.0
 43
3.0
  0
MTEXT
  5
18804
330
187FC
100
AcDbEntity
  8
DIM
 62
     0
440
 16777216
100
AcDbMText
 10
431.3861503716828
 20
835.4805324726781
 30
0.0
 40
8.0
 41
0.0
 46
0.0
 71
     5
 72
     1
  1
\A1;40
  7
ＭＳ ゴシック
 73
     1
 44
1.0
  0
POINT
  5
18805
330
187FC
100
AcDbEntity
  8
Defpoints
 62
     0
440
 16777216
100
AcDbPoint
 10
411.3861503716828
 20
802.3955447037197
 30
0.0
  0
POINT
  5
18806
330
187FC
100
AcDbEntity
  8
Defpoints
 62
     0
440
 16777216
100
AcDbPoint
 10
451.3861503716827
 20
802.3955447037193
 30
0.0
  0
POINT
  5
18807
330
187FC
100
AcDbEntity
  8
Defpoints
 62
     0
440
 16777216
100
AcDbPoint
 10
451.3861503716827
 20
825.4805324726781
 30
0.0
  0
ENDBLK
  5
187FE
330
187FC
100
AcDbEntity
  8
0
100
AcDbBlockEnd
  0
BLOCK
  5
1880D
330
1880C
100
AcDbEntity
  8
0
100
AcDbBlockBegin
  2
*D41
 70
     1
 10
0.0
 20
0.0
 30
0.0
  3
*D41
  1

  0
LINE
  5
1880F
330
1880C
100
AcDbEntity
  8
DIM
 62
     0
370
    -2
100
AcDbLine
 10
486.0596701085248
 20
802.3955447037197
 30
0.0
 11
545.0990785379952
 21
802.3955447037197
 31
0.0
  0
LINE
  5
18810
330
1880C
100
AcDbEntity
  8
DIM
 62
     0
370
    -2
100
AcDbLine
 10
506.5485601085248
 20
692.3955447037196
 30
0.0
 11
545.0990785379952
 21
692.3955447037196
 31
0.0
  0
LINE
  5
18811
330
1880C
100
AcDbEntity
  8
DIM
 62
     0
370
    -2
100
AcDbLine
 10
545.0990785379952
 20
799.3955447037197
 30
0.0
 11
545.0990785379952
 21
695.3955447037197
 31
0.0
  0
INSERT
  5
18812
330
1880C
100
AcDbEntity
  8
DIM
 62
     0
370
    -2
100
AcDbBlockReference
  2
_DOT
 10
545.0990785379952
 20
802.3955447037197
 30
0.0
 41
3.0
 42
3.0
 43
3.0
 50
90.0
  0
INSERT
  5
18813
330
1880C
100
AcDbEntity
  8
DIM
 62
     0
370
    -2
100
AcDbBlockReference
  2
_DOT
 10
545.0990785379952
 20
692.3955447037196
 30
0.0
 41
3.0
 42
3.0
 43
3.0
 50
270.0
  0
MTEXT
  5
18814
330
1880C
100
AcDbEntity
  8
DIM
 62
     0
100
AcDbMText
 10
535.0975779752839
 20
747.3955447037196
 30
0.0
 40
8.0
 41
0.0
 46
0.0
 71
     5
 72
     1
  1
\A1;110
  7
ＭＳ ゴシック
 11
0.0
 21
1.0
 31
0.0
 73
     1
 44
1.0
  0
POINT
  5
18815
330
1880C
100
AcDbEntity
  8
Defpoints
 62
     0
100
AcDbPoint
 10
476.0596701085249
 20
802.3955447037197
 30
0.0
  0
POINT
  5
18816
330
1880C
100
AcDbEntity
  8
Defpoints
 62
     0
100
AcDbPoint
 10
496.5485601085247
 20
692.3955447037196
 30
0.0
  0
POINT
  5
18817
330
1880C
100
AcDbEntity
  8
Defpoints
 62
     0
100
AcDbPoint
 10
545.0990785379952
 20
692.3955447037196
 30
0.0
  0
ENDBLK
  5
1880E
330
1880C
100
AcDbEntity
  8
0
100
AcDbBlockEnd
  0
BLOCK
  5
1881C
330
1881B
100
AcDbEntity
  8
0
100
AcDbBlockBegin
  2
*D42
 70
     1
 10
0.0
 20
0.0
 30
0.0
  3
*D42
  1

  0
LINE
  5
1881E
330
1881B
100
AcDbEntity
  8
DIM
 62
     0
370
    -2
100
AcDbLine
 10
507.0596701085248
 20
702.3955447037196
 30
0.0
 11
521.5925631434351
 21
702.3955447037196
 31
0.0
  0
LINE
  5
1881F
330
1881B
100
AcDbEntity
  8
DIM
 62
     0
370
    -2
100
AcDbLine
 10
506.8096701085249
 20
713.3955447037195
 30
0.0
 11
521.5925631434351
 21
713.3955447037195
 31
0.0
  0
LINE
  5
18820
330
1881B
100
AcDbEntity
  8
DIM
 62
     0
370
    -2
100
AcDbLine
 10
521.5925631434351
 20
699.3955447037197
 30
0.0
 11
521.5925631434351
 21
696.3955447037196
 31
0.0
  0
LINE
  5
18821
330
1881B
100
AcDbEntity
  8
DIM
 62
     0
370
    -2
100
AcDbLine
 10
521.5925631434351
 20
716.3955447037194
 30
0.0
 11
521.5925631434351
 21
719.3955447037194
 31
0.0
  0
INSERT
  5
18822
330
1881B
100
AcDbEntity
  8
DIM
 62
     0
370
    -2
100
AcDbBlockReference
  2
_DOT
 10
521.5925631434351
 20
702.3955447037196
 30
0.0
 41
3.0
 42
3.0
 43
3.0
 50
90.0
  0
INSERT
  5
18823
330
1881B
100
AcDbEntity
  8
DIM
 62
     0
370
    -2
100
AcDbBlockReference
  2
_DOT
 10
521.5925631434351
 20
713.3955447037195
 30
0.0
 41
3.0
 42
3.0
 43
3.0
 50
270.0
  0
MTEXT
  5
18824
330
1881B
100
AcDbEntity
  8
DIM
 62
     0
100
AcDbMText
 10
511.591062580724
 20
707.8955447037194
 30
0.0
 40
8.0
 41
0.0
 46
0.0
 71
     5
 72
     1
  1
\A1;11
  7
ＭＳ ゴシック
 11
0.0
 21
1.0
 31
0.0
 73
     1
 44
1.0
  0
POINT
  5
18825
330
1881B
100
AcDbEntity
  8
Defpoints
 62
     0
100
AcDbPoint
 10
497.0596701085248
 20
702.3955447037196
 30
0.0
  0
POINT
  5
18826
330
1881B
100
AcDbEntity
  8
Defpoints
 62
     0
100
AcDbPoint
 10
496.8096701085248
 20
713.3955447037195
 30
0.0
  0
POINT
  5
18827
330
1881B
100
AcDbEntity
  8
Defpoints
 62
     0
100
AcDbPoint
 10
521.5925631434351
 20
713.3955447037195
 30
0.0
  0
ENDBLK
  5
1881D
330
1881B
100
AcDbEntity
  8
0
100
AcDbBlockEnd
  0
BLOCK
  5
1882C
330
1882B
100
AcDbEntity
  8
0
100
AcDbBlockBegin
  2
*D43
 70
     1
 10
0.0
 20
0.0
 30
0.0
  3
*D43
  1

  0
LINE
  5
1882E
330
1882B
100
AcDbEntity
  8
DIM
 62
     0
370
    -2
100
AcDbLine
 10
458.0596701085248
 20
811.6455447037196
 30
0.0
 11
458.0596701085248
 21
812.3012122351289
 31
0.0
  0
LINE
  5
1882F
330
1882B
100
AcDbEntity
  8
DIM
 62
     0
370
    -2
100
AcDbLine
 10
476.0596701085249
 20
811.6455447037196
 30
0.0
 11
476.0596701085249
 21
812.3012122351289
 31
0.0
  0
LINE
  5
18830
330
1882B
100
AcDbEntity
  8
DIM
 62
     0
370
    -2
100
AcDbLine
 10
455.0596701085249
 20
812.3012122351289
 30
0.0
 11
452.0596701085248
 21
812.3012122351289
 31
0.0
  0
LINE
  5
18831
330
1882B
100
AcDbEntity
  8
DIM
 62
     0
370
    -2
100
AcDbLine
 10
479.0596701085248
 20
812.3012122351289
 30
0.0
 11
482.0596701085248
 21
812.3012122351289
 31
0.0
  0
INSERT
  5
18832
330
1882B
100
AcDbEntity
  8
DIM
 62
     0
370
    -2
100
AcDbBlockReference
  2
_DOT
 10
458.0596701085248
 20
812.3012122351289
 30
0.0
 41
3.0
 42
3.0
 43
3.0
  0
INSERT
  5
18833
330
1882B
100
AcDbEntity
  8
DIM
 62
     0
370
    -2
100
AcDbBlockReference
  2
_DOT
 10
476.0596701085249
 20
812.3012122351289
 30
0.0
 41
3.0
 42
3.0
 43
3.0
 50
180.0
  0
MTEXT
  5
18834
330
1882B
100
AcDbEntity
  8
DIM
 62
     0
100
AcDbMText
 10
467.0596701085249
 20
822.3027127978401
 30
0.0
 40
8.0
 41
0.0
 46
0.0
 71
     5
 72
     1
  1
\A1;18
  7
ＭＳ ゴシック
 73
     1
 44
1.0
  0
POINT
  5
18835
330
1882B
100
AcDbEntity
  8
Defpoints
 62
     0
100
AcDbPoint
 10
458.0596701085248
 20
801.6455447037197
 30
0.0
  0
POINT
  5
18836
330
1882B
100
AcDbEntity
  8
Defpoints
 62
     0
100
AcDbPoint
 10
476.0596701085249
 20
801.6455447037197
 30
0.0
  0
POINT
  5
18837
330
1882B
100
AcDbEntity
  8
Defpoints
 62
     0
100
AcDbPoint
 10
476.0596701085249
 20
812.3012122351289
 30
0.0
  0
ENDBLK
  5
1882D
330
1882B
100
AcDbEntity
  8
0
100
AcDbBlockEnd
  0
BLOCK
  5
1883C
330
1883B
100
AcDbEntity
  8
0
100
AcDbBlockBegin
  2
*D44
 70
     1
 10
0.0
 20
0.0
 30
0.0
  3
*D44
  1

  0
LINE
  5
1883E
330
1883B
100
AcDbEntity
  8
DIM
 62
     0
370
    -2
100
AcDbLine
 10
498.0596701085248
 20
714.7642719215722
 30
0.0
 11
498.0596701085248
 21
706.9429172623894
 31
0.0
  0
LINE
  5
1883F
330
1883B
100
AcDbEntity
  8
DIM
 62
     0
370
    -2
100
AcDbLine
 10
495.5596701085248
 20
714.7642719215721
 30
0.0
 11
495.5596701085248
 21
706.9429172623894
 31
0.0
  0
LINE
  5
18840
330
1883B
100
AcDbEntity
  8
DIM
 62
     0
370
    -2
100
AcDbLine
 10
498.0596701085248
 20
706.9429172623894
 30
0.0
 11
524.6549454023718
 21
706.9429172623894
 31
0.0
  0
LINE
  5
18841
330
1883B
100
AcDbEntity
  8
DIM
 62
     0
370
    -2
100
AcDbLine
 10
495.0596701085248
 20
706.9429172623894
 30
0.0
 11
492.0596701085249
 21
706.9429172623894
 31
0.0
  0
LINE
  5
18842
330
1883B
100
AcDbEntity
  8
DIM
 62
     0
370
    -2
100
AcDbLine
 10
495.5596701085248
 20
706.9429172623894
 30
0.0
 11
492.5596701085249
 21
706.9429172623894
 31
0.0
  0
INSERT
  5
18843
330
1883B
100
AcDbEntity
  8
DIM
 62
     0
370
    -2
100
AcDbBlockReference
  2
_DOT
 10
498.0596701085248
 20
706.9429172623894
 30
0.0
 41
3.0
 42
3.0
 43
3.0
  0
INSERT
  5
18844
330
1883B
100
AcDbEntity
  8
DIM
 62
     0
370
    -2
100
AcDbBlockReference
  2
_DOT
 10
495.5596701085248
 20
706.9429172623894
 30
0.0
 41
3.0
 42
3.0
 43
3.0
 50
180.0
  0
MTEXT
  5
18845
330
1883B
100
AcDbEntity
  8
DIM
 62
     0
100
AcDbMText
 10
516.5861696114503
 20
716.9444178251005
 30
0.0
 40
8.0
 41
0.0
 46
0.0
 71
     5
 72
     1
  1
\A1;3
  7
ＭＳ ゴシック
 73
     1
 44
1.0
  0
POINT
  5
18846
330
1883B
100
AcDbEntity
  8
Defpoints
 62
     0
100
AcDbPoint
 10
498.0596701085248
 20
724.7642719215722
 30
0.0
  0
POINT
  5
18848
330
1883B
100
AcDbEntity
  8
Defpoints
 62
     0
100
AcDbPoint
 10
495.5596701085248
 20
724.7642719215721
 30
0.0
  0
POINT
  5
18849
330
1883B
100
AcDbEntity
  8
Defpoints
 62
     0
100
AcDbPoint
 10
495.5596701085248
 20
706.9429172623894
 30
0.0
  0
ENDBLK
  5
1883D
330
1883B
100
AcDbEntity
  8
0
100
AcDbBlockEnd
  0
BLOCK
  5
18864
330
18863
100
AcDbEntity
  8
0
100
AcDbBlockBegin
  2
*D45
 70
     1
 10
0.0
 20
0.0
 30
0.0
  3
*D45
  1

  0
LINE
  5
18865
330
18863
100
AcDbEntity
  8
DIM
 62
     0
370
    -2
100
AcDbLine
 10
6.0
 20
9.321354659182816
 30
0.0
 11
6.0
 21
1.5
 31
0.0
  0
LINE
  5
18866
330
18863
100
AcDbEntity
  8
DIM
 62
     0
370
    -2
100
AcDbLine
 10
3.5
 20
9.321354659182704
 30
0.0
 11
3.5
 21
1.5
 31
0.0
  0
LINE
  5
18867
330
18863
100
AcDbEntity
  8
DIM
 62
     0
370
    -2
100
AcDbLine
 10
6.0
 20
1.5
 30
0.0
 11
32.59527529384698
 21
1.5
 31
0.0
  0
LINE
  5
18868
330
18863
100
AcDbEntity
  8
DIM
 62
     0
370
    -2
100
AcDbLine
 10
3.0
 20
1.5
 30
0.0
 11
0.0
 21
1.5
 31
0.0
  0
LINE
  5
18869
330
18863
100
AcDbEntity
  8
DIM
 62
     0
370
    -2
100
AcDbLine
 10
3.5
 20
1.5
 30
0.0
 11
0.5
 21
1.5
 31
0.0
  0
INSERT
  5
1886A
330
18863
100
AcDbEntity
  8
DIM
 62
     0
370
    -2
100
AcDbBlockReference
  2
_DOT
 10
6.0
 20
1.5
 30
0.0
 41
3.0
 42
3.0
 43
3.0
  0
INSERT
  5
1886B
330
18863
100
AcDbEntity
  8
DIM
 62
     0
370
    -2
100
AcDbBlockReference
  2
_DOT
 10
3.5
 20
1.5
 30
0.0
 41
3.0
 42
3.0
 43
3.0
 50
180.0
  0
MTEXT
  5
1886C
330
18863
100
AcDbEntity
  8
DIM
 62
     0
100
AcDbMText
 10
24.52649950292539
 20
11.50150056271102
 30
0.0
 40
8.0
 41
0.0
 46
0.0
 71
     5
 72
     1
  1
\A1;3
  7
ＭＳ ゴシック
 73
     1
 44
1.0
  0
POINT
  5
1886D
330
18863
100
AcDbEntity
  8
Defpoints
 62
     0
100
AcDbPoint
 10
6.0
 20
19.32135465918282
 30
0.0
  0
POINT
  5
1886E
330
18863
100
AcDbEntity
  8
Defpoints
 62
     0
100
AcDbPoint
 10
3.5
 20
19.3213546591827
 30
0.0
  0
POINT
  5
1886F
330
18863
100
AcDbEntity
  8
Defpoints
 62
     0
100
AcDbPoint
 10
3.5
 20
1.5
 30
0.0
  0
ENDBLK
  5
18870
330
18863
100
AcDbEntity
  8
0
100
AcDbBlockEnd
  0
BLOCK
  5
188B6
330
188B5
100
AcDbEntity
  8
0
100
AcDbBlockBegin
  2
*D46
 70
     1
 10
0.0
 20
0.0
 30
0.0
  3
*D46
  1

  0
LINE
  5
188B8
330
188B5
100
AcDbEntity
  8
DIM
 62
     0
440
 16777216
370
    -2
100
AcDbLine
 10
411.3861503716828
 20
175.9577852686424
 30
0.0
 11
411.3861503716828
 21
137.6862660083499
 31
0.0
  0
LINE
  5
188B9
330
188B5
100
AcDbEntity
  8
DIM
 62
     0
440
 16777216
370
    -2
100
AcDbLine
 10
431.3861503716829
 20
175.9577852686423
 30
0.0
 11
431.3861503716829
 21
137.6862660083499
 31
0.0
  0
LINE
  5
188BA
330
188B5
100
AcDbEntity
  8
DIM
 62
     0
440
 16777216
370
    -2
100
AcDbLine
 10
414.3861503716827
 20
137.6862660083499
 30
0.0
 11
428.3861503716829
 21
137.6862660083499
 31
0.0
  0
INSERT
  5
188BB
330
188B5
100
AcDbEntity
  8
DIM
 62
     0
440
 16777216
370
    -2
100
AcDbBlockReference
  2
_DOT
 10
411.3861503716828
 20
137.6862660083499
 30
0.0
 41
3.0
 42
3.0
 43
3.0
 50
180.0
  0
INSERT
  5
188BC
330
188B5
100
AcDbEntity
  8
DIM
 62
     0
440
 16777216
370
    -2
100
AcDbBlockReference
  2
_DOT
 10
431.3861503716829
 20
137.6862660083499
 30
0.0
 41
3.0
 42
3.0
 43
3.0
  0
MTEXT
  5
188BD
330
188B5
100
AcDbEntity
  8
DIM
 62
     0
440
 16777216
100
AcDbMText
 10
421.3861503716827
 20
147.687766571061
 30
0.0
 40
8.0
 41
0.0
 46
0.0
 71
     5
 72
     1
  1
\A1;20
  7
ＭＳ ゴシック
 73
     1
 44
1.0
  0
POINT
  5
188BE
330
188B5
100
AcDbEntity
  8
Defpoints
 62
     0
440
 16777216
100
AcDbPoint
 10
411.3861503716828
 20
185.9577852686424
 30
0.0
  0
POINT
  5
188BF
330
188B5
100
AcDbEntity
  8
Defpoints
 62
     0
440
 16777216
100
AcDbPoint
 10
431.3861503716829
 20
185.9577852686423
 30
0.0
  0
POINT
  5
188C0
330
188B5
100
AcDbEntity
  8
Defpoints
 62
     0
440
 16777216
100
AcDbPoint
 10
431.3861503716829
 20
137.6862660083499
 30
0.0
  0
ENDBLK
  5
188B7
330
188B5
100
AcDbEntity
  8
0
100
AcDbBlockEnd
  0
BLOCK
  5
188C9
330
188C8
100
AcDbEntity
  8
0
100
AcDbBlockBegin
  2
*D47
 70
     1
 10
0.0
 20
0.0
 30
0.0
  3
*D47
  1

  0
LINE
  5
188CB
330
188C8
100
AcDbEntity
  8
DIM
 62
     0
440
 16777216
370
    -2
100
AcDbLine
 10
259.4985403067786
 20
175.9577852686428
 30
0.0
 11
259.4985403067786
 21
137.6862660083503
 31
0.0
  0
LINE
  5
188CC
330
188C8
100
AcDbEntity
  8
DIM
 62
     0
440
 16777216
370
    -2
100
AcDbLine
 10
279.4985403067787
 20
175.9577852686426
 30
0.0
 11
279.4985403067787
 21
137.6862660083503
 31
0.0
  0
LINE
  5
188CD
330
188C8
100
AcDbEntity
  8
DIM
 62
     0
440
 16777216
370
    -2
100
AcDbLine
 10
262.4985403067786
 20
137.6862660083503
 30
0.0
 11
276.4985403067787
 21
137.6862660083503
 31
0.0
  0
INSERT
  5
188CE
330
188C8
100
AcDbEntity
  8
DIM
 62
     0
440
 16777216
370
    -2
100
AcDbBlockReference
  2
_DOT
 10
259.4985403067786
 20
137.6862660083503
 30
0.0
 41
3.0
 42
3.0
 43
3.0
 50
180.0
  0
INSERT
  5
188CF
330
188C8
100
AcDbEntity
  8
DIM
 62
     0
440
 16777216
370
    -2
100
AcDbBlockReference
  2
_DOT
 10
279.4985403067787
 20
137.6862660083503
 30
0.0
 41
3.0
 42
3.0
 43
3.0
  0
MTEXT
  5
188D0
330
188C8
100
AcDbEntity
  8
DIM
 62
     0
440
 16777216
100
AcDbMText
 10
269.4985403067785
 20
147.6877665710614
 30
0.0
 40
8.0
 41
0.0
 46
0.0
 71
     5
 72
     1
  1
\A1;20
  7
ＭＳ ゴシック
 73
     1
 44
1.0
  0
POINT
  5
188D1
330
188C8
100
AcDbEntity
  8
Defpoints
 62
     0
440
 16777216
100
AcDbPoint
 10
259.4985403067786
 20
185.9577852686428
 30
0.0
  0
POINT
  5
188D2
330
188C8
100
AcDbEntity
  8
Defpoints
 62
     0
440
 16777216
100
AcDbPoint
 10
279.4985403067787
 20
185.9577852686427
 30
0.0
  0
POINT
  5
188D3
330
188C8
100
AcDbEntity
  8
Defpoints
 62
     0
440
 16777216
100
AcDbPoint
 10
279.4985403067787
 20
137.6862660083503
 30
0.0
  0
ENDBLK
  5
188CA
330
188C8
100
AcDbEntity
  8
0
100
AcDbBlockEnd
  0
BLOCK
  5
188E1
330
188E0
100
AcDbEntity
  8
0
100
AcDbBlockBegin
  2
*D48
 70
     1
 10
0.0
 20
0.0
 30
0.0
  3
*D48
  1

  0
LINE
  5
188E3
330
188E0
100
AcDbEntity
  8
DIM
 62
     0
370
    -2
100
AcDbLine
 10
215.1720600436208
 20
205.8880484265374
 30
0.0
 11
199.0108341303756
 21
205.8880484265374
 31
0.0
  0
LINE
  5
188E4
330
188E0
100
AcDbEntity
  8
DIM
 62
     0
370
    -2
100
AcDbLine
 10
215.1720600436208
 20
223.8880484265374
 30
0.0
 11
199.0108341303756
 21
223.8880484265374
 31
0.0
  0
LINE
  5
188E5
330
188E0
100
AcDbEntity
  8
DIM
 62
     0
370
    -2
100
AcDbLine
 10
199.0108341303756
 20
202.8880484265374
 30
0.0
 11
199.0108341303756
 21
199.8880484265374
 31
0.0
  0
LINE
  5
188E6
330
188E0
100
AcDbEntity
  8
DIM
 62
     0
370
    -2
100
AcDbLine
 10
199.0108341303756
 20
226.8880484265374
 30
0.0
 11
199.0108341303756
 21
229.8880484265374
 31
0.0
  0
INSERT
  5
188E7
330
188E0
100
AcDbEntity
  8
DIM
 62
     0
370
    -2
100
AcDbBlockReference
  2
_DOT
 10
199.0108341303756
 20
205.8880484265374
 30
0.0
 41
3.0
 42
3.0
 43
3.0
 50
90.0
  0
INSERT
  5
188E8
330
188E0
100
AcDbEntity
  8
DIM
 62
     0
370
    -2
100
AcDbBlockReference
  2
_DOT
 10
199.0108341303756
 20
223.8880484265374
 30
0.0
 41
3.0
 42
3.0
 43
3.0
 50
270.0
  0
MTEXT
  5
188E9
330
188E0
100
AcDbEntity
  8
DIM
 62
     0
100
AcDbMText
 10
189.0093335676646
 20
214.8880484265374
 30
0.0
 40
8.0
 41
0.0
 46
0.0
 71
     5
 72
     1
  1
\A1;18
  7
ＭＳ ゴシック
 11
0.0
 21
1.0
 31
0.0
 73
     1
 44
1.0
  0
POINT
  5
188EA
330
188E0
100
AcDbEntity
  8
Defpoints
 62
     0
100
AcDbPoint
 10
225.1720600436208
 20
205.8880484265374
 30
0.0
  0
POINT
  5
188EB
330
188E0
100
AcDbEntity
  8
Defpoints
 62
     0
100
AcDbPoint
 10
225.1720600436208
 20
223.8880484265374
 30
0.0
  0
POINT
  5
188EC
330
188E0
100
AcDbEntity
  8
Defpoints
 62
     0
100
AcDbPoint
 10
199.0108341303756
 20
223.8880484265374
 30
0.0
  0
ENDBLK
  5
188E2
330
188E0
100
AcDbEntity
  8
0
100
AcDbBlockEnd
  0
BLOCK
  5
189A9
330
189A8
100
AcDbEntity
  8
0
100
AcDbBlockBegin
  2
*D49
 70
     1
 10
0.0
 20
0.0
 30
0.0
  3
*D49
  1

  0
LINE
  5
189AB
330
189A8
100
AcDbEntity
  8
DIM
 62
     0
440
 16777216
370
    -2
100
AcDbLine
 10
259.4985403067786
 20
165.9577852686428
 30
0.0
 11
259.4985403067786
 21
137.6862660083503
 31
0.0
  0
LINE
  5
189AC
330
189A8
100
AcDbEntity
  8
DIM
 62
     0
440
 16777216
370
    -2
100
AcDbLine
 10
179.4985403067786
 20
154.9577852686427
 30
0.0
 11
179.4985403067786
 21
137.6862660083503
 31
0.0
  0
LINE
  5
189AD
330
189A8
100
AcDbEntity
  8
DIM
 62
     0
440
 16777216
370
    -2
100
AcDbLine
 10
256.4985403067786
 20
137.6862660083503
 30
0.0
 11
182.4985403067787
 21
137.6862660083503
 31
0.0
  0
INSERT
  5
189AE
330
189A8
100
AcDbEntity
  8
DIM
 62
     0
440
 16777216
370
    -2
100
AcDbBlockReference
  2
_DOT
 10
259.4985403067786
 20
137.6862660083503
 30
0.0
 41
3.0
 42
3.0
 43
3.0
  0
INSERT
  5
189AF
330
189A8
100
AcDbEntity
  8
DIM
 62
     0
440
 16777216
370
    -2
100
AcDbBlockReference
  2
_DOT
 10
179.4985403067786
 20
137.6862660083503
 30
0.0
 41
3.0
 42
3.0
 43
3.0
 50
180.0
  0
MTEXT
  5
189B0
330
189A8
100
AcDbEntity
  8
DIM
 62
     0
440
 16777216
100
AcDbMText
 10
219.4985403067786
 20
147.6862660083503
 30
0.0
 40
8.0
 41
0.0
 46
0.0
 71
     5
 72
     1
  1
\A1;80
  7
ＭＳ ゴシック
 73
     1
 44
1.0
  0
POINT
  5
189B1
330
189A8
100
AcDbEntity
  8
Defpoints
 62
     0
440
 16777216
100
AcDbPoint
 10
259.4985403067786
 20
175.9577852686428
 30
0.0
  0
POINT
  5
189B2
330
189A8
100
AcDbEntity
  8
Defpoints
 62
     0
440
 16777216
100
AcDbPoint
 10
179.4985403067786
 20
164.9577852686427
 30
0.0
  0
POINT
  5
189B3
330
189A8
100
AcDbEntity
  8
Defpoints
 62
     0
440
 16777216
100
AcDbPoint
 10
179.4985403067786
 20
137.6862660083503
 30
0.0
  0
ENDBLK
  5
189AA
330
189A8
100
AcDbEntity
  8
0
100
AcDbBlockEnd
  0
BLOCK
  5
189B8
330
189B7
100
AcDbEntity
  8
0
100
AcDbBlockBegin
  2
*D50
 70
     1
 10
0.0
 20
0.0
 30
0.0
  3
*D50
  1

  0
LINE
  5
189BA
330
189B7
100
AcDbEntity
  8
DIM
 62
     0
440
 16777216
370
    -2
100
AcDbLine
 10
179.4985403067786
 20
154.9577852686423
 30
0.0
 11
179.4985403067786
 21
137.6862660083503
 31
0.0
  0
LINE
  5
189BB
330
189B7
100
AcDbEntity
  8
DIM
 62
     0
440
 16777216
370
    -2
100
AcDbLine
 10
169.4985403067786
 20
154.9577852686423
 30
0.0
 11
169.4985403067786
 21
137.6862660083503
 31
0.0
  0
LINE
  5
189BC
330
189B7
100
AcDbEntity
  8
DIM
 62
     0
440
 16777216
370
    -2
100
AcDbLine
 10
169.4985403067786
 20
137.6862660083503
 30
0.0
 11
142.521048747444
 21
137.6862660083503
 31
0.0
  0
LINE
  5
189BD
330
189B7
100
AcDbEntity
  8
DIM
 62
     0
440
 16777216
370
    -2
100
AcDbLine
 10
179.4985403067786
 20
137.6862660083503
 30
0.0
 11
169.4985403067786
 21
137.6862660083503
 31
0.0
  0
LINE
  5
189BE
330
189B7
100
AcDbEntity
  8
DIM
 62
     0
440
 16777216
370
    -2
100
AcDbLine
 10
182.4985403067787
 20
137.6862660083503
 30
0.0
 11
185.4985403067786
 21
137.6862660083503
 31
0.0
  0
LINE
  5
189BF
330
189B7
100
AcDbEntity
  8
DIM
 62
     0
440
 16777216
370
    -2
100
AcDbLine
 10
166.4985403067786
 20
137.6862660083503
 30
0.0
 11
163.4985403067786
 21
137.6862660083503
 31
0.0
  0
INSERT
  5
189C0
330
189B7
100
AcDbEntity
  8
DIM
 62
     0
440
 16777216
370
    -2
100
AcDbBlockReference
  2
_DOT
 10
179.4985403067786
 20
137.6862660083503
 30
0.0
 41
3.0
 42
3.0
 43
3.0
 50
180.0
  0
INSERT
  5
189C1
330
189B7
100
AcDbEntity
  8
DIM
 62
     0
440
 16777216
370
    -2
100
AcDbBlockReference
  2
_DOT
 10
169.4985403067786
 20
137.6862660083503
 30
0.0
 41
3.0
 42
3.0
 43
3.0
  0
MTEXT
  5
189C2
330
189B7
100
AcDbEntity
  8
DIM
 62
     0
440
 16777216
100
AcDbMText
 10
153.0097945271114
 20
147.6877665710613
 30
0.0
 40
8.0
 41
0.0
 46
0.0
 71
     5
 72
     1
  1
\A1;10
  7
ＭＳ ゴシック
 73
     1
 44
1.0
  0
POINT
  5
189C4
330
189B7
100
AcDbEntity
  8
Defpoints
 62
     0
440
 16777216
100
AcDbPoint
 10
179.4985403067786
 20
164.9577852686423
 30
0.0
  0
POINT
  5
189C5
330
189B7
100
AcDbEntity
  8
Defpoints
 62
     0
440
 16777216
100
AcDbPoint
 10
169.4985403067786
 20
164.9577852686423
 30
0.0
  0
POINT
  5
189C6
330
189B7
100
AcDbEntity
  8
Defpoints
 62
     0
440
 16777216
100
AcDbPoint
 10
169.4985403067786
 20
137.6862660083503
 30
0.0
  0
ENDBLK
  5
189B9
330
189B7
100
AcDbEntity
  8
0
100
AcDbBlockEnd
  0
ENDSEC
  0
SECTION
  2
ENTITIES
  0
MTEXT
  5
177
330
A
100
AcDbEntity
  8
TEMPLATE
390
1D
100
AcDbMText
 10
23.76064336431923
 20
103.1195254894285
 30
0.0
 40
4.886523437499998
 41
0.0
 46
0.0
 71
     1
 72
     1
  1
品名
  7
ＭＳ ゴシック
 73
     1
 44
0.7828267384257844
  0
MTEXT
  5
178
330
A
100
AcDbEntity
  8
TEMPLATE
390
1D
100
AcDbMText
 10
23.76064336431923
 20
77.61952548942841
 30
0.0
 40
4.886523437499998
 41
0.0
 46
0.0
 71
     1
 72
     1
  1
仕様
  7
ＭＳ ゴシック
 73
     1
 44
0.7828267384257844
  0
LINE
  5
179
330
A
100
AcDbEntity
  8
TEMPLATE
390
1D
100
AcDbLine
 10
606.6606433641744
 20
80.14400205192853
 30
0.0
 11
21.66064336417462
 21
80.14400205192853
 31
0.0
  0
LWPOLYLINE
  5
17A
330
A
100
AcDbEntity
  8
TEMPLATE
390
1D
100
AcDbPolyline
 90
        5
 70
   128
 43
0.0
 10
606.6606433641744
 20
869.1440020519278
 10
21.66064336417462
 20
869.1440020519278
 10
21.66064336417462
 20
29.14400205192847
 10
606.6606433641744
 20
29.14400205192847
 10
606.6606433641744
 20
869.1440020519278
  0
LINE
  5
17B
330
A
100
AcDbEntity
  8
TEMPLATE
390
1D
100
AcDbLine
 10
606.6606433641744
 20
105.6440020519285
 30
0.0
 11
21.66064336417462
 21
105.6440020519285
 31
0.0
  0
LINE
  5
17C
330
A
100
AcDbEntity
  8
TEMPLATE
390
1D
100
AcDbLine
 10
606.6606433643196
 20
54.64400205192847
 30
0.0
 11
380.760643364319
 21
54.64400205192847
 31
0.0
  0
MTEXT
  5
17E
330
A
100
AcDbEntity
  8
TEMPLATE
390
1D
100
AcDbMText
 10
389.7220652399973
 20
45.67088370993604
 30
0.0
 40
7.329785156250001
 41
0.0
 46
0.0
 71
     1
 72
     1
  1
大洋金物株式会社 ティーフォルム事業部
  7
ＭＳ ゴシック
 73
     1
 44
0.7828267384257844
  0
MTEXT
  5
180
330
A
100
AcDbEntity
  8
TEMPLATE
390
1D
100
AcDbMText
 10
549.360643364397
 20
69.04478720817846
 30
0.0
 40
7.329785156250001
 41
0.0
 46
7.329785156250001
 71
     1
 72
     1
  1
{1:3}
  7
ＭＳ ゴシック
 73
     1
 44
0.7828267384257844
1001
ACAD
1000
ACAD_MTEXT_DEFINED_HEIGHT_BEGIN
1070
    46
1040
7.329785156250001
1000
ACAD_MTEXT_DEFINED_HEIGHT_END
  0
MTEXT
  5
181
330
A
100
AcDbEntity
  8
TEMPLATE
390
1D
100
AcDbMText
 10
533.4606433643968
 20
77.61952548942841
 30
0.0
 40
4.886523437499998
 41
0.0
 46
0.0
 71
     1
 72
     1
  1
縮尺
  7
ＭＳ ゴシック
 73
     1
 44
0.7828267384257844
  0
LINE
  5
182
330
A
100
AcDbEntity
  8
TEMPLATE
390
1D
100
AcDbLine
 10
531.3606433643969
 20
54.64400205192847
 30
0.0
 11
531.3606433643969
 21
80.14400205192853
 31
0.0
  0
MTEXT
  5
183
330
A
100
AcDbEntity
  8
TEMPLATE
390
1D
100
AcDbMText
 10
458.1606433643968
 20
77.61952548942841
 30
0.0
 40
4.886523437499998
 41
0.0
 46
0.0
 71
     1
 72
     1
  1
容量
  7
ＭＳ ゴシック
 73
     1
 44
0.7828267384257844
  0
LINE
  5
184
330
A
100
AcDbEntity
  8
TEMPLATE
390
1D
100
AcDbLine
 10
456.0606433643969
 20
54.64400205192847
 30
0.0
 11
456.0606433643969
 21
80.14400205192853
 31
0.0
  0
MTEXT
  5
185
330
A
100
AcDbEntity
  8
TEMPLATE
390
1D
100
AcDbMText
 10
382.860643364397
 20
103.1195254894285
 30
0.0
 40
4.886523437499998
 41
0.0
 46
0.0
 71
     1
 72
     1
  1
品番
  7
ＭＳ ゴシック
 73
     1
 44
0.7828267384257844
  0
MTEXT
  5
186
330
A
100
AcDbEntity
  8
TEMPLATE
390
1D
100
AcDbMText
 10
382.860643364397
 20
77.61952548942841
 30
0.0
 40
4.886523437499998
 41
0.0
 46
0.0
 71
     1
 72
     1
  1
重量
  7
ＭＳ ゴシック
 73
     1
 44
0.7828267384257844
  0
MTEXT
  5
187
330
A
100
AcDbEntity
  8
TEMPLATE
390
1D
100
AcDbMText
 10
398.760643364397
 20
94.54478720817844
 30
0.0
 40
7.329785156250001
 41
0.0
 46
7.329785156250001
 71
     1
 72
     1
  1
{FLR74-2601}
  7
ＭＳ ゴシック
 73
     1
 44
0.7828267384257844
1001
ACAD
1000
ACAD_MTEXT_DEFINED_HEIGHT_BEGIN
1070
    46
1040
7.329785156250001
1000
ACAD_MTEXT_DEFINED_HEIGHT_END
  0
LINE
  5
188
330
A
100
AcDbEntity
  8
TEMPLATE
390
1D
100
AcDbLine
 10
380.760643364397
 20
29.14400205192847
 30
0.0
 11
380.760643364397
 21
105.6440020519285
 31
0.0
  0
MTEXT
  5
189
330
A
100
AcDbEntity
  8
TEMPLATE
390
1D
100
AcDbMText
 10
39.66064336431923
 20
94.54478720817844
 30
0.0
 40
7.329785156250001
 41
0.0
 46
8.261017083066306
 71
     1
 72
     1
  1
{シャワーシェルフ　-KEUCO, Edition90-}
  7
ＭＳ ゴシック
 73
     1
 44
0.7828267384257844
1001
ACAD
1000
ACAD_MTEXT_DEFINED_HEIGHT_BEGIN
1070
    46
1040
8.261017083066306
1000
ACAD_MTEXT_DEFINED_HEIGHT_END
  0
INSERT
  5
68C
330
A
100
AcDbEntity
  8
TEMPLATE
100
AcDbBlockReference
  2
block 2
 10
367.7097207081031
 20
3.349230605734546
 30
0.0
 41
0.1524
 42
0.1524
 43
0.1524
  0
LWPOLYLINE
  5
D69
330
A
100
AcDbEntity
  8
BORDER
100
AcDbPolyline
 90
        4
 70
     1
 43
0.0
 10
0.0
 20
0.0
 10
0.0
 20
891.0
 10
630.0
 20
891.0
 10
630.0
 20
0.0
  0
INSERT
  5
1343
330
A
100
AcDbEntity
  8
TEMPLATE
100
AcDbBlockReference
  2
block 2
 10
838.6973883465872
 20
9.774128564918274
 30
0.0
 41
0.1524
 42
0.1524
 43
0.1524
  0
MTEXT
  5
36AC
102
{ACAD_XDICTIONARY
360
36AE
102
}
330
A
100
AcDbEntity
  8
TEMPLATE
 48
0.05
100
AcDbMText
 10
22.06848147481188
 20
25.15049698669364
 30
0.0
 40
7.0
 41
0.0
 46
7.0
 71
     1
 72
     1
  1
20230920N
  7
ＭＳ ゴシック
 73
     1
 44
1.0
1001
ACAD
1000
ACAD_MTEXT_DEFINED_HEIGHT_BEGIN
1070
    46
1040
7.0
1000
ACAD_MTEXT_DEFINED_HEIGHT_END
  0
HATCH
  5
172F9
102
{ACAD_REACTORS
330
1730A
102
}
330
A
100
AcDbEntity
  8
TEMPLATE
100
AcDbHatch
 10
0.0
 20
0.0
 30
0.0
210
0.0
220
0.0
230
1.0
  2
SOLID
 70
     1
 71
     1
 91
        6
 92
        1
 93
        8
 72
     1
 10
580.3195574690817
 20
45.81237511424546
 11
580.3195574690817
 21
44.03955282504736
 72
     1
 10
580.3195574690817
 20
44.03955282504736
 11
577.5113800039879
 21
44.03955282504736
 72
     1
 10
577.5113800039879
 20
44.03955282504736
 11
577.5113800039879
 21
36.81237511467916
 72
     1
 10
577.5113800039879
 20
36.81237511467916
 11
575.0415960580052
 21
36.81237511467916
 72
     1
 10
575.0415960580052
 20
36.81237511467916
 11
575.0415960580052
 21
44.03955282504736
 72
     1
 10
575.0415960580052
 20
44.03955282504736
 11
572.2831856276421
 21
44.03955282504736
 72
     1
 10
572.2831856276421
 20
44.03955282504736
 11
572.2831856276421
 21
45.81237511424546
 72
     1
 10
572.2831856276421
 20
45.81237511424546
 11
580.3195574690817
 21
45.81237511424546
 97
        1
330
172FA
 92
        1
 93
        1
 72
     4
 94
        3
 73
     0
 74
     0
 95
       56
 96
       52
 40
0.0
 40
0.0
 40
0.0
 40
0.0
 40
1.0
 40
1.0
 40
1.0
 40
2.0
 40
2.0
 40
2.0
 40
3.0
 40
3.0
 40
3.0
 40
4.0
 40
4.0
 40
4.0
 40
5.0
 40
5.0
 40
5.0
 40
6.0
 40
6.0
 40
6.0
 40
7.0
 40
7.0
 40
7.0
 40
8.0
 40
8.0
 40
8.0
 40
9.0
 40
9.0
 40
9.0
 40
10.0
 40
10.0
 40
10.0
 40
11.0
 40
11.0
 40
11.0
 40
12.0
 40
12.0
 40
12.0
 40
13.0
 40
13.0
 40
13.0
 40
14.0
 40
14.0
 40
14.0
 40
15.0
 40
15.0
 40
15.0
 40
16.0
 40
16.0
 40
16.0
 40
17.0
 40
17.0
 40
17.0
 40
17.0
 10
584.0822130993691
 20
45.59806442612168
 10
584.4283729539446
 20
45.69550069232488
 10
584.875249681945
 20
45.61399880405779
 10
584.875249681945
 20
45.61399880405779
 10
584.875249681945
 20
45.61399880405779
 10
584.6605596038704
 20
44.96972771633077
 10
584.6605596038704
 20
44.96972771633077
 10
584.6605596038704
 20
44.96972771633077
 10
584.2218509183413
 20
45.07124800376957
 10
583.8834797162866
 20
44.80442528303579
 10
583.6205401632851
 20
44.59576081006296
 10
583.4501940753495
 20
44.04131587246591
 10
583.3848497355778
 20
43.83050896212374
 10
583.3848497355778
 20
43.83050896212374
 10
583.0935228874299
 20
42.93630916500407
 10
583.0935228874299
 20
42.93630916500407
 10
583.0935228874299
 20
42.93630916500407
 10
584.0487598325259
 20
42.93630916500407
 10
584.0487598325259
 20
42.93630916500407
 10
584.0487598325259
 20
42.93630916500407
 10
583.9001951911804
 20
42.37351764848811
 10
583.9001951911804
 20
42.37351764848811
 10
583.9001951911804
 20
42.37351764848811
 10
582.9371695935638
 20
42.37351764848811
 10
582.9371695935638
 20
42.37351764848811
 10
582.9371695935638
 20
42.37351764848811
 10
581.2141366561519
 20
36.81237511467916
 10
581.2141366561519
 20
36.81237511467916
 10
581.2141366561519
 20
36.81237511467916
 10
580.6746664630858
 20
36.81237511467916
 10
580.6746664630858
 20
36.81237511467916
 10
580.6746664630858
 20
36.81237511467916
 10
582.3992615944128
 20
42.37351764848811
 10
582.3992615944128
 20
42.37351764848811
 10
582.3992615944128
 20
42.37351764848811
 10
581.6886418993972
 20
42.37351764848811
 10
581.6886418993972
 20
42.37351764848811
 10
581.6886418993972
 20
42.37351764848811
 10
581.8376082477494
 20
42.93630916500407
 10
581.8376082477494
 20
42.93630916500407
 10
581.8376082477494
 20
42.93630916500407
 10
582.5556148882789
 20
42.93630916500407
 10
582.5556148882789
 20
42.93630916500407
 10
582.5556148882789
 20
42.93630916500407
 10
582.8095829847954
 20
43.71615636752356
 10
582.8095829847954
 20
43.71615636752356
 10
583.0149445334898
 20
44.36997915518984
 10
583.1891961062141
 20
44.72100412795849
 10
583.3385641615731
 20
44.98566209426688
 10
583.4863477059606
 20
45.25054323113452
 10
583.7788350410172
 20
45.51073778625616
 10
584.0822130993691
 20
45.59806442612168
 97
        0
 97
        1
330
17305
 92
        1
 93
        1
 72
     4
 94
        3
 73
     0
 74
     0
 95
       32
 96
       28
 40
0.0
 40
0.0
 40
0.0
 40
0.0
 40
1.0
 40
1.0
 40
1.0
 40
2.0
 40
2.0
 40
2.0
 40
3.0
 40
3.0
 40
3.0
 40
4.0
 40
4.0
 40
4.0
 40
5.0
 40
5.0
 40
5.0
 40
6.0
 40
6.0
 40
6.0
 40
7.0
 40
7.0
 40
7.0
 40
8.0
 40
8.0
 40
8.0
 40
9.0
 40
9.0
 40
9.0
 40
9.0
 10
585.394880012287
 20
42.5961972325865
 10
585.0701222143512
 20
42.17612328876155
 10
584.8200372855671
 20
41.79807236125814
 10
584.4151612568323
 20
40.60984535222243
 10
584.0429350809273
 20
39.52296009417805
 10
583.8060618492555
 20
38.73222216836346
 10
583.7702876085951
 20
37.76919657074652
 10
583.7430608003566
 20
37.05255127062911
 10
584.1794485120689
 20
36.81237511467916
 10
584.8192785056652
 20
36.81237511467916
 10
585.0950280487723
 20
36.81237511467916
 10
585.7908738527602
 20
36.82991632064247
 10
586.2864017626947
 20
37.44247487188884
 10
586.6332980801157
 20
37.87283697849896
 10
586.9530122234106
 20
38.3189549265978
 10
587.3816335996578
 20
39.78237355234213
 10
587.7383047875777
 20
41.00579455858404
 10
587.9852653285309
 20
41.79651016734281
 10
587.967009976778
 20
42.24671213667736
 10
587.967009976778
 20
42.24671213667736
 10
587.967009976778
 20
42.24671213667736
 10
587.967009976778
 20
42.24671213667736
 10
587.8506934812556
 20
42.99777033704319
 10
587.305398536591
 20
43.1564669217822
 10
586.9938524357677
 20
43.1564669217822
 10
586.6869929166901
 20
43.1564669217822
 10
585.8647433078982
 20
43.20955919784657
 10
585.394880012287
 20
42.5961972325865
 97
        0
 97
        1
330
17308
 92
        1
 93
        1
 72
     4
 94
        3
 73
     0
 74
     0
 95
       38
 96
       34
 40
0.0
 40
0.0
 40
0.0
 40
0.0
 40
1.0
 40
1.0
 40
1.0
 40
2.0
 40
2.0
 40
2.0
 40
3.0
 40
3.0
 40
3.0
 40
4.0
 40
4.0
 40
4.0
 40
5.0
 40
5.0
 40
5.0
 40
6.0
 40
6.0
 40
6.0
 40
7.0
 40
7.0
 40
7.0
 40
8.0
 40
8.0
 40
8.0
 40
9.0
 40
9.0
 40
9.0
 40
10.0
 40
10.0
 40
10.0
 40
11.0
 40
11.0
 40
11.0
 40
11.0
 10
589.9393467460162
 20
42.91472857191693
 10
589.9393467460162
 20
42.91472857191693
 10
590.4939702200607
 20
42.91472857191693
 10
590.4939702200607
 20
42.91472857191693
 10
590.4939702200607
 20
42.91472857191693
 10
590.2462062650937
 20
42.12146881878184
 10
590.2462062650937
 20
42.12146881878184
 10
590.4344729489438
 20
42.34414840288034
 10
590.7316022316344
 20
42.6407197591727
 10
590.9867754491711
 20
42.79026635097919
 10
591.3679507645053
 20
43.01294593507768
 10
591.5857652304103
 20
43.04231518068535
 10
591.8253165087942
 20
43.03646811203097
 10
591.8253165087942
 20
43.03646811203097
 10
591.591210592058
 20
42.28639186212602
 10
591.591210592058
 20
42.28639186212602
 10
591.4387404659245
 20
42.35095510493986
 10
590.9688771703129
 20
42.22805507791734
 10
590.6993317687555
 20
42.03416449597225
 10
590.4562543955343
 20
41.85933267979383
 10
590.2882069643595
 20
41.71056718494513
 10
590.0890941913261
 20
41.3365779616216
 10
589.8914989780961
 20
40.96203081189956
 10
589.7355473912369
 20
40.36480407807901
 10
589.4671624765877
 20
39.49841133265191
 10
589.4671624765877
 20
39.49841133265191
 10
588.6289784898597
 20
36.81237511467916
 10
588.6289784898597
 20
36.81237511467916
 10
588.6289784898597
 20
36.81237511467916
 10
588.0906911007581
 20
36.81237511467916
 10
588.0906911007581
 20
36.81237511467916
 10
588.0906911007581
 20
36.81237511467916
 10
589.9393467460162
 20
42.91472857191693
 10
589.9393467460162
 20
42.91472857191693
 97
        0
 97
        1
330
17306
 92
        1
 93
        1
 72
     4
 94
        3
 73
     0
 74
     0
 95
      104
 96
      100
 40
0.0
 40
0.0
 40
0.0
 40
0.0
 40
1.0
 40
1.0
 40
1.0
 40
2.0
 40
2.0
 40
2.0
 40
3.0
 40
3.0
 40
3.0
 40
4.0
 40
4.0
 40
4.0
 40
5.0
 40
5.0
 40
5.0
 40
6.0
 40
6.0
 40
6.0
 40
7.0
 40
7.0
 40
7.0
 40
8.0
 40
8.0
 40
8.0
 40
9.0
 40
9.0
 40
9.0
 40
10.0
 40
10.0
 40
10.0
 40
11.0
 40
11.0
 40
11.0
 40
12.0
 40
12.0
 40
12.0
 40
13.0
 40
13.0
 40
13.0
 40
14.0
 40
14.0
 40
14.0
 40
15.0
 40
15.0
 40
15.0
 40
16.0
 40
16.0
 40
16.0
 40
17.0
 40
17.0
 40
17.0
 40
18.0
 40
18.0
 40
18.0
 40
19.0
 40
19.0
 40
19.0
 40
20.0
 40
20.0
 40
20.0
 40
21.0
 40
21.0
 40
21.0
 40
22.0
 40
22.0
 40
22.0
 40
23.0
 40
23.0
 40
23.0
 40
24.0
 40
24.0
 40
24.0
 40
25.0
 40
25.0
 40
25.0
 40
26.0
 40
26.0
 40
26.0
 40
27.0
 40
27.0
 40
27.0
 40
28.0
 40
28.0
 40
28.0
 40
29.0
 40
29.0
 40
29.0
 40
30.0
 40
30.0
 40
30.0
 40
31.0
 40
31.0
 40
31.0
 40
32.0
 40
32.0
 40
32.0
 40
33.0
 40
33.0
 40
33.0
 40
33.0
 10
592.9921860953021
 20
42.91803149619497
 10
592.9921860953021
 20
42.91803149619497
 10
593.4764215749342
 20
42.91803149619497
 10
593.4764215749342
 20
42.91803149619497
 10
593.4764215749342
 20
42.91803149619497
 10
593.2317820077977
 20
42.12401296315815
 10
593.2317820077977
 20
42.12401296315815
 10
593.4441064779437
 20
42.4569388035653
 10
593.6346941356106
 20
42.6053249084632
 10
593.8879034522252
 20
42.79707305303871
 10
594.1418715487417
 20
42.9860985167904
 10
594.4433303402832
 20
43.02461775533059
 10
594.6525750567103
 20
43.02461775533059
 10
594.9116314419795
 20
43.02461775533059
 10
595.1617163707637
 20
42.97346706313235
 10
595.2931638302082
 20
42.68952716049804
 10
595.3939030206897
 20
42.46686989345536
 10
595.3985896024353
 20
42.44060271862234
 10
595.369800600282
 20
42.0010906190797
 10
595.6330972261784
 20
42.451694295421
 10
595.8275680515779
 20
42.6457857308695
 10
596.1581729181679
 20
42.83226705024478
 10
596.5051138697007
 20
43.02461775533059
 10
596.7073510305647
 20
43.03901225640729
 10
596.9423049954265
 20
43.00437618559953
 10
597.2884425329456
 20
42.9532478104571
 10
597.5093813866816
 20
42.8297452229244
 10
597.6248944681901
 20
42.45441697624481
 10
597.7408092567058
 20
42.08024921647379
 10
597.678187597758
 20
41.87955193246918
 10
597.5350460010043
 20
41.28388739256386
 10
597.4697016612327
 20
41.01260126064356
 10
597.3751666123011
 20
40.68411651436711
 10
597.2514854883209
 20
40.29325559675825
 10
597.2514854883209
 20
40.29325559675825
 10
596.1581729181679
 20
36.81237511467916
 10
596.1581729181679
 20
36.81237511467916
 10
596.1581729181679
 20
36.81237511467916
 10
595.5895343329975
 20
36.81237511467916
 10
595.5895343329975
 20
36.81237511467916
 10
595.5895343329975
 20
36.81237511467916
 10
596.5467574960716
 20
39.85548422757835
 10
596.5467574960716
 20
39.85548422757835
 10
596.7466736831187
 20
40.49218983334411
 10
596.8820043102957
 20
40.95716569370618
 10
596.9520352318129
 20
41.24869339535778
 10
597.0399197980767
 20
41.61234982178448
 10
597.0749129417798
 20
41.73234863153571
 10
597.0333139495209
 20
41.99702891489992
 10
596.9951964179876
 20
42.24340921239921
 10
596.8707118799938
 20
42.40384652750091
 10
596.6575839958343
 20
42.40384652750091
 10
596.4304410005492
 20
42.40384652750091
 10
596.2464591914384
 20
42.37856130312887
 10
595.9890096341962
 20
42.11992894192245
 10
595.7315154428426
 20
41.85933267979383
 10
595.5187446315782
 20
41.55343279412156
 10
595.3519023214237
 20
41.20162672439525
 10
595.1854170841643
 20
40.8476782172995
 10
595.0166108730878
 20
40.39903844188015
 10
594.8454836881942
 20
39.85548422757835
 10
594.8454836881942
 20
39.85548422757835
 10
593.8879034522252
 20
36.81237511467916
 10
593.8879034522252
 20
36.81237511467916
 10
593.8879034522252
 20
36.81237511467916
 10
593.3530975238491
 20
36.81237511467916
 10
593.3530975238491
 20
36.81237511467916
 10
593.3530975238491
 20
36.81237511467916
 10
594.4479722879174
 20
40.29169340284293
 10
594.4479722879174
 20
40.29169340284293
 10
594.5634853694261
 20
40.66197799488166
 10
594.6502540828931
 20
40.96379385931832
 10
594.7074303801933
 20
41.19968514052912
 10
594.804643475837
 20
41.60574397322828
 10
594.8318702840752
 20
41.88033302942674
 10
594.7583579018322
 20
42.12401296315815
 10
594.6860060064978
 20
42.36691179993202
 10
594.5588434217921
 20
42.42895321542549
 10
594.3464743175346
 20
42.42895321542549
 10
594.1683395770781
 20
42.42895321542549
 10
593.9944897113608
 20
42.3525172988552
 10
593.7961357182293
 20
42.20042656267251
 10
593.5464078623398
 20
42.00908012510374
 10
593.4464720858723
 20
41.85194573428018
 10
593.3239514488007
 20
41.66524124434543
 10
593.1586266984498
 20
41.41825838633597
 10
593.0812311484743
 20
41.25199631963583
 10
592.941615646558
 20
40.88715708924471
 10
592.8019555105301
 20
40.52017542148403
 10
592.6697492711836
 20
40.09311623915196
 10
592.5775351960687
 20
39.7977276868239
 10
592.5775351960687
 20
39.7977276868239
 10
591.6382549459647
 20
36.81237511467916
 10
591.6382549459647
 20
36.81237511467916
 10
591.6382549459647
 20
36.81237511467916
 10
591.0781861102723
 20
36.81237511467916
 10
591.0781861102723
 20
36.81237511467916
 10
591.0781861102723
 20
36.81237511467916
 10
592.9921860953021
 20
42.91803149619497
 10
592.9921860953021
 20
42.91803149619497
 97
        0
 97
        1
330
17307
 92
       16
 93
        1
 72
     4
 94
        3
 73
     0
 74
     0
 95
       29
 96
       25
 40
0.0
 40
0.0
 40
0.0
 40
0.0
 40
1.0
 40
1.0
 40
1.0
 40
2.0
 40
2.0
 40
2.0
 40
3.0
 40
3.0
 40
3.0
 40
4.0
 40
4.0
 40
4.0
 40
5.0
 40
5.0
 40
5.0
 40
6.0
 40
6.0
 40
6.0
 40
7.0
 40
7.0
 40
7.0
 40
8.0
 40
8.0
 40
8.0
 40
8.0
 10
584.3513791109763
 20
37.94925057801331
 10
584.3490135030472
 20
38.37439049353518
 10
584.4832282774278
 20
39.12973356864028
 10
584.82704484113
 20
40.1403837636178
 10
585.2953459428261
 20
41.50888795047953
 10
585.5761837746857
 20
42.00908012510374
 10
585.8219391946189
 20
42.25255920533161
 10
586.1809759904676
 20
42.60708795588196
 10
586.6636492761844
 20
42.62476306418077
 10
586.8060320930363
 20
42.60708795588196
 10
587.0086709609071
 20
42.58276236491495
 10
587.2949095203023
 20
42.45013210150577
 10
587.3120043851471
 20
42.00363476345613
 10
587.3256624233779
 20
41.621499814717
 10
587.2155500694051
 20
40.90583646506057
 10
586.8301345134438
 20
39.78237355234213
 10
586.3859358321552
 20
38.47687041437903
 10
586.1191131114213
 20
37.96366739614585
 10
585.9052264473606
 20
37.74000586158636
 10
585.502269685436
 20
37.32071301471897
 10
585.0701222143512
 20
37.36097298362186
 10
585.0063400684949
 20
37.36097298362186
 10
584.923499156872
 20
37.36097298362186
 10
584.3525395978846
 20
37.45086608491963
 10
584.3513791109763
 20
37.94925057801331
 97
        0
 97
        1
330
17309
 75
     0
 76
     1
 98
        1
 10
557.7769876859739
 20
21.56103299246715
450
        0
451
        0
460
0.0
461
0.0
452
        0
462
0.0
453
        0
470

1001
ACAD
1010
0.0
1020
0.0
1030
0.0
  0
POLYLINE
  5
172FA
102
{ACAD_REACTORS
330
172F9
330
1730A
102
}
330
A
100
AcDbEntity
  8
TEMPLATE
100
AcDb2dPolyline
 66
     1
 10
0.0
 20
0.0
 30
0.0
  0
VERTEX
  5
172FB
330
172FA
100
AcDbEntity
  8
TEMPLATE
100
AcDbVertex
100
AcDb2dVertex
 10
580.3195574690817
 20
45.81237511424546
 30
0.0
  0
VERTEX
  5
172FC
330
172FA
100
AcDbEntity
  8
TEMPLATE
100
AcDbVertex
100
AcDb2dVertex
 10
580.3195574690817
 20
44.03955282504736
 30
0.0
  0
VERTEX
  5
172FD
330
172FA
100
AcDbEntity
  8
TEMPLATE
100
AcDbVertex
100
AcDb2dVertex
 10
577.5113800039879
 20
44.03955282504736
 30
0.0
  0
VERTEX
  5
172FE
330
172FA
100
AcDbEntity
  8
TEMPLATE
100
AcDbVertex
100
AcDb2dVertex
 10
577.5113800039879
 20
36.81237511467916
 30
0.0
  0
VERTEX
  5
172FF
330
172FA
100
AcDbEntity
  8
TEMPLATE
100
AcDbVertex
100
AcDb2dVertex
 10
575.0415960580052
 20
36.81237511467916
 30
0.0
  0
VERTEX
  5
17300
330
172FA
100
AcDbEntity
  8
TEMPLATE
100
AcDbVertex
100
AcDb2dVertex
 10
575.0415960580052
 20
44.03955282504736
 30
0.0
  0
VERTEX
  5
17301
330
172FA
100
AcDbEntity
  8
TEMPLATE
100
AcDbVertex
100
AcDb2dVertex
 10
572.2831856276421
 20
44.03955282504736
 30
0.0
  0
VERTEX
  5
17302
330
172FA
100
AcDbEntity
  8
TEMPLATE
100
AcDbVertex
100
AcDb2dVertex
 10
572.2831856276421
 20
45.81237511424546
 30
0.0
  0
VERTEX
  5
17303
330
172FA
100
AcDbEntity
  8
TEMPLATE
100
AcDbVertex
100
AcDb2dVertex
 10
580.3195574690817
 20
45.81237511424546
 30
0.0
  0
SEQEND
  5
17304
330
172FA
100
AcDbEntity
  8
TEMPLATE
  0
SPLINE
  5
17305
102
{ACAD_REACTORS
330
172F9
330
1730A
102
}
330
A
100
AcDbEntity
  8
TEMPLATE
100
AcDbSpline
210
0.0
220
0.0
230
1.0
 70
     9
 71
     3
 72
    56
 73
    52
 74
     0
 42
0.000000001
 43
0.0000000001
 40
0.0
 40
0.0
 40
0.0
 40
0.0
 40
1.0
 40
1.0
 40
1.0
 40
2.0
 40
2.0
 40
2.0
 40
3.0
 40
3.0
 40
3.0
 40
4.0
 40
4.0
 40
4.0
 40
5.0
 40
5.0
 40
5.0
 40
6.0
 40
6.0
 40
6.0
 40
7.0
 40
7.0
 40
7.0
 40
8.0
 40
8.0
 40
8.0
 40
9.0
 40
9.0
 40
9.0
 40
10.0
 40
10.0
 40
10.0
 40
11.0
 40
11.0
 40
11.0
 40
12.0
 40
12.0
 40
12.0
 40
13.0
 40
13.0
 40
13.0
 40
14.0
 40
14.0
 40
14.0
 40
15.0
 40
15.0
 40
15.0
 40
16.0
 40
16.0
 40
16.0
 40
17.0
 40
17.0
 40
17.0
 40
17.0
 10
584.0822130993691
 20
45.59806442612168
 30
0.0
 10
584.4283729539446
 20
45.69550069232488
 30
0.0
 10
584.875249681945
 20
45.61399880405779
 30
0.0
 10
584.875249681945
 20
45.61399880405779
 30
0.0
 10
584.875249681945
 20
45.61399880405779
 30
0.0
 10
584.6605596038704
 20
44.96972771633077
 30
0.0
 10
584.6605596038704
 20
44.96972771633077
 30
0.0
 10
584.6605596038704
 20
44.96972771633077
 30
0.0
 10
584.2218509183413
 20
45.07124800376957
 30
0.0
 10
583.8834797162866
 20
44.80442528303579
 30
0.0
 10
583.6205401632851
 20
44.59576081006296
 30
0.0
 10
583.4501940753495
 20
44.04131587246591
 30
0.0
 10
583.3848497355778
 20
43.83050896212374
 30
0.0
 10
583.3848497355778
 20
43.83050896212374
 30
0.0
 10
583.0935228874299
 20
42.93630916500407
 30
0.0
 10
583.0935228874299
 20
42.93630916500407
 30
0.0
 10
583.0935228874299
 20
42.93630916500407
 30
0.0
 10
584.0487598325259
 20
42.93630916500407
 30
0.0
 10
584.0487598325259
 20
42.93630916500407
 30
0.0
 10
584.0487598325259
 20
42.93630916500407
 30
0.0
 10
583.9001951911804
 20
42.37351764848811
 30
0.0
 10
583.9001951911804
 20
42.37351764848811
 30
0.0
 10
583.9001951911804
 20
42.37351764848811
 30
0.0
 10
582.9371695935638
 20
42.37351764848811
 30
0.0
 10
582.9371695935638
 20
42.37351764848811
 30
0.0
 10
582.9371695935638
 20
42.37351764848811
 30
0.0
 10
581.2141366561519
 20
36.81237511467916
 30
0.0
 10
581.2141366561519
 20
36.81237511467916
 30
0.0
 10
581.2141366561519
 20
36.81237511467916
 30
0.0
 10
580.6746664630858
 20
36.81237511467916
 30
0.0
 10
580.6746664630858
 20
36.81237511467916
 30
0.0
 10
580.6746664630858
 20
36.81237511467916
 30
0.0
 10
582.3992615944128
 20
42.37351764848811
 30
0.0
 10
582.3992615944128
 20
42.37351764848811
 30
0.0
 10
582.3992615944128
 20
42.37351764848811
 30
0.0
 10
581.6886418993972
 20
42.37351764848811
 30
0.0
 10
581.6886418993972
 20
42.37351764848811
 30
0.0
 10
581.6886418993972
 20
42.37351764848811
 30
0.0
 10
581.8376082477494
 20
42.93630916500407
 30
0.0
 10
581.8376082477494
 20
42.93630916500407
 30
0.0
 10
581.8376082477494
 20
42.93630916500407
 30
0.0
 10
582.5556148882789
 20
42.93630916500407
 30
0.0
 10
582.5556148882789
 20
42.93630916500407
 30
0.0
 10
582.5556148882789
 20
42.93630916500407
 30
0.0
 10
582.8095829847954
 20
43.71615636752356
 30
0.0
 10
582.8095829847954
 20
43.71615636752356
 30
0.0
 10
583.0149445334898
 20
44.36997915518984
 30
0.0
 10
583.1891961062141
 20
44.72100412795849
 30
0.0
 10
583.3385641615731
 20
44.98566209426688
 30
0.0
 10
583.4863477059606
 20
45.25054323113452
 30
0.0
 10
583.7788350410172
 20
45.51073778625616
 30
0.0
 10
584.0822130993691
 20
45.59806442612168
 30
0.0
  0
SPLINE
  5
17306
102
{ACAD_REACTORS
330
172F9
330
1730A
102
}
330
A
100
AcDbEntity
  8
TEMPLATE
100
AcDbSpline
210
0.0
220
0.0
230
1.0
 70
    11
 71
     3
 72
    38
 73
    34
 74
     0
 42
0.000000001
 43
0.0000000001
 40
0.0
 40
0.0
 40
0.0
 40
0.0
 40
1.0
 40
1.0
 40
1.0
 40
2.0
 40
2.0
 40
2.0
 40
3.0
 40
3.0
 40
3.0
 40
4.0
 40
4.0
 40
4.0
 40
5.0
 40
5.0
 40
5.0
 40
6.0
 40
6.0
 40
6.0
 40
7.0
 40
7.0
 40
7.0
 40
8.0
 40
8.0
 40
8.0
 40
9.0
 40
9.0
 40
9.0
 40
10.0
 40
10.0
 40
10.0
 40
11.0
 40
11.0
 40
11.0
 40
11.0
 10
589.9393467460162
 20
42.91472857191693
 30
0.0
 10
589.9393467460162
 20
42.91472857191693
 30
0.0
 10
590.4939702200607
 20
42.91472857191693
 30
0.0
 10
590.4939702200607
 20
42.91472857191693
 30
0.0
 10
590.4939702200607
 20
42.91472857191693
 30
0.0
 10
590.2462062650937
 20
42.12146881878184
 30
0.0
 10
590.2462062650937
 20
42.12146881878184
 30
0.0
 10
590.4344729489438
 20
42.34414840288034
 30
0.0
 10
590.7316022316344
 20
42.6407197591727
 30
0.0
 10
590.9867754491711
 20
42.79026635097919
 30
0.0
 10
591.3679507645053
 20
43.01294593507768
 30
0.0
 10
591.5857652304103
 20
43.04231518068535
 30
0.0
 10
591.8253165087942
 20
43.03646811203097
 30
0.0
 10
591.8253165087942
 20
43.03646811203097
 30
0.0
 10
591.591210592058
 20
42.28639186212602
 30
0.0
 10
591.591210592058
 20
42.28639186212602
 30
0.0
 10
591.4387404659245
 20
42.35095510493986
 30
0.0
 10
590.9688771703129
 20
42.22805507791734
 30
0.0
 10
590.6993317687555
 20
42.03416449597225
 30
0.0
 10
590.4562543955343
 20
41.85933267979383
 30
0.0
 10
590.2882069643595
 20
41.71056718494513
 30
0.0
 10
590.0890941913261
 20
41.3365779616216
 30
0.0
 10
589.8914989780961
 20
40.96203081189956
 30
0.0
 10
589.7355473912369
 20
40.36480407807901
 30
0.0
 10
589.4671624765877
 20
39.49841133265191
 30
0.0
 10
589.4671624765877
 20
39.49841133265191
 30
0.0
 10
588.6289784898597
 20
36.81237511467916
 30
0.0
 10
588.6289784898597
 20
36.81237511467916
 30
0.0
 10
588.6289784898597
 20
36.81237511467916
 30
0.0
 10
588.0906911007581
 20
36.81237511467916
 30
0.0
 10
588.0906911007581
 20
36.81237511467916
 30
0.0
 10
588.0906911007581
 20
36.81237511467916
 30
0.0
 10
589.9393467460162
 20
42.91472857191693
 30
0.0
 10
589.9393467460162
 20
42.91472857191693
 30
0.0
  0
SPLINE
  5
17307
102
{ACAD_REACTORS
330
172F9
330
1730A
102
}
330
A
100
AcDbEntity
  8
TEMPLATE
100
AcDbSpline
210
0.0
220
0.0
230
1.0
 70
    11
 71
     3
 72
   104
 73
   100
 74
     0
 42
0.000000001
 43
0.0000000001
 40
0.0
 40
0.0
 40
0.0
 40
0.0
 40
1.0
 40
1.0
 40
1.0
 40
2.0
 40
2.0
 40
2.0
 40
3.0
 40
3.0
 40
3.0
 40
4.0
 40
4.0
 40
4.0
 40
5.0
 40
5.0
 40
5.0
 40
6.0
 40
6.0
 40
6.0
 40
7.0
 40
7.0
 40
7.0
 40
8.0
 40
8.0
 40
8.0
 40
9.0
 40
9.0
 40
9.0
 40
10.0
 40
10.0
 40
10.0
 40
11.0
 40
11.0
 40
11.0
 40
12.0
 40
12.0
 40
12.0
 40
13.0
 40
13.0
 40
13.0
 40
14.0
 40
14.0
 40
14.0
 40
15.0
 40
15.0
 40
15.0
 40
16.0
 40
16.0
 40
16.0
 40
17.0
 40
17.0
 40
17.0
 40
18.0
 40
18.0
 40
18.0
 40
19.0
 40
19.0
 40
19.0
 40
20.0
 40
20.0
 40
20.0
 40
21.0
 40
21.0
 40
21.0
 40
22.0
 40
22.0
 40
22.0
 40
23.0
 40
23.0
 40
23.0
 40
24.0
 40
24.0
 40
24.0
 40
25.0
 40
25.0
 40
25.0
 40
26.0
 40
26.0
 40
26.0
 40
27.0
 40
27.0
 40
27.0
 40
28.0
 40
28.0
 40
28.0
 40
29.0
 40
29.0
 40
29.0
 40
30.0
 40
30.0
 40
30.0
 40
31.0
 40
31.0
 40
31.0
 40
32.0
 40
32.0
 40
32.0
 40
33.0
 40
33.0
 40
33.0
 40
33.0
 10
592.9921860953021
 20
42.91803149619497
 30
0.0
 10
592.9921860953021
 20
42.91803149619497
 30
0.0
 10
593.4764215749342
 20
42.91803149619497
 30
0.0
 10
593.4764215749342
 20
42.91803149619497
 30
0.0
 10
593.4764215749342
 20
42.91803149619497
 30
0.0
 10
593.2317820077977
 20
42.12401296315815
 30
0.0
 10
593.2317820077977
 20
42.12401296315815
 30
0.0
 10
593.4441064779437
 20
42.4569388035653
 30
0.0
 10
593.6346941356106
 20
42.6053249084632
 30
0.0
 10
593.8879034522252
 20
42.79707305303871
 30
0.0
 10
594.1418715487417
 20
42.9860985167904
 30
0.0
 10
594.4433303402832
 20
43.02461775533059
 30
0.0
 10
594.6525750567103
 20
43.02461775533059
 30
0.0
 10
594.9116314419795
 20
43.02461775533059
 30
0.0
 10
595.1617163707637
 20
42.97346706313235
 30
0.0
 10
595.2931638302082
 20
42.68952716049804
 30
0.0
 10
595.3939030206897
 20
42.46686989345536
 30
0.0
 10
595.3985896024353
 20
42.44060271862234
 30
0.0
 10
595.369800600282
 20
42.0010906190797
 30
0.0
 10
595.6330972261784
 20
42.451694295421
 30
0.0
 10
595.8275680515779
 20
42.6457857308695
 30
0.0
 10
596.1581729181679
 20
42.83226705024478
 30
0.0
 10
596.5051138697007
 20
43.02461775533059
 30
0.0
 10
596.7073510305647
 20
43.03901225640729
 30
0.0
 10
596.9423049954265
 20
43.00437618559953
 30
0.0
 10
597.2884425329456
 20
42.9532478104571
 30
0.0
 10
597.5093813866816
 20
42.8297452229244
 30
0.0
 10
597.6248944681901
 20
42.45441697624481
 30
0.0
 10
597.7408092567058
 20
42.08024921647379
 30
0.0
 10
597.678187597758
 20
41.87955193246918
 30
0.0
 10
597.5350460010043
 20
41.28388739256386
 30
0.0
 10
597.4697016612327
 20
41.01260126064356
 30
0.0
 10
597.3751666123011
 20
40.68411651436711
 30
0.0
 10
597.2514854883209
 20
40.29325559675825
 30
0.0
 10
597.2514854883209
 20
40.29325559675825
 30
0.0
 10
596.1581729181679
 20
36.81237511467916
 30
0.0
 10
596.1581729181679
 20
36.81237511467916
 30
0.0
 10
596.1581729181679
 20
36.81237511467916
 30
0.0
 10
595.5895343329975
 20
36.81237511467916
 30
0.0
 10
595.5895343329975
 20
36.81237511467916
 30
0.0
 10
595.5895343329975
 20
36.81237511467916
 30
0.0
 10
596.5467574960716
 20
39.85548422757835
 30
0.0
 10
596.5467574960716
 20
39.85548422757835
 30
0.0
 10
596.7466736831187
 20
40.49218983334411
 30
0.0
 10
596.8820043102957
 20
40.95716569370618
 30
0.0
 10
596.9520352318129
 20
41.24869339535778
 30
0.0
 10
597.0399197980767
 20
41.61234982178448
 30
0.0
 10
597.0749129417798
 20
41.73234863153571
 30
0.0
 10
597.0333139495209
 20
41.99702891489992
 30
0.0
 10
596.9951964179876
 20
42.24340921239921
 30
0.0
 10
596.8707118799938
 20
42.40384652750091
 30
0.0
 10
596.6575839958343
 20
42.40384652750091
 30
0.0
 10
596.4304410005492
 20
42.40384652750091
 30
0.0
 10
596.2464591914384
 20
42.37856130312887
 30
0.0
 10
595.9890096341962
 20
42.11992894192245
 30
0.0
 10
595.7315154428426
 20
41.85933267979383
 30
0.0
 10
595.5187446315782
 20
41.55343279412156
 30
0.0
 10
595.3519023214237
 20
41.20162672439525
 30
0.0
 10
595.1854170841643
 20
40.8476782172995
 30
0.0
 10
595.0166108730878
 20
40.39903844188015
 30
0.0
 10
594.8454836881942
 20
39.85548422757835
 30
0.0
 10
594.8454836881942
 20
39.85548422757835
 30
0.0
 10
593.8879034522252
 20
36.81237511467916
 30
0.0
 10
593.8879034522252
 20
36.81237511467916
 30
0.0
 10
593.8879034522252
 20
36.81237511467916
 30
0.0
 10
593.3530975238491
 20
36.81237511467916
 30
0.0
 10
593.3530975238491
 20
36.81237511467916
 30
0.0
 10
593.3530975238491
 20
36.81237511467916
 30
0.0
 10
594.4479722879174
 20
40.29169340284293
 30
0.0
 10
594.4479722879174
 20
40.29169340284293
 30
0.0
 10
594.5634853694261
 20
40.66197799488166
 30
0.0
 10
594.6502540828931
 20
40.96379385931832
 30
0.0
 10
594.7074303801933
 20
41.19968514052912
 30
0.0
 10
594.804643475837
 20
41.60574397322828
 30
0.0
 10
594.8318702840752
 20
41.88033302942674
 30
0.0
 10
594.7583579018322
 20
42.12401296315815
 30
0.0
 10
594.6860060064978
 20
42.36691179993202
 30
0.0
 10
594.5588434217921
 20
42.42895321542549
 30
0.0
 10
594.3464743175346
 20
42.42895321542549
 30
0.0
 10
594.1683395770781
 20
42.42895321542549
 30
0.0
 10
593.9944897113608
 20
42.3525172988552
 30
0.0
 10
593.7961357182293
 20
42.20042656267251
 30
0.0
 10
593.5464078623398
 20
42.00908012510374
 30
0.0
 10
593.4464720858723
 20
41.85194573428018
 30
0.0
 10
593.3239514488007
 20
41.66524124434543
 30
0.0
 10
593.1586266984498
 20
41.41825838633597
 30
0.0
 10
593.0812311484743
 20
41.25199631963583
 30
0.0
 10
592.941615646558
 20
40.88715708924471
 30
0.0
 10
592.8019555105301
 20
40.52017542148403
 30
0.0
 10
592.6697492711836
 20
40.09311623915196
 30
0.0
 10
592.5775351960687
 20
39.7977276868239
 30
0.0
 10
592.5775351960687
 20
39.7977276868239
 30
0.0
 10
591.6382549459647
 20
36.81237511467916
 30
0.0
 10
591.6382549459647
 20
36.81237511467916
 30
0.0
 10
591.6382549459647
 20
36.81237511467916
 30
0.0
 10
591.0781861102723
 20
36.81237511467916
 30
0.0
 10
591.0781861102723
 20
36.81237511467916
 30
0.0
 10
591.0781861102723
 20
36.81237511467916
 30
0.0
 10
592.9921860953021
 20
42.91803149619497
 30
0.0
 10
592.9921860953021
 20
42.91803149619497
 30
0.0
  0
SPLINE
  5
17308
102
{ACAD_REACTORS
330
172F9
330
1730A
102
}
330
A
100
AcDbEntity
  8
TEMPLATE
100
AcDbSpline
210
0.0
220
0.0
230
1.0
 70
     9
 71
     3
 72
    32
 73
    28
 74
     0
 42
0.000000001
 43
0.0000000001
 40
0.0
 40
0.0
 40
0.0
 40
0.0
 40
1.0
 40
1.0
 40
1.0
 40
2.0
 40
2.0
 40
2.0
 40
3.0
 40
3.0
 40
3.0
 40
4.0
 40
4.0
 40
4.0
 40
5.0
 40
5.0
 40
5.0
 40
6.0
 40
6.0
 40
6.0
 40
7.0
 40
7.0
 40
7.0
 40
8.0
 40
8.0
 40
8.0
 40
9.0
 40
9.0
 40
9.0
 40
9.0
 10
585.394880012287
 20
42.5961972325865
 30
0.0
 10
585.0701222143512
 20
42.17612328876155
 30
0.0
 10
584.8200372855671
 20
41.79807236125814
 30
0.0
 10
584.4151612568323
 20
40.60984535222243
 30
0.0
 10
584.0429350809273
 20
39.52296009417805
 30
0.0
 10
583.8060618492555
 20
38.73222216836346
 30
0.0
 10
583.7702876085951
 20
37.76919657074652
 30
0.0
 10
583.7430608003566
 20
37.05255127062911
 30
0.0
 10
584.1794485120689
 20
36.81237511467916
 30
0.0
 10
584.8192785056652
 20
36.81237511467916
 30
0.0
 10
585.0950280487723
 20
36.81237511467916
 30
0.0
 10
585.7908738527602
 20
36.82991632064247
 30
0.0
 10
586.2864017626947
 20
37.44247487188884
 30
0.0
 10
586.6332980801157
 20
37.87283697849896
 30
0.0
 10
586.9530122234106
 20
38.3189549265978
 30
0.0
 10
587.3816335996578
 20
39.78237355234213
 30
0.0
 10
587.7383047875777
 20
41.00579455858404
 30
0.0
 10
587.9852653285309
 20
41.79651016734281
 30
0.0
 10
587.967009976778
 20
42.24671213667736
 30
0.0
 10
587.967009976778
 20
42.24671213667736
 30
0.0
 10
587.967009976778
 20
42.24671213667736
 30
0.0
 10
587.967009976778
 20
42.24671213667736
 30
0.0
 10
587.8506934812556
 20
42.99777033704319
 30
0.0
 10
587.305398536591
 20
43.1564669217822
 30
0.0
 10
586.9938524357677
 20
43.1564669217822
 30
0.0
 10
586.6869929166901
 20
43.1564669217822
 30
0.0
 10
585.8647433078982
 20
43.20955919784657
 30
0.0
 10
585.394880012287
 20
42.5961972325865
 30
0.0
  0
SPLINE
  5
17309
102
{ACAD_REACTORS
330
172F9
330
1730A
102
}
330
A
100
AcDbEntity
  8
TEMPLATE
100
AcDbSpline
210
0.0
220
0.0
230
1.0
 70
     9
 71
     3
 72
    29
 73
    25
 74
     0
 42
0.000000001
 43
0.0000000001
 40
0.0
 40
0.0
 40
0.0
 40
0.0
 40
1.0
 40
1.0
 40
1.0
 40
2.0
 40
2.0
 40
2.0
 40
3.0
 40
3.0
 40
3.0
 40
4.0
 40
4.0
 40
4.0
 40
5.0
 40
5.0
 40
5.0
 40
6.0
 40
6.0
 40
6.0
 40
7.0
 40
7.0
 40
7.0
 40
8.0
 40
8.0
 40
8.0
 40
8.0
 10
584.3513791109763
 20
37.94925057801331
 30
0.0
 10
584.3490135030472
 20
38.37439049353518
 30
0.0
 10
584.4832282774278
 20
39.12973356864028
 30
0.0
 10
584.82704484113
 20
40.1403837636178
 30
0.0
 10
585.2953459428261
 20
41.50888795047953
 30
0.0
 10
585.5761837746857
 20
42.00908012510374
 30
0.0
 10
585.8219391946189
 20
42.25255920533161
 30
0.0
 10
586.1809759904676
 20
42.60708795588196
 30
0.0
 10
586.6636492761844
 20
42.62476306418077
 30
0.0
 10
586.8060320930363
 20
42.60708795588196
 30
0.0
 10
587.0086709609071
 20
42.58276236491495
 30
0.0
 10
587.2949095203023
 20
42.45013210150577
 30
0.0
 10
587.3120043851471
 20
42.00363476345613
 30
0.0
 10
587.3256624233779
 20
41.621499814717
 30
0.0
 10
587.2155500694051
 20
40.90583646506057
 30
0.0
 10
586.8301345134438
 20
39.78237355234213
 30
0.0
 10
586.3859358321552
 20
38.47687041437903
 30
0.0
 10
586.1191131114213
 20
37.96366739614585
 30
0.0
 10
585.9052264473606
 20
37.74000586158636
 30
0.0
 10
585.502269685436
 20
37.32071301471897
 30
0.0
 10
585.0701222143512
 20
37.36097298362186
 30
0.0
 10
585.0063400684949
 20
37.36097298362186
 30
0.0
 10
584.923499156872
 20
37.36097298362186
 30
0.0
 10
584.3525395978846
 20
37.45086608491963
 30
0.0
 10
584.3513791109763
 20
37.94925057801331
 30
0.0
  0
MTEXT
  5
17353
330
A
100
AcDbEntity
  8
TEMPLATE
390
1D
100
AcDbMText
 10
39.66064336431923
 20
69.04478720817849
 30
0.0
 40
7.329785156250001
 41
0.0
 46
7.43977317910232
 71
     1
 72
     1
  1
{クローム}
  7
ＭＳ ゴシック
 73
     1
 44
0.7828267384257844
1001
ACAD
1000
ACAD_MTEXT_DEFINED_HEIGHT_BEGIN
1070
    46
1040
7.43977317910232
1000
ACAD_MTEXT_DEFINED_HEIGHT_END
  0
LINE
  5
18640
330
A
100
AcDbEntity
  8
MODEL
  6
Continuous
100
AcDbLine
 10
431.3861503716829
 20
198.9581252686423
 30
0.0
 11
451.3861503716827
 21
198.9581252686423
 31
0.0
  0
LINE
  5
18641
330
A
100
AcDbEntity
  8
MODEL
  6
Continuous
100
AcDbLine
 10
451.3861503716827
 20
198.9581252686423
 30
0.0
 11
451.3861503716827
 21
364.9577852686423
 31
0.0
  0
LINE
  5
1865D
102
{ACAD_REACTORS
330
188B4
102
}
330
A
100
AcDbEntity
  8
MODEL
  6
Continuous
100
AcDbLine
 10
411.3861503716828
 20
185.9577852686424
 30
0.0
 11
431.3861503716829
 21
185.9577852686423
 31
0.0
  0
LINE
  5
1865E
330
A
100
AcDbEntity
  8
MODEL
  6
Continuous
100
AcDbLine
 10
411.3861503716831
 20
364.9577852686423
 30
0.0
 11
411.3861503716828
 21
185.9577852686424
 31
0.0
  0
LINE
  5
18661
330
A
100
AcDbEntity
  8
MODEL
  6
Continuous
100
AcDbLine
 10
431.3861503716829
 20
185.9577852686423
 30
0.0
 11
431.3861503716831
 21
364.9577852686423
 31
0.0
  0
LINE
  5
1867C
102
{ACAD_REACTORS
330
1898C
102
}
330
A
100
AcDbEntity
  8
MODEL
  6
Continuous
100
AcDbLine
 10
185.6284203067787
 20
364.9577852686427
 30
0.0
 11
185.6284203067787
 21
205.9577852686432
 31
0.0
  0
LINE
  5
18695
330
A
100
AcDbEntity
  8
MODEL
  6
Continuous
100
AcDbLine
 10
179.4985403067786
 20
224.9577852686427
 30
0.0
 11
169.4985403067786
 21
224.9577852686427
 31
0.0
  0
LINE
  5
1869A
330
A
100
AcDbEntity
  8
MODEL
  6
Continuous
100
AcDbLine
 10
279.4985403067787
 20
185.9577852686427
 30
0.0
 11
279.4985403067787
 21
364.9577852686427
 31
0.0
  0
LINE
  5
1869D
330
A
100
AcDbEntity
  8
MODEL
  6
Continuous
100
AcDbLine
 10
259.4985403067786
 20
205.9577852686432
 30
0.0
 11
179.4985403067786
 21
205.9577852686432
 31
0.0
  0
LINE
  5
1869E
330
A
100
AcDbEntity
  8
MODEL
  6
Continuous
100
AcDbLine
 10
259.4985403067786
 20
364.9577852686427
 30
0.0
 11
259.4985403067786
 21
205.9577852686432
 31
0.0
  0
LINE
  5
1869F
330
A
100
AcDbEntity
  8
MODEL
  6
Continuous
100
AcDbLine
 10
179.4985403067786
 20
185.9577852686427
 30
0.0
 11
279.4985403067787
 21
185.9577852686427
 31
0.0
  0
LINE
  5
186C6
330
A
100
AcDbEntity
  8
MODEL
  6
Continuous
100
AcDbLine
 10
448.9183175000495
 20
793.8955447037196
 30
0.0
 11
448.9183175000495
 21
713.3955447037195
 31
0.0
  0
LINE
  5
186C7
330
A
100
AcDbEntity
  8
MODEL
  6
Continuous
100
AcDbLine
 10
448.9183175000495
 20
713.3955447037195
 30
0.0
 11
451.4183175000495
 21
713.3955447037195
 31
0.0
  0
LINE
  5
186CD
330
A
100
AcDbEntity
  8
MODEL
  6
Continuous
100
AcDbLine
 10
451.4183175000495
 20
795.6955447037191
 30
0.0
 11
451.4183175000495
 21
796.3955447037196
 31
0.0
  0
LINE
  5
186CE
102
{ACAD_REACTORS
330
187CA
102
}
330
A
100
AcDbEntity
  8
MODEL
  6
Continuous
100
AcDbLine
 10
451.4183175000495
 20
796.3955447037196
 30
0.0
 11
450.7183175000495
 21
796.3955447037196
 31
0.0
  0
LINE
  5
186D1
330
A
100
AcDbEntity
  8
MODEL
  6
Continuous
100
AcDbLine
 10
450.7183175000495
 20
796.3955447037196
 30
0.0
 11
431.3861503716828
 21
796.3955447037196
 31
0.0
  0
LINE
  5
186D2
330
A
100
AcDbEntity
  8
MODEL
  6
Continuous
100
AcDbLine
 10
451.4183175000495
 20
713.3955447037196
 30
0.0
 11
451.4183175000495
 21
796.3955447037196
 31
0.0
  0
LINE
  5
186D4
330
A
100
AcDbEntity
  8
MODEL
  6
Continuous
100
AcDbLine
 10
433.8861503716827
 20
786.8636347037193
 30
0.0
 11
433.8861503716827
 21
793.8955447037196
 31
0.0
  0
LINE
  5
186D6
330
A
100
AcDbEntity
  8
MODEL
  6
Continuous
100
AcDbLine
 10
431.3861503716828
 20
786.8636447037196
 30
0.0
 11
433.8861503716827
 21
786.8636347037193
 31
0.0
  0
LINE
  5
186D7
330
A
100
AcDbEntity
  8
MODEL
  6
Continuous
100
AcDbLine
 10
433.8861503716827
 20
793.8955447037196
 30
0.0
 11
448.9183175000495
 21
793.8955447037196
 31
0.0
  0
LINE
  5
186D8
330
A
100
AcDbEntity
  8
MODEL
  6
Continuous
100
AcDbLine
 10
448.9183175000495
 20
793.8955447037196
 30
0.0
 11
448.9183175000495
 21
793.0988847037196
 31
0.0
  0
LINE
  5
186DB
330
A
100
AcDbEntity
  8
MODEL
  6
Continuous
100
AcDbLine
 10
391.3861503716828
 20
702.3955447037196
 30
0.0
 11
391.3861503716828
 21
701.3955447037196
 31
0.0
  0
LINE
  5
186DC
330
A
100
AcDbEntity
  8
MODEL
  6
Continuous
100
AcDbLine
 10
392.4083903716825
 20
702.3955447037196
 30
0.0
 11
391.3861503716828
 21
702.3955447037196
 31
0.0
  0
LINE
  5
186DD
330
A
100
AcDbEntity
  8
MODEL
  6
Continuous
100
AcDbLine
 10
395.4053903716826
 20
702.3955447037196
 30
0.0
 11
392.4083903716825
 21
702.3955447037196
 31
0.0
  0
LINE
  5
186DE
330
A
100
AcDbEntity
  8
MODEL
  6
Continuous
100
AcDbLine
 10
400.1729503716826
 20
702.3955447037196
 30
0.0
 11
395.4053903716826
 21
702.3955447037196
 31
0.0
  0
LINE
  5
186DF
330
A
100
AcDbEntity
  8
MODEL
  6
Continuous
100
AcDbLine
 10
406.3861703716827
 20
702.3955447037196
 30
0.0
 11
400.1729503716826
 21
702.3955447037196
 31
0.0
  0
LINE
  5
186E0
330
A
100
AcDbEntity
  8
MODEL
  6
Continuous
100
AcDbLine
 10
413.6215903716826
 20
702.3955447037196
 30
0.0
 11
406.3861703716827
 21
702.3955447037196
 31
0.0
  0
LINE
  5
186E1
330
A
100
AcDbEntity
  8
MODEL
  6
Continuous
100
AcDbLine
 10
421.3861703716826
 20
702.3955447037196
 30
0.0
 11
413.6215903716826
 21
702.3955447037196
 31
0.0
  0
LINE
  5
186E2
330
A
100
AcDbEntity
  8
MODEL
  6
Continuous
100
AcDbLine
 10
429.1507303716827
 20
702.3955447037196
 30
0.0
 11
421.3861703716826
 21
702.3955447037196
 31
0.0
  0
LINE
  5
186E3
330
A
100
AcDbEntity
  8
MODEL
  6
Continuous
100
AcDbLine
 10
436.3861703716827
 20
702.3955447037196
 30
0.0
 11
429.1507303716827
 21
702.3955447037196
 31
0.0
  0
LINE
  5
186E4
330
A
100
AcDbEntity
  8
MODEL
  6
Continuous
100
AcDbLine
 10
442.5993703716826
 20
702.3955447037196
 30
0.0
 11
436.3861703716827
 21
702.3955447037196
 31
0.0
  0
LINE
  5
186E5
330
A
100
AcDbEntity
  8
MODEL
  6
Continuous
100
AcDbLine
 10
447.3669303716826
 20
702.3955447037196
 30
0.0
 11
442.5993703716826
 21
702.3955447037196
 31
0.0
  0
LINE
  5
186E6
330
A
100
AcDbEntity
  8
MODEL
  6
Continuous
100
AcDbLine
 10
450.3639303716826
 20
702.3955447037196
 30
0.0
 11
447.3669303716826
 21
702.3955447037196
 31
0.0
  0
LINE
  5
186E7
330
A
100
AcDbEntity
  8
MODEL
  6
Continuous
100
AcDbLine
 10
451.3861503716827
 20
702.3955447037196
 30
0.0
 11
450.3639303716826
 21
702.3955447037196
 31
0.0
  0
LINE
  5
186E8
330
A
100
AcDbEntity
  8
MODEL
  6
Continuous
100
AcDbLine
 10
451.3861503716827
 20
701.3955447037196
 30
0.0
 11
451.3861503716827
 21
702.3955447037196
 31
0.0
  0
LINE
  5
186E9
330
A
100
AcDbEntity
  8
MODEL
  6
Continuous
100
AcDbLine
 10
392.4083903716825
 20
692.3955447037196
 30
0.0
 11
395.4053903716826
 21
692.3955447037196
 31
0.0
  0
LINE
  5
186EA
330
A
100
AcDbEntity
  8
MODEL
  6
Continuous
100
AcDbLine
 10
395.4053903716826
 20
692.3955447037196
 30
0.0
 11
400.1729503716826
 21
692.3955447037196
 31
0.0
  0
LINE
  5
186EB
330
A
100
AcDbEntity
  8
MODEL
  6
Continuous
100
AcDbLine
 10
400.1729503716826
 20
692.3955447037196
 30
0.0
 11
406.3861703716827
 21
692.3955447037196
 31
0.0
  0
LINE
  5
186EC
330
A
100
AcDbEntity
  8
MODEL
  6
Continuous
100
AcDbLine
 10
406.3861703716827
 20
692.3955447037196
 30
0.0
 11
413.6215903716826
 21
692.3955447037196
 31
0.0
  0
LINE
  5
186ED
330
A
100
AcDbEntity
  8
MODEL
  6
Continuous
100
AcDbLine
 10
413.6215903716826
 20
692.3955447037196
 30
0.0
 11
421.3861703716826
 21
692.3955447037196
 31
0.0
  0
LINE
  5
186EE
330
A
100
AcDbEntity
  8
MODEL
  6
Continuous
100
AcDbLine
 10
421.3861703716826
 20
692.3955447037196
 30
0.0
 11
429.1507303716827
 21
692.3955447037196
 31
0.0
  0
LINE
  5
186EF
330
A
100
AcDbEntity
  8
MODEL
  6
Continuous
100
AcDbLine
 10
429.1507303716827
 20
692.3955447037196
 30
0.0
 11
436.3861703716827
 21
692.3955447037196
 31
0.0
  0
LINE
  5
186F0
330
A
100
AcDbEntity
  8
MODEL
  6
Continuous
100
AcDbLine
 10
436.3861703716827
 20
692.3955447037196
 30
0.0
 11
442.5993703716826
 21
692.3955447037196
 31
0.0
  0
LINE
  5
186F1
330
A
100
AcDbEntity
  8
MODEL
  6
Continuous
100
AcDbLine
 10
442.5993703716826
 20
692.3955447037196
 30
0.0
 11
447.3669303716826
 21
692.3955447037196
 31
0.0
  0
LINE
  5
186F2
330
A
100
AcDbEntity
  8
MODEL
  6
Continuous
100
AcDbLine
 10
447.3669303716826
 20
692.3955447037196
 30
0.0
 11
450.3639303716826
 21
692.3955447037196
 31
0.0
  0
LINE
  5
186F3
102
{ACAD_REACTORS
330
1870C
102
}
330
A
100
AcDbEntity
  8
MODEL
  6
Continuous
100
AcDbLine
 10
450.3639303716826
 20
692.3955447037196
 30
0.0
 11
451.3861503716827
 21
692.3955447037196
 31
0.0
  0
LINE
  5
186F4
330
A
100
AcDbEntity
  8
MODEL
  6
Continuous
100
AcDbLine
 10
451.3861503716827
 20
692.3955447037196
 30
0.0
 11
451.3861503716827
 21
701.3955447037196
 31
0.0
  0
LINE
  5
186F5
102
{ACAD_REACTORS
330
1870C
102
}
330
A
100
AcDbEntity
  8
MODEL
  6
Continuous
100
AcDbLine
 10
391.3861503716828
 20
692.3955447037196
 30
0.0
 11
392.4083903716825
 21
692.3955447037196
 31
0.0
  0
LINE
  5
186F6
330
A
100
AcDbEntity
  8
MODEL
  6
Continuous
100
AcDbLine
 10
391.3861503716828
 20
701.3955447037196
 30
0.0
 11
391.3861503716828
 21
692.3955447037196
 31
0.0
  0
LINE
  5
186FA
330
A
100
AcDbEntity
  8
MODEL
  6
Continuous
100
AcDbLine
 10
411.3861503716828
 20
802.3955447037197
 30
0.0
 11
411.3861503716828
 21
702.3955447037196
 31
0.0
  0
LINE
  5
186FB
330
A
100
AcDbEntity
  8
MODEL
  6
Continuous
100
AcDbLine
 10
431.3861503716828
 20
702.3955447037196
 30
0.0
 11
431.3861503716828
 21
802.3955447037197
 31
0.0
  0
LINE
  5
186FC
330
A
100
AcDbEntity
  8
MODEL
  6
Continuous
100
AcDbLine
 10
430.3861503716827
 20
802.3955447037197
 30
0.0
 11
412.3861503716828
 21
802.3955447037197
 31
0.0
  0
LINE
  5
18700
330
A
100
AcDbEntity
  8
MODEL
  6
Continuous
100
AcDbLine
 10
391.3861503716828
 20
701.3955447037196
 30
0.0
 11
391.3861503716828
 21
692.3955447037196
 31
0.0
  0
LINE
  5
18701
330
A
100
AcDbEntity
  8
MODEL
  6
Continuous
100
AcDbLine
 10
391.3861503716828
 20
702.3955447037196
 30
0.0
 11
391.3861503716828
 21
701.3955447037196
 31
0.0
  0
DIMENSION
  5
18702
330
A
100
AcDbEntity
  8
DIM
100
AcDbDimension
280
     0
  2
*D26
 10
484.3138074111932
 20
194.9577852686428
 30
0.0
 11
474.3123068484821
 21
364.9577852686427
 31
0.0
 70
    32
 71
     5
 42
339.9999999999999
 73
     0
 74
     0
 75
     0
  3
tfrom線あり
100
AcDbAlignedDimension
 13
453.4946478651258
 23
534.9577852686426
 33
0.0
 14
452.5444778863437
 24
194.9577852686428
 34
0.0
 50
-90.00000000000001
100
AcDbRotatedDimension
  0
DIMENSION
  5
18704
330
A
100
AcDbEntity
  8
DIM
100
AcDbDimension
280
     0
  2
*D27
 10
112.6526365312404
 20
564.9577852686427
 30
0.0
 11
112.6526365312404
 21
364.9577852686428
 31
0.0
 70
   160
 71
     5
 42
400.0
 73
     0
 74
     0
 75
     0
  3
tfrom線あり
100
AcDbAlignedDimension
 13
169.4985403067786
 23
164.9577852686427
 33
0.0
 14
169.4985403067786
 24
564.9577852686427
 34
0.0
 50
90.0
100
AcDbRotatedDimension
  0
DIMENSION
  5
18707
330
A
100
AcDbEntity
  8
DIM
100
AcDbDimension
280
     0
  2
*D28
 10
279.4985403067787
 20
592.506091363908
 30
0.0
 11
224.4985403067786
 21
602.507591926619
 31
0.0
 70
    32
 71
     5
 42
110.0
 73
     0
 74
     0
 75
     0
 52
-270.0
  3
tfrom線あり
100
AcDbAlignedDimension
 13
169.4985403067786
 23
564.9577852686427
 33
0.0
 14
279.4985403067787
 24
543.9577852686426
 34
0.0
 50
180.0
100
AcDbRotatedDimension
  0
DIMENSION
  5
1870A
102
{ACAD_XDICTIONARY
360
1870B
102
}
102
{ACAD_REACTORS
330
1870C
102
}
330
A
100
AcDbEntity
  8
DIM
100
AcDbDimension
280
     0
  2
*D29
 10
391.3861503716828
 20
602.0774966931542
 30
0.0
 11
421.3861503716827
 21
612.0774966931541
 31
0.0
 70
    32
 71
     5
 42
59.99999999999993
 73
     0
 74
     0
 75
     0
 52
-270.0
  3
tfrom線あり
100
AcDbAlignedDimension
 13
451.3861503716827
 23
692.3955447037196
 33
0.0
 14
391.3861503716828
 24
692.3955447037196
 34
0.0
 50
180.0
100
AcDbRotatedDimension
1001
ACAD
1000
DSTYLE
1002
{
1070
     3
1000
%%c<>
1002
}
  0
DIMENSION
  5
1870D
330
A
100
AcDbEntity
  8
DIM
100
AcDbDimension
280
     0
  2
*D30
 10
403.3861703716826
 20
620.2385582775922
 30
0.0
 11
421.3861703716824
 21
620.2385582775922
 31
0.0
 70
   160
 71
     5
 42
36.0
 73
     0
 74
     0
 75
     0
 52
-270.0
  3
tfrom線あり
100
AcDbAlignedDimension
 13
439.3861703716827
 23
637.9267412863096
 33
0.0
 14
403.3861703716826
 24
637.9267412863096
 34
0.0
 50
180.0
100
AcDbRotatedDimension
  0
DIMENSION
  5
187BB
330
A
100
AcDbEntity
  8
DIM
100
AcDbDimension
280
     0
  2
*D36
 10
484.3138074111932
 20
713.3955447037196
 30
0.0
 11
474.3123068484821
 21
754.8955447037196
 31
0.0
 70
    32
 71
     5
 42
83.0
 73
     0
 74
     0
 75
     0
  3
tfrom線あり
100
AcDbAlignedDimension
 13
452.3861503716828
 23
796.3955447037196
 33
0.0
 14
452.3861503716826
 24
713.3955447037196
 34
0.0
 50
90.0
100
AcDbRotatedDimension
  0
DIMENSION
  5
187C8
102
{ACAD_XDICTIONARY
360
187C9
102
}
102
{ACAD_REACTORS
330
187CA
102
}
330
A
100
AcDbEntity
  8
DIM
100
AcDbDimension
280
     0
  2
*D37
 10
484.3138074111932
 20
802.3955447037197
 30
0.0
 11
484.3138074111932
 21
799.3955447037197
 31
0.0
 70
   160
 71
     5
 42
5.999999999999999
 73
     0
 74
     0
 75
     0
  3
tfrom線あり
100
AcDbAlignedDimension
 13
451.4183175000495
 23
796.3955447037196
 33
0.0
 14
432.638710371683
 24
802.3955447037197
 34
0.0
 50
90.0
100
AcDbRotatedDimension
  0
DIMENSION
  5
187FB
330
A
100
AcDbEntity
  8
DIM
100
AcDbDimension
280
     0
  2
*D40
 10
451.3861503716827
 20
825.4805324726781
 30
0.0
 11
431.3861503716828
 21
835.4805324726781
 31
0.0
 70
    32
 71
     5
 42
40.0
 73
     0
 74
     0
 75
     0
  3
tfrom線あり
100
AcDbAlignedDimension
 13
411.3861503716828
 23
802.3955447037197
 33
0.0
 14
451.3861503716827
 24
802.3955447037193
 34
0.0
100
AcDbRotatedDimension
  0
LINE
  5
1884A
330
A
100
AcDbEntity
  8
DIM
100
AcDbLine
 10
450.1683175000495
 20
713.3955447037195
 30
0.0
 11
468.0211614828484
 21
694.4739870409347
 31
0.0
  0
MTEXT
  5
1888E
330
A
100
AcDbEntity
  8
DIM
390
1D
100
AcDbMText
 10
468.7936674116061
 20
693.263040570274
 30
0.0
 40
7.329785156250001
 41
0.0
 46
7.329785156250001
 71
     1
 72
     1
  1
{t3}
  7
ＭＳ ゴシック
 73
     1
 44
0.7828267384257844
1001
ACAD
1000
ACAD_MTEXT_DEFINED_HEIGHT_BEGIN
1070
    46
1040
7.329785156250001
1000
ACAD_MTEXT_DEFINED_HEIGHT_END
  0
LINE
  5
1888F
330
A
100
AcDbEntity
  8
MODEL
100
AcDbLine
 10
411.3861503716828
 20
802.3955447037197
 30
0.0
 11
431.3861503716828
 21
802.3955447037197
 31
0.0
  0
LINE
  5
18898
330
A
100
AcDbEntity
  8
HIDDEN
 48
0.5
100
AcDbLine
 10
431.3861503716828
 20
782.3955447037197
 30
0.0
 11
411.3861503716828
 21
782.3955447037197
 31
0.0
  0
ARC
  5
188A5
330
A
100
AcDbEntity
  8
MODEL
100
AcDbCircle
 10
421.3861703716824
 20
194.9577852686423
 30
0.0
 40
30.0
100
AcDbArc
 50
109.4712611487292
 51
7.662910863575593
  0
LINE
  5
188A6
330
A
100
AcDbEntity
  8
MODEL
  6
Continuous
100
AcDbLine
 10
451.3861503716827
 20
530.9574452686424
 30
0.0
 11
451.3861503716827
 21
364.9577852686423
 31
0.0
  0
LINE
  5
188A7
330
A
100
AcDbEntity
  8
MODEL
  6
Continuous
100
AcDbLine
 10
411.3861503716828
 20
543.9577852686424
 30
0.0
 11
431.3861503716829
 21
543.9577852686424
 31
0.0
  0
LINE
  5
188A8
330
A
100
AcDbEntity
  8
MODEL
  6
Continuous
100
AcDbLine
 10
411.3861503716831
 20
364.9577852686423
 30
0.0
 11
411.3861503716828
 21
543.9577852686424
 31
0.0
  0
LINE
  5
188A9
330
A
100
AcDbEntity
  8
MODEL
  6
Continuous
100
AcDbLine
 10
431.3861503716829
 20
543.9577852686424
 30
0.0
 11
431.3861503716831
 21
364.9577852686423
 31
0.0
  0
LINE
  5
188AA
330
A
100
AcDbEntity
  8
MODEL
  6
Continuous
100
AcDbLine
 10
431.3861503716829
 20
530.9574452686424
 30
0.0
 11
451.3861503716827
 21
530.9574452686424
 31
0.0
  0
ARC
  5
188AB
330
A
100
AcDbEntity
  8
MODEL
100
AcDbCircle
 10
421.3861703716824
 20
534.9577852686423
 30
0.0
 40
30.0
100
AcDbArc
 50
352.3370891364248
 51
250.5287388512708
  0
LINE
  5
188B0
330
A
100
AcDbEntity
  8
HIDDEN
 48
0.5
100
AcDbLine
 10
431.3861503716829
 20
523.9577852686424
 30
0.0
 11
411.3861503716829
 21
523.9577852686424
 31
0.0
  0
LINE
  5
188B1
330
A
100
AcDbEntity
  8
HIDDEN
 48
0.5
100
AcDbLine
 10
431.3861503716829
 20
205.9577852686432
 30
0.0
 11
411.3861503716829
 21
205.9577852686432
 31
0.0
  0
DIMENSION
  5
188B2
102
{ACAD_XDICTIONARY
360
188B3
102
}
102
{ACAD_REACTORS
330
188B4
102
}
330
A
100
AcDbEntity
  8
DIM
100
AcDbDimension
280
     0
  2
*D46
 10
431.3861503716829
 20
137.6862660083499
 30
0.0
 11
421.3861503716827
 21
137.6862660083499
 31
0.0
 70
   160
 71
     5
 42
20.00000000000011
 73
     0
 74
     0
 75
     0
  3
tfrom線あり
100
AcDbAlignedDimension
 13
411.3861503716828
 23
185.9577852686424
 33
0.0
 14
431.3861503716829
 24
185.9577852686423
 34
0.0
100
AcDbRotatedDimension
  0
DIMENSION
  5
188C5
102
{ACAD_XDICTIONARY
360
188C6
102
}
330
A
100
AcDbEntity
  8
DIM
100
AcDbDimension
280
     0
  2
*D47
 10
279.4985403067787
 20
137.6862660083503
 30
0.0
 11
269.4985403067785
 21
137.6862660083503
 31
0.0
 70
   160
 71
     5
 42
20.00000000000011
 73
     0
 74
     0
 75
     0
  3
tfrom線あり
100
AcDbAlignedDimension
 13
259.4985403067786
 23
185.9577852686428
 33
0.0
 14
279.4985403067787
 24
185.9577852686427
 34
0.0
100
AcDbRotatedDimension
  0
LINE
  5
188D6
102
{ACAD_REACTORS
330
189B6
102
}
330
A
100
AcDbEntity
  8
MODEL
100
AcDbLine
 10
179.4985403067786
 20
164.9577852686423
 30
0.0
 11
169.4985403067786
 21
164.9577852686423
 31
0.0
  0
LINE
  5
188D8
102
{ACAD_REACTORS
330
189A7
102
}
330
A
100
AcDbEntity
  8
MODEL
100
AcDbLine
 10
179.4985403067786
 20
224.9577852686427
 30
0.0
 11
179.4985403067786
 21
164.9577852686427
 31
0.0
  0
LINE
  5
188D9
330
A
100
AcDbEntity
  8
MODEL
100
AcDbLine
 10
169.4985403067786
 20
224.9577852686427
 30
0.0
 11
169.4985403067786
 21
164.9577852686427
 31
0.0
  0
LINE
  5
188F0
102
{ACAD_REACTORS
330
1898C
102
}
330
A
100
AcDbEntity
  8
MODEL
  6
Continuous
100
AcDbLine
 10
185.6284203067787
 20
364.9577852686427
 30
0.0
 11
185.6284203067787
 21
523.9577852686424
 31
0.0
  0
LINE
  5
188F1
330
A
100
AcDbEntity
  8
MODEL
  6
Continuous
100
AcDbLine
 10
179.4985403067786
 20
504.9577852686426
 30
0.0
 11
169.4985403067786
 21
504.9577852686426
 31
0.0
  0
LINE
  5
188F2
330
A
100
AcDbEntity
  8
MODEL
  6
Continuous
100
AcDbLine
 10
279.4985403067787
 20
543.9577852686426
 30
0.0
 11
279.4985403067787
 21
364.9577852686427
 31
0.0
  0
LINE
  5
188F3
330
A
100
AcDbEntity
  8
MODEL
  6
Continuous
100
AcDbLine
 10
259.4985403067786
 20
523.9577852686424
 30
0.0
 11
179.4985403067786
 21
523.9577852686424
 31
0.0
  0
LINE
  5
188F4
330
A
100
AcDbEntity
  8
MODEL
  6
Continuous
100
AcDbLine
 10
179.4985403067786
 20
543.9577852686426
 30
0.0
 11
279.4985403067787
 21
543.9577852686426
 31
0.0
  0
LINE
  5
188F5
330
A
100
AcDbEntity
  8
MODEL
100
AcDbLine
 10
179.4985403067786
 20
504.9577852686426
 30
0.0
 11
179.4985403067786
 21
564.9577852686427
 31
0.0
  0
LINE
  5
188F6
330
A
100
AcDbEntity
  8
MODEL
100
AcDbLine
 10
169.4985403067786
 20
504.9577852686426
 30
0.0
 11
169.4985403067786
 21
564.9577852686427
 31
0.0
  0
LINE
  5
188F7
330
A
100
AcDbEntity
  8
MODEL
100
AcDbLine
 10
179.4985403067786
 20
564.9577852686433
 30
0.0
 11
169.4985403067786
 21
564.9577852686433
 31
0.0
  0
LINE
  5
188F8
330
A
100
AcDbEntity
  8
MODEL
  6
Continuous
100
AcDbLine
 10
259.4985403067786
 20
364.9577852686427
 30
0.0
 11
259.4985403067786
 21
523.9577852686424
 31
0.0
  0
LINE
  5
18950
102
{ACAD_REACTORS
330
1896A
102
}
330
A
100
AcDbEntity
  8
MODEL
100
AcDbLine
 10
401.5149077592903
 20
693.3957315239902
 30
0.0
 11
401.5149077592903
 21
643.8489463833012
 31
0.0
  0
LINE
  5
18951
102
{ACAD_REACTORS
330
1896A
102
}
330
A
100
AcDbEntity
  8
MODEL
100
AcDbLine
 10
403.280573635946
 20
638.3957315239902
 30
0.0
 11
401.5149077592903
 21
643.8489463833012
 31
0.0
  0
LINE
  5
18952
102
{ACAD_REACTORS
330
1896A
102
}
330
A
100
AcDbEntity
  8
MODEL
100
AcDbLine
 10
403.280573635946
 20
638.3957315239902
 30
0.0
 11
405.0462395126016
 21
643.848946383301
 31
0.0
  0
LINE
  5
18953
102
{ACAD_REACTORS
330
1896A
102
}
330
A
100
AcDbEntity
  8
MODEL
100
AcDbLine
 10
405.0462395126023
 20
693.3957315239902
 30
0.0
 11
405.0462395126016
 21
643.848946383301
 31
0.0
  0
LINE
  5
18954
102
{ACAD_REACTORS
330
1896A
102
}
330
A
100
AcDbEntity
  8
MODEL
100
AcDbLine
 10
400.1366825927449
 20
649.3481677070969
 30
0.0
 11
406.424464679147
 21
645.9184683872413
 31
0.0
  0
LINE
  5
18955
102
{ACAD_REACTORS
330
1896A
102
}
330
A
100
AcDbEntity
  8
MODEL
100
AcDbLine
 10
400.1366825927449
 20
652.3612816690237
 30
0.0
 11
406.424464679147
 21
648.9315823491681
 31
0.0
  0
LINE
  5
18956
102
{ACAD_REACTORS
330
1896A
102
}
330
A
100
AcDbEntity
  8
MODEL
100
AcDbLine
 10
400.1366825927449
 20
655.4657021146452
 30
0.0
 11
406.424464679147
 21
652.0360027947897
 31
0.0
  0
LINE
  5
18957
102
{ACAD_REACTORS
330
1896A
102
}
330
A
100
AcDbEntity
  8
MODEL
100
AcDbLine
 10
400.1366825927449
 20
658.2962031091827
 30
0.0
 11
406.424464679147
 21
654.8665037893271
 31
0.0
  0
LINE
  5
18958
102
{ACAD_REACTORS
330
1896A
102
}
330
A
100
AcDbEntity
  8
MODEL
100
AcDbLine
 10
400.1366825927449
 20
661.491930038499
 30
0.0
 11
406.424464679147
 21
658.0622307186435
 31
0.0
  0
LINE
  5
18959
102
{ACAD_REACTORS
330
1896A
102
}
330
A
100
AcDbEntity
  8
MODEL
100
AcDbLine
 10
400.1366825927449
 20
664.5050440004259
 30
0.0
 11
406.424464679147
 21
661.0753446805702
 31
0.0
  0
LINE
  5
1895A
102
{ACAD_REACTORS
330
1896A
102
}
330
A
100
AcDbEntity
  8
MODEL
100
AcDbLine
 10
400.1366825927449
 20
667.6094644460475
 30
0.0
 11
406.424464679147
 21
664.1797651261919
 31
0.0
  0
LINE
  5
1895B
102
{ACAD_REACTORS
330
1896A
102
}
330
A
100
AcDbEntity
  8
MODEL
100
AcDbLine
 10
400.1366825927449
 20
670.4399654405847
 30
0.0
 11
406.424464679147
 21
667.0102661207291
 31
0.0
  0
LINE
  5
1895C
102
{ACAD_REACTORS
330
1896A
102
}
330
A
100
AcDbEntity
  8
MODEL
100
AcDbLine
 10
400.1366825927449
 20
673.5443858862065
 30
0.0
 11
406.424464679147
 21
670.114686566351
 31
0.0
  0
LINE
  5
1895D
102
{ACAD_REACTORS
330
1896A
102
}
330
A
100
AcDbEntity
  8
MODEL
100
AcDbLine
 10
400.1366825927449
 20
676.5574998481334
 30
0.0
 11
406.424464679147
 21
673.1278005282777
 31
0.0
  0
LINE
  5
1895E
102
{ACAD_REACTORS
330
1896A
102
}
330
A
100
AcDbEntity
  8
MODEL
100
AcDbLine
 10
400.1366825927449
 20
679.661920293755
 30
0.0
 11
406.424464679147
 21
676.2322209738994
 31
0.0
  0
LINE
  5
1895F
102
{ACAD_REACTORS
330
1896A
102
}
330
A
100
AcDbEntity
  8
MODEL
100
AcDbLine
 10
400.1366825927449
 20
682.4924212882922
 30
0.0
 11
406.424464679147
 21
679.0627219684368
 31
0.0
  0
LINE
  5
18960
102
{ACAD_REACTORS
330
1896A
102
}
330
A
100
AcDbEntity
  8
MODEL
100
AcDbLine
 10
400.1366825927449
 20
685.4142287665244
 30
0.0
 11
406.424464679147
 21
681.984529446669
 31
0.0
  0
LINE
  5
18961
102
{ACAD_REACTORS
330
1896A
102
}
330
A
100
AcDbEntity
  8
MODEL
100
AcDbLine
 10
400.1366825927449
 20
688.4273427284512
 30
0.0
 11
406.424464679147
 21
684.9976434085958
 31
0.0
  0
LINE
  5
18962
102
{ACAD_REACTORS
330
1896A
102
}
330
A
100
AcDbEntity
  8
MODEL
100
AcDbLine
 10
400.1366825927449
 20
691.5317631740728
 30
0.0
 11
406.424464679147
 21
688.1020638542172
 31
0.0
  0
LINE
  5
18963
102
{ACAD_REACTORS
330
1896A
102
}
330
A
100
AcDbEntity
  8
MODEL
100
AcDbLine
 10
400.1366825927449
 20
694.3622641686101
 30
0.0
 11
406.424464679147
 21
690.9325648487546
 31
0.0
  0
LINE
  5
18964
102
{ACAD_REACTORS
330
1896A
102
}
330
A
100
AcDbEntity
  8
HIDDEN
 48
0.25
100
AcDbLine
 10
400.1366825927449
 20
697.4666846142319
 30
0.0
 11
406.424464679147
 21
694.0369852943763
 31
0.0
  0
LINE
  5
18965
102
{ACAD_REACTORS
330
1896A
102
}
330
A
100
AcDbEntity
  8
HIDDEN
 48
0.25
100
AcDbLine
 10
405.0462395126023
 20
693.3957315239902
 30
0.0
 11
405.0462395126023
 21
699.4636533733638
 31
0.0
  0
LINE
  5
18966
102
{ACAD_REACTORS
330
1896A
102
}
330
A
100
AcDbEntity
  8
HIDDEN
 48
0.25
100
AcDbLine
 10
401.5149077592903
 20
693.3957315239902
 30
0.0
 11
401.5149077592903
 21
699.4612854359985
 31
0.0
  0
LINE
  5
18967
102
{ACAD_REACTORS
330
1896A
102
}
330
A
100
AcDbEntity
  8
HIDDEN
 48
0.25
100
AcDbLine
 10
401.5149077592903
 20
699.4612854359985
 30
0.0
 11
399.0037095328922
 21
702.3955447037196
 31
0.0
  0
LINE
  5
18968
102
{ACAD_REACTORS
330
1896A
102
}
330
A
100
AcDbEntity
  8
HIDDEN
 48
0.25
100
AcDbLine
 10
405.0442129840751
 20
699.4612854359985
 30
0.0
 11
407.5554112104732
 21
702.3955447037196
 31
0.0
  0
LINE
  5
18969
102
{ACAD_REACTORS
330
1896A
102
}
330
A
100
AcDbEntity
  8
HIDDEN
100
AcDbLine
 10
399.0037095328922
 20
702.3955447037196
 30
0.0
 11
407.5554112104732
 21
702.3955447037196
 31
0.0
  0
LINE
  5
1896B
102
{ACAD_REACTORS
330
18985
102
}
330
A
100
AcDbEntity
  8
MODEL
100
AcDbLine
 10
437.620504495027
 20
693.3957315239902
 30
0.0
 11
437.620504495027
 21
643.8489463833012
 31
0.0
  0
LINE
  5
1896C
102
{ACAD_REACTORS
330
18985
102
}
330
A
100
AcDbEntity
  8
MODEL
100
AcDbLine
 10
439.3861703716827
 20
638.3957315239902
 30
0.0
 11
437.620504495027
 21
643.8489463833012
 31
0.0
  0
LINE
  5
1896D
102
{ACAD_REACTORS
330
18985
102
}
330
A
100
AcDbEntity
  8
MODEL
100
AcDbLine
 10
439.3861703716827
 20
638.3957315239902
 30
0.0
 11
441.1518362483383
 21
643.848946383301
 31
0.0
  0
LINE
  5
1896E
102
{ACAD_REACTORS
330
18985
102
}
330
A
100
AcDbEntity
  8
MODEL
100
AcDbLine
 10
441.1518362483391
 20
693.3957315239902
 30
0.0
 11
441.1518362483383
 21
643.848946383301
 31
0.0
  0
LINE
  5
1896F
102
{ACAD_REACTORS
330
18985
102
}
330
A
100
AcDbEntity
  8
MODEL
100
AcDbLine
 10
436.2422793284816
 20
649.3481677070969
 30
0.0
 11
442.5300614148837
 21
645.9184683872413
 31
0.0
  0
LINE
  5
18970
102
{ACAD_REACTORS
330
18985
102
}
330
A
100
AcDbEntity
  8
MODEL
100
AcDbLine
 10
436.2422793284816
 20
652.3612816690237
 30
0.0
 11
442.5300614148837
 21
648.9315823491681
 31
0.0
  0
LINE
  5
18971
102
{ACAD_REACTORS
330
18985
102
}
330
A
100
AcDbEntity
  8
MODEL
100
AcDbLine
 10
436.2422793284816
 20
655.4657021146452
 30
0.0
 11
442.5300614148837
 21
652.0360027947897
 31
0.0
  0
LINE
  5
18972
102
{ACAD_REACTORS
330
18985
102
}
330
A
100
AcDbEntity
  8
MODEL
100
AcDbLine
 10
436.2422793284816
 20
658.2962031091827
 30
0.0
 11
442.5300614148837
 21
654.8665037893271
 31
0.0
  0
LINE
  5
18973
102
{ACAD_REACTORS
330
18985
102
}
330
A
100
AcDbEntity
  8
MODEL
100
AcDbLine
 10
436.2422793284816
 20
661.491930038499
 30
0.0
 11
442.5300614148837
 21
658.0622307186435
 31
0.0
  0
LINE
  5
18974
102
{ACAD_REACTORS
330
18985
102
}
330
A
100
AcDbEntity
  8
MODEL
100
AcDbLine
 10
436.2422793284816
 20
664.5050440004259
 30
0.0
 11
442.5300614148837
 21
661.0753446805702
 31
0.0
  0
LINE
  5
18975
102
{ACAD_REACTORS
330
18985
102
}
330
A
100
AcDbEntity
  8
MODEL
100
AcDbLine
 10
436.2422793284816
 20
667.6094644460475
 30
0.0
 11
442.5300614148837
 21
664.1797651261919
 31
0.0
  0
LINE
  5
18976
102
{ACAD_REACTORS
330
18985
102
}
330
A
100
AcDbEntity
  8
MODEL
100
AcDbLine
 10
436.2422793284817
 20
670.4399654405847
 30
0.0
 11
442.5300614148837
 21
667.0102661207291
 31
0.0
  0
LINE
  5
18977
102
{ACAD_REACTORS
330
18985
102
}
330
A
100
AcDbEntity
  8
MODEL
100
AcDbLine
 10
436.2422793284817
 20
673.5443858862065
 30
0.0
 11
442.5300614148839
 21
670.114686566351
 31
0.0
  0
LINE
  5
18978
102
{ACAD_REACTORS
330
18985
102
}
330
A
100
AcDbEntity
  8
MODEL
100
AcDbLine
 10
436.2422793284817
 20
676.5574998481334
 30
0.0
 11
442.5300614148839
 21
673.1278005282777
 31
0.0
  0
LINE
  5
18979
102
{ACAD_REACTORS
330
18985
102
}
330
A
100
AcDbEntity
  8
MODEL
100
AcDbLine
 10
436.2422793284817
 20
679.661920293755
 30
0.0
 11
442.5300614148839
 21
676.2322209738994
 31
0.0
  0
LINE
  5
1897A
102
{ACAD_REACTORS
330
18985
102
}
330
A
100
AcDbEntity
  8
MODEL
100
AcDbLine
 10
436.2422793284817
 20
682.4924212882922
 30
0.0
 11
442.5300614148839
 21
679.0627219684368
 31
0.0
  0
LINE
  5
1897B
102
{ACAD_REACTORS
330
18985
102
}
330
A
100
AcDbEntity
  8
MODEL
100
AcDbLine
 10
436.2422793284817
 20
685.4142287665244
 30
0.0
 11
442.5300614148839
 21
681.984529446669
 31
0.0
  0
LINE
  5
1897C
102
{ACAD_REACTORS
330
18985
102
}
330
A
100
AcDbEntity
  8
MODEL
100
AcDbLine
 10
436.2422793284817
 20
688.4273427284512
 30
0.0
 11
442.5300614148839
 21
684.9976434085958
 31
0.0
  0
LINE
  5
1897D
102
{ACAD_REACTORS
330
18985
102
}
330
A
100
AcDbEntity
  8
MODEL
100
AcDbLine
 10
436.2422793284817
 20
691.5317631740728
 30
0.0
 11
442.5300614148839
 21
688.1020638542172
 31
0.0
  0
LINE
  5
1897E
102
{ACAD_REACTORS
330
18985
102
}
330
A
100
AcDbEntity
  8
MODEL
100
AcDbLine
 10
436.2422793284817
 20
694.3622641686101
 30
0.0
 11
442.5300614148839
 21
690.9325648487546
 31
0.0
  0
LINE
  5
1897F
102
{ACAD_REACTORS
330
18985
102
}
330
A
100
AcDbEntity
  8
HIDDEN
 48
0.25
100
AcDbLine
 10
436.2422793284817
 20
697.4666846142319
 30
0.0
 11
442.5300614148839
 21
694.0369852943763
 31
0.0
  0
LINE
  5
18980
102
{ACAD_REACTORS
330
18985
102
}
330
A
100
AcDbEntity
  8
HIDDEN
 48
0.25
100
AcDbLine
 10
441.1518362483391
 20
693.3957315239902
 30
0.0
 11
441.1518362483391
 21
699.4636533733638
 31
0.0
  0
LINE
  5
18981
102
{ACAD_REACTORS
330
18985
102
}
330
A
100
AcDbEntity
  8
HIDDEN
 48
0.25
100
AcDbLine
 10
437.620504495027
 20
693.3957315239902
 30
0.0
 11
437.620504495027
 21
699.4612854359985
 31
0.0
  0
LINE
  5
18982
102
{ACAD_REACTORS
330
18985
102
}
330
A
100
AcDbEntity
  8
HIDDEN
 48
0.25
100
AcDbLine
 10
437.620504495027
 20
699.4612854359985
 30
0.0
 11
435.1093062686288
 21
702.3955447037196
 31
0.0
  0
LINE
  5
18983
102
{ACAD_REACTORS
330
18985
102
}
330
A
100
AcDbEntity
  8
HIDDEN
 48
0.25
100
AcDbLine
 10
441.149809719812
 20
699.4612854359985
 30
0.0
 11
443.6610079462099
 21
702.3955447037196
 31
0.0
  0
LINE
  5
18984
102
{ACAD_REACTORS
330
18985
102
}
330
A
100
AcDbEntity
  8
HIDDEN
100
AcDbLine
 10
435.1093062686288
 20
702.3955447037196
 30
0.0
 11
443.6610079462099
 21
702.3955447037196
 31
0.0
  0
LINE
  5
1898D
102
{ACAD_REACTORS
330
1898F
102
}
330
A
100
AcDbEntity
  8
MODEL
  6
Continuous
100
AcDbLine
 10
198.9522612421114
 20
364.9577852686427
 30
0.0
 11
198.9522612421114
 21
205.9577852686432
 31
0.0
  0
LINE
  5
1898E
102
{ACAD_REACTORS
330
1898F
102
}
330
A
100
AcDbEntity
  8
MODEL
  6
Continuous
100
AcDbLine
 10
198.9522612421114
 20
364.9577852686427
 30
0.0
 11
198.9522612421114
 21
523.9577852686424
 31
0.0
  0
LINE
  5
18990
102
{ACAD_REACTORS
330
18995
102
}
330
A
100
AcDbEntity
  8
MODEL
  6
Continuous
100
AcDbLine
 10
210.7076087789535
 20
364.9577852686427
 30
0.0
 11
210.7076087789535
 21
205.9577852686432
 31
0.0
  0
LINE
  5
18991
102
{ACAD_REACTORS
330
18995
102
}
330
A
100
AcDbEntity
  8
MODEL
  6
Continuous
100
AcDbLine
 10
210.7076087789535
 20
364.9577852686427
 30
0.0
 11
210.7076087789535
 21
523.9577852686424
 31
0.0
  0
LINE
  5
18992
102
{ACAD_REACTORS
330
18994
102
}
330
A
100
AcDbEntity
  8
MODEL
  6
Continuous
100
AcDbLine
 10
222.4264529305893
 20
364.9577852686427
 30
0.0
 11
222.4264529305893
 21
205.9577852686432
 31
0.0
  0
LINE
  5
18993
102
{ACAD_REACTORS
330
18994
102
}
330
A
100
AcDbEntity
  8
MODEL
  6
Continuous
100
AcDbLine
 10
222.4264529305893
 20
364.9577852686427
 30
0.0
 11
222.4264529305893
 21
523.9577852686424
 31
0.0
  0
LINE
  5
18999
102
{ACAD_REACTORS
330
1899F
102
}
330
A
100
AcDbEntity
  8
MODEL
  6
Continuous
100
AcDbLine
 10
232.9351757937474
 20
364.9577852686427
 30
0.0
 11
232.9351757937474
 21
205.9577852686432
 31
0.0
  0
LINE
  5
1899A
102
{ACAD_REACTORS
330
1899F
102
}
330
A
100
AcDbEntity
  8
MODEL
  6
Continuous
100
AcDbLine
 10
232.9351757937474
 20
364.9577852686427
 30
0.0
 11
232.9351757937474
 21
523.9577852686424
 31
0.0
  0
LINE
  5
1899B
102
{ACAD_REACTORS
330
189A1
102
}
330
A
100
AcDbEntity
  8
MODEL
  6
Continuous
100
AcDbLine
 10
244.6905233305894
 20
364.9577852686427
 30
0.0
 11
244.6905233305894
 21
205.9577852686432
 31
0.0
  0
LINE
  5
1899C
102
{ACAD_REACTORS
330
189A1
102
}
330
A
100
AcDbEntity
  8
MODEL
  6
Continuous
100
AcDbLine
 10
244.6905233305894
 20
364.9577852686427
 30
0.0
 11
244.6905233305894
 21
523.9577852686424
 31
0.0
  0
DIMENSION
  5
189A5
102
{ACAD_XDICTIONARY
360
189A6
102
}
102
{ACAD_REACTORS
330
189A7
102
}
330
A
100
AcDbEntity
  8
DIM
100
AcDbDimension
280
     0
  2
*D49
 10
179.4985403067786
 20
137.6862660083503
 30
0.0
 11
219.4985403067786
 21
147.6862660083503
 31
0.0
 70
    32
 71
     5
 42
79.99999999999985
 73
     0
 74
     0
 75
     0
  3
tfrom線あり
100
AcDbAlignedDimension
 13
259.4985403067786
 23
175.9577852686428
 33
0.0
 14
179.4985403067786
 24
164.9577852686427
 34
0.0
100
AcDbRotatedDimension
  0
DIMENSION
  5
189B4
102
{ACAD_XDICTIONARY
360
189B5
102
}
102
{ACAD_REACTORS
330
189B6
102
}
330
A
100
AcDbEntity
  8
DIM
100
AcDbDimension
280
     0
  2
*D50
 10
169.4985403067786
 20
137.6862660083503
 30
0.0
 11
153.0097945271114
 21
137.6862660083503
 31
0.0
 70
   160
 71
     5
 42
9.999999999999943
 73
     0
 74
     0
 75
     0
  3
tfrom線あり
100
AcDbAlignedDimension
 13
179.4985403067786
 23
164.9577852686423
 33
0.0
 14
169.4985403067786
 24
164.9577852686423
 34
0.0
100
AcDbRotatedDimension
1001
ACAD
1000
DSTYLE
1002
{
1070
   172
1070
     1
1002
}
  0
MTEXT
  5
189D0
330
A
100
AcDbEntity
  8
TEMPLATE
390
1D
100
AcDbMText
 10
39.66064336431923
 20
58.46009337900122
 30
0.0
 40
7.329785156250001
 41
0.0
 46
8.185514888212477
 71
     1
 72
     1
  1
トルクス T20 4x60、プラグ付属\P耐荷重:3kgf
  7
ＭＳ ゴシック
 73
     1
 44
0.900435668891642
1001
ACAD
1000
ACAD_MTEXT_DEFINED_HEIGHT_BEGIN
1070
    46
1040
8.185514888212477
1000
ACAD_MTEXT_DEFINED_HEIGHT_END
  0
LINE
  5
189DD
330
A
100
AcDbEntity
  8
DIM
100
AcDbLine
 10
439.3861703716827
 20
627.9267412863096
 30
0.0
 11
439.3861703716827
 21
507.9620187284215
 31
0.0
  0
CIRCLE
  5
189DE
330
A
100
AcDbEntity
  8
HIDDEN
 48
0.5
100
AcDbCircle
 10
403.3861703716826
 20
534.9577852686423
 30
0.0
 40
3.991429942208866
  0
CIRCLE
  5
189DF
330
A
100
AcDbEntity
  8
HIDDEN
 48
0.5
100
AcDbCircle
 10
439.3861703716829
 20
534.9577852686425
 30
0.0
 40
3.991429942208866
  0
CIRCLE
  5
189E0
330
A
100
AcDbEntity
  8
HIDDEN
 48
0.5
100
AcDbCircle
 10
403.3861703716826
 20
194.9577852686432
 30
0.0
 40
3.991429942208866
  0
CIRCLE
  5
189E1
330
A
100
AcDbEntity
  8
HIDDEN
 48
0.5
100
AcDbCircle
 10
439.3861703716829
 20
194.957785268643
 30
0.0
 40
3.991429942208866
  0
VIEWPORT
  5
349
330
B
100
AcDbEntity
 67
     1
  8
0
348
26C
100
AcDbViewport
 10
202.5
 20
128.5
 30
0.0
 40
486.0
 41
308.4
 68
     1
 69
     1
 12
202.5
 22
128.5
 13
0.0
 23
0.0
 14
0.5
 24
0.5
 15
0.0
 25
0.0
 16
0.0
 26
0.0
 36
1.0
 17
0.0
 27
0.0
 37
0.0
 42
50.0
 43
0.0
 44
0.0
 45
308.4
 50
0.0
 51
0.0
 72
   100
 90
   557152
  1

281
     0
 71
     1
 74
     0
110
0.0
120
0.0
130
0.0
111
1.0
121
0.0
131
0.0
112
0.0
122
1.0
132
0.0
 79
     0
146
0.0
170
     0
 61
     5
292
     1
282
     1
141
0.0
142
0.0
  0
VIEWPORT
  5
34A
330
B
100
AcDbEntity
 67
     1
  8
0
348
26C
100
AcDbViewport
 10
202.5
 20
128.5
 30
0.0
 40
324.0
 41
205.6
 68
     2
 69
     2
 12
986.6781359294572
 22
1427.077061889956
 13
0.0
 23
0.0
 14
0.5
 24
0.5
 15
0.0
 25
0.0
 16
0.0
 26
0.0
 36
1.0
 17
0.0
 27
0.0
 37
0.0
 42
50.0
 43
0.0
 44
0.0
 45
2890.021615685494
 50
0.0
 51
0.0
 72
   100
 90
   557152
  1

281
     0
 71
     1
 74
     0
110
0.0
120
0.0
130
0.0
111
1.0
121
0.0
131
0.0
112
0.0
122
1.0
132
0.0
 79
     0
146
0.0
170
     0
 61
     5
292
     1
282
     1
141
0.0
142
0.0
  0
ENDSEC
  0
SECTION
  2
OBJECTS
  0
DICTIONARY
  5
19
330
0
100
AcDbDictionary
281
     1
  3
ACAD_BACKGROUND
350
189FF
  3
ACAD_CIP_PREVIOUS_PRODUCT_INFO
350
18A03
  3
ACAD_COLOR
350
674
  3
ACAD_DETAILVIEWSTYLE
350
BBF
  3
ACAD_FIELDLIST
350
36B0
  3
ACAD_GROUP
350
1A
  3
ACAD_IMAGE_VARS
350
27B
  3
ACAD_LAYOUT
350
1E
  3
ACAD_MATERIAL
350
263
  3
ACAD_MLEADERSTYLE
350
336
  3
ACAD_MLINESTYLE
350
1B
  3
ACAD_PLOTSETTINGS
350
22
  3
ACAD_PLOTSTYLENAME
350
1F
  3
ACAD_SCALELIST
350
241
  3
ACAD_SECTIONVIEWSTYLE
350
BC0
  3
ACAD_TABLESTYLE
350
278
  3
ACAD_VISUALSTYLE
350
267
  3
ACDB_RECOMPOSE_DATA
350
18A44
  3
AcDbVariableDictionary
350
330
  3
APPDATA
350
27A
  3
ASE_INDEX_DICTIONARY
350
18A15
  3
CENTERLINE
350
366B
  3
DimOffsetDictionary
350
E38
  0
SUN
  5
904
330
15
100
AcDbSun
 90
        1
290
     1
 63
     7
421
 16777215
 40
1.0
291
     1
 91
  2455826
 92
 54000000
292
     0
 70
     0
 71
   256
280
     1
  0
DICTIONARY
  5
2E1
330
2
100
AcDbDictionary
280
     1
281
     1
  3
ACAD_LAYERSTATES
360
2E2
  3
ACLYDICTIONARY
360
DDE
  0
DICTIONARY
  5
18A08
330
14
100
AcDbDictionary
280
     1
281
     1
  3
ADSK_XREC_LAYER_RECONCILED
360
18A09
  0
DICTIONARY
  5
18A0A
330
4B
100
AcDbDictionary
280
     1
281
     1
  3
ADSK_XREC_LAYER_RECONCILED
360
18A0B
  0
DICTIONARY
  5
18A0C
330
4C
100
AcDbDictionary
280
     1
281
     1
  3
ADSK_XREC_LAYER_RECONCILED
360
18A0D
  0
DICTIONARY
  5
18A0E
330
4D
100
AcDbDictionary
280
     1
281
     1
  3
ADSK_XREC_LAYER_RECONCILED
360
18A0F
  0
DICTIONARY
  5
18A10
330
88C
100
AcDbDictionary
280
     1
281
     1
  3
ADSK_XREC_LAYER_RECONCILED
360
18A11
  0
DICTIONARY
  5
18A12
330
D6B
100
AcDbDictionary
280
     1
281
     1
  3
ADSK_XREC_LAYER_RECONCILED
360
18A13
  0
DICTIONARY
  5
1733E
330
A
100
AcDbDictionary
280
     1
281
     1
  3
ACAD_SORTENTS
360
1733F
  0
DICTIONARY
  5
36AE
330
36AC
100
AcDbDictionary
280
     1
281
     1
  3
ACAD_FIELD
360
189D1
  0
DICTIONARY
  5
1870B
330
1870A
100
AcDbDictionary
280
     1
281
     1
  3
ACAD_DIMASSOC
360
1870C
  0
DICTIONARY
  5
187C9
330
187C8
100
AcDbDictionary
280
     1
281
     1
  3
ACAD_DIMASSOC
360
187CA
  0
DICTIONARY
  5
188B3
330
188B2
100
AcDbDictionary
280
     1
281
     1
  3
ACAD_DIMASSOC
360
188B4
  0
DICTIONARY
  5
188C6
330
188C5
100
AcDbDictionary
280
     1
281
     1
  3
ACAD_DIMASSOC
360
188C7
  0
DICTIONARY
  5
189A6
330
189A5
100
AcDbDictionary
280
     1
281
     1
  3
ACAD_DIMASSOC
360
189A7
  0
DICTIONARY
  5
189B5
330
189B4
100
AcDbDictionary
280
     1
281
     1
  3
ACAD_DIMASSOC
360
189B6
  0
DICTIONARY
  5
189FF
102
{ACAD_REACTORS
330
19
102
}
330
19
100
AcDbDictionary
281
     1
  0
XRECORD
  5
18A03
102
{ACAD_REACTORS
330
19
102
}
330
19
100
AcDbXrecord
280
     1
300
ACD
300
2023
300

  0
DICTIONARY
  5
674
102
{ACAD_REACTORS
330
19
102
}
330
19
100
AcDbDictionary
281
     1
  0
DICTIONARY
  5
BBF
102
{ACAD_REACTORS
330
19
102
}
330
19
100
AcDbDictionary
281
     1
  3
Metric50
350
189F9
  0
FIELDLIST
  5
36B0
102
{ACAD_REACTORS
330
19
102
}
330
19
100
AcDbIdSet
 90
        2
330
36B1
330
36AD
100
AcDbFieldList
  0
DICTIONARY
  5
1A
102
{ACAD_REACTORS
330
19
102
}
330
19
100
AcDbDictionary
281
     1
  3
*A1
350
1730A
  3
*A2
350
18995
  3
*A3
350
1899F
  3
*A4
350
189A1
  3
*A5
350
1896A
  3
*A6
350
18985
  3
*A7
350
1898C
  3
*A8
350
1898F
  3
*A9
350
18994
  0
RASTERVARIABLES
  5
27B
102
{ACAD_REACTORS
330
19
102
}
330
19
100
AcDbRasterVariables
 90
        0
 70
     1
 71
     1
 72
     1
  0
DICTIONARY
  5
1E
102
{ACAD_REACTORS
330
19
102
}
330
19
100
AcDbDictionary
281
     1
  3
Layout1
350
21
  3
Model
350
20
  0
DICTIONARY
  5
263
102
{ACAD_REACTORS
330
19
102
}
330
19
100
AcDbDictionary
281
     1
  3
ByBlock
350
265
  3
ByLayer
350
264
  3
Global
350
266
  0
DICTIONARY
  5
336
102
{ACAD_REACTORS
330
19
102
}
330
19
100
AcDbDictionary
281
     1
  3
Standard
350
D59
  0
DICTIONARY
  5
1B
102
{ACAD_REACTORS
330
19
102
}
330
19
100
AcDbDictionary
281
     1
  3
Standard
350
1C
  0
DICTIONARY
  5
22
102
{ACAD_REACTORS
330
19
102
}
330
19
100
AcDbDictionary
281
     1
  0
ACDBDICTIONARYWDFLT
  5
1F
102
{ACAD_REACTORS
330
19
102
}
330
19
100
AcDbDictionary
281
     1
  3
Normal
350
1D
100
AcDbDictionaryWithDefault
340
1D
  0
DICTIONARY
  5
241
102
{ACAD_REACTORS
330
19
102
}
330
19
100
AcDbDictionary
281
     1
  3
A0
350
242
  3
A1
350
243
  3
A2
350
244
  3
A3
350
245
  3
A4
350
246
  3
A5
350
247
  3
A6
350
248
  3
A7
350
249
  3
A8
350
24A
  3
A9
350
24B
  3
B0
350
24C
  3
B1
350
24D
  3
B2
350
24E
  3
B3
350
24F
  3
B4
350
250
  3
B5
350
251
  3
B6
350
252
  3
B7
350
253
  3
B8
350
254
  3
B9
350
255
  3
C0
350
256
  3
C1
350
257
  3
C2
350
258
  3
C3
350
259
  3
C4
350
25A
  3
C5
350
25B
  3
C6
350
25C
  3
C7
350
25D
  3
C8
350
25E
  3
C9
350
25F
  3
D0
350
260
  3
D1
350
261
  3
D2
350
262
  0
DICTIONARY
  5
BC0
102
{ACAD_REACTORS
330
19
102
}
330
19
100
AcDbDictionary
281
     1
  3
Metric50
350
189F8
  0
DICTIONARY
  5
278
102
{ACAD_REACTORS
330
19
102
}
330
19
100
AcDbDictionary
281
     1
  3
Standard
350
279
  0
DICTIONARY
  5
267
102
{ACAD_REACTORS
330
19
102
}
330
19
100
AcDbDictionary
281
     1
  3
*A1
350
3666
  3
2dWireframe
350
26C
  3
3D Hidden
350
26E
  3
3dWireframe
350
26D
  3
Basic
350
26F
  3
Brighten
350
273
  3
ColorChange
350
277
  3
Conceptual
350
271
  3
Dim
350
272
  3
EdgeColorOff
350
8FE
  3
Facepattern
350
276
  3
Flat
350
268
  3
FlatWithEdges
350
269
  3
Gouraud
350
26A
  3
GouraudWithEdges
350
26B
  3
Hidden
350
8FB
  3
JitterOff
350
8FC
  3
Linepattern
350
275
  3
OverhangOff
350
8FD
  3
Realistic
350
270
  3
Shaded
350
903
  3
Shaded with edges
350
902
  3
Shades of Gray
350
8FF
  3
Sketchy
350
900
  3
Thicken
350
274
  3
Wireframe
350
8FA
  3
X-Ray
350
901
  0
XRECORD
  5
18A44
102
{ACAD_REACTORS
330
19
102
}
330
19
100
AcDbXrecord
280
     1
 90
        1
330
279
  0
DICTIONARY
  5
330
102
{ACAD_REACTORS
330
19
102
}
330
19
100
AcDbDictionary
281
     1
  3
CANNOSCALE
350
331
  3
CMLEADERSTYLE
350
D5E
  3
CTABLESTYLE
350
335
  3
CVIEWDETAILSTYLE
350
18A1F
  3
CVIEWSECTIONSTYLE
350
18A20
  3
HPTRANSPARENCY
350
D52
  3
LAYEREVAL
350
18A21
  3
LAYERNOTIFY
350
18A22
  0
DICTIONARY
  5
27A
102
{ACAD_REACTORS
330
19
102
}
330
19
100
AcDbDictionary
281
     1
  0
DICTIONARY
  5
18A15
102
{ACAD_REACTORS
330
19
102
}
330
19
100
AcDbDictionary
281
     1
  3
ASEBlockHierarchyIndexRecord
350
18A17
1001
DCO15
1040
2109303308.0
  0
DICTIONARY
  5
366B
102
{ACAD_REACTORS
330
19
102
}
330
19
100
AcDbDictionary
281
     1
  3
CLEXTENSION
350
36AB
  0
DICTIONARY
  5
E38
102
{ACAD_REACTORS
330
19
102
}
330
19
100
AcDbDictionary
281
     1
  3
DIMRAILANGLE
350
36A9
  3
DIMRAILFIRSTOFFSET
350
36A7
  3
DIMRAILOFFSET
350
36A8
  3
DIMRAILSENABLED
350
36AA
  0
DICTIONARY
  5
2E2
102
{ACAD_REACTORS
330
2E1
102
}
330
2E1
100
AcDbDictionary
281
     1
  0
DICTIONARY
  5
DDE
102
{ACAD_REACTORS
330
2E1
102
}
330
2E1
100
AcDbDictionary
281
     1
1001
ACAD
1000
<All
  0
XRECORD
  5
18A09
102
{ACAD_REACTORS
330
18A08
102
}
330
18A08
100
AcDbXrecord
280
     1
290
     1
  0
XRECORD
  5
18A0B
102
{ACAD_REACTORS
330
18A0A
102
}
330
18A0A
100
AcDbXrecord
280
     1
290
     1
  0
XRECORD
  5
18A0D
102
{ACAD_REACTORS
330
18A0C
102
}
330
18A0C
100
AcDbXrecord
280
     1
290
     1
  0
XRECORD
  5
18A0F
102
{ACAD_REACTORS
330
18A0E
102
}
330
18A0E
100
AcDbXrecord
280
     1
290
     1
  0
XRECORD
  5
18A11
102
{ACAD_REACTORS
330
18A10
102
}
330
18A10
100
AcDbXrecord
280
     1
290
     1
  0
XRECORD
  5
18A13
102
{ACAD_REACTORS
330
18A12
102
}
330
18A12
100
AcDbXrecord
280
     1
290
     1
  0
SORTENTSTABLE
  5
1733F
102
{ACAD_REACTORS
330
1733E
102
}
330
1733E
100
AcDbSortentsTable
330
A
331
172F9
  5
172B7
331
172FA
  5
172F8
331
17305
  5
172F9
331
17306
  5
172FA
331
17307
  5
17305
331
17308
  5
17306
331
17309
  5
17307
331
17353
  5
1734E
  0
DICTIONARY
  5
189D1
102
{ACAD_REACTORS
330
36AE
102
}
330
36AE
100
AcDbDictionary
280
     1
281
     1
  3
TEXT
360
36AD
  0
DIMASSOC
  5
1870C
102
{ACAD_REACTORS
330
1870B
102
}
330
1870B
100
AcDbDimAssoc
330
1870A
 90
        3
 70
     0
 71
     1
  1
AcDbOsnapPointRef
 72
     1
331
186F3
 73
     0
 91
        0
 40
0.0
 10
0.0
 20
0.0
 30
0.0
 75
     0
  1
AcDbOsnapPointRef
 72
    13
331
186F5
 73
     0
 91
        0
 40
0.0
 10
0.0
 20
0.0
 30
0.0
 75
     0
  0
DIMASSOC
  5
187CA
102
{ACAD_REACTORS
330
187C9
102
}
330
187C9
100
AcDbDimAssoc
330
187C8
 90
        1
 70
     0
 71
     1
  1
AcDbOsnapPointRef
 72
    13
331
186CE
 73
     0
 91
        0
 40
0.0
 10
0.0
 20
0.0
 30
0.0
 75
     0
  0
DIMASSOC
  5
188B4
102
{ACAD_REACTORS
330
188B3
102
}
330
188B3
100
AcDbDimAssoc
330
188B2
 90
        3
 70
     0
 71
     1
  1
AcDbOsnapPointRef
 72
    13
331
1865D
 73
     0
 91
        0
 40
0.0
 10
0.0
 20
0.0
 30
0.0
 75
     0
  1
AcDbOsnapPointRef
 72
     1
331
1865D
 73
     0
 91
        0
 40
0.0
 10
0.0
 20
0.0
 30
0.0
 75
     0
  0
DIMASSOC
  5
188C7
102
{ACAD_REACTORS
330
188C6
102
}
330
188C6
100
AcDbDimAssoc
330
188C5
 90
        0
 70
     0
 71
     1
  0
DIMASSOC
  5
189A7
102
{ACAD_REACTORS
330
189A6
102
}
330
189A6
100
AcDbDimAssoc
330
189A5
 90
        2
 70
     0
 71
     1
  1
AcDbOsnapPointRef
 72
     1
331
188D8
 73
     0
 91
        0
 40
0.0
 10
0.0
 20
0.0
 30
0.0
 75
     0
  0
DIMASSOC
  5
189B6
102
{ACAD_REACTORS
330
189B5
102
}
330
189B5
100
AcDbDimAssoc
330
189B4
 90
        3
 70
     0
 71
     1
  1
AcDbOsnapPointRef
 72
    13
331
188D6
 73
     0
 91
        0
 40
0.0
 10
0.0
 20
0.0
 30
0.0
 75
     0
  1
AcDbOsnapPointRef
 72
     1
331
188D6
 73
     0
 91
        0
 40
0.0
 10
0.0
 20
0.0
 30
0.0
 75
     0
  0
ACDBDETAILVIEWSTYLE
  5
189F9
102
{ACAD_REACTORS
330
BBF
102
}
330
BBF
100
AcDbModelDocViewStyle
 70
     0
  3
Metric50
290
     0
300
Metric50
 90
        0
100
AcDbDetailViewStyle
 70
     0
 71
     0
 90
        3
 71
     1
340
17
 62
   256
 40
5.0
340
0
 62
   256
 40
5.0
300

 40
0.0
280
     1
 71
     2
340
13
 90
       25
 62
   256
 71
     3
340
17
 62
   256
 40
5.0
 90
        0
 40
15.0
 90
        1
300
%<\AcVar ViewDetailId>% (%<\AcVar ViewScale \f "%sn">%)
 71
     4
340
13
 90
       25
 62
   256
340
13
 90
       25
 62
   256
280
     0
  0
GROUP
  5
1730A
102
{ACAD_REACTORS
330
1A
102
}
330
1A
100
AcDbGroup
300

 70
     1
 71
     1
340
172F9
340
172FA
340
17305
340
17306
340
17307
340
17308
340
17309
  0
GROUP
  5
18995
102
{ACAD_REACTORS
330
1A
102
}
330
1A
100
AcDbGroup
300

 70
     1
 71
     1
340
18990
340
18991
  0
GROUP
  5
1899F
102
{ACAD_REACTORS
330
1A
102
}
330
1A
100
AcDbGroup
300

 70
     1
 71
     1
340
18999
340
1899A
  0
GROUP
  5
189A1
102
{ACAD_REACTORS
330
1A
102
}
330
1A
100
AcDbGroup
300

 70
     1
 71
     1
340
1899B
340
1899C
  0
GROUP
  5
1896A
102
{ACAD_REACTORS
330
1A
102
}
330
1A
100
AcDbGroup
300

 70
     1
 71
     1
340
18950
340
18951
340
18952
340
18953
340
18954
340
18955
340
18956
340
18957
340
18958
340
18959
340
1895A
340
1895B
340
1895C
340
1895D
340
1895E
340
1895F
340
18960
340
18961
340
18962
340
18963
340
18964
340
18965
340
18966
340
18967
340
18968
340
18969
  0
GROUP
  5
18985
102
{ACAD_REACTORS
330
1A
102
}
330
1A
100
AcDbGroup
300

 70
     1
 71
     1
340
1896B
340
1896C
340
1896D
340
1896E
340
1896F
340
18970
340
18971
340
18972
340
18973
340
18974
340
18975
340
18976
340
18977
340
18978
340
18979
340
1897A
340
1897B
340
1897C
340
1897D
340
1897E
340
1897F
340
18980
340
18981
340
18982
340
18983
340
18984
  0
GROUP
  5
1898C
102
{ACAD_REACTORS
330
1A
102
}
330
1A
100
AcDbGroup
300

 70
     1
 71
     1
340
1867C
340
188F0
  0
GROUP
  5
1898F
102
{ACAD_REACTORS
330
1A
102
}
330
1A
100
AcDbGroup
300

 70
     1
 71
     1
340
1898D
340
1898E
  0
GROUP
  5
18994
102
{ACAD_REACTORS
330
1A
102
}
330
1A
100
AcDbGroup
300

 70
     1
 71
     1
340
18992
340
18993
  0
LAYOUT
  5
21
102
{ACAD_REACTORS
330
1E
102
}
330
1E
100
AcDbPlotSettings
  1

  2
none_device
  4
ISO_A3_(420.00_x_297.00_MM)
  6

 40
7.5
 41
20.0
 42
7.5
 43
20.0
 44
420.0
 45
297.0
 46
0.0
 47
0.0
 48
0.0
 49
0.0
140
0.0
141
0.0
142
1.0
143
1.0
 70
     0
 72
     1
 73
     0
 74
     0
  7

 75
     0
147
1.0
 76
     0
 77
     2
 78
   300
148
0.0
149
0.0
100
AcDbLayout
  1
Layout1
 70
     0
 71
     1
 10
-7.5
 20
-20.0
 11
412.5
 21
277.0
 12
0.0
 22
0.0
 32
0.0
 14
0.0
 24
0.0
 34
0.0
 15
0.0
 25
0.0
 35
0.0
146
0.0
 13
0.0
 23
0.0
 33
0.0
 16
1.0
 26
0.0
 36
0.0
 17
0.0
 27
1.0
 37
0.0
 76
     0
330
B
331
349
  0
LAYOUT
  5
20
102
{ACAD_REACTORS
330
1E
102
}
330
1E
100
AcDbPlotSettings
  1

  2
Adobe PDF
  4
A4
  6

 40
0.0
 41
0.010498046875
 42
0.0901641845703125
 43
0.0
 44
210.0
 45
297.0
 46
0.0
 47
0.0585099356515002
 48
0.0
 49
0.0
140
0.0
141
0.0
142
1.0
143
3.001288613049789
 70
  3764
 72
     1
 73
     0
 74
     2
  7
monochrome.ctb
 75
     0
147
0.3331902155800471
 76
     0
 77
     4
 78
   300
148
0.0
149
0.0
100
AcDbLayout
  1
Model
 70
     0
 71
     0
 10
0.0
 20
0.0
 11
630.0
 21
891.0
 12
0.0
 22
0.0
 32
0.0
 14
0.0
 24
0.0
 34
-0.0000000000000071
 15
630.0
 25
891.0
 35
0.0000000000000142
146
0.0
 13
0.0
 23
0.0
 33
0.0
 16
0.0
 26
0.0
 36
0.0
 17
0.0
 27
0.0
 37
0.0
 76
     0
330
A
331
15
1001
ACAD_PSEXT
1000
Adobe PDF
1000
Adobe PDF Converter
1000
Documents\*.pdf
1000

1070
     0
  0
MATERIAL
  5
265
102
{ACAD_REACTORS
330
263
102
}
330
263
100
AcDbMaterial
  1
ByBlock
  0
MATERIAL
  5
264
102
{ACAD_REACTORS
330
263
102
}
330
263
100
AcDbMaterial
  1
ByLayer
  0
MATERIAL
  5
266
102
{ACAD_REACTORS
330
263
102
}
330
263
100
AcDbMaterial
  1
Global
  0
MLEADERSTYLE
  5
D59
102
{ACAD_REACTORS
330
336
102
}
330
336
100
AcDbMLeaderStyle
179
     2
170
     2
171
     1
172
     0
 90
        2
 40
0.0
 41
0.0
173
     1
 91
-1056964608
340
11
 92
       -2
290
     1
 42
2.0
291
     1
 43
8.0
  3
Standard
 44
4.0
300

342
17
174
     1
178
     6
175
     1
176
     0
 93
-1056964608
 45
4.0
292
     0
297
     0
 46
4.0
 94
-1056964608
 47
1.0
 49
1.0
140
1.0
293
     1
141
0.0
294
     1
177
     0
142
1.0
295
     0
296
     0
143
3.75
271
     0
272
     9
273
     9
298
     0
1001
ACAD_MLEADERVER
1070
     2
  0
MLINESTYLE
  5
1C
102
{ACAD_REACTORS
330
1B
102
}
330
1B
100
AcDbMlineStyle
  2
STANDARD
 70
     0
  3

 62
     0
 51
90.0
 52
90.0
 71
     2
 49
0.5
 62
   256
  6
BYLAYER
 49
-0.5
 62
   256
  6
BYLAYER
  0
ACDBPLACEHOLDER
  5
1D
102
{ACAD_REACTORS
330
1F
102
}
330
1F
  0
SCALE
  5
242
102
{ACAD_REACTORS
330
241
102
}
330
241
100
AcDbScale
 70
     0
300
1:1
140
1.0
141
1.0
290
     1
  0
SCALE
  5
243
102
{ACAD_REACTORS
330
241
102
}
330
241
100
AcDbScale
 70
     0
300
1:2
140
1.0
141
2.0
290
     0
  0
SCALE
  5
244
102
{ACAD_REACTORS
330
241
102
}
330
241
100
AcDbScale
 70
     0
300
1:4
140
1.0
141
4.0
290
     0
  0
SCALE
  5
245
102
{ACAD_REACTORS
330
241
102
}
330
241
100
AcDbScale
 70
     0
300
1:5
140
1.0
141
5.0
290
     0
  0
SCALE
  5
246
102
{ACAD_REACTORS
330
241
102
}
330
241
100
AcDbScale
 70
     0
300
1:8
140
1.0
141
8.0
290
     0
  0
SCALE
  5
247
102
{ACAD_REACTORS
330
241
102
}
330
241
100
AcDbScale
 70
     0
300
1:10
140
1.0
141
10.0
290
     0
  0
SCALE
  5
248
102
{ACAD_REACTORS
330
241
102
}
330
241
100
AcDbScale
 70
     0
300
1:16
140
1.0
141
16.0
290
     0
  0
SCALE
  5
249
102
{ACAD_REACTORS
330
241
102
}
330
241
100
AcDbScale
 70
     0
300
1:20
140
1.0
141
20.0
290
     0
  0
SCALE
  5
24A
102
{ACAD_REACTORS
330
241
102
}
330
241
100
AcDbScale
 70
     0
300
1:30
140
1.0
141
30.0
290
     0
  0
SCALE
  5
24B
102
{ACAD_REACTORS
330
241
102
}
330
241
100
AcDbScale
 70
     0
300
1:40
140
1.0
141
40.0
290
     0
  0
SCALE
  5
24C
102
{ACAD_REACTORS
330
241
102
}
330
241
100
AcDbScale
 70
     0
300
1:50
140
1.0
141
50.0
290
     0
  0
SCALE
  5
24D
102
{ACAD_REACTORS
330
241
102
}
330
241
100
AcDbScale
 70
     0
300
1:100
140
1.0
141
100.0
290
     0
  0
SCALE
  5
24E
102
{ACAD_REACTORS
330
241
102
}
330
241
100
AcDbScale
 70
     0
300
2:1
140
2.0
141
1.0
290
     0
  0
SCALE
  5
24F
102
{ACAD_REACTORS
330
241
102
}
330
241
100
AcDbScale
 70
     0
300
4:1
140
4.0
141
1.0
290
     0
  0
SCALE
  5
250
102
{ACAD_REACTORS
330
241
102
}
330
241
100
AcDbScale
 70
     0
300
8:1
140
8.0
141
1.0
290
     0
  0
SCALE
  5
251
102
{ACAD_REACTORS
330
241
102
}
330
241
100
AcDbScale
 70
     0
300
10:1
140
10.0
141
1.0
290
     0
  0
SCALE
  5
252
102
{ACAD_REACTORS
330
241
102
}
330
241
100
AcDbScale
 70
     0
300
100:1
140
100.0
141
1.0
290
     0
  0
SCALE
  5
253
102
{ACAD_REACTORS
330
241
102
}
330
241
100
AcDbScale
 70
     0
300
1/128" = 1'-0"
140
0.0078125
141
12.0
290
     0
  0
SCALE
  5
254
102
{ACAD_REACTORS
330
241
102
}
330
241
100
AcDbScale
 70
     0
300
1/64" = 1'-0"
140
0.015625
141
12.0
290
     0
  0
SCALE
  5
255
102
{ACAD_REACTORS
330
241
102
}
330
241
100
AcDbScale
 70
     0
300
1/32" = 1'-0"
140
0.03125
141
12.0
290
     0
  0
SCALE
  5
256
102
{ACAD_REACTORS
330
241
102
}
330
241
100
AcDbScale
 70
     0
300
1/16" = 1'-0"
140
0.0625
141
12.0
290
     0
  0
SCALE
  5
257
102
{ACAD_REACTORS
330
241
102
}
330
241
100
AcDbScale
 70
     0
300
3/32" = 1'-0"
140
0.09375
141
12.0
290
     0
  0
SCALE
  5
258
102
{ACAD_REACTORS
330
241
102
}
330
241
100
AcDbScale
 70
     0
300
1/8" = 1'-0"
140
0.125
141
12.0
290
     0
  0
SCALE
  5
259
102
{ACAD_REACTORS
330
241
102
}
330
241
100
AcDbScale
 70
     0
300
3/16" = 1'-0"
140
0.1875
141
12.0
290
     0
  0
SCALE
  5
25A
102
{ACAD_REACTORS
330
241
102
}
330
241
100
AcDbScale
 70
     0
300
1/4" = 1'-0"
140
0.25
141
12.0
290
     0
  0
SCALE
  5
25B
102
{ACAD_REACTORS
330
241
102
}
330
241
100
AcDbScale
 70
     0
300
3/8" = 1'-0"
140
0.375
141
12.0
290
     0
  0
SCALE
  5
25C
102
{ACAD_REACTORS
330
241
102
}
330
241
100
AcDbScale
 70
     0
300
1/2" = 1'-0"
140
0.5
141
12.0
290
     0
  0
SCALE
  5
25D
102
{ACAD_REACTORS
330
241
102
}
330
241
100
AcDbScale
 70
     0
300
3/4" = 1'-0"
140
0.75
141
12.0
290
     0
  0
SCALE
  5
25E
102
{ACAD_REACTORS
330
241
102
}
330
241
100
AcDbScale
 70
     0
300
1" = 1'-0"
140
1.0
141
12.0
290
     0
  0
SCALE
  5
25F
102
{ACAD_REACTORS
330
241
102
}
330
241
100
AcDbScale
 70
     0
300
1-1/2" = 1'-0"
140
1.5
141
12.0
290
     0
  0
SCALE
  5
260
102
{ACAD_REACTORS
330
241
102
}
330
241
100
AcDbScale
 70
     0
300
3" = 1'-0"
140
3.0
141
12.0
290
     0
  0
SCALE
  5
261
102
{ACAD_REACTORS
330
241
102
}
330
241
100
AcDbScale
 70
     0
300
6" = 1'-0"
140
6.0
141
12.0
290
     0
  0
SCALE
  5
262
102
{ACAD_REACTORS
330
241
102
}
330
241
100
AcDbScale
 70
     0
300
1'-0" = 1'-0"
140
12.0
141
12.0
290
     0
  0
ACDBSECTIONVIEWSTYLE
  5
189F8
102
{ACAD_REACTORS
330
BC0
102
}
330
BC0
100
AcDbModelDocViewStyle
 70
     0
  3
Metric50
290
     0
300
Metric50
 90
        0
100
AcDbSectionViewStyle
 70
     0
 71
     0
 90
      102
 71
     1
340
17
 62
   256
 40
5.0
340
0
340
0
 62
   256
 40
5.0
300
I, O, Q, S, X, Z
 40
10.0
 90
        0
 40
2.5
 90
        0
 71
     2
340
13
 90
       25
 62
   256
340
13
 90
       50
 62
   256
 40
5.0
 40
2.5
 40
5.0
 71
     3
340
17
 62
   256
 40
5.0
 90
        0
 40
15.0
 90
        1
300
%<\AcVar ViewSectionStartId>%-%<\AcVar ViewSectionEndId>% (%<\AcVar ViewScale \f "%sn">%)
 71
     4
 62
   256
 62
   257
300
ANSI31
 40
1.0
 90
        0
290
     0
290
     0
 90
        6
 40
0.0
 40
1.570796326794896
 40
0.2617993877991494
 40
1.308996938995747
 40
-0.2617993877991494
 40
1.832595714594046
  0
TABLESTYLE
  5
279
102
{ACAD_XDICTIONARY
360
189F0
102
}
102
{ACAD_REACTORS
330
278
102
}
330
278
100
AcDbTableStyle
280
     0
  3
Standard
 70
     0
 71
     0
 40
0.06
 41
0.06
280
     0
281
     0
  7
Standard
140
4.5
170
     2
 62
     0
 63
     7
283
     0
 90
        4
 91
        0
  1

274
    -2
284
     1
 64
     0
275
    -2
285
     1
 65
     0
276
    -2
286
     1
 66
     0
277
    -2
287
     1
 67
     0
278
    -2
288
     1
 68
     0
279
    -2
289
     1
 69
     0
  7
Standard
140
6.0
170
     5
 62
     0
 63
     7
283
     0
 90
        4
 91
        0
  1

274
    -2
284
     1
 64
     0
275
    -2
285
     1
 65
     0
276
    -2
286
     1
 66
     0
277
    -2
287
     1
 67
     0
278
    -2
288
     1
 68
     0
279
    -2
289
     1
 69
     0
  7
Standard
140
4.5
170
     5
 62
     0
 63
     7
283
     0
 90
        4
 91
        0
  1

274
    -2
284
     1
 64
     0
275
    -2
285
     1
 65
     0
276
    -2
286
     1
 66
     0
277
    -2
287
     1
 67
     0
278
    -2
288
     1
 68
     0
279
    -2
289
     1
 69
     0
  0
VISUALSTYLE
  5
3666
102
{ACAD_REACTORS
330
267
102
}
330
267
100
AcDbVisualStyle
  2

 70
    10
177
     3
291
     0
 70
    58
 90
        0
176
     1
 90
        2
176
     1
 90
        0
176
     1
 90
        0
176
     1
 40
0.6
176
     1
 40
30.0
176
     1
 62
     7
420
 16777215
176
     1
 90
        1
176
     1
 90
        4
176
     1
 62
     7
176
     1
 62
   257
176
     1
 90
        1
176
     1
 90
        1
176
     1
 40
1.0
176
     1
 90
        8
176
     1
 62
     7
176
     1
 40
1.0
176
     1
 90
        1
176
     1
 90
        6
176
     1
 90
        2
176
     1
 62
     7
176
     1
 90
        5
176
     1
 90
        0
176
     1
 90
        0
176
     1
290
     0
176
     1
 90
        1
176
     1
 40
0.0
176
     1
 90
        0
176
     1
290
     0
176
     1
290
     1
176
     1
290
     1
176
     1
290
     0
176
     1
290
     0
176
     1
290
     0
176
     1
290
     0
176
     1
290
     0
176
     1
290
     0
176
     1
 90
       50
176
     1
 40
0.0
176
     1
 40
1.0
176
     1
 90
        0
176
     1
 62
    18
420
        0
176
     1
 90
       50
176
     1
 90
        3
176
     1
 62
     5
420
      255
176
     1
290
     0
176
     1
 90
       50
176
     1
 90
       50
176
     1
 90
       50
176
     1
290
     0
176
     1
 90
       50
176
     1
 62
   256
176
     0
 40
1.0
176
     0
 90
        2
176
     1
  1
strokes_ogs.tif
176
     1
290
     0
176
     1
 40
1.0
176
     1
 40
1.0
176
     1
  0
VISUALSTYLE
  5
26C
102
{ACAD_REACTORS
330
267
102
}
330
267
100
AcDbVisualStyle
  2

 70
     4
177
     3
291
     0
 70
    58
 90
        0
176
     1
 90
        2
176
     1
 90
        0
176
     1
 90
        0
176
     1
 40
0.6
176
     1
 40
30.0
176
     1
 62
     7
420
 16777215
176
     1
 90
        1
176
     1
 90
        4
176
     1
 62
     7
176
     1
 62
   257
176
     1
 90
        1
176
     1
 90
        1
176
     1
 40
1.0
176
     1
 90
        0
176
     1
 62
   257
176
     1
 40
1.0
176
     1
 90
        1
176
     1
 90
        6
176
     1
 90
        2
176
     1
 62
     7
176
     1
 90
        5
176
     1
 90
        0
176
     1
 90
        0
176
     1
290
     0
176
     1
 90
        1
176
     1
 40
0.0
176
     1
 90
        0
176
     1
290
     1
176
     1
290
     1
176
     1
290
     0
176
     1
290
     0
176
     1
290
     0
176
     1
290
     0
176
     1
290
     0
176
     1
290
     0
176
     1
290
     0
176
     1
 90
       50
176
     1
 40
0.0
176
     1
 40
1.0
176
     1
 90
        0
176
     1
 62
    18
420
        0
176
     1
 90
       50
176
     1
 90
        3
176
     1
 62
     5
420
      255
176
     1
290
     0
176
     1
 90
       50
176
     1
 90
       50
176
     1
 90
       50
176
     1
290
     0
176
     1
 90
       50
176
     1
 62
   256
176
     0
 40
1.0
176
     0
 90
        2
176
     1
  1
strokes_ogs.tif
176
     1
290
     0
176
     1
 40
1.0
176
     1
 40
1.0
176
     1
  0
VISUALSTYLE
  5
26E
102
{ACAD_REACTORS
330
267
102
}
330
267
100
AcDbVisualStyle
  2

 70
     6
177
     3
291
     0
 70
    58
 90
        1
176
     1
 90
        2
176
     1
 90
        2
176
     1
 90
        0
176
     1
 40
0.6
176
     1
 40
30.0
176
     1
 62
     7
420
 16777215
176
     1
 90
        2
176
     1
 90
        2
176
     1
 62
     7
176
     1
 62
   257
176
     1
 90
        2
176
     1
 90
        1
176
     1
 40
40.0
176
     1
 90
        0
176
     1
 62
   257
176
     1
 40
1.0
176
     1
 90
        1
176
     1
 90
        6
176
     1
 90
        2
176
     1
 62
     7
176
     1
 90
        3
176
     1
 90
        0
176
     1
 90
        0
176
     1
290
     0
176
     1
 90
        1
176
     1
 40
0.0
176
     1
 90
        0
176
     1
290
     0
176
     1
290
     1
176
     1
290
     1
176
     1
290
     0
176
     1
290
     0
176
     1
290
     0
176
     1
290
     0
176
     1
290
     0
176
     1
290
     0
176
     1
 90
       50
176
     1
 40
0.0
176
     1
 40
1.0
176
     1
 90
        0
176
     1
 62
    18
420
        0
176
     1
 90
       50
176
     1
 90
        3
176
     1
 62
     5
420
      255
176
     1
290
     0
176
     1
 90
       50
176
     1
 90
       50
176
     1
 90
       50
176
     1
290
     0
176
     1
 90
       50
176
     1
 62
   256
176
     0
 40
1.0
176
     0
 90
        2
176
     1
  1
strokes_ogs.tif
176
     1
290
     0
176
     1
 40
1.0
176
     1
 40
1.0
176
     1
  0
VISUALSTYLE
  5
26D
102
{ACAD_REACTORS
330
267
102
}
330
267
100
AcDbVisualStyle
  2

 70
     5
177
     3
291
     0
 70
    58
 90
        0
176
     1
 90
        2
176
     1
 90
        0
176
     1
 90
        0
176
     1
 40
0.6
176
     1
 40
30.0
176
     1
 62
     7
420
 16777215
176
     1
 90
        1
176
     1
 90
        4
176
     1
 62
     7
176
     1
 62
   257
176
     1
 90
        1
176
     1
 90
        1
176
     1
 40
1.0
176
     1
 90
        0
176
     1
 62
   257
176
     1
 40
1.0
176
     1
 90
        1
176
     1
 90
        6
176
     1
 90
        2
176
     1
 62
     7
176
     1
 90
        5
176
     1
 90
        0
176
     1
 90
        0
176
     1
290
     0
176
     1
 90
        1
176
     1
 40
0.0
176
     1
 90
        0
176
     1
290
     0
176
     1
290
     1
176
     1
290
     1
176
     1
290
     0
176
     1
290
     0
176
     1
290
     0
176
     1
290
     0
176
     1
290
     0
176
     1
290
     0
176
     1
 90
       50
176
     1
 40
0.0
176
     1
 40
1.0
176
     1
 90
        0
176
     1
 62
    18
420
        0
176
     1
 90
       50
176
     1
 90
        3
176
     1
 62
     5
420
      255
176
     1
290
     0
176
     1
 90
       50
176
     1
 90
       50
176
     1
 90
       50
176
     1
290
     0
176
     1
 90
       50
176
     1
 62
   256
176
     0
 40
1.0
176
     0
 90
        2
176
     1
  1
strokes_ogs.tif
176
     1
290
     0
176
     1
 40
1.0
176
     1
 40
1.0
176
     1
  0
VISUALSTYLE
  5
26F
102
{ACAD_REACTORS
330
267
102
}
330
267
100
AcDbVisualStyle
  2

 70
     7
177
     3
291
     1
 70
    58
 90
        1
176
     1
 90
        0
176
     1
 90
        1
176
     1
 90
        0
176
     1
 40
0.6
176
     1
 40
30.0
176
     1
 62
     7
420
 16777215
176
     1
 90
        0
176
     1
 90
        4
176
     1
 62
     7
176
     1
 62
   257
176
     1
 90
        1
176
     1
 90
        1
176
     1
 40
1.0
176
     1
 90
        8
176
     1
 62
     7
176
     1
 40
1.0
176
     1
 90
        1
176
     1
 90
        6
176
     1
 90
        2
176
     1
 62
     7
176
     1
 90
        5
176
     1
 90
        0
176
     1
 90
        0
176
     1
290
     0
176
     1
 90
        1
176
     1
 40
0.0
176
     1
 90
        0
176
     1
290
     0
176
     1
290
     1
176
     1
290
     1
176
     1
290
     0
176
     1
290
     0
176
     1
290
     0
176
     1
290
     0
176
     1
290
     0
176
     1
290
     0
176
     1
 90
       50
176
     1
 40
0.0
176
     1
 40
1.0
176
     1
 90
        0
176
     1
 62
    18
420
        0
176
     1
 90
       50
176
     1
 90
        3
176
     1
 62
     5
420
      255
176
     1
290
     0
176
     1
 90
       50
176
     1
 90
       50
176
     1
 90
       50
176
     1
290
     0
176
     1
 90
       50
176
     1
 62
   256
176
     0
 40
1.0
176
     0
 90
        2
176
     1
  1
strokes_ogs.tif
176
     1
290
     0
176
     1
 40
1.0
176
     1
 40
1.0
176
     1
  0
VISUALSTYLE
  5
273
102
{ACAD_REACTORS
330
267
102
}
330
267
100
AcDbVisualStyle
  2

 70
    12
177
     3
291
     1
 70
    58
 90
        2
176
     1
 90
        2
176
     1
 90
        0
176
     1
 90
        0
176
     1
 40
0.6
176
     1
 40
30.0
176
     1
 62
     7
420
 16777215
176
     1
 90
        1
176
     1
 90
        4
176
     1
 62
     7
176
     1
 62
   257
176
     1
 90
        1
176
     1
 90
        1
176
     1
 40
1.0
176
     1
 90
        8
176
     1
 62
     7
176
     1
 40
1.0
176
     1
 90
        1
176
     1
 90
        6
176
     1
 90
        2
176
     1
 62
     7
176
     1
 90
        5
176
     1
 90
        0
176
     1
 90
        0
176
     1
290
     0
176
     1
 90
        1
176
     1
 40
50.0
176
     1
 90
        0
176
     1
290
     0
176
     1
290
     1
176
     1
290
     1
176
     1
290
     0
176
     1
290
     0
176
     1
290
     0
176
     1
290
     0
176
     1
290
     0
176
     1
290
     0
176
     1
 90
       50
176
     1
 40
0.0
176
     1
 40
1.0
176
     1
 90
        0
176
     1
 62
    18
420
        0
176
     1
 90
       50
176
     1
 90
        3
176
     1
 62
     5
420
      255
176
     1
290
     0
176
     1
 90
       50
176
     1
 90
       50
176
     1
 90
       50
176
     1
290
     0
176
     1
 90
       50
176
     1
 62
   256
176
     0
 40
1.0
176
     0
 90
        2
176
     1
  1
strokes_ogs.tif
176
     1
290
     0
176
     1
 40
1.0
176
     1
 40
1.0
176
     1
  0
VISUALSTYLE
  5
277
102
{ACAD_REACTORS
330
267
102
}
330
267
100
AcDbVisualStyle
  2

 70
    16
177
     3
291
     1
 70
    58
 90
        2
176
     1
 90
        2
176
     1
 90
        3
176
     1
 90
        0
176
     1
 40
0.6
176
     1
 40
30.0
176
     1
 62
     8
420
  8421504
176
     1
 90
        1
176
     1
 90
        4
176
     1
 62
     7
176
     1
 62
   257
176
     1
 90
        1
176
     1
 90
        1
176
     1
 40
1.0
176
     1
 90
        8
176
     1
 62
     8
420
  8421504
176
     1
 40
1.0
176
     1
 90
        1
176
     1
 90
        6
176
     1
 90
        2
176
     1
 62
     7
176
     1
 90
        5
176
     1
 90
        0
176
     1
 90
        0
176
     1
290
     0
176
     1
 90
        1
176
     1
 40
0.0
176
     1
 90
        0
176
     1
290
     0
176
     1
290
     1
176
     1
290
     1
176
     1
290
     0
176
     1
290
     0
176
     1
290
     0
176
     1
290
     0
176
     1
290
     0
176
     1
290
     0
176
     1
 90
       50
176
     1
 40
0.0
176
     1
 40
1.0
176
     1
 90
        0
176
     1
 62
    18
420
        0
176
     1
 90
       50
176
     1
 90
        3
176
     1
 62
     5
420
      255
176
     1
290
     0
176
     1
 90
       50
176
     1
 90
       50
176
     1
 90
       50
176
     1
290
     0
176
     1
 90
       50
176
     1
 62
   256
176
     0
 40
1.0
176
     0
 90
        2
176
     1
  1
strokes_ogs.tif
176
     1
290
     0
176
     1
 40
1.0
176
     1
 40
1.0
176
     1
  0
VISUALSTYLE
  5
271
102
{ACAD_REACTORS
330
267
102
}
330
267
100
AcDbVisualStyle
  2

 70
     9
177
     3
291
     0
 70
    58
 90
        3
176
     1
 90
        2
176
     1
 90
        0
176
     1
 90
        0
176
     1
 40
0.6
176
     1
 40
30.0
176
     1
 62
     7
420
 16777215
176
     1
 90
        2
176
     1
 90
        2
176
     1
 62
     7
176
     1
 62
   257
176
     1
 90
        1
176
     1
 90
        1
176
     1
 40
40.0
176
     1
 90
        8
176
     1
 62
     7
176
     1
 40
1.0
176
     1
 90
        1
176
     1
 90
        6
176
     1
 90
        2
176
     1
 62
     7
176
     1
 90
        3
176
     1
 90
        0
176
     1
 90
        0
176
     1
290
     0
176
     1
 90
        1
176
     1
 40
0.0
176
     1
 90
        0
176
     1
290
     0
176
     1
290
     1
176
     1
290
     1
176
     1
290
     0
176
     1
290
     0
176
     1
290
     0
176
     1
290
     0
176
     1
290
     0
176
     1
290
     0
176
     1
 90
       50
176
     1
 40
0.0
176
     1
 40
1.0
176
     1
 90
        0
176
     1
 62
    18
420
        0
176
     1
 90
       50
176
     1
 90
        3
176
     1
 62
     5
420
      255
176
     1
290
     0
176
     1
 90
       50
176
     1
 90
       50
176
     1
 90
       50
176
     1
290
     0
176
     1
 90
       50
176
     1
 62
   256
176
     0
 40
1.0
176
     0
 90
        2
176
     1
  1
strokes_ogs.tif
176
     1
290
     0
176
     1
 40
1.0
176
     1
 40
1.0
176
     1
  0
VISUALSTYLE
  5
272
102
{ACAD_REACTORS
330
267
102
}
330
267
100
AcDbVisualStyle
  2

 70
    11
177
     3
291
     1
 70
    58
 90
        2
176
     1
 90
        2
176
     1
 90
        0
176
     1
 90
        0
176
     1
 40
0.6
176
     1
 40
30.0
176
     1
 62
     7
420
 16777215
176
     1
 90
        1
176
     1
 90
        4
176
     1
 62
     7
176
     1
 62
   257
176
     1
 90
        1
176
     1
 90
        1
176
     1
 40
1.0
176
     1
 90
        8
176
     1
 62
     7
176
     1
 40
1.0
176
     1
 90
        1
176
     1
 90
        6
176
     1
 90
        2
176
     1
 62
     7
176
     1
 90
        5
176
     1
 90
        0
176
     1
 90
        0
176
     1
290
     0
176
     1
 90
        1
176
     1
 40
-50.0
176
     1
 90
        0
176
     1
290
     0
176
     1
290
     1
176
     1
290
     1
176
     1
290
     0
176
     1
290
     0
176
     1
290
     0
176
     1
290
     0
176
     1
290
     0
176
     1
290
     0
176
     1
 90
       50
176
     1
 40
0.0
176
     1
 40
1.0
176
     1
 90
        0
176
     1
 62
    18
420
        0
176
     1
 90
       50
176
     1
 90
        3
176
     1
 62
     5
420
      255
176
     1
290
     0
176
     1
 90
       50
176
     1
 90
       50
176
     1
 90
       50
176
     1
290
     0
176
     1
 90
       50
176
     1
 62
   256
176
     0
 40
1.0
176
     0
 90
        2
176
     1
  1
strokes_ogs.tif
176
     1
290
     0
176
     1
 40
1.0
176
     1
 40
1.0
176
     1
  0
VISUALSTYLE
  5
8FE
102
{ACAD_REACTORS
330
267
102
}
330
267
100
AcDbVisualStyle
  2

 70
    22
177
     3
291
     1
 70
    58
 90
        2
176
     1
 90
        2
176
     1
 90
        0
176
     1
 90
        0
176
     1
 40
0.6
176
     1
 40
30.0
176
     1
 62
     7
420
 16777215
176
     1
 90
        1
176
     1
 90
        4
176
     1
 62
     7
176
     1
 62
   257
176
     1
 90
        1
176
     1
 90
        1
176
     1
 40
1.0
176
     1
 90
        8
176
     1
 62
     7
176
     1
 40
1.0
176
     1
 90
        1
176
     1
 90
        6
176
     1
 90
        2
176
     1
 62
     7
176
     1
 90
        5
176
     1
 90
        0
176
     1
 90
        0
176
     1
290
     0
176
     1
 90
        1
176
     1
 40
0.0
176
     1
 90
        0
176
     1
290
     0
176
     1
290
     1
176
     1
290
     1
176
     1
290
     0
176
     1
290
     0
176
     1
290
     0
176
     1
290
     0
176
     1
290
     0
176
     1
290
     0
176
     1
 90
       50
176
     1
 40
0.0
176
     1
 40
1.0
176
     1
 90
        0
176
     1
 62
    18
420
        0
176
     1
 90
       50
176
     1
 90
        3
176
     1
 62
     5
420
      255
176
     1
290
     0
176
     1
 90
       50
176
     1
 90
       50
176
     1
 90
       50
176
     1
290
     0
176
     1
 90
       50
176
     1
 62
   256
176
     0
 40
1.0
176
     0
 90
        2
176
     1
  1
strokes_ogs.tif
176
     1
290
     0
176
     1
 40
1.0
176
     1
 40
1.0
176
     1
  0
VISUALSTYLE
  5
276
102
{ACAD_REACTORS
330
267
102
}
330
267
100
AcDbVisualStyle
  2

 70
    15
177
     3
291
     1
 70
    58
 90
        2
176
     1
 90
        2
176
     1
 90
        0
176
     1
 90
        0
176
     1
 40
0.6
176
     1
 40
30.0
176
     1
 62
     7
420
 16777215
176
     1
 90
        1
176
     1
 90
        4
176
     1
 62
     7
176
     1
 62
   257
176
     1
 90
        1
176
     1
 90
        1
176
     1
 40
1.0
176
     1
 90
        8
176
     1
 62
     7
176
     1
 40
1.0
176
     1
 90
        1
176
     1
 90
        6
176
     1
 90
        2
176
     1
 62
     7
176
     1
 90
        5
176
     1
 90
        0
176
     1
 90
        0
176
     1
290
     0
176
     1
 90
        1
176
     1
 40
0.0
176
     1
 90
        0
176
     1
290
     0
176
     1
290
     1
176
     1
290
     1
176
     1
290
     0
176
     1
290
     0
176
     1
290
     0
176
     1
290
     0
176
     1
290
     0
176
     1
290
     0
176
     1
 90
       50
176
     1
 40
0.0
176
     1
 40
1.0
176
     1
 90
        0
176
     1
 62
    18
420
        0
176
     1
 90
       50
176
     1
 90
        3
176
     1
 62
     5
420
      255
176
     1
290
     0
176
     1
 90
       50
176
     1
 90
       50
176
     1
 90
       50
176
     1
290
     0
176
     1
 90
       50
176
     1
 62
   256
176
     0
 40
1.0
176
     0
 90
        2
176
     1
  1
strokes_ogs.tif
176
     1
290
     0
176
     1
 40
1.0
176
     1
 40
1.0
176
     1
  0
VISUALSTYLE
  5
268
102
{ACAD_REACTORS
330
267
102
}
330
267
100
AcDbVisualStyle
  2

 70
     0
177
     3
291
     1
 70
    58
 90
        2
176
     1
 90
        1
176
     1
 90
        1
176
     1
 90
        2
176
     1
 40
0.6
176
     1
 40
30.0
176
     1
 62
     7
420
 16777215
176
     1
 90
        0
176
     1
 90
        4
176
     1
 62
     7
176
     1
 62
   257
176
     1
 90
        1
176
     1
 90
        1
176
     1
 40
1.0
176
     1
 90
        8
176
     1
 62
     7
176
     1
 40
1.0
176
     1
 90
        1
176
     1
 90
        6
176
     1
 90
        2
176
     1
 62
     7
176
     1
 90
        5
176
     1
 90
        0
176
     1
 90
        0
176
     1
290
     0
176
     1
 90
       13
176
     1
 40
0.0
176
     1
 90
        0
176
     1
290
     0
176
     1
290
     1
176
     1
290
     1
176
     1
290
     0
176
     1
290
     0
176
     1
290
     0
176
     1
290
     0
176
     1
290
     0
176
     1
290
     0
176
     1
 90
       50
176
     1
 40
0.0
176
     1
 40
1.0
176
     1
 90
        0
176
     1
 62
    18
420
        0
176
     1
 90
       50
176
     1
 90
        3
176
     1
 62
     5
420
      255
176
     1
290
     0
176
     1
 90
       50
176
     1
 90
       50
176
     1
 90
       50
176
     1
290
     0
176
     1
 90
       50
176
     1
 62
   256
176
     0
 40
1.0
176
     0
 90
        2
176
     1
  1
strokes_ogs.tif
176
     1
290
     0
176
     1
 40
1.0
176
     1
 40
1.0
176
     1
  0
VISUALSTYLE
  5
269
102
{ACAD_REACTORS
330
267
102
}
330
267
100
AcDbVisualStyle
  2

 70
     1
177
     3
291
     1
 70
    58
 90
        2
176
     1
 90
        1
176
     1
 90
        1
176
     1
 90
        2
176
     1
 40
0.6
176
     1
 40
30.0
176
     1
 62
     7
420
 16777215
176
     1
 90
        1
176
     1
 90
        4
176
     1
 62
     7
176
     1
 62
   257
176
     1
 90
        1
176
     1
 90
        1
176
     1
 40
1.0
176
     1
 90
        0
176
     1
 62
   257
176
     1
 40
1.0
176
     1
 90
        1
176
     1
 90
        6
176
     1
 90
        2
176
     1
 62
     7
176
     1
 90
        5
176
     1
 90
        0
176
     1
 90
        0
176
     1
290
     0
176
     1
 90
       13
176
     1
 40
0.0
176
     1
 90
        0
176
     1
290
     0
176
     1
290
     1
176
     1
290
     1
176
     1
290
     0
176
     1
290
     0
176
     1
290
     0
176
     1
290
     0
176
     1
290
     0
176
     1
290
     0
176
     1
 90
       50
176
     1
 40
0.0
176
     1
 40
1.0
176
     1
 90
        0
176
     1
 62
    18
420
        0
176
     1
 90
       50
176
     1
 90
        3
176
     1
 62
     5
420
      255
176
     1
290
     0
176
     1
 90
       50
176
     1
 90
       50
176
     1
 90
       50
176
     1
290
     0
176
     1
 90
       50
176
     1
 62
   256
176
     0
 40
1.0
176
     0
 90
        2
176
     1
  1
strokes_ogs.tif
176
     1
290
     0
176
     1
 40
1.0
176
     1
 40
1.0
176
     1
  0
VISUALSTYLE
  5
26A
102
{ACAD_REACTORS
330
267
102
}
330
267
100
AcDbVisualStyle
  2

 70
     2
177
     3
291
     1
 70
    58
 90
        2
176
     1
 90
        2
176
     1
 90
        1
176
     1
 90
        2
176
     1
 40
0.6
176
     1
 40
30.0
176
     1
 62
     7
420
 16777215
176
     1
 90
        0
176
     1
 90
        4
176
     1
 62
     7
176
     1
 62
   257
176
     1
 90
        1
176
     1
 90
        1
176
     1
 40
1.0
176
     1
 90
        0
176
     1
 62
     7
176
     1
 40
1.0
176
     1
 90
        1
176
     1
 90
        6
176
     1
 90
        2
176
     1
 62
     7
176
     1
 90
        5
176
     1
 90
        0
176
     1
 90
        0
176
     1
290
     0
176
     1
 90
       13
176
     1
 40
0.0
176
     1
 90
        0
176
     1
290
     0
176
     1
290
     1
176
     1
290
     1
176
     1
290
     0
176
     1
290
     0
176
     1
290
     0
176
     1
290
     0
176
     1
290
     0
176
     1
290
     0
176
     1
 90
       50
176
     1
 40
0.0
176
     1
 40
1.0
176
     1
 90
        0
176
     1
 62
    18
420
        0
176
     1
 90
       50
176
     1
 90
        3
176
     1
 62
     5
420
      255
176
     1
290
     0
176
     1
 90
       50
176
     1
 90
       50
176
     1
 90
       50
176
     1
290
     0
176
     1
 90
       50
176
     1
 62
   256
176
     0
 40
1.0
176
     0
 90
        2
176
     1
  1
strokes_ogs.tif
176
     1
290
     0
176
     1
 40
1.0
176
     1
 40
1.0
176
     1
  0
VISUALSTYLE
  5
26B
102
{ACAD_REACTORS
330
267
102
}
330
267
100
AcDbVisualStyle
  2

 70
     3
177
     3
291
     1
 70
    58
 90
        2
176
     1
 90
        2
176
     1
 90
        1
176
     1
 90
        2
176
     1
 40
0.6
176
     1
 40
30.0
176
     1
 62
     7
420
 16777215
176
     1
 90
        1
176
     1
 90
        4
176
     1
 62
     7
176
     1
 62
   257
176
     1
 90
        1
176
     1
 90
        1
176
     1
 40
1.0
176
     1
 90
        0
176
     1
 62
   257
176
     1
 40
1.0
176
     1
 90
        1
176
     1
 90
        6
176
     1
 90
        2
176
     1
 62
     7
176
     1
 90
        5
176
     1
 90
        0
176
     1
 90
        0
176
     1
290
     0
176
     1
 90
       13
176
     1
 40
0.0
176
     1
 90
        0
176
     1
290
     0
176
     1
290
     1
176
     1
290
     1
176
     1
290
     0
176
     1
290
     0
176
     1
290
     0
176
     1
290
     0
176
     1
290
     0
176
     1
290
     0
176
     1
 90
       50
176
     1
 40
0.0
176
     1
 40
1.0
176
     1
 90
        0
176
     1
 62
    18
420
        0
176
     1
 90
       50
176
     1
 90
        3
176
     1
 62
     5
420
      255
176
     1
290
     0
176
     1
 90
       50
176
     1
 90
       50
176
     1
 90
       50
176
     1
290
     0
176
     1
 90
       50
176
     1
 62
   256
176
     0
 40
1.0
176
     0
 90
        2
176
     1
  1
strokes_ogs.tif
176
     1
290
     0
176
     1
 40
1.0
176
     1
 40
1.0
176
     1
  0
VISUALSTYLE
  5
8FB
102
{ACAD_REACTORS
330
267
102
}
330
267
100
AcDbVisualStyle
  2

 70
     6
177
     3
291
     0
 70
    58
 90
        1
176
     1
 90
        2
176
     1
 90
        2
176
     1
 90
        0
176
     1
 40
0.6
176
     1
 40
30.0
176
     1
 62
     7
420
 16777215
176
     1
 90
        2
176
     1
 90
        2
176
     1
 62
     7
176
     1
 62
   257
176
     1
 90
        2
176
     1
 90
        1
176
     1
 40
40.0
176
     1
 90
        0
176
     1
 62
   257
176
     1
 40
1.0
176
     1
 90
        1
176
     1
 90
        6
176
     1
 90
        2
176
     1
 62
     7
176
     1
 90
        3
176
     1
 90
        0
176
     1
 90
        0
176
     1
290
     0
176
     1
 90
        1
176
     1
 40
0.0
176
     1
 90
        0
176
     1
290
     0
176
     1
290
     1
176
     1
290
     1
176
     1
290
     0
176
     1
290
     0
176
     1
290
     0
176
     1
290
     0
176
     1
290
     0
176
     1
290
     0
176
     1
 90
       50
176
     1
 40
0.0
176
     1
 40
1.0
176
     1
 90
        0
176
     1
 62
    18
420
        0
176
     1
 90
       50
176
     1
 90
        3
176
     1
 62
     5
420
      255
176
     1
290
     0
176
     1
 90
       50
176
     1
 90
       50
176
     1
 90
       50
176
     1
290
     0
176
     1
 90
       50
176
     1
 62
   256
176
     0
 40
1.0
176
     0
 90
        2
176
     1
  1
strokes_ogs.tif
176
     1
290
     0
176
     1
 40
1.0
176
     1
 40
1.0
176
     1
  0
VISUALSTYLE
  5
8FC
102
{ACAD_REACTORS
330
267
102
}
330
267
100
AcDbVisualStyle
  2

 70
    20
177
     3
291
     1
 70
    58
 90
        2
176
     1
 90
        2
176
     1
 90
        0
176
     1
 90
        0
176
     1
 40
0.6
176
     1
 40
30.0
176
     1
 62
     7
420
 16777215
176
     1
 90
        1
176
     1
 90
        4
176
     1
 62
     7
176
     1
 62
   257
176
     1
 90
        1
176
     1
 90
        1
176
     1
 40
1.0
176
     1
 90
       10
176
     1
 62
     7
176
     1
 40
1.0
176
     1
 90
        1
176
     1
 90
        6
176
     1
 90
        2
176
     1
 62
     7
176
     1
 90
        5
176
     1
 90
        0
176
     1
 90
        0
176
     1
290
     0
176
     1
 90
        1
176
     1
 40
0.0
176
     1
 90
        0
176
     1
290
     0
176
     1
290
     1
176
     1
290
     1
176
     1
290
     0
176
     1
290
     0
176
     1
290
     0
176
     1
290
     0
176
     1
290
     0
176
     1
290
     0
176
     1
 90
       50
176
     1
 40
0.0
176
     1
 40
1.0
176
     1
 90
        0
176
     1
 62
    18
420
        0
176
     1
 90
       50
176
     1
 90
        3
176
     1
 62
     5
420
      255
176
     1
290
     0
176
     1
 90
       50
176
     1
 90
       50
176
     1
 90
       50
176
     1
290
     0
176
     1
 90
       50
176
     1
 62
   256
176
     0
 40
1.0
176
     0
 90
        2
176
     1
  1
strokes_ogs.tif
176
     1
290
     0
176
     1
 40
1.0
176
     1
 40
1.0
176
     1
  0
VISUALSTYLE
  5
275
102
{ACAD_REACTORS
330
267
102
}
330
267
100
AcDbVisualStyle
  2

 70
    14
177
     3
291
     1
 70
    58
 90
        2
176
     1
 90
        2
176
     1
 90
        0
176
     1
 90
        0
176
     1
 40
0.6
176
     1
 40
30.0
176
     1
 62
     7
420
 16777215
176
     1
 90
        1
176
     1
 90
        4
176
     1
 62
     7
176
     1
 62
   257
176
     1
 90
        7
176
     1
 90
        7
176
     1
 40
1.0
176
     1
 90
        8
176
     1
 62
     7
176
     1
 40
1.0
176
     1
 90
        1
176
     1
 90
        6
176
     1
 90
        2
176
     1
 62
     7
176
     1
 90
        5
176
     1
 90
        0
176
     1
 90
        0
176
     1
290
     0
176
     1
 90
        1
176
     1
 40
0.0
176
     1
 90
        0
176
     1
290
     0
176
     1
290
     1
176
     1
290
     1
176
     1
290
     0
176
     1
290
     0
176
     1
290
     0
176
     1
290
     0
176
     1
290
     0
176
     1
290
     0
176
     1
 90
       50
176
     1
 40
0.0
176
     1
 40
1.0
176
     1
 90
        0
176
     1
 62
    18
420
        0
176
     1
 90
       50
176
     1
 90
        3
176
     1
 62
     5
420
      255
176
     1
290
     0
176
     1
 90
       50
176
     1
 90
       50
176
     1
 90
       50
176
     1
290
     0
176
     1
 90
       50
176
     1
 62
   256
176
     0
 40
1.0
176
     0
 90
        2
176
     1
  1
strokes_ogs.tif
176
     1
290
     0
176
     1
 40
1.0
176
     1
 40
1.0
176
     1
  0
VISUALSTYLE
  5
8FD
102
{ACAD_REACTORS
330
267
102
}
330
267
100
AcDbVisualStyle
  2

 70
    21
177
     3
291
     1
 70
    58
 90
        2
176
     1
 90
        2
176
     1
 90
        0
176
     1
 90
        0
176
     1
 40
0.6
176
     1
 40
30.0
176
     1
 62
     7
420
 16777215
176
     1
 90
        1
176
     1
 90
        4
176
     1
 62
     7
176
     1
 62
   257
176
     1
 90
        1
176
     1
 90
        1
176
     1
 40
1.0
176
     1
 90
        9
176
     1
 62
     7
176
     1
 40
1.0
176
     1
 90
        1
176
     1
 90
        6
176
     1
 90
        2
176
     1
 62
     7
176
     1
 90
        5
176
     1
 90
        0
176
     1
 90
        0
176
     1
290
     0
176
     1
 90
        1
176
     1
 40
0.0
176
     1
 90
        0
176
     1
290
     0
176
     1
290
     1
176
     1
290
     1
176
     1
290
     0
176
     1
290
     0
176
     1
290
     0
176
     1
290
     0
176
     1
290
     0
176
     1
290
     0
176
     1
 90
       50
176
     1
 40
0.0
176
     1
 40
1.0
176
     1
 90
        0
176
     1
 62
    18
420
        0
176
     1
 90
       50
176
     1
 90
        3
176
     1
 62
     5
420
      255
176
     1
290
     0
176
     1
 90
       50
176
     1
 90
       50
176
     1
 90
       50
176
     1
290
     0
176
     1
 90
       50
176
     1
 62
   256
176
     0
 40
1.0
176
     0
 90
        2
176
     1
  1
strokes_ogs.tif
176
     1
290
     0
176
     1
 40
1.0
176
     1
 40
1.0
176
     1
  0
VISUALSTYLE
  5
270
102
{ACAD_REACTORS
330
267
102
}
330
267
100
AcDbVisualStyle
  2

 70
     8
177
     3
291
     0
 70
    58
 90
        2
176
     1
 90
        2
176
     1
 90
        0
176
     1
 90
        0
176
     1
 40
0.6
176
     1
 40
30.0
176
     1
 62
     7
420
 16777215
176
     1
 90
        1
176
     1
 90
        0
176
     1
 62
     7
176
     1
 62
   257
176
     1
 90
        1
176
     1
 90
        1
176
     1
 40
1.0
176
     1
 90
        8
176
     1
 62
     8
420
  7895160
176
     1
 40
1.0
176
     1
 90
        1
176
     1
 90
        6
176
     1
 90
        2
176
     1
 62
     7
176
     1
 90
        5
176
     1
 90
        0
176
     1
 90
        0
176
     1
290
     0
176
     1
 90
       13
176
     1
 40
0.0
176
     1
 90
        0
176
     1
290
     0
176
     1
290
     1
176
     1
290
     1
176
     1
290
     0
176
     1
290
     0
176
     1
290
     0
176
     1
290
     0
176
     1
290
     0
176
     1
290
     0
176
     1
 90
       50
176
     1
 40
0.0
176
     1
 40
1.0
176
     1
 90
        0
176
     1
 62
    18
420
        0
176
     1
 90
       50
176
     1
 90
        3
176
     1
 62
     5
420
      255
176
     1
290
     0
176
     1
 90
       50
176
     1
 90
       50
176
     1
 90
       50
176
     1
290
     0
176
     1
 90
       50
176
     1
 62
   256
176
     0
 40
1.0
176
     0
 90
        2
176
     1
  1
strokes_ogs.tif
176
     1
290
     0
176
     1
 40
1.0
176
     1
 40
1.0
176
     1
  0
VISUALSTYLE
  5
903
102
{ACAD_REACTORS
330
267
102
}
330
267
100
AcDbVisualStyle
  2

 70
    27
177
     3
291
     0
 70
    58
 90
        2
176
     1
 90
        2
176
     1
 90
        1
176
     1
 90
        2
176
     1
 40
0.6
176
     1
 40
30.0
176
     1
 62
     7
420
 16777215
176
     1
 90
        0
176
     1
 90
        4
176
     1
 62
     7
176
     1
 62
   257
176
     1
 90
        1
176
     1
 90
        1
176
     1
 40
1.0
176
     1
 90
        8
176
     1
 62
   257
176
     1
 40
1.0
176
     1
 90
        1
176
     1
 90
        6
176
     1
 90
        2
176
     1
 62
     8
420
  7895160
176
     1
 90
        3
176
     1
 90
        0
176
     1
 90
        0
176
     1
290
     0
176
     1
 90
        5
176
     1
 40
0.0
176
     1
 90
        0
176
     1
290
     0
176
     1
290
     1
176
     1
290
     1
176
     1
290
     0
176
     1
290
     0
176
     1
290
     0
176
     1
290
     0
176
     1
290
     0
176
     1
290
     0
176
     1
 90
       50
176
     1
 40
0.0
176
     1
 40
1.0
176
     1
 90
        0
176
     1
 62
    18
420
        0
176
     1
 90
       50
176
     1
 90
        3
176
     1
 62
     5
420
      255
176
     1
290
     0
176
     1
 90
       50
176
     1
 90
       50
176
     1
 90
       50
176
     1
290
     0
176
     1
 90
       50
176
     1
 62
   256
176
     0
 40
1.0
176
     0
 90
        2
176
     1
  1
strokes_ogs.tif
176
     1
290
     0
176
     1
 40
1.0
176
     1
 40
1.0
176
     1
  0
VISUALSTYLE
  5
902
102
{ACAD_REACTORS
330
267
102
}
330
267
100
AcDbVisualStyle
  2

 70
    26
177
     3
291
     0
 70
    58
 90
        2
176
     1
 90
        2
176
     1
 90
        1
176
     1
 90
        2
176
     1
 40
0.6
176
     1
 40
30.0
176
     1
 62
     7
420
 16777215
176
     1
 90
        1
176
     1
 90
       10
176
     1
 62
     7
176
     1
 62
   257
176
     1
 90
        2
176
     1
 90
        1
176
     1
 40
1.0
176
     1
 90
        8
176
     1
 62
   257
176
     1
 40
1.0
176
     1
 90
        1
176
     1
 90
        6
176
     1
 90
        2
176
     1
 62
     7
176
     1
 90
        3
176
     1
 90
        0
176
     1
 90
        0
176
     1
290
     0
176
     1
 90
        5
176
     1
 40
0.0
176
     1
 90
        0
176
     1
290
     0
176
     1
290
     1
176
     1
290
     1
176
     1
290
     0
176
     1
290
     0
176
     1
290
     0
176
     1
290
     0
176
     1
290
     0
176
     1
290
     0
176
     1
 90
       50
176
     1
 40
0.0
176
     1
 40
1.0
176
     1
 90
        0
176
     1
 62
    18
420
        0
176
     1
 90
       50
176
     1
 90
        3
176
     1
 62
     5
420
      255
176
     1
290
     0
176
     1
 90
       50
176
     1
 90
       50
176
     1
 90
       50
176
     1
290
     0
176
     1
 90
       50
176
     1
 62
   256
176
     0
 40
1.0
176
     0
 90
        2
176
     1
  1
strokes_ogs.tif
176
     1
290
     0
176
     1
 40
1.0
176
     1
 40
1.0
176
     1
  0
VISUALSTYLE
  5
8FF
102
{ACAD_REACTORS
330
267
102
}
330
267
100
AcDbVisualStyle
  2

 70
    23
177
     3
291
     0
 70
    58
 90
        2
176
     1
 90
        2
176
     1
 90
        3
176
     1
 90
        0
176
     1
 40
0.6
176
     1
 40
30.0
176
     1
 62
     7
420
 16777215
176
     1
 90
        2
176
     1
 90
        2
176
     1
 62
     7
176
     1
 62
     7
176
     1
 90
        1
176
     1
 90
        1
176
     1
 40
40.0
176
     1
 90
        8
176
     1
 62
     7
176
     1
 40
1.0
176
     1
 90
        1
176
     1
 90
        6
176
     1
 90
        2
176
     1
 62
     7
176
     1
 90
        3
176
     1
 90
        0
176
     1
 90
        0
176
     1
290
     0
176
     1
 90
        1
176
     1
 40
0.0
176
     1
 90
        0
176
     1
290
     0
176
     1
290
     1
176
     1
290
     1
176
     1
290
     0
176
     1
290
     0
176
     1
290
     0
176
     1
290
     0
176
     1
290
     0
176
     1
290
     0
176
     1
 90
       50
176
     1
 40
0.0
176
     1
 40
1.0
176
     1
 90
        0
176
     1
 62
    18
420
        0
176
     1
 90
       50
176
     1
 90
        3
176
     1
 62
     5
420
      255
176
     1
290
     0
176
     1
 90
       50
176
     1
 90
       50
176
     1
 90
       50
176
     1
290
     0
176
     1
 90
       50
176
     1
 62
   256
176
     0
 40
1.0
176
     0
 90
        2
176
     1
  1
strokes_ogs.tif
176
     1
290
     0
176
     1
 40
1.0
176
     1
 40
1.0
176
     1
  0
VISUALSTYLE
  5
900
102
{ACAD_REACTORS
330
267
102
}
330
267
100
AcDbVisualStyle
  2

 70
    24
177
     3
291
     0
 70
    58
 90
        1
176
     1
 90
        2
176
     1
 90
        2
176
     1
 90
        0
176
     1
 40
0.6
176
     1
 40
30.0
176
     1
 62
     7
420
 16777215
176
     1
 90
        2
176
     1
 90
        2
176
     1
 62
     7
176
     1
 62
     7
176
     1
 90
        1
176
     1
 90
        1
176
     1
 40
40.0
176
     1
 90
       11
176
     1
 62
     7
176
     1
 40
1.0
176
     1
 90
        1
176
     1
 90
        6
176
     1
 90
        2
176
     1
 62
     7
176
     1
 90
        6
176
     1
 90
        0
176
     1
 90
        0
176
     1
290
     0
176
     1
 90
        1
176
     1
 40
0.0
176
     1
 90
        0
176
     1
290
     0
176
     1
290
     1
176
     1
290
     1
176
     1
290
     0
176
     1
290
     0
176
     1
290
     0
176
     1
290
     0
176
     1
290
     0
176
     1
290
     0
176
     1
 90
       50
176
     1
 40
0.0
176
     1
 40
1.0
176
     1
 90
        0
176
     1
 62
    18
420
        0
176
     1
 90
       50
176
     1
 90
        3
176
     1
 62
     5
420
      255
176
     1
290
     0
176
     1
 90
       50
176
     1
 90
       50
176
     1
 90
       50
176
     1
290
     0
176
     1
 90
       50
176
     1
 62
   256
176
     0
 40
1.0
176
     0
 90
        2
176
     1
  1
strokes_ogs.tif
176
     1
290
     0
176
     1
 40
1.0
176
     1
 40
1.0
176
     1
  0
VISUALSTYLE
  5
274
102
{ACAD_REACTORS
330
267
102
}
330
267
100
AcDbVisualStyle
  2

 70
    13
177
     3
291
     1
 70
    58
 90
        2
176
     1
 90
        2
176
     1
 90
        0
176
     1
 90
        0
176
     1
 40
0.6
176
     1
 40
30.0
176
     1
 62
     7
420
 16777215
176
     1
 90
        1
176
     1
 90
        4
176
     1
 62
     7
176
     1
 62
   257
176
     1
 90
        1
176
     1
 90
        1
176
     1
 40
1.0
176
     1
 90
       12
176
     1
 62
     7
176
     1
 40
1.0
176
     1
 90
        1
176
     1
 90
        6
176
     1
 90
        2
176
     1
 62
     7
176
     1
 90
        5
176
     1
 90
        0
176
     1
 90
        0
176
     1
290
     0
176
     1
 90
        1
176
     1
 40
0.0
176
     1
 90
        0
176
     1
290
     0
176
     1
290
     1
176
     1
290
     1
176
     1
290
     0
176
     1
290
     0
176
     1
290
     0
176
     1
290
     0
176
     1
290
     0
176
     1
290
     0
176
     1
 90
       50
176
     1
 40
0.0
176
     1
 40
1.0
176
     1
 90
        0
176
     1
 62
    18
420
        0
176
     1
 90
       50
176
     1
 90
        3
176
     1
 62
     5
420
      255
176
     1
290
     0
176
     1
 90
       50
176
     1
 90
       50
176
     1
 90
       50
176
     1
290
     0
176
     1
 90
       50
176
     1
 62
   256
176
     0
 40
1.0
176
     0
 90
        2
176
     1
  1
strokes_ogs.tif
176
     1
290
     0
176
     1
 40
1.0
176
     1
 40
1.0
176
     1
  0
VISUALSTYLE
  5
8FA
102
{ACAD_REACTORS
330
267
102
}
330
267
100
AcDbVisualStyle
  2

 70
     5
177
     3
291
     0
 70
    58
 90
        0
176
     1
 90
        2
176
     1
 90
        0
176
     1
 90
        0
176
     1
 40
0.6
176
     1
 40
30.0
176
     1
 62
     7
420
 16777215
176
     1
 90
        1
176
     1
 90
        4
176
     1
 62
     7
176
     1
 62
   257
176
     1
 90
        1
176
     1
 90
        1
176
     1
 40
1.0
176
     1
 90
        0
176
     1
 62
   257
176
     1
 40
1.0
176
     1
 90
        1
176
     1
 90
        6
176
     1
 90
        2
176
     1
 62
     7
176
     1
 90
        3
176
     1
 90
        0
176
     1
 90
        0
176
     1
290
     0
176
     1
 90
        1
176
     1
 40
0.0
176
     1
 90
        0
176
     1
290
     0
176
     1
290
     1
176
     1
290
     1
176
     1
290
     0
176
     1
290
     0
176
     1
290
     0
176
     1
290
     0
176
     1
290
     0
176
     1
290
     0
176
     1
 90
       50
176
     1
 40
0.0
176
     1
 40
1.0
176
     1
 90
        0
176
     1
 62
    18
420
        0
176
     1
 90
       50
176
     1
 90
        3
176
     1
 62
     5
420
      255
176
     1
290
     0
176
     1
 90
       50
176
     1
 90
       50
176
     1
 90
       50
176
     1
290
     0
176
     1
 90
       50
176
     1
 62
   256
176
     0
 40
1.0
176
     0
 90
        2
176
     1
  1
strokes_ogs.tif
176
     1
290
     0
176
     1
 40
1.0
176
     1
 40
1.0
176
     1
  0
VISUALSTYLE
  5
901
102
{ACAD_REACTORS
330
267
102
}
330
267
100
AcDbVisualStyle
  2

 70
    25
177
     3
291
     0
 70
    58
 90
        2
176
     1
 90
        2
176
     1
 90
        1
176
     1
 90
        1
176
     1
 40
0.5
176
     1
 40
30.0
176
     1
 62
     7
420
 16777215
176
     1
 90
        1
176
     1
 90
        0
176
     1
 62
     7
176
     1
 62
   257
176
     1
 90
        1
176
     1
 90
        1
176
     1
 40
1.0
176
     1
 90
        8
176
     1
 62
     7
176
     1
 40
1.0
176
     1
 90
        1
176
     1
 90
        6
176
     1
 90
        2
176
     1
 62
     7
176
     1
 90
        3
176
     1
 90
        0
176
     1
 90
        0
176
     1
290
     0
176
     1
 90
       13
176
     1
 40
0.0
176
     1
 90
        0
176
     1
290
     0
176
     1
290
     1
176
     1
290
     1
176
     1
290
     0
176
     1
290
     0
176
     1
290
     0
176
     1
290
     0
176
     1
290
     0
176
     1
290
     0
176
     1
 90
       50
176
     1
 40
0.0
176
     1
 40
1.0
176
     1
 90
        0
176
     1
 62
    18
420
        0
176
     1
 90
       50
176
     1
 90
        3
176
     1
 62
     5
420
      255
176
     1
290
     0
176
     1
 90
       50
176
     1
 90
       50
176
     1
 90
       50
176
     1
290
     0
176
     1
 90
       50
176
     1
 62
   256
176
     0
 40
1.0
176
     0
 90
        2
176
     1
  1
strokes_ogs.tif
176
     1
290
     0
176
     1
 40
1.0
176
     1
 40
1.0
176
     1
  0
DICTIONARYVAR
  5
331
102
{ACAD_REACTORS
330
330
102
}
330
330
100
DictionaryVariables
280
     0
  1
1:1
  0
DICTIONARYVAR
  5
D5E
102
{ACAD_REACTORS
330
330
102
}
330
330
100
DictionaryVariables
280
     0
  1
STANDARD
  0
DICTIONARYVAR
  5
335
102
{ACAD_REACTORS
330
330
102
}
330
330
100
DictionaryVariables
280
     0
  1
STANDARD
  0
DICTIONARYVAR
  5
18A1F
102
{ACAD_REACTORS
330
330
102
}
330
330
100
DictionaryVariables
280
     0
  1
Metric50
  0
DICTIONARYVAR
  5
18A20
102
{ACAD_REACTORS
330
330
102
}
330
330
100
DictionaryVariables
280
     0
  1
Metric50
  0
DICTIONARYVAR
  5
D52
102
{ACAD_REACTORS
330
330
102
}
330
330
100
DictionaryVariables
280
     0
  1
ByLayer
  0
DICTIONARYVAR
  5
18A21
102
{ACAD_REACTORS
330
330
102
}
330
330
100
DictionaryVariables
280
     0
  1
1
  0
DICTIONARYVAR
  5
18A22
102
{ACAD_REACTORS
330
330
102
}
330
330
100
DictionaryVariables
280
     0
  1
15
  0
XRECORD
  5
18A17
102
{ACAD_REACTORS
330
18A15
102
}
330
18A15
100
AcDbXrecord
280
     1
330
68C
330
1343
330
17326
330
17327
330
17335
330
17336
330
173AB
330
173AC
330
173BA
330
173BB
330
173D8
330
173D9
330
173E4
330
173E5
330
177D9
330
177DA
330
17B56
330
17B57
330
17B65
330
17B66
330
17B72
330
17B73
330
17DC5
330
17DC6
330
1808D
330
1808E
330
1809E
330
1809F
330
180B1
330
180B2
330
180C0
330
180C1
330
183F8
330
183F7
330
18494
330
18495
330
185DE
330
185DF
330
185ED
330
185EE
330
185FC
330
185FD
330
1860B
330
1860C
330
18618
330
18619
330
18625
330
18626
330
18632
330
18633
330
18716
330
18717
330
18722
330
18723
330
1872E
330
1872F
330
1873A
330
1873B
330
18746
330
18747
330
18752
330
18753
330
1875E
330
1875F
330
1878F
330
18790
330
187A7
330
187A8
330
187B5
330
187B6
330
187C2
330
187C3
330
187D1
330
187D2
330
187E2
330
187E3
330
187F5
330
187F6
330
18802
330
18803
330
18812
330
18813
330
18822
330
18823
330
18832
330
18833
330
18843
330
18844
330
1886A
330
1886B
330
188BB
330
188BC
330
188CE
330
188CF
330
188E7
330
188E8
330
189AE
330
189AF
330
189C0
330
189C1
  0
DICTIONARYVAR
  5
36AB
102
{ACAD_REACTORS
330
366B
102
}
330
366B
100
DictionaryVariables
280
     0
  1
0.250000
  0
DICTIONARYVAR
  5
36A9
102
{ACAD_REACTORS
330
E38
102
}
330
E38
100
DictionaryVariables
280
     0
  1
0.261799
  0
DICTIONARYVAR
  5
36A7
102
{ACAD_REACTORS
330
E38
102
}
330
E38
100
DictionaryVariables
280
     0
  1
0.400000
  0
DICTIONARYVAR
  5
36A8
102
{ACAD_REACTORS
330
E38
102
}
330
E38
100
DictionaryVariables
280
     0
  1
0.250000
  0
DICTIONARYVAR
  5
36AA
102
{ACAD_REACTORS
330
E38
102
}
330
E38
100
DictionaryVariables
280
     0
  1
1
  0
FIELD
  5
36AD
102
{ACAD_REACTORS
330
189D1
102
}
330
189D1
100
AcDbField
  1
_text
  2
%<\_FldIdx 0>%N
 90
        1
360
36B1
 97
        0
 91
       63
 92
        0
 94
       13
 95
        2
 96
        0
300

 93
        1
  6
ACFD_FIELDTEXT_CHECKSUM
 93
        2
 90
        2
140
2518.0
 94
        0
300

302

304
ACVALUE_END
  7
ACFD_FIELD_VALUE
 93
        3
 90
        0
 94
        0
300

302

304
ACVALUE_END
301

 98
        0
  0
DICTIONARY
  5
189F0
330
279
100
AcDbDictionary
280
     1
281
     1
  3
ACAD_ROUNDTRIP_2008_TABLESTYLE_CELLSTYLEMAP
360
18A43
  0
FIELD
  5
36B1
330
36AD
100
AcDbField
  1
AcVar
  2
\AcVar Date \f "yyyyMMdd"
 90
        0
 97
        0
 91
       32
 92
        0
 94
       59
 95
        2
 96
        0
300

 93
        1
  6
Variable
 93
        2
 90
        4
  1
Date
 94
        0
300

302

304
ACVALUE_END
  7
ACFD_FIELD_VALUE
 93
        4
 90
        8
 92
       16
310
E7070900030014000E001B001B000000
 94
        0
300
yyyyMMdd
302
20230920
304
ACVALUE_END
301
20230920
 98
        8
  0
CELLSTYLEMAP
  5
18A43
102
{ACAD_REACTORS
330
189F0
102
}
330
189F0
100
AcDbCellStyleMap
 90
        3
300
CELLSTYLE
  1
TABLEFORMAT_BEGIN
 90
        5
170
     1
 91
        0
 92
    32768
 62
   257
 93
        1
300
CONTENTFORMAT
  1
CONTENTFORMAT_BEGIN
 90
        0
 91
        0
 92
        4
 93
        0
300

 40
0.0
140
1.0
 94
        5
 62
     0
340
17
144
6.0
309
CONTENTFORMAT_END
171
     1
301
MARGIN
  1
CELLMARGIN_BEGIN
 40
0.06
 40
0.06
 40
0.06
 40
0.06
 40
0.18
 40
0.18
309
CELLMARGIN_END
 94
        6
 95
        1
302
GRIDFORMAT
  1
GRIDFORMAT_BEGIN
 90
        0
 91
        1
 62
     0
 92
       -2
340
0
 93
        0
 40
0.045
309
GRIDFORMAT_END
 95
        2
302
GRIDFORMAT
  1
GRIDFORMAT_BEGIN
 90
        0
 91
        1
 62
     0
 92
       -2
340
0
 93
        0
 40
0.045
309
GRIDFORMAT_END
 95
        4
302
GRIDFORMAT
  1
GRIDFORMAT_BEGIN
 90
        0
 91
        1
 62
     0
 92
       -2
340
0
 93
        0
 40
0.045
309
GRIDFORMAT_END
 95
        8
302
GRIDFORMAT
  1
GRIDFORMAT_BEGIN
 90
        0
 91
        1
 62
     0
 92
       -2
340
0
 93
        0
 40
0.045
309
GRIDFORMAT_END
 95
       16
302
GRIDFORMAT
  1
GRIDFORMAT_BEGIN
 90
        0
 91
        1
 62
     0
 92
       -2
340
0
 93
        0
 40
0.045
309
GRIDFORMAT_END
 95
       32
302
GRIDFORMAT
  1
GRIDFORMAT_BEGIN
 90
        0
 91
        1
 62
     0
 92
       -2
340
0
 93
        0
 40
0.045
309
GRIDFORMAT_END
309
TABLEFORMAT_END
  1
CELLSTYLE_BEGIN
 90
        1
 91
        1
300
_TITLE
309
CELLSTYLE_END
300
CELLSTYLE
  1
TABLEFORMAT_BEGIN
 90
        5
170
     1
 91
        0
 92
        0
 62
   257
 93
        1
300
CONTENTFORMAT
  1
CONTENTFORMAT_BEGIN
 90
        0
 91
        0
 92
        4
 93
        0
300

 40
0.0
140
1.0
 94
        5
 62
     0
340
17
144
4.5
309
CONTENTFORMAT_END
171
     1
301
MARGIN
  1
CELLMARGIN_BEGIN
 40
0.06
 40
0.06
 40
0.06
 40
0.06
 40
0.18
 40
0.18
309
CELLMARGIN_END
 94
        6
 95
        1
302
GRIDFORMAT
  1
GRIDFORMAT_BEGIN
 90
        0
 91
        1
 62
     0
 92
       -2
340
0
 93
        0
 40
0.045
309
GRIDFORMAT_END
 95
        2
302
GRIDFORMAT
  1
GRIDFORMAT_BEGIN
 90
        0
 91
        1
 62
     0
 92
       -2
340
0
 93
        0
 40
0.045
309
GRIDFORMAT_END
 95
        4
302
GRIDFORMAT
  1
GRIDFORMAT_BEGIN
 90
        0
 91
        1
 62
     0
 92
       -2
340
0
 93
        0
 40
0.045
309
GRIDFORMAT_END
 95
        8
302
GRIDFORMAT
  1
GRIDFORMAT_BEGIN
 90
        0
 91
        1
 62
     0
 92
       -2
340
0
 93
        0
 40
0.045
309
GRIDFORMAT_END
 95
       16
302
GRIDFORMAT
  1
GRIDFORMAT_BEGIN
 90
        0
 91
        1
 62
     0
 92
       -2
340
0
 93
        0
 40
0.045
309
GRIDFORMAT_END
 95
       32
302
GRIDFORMAT
  1
GRIDFORMAT_BEGIN
 90
        0
 91
        1
 62
     0
 92
       -2
340
0
 93
        0
 40
0.045
309
GRIDFORMAT_END
309
TABLEFORMAT_END
  1
CELLSTYLE_BEGIN
 90
        2
 91
        1
300
_HEADER
309
CELLSTYLE_END
300
CELLSTYLE
  1
TABLEFORMAT_BEGIN
 90
        5
170
     1
 91
        0
 92
        0
 62
   257
 93
        1
300
CONTENTFORMAT
  1
CONTENTFORMAT_BEGIN
 90
        0
 91
        0
 92
        4
 93
        0
300

 40
0.0
140
1.0
 94
        2
 62
     0
340
17
144
4.5
309
CONTENTFORMAT_END
171
     1
301
MARGIN
  1
CELLMARGIN_BEGIN
 40
0.06
 40
0.06
 40
0.06
 40
0.06
 40
0.18
 40
0.18
309
CELLMARGIN_END
 94
        6
 95
        1
302
GRIDFORMAT
  1
GRIDFORMAT_BEGIN
 90
        0
 91
        1
 62
     0
 92
       -2
340
0
 93
        0
 40
0.045
309
GRIDFORMAT_END
 95
        2
302
GRIDFORMAT
  1
GRIDFORMAT_BEGIN
 90
        0
 91
        1
 62
     0
 92
       -2
340
0
 93
        0
 40
0.045
309
GRIDFORMAT_END
 95
        4
302
GRIDFORMAT
  1
GRIDFORMAT_BEGIN
 90
        0
 91
        1
 62
     0
 92
       -2
340
0
 93
        0
 40
0.045
309
GRIDFORMAT_END
 95
        8
302
GRIDFORMAT
  1
GRIDFORMAT_BEGIN
 90
        0
 91
        1
 62
     0
 92
       -2
340
0
 93
        0
 40
0.045
309
GRIDFORMAT_END
 95
       16
302
GRIDFORMAT
  1
GRIDFORMAT_BEGIN
 90
        0
 91
        1
 62
     0
 92
       -2
340
0
 93
        0
 40
0.045
309
GRIDFORMAT_END
 95
       32
302
GRIDFORMAT
  1
GRIDFORMAT_BEGIN
 90
        0
 91
        1
 62
     0
 92
       -2
340
0
 93
        0
 40
0.045
309
GRIDFORMAT_END
309
TABLEFORMAT_END
  1
CELLSTYLE_BEGIN
 90
        3
 91
        2
300
_DATA
309
CELLSTYLE_END
  0
ENDSEC
  0
SECTION
  2
ACDSDATA
 70
     2
 71
     8
  0
ACDSSCHEMA
 90
        0
  1
AcDb_Thumbnail_Schema
  2
AcDbDs::ID
280
    10
 91
        8
  2
Thumbnail_Data
280
    15
 91
        0
101
ACDSRECORD
 95
        0
 90
        1
  2
AcDbDs::TreatedAsObjectData
280
     1
291
     1
101
ACDSRECORD
 95
        0
 90
        2
  2
AcDbDs::Legacy
280
     1
291
     1
101
ACDSRECORD
  1
AcDbDs::ID
 90
        3
  2
AcDs:Indexable
280
     1
291
     1
101
ACDSRECORD
  1
AcDbDs::ID
 90
        4
  2
AcDbDs::HandleAttribute
280
     7
282
     1
  0
ACDSSCHEMA
 90
        1
  1
AcDbDs::TreatedAsObjectDataSchema
  2
AcDbDs::TreatedAsObjectData
280
     1
 91
        0
  0
ACDSSCHEMA
 90
        2
  1
AcDbDs::LegacySchema
  2
AcDbDs::Legacy
280
     1
 91
        0
  0
ACDSSCHEMA
 90
        3
  1
AcDbDs::IndexedPropertySchema
  2
AcDs:Indexable
280
     1
 91
        0
  0
ACDSSCHEMA
 90
        4
  1
AcDbDs::HandleAttributeSchema
  2
AcDbDs::HandleAttribute
280
     7
 91
        1
284
     1
  0
ACDSRECORD
 90
        0
  2
AcDbDs::ID
280
    10
320
20
  2
Thumbnail_Data
280
    15
 94
     2177
310
89504E470D0A1A0A0000000D4948445200000100000000C00802000000648F2A31000007AB4944415478DAED9D3B7AAB3A1446C5FD3211A80E1DCC2465BA0C456128EE5C662676A7CE1E0AA7D03D8ACC2BC4012169AFF5A5700876B0D0BF5FE851947F1A951A7773514A9575EB5E3BECC1C9E3C79E29E152DD690951242A80
310
14DB3A6F12BD29FF71E760131235490800B68C4B09810052E2258370F396A6EDC980CABB0B89E600490A60DCD015397170F2B03B49E600774C3E9004032000000400512666080042E645D7BBB99298891000E320C6BD9F46102400AA40B0152F3441BADCCCA550C5D815F4AA573C1B41003252CFA9912C8686210916C0C0FC
310
3BAABA9DFB132000D8C9175106A5AD63887FBEFBD34E245A99C86134A8E4247810119575335712DD3B334EF48E64321A542CAE43DFCCC55AFDB1ED0FF39480E1D07880881CC2B23780B40500CB0EE1662EBDEA2BD5FADEA052EDDD5C4BC5044004900B5DD7BDBFBDBAD75A6BDA040108426BEDE7003CFA7D029E03C036F01C
310
80B6160DC3A1696B400010A3BDB8520F4500000800E011CAA0F91366601C5520109E6950050A67D228837253040B80322837050F00800700200906781ACAA01962978428D5C38498FFA7442AA24704903B6E2ED86042CCAE5B5A5005821835E0B3EB84015685087977E5FAF19BB9745DE7FFEA5EBBD961766A5855B777730D
310
BF3E0A1E60778457814EE74F67D1FD9FB1A5675E3C21509E4EC0BDF07FACE1D75A0F627D86439304E7835BF7611CD33B0DF8C771027880AC58D99BFDD3CABA099009500502E1CA642C5028180BC44D112D00C6027153F00000780000926000040080006473ECE2B85481201C852A26BBFBDC7112B339180DAAD26C81E65FB7
310
BBFA4718FB29C2035005024220D1CC8D0862DC9B8810087AD52BF3B053BCEDFA766B30DA070F90397606CC20E22FEBC697048919020012B31C43A0A88CCD60E47DF0A68865BE0B3BC5073536622BA1BDEA0B532C48F16EAE872C01C44EF1189B40D1FFC266D7761908F2603CC066D8D9B72B93CB8568A4573DFBF82280F428
310
5451D6CD82D15DFB39A6F8FD87C0E650050204002035314300B0596286003234368CAF24098ED1D86CA2816F2B3CF631932DABABA3679CCC5DBF832A9314016CC59A0A8F2B5FDE6272F1734B231E3816882418C2F5FEC172D0CE033867050820B6BC25442E51A8E2C66C2142A03031F713E1D656E67F2107A8EAD63F27CBCA
310
8474011CD5D6BFE955BDD965AACA9C18D2AD4C20806CDB7A43DC6E48C383DDAB7AFB720213BB44EED66E7800BC6D74A1DA43D065B04AB924C1AC0A713A7FBA9DC2FC831FFAE374FE9C34F355DD522425090E9D04EF9A8C765DE762217FEB484000FBE6C136C276C516FFD7852ACD5617E0FE85D6DAFF5F639F007986408890
310
623F024003716980E1D0D9B6B5DD8537CE606CD432878D5D655994A06D1D4C037E3F23F02004024000000800000100B8FC9B2A10088649F1181B3C0002C0D8E0011000C6061000C606100000020040009039548140345481303680003036800000100000020031500502D15005C2D8E0011000C6060F800030368000303680
310
00001000000280CC618798845288ABC0EFBBF7B2A1EC1083B10142A040268D2A1090030090033C154135A2928103370DC003801CB3C25820100C6381303678000480B1C10320008C0D20008C0D200000040080002073A8028168A802616C0001606C0001002000000400800040029441696BD15006A5ADF1000880B6C60320
310
00DA1A1000000200400000080032872A106D2D1AAA40B435200080A478A10996B9E16D108070AABA8D4D09C8921048B453AAEAB68AAC12401508C2F5FE082F2CD1CA449221D081C6C6C51EF6C5E4AFC1E293AEEBDEDF5EDD6B3C8014011CB51F5B3CA6D7F67BADB5BBA49BB968ADAD0CB4D6726E0A1E00BE1CC2E9FCF9FEF6
310
5AD5ADF542FE1638BDEA955295A2E9F000F9E222A27F96E26B7324BA7E3E02383C015849A10A6B7737E774FE544A7DE88FDEF4EE7F95E726F2441901A4CD4F7B55A99ACDEDAE0D6FEC9594F5D7E7978A9DF09E8132E8AEA1DA75F2F5AE9F7F94F9E7390084734473C1D881C10FCF01D23336BDEA9551852AE6FF51A3A21C77
310
F0A501E31D358AD05F8400B6AD022DEF231D6D97AAEAF66EAEFEA6DF6C884D12BC6F520B084056F25AD68DB3AC9326D63FF3DB3C75EF3C1B488221F9C40C0140A26E932A5016C666505CB795224B618AF5A1887D06EC4A4CBDEA377F28D6ABDEFFFC63AB408C060D6A6CF66BEE61346FE6FFB48C797C8BD9F96A4DCE370501
310
1C666C9EB6A98337EE619BFDCFA4A22528076059142009064000000800A42566D293E031AC931343624615E87863937131C4893C92EF9887D1A10A04A2C92404F2570779E28D93EF5A98777294C359B94823CF0448821F7AC3B71DE2B91E134F3FA3C74BF700DF7685E7341067C78AF352A902919089FE9A5481A2303612AA
310
402BBF66C8F3F100071B9BC924D84F19F310C64FBFC5D3E73F5172C50344176EF2740CA478803933E69CC0C0334CBAFB05C1082CB3ACA9022380D8636517FF8C0FA6E82E7E7A91BF393FF05E0708E0B07E93D052B2515D671EDA90B82C4A4225FFDF773BE7FDFC5575C71FB23EE0996B28568548B8F7CB71838374688DAE06
310
2D36F709AC0A118E95C6667CE7F28EE596DFB2EC01E464BD038AF24F7A0B4A0EAA40943B6370A73C0720E00172000004004008449C230BCAA0209A44CBA00800447B805443A0497B53D6AD2DC6DD4743D5278F8439F3F00B0879A9C975A4BFCE04279A1E19F7310000000049454E44AE4260828122EB37916AE0B57ED68900
310
3B139CC662C5E9F779DA865481309912653356D69C59EE1CCBBB626C165555A0F69798391D28CD5CB6FDBF412BB131D69ED69DA180690DBCF36E6ADA36CA32287381000F40C40F09E4000078006C7CACB03D3A248DFC2A1002003C00003940746E342F2B5F24ED3FA17FD09BA2C1E74FBCC3CC37E764A69F2FB977FD07C94F
310
7A3EC6FEF34B0000000049454E44AE426082
  0
ENDSEC
  0
EOF
