  0
SECTION
  2
HEADER
  9
$ACADVER
  1
AC1021
  9
$ACADMAINTVER
 70
    25
  9
$DWGCODEPAGE
  3
ANSI_932
  9
$LASTSAVEDBY
  1
tform
  9
$INSBASE
 10
0.0
 20
0.0
 30
0.0
  9
$EXTMIN
 10
0.0
 20
0.0
 30
-0.0000000000000071
  9
$EXTMAX
 10
420.0
 20
594.0
 30
0.0000000000000071
  9
$LIMMIN
 10
0.0
 20
0.0
  9
$LIMMAX
 10
420.0
 20
594.0
  9
$ORTHOMODE
 70
     1
  9
$REGENMODE
 70
     1
  9
$FILLMODE
 70
     1
  9
$QTEXTMODE
 70
     0
  9
$MIRRTEXT
 70
     1
  9
$LTSCALE
 40
1.0
  9
$ATTMODE
 70
     1
  9
$TEXTSIZE
 40
2.5
  9
$TRACEWID
 40
1.0
  9
$TEXTSTYLE
  7
ＭＳ ゴシック
  9
$CLAYER
  8
DIM
  9
$CELTYPE
  6
ByLayer
  9
$CECOLOR
 62
   256
  9
$CELTSCALE
 40
1.0
  9
$DISPSILH
 70
     0
  9
$DIMSCALE
 40
1.0
  9
$DIMASZ
 40
2.0
  9
$DIMEXO
 40
5.0
  9
$DIMDLI
 40
0.9999999999999999
  9
$DIMRND
 40
0.0
  9
$DIMDLE
 40
0.0
  9
$DIMEXE
 40
0.0
  9
$DIMTP
 40
0.0
  9
$DIMTM
 40
0.0
  9
$DIMTXT
 40
5.0
  9
$DIMCEN
 40
0.0
  9
$DIMTSZ
 40
0.0
  9
$DIMTOL
 70
     0
  9
$DIMLIM
 70
     0
  9
$DIMTIH
 70
     0
  9
$DIMTOH
 70
     0
  9
$DIMSE1
 70
     0
  9
$DIMSE2
 70
     0
  9
$DIMTAD
 70
     1
  9
$DIMZIN
 70
    11
  9
$DIMBLK
  1
DOT
  9
$DIMASO
 70
     1
  9
$DIMSHO
 70
     1
  9
$DIMPOST
  1
<>
  9
$DIMAPOST
  1
[]
  9
$DIMALT
 70
     0
  9
$DIMALTD
 70
     1
  9
$DIMALTF
 40
1.0
  9
$DIMLFAC
 40
1.0
  9
$DIMTOFL
 70
     0
  9
$DIMTVP
 40
0.0
  9
$DIMTIX
 70
     1
  9
$DIMSOXD
 70
     0
  9
$DIMSAH
 70
     0
  9
$DIMBLK1
  1

  9
$DIMBLK2
  1

  9
$DIMSTYLE
  2
tfrom線あり
  9
$DIMCLRD
 70
     0
  9
$DIMCLRE
 70
     0
  9
$DIMCLRT
 70
     0
  9
$DIMTFAC
 40
1.0
  9
$DIMGAP
 40
3.0
  9
$DIMJUST
 70
     0
  9
$DIMSD1
 70
     0
  9
$DIMSD2
 70
     0
  9
$DIMTOLJ
 70
     1
  9
$DIMTZIN
 70
    11
  9
$DIMALTZ
 70
    11
  9
$DIMALTTZ
 70
    11
  9
$DIMUPT
 70
     0
  9
$DIMDEC
 70
     0
  9
$DIMTDEC
 70
     1
  9
$DIMALTU
 70
     2
  9
$DIMALTTD
 70
     2
  9
$DIMTXSTY
  7
ＭＳ ゴシック
  9
$DIMAUNIT
 70
     0
  9
$DIMADEC
 70
     2
  9
$DIMALTRND
 40
0.0
  9
$DIMAZIN
 70
     0
  9
$DIMDSEP
 70
    46
  9
$DIMATFIT
 70
     0
  9
$DIMFRAC
 70
     2
  9
$DIMLDRBLK
  1
DOT
  9
$DIMLUNIT
 70
     2
  9
$DIMLWD
 70
    -2
  9
$DIMLWE
 70
    -2
  9
$DIMTMOVE
 70
     0
  9
$DIMFXL
 40
1.0
  9
$DIMFXLON
 70
     0
  9
$DIMJOGANG
 40
0.7853981633974483
  9
$DIMTFILL
 70
     0
  9
$DIMTFILLCLR
 70
     0
  9
$DIMARCSYM
 70
     0
  9
$DIMLTYPE
  6

  9
$DIMLTEX1
  6

  9
$DIMLTEX2
  6

  9
$LUNITS
 70
     2
  9
$LUPREC
 70
     0
  9
$SKETCHINC
 40
0.1
  9
$FILLETRAD
 40
0.0
  9
$AUNITS
 70
     0
  9
$AUPREC
 70
     0
  9
$MENU
  1
acad
  9
$ELEVATION
 40
0.0
  9
$PELEVATION
 40
0.0
  9
$THICKNESS
 40
0.0
  9
$LIMCHECK
 70
     0
  9
$CHAMFERA
 40
0.0
  9
$CHAMFERB
 40
0.0
  9
$CHAMFERC
 40
0.0
  9
$CHAMFERD
 40
0.0
  9
$SKPOLY
 70
     0
  9
$TDCREATE
 40
2447893.375
  9
$TDUCREATE
 40
0.0
  9
$TDUPDATE
 40
2459800.666193437
  9
$TDUUPDATE
 40
2459800.291193437
  9
$TDINDWG
 40
0.0008420833
  9
$TDUSRTIMER
 40
0.000024537
  9
$USRTIMER
 70
     1
  9
$ANGBASE
 50
0.0
  9
$ANGDIR
 70
     0
  9
$PDMODE
 70
     1
  9
$PDSIZE
 40
-2.0
  9
$PLINEWID
 40
0.0
  9
$SPLFRAME
 70
     0
  9
$SPLINETYPE
 70
     6
  9
$SPLINESEGS
 70
     8
  9
$HANDSEED
  5
45D1
  9
$SURFTAB1
 70
     6
  9
$SURFTAB2
 70
     6
  9
$SURFTYPE
 70
     6
  9
$SURFU
 70
     6
  9
$SURFV
 70
     6
  9
$UCSBASE
  2

  9
$UCSNAME
  2

  9
$UCSORG
 10
0.0
 20
0.0
 30
0.0
  9
$UCSXDIR
 10
1.0
 20
0.0
 30
0.0
  9
$UCSYDIR
 10
0.0
 20
1.0
 30
0.0
  9
$UCSORTHOREF
  2

  9
$UCSORTHOVIEW
 70
     0
  9
$UCSORGTOP
 10
0.0
 20
0.0
 30
0.0
  9
$UCSORGBOTTOM
 10
0.0
 20
0.0
 30
0.0
  9
$UCSORGLEFT
 10
0.0
 20
0.0
 30
0.0
  9
$UCSORGRIGHT
 10
0.0
 20
0.0
 30
0.0
  9
$UCSORGFRONT
 10
0.0
 20
0.0
 30
0.0
  9
$UCSORGBACK
 10
0.0
 20
0.0
 30
0.0
  9
$PUCSBASE
  2

  9
$PUCSNAME
  2

  9
$PUCSORG
 10
0.0
 20
0.0
 30
0.0
  9
$PUCSXDIR
 10
1.0
 20
0.0
 30
0.0
  9
$PUCSYDIR
 10
0.0
 20
1.0
 30
0.0
  9
$PUCSORTHOREF
  2

  9
$PUCSORTHOVIEW
 70
     0
  9
$PUCSORGTOP
 10
0.0
 20
0.0
 30
0.0
  9
$PUCSORGBOTTOM
 10
0.0
 20
0.0
 30
0.0
  9
$PUCSORGLEFT
 10
0.0
 20
0.0
 30
0.0
  9
$PUCSORGRIGHT
 10
0.0
 20
0.0
 30
0.0
  9
$PUCSORGFRONT
 10
0.0
 20
0.0
 30
0.0
  9
$PUCSORGBACK
 10
0.0
 20
0.0
 30
0.0
  9
$USERI1
 70
     0
  9
$USERI2
 70
     0
  9
$USERI3
 70
     0
  9
$USERI4
 70
     0
  9
$USERI5
 70
     0
  9
$USERR1
 40
0.0
  9
$USERR2
 40
0.0
  9
$USERR3
 40
0.0
  9
$USERR4
 40
0.0
  9
$USERR5
 40
0.0
  9
$WORLDVIEW
 70
     1
  9
$SHADEDGE
 70
     3
  9
$SHADEDIF
 70
    70
  9
$TILEMODE
 70
     1
  9
$MAXACTVP
 70
    64
  9
$PINSBASE
 10
0.0
 20
0.0
 30
0.0
  9
$PLIMCHECK
 70
     0
  9
$PEXTMIN
 10
0.0
 20
0.0
 30
0.0
  9
$PEXTMAX
 10
0.0
 20
0.0
 30
0.0
  9
$PLIMMIN
 10
-7.5
 20
-20.0
  9
$PLIMMAX
 10
412.5
 20
277.0
  9
$UNITMODE
 70
     0
  9
$VISRETAIN
 70
     0
  9
$PLINEGEN
 70
     1
  9
$PSLTSCALE
 70
     0
  9
$TREEDEPTH
 70
  3020
  9
$CMLSTYLE
  2
Standard
  9
$CMLJUST
 70
     0
  9
$CMLSCALE
 40
1.0
  9
$PROXYGRAPHICS
 70
     0
  9
$MEASUREMENT
 70
     1
  9
$CELWEIGHT
370
    -1
  9
$ENDCAPS
280
     0
  9
$JOINSTYLE
280
     0
  9
$LWDISPLAY
290
     1
  9
$INSUNITS
 70
     4
  9
$HYPERLINKBASE
  1

  9
$STYLESHEET
  1

  9
$XEDIT
290
     1
  9
$CEPSNTYPE
380
     0
  9
$PSTYLEMODE
290
     1
  9
$FINGERPRINTGUID
  2

  9
$VERSIONGUID
  2

  9
$EXTNAMES
290
     1
  9
$PSVPSCALE
 40
0.0
  9
$OLESTARTUP
290
     0
  9
$SORTENTS
280
   127
  9
$INDEXCTL
280
     0
  9
$HIDETEXT
280
     1
  9
$XCLIPFRAME
290
     0
  9
$HALOGAP
280
     0
  9
$OBSCOLOR
 70
   257
  9
$OBSLTYPE
280
     0
  9
$INTERSECTIONDISPLAY
280
     0
  9
$INTERSECTIONCOLOR
 70
   257
  9
$DIMASSOC
280
     2
  9
$PROJECTNAME
  1

  9
$CAMERADISPLAY
290
     0
  9
$LENSLENGTH
 40
50.0
  9
$CAMERAHEIGHT
 40
0.0
  9
$STEPSPERSEC
 40
2.0
  9
$STEPSIZE
 40
6.0
  9
$3DDWFPREC
 40
2.0
  9
$PSOLWIDTH
 40
0.25
  9
$PSOLHEIGHT
 40
4.0
  9
$LOFTANG1
 40
1.570796326794897
  9
$LOFTANG2
 40
1.570796326794897
  9
$LOFTMAG1
 40
0.0
  9
$LOFTMAG2
 40
0.0
  9
$LOFTPARAM
 70
     7
  9
$LOFTNORMALS
280
     1
  9
$LATITUDE
 40
37.795
  9
$LONGITUDE
 40
-122.394
  9
$NORTHDIRECTION
 40
0.0
  9
$TIMEZONE
 70
 -8000
  9
$LIGHTGLYPHDISPLAY
280
     1
  9
$TILEMODELIGHTSYNCH
280
     1
  9
$SOLIDHIST
280
     1
  9
$SHOWHIST
280
     1
  9
$DWFFRAME
280
     2
  9
$DGNFRAME
280
     2
  9
$REALWORLDSCALE
290
     1
  9
$INTERFERECOLOR
 62
   256
  9
$CSHADOW
280
     0
  9
$SHADOWPLANELOCATION
 40
0.0
  0
ENDSEC
  0
SECTION
  2
CLASSES
  0
CLASS
  1
LWPOLYLINE
  2
AcDbPolyline
  3
ObjectDBX Classes
 90
        0
 91
        1
280
     0
281
     1
  0
CLASS
  1
IMAGE
  2
AcDbRasterImage
  3
ISM
 90
      127
 91
        4
280
     0
281
     1
  0
CLASS
  1
OLE2FRAME
  2
AcDbOle2Frame
  3
ObjectDBX Classes
 90
        0
 91
        1
280
     0
281
     1
  0
CLASS
  1
HATCH
  2
AcDbHatch
  3
ObjectDBX Classes
 90
        0
 91
        1
280
     0
281
     1
  0
CLASS
  1
DICTIONARYVAR
  2
AcDbDictionaryVar
  3
ObjectDBX Classes
 90
        0
 91
        3
280
     0
281
     0
  0
CLASS
  1
RASTERVARIABLES
  2
AcDbRasterVariables
  3
ISM
 90
        0
 91
        3
280
     0
281
     0
  0
CLASS
  1
IMAGEDEF
  2
AcDbRasterImageDef
  3
ISM
 90
        0
 91
        3
280
     0
281
     0
  0
CLASS
  1
IMAGEDEF_REACTOR
  2
AcDbRasterImageDefReactor
  3
ISM
 90
        1
 91
        3
280
     0
281
     0
  0
CLASS
  1
IDBUFFER
  2
AcDbIdBuffer
  3
ObjectDBX Classes
 90
        0
 91
        3
280
     0
281
     0
  0
CLASS
  1
SPATIAL_FILTER
  2
AcDbSpatialFilter
  3
ObjectDBX Classes
 90
        0
 91
        3
280
     0
281
     0
  0
CLASS
  1
XRECORD
  2
AcDbXrecord
  3
ObjectDBX Classes
 90
        0
 91
        1
280
     0
281
     0
  0
CLASS
  1
SORTENTSTABLE
  2
AcDbSortentsTable
  3
ObjectDBX Classes
 90
        0
 91
        3
280
     0
281
     0
  0
CLASS
  1
LAYER_INDEX
  2
AcDbLayerIndex
  3
ObjectDBX Classes
 90
        0
 91
        3
280
     0
281
     0
  0
CLASS
  1
SPATIAL_INDEX
  2
AcDbSpatialIndex
  3
AutoCAD 2000
 90
        0
 91
        3
280
     0
281
     0
  0
CLASS
  1
OBJECT_PTR
  2
CAseDLPNTableRecord
  3
ASE-LPNTableRecord
 90
        1
 91
        3
280
     0
281
     0
  0
CLASS
  1
LAYOUT
  2
AcDbLayout
  3
ObjectDBX Classes
 90
        0
 91
        1
280
     0
281
     0
  0
CLASS
  1
PLOTSETTINGS
  2
AcDbPlotSettings
  3
ObjectDBX Classes
 90
        0
 91
        3
280
     0
281
     0
  0
CLASS
  1
ACDBDICTIONARYWDFLT
  2
AcDbDictionaryWithDefault
  3
ObjectDBX Classes
 90
        0
 91
        3
280
     0
281
     0
  0
CLASS
  1
ACDBPLACEHOLDER
  2
AcDbPlaceHolder
  3
ObjectDBX Classes
 90
        0
 91
        1
280
     0
281
     0
  0
CLASS
  1
SCALE
  2
AcDbScale
  3
ObjectDBX Classes
 90
     1153
 91
        3
280
     0
281
     0
  0
CLASS
  1
MATERIAL
  2
AcDbMaterial
  3
ObjectDBX Classes
 90
     1153
 91
        3
280
     0
281
     0
  0
CLASS
  1
VISUALSTYLE
  2
AcDbVisualStyle
  3
ObjectDBX Classes
 90
     4095
 91
        3
280
     0
281
     0
  0
CLASS
  1
TABLESTYLE
  2
AcDbTableStyle
  3
ObjectDBX Classes
 90
     4095
 91
        3
280
     0
281
     0
  0
CLASS
  1
DIMASSOC
  2
AcDbDimAssoc
  3
"AcDbDimAssoc|Product Desc:     AcDim ARX App For Dimension|Company:          Autodesk, Inc.|WEB Address:      www.autodesk.com"
 90
        0
 91
        3
280
     0
281
     0
  0
CLASS
  1
CELLSTYLEMAP
  2
AcDbCellStyleMap
  3
ObjectDBX Classes
 90
     1152
 91
        3
280
     0
281
     0
  0
CLASS
  1
SUN
  2
AcDbSun
  3
SCENEOE
 90
     1153
 91
        3
280
     0
281
     0
  0
CLASS
  1
MLEADERSTYLE
  2
AcDbMLeaderStyle
  3
ACDB_MLEADERSTYLE_CLASS
 90
     4095
 91
        3
280
     0
281
     0
  0
CLASS
  1
FIELD
  2
AcDbField
  3
ObjectDBX Classes
 90
     1152
 91
        3
280
     0
281
     0
  0
CLASS
  1
FIELDLIST
  2
AcDbFieldList
  3
ObjectDBX Classes
 90
     1152
 91
        3
280
     0
281
     0
  0
ENDSEC
  0
SECTION
  2
TABLES
  0
TABLE
  2
VPORT
  5
7
330
0
100
AcDbSymbolTable
 70
     1
  0
VPORT
  5
15
330
7
100
AcDbSymbolTableRecord
100
AcDbViewportTableRecord
  2
*ACTIVE
 70
     0
 10
0.0
 20
0.0
 11
1.0
 21
1.0
 12
301.0201356709
 22
223.401285469834
 13
0.0
 23
0.0
 14
1.0
 24
1.0
 15
0.0
 25
0.0
 16
0.0
 26
0.0
 36
1.0
 17
-91.0201356709
 27
73.59871453016603
 37
-46.86809886248109
 40
605.88
 41
2.147058823529412
 42
50.0
 43
0.0
 44
0.0
 50
0.0
 51
0.0
 71
    16
 72
  2000
 73
     1
 74
     1
 75
     0
 76
     0
 77
     0
 78
     0
281
     0
 65
     1
110
0.0
120
0.0
130
0.0
111
1.0
121
0.0
131
0.0
112
0.0
122
1.0
132
0.0
 79
     0
146
0.0
348
26C
 60
     3
 61
     5
292
     1
282
     1
141
0.0
142
0.0
 63
   256
361
904
  0
ENDTAB
  0
TABLE
  2
LTYPE
  5
4
330
0
100
AcDbSymbolTable
 70
     3
  0
LTYPE
  5
11
330
4
100
AcDbSymbolTableRecord
100
AcDbLinetypeTableRecord
  2
ByBlock
 70
     0
  3

 72
    65
 73
     0
 40
0.0
  0
LTYPE
  5
12
330
4
100
AcDbSymbolTableRecord
100
AcDbLinetypeTableRecord
  2
ByLayer
 70
     0
  3

 72
    65
 73
     0
 40
0.0
  0
LTYPE
  5
13
330
4
100
AcDbSymbolTableRecord
100
AcDbLinetypeTableRecord
  2
Continuous
 70
     0
  3
Solid line
 72
    65
 73
     0
 40
0.0
  0
LTYPE
  5
D6C
330
4
100
AcDbSymbolTableRecord
100
AcDbLinetypeTableRecord
  2
BORDER
 70
     0
  3
Border __  __  . __  __  . __  __  . __  __  . 
 72
    65
 73
     6
 40
44.45
 49
12.7
 74
     0
 49
-6.35
 74
     0
 49
12.7
 74
     0
 49
-6.35
 74
     0
 49
0.0
 74
     0
 49
-6.35
 74
     0
  0
LTYPE
  5
D6D
330
4
100
AcDbSymbolTableRecord
100
AcDbLinetypeTableRecord
  2
HIDDEN
 70
     0
  3
Hidden _ _ _ _ _ _ _ _ _ _ _ _ _ _ _ _ _ _ _ _ 
 72
    65
 73
     2
 40
9.524999999999999
 49
6.35
 74
     0
 49
-3.175
 74
     0
  0
ENDTAB
  0
TABLE
  2
LAYER
  5
2
102
{ACAD_XDICTIONARY
360
2E1
102
}
330
0
100
AcDbSymbolTable
 70
     9
  0
LAYER
  5
14
330
2
100
AcDbSymbolTableRecord
100
AcDbLayerTableRecord
  2
0
 70
     0
 62
     7
  6
Continuous
370
    -3
390
1D
347
266
  0
LAYER
  5
4B
330
2
100
AcDbSymbolTableRecord
100
AcDbLayerTableRecord
  2
TEMPLATE
 70
     0
 62
     7
  6
Continuous
370
    20
390
1D
347
266
  0
LAYER
  5
4C
330
2
100
AcDbSymbolTableRecord
100
AcDbLayerTableRecord
  2
DIM
 70
     0
 62
     3
  6
Continuous
370
    13
390
1D
347
266
  0
LAYER
  5
4D
330
2
100
AcDbSymbolTableRecord
100
AcDbLayerTableRecord
  2
MODEL
 70
     0
 62
     7
  6
Continuous
370
    20
390
1D
347
266
  0
LAYER
  5
88C
330
2
100
AcDbSymbolTableRecord
100
AcDbLayerTableRecord
  2
HIDDEN
 70
     0
 62
     8
  6
HIDDEN
370
    20
390
1D
347
266
1001
AcAecLayerStandard
1000

1000

  0
LAYER
  5
D6B
330
2
100
AcDbSymbolTableRecord
100
AcDbLayerTableRecord
  2
BORDER
 70
     0
 62
     4
  6
BORDER
290
     0
370
    20
390
1D
347
266
1001
AcAecLayerStandard
1000

1000

  0
LAYER
  5
D8C
330
2
100
AcDbSymbolTableRecord
100
AcDbLayerTableRecord
  2
Defpoints
 70
     0
 62
     7
  6
Continuous
290
     0
370
    -3
390
1D
347
266
  0
LAYER
  5
3653
330
2
100
AcDbSymbolTableRecord
100
AcDbLayerTableRecord
  2
Standard
 70
     0
 62
     7
  6
Continuous
370
    -3
390
1D
347
266
  0
LAYER
  5
3D6A
330
2
100
AcDbSymbolTableRecord
100
AcDbLayerTableRecord
  2
レイヤー 1
 70
     0
 62
     7
  6
Continuous
370
    -3
390
1D
347
266
  0
ENDTAB
  0
TABLE
  2
STYLE
  5
3
330
0
100
AcDbSymbolTable
 70
     2
  0
STYLE
  5
17
330
3
100
AcDbSymbolTableRecord
100
AcDbTextStyleTableRecord
  2
Standard
 70
     0
 40
0.0
 41
1.0
 50
0.0
 71
     0
 42
2.5
  3
txt
  4
BIGFONT.SHX
  0
STYLE
  5
39
330
3
100
AcDbSymbolTableRecord
100
AcDbTextStyleTableRecord
  2
ＭＳ ゴシック
 70
     0
 40
0.0
 41
1.0
 50
0.0
 71
     0
 42
2.5
  3
msgothic.ttc
  4
ＭＳ ゴシック
1001
ACAD
1000
ＭＳ ゴシック
1071
        0
  0
ENDTAB
  0
TABLE
  2
VIEW
  5
5
330
0
100
AcDbSymbolTable
 70
     0
  0
ENDTAB
  0
TABLE
  2
UCS
  5
6
330
0
100
AcDbSymbolTable
 70
     0
  0
ENDTAB
  0
TABLE
  2
APPID
  5
8
330
0
100
AcDbSymbolTable
 70
     4
  0
APPID
  5
16
330
8
100
AcDbSymbolTableRecord
100
AcDbRegAppTableRecord
  2
ACAD
 70
     0
  0
APPID
  5
7AC
330
8
100
AcDbSymbolTableRecord
100
AcDbRegAppTableRecord
  2
AcAecLayerStandard
 70
     0
  0
APPID
  5
E29
330
8
100
AcDbSymbolTableRecord
100
AcDbRegAppTableRecord
  2
ACAD_MLEADERVER
 70
     0
  0
APPID
  5
4511
330
8
100
AcDbSymbolTableRecord
100
AcDbRegAppTableRecord
  2
PLOTTRANSPARENCY
 70
     0
  0
ENDTAB
  0
TABLE
  2
DIMSTYLE
  5
9
330
0
100
AcDbSymbolTable
 70
     3
100
AcDbDimStyleTable
  0
DIMSTYLE
105
18
330
9
100
AcDbSymbolTableRecord
100
AcDbDimStyleTableRecord
  2
Standard
 70
     0
178
     0
340
17
  0
DIMSTYLE
105
57
102
{ACAD_REACTORS
330
44AF
330
44BE
330
44EE
330
4515
330
4524
330
457C
330
458B
330
459A
102
}
330
9
100
AcDbSymbolTableRecord
100
AcDbDimStyleTableRecord
  2
tfrom線あり
 70
     0
  3
<>
  4
[]
 41
2.0
 42
5.0
 43
0.9999999999999999
 44
0.0
 73
     0
 74
     0
 77
     1
 78
    11
140
5.0
141
0.0
143
1.0
147
3.0
171
     1
174
     1
178
     0
179
     2
271
     0
272
     1
276
     2
284
    11
285
    11
286
    11
289
     0
340
39
341
4E
342
4E
  0
DIMSTYLE
105
4543
330
9
100
AcDbSymbolTableRecord
100
AcDbDimStyleTableRecord
  2
tform線あり
 70
     0
  3
<>
  4
[]
 41
9.999389648437498
 42
25.0
 43
0.9999999999999999
 44
0.0
 73
     0
 74
     0
 77
     1
 78
    11
140
24.4326171875
141
0.0
143
1.0
146
0.8
147
10.0
171
     1
172
     1
174
     1
178
     0
179
     2
271
     1
272
     1
276
     2
284
    11
285
    11
286
    11
289
     0
340
39
341
4E
342
4E
  0
ENDTAB
  0
TABLE
  2
BLOCK_RECORD
  5
1
330
0
100
AcDbSymbolTable
 70
    25
  0
BLOCK_RECORD
  5
A
102
{ACAD_XDICTIONARY
360
3D3D
102
}
330
1
100
AcDbSymbolTableRecord
100
AcDbBlockTableRecord
  2
*MODEL_SPACE
340
20
 70
     0
280
     1
281
     0
  0
BLOCK_RECORD
  5
B
330
1
100
AcDbSymbolTableRecord
100
AcDbBlockTableRecord
  2
*PAPER_SPACE
340
21
 70
     0
280
     1
281
     0
  0
BLOCK_RECORD
  5
4E
330
1
100
AcDbSymbolTableRecord
100
AcDbBlockTableRecord
  2
_DOT
340
0
102
{BLKREFS
331
3B8C
331
3B8D
331
3B98
331
3B99
331
3BA4
331
3BA5
331
3BB0
331
3BB1
331
3BBC
331
3BBD
331
3BC8
331
3BC9
331
3BD4
331
3BD5
331
3CFD
331
3CFE
331
3D0C
331
3D0D
331
3D2A
331
3D2B
331
3D36
331
3D37
331
410B
331
410C
331
44A3
331
44A4
331
44B8
331
44B9
331
44C7
331
44C8
331
44D6
331
44D7
331
44E8
331
44E9
331
44F7
331
44F8
331
451E
331
451F
331
452D
331
452E
331
4585
331
4586
331
4594
331
4595
331
45A3
331
45A4
102
}
 70
     0
280
     1
281
     0
  0
BLOCK_RECORD
  5
68D
330
1
100
AcDbSymbolTableRecord
100
AcDbBlockTableRecord
  2
block 2
340
0
102
{BLKREFS
331
68C
331
1343
102
}
 70
     0
280
     1
281
     0
  0
BLOCK_RECORD
  5
3B86
330
1
100
AcDbSymbolTableRecord
100
AcDbBlockTableRecord
  2
*D2
340
0
 70
     0
280
     1
281
     0
  0
BLOCK_RECORD
  5
3B92
330
1
100
AcDbSymbolTableRecord
100
AcDbBlockTableRecord
  2
*D3
340
0
 70
     0
280
     1
281
     0
  0
BLOCK_RECORD
  5
3B9E
330
1
100
AcDbSymbolTableRecord
100
AcDbBlockTableRecord
  2
*D4
340
0
 70
     0
280
     1
281
     0
  0
BLOCK_RECORD
  5
3BAA
330
1
100
AcDbSymbolTableRecord
100
AcDbBlockTableRecord
  2
*D5
340
0
 70
     0
280
     1
281
     0
  0
BLOCK_RECORD
  5
3BB6
330
1
100
AcDbSymbolTableRecord
100
AcDbBlockTableRecord
  2
*D6
340
0
 70
     0
280
     1
281
     0
  0
BLOCK_RECORD
  5
3BC2
330
1
100
AcDbSymbolTableRecord
100
AcDbBlockTableRecord
  2
*D7
340
0
 70
     0
280
     1
281
     0
  0
BLOCK_RECORD
  5
3BCE
330
1
100
AcDbSymbolTableRecord
100
AcDbBlockTableRecord
  2
*D8
340
0
 70
     0
280
     1
281
     0
  0
BLOCK_RECORD
  5
3CF8
330
1
100
AcDbSymbolTableRecord
100
AcDbBlockTableRecord
  2
*D9
340
0
 70
     0
280
     1
281
     0
  0
BLOCK_RECORD
  5
3D07
330
1
100
AcDbSymbolTableRecord
100
AcDbBlockTableRecord
  2
*D10
340
0
 70
     0
280
     1
281
     0
  0
BLOCK_RECORD
  5
3D24
330
1
100
AcDbSymbolTableRecord
100
AcDbBlockTableRecord
  2
*D11
340
0
 70
     0
280
     1
281
     0
  0
BLOCK_RECORD
  5
3D30
330
1
100
AcDbSymbolTableRecord
100
AcDbBlockTableRecord
  2
*D12
340
0
 70
     0
280
     1
281
     0
  0
BLOCK_RECORD
  5
4106
330
1
100
AcDbSymbolTableRecord
100
AcDbBlockTableRecord
  2
*D13
340
0
 70
     0
280
     1
281
     0
  0
BLOCK_RECORD
  5
449D
330
1
100
AcDbSymbolTableRecord
100
AcDbBlockTableRecord
  2
*D14
340
0
 70
     0
280
     1
281
     0
  0
BLOCK_RECORD
  5
44B2
330
1
100
AcDbSymbolTableRecord
100
AcDbBlockTableRecord
  2
*D15
340
0
 70
     0
280
     1
281
     0
  0
BLOCK_RECORD
  5
44C1
330
1
100
AcDbSymbolTableRecord
100
AcDbBlockTableRecord
  2
*D16
340
0
 70
     0
280
     1
281
     0
  0
BLOCK_RECORD
  5
44D0
330
1
100
AcDbSymbolTableRecord
100
AcDbBlockTableRecord
  2
*D17
340
0
 70
     0
280
     1
281
     0
  0
BLOCK_RECORD
  5
44E2
330
1
100
AcDbSymbolTableRecord
100
AcDbBlockTableRecord
  2
*D18
340
0
 70
     0
280
     1
281
     0
  0
BLOCK_RECORD
  5
44F1
330
1
100
AcDbSymbolTableRecord
100
AcDbBlockTableRecord
  2
*D19
340
0
 70
     0
280
     1
281
     0
  0
BLOCK_RECORD
  5
4518
330
1
100
AcDbSymbolTableRecord
100
AcDbBlockTableRecord
  2
*D20
340
0
 70
     0
280
     1
281
     0
  0
BLOCK_RECORD
  5
4527
330
1
100
AcDbSymbolTableRecord
100
AcDbBlockTableRecord
  2
*D21
340
0
 70
     0
280
     1
281
     0
  0
BLOCK_RECORD
  5
457F
330
1
100
AcDbSymbolTableRecord
100
AcDbBlockTableRecord
  2
*D22
340
0
 70
     0
280
     1
281
     0
  0
BLOCK_RECORD
  5
458E
330
1
100
AcDbSymbolTableRecord
100
AcDbBlockTableRecord
  2
*D23
340
0
 70
     0
280
     1
281
     0
  0
BLOCK_RECORD
  5
459D
330
1
100
AcDbSymbolTableRecord
100
AcDbBlockTableRecord
  2
*D24
340
0
 70
     0
280
     1
281
     0
  0
ENDTAB
  0
ENDSEC
  0
SECTION
  2
BLOCKS
  0
BLOCK
  5
D
330
A
100
AcDbEntity
  8
0
390
1D
100
AcDbBlockBegin
  2
*MODEL_SPACE
 70
     0
 10
0.0
 20
0.0
 30
0.0
  3
*MODEL_SPACE
  1
*MODEL_SPACE
  0
ENDBLK
  5
E
330
A
100
AcDbEntity
  8
0
390
1D
100
AcDbBlockEnd
  0
BLOCK
  5
F
330
B
100
AcDbEntity
 67
     1
  8
0
390
1D
100
AcDbBlockBegin
  2
*PAPER_SPACE
 70
     0
 10
0.0
 20
0.0
 30
0.0
  3
*PAPER_SPACE
  1
*PAPER_SPACE
  0
ENDBLK
  5
10
330
B
100
AcDbEntity
 67
     1
  8
0
390
1D
100
AcDbBlockEnd
  0
BLOCK
  5
2462
330
4E
100
AcDbEntity
  8
0
390
1D
100
AcDbBlockBegin
  2
_DOT
 70
     0
 10
0.0
 20
0.0
 30
0.0
  3
_DOT
  1
_DOT
  0
POLYLINE
  5
2464
330
4E
100
AcDbEntity
  8
0
  6
ByBlock
 62
     0
370
    -2
390
1D
100
AcDb2dPolyline
 66
     1
 10
0.0
 20
0.0
 30
0.0
 70
     1
 40
0.5
 41
0.5
  0
VERTEX
  5
2465
330
2464
100
AcDbEntity
  8
0
  6
ByBlock
 62
     0
370
    -2
390
1D
100
AcDbVertex
100
AcDb2dVertex
 10
-0.25
 20
0.0
 30
0.0
 42
1.0
  0
VERTEX
  5
2466
330
2464
100
AcDbEntity
  8
0
  6
ByBlock
 62
     0
370
    -2
390
1D
100
AcDbVertex
100
AcDb2dVertex
 10
0.25
 20
0.0
 30
0.0
 42
1.0
  0
SEQEND
  5
2467
330
2464
100
AcDbEntity
  8
0
390
1D
  0
LINE
  5
2468
330
4E
100
AcDbEntity
  8
0
  6
ByBlock
 62
     0
370
    -2
390
1D
100
AcDbLine
 10
-0.5
 20
0.0
 30
0.0
 11
-1.0
 21
0.0
 31
0.0
  0
ENDBLK
  5
2469
330
4E
100
AcDbEntity
  8
0
390
1D
100
AcDbBlockEnd
  0
BLOCK
  5
68E
330
68D
100
AcDbEntity
  8
0
100
AcDbBlockBegin
  2
block 2
 70
     0
 10
0.0
 20
0.0
 30
0.0
  3
block 2
  1
block 2
  0
ENDBLK
  5
6B0
330
68D
100
AcDbEntity
  8
0
100
AcDbBlockEnd
  0
BLOCK
  5
3B87
330
3B86
100
AcDbEntity
  8
0
100
AcDbBlockBegin
  2
*D2
 70
     1
 10
0.0
 20
0.0
 30
0.0
  3
*D2
  1

  0
LINE
  5
3B89
330
3B86
100
AcDbEntity
  8
DIM
 62
     0
370
    -2
100
AcDbLine
 10
120.4165303244005
 20
319.2077009873063
 30
0.0
 11
80.41653032440028
 21
319.2077009873061
 31
0.0
  0
LINE
  5
3B8A
330
3B86
100
AcDbEntity
  8
DIM
 62
     0
370
    -2
100
AcDbLine
 10
95.2823248987792
 20
182.2077009873063
 30
0.0
 11
80.41653032440077
 21
182.2077009873062
 31
0.0
  0
LINE
  5
3B8B
330
3B86
100
AcDbEntity
  8
DIM
 62
     0
370
    -2
100
AcDbLine
 10
80.41653032440028
 20
317.2077009873061
 30
0.0
 11
80.41653032440077
 21
184.2077009873062
 31
0.0
  0
INSERT
  5
3B8C
330
3B86
100
AcDbEntity
  8
DIM
 62
     0
370
    -2
100
AcDbBlockReference
  2
_DOT
 10
80.41653032440028
 20
319.2077009873061
 30
0.0
 41
2.0
 42
2.0
 43
2.0
 50
90.0000000000002
  0
INSERT
  5
3B8D
330
3B86
100
AcDbEntity
  8
DIM
 62
     0
370
    -2
100
AcDbBlockReference
  2
_DOT
 10
80.41653032440077
 20
182.2077009873062
 30
0.0
 41
2.0
 42
2.0
 43
2.0
 50
270.0000000000002
  0
MTEXT
  5
3B8E
330
3B86
100
AcDbEntity
  8
DIM
 62
     0
 48
0.05
100
AcDbMText
 10
72.41653032440053
 20
250.7077009873063
 30
0.0
 40
5.0
 41
0.0
 46
0.0
 71
     2
 72
     1
  1
\A1;137
  7
ＭＳ ゴシック
 11
-3.526781462166923E-15
 21
1.0
 31
0.0
 73
     1
 44
1.0
  0
POINT
  5
3B8F
330
3B86
100
AcDbEntity
  8
Defpoints
 62
     0
100
AcDbPoint
 10
125.4165303244005
 20
319.2077009873063
 30
0.0
  0
POINT
  5
3B90
330
3B86
100
AcDbEntity
  8
Defpoints
 62
     0
100
AcDbPoint
 10
100.2823248987792
 20
182.2077009873063
 30
0.0
  0
POINT
  5
3B91
330
3B86
100
AcDbEntity
  8
Defpoints
 62
     0
100
AcDbPoint
 10
80.41653032440077
 20
182.2077009873062
 30
0.0
  0
ENDBLK
  5
3B88
330
3B86
100
AcDbEntity
  8
0
100
AcDbBlockEnd
  0
BLOCK
  5
3B93
330
3B92
100
AcDbEntity
  8
0
100
AcDbBlockBegin
  2
*D3
 70
     1
 10
0.0
 20
0.0
 30
0.0
  3
*D3
  1

  0
LINE
  5
3B95
330
3B92
100
AcDbEntity
  8
DIM
 62
     0
370
    -2
100
AcDbLine
 10
100.4165303244005
 20
456.7854077805792
 30
0.0
 11
100.4165303244005
 21
469.9574301222169
 31
0.0
  0
LINE
  5
3B96
330
3B92
100
AcDbEntity
  8
DIM
 62
     0
370
    -2
100
AcDbLine
 10
172.4165303244005
 20
456.7854077805792
 30
0.0
 11
172.4165303244005
 21
469.9574301222169
 31
0.0
  0
LINE
  5
3B97
330
3B92
100
AcDbEntity
  8
DIM
 62
     0
370
    -2
100
AcDbLine
 10
102.4165303244005
 20
469.9574301222169
 30
0.0
 11
170.4165303244005
 21
469.9574301222169
 31
0.0
  0
INSERT
  5
3B98
330
3B92
100
AcDbEntity
  8
DIM
 62
     0
370
    -2
100
AcDbBlockReference
  2
_DOT
 10
100.4165303244005
 20
469.9574301222169
 30
0.0
 41
2.0
 42
2.0
 43
2.0
 50
180.0
  0
INSERT
  5
3B99
330
3B92
100
AcDbEntity
  8
DIM
 62
     0
370
    -2
100
AcDbBlockReference
  2
_DOT
 10
172.4165303244005
 20
469.9574301222169
 30
0.0
 41
2.0
 42
2.0
 43
2.0
  0
MTEXT
  5
3B9A
330
3B92
100
AcDbEntity
  8
DIM
 62
     0
 48
0.05
100
AcDbMText
 10
136.4165303244005
 20
477.9574301222169
 30
0.0
 40
5.0
 41
0.0
 46
0.0
 71
     2
 72
     1
  1
\A1;72
  7
ＭＳ ゴシック
 73
     1
 44
1.0
  0
POINT
  5
3B9B
330
3B92
100
AcDbEntity
  8
Defpoints
 62
     0
100
AcDbPoint
 10
100.4165303244005
 20
451.7854077805792
 30
0.0
  0
POINT
  5
3B9C
330
3B92
100
AcDbEntity
  8
Defpoints
 62
     0
100
AcDbPoint
 10
172.4165303244005
 20
451.7854077805792
 30
0.0
  0
POINT
  5
3B9D
330
3B92
100
AcDbEntity
  8
Defpoints
 62
     0
100
AcDbPoint
 10
172.4165303244005
 20
469.9574301222169
 30
0.0
  0
ENDBLK
  5
3B94
330
3B92
100
AcDbEntity
  8
0
100
AcDbBlockEnd
  0
BLOCK
  5
3B9F
330
3B9E
100
AcDbEntity
  8
0
100
AcDbBlockBegin
  2
*D4
 70
     1
 10
0.0
 20
0.0
 30
0.0
  3
*D4
  1

  0
LINE
  5
3BA1
330
3B9E
100
AcDbEntity
  8
DIM
 62
     0
370
    -2
100
AcDbLine
 10
95.4165303244005
 20
448.3104475998533
 30
0.0
 11
80.41653032440041
 21
448.3104475998533
 31
0.0
  0
LINE
  5
3BA2
330
3B9E
100
AcDbEntity
  8
DIM
 62
     0
370
    -2
100
AcDbLine
 10
120.4165303244005
 20
380.0604475998529
 30
0.0
 11
80.41653032440065
 21
380.0604475998528
 31
0.0
  0
LINE
  5
3BA3
330
3B9E
100
AcDbEntity
  8
DIM
 62
     0
370
    -2
100
AcDbLine
 10
80.41653032440041
 20
446.3104475998533
 30
0.0
 11
80.41653032440065
 21
382.0604475998528
 31
0.0
  0
INSERT
  5
3BA4
330
3B9E
100
AcDbEntity
  8
DIM
 62
     0
370
    -2
100
AcDbBlockReference
  2
_DOT
 10
80.41653032440041
 20
448.3104475998533
 30
0.0
 41
2.0
 42
2.0
 43
2.0
 50
90.0000000000002
  0
INSERT
  5
3BA5
330
3B9E
100
AcDbEntity
  8
DIM
 62
     0
370
    -2
100
AcDbBlockReference
  2
_DOT
 10
80.41653032440065
 20
380.0604475998528
 30
0.0
 41
2.0
 42
2.0
 43
2.0
 50
270.0000000000002
  0
MTEXT
  5
3BA6
330
3B9E
100
AcDbEntity
  8
DIM
 62
     0
 48
0.05
100
AcDbMText
 10
72.41653032440053
 20
414.1854475998531
 30
0.0
 40
5.0
 41
0.0
 46
0.0
 71
     2
 72
     1
  1
\A1;68
  7
ＭＳ ゴシック
 11
-3.539700075581425E-15
 21
1.0
 31
0.0
 73
     1
 44
1.0
  0
POINT
  5
3BA7
330
3B9E
100
AcDbEntity
  8
Defpoints
 62
     0
100
AcDbPoint
 10
100.4165303244005
 20
448.3104475998533
 30
0.0
  0
POINT
  5
3BA8
330
3B9E
100
AcDbEntity
  8
Defpoints
 62
     0
100
AcDbPoint
 10
125.4165303244005
 20
380.0604475998529
 30
0.0
  0
POINT
  5
3BA9
330
3B9E
100
AcDbEntity
  8
Defpoints
 62
     0
100
AcDbPoint
 10
80.41653032440065
 20
380.0604475998528
 30
0.0
  0
ENDBLK
  5
3BA0
330
3B9E
100
AcDbEntity
  8
0
100
AcDbBlockEnd
  0
BLOCK
  5
3BAB
330
3BAA
100
AcDbEntity
  8
0
100
AcDbBlockBegin
  2
*D5
 70
     1
 10
0.0
 20
0.0
 30
0.0
  3
*D5
  1

  0
LINE
  5
3BAD
330
3BAA
100
AcDbEntity
  8
DIM
 62
     0
370
    -2
100
AcDbLine
 10
125.4165303244005
 20
375.0604475998529
 30
0.0
 11
125.4165303244005
 21
361.7949884833052
 31
0.0
  0
LINE
  5
3BAE
330
3BAA
100
AcDbEntity
  8
DIM
 62
     0
370
    -2
100
AcDbLine
 10
147.4165303244005
 20
375.0604475998529
 30
0.0
 11
147.4165303244005
 21
361.7949884833052
 31
0.0
  0
LINE
  5
3BAF
330
3BAA
100
AcDbEntity
  8
DIM
 62
     0
370
    -2
100
AcDbLine
 10
127.4165303244005
 20
361.7949884833052
 30
0.0
 11
145.4165303244005
 21
361.7949884833052
 31
0.0
  0
INSERT
  5
3BB0
330
3BAA
100
AcDbEntity
  8
DIM
 62
     0
370
    -2
100
AcDbBlockReference
  2
_DOT
 10
125.4165303244005
 20
361.7949884833052
 30
0.0
 41
2.0
 42
2.0
 43
2.0
 50
180.0
  0
INSERT
  5
3BB1
330
3BAA
100
AcDbEntity
  8
DIM
 62
     0
370
    -2
100
AcDbBlockReference
  2
_DOT
 10
147.4165303244005
 20
361.7949884833052
 30
0.0
 41
2.0
 42
2.0
 43
2.0
  0
MTEXT
  5
3BB2
330
3BAA
100
AcDbEntity
  8
DIM
 62
     0
 48
0.05
100
AcDbMText
 10
136.4165303244005
 20
369.7949884833052
 30
0.0
 40
5.0
 41
0.0
 46
0.0
 71
     2
 72
     1
  1
\A1;22
  7
ＭＳ ゴシック
 73
     1
 44
1.0
  0
POINT
  5
3BB3
330
3BAA
100
AcDbEntity
  8
Defpoints
 62
     0
100
AcDbPoint
 10
125.4165303244005
 20
380.0604475998529
 30
0.0
  0
POINT
  5
3BB4
330
3BAA
100
AcDbEntity
  8
Defpoints
 62
     0
100
AcDbPoint
 10
147.4165303244005
 20
380.0604475998529
 30
0.0
  0
POINT
  5
3BB5
330
3BAA
100
AcDbEntity
  8
Defpoints
 62
     0
100
AcDbPoint
 10
147.4165303244005
 20
361.7949884833052
 30
0.0
  0
ENDBLK
  5
3BAC
330
3BAA
100
AcDbEntity
  8
0
100
AcDbBlockEnd
  0
BLOCK
  5
3BB7
330
3BB6
100
AcDbEntity
  8
0
100
AcDbBlockBegin
  2
*D6
 70
     1
 10
0.0
 20
0.0
 30
0.0
  3
*D6
  1

  0
LINE
  5
3BB9
330
3BB6
100
AcDbEntity
  8
DIM
 62
     0
370
    -2
100
AcDbLine
 10
176.6454837165862
 20
212.2077009873064
 30
0.0
 11
193.3903881603889
 21
212.2077009873063
 31
0.0
  0
LINE
  5
3BBA
330
3BB6
100
AcDbEntity
  8
DIM
 62
     0
370
    -2
100
AcDbLine
 10
176.6454837165862
 20
182.2077009873063
 30
0.0
 11
193.3903881603889
 21
182.2077009873062
 31
0.0
  0
LINE
  5
3BBB
330
3BB6
100
AcDbEntity
  8
DIM
 62
     0
370
    -2
100
AcDbLine
 10
193.3903881603889
 20
210.2077009873063
 30
0.0
 11
193.3903881603889
 21
184.2077009873062
 31
0.0
  0
INSERT
  5
3BBC
330
3BB6
100
AcDbEntity
  8
DIM
 62
     0
370
    -2
100
AcDbBlockReference
  2
_DOT
 10
193.3903881603889
 20
212.2077009873063
 30
0.0
 41
2.0
 42
2.0
 43
2.0
 50
89.99999999999982
  0
INSERT
  5
3BBD
330
3BB6
100
AcDbEntity
  8
DIM
 62
     0
370
    -2
100
AcDbBlockReference
  2
_DOT
 10
193.3903881603889
 20
182.2077009873062
 30
0.0
 41
2.0
 42
2.0
 43
2.0
 50
269.9999999999998
  0
MTEXT
  5
3BBE
330
3BB6
100
AcDbEntity
  8
DIM
 62
     0
 48
0.05
100
AcDbMText
 10
185.3903881603889
 20
197.2077009873064
 30
0.0
 40
5.0
 41
0.0
 46
0.0
 71
     2
 72
     1
  1
\A1;30
  7
ＭＳ ゴシック
 11
2.842170943040393E-15
 21
1.0
 31
0.0
 73
     1
 44
1.0
  0
POINT
  5
3BBF
330
3BB6
100
AcDbEntity
  8
Defpoints
 62
     0
100
AcDbPoint
 10
171.6454837165862
 20
212.2077009873064
 30
0.0
  0
POINT
  5
3BC0
330
3BB6
100
AcDbEntity
  8
Defpoints
 62
     0
100
AcDbPoint
 10
171.6454837165862
 20
182.2077009873063
 30
0.0
  0
POINT
  5
3BC1
330
3BB6
100
AcDbEntity
  8
Defpoints
 62
     0
100
AcDbPoint
 10
193.3903881603888
 20
182.2077009873062
 30
0.0
  0
ENDBLK
  5
3BB8
330
3BB6
100
AcDbEntity
  8
0
100
AcDbBlockEnd
  0
BLOCK
  5
3BC3
330
3BC2
100
AcDbEntity
  8
0
100
AcDbBlockBegin
  2
*D7
 70
     1
 10
0.0
 20
0.0
 30
0.0
  3
*D7
  1

  0
LINE
  5
3BC5
330
3BC2
100
AcDbEntity
  8
DIM
 62
     0
370
    -2
100
AcDbLine
 10
177.9901558885232
 20
438.06044758632
 30
0.0
 11
190.3107608583836
 21
438.06044758632
 31
0.0
  0
LINE
  5
3BC6
330
3BC2
100
AcDbEntity
  8
DIM
 62
     0
370
    -2
100
AcDbLine
 10
177.4165317216699
 20
448.31044758632
 30
0.0
 11
190.3107608583836
 21
448.31044758632
 31
0.0
  0
LINE
  5
3BC7
330
3BC2
100
AcDbEntity
  8
DIM
 62
     0
370
    -2
100
AcDbLine
 10
190.3107608583836
 20
440.06044758632
 30
0.0
 11
190.3107608583836
 21
446.31044758632
 31
0.0
  0
INSERT
  5
3BC8
330
3BC2
100
AcDbEntity
  8
DIM
 62
     0
370
    -2
100
AcDbBlockReference
  2
_DOT
 10
190.3107608583836
 20
438.06044758632
 30
0.0
 41
2.0
 42
2.0
 43
2.0
 50
270.0
  0
INSERT
  5
3BC9
330
3BC2
100
AcDbEntity
  8
DIM
 62
     0
370
    -2
100
AcDbBlockReference
  2
_DOT
 10
190.3107608583836
 20
448.31044758632
 30
0.0
 41
2.0
 42
2.0
 43
2.0
 50
90.0
  0
MTEXT
  5
3BCA
330
3BC2
100
AcDbEntity
  8
DIM
 62
     0
 48
0.05
100
AcDbMText
 10
182.3107608583836
 20
443.18544758632
 30
0.0
 40
5.0
 41
0.0
 46
0.0
 71
     2
 72
     1
  1
\A1;10
  7
ＭＳ ゴシック
 11
0.0
 21
1.0
 31
0.0
 73
     1
 44
1.0
  0
POINT
  5
3BCB
330
3BC2
100
AcDbEntity
  8
Defpoints
 62
     0
100
AcDbPoint
 10
172.9901558885232
 20
438.06044758632
 30
0.0
  0
POINT
  5
3BCC
330
3BC2
100
AcDbEntity
  8
Defpoints
 62
     0
100
AcDbPoint
 10
172.4165317216699
 20
448.31044758632
 30
0.0
  0
POINT
  5
3BCD
330
3BC2
100
AcDbEntity
  8
Defpoints
 62
     0
100
AcDbPoint
 10
190.3107608583836
 20
448.31044758632
 30
0.0
  0
ENDBLK
  5
3BC4
330
3BC2
100
AcDbEntity
  8
0
100
AcDbBlockEnd
  0
BLOCK
  5
3BCF
330
3BCE
100
AcDbEntity
  8
0
100
AcDbBlockBegin
  2
*D8
 70
     1
 10
0.0
 20
0.0
 30
0.0
  3
*D8
  1

  0
LINE
  5
3BD1
330
3BCE
100
AcDbEntity
  8
DIM
 62
     0
370
    -2
100
AcDbLine
 10
182.9901558885232
 20
438.06044758632
 30
0.0
 11
190.3107608583836
 21
438.06044758632
 31
0.0
  0
LINE
  5
3BD2
330
3BCE
100
AcDbEntity
  8
DIM
 62
     0
370
    -2
100
AcDbLine
 10
150.8011504144714
 20
380.0604500198659
 30
0.0
 11
190.3107608583836
 21
380.0604500198659
 31
0.0
  0
LINE
  5
3BD3
330
3BCE
100
AcDbEntity
  8
DIM
 62
     0
370
    -2
100
AcDbLine
 10
190.3107608583836
 20
436.06044758632
 30
0.0
 11
190.3107608583836
 21
382.0604500198659
 31
0.0
  0
INSERT
  5
3BD4
330
3BCE
100
AcDbEntity
  8
DIM
 62
     0
370
    -2
100
AcDbBlockReference
  2
_DOT
 10
190.3107608583836
 20
438.06044758632
 30
0.0
 41
2.0
 42
2.0
 43
2.0
 50
90.0
  0
INSERT
  5
3BD5
330
3BCE
100
AcDbEntity
  8
DIM
 62
     0
370
    -2
100
AcDbBlockReference
  2
_DOT
 10
190.3107608583836
 20
380.0604500198659
 30
0.0
 41
2.0
 42
2.0
 43
2.0
 50
270.0
  0
MTEXT
  5
3BD6
330
3BCE
100
AcDbEntity
  8
DIM
 62
     0
 48
0.05
100
AcDbMText
 10
184.8107608583836
 20
409.060448803093
 30
0.0
 40
5.0
 41
0.0
 46
0.0
 71
     5
 72
     1
  1
\A1;58
  7
ＭＳ ゴシック
 11
0.0
 21
1.0
 31
0.0
 73
     1
 44
1.0
  0
POINT
  5
3BD7
330
3BCE
100
AcDbEntity
  8
Defpoints
 62
     0
100
AcDbPoint
 10
177.9901558885232
 20
438.06044758632
 30
0.0
  0
POINT
  5
3BD8
330
3BCE
100
AcDbEntity
  8
Defpoints
 62
     0
100
AcDbPoint
 10
145.8011504144714
 20
380.0604500198659
 30
0.0
  0
POINT
  5
3BD9
330
3BCE
100
AcDbEntity
  8
Defpoints
 62
     0
100
AcDbPoint
 10
190.3107608583836
 20
380.0604500198659
 30
0.0
  0
ENDBLK
  5
3BD0
330
3BCE
100
AcDbEntity
  8
0
100
AcDbBlockEnd
  0
BLOCK
  5
3CF9
330
3CF8
100
AcDbEntity
  8
0
100
AcDbBlockBegin
  2
*D9
 70
     1
 10
0.0
 20
0.0
 30
0.0
  3
*D9
  1

  0
LINE
  5
3CFA
330
3CF8
100
AcDbEntity
  8
DIM
 62
     0
370
    -2
100
AcDbLine
 10
0.5
 20
67.50177050455927
 30
0.0
 11
0.5
 21
97.57489301398171
 31
0.0
  0
LINE
  5
3CFB
330
3CF8
100
AcDbEntity
  8
DIM
 62
     0
370
    -2
100
AcDbLine
 10
57.58899696048613
 20
67.50177050455927
 30
0.0
 11
57.58899696048613
 21
97.57489301398171
 31
0.0
  0
LINE
  5
3CFC
330
3CF8
100
AcDbEntity
  8
DIM
 62
     0
370
    -2
100
AcDbLine
 10
2.5
 20
97.57489301398171
 30
0.0
 11
55.58899696048613
 21
97.57489301398171
 31
0.0
  0
INSERT
  5
3CFD
330
3CF8
100
AcDbEntity
  8
DIM
 62
     0
370
    -2
100
AcDbBlockReference
  2
_DOT
 10
0.5
 20
97.57489301398171
 30
0.0
 41
2.0
 42
2.0
 43
2.0
 50
180.0
  0
INSERT
  5
3CFE
330
3CF8
100
AcDbEntity
  8
DIM
 62
     0
370
    -2
100
AcDbBlockReference
  2
_DOT
 10
57.58899696048613
 20
97.57489301398171
 30
0.0
 41
2.0
 42
2.0
 43
2.0
  0
MTEXT
  5
3CFF
330
3CF8
100
AcDbEntity
  8
DIM
 62
     0
100
AcDbMText
 10
29.04449848024305
 20
103.0748930139817
 30
0.0
 40
5.0
 41
0.0
 46
0.0
 71
     5
 72
     1
  1
\A1;57
  7
ＭＳ ゴシック
 73
     1
 44
1.0
  0
POINT
  5
3D00
330
3CF8
100
AcDbEntity
  8
Defpoints
 62
     0
100
AcDbPoint
 10
0.5
 20
62.50177050455927
 30
0.0
  0
POINT
  5
3D01
330
3CF8
100
AcDbEntity
  8
Defpoints
 62
     0
100
AcDbPoint
 10
57.58899696048613
 20
62.50177050455927
 30
0.0
  0
POINT
  5
3D02
330
3CF8
100
AcDbEntity
  8
Defpoints
 62
     0
100
AcDbPoint
 10
57.58899696048613
 20
97.57489301398171
 30
0.0
  0
ENDBLK
  5
3D03
330
3CF8
100
AcDbEntity
  8
0
100
AcDbBlockEnd
  0
BLOCK
  5
3D08
330
3D07
100
AcDbEntity
  8
0
100
AcDbBlockBegin
  2
*D10
 70
     1
 10
0.0
 20
0.0
 30
0.0
  3
*D10
  1

  0
LINE
  5
3D09
330
3D07
100
AcDbEntity
  8
DIM
 62
     0
370
    -2
100
AcDbLine
 10
10.10104278775087
 20
57.50177050455927
 30
0.0
 11
10.10104278775087
 21
19.15243768996962
 31
0.0
  0
LINE
  5
3D0A
330
3D07
100
AcDbEntity
  8
DIM
 62
     0
370
    -2
100
AcDbLine
 10
47.98795417273527
 20
57.50177050455927
 30
0.0
 11
47.98795417273527
 21
19.15243768996962
 31
0.0
  0
LINE
  5
3D0B
330
3D07
100
AcDbEntity
  8
DIM
 62
     0
370
    -2
100
AcDbLine
 10
12.10104278775087
 20
19.15243768996962
 30
0.0
 11
45.98795417273527
 21
19.15243768996962
 31
0.0
  0
INSERT
  5
3D0C
330
3D07
100
AcDbEntity
  8
DIM
 62
     0
370
    -2
100
AcDbBlockReference
  2
_DOT
 10
10.10104278775087
 20
19.15243768996962
 30
0.0
 41
2.0
 42
2.0
 43
2.0
 50
180.0
  0
INSERT
  5
3D0D
330
3D07
100
AcDbEntity
  8
DIM
 62
     0
370
    -2
100
AcDbBlockReference
  2
_DOT
 10
47.98795417273527
 20
19.15243768996962
 30
0.0
 41
2.0
 42
2.0
 43
2.0
  0
MTEXT
  5
3D0E
330
3D07
100
AcDbEntity
  8
DIM
 62
     0
100
AcDbMText
 10
29.04449848024307
 20
24.65243768996962
 30
0.0
 40
5.0
 41
0.0
 46
0.0
 71
     5
 72
     1
  1
\A1;38
  7
ＭＳ ゴシック
 73
     1
 44
1.0
  0
POINT
  5
3D0F
330
3D07
100
AcDbEntity
  8
Defpoints
 62
     0
100
AcDbPoint
 10
10.10104278775087
 20
62.50177050455927
 30
0.0
  0
POINT
  5
3D10
330
3D07
100
AcDbEntity
  8
Defpoints
 62
     0
100
AcDbPoint
 10
47.98795417273527
 20
62.50177050455927
 30
0.0
  0
POINT
  5
3D11
330
3D07
100
AcDbEntity
  8
Defpoints
 62
     0
100
AcDbPoint
 10
47.98795417273527
 20
19.15243768996962
 30
0.0
  0
ENDBLK
  5
3D12
330
3D07
100
AcDbEntity
  8
0
100
AcDbBlockEnd
  0
BLOCK
  5
3D25
330
3D24
100
AcDbEntity
  8
0
100
AcDbBlockBegin
  2
*D11
 70
     1
 10
0.0
 20
0.0
 30
0.0
  3
*D11
  1

  0
LINE
  5
3D27
330
3D24
100
AcDbEntity
  8
DIM
 62
     0
370
    -2
100
AcDbLine
 10
-295.2633406375909
 20
335.9853167593456
 30
0.0
 11
-295.2633406375909
 21
401.1315617781904
 31
0.0
  0
LINE
  5
3D28
330
3D24
100
AcDbEntity
  8
DIM
 62
     0
370
    -2
100
AcDbLine
 10
-181.0853467166185
 20
335.9853167593456
 30
0.0
 11
-181.0853467166185
 21
401.1315617781904
 31
0.0
  0
LINE
  5
3D29
330
3D24
100
AcDbEntity
  8
DIM
 62
     0
370
    -2
100
AcDbLine
 10
-293.2633406375909
 20
401.1315617781904
 30
0.0
 11
-183.0853467166185
 21
401.1315617781904
 31
0.0
  0
INSERT
  5
3D2A
330
3D24
100
AcDbEntity
  8
DIM
 62
     0
370
    -2
100
AcDbBlockReference
  2
_DOT
 10
-295.2633406375909
 20
401.1315617781904
 30
0.0
 41
2.0
 42
2.0
 43
2.0
 50
180.0
  0
INSERT
  5
3D2B
330
3D24
100
AcDbEntity
  8
DIM
 62
     0
370
    -2
100
AcDbBlockReference
  2
_DOT
 10
-181.0853467166185
 20
401.1315617781904
 30
0.0
 41
2.0
 42
2.0
 43
2.0
  0
MTEXT
  5
3D2C
330
3D24
100
AcDbEntity
  8
DIM
 62
     0
100
AcDbMText
 10
-238.1743436771048
 20
406.6324996298848
 30
0.0
 40
5.0
 41
0.0
 46
0.0
 71
     5
 72
     1
  1
\A1;114
  7
ＭＳ ゴシック
 73
     1
 44
1.0
  0
POINT
  5
3D2D
330
3D24
100
AcDbEntity
  8
Defpoints
 62
     0
100
AcDbPoint
 10
-295.2633406375909
 20
330.9853167593456
 30
0.0
  0
POINT
  5
3D2E
330
3D24
100
AcDbEntity
  8
Defpoints
 62
     0
100
AcDbPoint
 10
-181.0853467166185
 20
330.9853167593456
 30
0.0
  0
POINT
  5
3D2F
330
3D24
100
AcDbEntity
  8
Defpoints
 62
     0
100
AcDbPoint
 10
-181.0853467166185
 20
401.1315617781904
 30
0.0
  0
ENDBLK
  5
3D26
330
3D24
100
AcDbEntity
  8
0
100
AcDbBlockEnd
  0
BLOCK
  5
3D31
330
3D30
100
AcDbEntity
  8
0
100
AcDbBlockBegin
  2
*D12
 70
     1
 10
0.0
 20
0.0
 30
0.0
  3
*D12
  1

  0
LINE
  5
3D33
330
3D30
100
AcDbEntity
  8
DIM
 62
     0
370
    -2
100
AcDbLine
 10
-276.0612550620891
 20
325.9853167593456
 30
0.0
 11
-276.0612550620891
 21
244.2866511301662
 31
0.0
  0
LINE
  5
3D34
330
3D30
100
AcDbEntity
  8
DIM
 62
     0
370
    -2
100
AcDbLine
 10
-200.2874322921203
 20
325.9853167593456
 30
0.0
 11
-200.2874322921203
 21
244.2866511301662
 31
0.0
  0
LINE
  5
3D35
330
3D30
100
AcDbEntity
  8
DIM
 62
     0
370
    -2
100
AcDbLine
 10
-274.0612550620891
 20
244.2866511301662
 30
0.0
 11
-202.2874322921203
 21
244.2866511301662
 31
0.0
  0
INSERT
  5
3D36
330
3D30
100
AcDbEntity
  8
DIM
 62
     0
370
    -2
100
AcDbBlockReference
  2
_DOT
 10
-276.0612550620891
 20
244.2866511301662
 30
0.0
 41
2.0
 42
2.0
 43
2.0
 50
180.0
  0
INSERT
  5
3D37
330
3D30
100
AcDbEntity
  8
DIM
 62
     0
370
    -2
100
AcDbBlockReference
  2
_DOT
 10
-200.2874322921203
 20
244.2866511301662
 30
0.0
 41
2.0
 42
2.0
 43
2.0
  0
MTEXT
  5
3D38
330
3D30
100
AcDbEntity
  8
DIM
 62
     0
100
AcDbMText
 10
-238.1743436771047
 20
249.7875889818606
 30
0.0
 40
5.0
 41
0.0
 46
0.0
 71
     5
 72
     1
  1
\A1;76
  7
ＭＳ ゴシック
 73
     1
 44
1.0
  0
POINT
  5
3D39
330
3D30
100
AcDbEntity
  8
Defpoints
 62
     0
100
AcDbPoint
 10
-276.0612550620891
 20
330.9853167593456
 30
0.0
  0
POINT
  5
3D3A
330
3D30
100
AcDbEntity
  8
Defpoints
 62
     0
100
AcDbPoint
 10
-200.2874322921203
 20
330.9853167593456
 30
0.0
  0
POINT
  5
3D3B
330
3D30
100
AcDbEntity
  8
Defpoints
 62
     0
100
AcDbPoint
 10
-200.2874322921203
 20
244.2866511301662
 30
0.0
  0
ENDBLK
  5
3D32
330
3D30
100
AcDbEntity
  8
0
100
AcDbBlockEnd
  0
BLOCK
  5
4107
330
4106
100
AcDbEntity
  8
0
100
AcDbBlockBegin
  2
*D13
 70
     1
 10
0.0
 20
0.0
 30
0.0
  3
*D13
  1

  0
LINE
  5
4108
330
4106
100
AcDbEntity
  8
DIM
 62
     0
370
    -2
100
AcDbLine
 10
0.5
 20
146.2041710742191
 30
0.0
 11
0.5
 21
186.197806179058
 31
0.0
  0
LINE
  5
4109
330
4106
100
AcDbEntity
  8
DIM
 62
     0
370
    -2
100
AcDbLine
 10
172.5000000114282
 20
146.2048587881302
 30
0.0
 11
172.5000000114282
 21
186.197806179058
 31
0.0
  0
LINE
  5
410A
330
4106
100
AcDbEntity
  8
DIM
 62
     0
370
    -2
100
AcDbLine
 10
2.5
 20
186.197806179058
 30
0.0
 11
170.5000000114282
 21
186.197806179058
 31
0.0
  0
INSERT
  5
410B
330
4106
100
AcDbEntity
  8
DIM
 62
     0
370
    -2
100
AcDbBlockReference
  2
_DOT
 10
0.5
 20
186.197806179058
 30
0.0
 41
2.0
 42
2.0
 43
2.0
 50
180.0
  0
INSERT
  5
410C
330
4106
100
AcDbEntity
  8
DIM
 62
     0
370
    -2
100
AcDbBlockReference
  2
_DOT
 10
172.5000000114282
 20
186.197806179058
 30
0.0
 41
2.0
 42
2.0
 43
2.0
  0
MTEXT
  5
410D
330
4106
100
AcDbEntity
  8
DIM
 62
     0
100
AcDbMText
 10
86.5000000057141
 20
191.6987440307524
 30
0.0
 40
5.0
 41
0.0
 46
0.0
 71
     5
 72
     1
  1
\A1;172.00000001
  7
ＭＳ ゴシック
 73
     1
 44
1.0
  0
POINT
  5
410E
330
4106
100
AcDbEntity
  8
Defpoints
 62
     0
100
AcDbPoint
 10
0.5
 20
141.2041710742191
 30
0.0
  0
POINT
  5
410F
330
4106
100
AcDbEntity
  8
Defpoints
 62
     0
100
AcDbPoint
 10
172.5000000114282
 20
141.2048587881302
 30
0.0
  0
POINT
  5
4110
330
4106
100
AcDbEntity
  8
Defpoints
 62
     0
100
AcDbPoint
 10
172.5000000114282
 20
186.197806179058
 30
0.0
  0
ENDBLK
  5
4111
330
4106
100
AcDbEntity
  8
0
100
AcDbBlockEnd
  0
BLOCK
  5
449E
330
449D
100
AcDbEntity
  8
0
100
AcDbBlockBegin
  2
*D14
 70
     1
 10
0.0
 20
0.0
 30
0.0
  3
*D14
  1

  0
LINE
  5
44A0
330
449D
100
AcDbEntity
  8
DIM
 62
     0
370
    -2
100
AcDbLine
 10
31.52406729341902
 20
380.5953741017705
 30
0.0
 11
31.52406729341902
 21
420.5890092066094
 31
0.0
  0
LINE
  5
44A1
330
449D
100
AcDbEntity
  8
DIM
 62
     0
370
    -2
100
AcDbLine
 10
203.5240673048472
 20
380.5960618156816
 30
0.0
 11
203.5240673048472
 21
420.5890092066094
 31
0.0
  0
LINE
  5
44A2
330
449D
100
AcDbEntity
  8
DIM
 62
     0
370
    -2
100
AcDbLine
 10
33.52406729341902
 20
420.5890092066094
 30
0.0
 11
201.5240673048472
 21
420.5890092066094
 31
0.0
  0
INSERT
  5
44A3
330
449D
100
AcDbEntity
  8
DIM
 62
     0
370
    -2
100
AcDbBlockReference
  2
_DOT
 10
31.52406729341902
 20
420.5890092066094
 30
0.0
 41
2.0
 42
2.0
 43
2.0
 50
180.0
  0
INSERT
  5
44A4
330
449D
100
AcDbEntity
  8
DIM
 62
     0
370
    -2
100
AcDbBlockReference
  2
_DOT
 10
203.5240673048472
 20
420.5890092066094
 30
0.0
 41
2.0
 42
2.0
 43
2.0
  0
MTEXT
  5
44A5
330
449D
100
AcDbEntity
  8
DIM
 62
     0
100
AcDbMText
 10
117.5240672991331
 20
426.0899470583038
 30
0.0
 40
5.0
 41
0.0
 46
0.0
 71
     5
 72
     1
  1
\A1;172.00000001
  7
ＭＳ ゴシック
 73
     1
 44
1.0
  0
POINT
  5
44A6
330
449D
100
AcDbEntity
  8
Defpoints
 62
     0
100
AcDbPoint
 10
31.52406729341902
 20
375.5953741017705
 30
0.0
  0
POINT
  5
44A7
330
449D
100
AcDbEntity
  8
Defpoints
 62
     0
100
AcDbPoint
 10
203.5240673048472
 20
375.5960618156816
 30
0.0
  0
POINT
  5
44A8
330
449D
100
AcDbEntity
  8
Defpoints
 62
     0
100
AcDbPoint
 10
203.5240673048472
 20
420.5890092066094
 30
0.0
  0
ENDBLK
  5
449F
330
449D
100
AcDbEntity
  8
0
100
AcDbBlockEnd
  0
BLOCK
  5
44B3
330
44B2
100
AcDbEntity
  8
0
100
AcDbBlockBegin
  2
*D15
 70
     1
 10
0.0
 20
0.0
 30
0.0
  3
*D15
  1

  0
LINE
  5
44B5
330
44B2
100
AcDbEntity
  8
DIM
 62
     0
370
    -2
100
AcDbLine
 10
36.65381329530061
 20
346.9255629974818
 30
0.0
 11
36.65381329530061
 21
378.500039970891
 31
0.0
  0
LINE
  5
44B6
330
44B2
100
AcDbEntity
  8
DIM
 62
     0
370
    -2
100
AcDbLine
 10
208.6538133067288
 20
346.9255629974818
 30
0.0
 11
208.6538133067288
 21
378.500039970891
 31
0.0
  0
LINE
  5
44B7
330
44B2
100
AcDbEntity
  8
DIM
 62
     0
370
    -2
100
AcDbLine
 10
38.65381329530061
 20
378.500039970891
 30
0.0
 11
206.6538133067288
 21
378.500039970891
 31
0.0
  0
INSERT
  5
44B8
330
44B2
100
AcDbEntity
  8
DIM
 62
     0
370
    -2
100
AcDbBlockReference
  2
_DOT
 10
36.65381329530061
 20
378.500039970891
 30
0.0
 41
2.0
 42
2.0
 43
2.0
 50
180.0
  0
INSERT
  5
44B9
330
44B2
100
AcDbEntity
  8
DIM
 62
     0
370
    -2
100
AcDbBlockReference
  2
_DOT
 10
208.6538133067288
 20
378.500039970891
 30
0.0
 41
2.0
 42
2.0
 43
2.0
  0
MTEXT
  5
44BA
330
44B2
100
AcDbEntity
  8
DIM
 62
     0
100
AcDbMText
 10
122.6538133010147
 20
384.0009778225854
 30
0.0
 40
5.0
 41
0.0
 46
0.0
 71
     5
 72
     1
  1
\A1;172
  7
ＭＳ ゴシック
 73
     1
 44
1.0
  0
POINT
  5
44BB
330
44B2
100
AcDbEntity
  8
Defpoints
 62
     0
100
AcDbPoint
 10
36.65381329530061
 20
341.9255629974818
 30
0.0
  0
POINT
  5
44BC
330
44B2
100
AcDbEntity
  8
Defpoints
 62
     0
100
AcDbPoint
 10
208.6538133067288
 20
341.9255629974818
 30
0.0
  0
POINT
  5
44BD
330
44B2
100
AcDbEntity
  8
Defpoints
 62
     0
100
AcDbPoint
 10
208.6538133067288
 20
378.500039970891
 30
0.0
  0
ENDBLK
  5
44B4
330
44B2
100
AcDbEntity
  8
0
100
AcDbBlockEnd
  0
BLOCK
  5
44C2
330
44C1
100
AcDbEntity
  8
0
100
AcDbBlockBegin
  2
*D16
 70
     1
 10
0.0
 20
0.0
 30
0.0
  3
*D16
  1

  0
LINE
  5
44C4
330
44C1
100
AcDbEntity
  8
DIM
 62
     0
370
    -2
100
AcDbLine
 10
102.8545298016345
 20
320.5010869312061
 30
0.0
 11
102.8545298016345
 21
363.8941677516462
 31
0.0
  0
LINE
  5
44C5
330
44C1
100
AcDbEntity
  8
DIM
 62
     0
370
    -2
100
AcDbLine
 10
142.7776977664148
 20
320.5010869312061
 30
0.0
 11
142.7776977664148
 21
363.8941677516462
 31
0.0
  0
LINE
  5
44C6
330
44C1
100
AcDbEntity
  8
DIM
 62
     0
370
    -2
100
AcDbLine
 10
104.8545298016345
 20
363.8941677516462
 30
0.0
 11
140.7776977664148
 21
363.8941677516462
 31
0.0
  0
INSERT
  5
44C7
330
44C1
100
AcDbEntity
  8
DIM
 62
     0
370
    -2
100
AcDbBlockReference
  2
_DOT
 10
102.8545298016345
 20
363.8941677516462
 30
0.0
 41
2.0
 42
2.0
 43
2.0
 50
180.0
  0
INSERT
  5
44C8
330
44C1
100
AcDbEntity
  8
DIM
 62
     0
370
    -2
100
AcDbBlockReference
  2
_DOT
 10
142.7776977664148
 20
363.8941677516462
 30
0.0
 41
2.0
 42
2.0
 43
2.0
  0
MTEXT
  5
44C9
330
44C1
100
AcDbEntity
  8
DIM
 62
     0
100
AcDbMText
 10
122.8161137840246
 20
369.3941677516462
 30
0.0
 40
5.0
 41
0.0
 46
0.0
 71
     5
 72
     1
  1
\A1;40
  7
ＭＳ ゴシック
 73
     1
 44
1.0
  0
POINT
  5
44CA
330
44C1
100
AcDbEntity
  8
Defpoints
 62
     0
100
AcDbPoint
 10
102.8545298016345
 20
315.5010869312061
 30
0.0
  0
POINT
  5
44CB
330
44C1
100
AcDbEntity
  8
Defpoints
 62
     0
100
AcDbPoint
 10
142.7776977664148
 20
315.5010869312061
 30
0.0
  0
POINT
  5
44CC
330
44C1
100
AcDbEntity
  8
Defpoints
 62
     0
100
AcDbPoint
 10
142.7776977664148
 20
363.8941677516462
 30
0.0
  0
ENDBLK
  5
44C3
330
44C1
100
AcDbEntity
  8
0
100
AcDbBlockEnd
  0
BLOCK
  5
44D1
330
44D0
100
AcDbEntity
  8
0
100
AcDbBlockBegin
  2
*D17
 70
     1
 10
0.0
 20
0.0
 30
0.0
  3
*D17
  1

  0
LINE
  5
44D3
330
44D0
100
AcDbEntity
  8
DIM
 62
     0
370
    -2
100
AcDbLine
 10
216.5418238169709
 20
342.9660998776789
 30
0.0
 11
227.6505941951459
 21
342.9660998776789
 31
0.0
  0
LINE
  5
44D4
330
44D0
100
AcDbEntity
  8
DIM
 62
     0
370
    -2
100
AcDbLine
 10
214.4406798546003
 20
320.5280581015662
 30
0.0
 11
227.6505941951459
 21
320.5280581015662
 31
0.0
  0
LINE
  5
44D5
330
44D0
100
AcDbEntity
  8
DIM
 62
     0
370
    -2
100
AcDbLine
 10
227.6505941951459
 20
340.9660998776789
 30
0.0
 11
227.6505941951459
 21
322.5280581015662
 31
0.0
  0
INSERT
  5
44D6
330
44D0
100
AcDbEntity
  8
DIM
 62
     0
370
    -2
100
AcDbBlockReference
  2
_DOT
 10
227.6505941951459
 20
342.9660998776789
 30
0.0
 41
2.0
 42
2.0
 43
2.0
 50
90.0
  0
INSERT
  5
44D7
330
44D0
100
AcDbEntity
  8
DIM
 62
     0
370
    -2
100
AcDbBlockReference
  2
_DOT
 10
227.6505941951459
 20
320.5280581015662
 30
0.0
 41
2.0
 42
2.0
 43
2.0
 50
270.0
  0
MTEXT
  5
44D8
330
44D0
100
AcDbEntity
  8
DIM
 62
     0
100
AcDbMText
 10
222.1496563434515
 20
331.7470789896225
 30
0.0
 40
5.0
 41
0.0
 46
0.0
 71
     5
 72
     1
  1
\A1;22
  7
ＭＳ ゴシック
 11
0.0
 21
1.0
 31
0.0
 73
     1
 44
1.0
  0
POINT
  5
44D9
330
44D0
100
AcDbEntity
  8
Defpoints
 62
     0
100
AcDbPoint
 10
211.5418238169709
 20
342.9660998776789
 30
0.0
  0
POINT
  5
44DA
330
44D0
100
AcDbEntity
  8
Defpoints
 62
     0
100
AcDbPoint
 10
209.4406798546003
 20
320.5280581015662
 30
0.0
  0
POINT
  5
44DB
330
44D0
100
AcDbEntity
  8
Defpoints
 62
     0
100
AcDbPoint
 10
227.6505941951459
 20
320.5280581015662
 30
0.0
  0
ENDBLK
  5
44D2
330
44D0
100
AcDbEntity
  8
0
100
AcDbBlockEnd
  0
BLOCK
  5
44E3
330
44E2
100
AcDbEntity
  8
0
100
AcDbBlockBegin
  2
*D18
 70
     1
 10
0.0
 20
0.0
 30
0.0
  3
*D18
  1

  0
LINE
  5
44E5
330
44E2
100
AcDbEntity
  8
DIM
 62
     0
370
    -2
100
AcDbLine
 10
274.4851956175352
 20
342.9660998776789
 30
0.0
 11
267.3452527238381
 21
342.9660998776789
 31
0.0
  0
LINE
  5
44E6
330
44E2
100
AcDbEntity
  8
DIM
 62
     0
370
    -2
100
AcDbLine
 10
289.1932033541298
 20
234.3912030275514
 30
0.0
 11
267.3452527238381
 21
234.3912030275514
 31
0.0
  0
LINE
  5
44E7
330
44E2
100
AcDbEntity
  8
DIM
 62
     0
370
    -2
100
AcDbLine
 10
267.3452527238381
 20
340.9660998776789
 30
0.0
 11
267.3452527238381
 21
236.3912030275514
 31
0.0
  0
INSERT
  5
44E8
330
44E2
100
AcDbEntity
  8
DIM
 62
     0
370
    -2
100
AcDbBlockReference
  2
_DOT
 10
267.3452527238381
 20
342.9660998776789
 30
0.0
 41
2.0
 42
2.0
 43
2.0
 50
90.0
  0
INSERT
  5
44E9
330
44E2
100
AcDbEntity
  8
DIM
 62
     0
370
    -2
100
AcDbBlockReference
  2
_DOT
 10
267.3452527238381
 20
234.3912030275514
 30
0.0
 41
2.0
 42
2.0
 43
2.0
 50
270.0
  0
MTEXT
  5
44EA
330
44E2
100
AcDbEntity
  8
DIM
 62
     0
100
AcDbMText
 10
261.8443148721437
 20
288.6786514526152
 30
0.0
 40
5.0
 41
0.0
 46
0.0
 71
     5
 72
     1
  1
\A1;109
  7
ＭＳ ゴシック
 11
0.0
 21
1.0
 31
0.0
 73
     1
 44
1.0
  0
POINT
  5
44EB
330
44E2
100
AcDbEntity
  8
Defpoints
 62
     0
100
AcDbPoint
 10
279.4851956175352
 20
342.9660998776789
 30
0.0
  0
POINT
  5
44EC
330
44E2
100
AcDbEntity
  8
Defpoints
 62
     0
100
AcDbPoint
 10
294.1932033541298
 20
234.3912030275514
 30
0.0
  0
POINT
  5
44ED
330
44E2
100
AcDbEntity
  8
Defpoints
 62
     0
100
AcDbPoint
 10
267.3452527238381
 20
234.3912030275514
 30
0.0
  0
ENDBLK
  5
44E4
330
44E2
100
AcDbEntity
  8
0
100
AcDbBlockEnd
  0
BLOCK
  5
44F2
330
44F1
100
AcDbEntity
  8
0
100
AcDbBlockBegin
  2
*D19
 70
     1
 10
0.0
 20
0.0
 30
0.0
  3
*D19
  1

  0
LINE
  5
44F4
330
44F1
100
AcDbEntity
  8
DIM
 62
     0
370
    -2
100
AcDbLine
 10
277.949562793288
 20
351.1269267572924
 30
0.0
 11
277.949562793288
 21
363.8941677516461
 31
0.0
  0
LINE
  5
44F5
330
44F1
100
AcDbEntity
  8
DIM
 62
     0
370
    -2
100
AcDbLine
 10
380.7527880487941
 20
351.8229720595513
 30
0.0
 11
380.7527880487941
 21
363.8941677516461
 31
0.0
  0
LINE
  5
44F6
330
44F1
100
AcDbEntity
  8
DIM
 62
     0
370
    -2
100
AcDbLine
 10
279.949562793288
 20
363.8941677516461
 30
0.0
 11
378.7527880487941
 21
363.8941677516461
 31
0.0
  0
INSERT
  5
44F7
330
44F1
100
AcDbEntity
  8
DIM
 62
     0
370
    -2
100
AcDbBlockReference
  2
_DOT
 10
277.949562793288
 20
363.8941677516461
 30
0.0
 41
2.0
 42
2.0
 43
2.0
 50
180.0
  0
INSERT
  5
44F8
330
44F1
100
AcDbEntity
  8
DIM
 62
     0
370
    -2
100
AcDbBlockReference
  2
_DOT
 10
380.7527880487941
 20
363.8941677516461
 30
0.0
 41
2.0
 42
2.0
 43
2.0
  0
MTEXT
  5
44F9
330
44F1
100
AcDbEntity
  8
DIM
 62
     0
100
AcDbMText
 10
329.351175421041
 20
369.3951056033405
 30
0.0
 40
5.0
 41
0.0
 46
0.0
 71
     5
 72
     1
  1
\A1;103
  7
ＭＳ ゴシック
 73
     1
 44
1.0
  0
POINT
  5
44FA
330
44F1
100
AcDbEntity
  8
Defpoints
 62
     0
100
AcDbPoint
 10
277.949562793288
 20
346.1269267572924
 30
0.0
  0
POINT
  5
44FB
330
44F1
100
AcDbEntity
  8
Defpoints
 62
     0
100
AcDbPoint
 10
380.7527880487941
 20
346.8229720595513
 30
0.0
  0
POINT
  5
44FC
330
44F1
100
AcDbEntity
  8
Defpoints
 62
     0
100
AcDbPoint
 10
380.7527880487941
 20
363.8941677516461
 30
0.0
  0
ENDBLK
  5
44F3
330
44F1
100
AcDbEntity
  8
0
100
AcDbBlockEnd
  0
BLOCK
  5
4519
330
4518
100
AcDbEntity
  8
0
100
AcDbBlockBegin
  2
*D20
 70
     1
 10
0.0
 20
0.0
 30
0.0
  3
*D20
  1

  0
LINE
  5
451B
330
4518
100
AcDbEntity
  8
DIM
 62
     0
370
    -2
100
AcDbLine
 10
63.92717158006707
 20
263.8449342769772
 30
0.0
 11
63.92717158006707
 21
279.3685109759999
 31
0.0
  0
LINE
  5
451C
330
4518
100
AcDbEntity
  8
DIM
 62
     0
370
    -2
100
AcDbLine
 10
183.7008017578744
 20
263.8449342769772
 30
0.0
 11
183.7008017578744
 21
279.3685109759999
 31
0.0
  0
LINE
  5
451D
330
4518
100
AcDbEntity
  8
DIM
 62
     0
370
    -2
100
AcDbLine
 10
65.92717158006707
 20
279.3685109759999
 30
0.0
 11
181.7008017578744
 21
279.3685109759999
 31
0.0
  0
INSERT
  5
451E
330
4518
100
AcDbEntity
  8
DIM
 62
     0
370
    -2
100
AcDbBlockReference
  2
_DOT
 10
63.92717158006707
 20
279.3685109759999
 30
0.0
 41
2.0
 42
2.0
 43
2.0
 50
180.0
  0
INSERT
  5
451F
330
4518
100
AcDbEntity
  8
DIM
 62
     0
370
    -2
100
AcDbBlockReference
  2
_DOT
 10
183.7008017578744
 20
279.3685109759999
 30
0.0
 41
2.0
 42
2.0
 43
2.0
  0
MTEXT
  5
4520
330
4518
100
AcDbEntity
  8
DIM
 62
     0
100
AcDbMText
 10
123.8139866689707
 20
284.8694488276943
 30
0.0
 40
5.0
 41
0.0
 46
0.0
 71
     5
 72
     1
  1
\A1;120
  7
ＭＳ ゴシック
 73
     1
 44
1.0
  0
POINT
  5
4521
330
4518
100
AcDbEntity
  8
Defpoints
 62
     0
100
AcDbPoint
 10
63.92717158006707
 20
258.8449342769772
 30
0.0
  0
POINT
  5
4522
330
4518
100
AcDbEntity
  8
Defpoints
 62
     0
100
AcDbPoint
 10
183.7008017578744
 20
258.8449342769772
 30
0.0
  0
POINT
  5
4523
330
4518
100
AcDbEntity
  8
Defpoints
 62
     0
100
AcDbPoint
 10
183.7008017578744
 20
279.3685109759999
 30
0.0
  0
ENDBLK
  5
451A
330
4518
100
AcDbEntity
  8
0
100
AcDbBlockEnd
  0
BLOCK
  5
4528
330
4527
100
AcDbEntity
  8
0
100
AcDbBlockBegin
  2
*D21
 70
     1
 10
0.0
 20
0.0
 30
0.0
  3
*D21
  1

  0
LINE
  5
452A
330
4527
100
AcDbEntity
  8
DIM
 62
     0
370
    -2
100
AcDbLine
 10
43.52613840851018
 20
228.0972570050559
 30
0.0
 11
43.52613840851018
 21
208.65510144
 31
0.0
  0
LINE
  5
452B
330
4527
100
AcDbEntity
  8
DIM
 62
     0
370
    -2
100
AcDbLine
 10
201.6666399703724
 20
229.89048332698
 30
0.0
 11
201.6666399703724
 21
208.65510144
 31
0.0
  0
LINE
  5
452C
330
4527
100
AcDbEntity
  8
DIM
 62
     0
370
    -2
100
AcDbLine
 10
45.52613840851018
 20
208.65510144
 30
0.0
 11
199.6666399703724
 21
208.65510144
 31
0.0
  0
INSERT
  5
452D
330
4527
100
AcDbEntity
  8
DIM
 62
     0
370
    -2
100
AcDbBlockReference
  2
_DOT
 10
43.52613840851018
 20
208.65510144
 30
0.0
 41
2.0
 42
2.0
 43
2.0
 50
180.0
  0
INSERT
  5
452E
330
4527
100
AcDbEntity
  8
DIM
 62
     0
370
    -2
100
AcDbBlockReference
  2
_DOT
 10
201.6666399703724
 20
208.65510144
 30
0.0
 41
2.0
 42
2.0
 43
2.0
  0
MTEXT
  5
452F
330
4527
100
AcDbEntity
  8
DIM
 62
     0
100
AcDbMText
 10
122.5963891894413
 20
214.1560392916943
 30
0.0
 40
5.0
 41
0.0
 46
0.0
 71
     5
 72
     1
  1
\A1;158
  7
ＭＳ ゴシック
 73
     1
 44
1.0
  0
POINT
  5
4530
330
4527
100
AcDbEntity
  8
Defpoints
 62
     0
100
AcDbPoint
 10
43.52613840851018
 20
233.0972570050559
 30
0.0
  0
POINT
  5
4531
330
4527
100
AcDbEntity
  8
Defpoints
 62
     0
100
AcDbPoint
 10
201.6666399703724
 20
234.89048332698
 30
0.0
  0
POINT
  5
4532
330
4527
100
AcDbEntity
  8
Defpoints
 62
     0
100
AcDbPoint
 10
201.6666399703724
 20
208.65510144
 30
0.0
  0
ENDBLK
  5
4529
330
4527
100
AcDbEntity
  8
0
100
AcDbBlockEnd
  0
BLOCK
  5
4580
330
457F
100
AcDbEntity
  8
0
100
AcDbBlockBegin
  2
*D22
 70
     1
 10
0.0
 20
0.0
 30
0.0
  3
*D22
  1

  0
LINE
  5
4582
330
457F
100
AcDbEntity
  8
DIM
 62
     0
370
    -2
100
AcDbLine
 10
277.7651198811772
 20
306.3271336855117
 30
0.0
 11
277.7651198811772
 21
297.0160519088716
 31
0.0
  0
LINE
  5
4583
330
457F
100
AcDbEntity
  8
DIM
 62
     0
370
    -2
100
AcDbLine
 10
220.7651198811772
 20
315.5010869312062
 30
0.0
 11
220.7651198811772
 21
297.0160519088716
 31
0.0
  0
LINE
  5
4584
330
457F
100
AcDbEntity
  8
DIM
 62
     0
370
    -2
100
AcDbLine
 10
275.7651198811772
 20
297.0160519088716
 30
0.0
 11
222.7651198811772
 21
297.0160519088716
 31
0.0
  0
INSERT
  5
4585
330
457F
100
AcDbEntity
  8
DIM
 62
     0
370
    -2
100
AcDbBlockReference
  2
_DOT
 10
277.7651198811772
 20
297.0160519088716
 30
0.0
 41
2.0
 42
2.0
 43
2.0
  0
INSERT
  5
4586
330
457F
100
AcDbEntity
  8
DIM
 62
     0
370
    -2
100
AcDbBlockReference
  2
_DOT
 10
220.7651198811772
 20
297.0160519088716
 30
0.0
 41
2.0
 42
2.0
 43
2.0
 50
180.0
  0
MTEXT
  5
4587
330
457F
100
AcDbEntity
  8
DIM
 62
     0
100
AcDbMText
 10
249.2651198811772
 20
302.516989760566
 30
0.0
 40
5.0
 41
0.0
 46
0.0
 71
     5
 72
     1
  1
\A1;57
  7
ＭＳ ゴシック
 73
     1
 44
1.0
  0
POINT
  5
4588
330
457F
100
AcDbEntity
  8
Defpoints
 62
     0
100
AcDbPoint
 10
277.7651198811772
 20
311.3271336855117
 30
0.0
  0
POINT
  5
4589
330
457F
100
AcDbEntity
  8
Defpoints
 62
     0
100
AcDbPoint
 10
220.7651198811772
 20
320.5010869312062
 30
0.0
  0
POINT
  5
458A
330
457F
100
AcDbEntity
  8
Defpoints
 62
     0
100
AcDbPoint
 10
220.7651198811772
 20
297.0160519088716
 30
0.0
  0
ENDBLK
  5
4581
330
457F
100
AcDbEntity
  8
0
100
AcDbBlockEnd
  0
BLOCK
  5
458F
330
458E
100
AcDbEntity
  8
0
100
AcDbBlockBegin
  2
*D23
 70
     1
 10
0.0
 20
0.0
 30
0.0
  3
*D23
  1

  0
LINE
  5
4591
330
458E
100
AcDbEntity
  8
DIM
 62
     0
370
    -2
100
AcDbLine
 10
387.2743645186268
 20
342.9660998776789
 30
0.0
 11
396.4007440111116
 21
342.9660998776789
 31
0.0
  0
LINE
  5
4592
330
458E
100
AcDbEntity
  8
DIM
 62
     0
370
    -2
100
AcDbLine
 10
314.7826356226268
 20
234.3912030275513
 30
0.0
 11
396.4007440111116
 21
234.3912030275513
 31
0.0
  0
LINE
  5
4593
330
458E
100
AcDbEntity
  8
DIM
 62
     0
370
    -2
100
AcDbLine
 10
396.4007440111116
 20
340.9660998776789
 30
0.0
 11
396.4007440111116
 21
236.3912030275513
 31
0.0
  0
INSERT
  5
4594
330
458E
100
AcDbEntity
  8
DIM
 62
     0
370
    -2
100
AcDbBlockReference
  2
_DOT
 10
396.4007440111116
 20
342.9660998776789
 30
0.0
 41
2.0
 42
2.0
 43
2.0
 50
90.0
  0
INSERT
  5
4595
330
458E
100
AcDbEntity
  8
DIM
 62
     0
370
    -2
100
AcDbBlockReference
  2
_DOT
 10
396.4007440111116
 20
234.3912030275513
 30
0.0
 41
2.0
 42
2.0
 43
2.0
 50
270.0
  0
MTEXT
  5
4596
330
458E
100
AcDbEntity
  8
DIM
 62
     0
100
AcDbMText
 10
390.8998061594172
 20
288.6786514526151
 30
0.0
 40
5.0
 41
0.0
 46
0.0
 71
     5
 72
     1
  1
\A1;109
  7
ＭＳ ゴシック
 11
0.0
 21
1.0
 31
0.0
 73
     1
 44
1.0
  0
POINT
  5
4597
330
458E
100
AcDbEntity
  8
Defpoints
 62
     0
100
AcDbPoint
 10
382.2743645186268
 20
342.9660998776789
 30
0.0
  0
POINT
  5
4598
330
458E
100
AcDbEntity
  8
Defpoints
 62
     0
100
AcDbPoint
 10
309.7826356226268
 20
234.3912030275513
 30
0.0
  0
POINT
  5
4599
330
458E
100
AcDbEntity
  8
Defpoints
 62
     0
100
AcDbPoint
 10
396.4007440111116
 20
234.3912030275513
 30
0.0
  0
ENDBLK
  5
4590
330
458E
100
AcDbEntity
  8
0
100
AcDbBlockEnd
  0
BLOCK
  5
459E
330
459D
100
AcDbEntity
  8
0
100
AcDbBlockBegin
  2
*D24
 70
     1
 10
0.0
 20
0.0
 30
0.0
  3
*D24
  1

  0
LINE
  5
45A0
330
459D
100
AcDbEntity
  8
DIM
 62
     0
370
    -2
100
AcDbLine
 10
38.99164753350973
 20
342.9660998776789
 30
0.0
 11
27.03189542342973
 21
342.9660998776789
 31
0.0
  0
LINE
  5
45A1
330
459D
100
AcDbEntity
  8
DIM
 62
     0
370
    -2
100
AcDbLine
 10
97.8545298016345
 20
320.5010869312061
 30
0.0
 11
27.03189542342973
 21
320.5010869312061
 31
0.0
  0
LINE
  5
45A2
330
459D
100
AcDbEntity
  8
DIM
 62
     0
370
    -2
100
AcDbLine
 10
27.03189542342973
 20
340.9660998776789
 30
0.0
 11
27.03189542342973
 21
322.5010869312061
 31
0.0
  0
INSERT
  5
45A3
330
459D
100
AcDbEntity
  8
DIM
 62
     0
370
    -2
100
AcDbBlockReference
  2
_DOT
 10
27.03189542342973
 20
342.9660998776789
 30
0.0
 41
2.0
 42
2.0
 43
2.0
 50
90.0
  0
INSERT
  5
45A4
330
459D
100
AcDbEntity
  8
DIM
 62
     0
370
    -2
100
AcDbBlockReference
  2
_DOT
 10
27.03189542342973
 20
320.5010869312061
 30
0.0
 41
2.0
 42
2.0
 43
2.0
 50
270.0
  0
MTEXT
  5
45A5
330
459D
100
AcDbEntity
  8
DIM
 62
     0
100
AcDbMText
 10
21.53095757173533
 20
331.7335934044425
 30
0.0
 40
5.0
 41
0.0
 46
0.0
 71
     5
 72
     1
  1
\A1;22
  7
ＭＳ ゴシック
 11
0.0
 21
1.0
 31
0.0
 73
     1
 44
1.0
  0
POINT
  5
45A6
330
459D
100
AcDbEntity
  8
Defpoints
 62
     0
100
AcDbPoint
 10
43.99164753350973
 20
342.9660998776789
 30
0.0
  0
POINT
  5
45A7
330
459D
100
AcDbEntity
  8
Defpoints
 62
     0
100
AcDbPoint
 10
102.8545298016345
 20
320.5010869312061
 30
0.0
  0
POINT
  5
45A8
330
459D
100
AcDbEntity
  8
Defpoints
 62
     0
100
AcDbPoint
 10
27.03189542342973
 20
320.5010869312061
 30
0.0
  0
ENDBLK
  5
459F
330
459D
100
AcDbEntity
  8
0
100
AcDbBlockEnd
  0
ENDSEC
  0
SECTION
  2
ENTITIES
  0
MTEXT
  5
177
330
A
100
AcDbEntity
  8
TEMPLATE
390
1D
100
AcDbMText
 10
15.84042890954615
 20
68.74635032628565
 30
0.0
 40
3.257682291666665
 41
0.0
 46
0.0
 71
     1
 72
     1
  1
品名
  7
ＭＳ ゴシック
 73
     1
 44
0.7828267384257843
  0
MTEXT
  5
178
330
A
100
AcDbEntity
  8
TEMPLATE
390
1D
100
AcDbMText
 10
15.84042890954615
 20
51.7463503262856
 30
0.0
 40
3.257682291666665
 41
0.0
 46
0.0
 71
     1
 72
     1
  1
仕様
  7
ＭＳ ゴシック
 73
     1
 44
0.7828267384257843
  0
LINE
  5
179
330
A
100
AcDbEntity
  8
TEMPLATE
390
1D
100
AcDbLine
 10
404.4404289094496
 20
53.42933470128568
 30
0.0
 11
14.44042890944975
 21
53.42933470128568
 31
0.0
  0
LWPOLYLINE
  5
17A
330
A
100
AcDbEntity
  8
TEMPLATE
390
1D
100
AcDbPolyline
 90
        5
 70
   128
 43
0.0
 10
404.4404289094496
 20
579.4293347012853
 10
14.44042890944975
 20
579.4293347012853
 10
14.44042890944975
 20
19.42933470128565
 10
404.4404289094496
 20
19.42933470128565
 10
404.4404289094496
 20
579.4293347012853
  0
LINE
  5
17B
330
A
100
AcDbEntity
  8
TEMPLATE
390
1D
100
AcDbLine
 10
404.4404289094496
 20
70.42933470128564
 30
0.0
 11
14.44042890944975
 21
70.42933470128564
 31
0.0
  0
LINE
  5
17C
330
A
100
AcDbEntity
  8
TEMPLATE
390
1D
100
AcDbLine
 10
404.4404289095464
 20
36.42933470128565
 30
0.0
 11
253.840428909546
 21
36.42933470128565
 31
0.0
  0
MTEXT
  5
17E
330
A
100
AcDbEntity
  8
TEMPLATE
390
1D
100
AcDbMText
 10
259.8147101599982
 20
30.44725580662403
 30
0.0
 40
4.8865234375
 41
0.0
 46
0.0
 71
     1
 72
     1
  1
大洋金物株式会社 ティーフォルム事業部
  7
ＭＳ ゴシック
 73
     1
 44
0.7828267384257843
  0
MTEXT
  5
180
330
A
100
AcDbEntity
  8
TEMPLATE
390
1D
100
AcDbMText
 10
366.240428909598
 20
46.02985813878564
 30
0.0
 40
4.8865234375
 41
0.0
 46
4.8865234375
 71
     1
 72
     1
  1
{1:2}
  7
ＭＳ ゴシック
 73
     1
 44
0.7828267384257843
1001
ACAD
1000
ACAD_MTEXT_DEFINED_HEIGHT_BEGIN
1070
    46
1040
4.8865234375
1000
ACAD_MTEXT_DEFINED_HEIGHT_END
  0
MTEXT
  5
181
330
A
100
AcDbEntity
  8
TEMPLATE
390
1D
100
AcDbMText
 10
355.640428909598
 20
51.7463503262856
 30
0.0
 40
3.257682291666665
 41
0.0
 46
0.0
 71
     1
 72
     1
  1
縮尺
  7
ＭＳ ゴシック
 73
     1
 44
0.7828267384257843
  0
LINE
  5
182
330
A
100
AcDbEntity
  8
TEMPLATE
390
1D
100
AcDbLine
 10
354.240428909598
 20
36.42933470128565
 30
0.0
 11
354.240428909598
 21
53.42933470128568
 31
0.0
  0
MTEXT
  5
183
330
A
100
AcDbEntity
  8
TEMPLATE
390
1D
100
AcDbMText
 10
305.440428909598
 20
51.7463503262856
 30
0.0
 40
3.257682291666665
 41
0.0
 46
0.0
 71
     1
 72
     1
  1
容量
  7
ＭＳ ゴシック
 73
     1
 44
0.7828267384257843
  0
LINE
  5
184
330
A
100
AcDbEntity
  8
TEMPLATE
390
1D
100
AcDbLine
 10
304.040428909598
 20
36.42933470128565
 30
0.0
 11
304.040428909598
 21
53.42933470128568
 31
0.0
  0
MTEXT
  5
185
330
A
100
AcDbEntity
  8
TEMPLATE
390
1D
100
AcDbMText
 10
255.240428909598
 20
68.74635032628565
 30
0.0
 40
3.257682291666665
 41
0.0
 46
0.0
 71
     1
 72
     1
  1
品番
  7
ＭＳ ゴシック
 73
     1
 44
0.7828267384257843
  0
MTEXT
  5
186
330
A
100
AcDbEntity
  8
TEMPLATE
390
1D
100
AcDbMText
 10
255.240428909598
 20
51.7463503262856
 30
0.0
 40
3.257682291666665
 41
0.0
 46
0.0
 71
     1
 72
     1
  1
重量
  7
ＭＳ ゴシック
 73
     1
 44
0.7828267384257843
  0
MTEXT
  5
187
330
A
100
AcDbEntity
  8
TEMPLATE
390
1D
100
AcDbMText
 10
265.840428909598
 20
63.02985813878564
 30
0.0
 40
4.8865234375
 41
0.0
 46
4.8865234375
 71
     1
 72
     1
  1
{FLR74-2806}
  7
ＭＳ ゴシック
 73
     1
 44
0.7828267384257843
1001
ACAD
1000
ACAD_MTEXT_DEFINED_HEIGHT_BEGIN
1070
    46
1040
4.8865234375
1000
ACAD_MTEXT_DEFINED_HEIGHT_END
  0
LINE
  5
188
330
A
100
AcDbEntity
  8
TEMPLATE
390
1D
100
AcDbLine
 10
253.840428909598
 20
19.42933470128565
 30
0.0
 11
253.840428909598
 21
70.42933470128564
 31
0.0
  0
MTEXT
  5
189
330
A
100
AcDbEntity
  8
TEMPLATE
390
1D
100
AcDbMText
 10
26.44042890954615
 20
63.02985813878564
 30
0.0
 40
4.8865234375
 41
0.0
 46
5.507344722044204
 71
     1
 72
     1
  1
{トイレットペーパーホルダー　-KEUCO, Reva-}
  7
ＭＳ ゴシック
 73
     1
 44
0.7828267384257843
1001
ACAD
1000
ACAD_MTEXT_DEFINED_HEIGHT_BEGIN
1070
    46
1040
5.507344722044204
1000
ACAD_MTEXT_DEFINED_HEIGHT_END
  0
INSERT
  5
68C
330
A
100
AcDbEntity
  8
TEMPLATE
100
AcDbBlockReference
  2
block 2
 10
367.7097207081031
 20
3.349230605734547
 30
0.0
 41
0.1524
 42
0.1524
 43
0.1524
  0
LWPOLYLINE
  5
D69
330
A
100
AcDbEntity
  8
BORDER
100
AcDbPolyline
 90
        4
 70
     1
 43
0.0
 10
0.0
 20
0.0
 10
0.0
 20
594.0
 10
420.0
 20
594.0
 10
420.0
 20
0.0
  0
INSERT
  5
1343
330
A
100
AcDbEntity
  8
TEMPLATE
100
AcDbBlockReference
  2
block 2
 10
838.6973883465873
 20
9.774128564918277
 30
0.0
 41
0.1524
 42
0.1524
 43
0.1524
  0
HATCH
  5
3C64
102
{ACAD_REACTORS
330
3C75
102
}
330
A
100
AcDbEntity
  8
TEMPLATE
100
AcDbHatch
 10
0.0
 20
0.0
 30
0.0
210
0.0
220
0.0
230
1.0
  2
SOLID
 70
     1
 71
     1
 91
        6
 92
        1
 93
        8
 72
     1
 10
386.9584116981973
 20
30.78695932253559
 11
386.9584116981973
 21
29.60507779640349
 72
     1
 10
386.9584116981973
 20
29.60507779640349
 11
385.086293388135
 21
29.60507779640349
 72
     1
 10
385.086293388135
 20
29.60507779640349
 11
385.086293388135
 21
24.78695932282479
 72
     1
 10
385.086293388135
 20
24.78695932282479
 11
383.4397707574798
 21
24.78695932282479
 72
     1
 10
383.4397707574798
 20
24.78695932282479
 11
383.4397707574798
 21
29.60507779640349
 72
     1
 10
383.4397707574798
 20
29.60507779640349
 11
381.6008304705712
 21
29.60507779640349
 72
     1
 10
381.6008304705712
 20
29.60507779640349
 11
381.6008304705712
 21
30.78695932253559
 72
     1
 10
381.6008304705712
 20
30.78695932253559
 11
386.9584116981973
 21
30.78695932253559
 97
        1
330
3C65
 92
        1
 93
        1
 72
     4
 94
        3
 73
     0
 74
     1
 95
       56
 96
       52
 40
0.0
 40
0.0
 40
0.0
 40
0.0
 40
1.0
 40
1.0
 40
1.0
 40
2.0
 40
2.0
 40
2.0
 40
3.0
 40
3.0
 40
3.0
 40
4.0
 40
4.0
 40
4.0
 40
5.0
 40
5.0
 40
5.0
 40
6.0
 40
6.0
 40
6.0
 40
7.0
 40
7.0
 40
7.0
 40
8.0
 40
8.0
 40
8.0
 40
9.0
 40
9.0
 40
9.0
 40
10.0
 40
10.0
 40
10.0
 40
11.0
 40
11.0
 40
11.0
 40
12.0
 40
12.0
 40
12.0
 40
13.0
 40
13.0
 40
13.0
 40
14.0
 40
14.0
 40
14.0
 40
15.0
 40
15.0
 40
15.0
 40
16.0
 40
16.0
 40
16.0
 40
17.0
 40
17.0
 40
17.0
 40
17.0
 10
389.4668487850558
 20
30.64408553045313
 10
389.6976220214394
 20
30.70904304125516
 10
389.9955398401064
 20
30.65470844907718
 10
389.9955398401064
 20
30.65470844907718
 10
389.9955398401064
 20
30.65470844907718
 10
389.85241312139
 20
30.22519439059248
 10
389.85241312139
 20
30.22519439059248
 10
389.85241312139
 20
30.22519439059248
 10
389.5599406643706
 20
30.29287458221835
 10
389.3343598630008
 20
30.1149927683958
 10
389.1590668276665
 20
29.97588311974736
 10
389.0455027690426
 20
29.60625316134929
 10
389.0019398758616
 20
29.46571522112114
 10
389.0019398758616
 20
29.46571522112114
 10
388.8077219770962
 20
28.86958202304137
 10
388.8077219770962
 20
28.86958202304137
 10
388.8077219770962
 20
28.86958202304137
 10
389.4445466071603
 20
28.86958202304137
 10
389.4445466071603
 20
28.86958202304137
 10
389.4445466071603
 20
28.86958202304137
 10
389.34550351293
 20
28.49438767869736
 10
389.34550351293
 20
28.49438767869736
 10
389.34550351293
 20
28.49438767869736
 10
388.7034864478522
 20
28.49438767869736
 10
388.7034864478522
 20
28.49438767869736
 10
388.7034864478522
 20
28.49438767869736
 10
387.5547978229109
 20
24.78695932282479
 10
387.5547978229109
 20
24.78695932282479
 10
387.5547978229109
 20
24.78695932282479
 10
387.1951510275336
 20
24.78695932282479
 10
387.1951510275336
 20
24.78695932282479
 10
387.1951510275336
 20
24.78695932282479
 10
388.3448811150849
 20
28.49438767869736
 10
388.3448811150849
 20
28.49438767869736
 10
388.3448811150849
 20
28.49438767869736
 10
387.8711346517413
 20
28.49438767869736
 10
387.8711346517413
 20
28.49438767869736
 10
387.8711346517413
 20
28.49438767869736
 10
387.9704455506427
 20
28.86958202304137
 10
387.9704455506427
 20
28.86958202304137
 10
387.9704455506427
 20
28.86958202304137
 10
388.4491166443289
 20
28.86958202304137
 10
388.4491166443289
 20
28.86958202304137
 10
388.4491166443289
 20
28.86958202304137
 10
388.6184287086733
 20
29.38948015805433
 10
388.6184287086733
 20
29.38948015805433
 10
388.7553364078029
 20
29.82536201649855
 10
388.8715041229524
 20
30.059378665011
 10
388.971082826525
 20
30.23581730921654
 10
389.0696051894502
 20
30.41240473379499
 10
389.2645967461546
 20
30.58586777054282
 10
389.4668487850558
 20
30.64408553045313
 97
        1
330
3C70
 92
        1
 93
        1
 72
     4
 94
        3
 73
     0
 74
     1
 95
       32
 96
       28
 40
0.0
 40
0.0
 40
0.0
 40
0.0
 40
1.0
 40
1.0
 40
1.0
 40
2.0
 40
2.0
 40
2.0
 40
3.0
 40
3.0
 40
3.0
 40
4.0
 40
4.0
 40
4.0
 40
5.0
 40
5.0
 40
5.0
 40
6.0
 40
6.0
 40
6.0
 40
7.0
 40
7.0
 40
7.0
 40
8.0
 40
8.0
 40
8.0
 40
9.0
 40
9.0
 40
9.0
 40
9.0
 10
390.3419600603343
 20
28.64284073476305
 10
390.1254548617105
 20
28.36279143887966
 10
389.9587315758544
 20
28.11075748721071
 10
389.6888142233646
 20
27.31860614785359
 10
389.4406634394279
 20
26.59401597582401
 10
389.2827479516467
 20
26.06685735861421
 10
389.2588984578731
 20
25.42484029353638
 10
389.240747252381
 20
24.94707676012474
 10
389.5316723935223
 20
24.78695932282479
 10
389.9582257225866
 20
24.78695932282479
 10
390.1420587513246
 20
24.78695932282479
 10
390.6059559539832
 20
24.79865346013363
 10
390.9363078939394
 20
25.20702582763122
 10
391.1675721055534
 20
25.49393389870466
 10
391.38071486775
 20
25.79134586410385
 10
391.6664624519149
 20
26.76695828126675
 10
391.9042432438614
 20
27.58257228542799
 10
392.068883604497
 20
28.10971602460051
 10
392.056713369995
 20
28.40985067082352
 10
392.056713369995
 20
28.40985067082352
 10
392.056713369995
 20
28.40985067082352
 10
392.056713369995
 20
28.40985067082352
 10
391.9791690396468
 20
28.91055613773418
 10
391.615639076537
 20
29.01635386089345
 10
391.4079416759881
 20
29.01635386089345
 10
391.2033686632698
 20
29.01635386089345
 10
390.6552022574085
 20
29.05174871160303
 10
390.3419600603343
 20
28.64284073476305
 97
        1
330
3C73
 92
        1
 93
        1
 72
     4
 94
        3
 73
     0
 74
     1
 95
       38
 96
       34
 40
0.0
 40
0.0
 40
0.0
 40
0.0
 40
1.0
 40
1.0
 40
1.0
 40
2.0
 40
2.0
 40
2.0
 40
3.0
 40
3.0
 40
3.0
 40
4.0
 40
4.0
 40
4.0
 40
5.0
 40
5.0
 40
5.0
 40
6.0
 40
6.0
 40
6.0
 40
7.0
 40
7.0
 40
7.0
 40
8.0
 40
8.0
 40
8.0
 40
9.0
 40
9.0
 40
9.0
 40
10.0
 40
10.0
 40
10.0
 40
11.0
 40
11.0
 40
11.0
 40
11.0
 10
393.3716045494872
 20
28.85519496098328
 10
393.3716045494872
 20
28.85519496098328
 10
393.7413535321836
 20
28.85519496098328
 10
393.7413535321836
 20
28.85519496098328
 10
393.7413535321836
 20
28.85519496098328
 10
393.5761775622055
 20
28.32635512555987
 10
393.5761775622055
 20
28.32635512555987
 10
393.7016886847722
 20
28.47480818162555
 10
393.8997748732327
 20
28.67252241915381
 10
394.0698903515905
 20
28.77222014702475
 10
394.3240072284799
 20
28.92067320309043
 10
394.4692168724166
 20
28.94025270016223
 10
394.6289177246725
 20
28.93635465439262
 10
394.6289177246725
 20
28.93635465439262
 10
394.4728471135151
 20
28.43630382112264
 10
394.4728471135151
 20
28.43630382112264
 10
394.3712003627593
 20
28.47934598299858
 10
394.057958165685
 20
28.39741263165024
 10
393.8782612313133
 20
28.26815224368685
 10
393.7162096491659
 20
28.15159769956793
 10
393.6041780283826
 20
28.0524207030021
 10
393.4714361796937
 20
27.80309455411968
 10
393.3397060375404
 20
27.55339645430504
 10
393.2357383129677
 20
27.15524529842472
 10
393.0568150365349
 20
26.57765013480655
 10
393.0568150365349
 20
26.57765013480655
 10
392.4980257120495
 20
24.78695932282479
 10
392.4980257120495
 20
24.78695932282479
 10
392.4980257120495
 20
24.78695932282479
 10
392.1391674526484
 20
24.78695932282479
 10
392.1391674526484
 20
24.78695932282479
 10
392.1391674526484
 20
24.78695932282479
 10
393.3716045494872
 20
28.85519496098328
 10
393.3716045494872
 20
28.85519496098328
 97
        1
330
3C71
 92
        1
 93
        1
 72
     4
 94
        3
 73
     0
 74
     1
 95
      104
 96
      100
 40
0.0
 40
0.0
 40
0.0
 40
0.0
 40
1.0
 40
1.0
 40
1.0
 40
2.0
 40
2.0
 40
2.0
 40
3.0
 40
3.0
 40
3.0
 40
4.0
 40
4.0
 40
4.0
 40
5.0
 40
5.0
 40
5.0
 40
6.0
 40
6.0
 40
6.0
 40
7.0
 40
7.0
 40
7.0
 40
8.0
 40
8.0
 40
8.0
 40
9.0
 40
9.0
 40
9.0
 40
10.0
 40
10.0
 40
10.0
 40
11.0
 40
11.0
 40
11.0
 40
12.0
 40
12.0
 40
12.0
 40
13.0
 40
13.0
 40
13.0
 40
14.0
 40
14.0
 40
14.0
 40
15.0
 40
15.0
 40
15.0
 40
16.0
 40
16.0
 40
16.0
 40
17.0
 40
17.0
 40
17.0
 40
18.0
 40
18.0
 40
18.0
 40
19.0
 40
19.0
 40
19.0
 40
20.0
 40
20.0
 40
20.0
 40
21.0
 40
21.0
 40
21.0
 40
22.0
 40
22.0
 40
22.0
 40
23.0
 40
23.0
 40
23.0
 40
24.0
 40
24.0
 40
24.0
 40
25.0
 40
25.0
 40
25.0
 40
26.0
 40
26.0
 40
26.0
 40
27.0
 40
27.0
 40
27.0
 40
28.0
 40
28.0
 40
28.0
 40
29.0
 40
29.0
 40
29.0
 40
30.0
 40
30.0
 40
30.0
 40
31.0
 40
31.0
 40
31.0
 40
32.0
 40
32.0
 40
32.0
 40
33.0
 40
33.0
 40
33.0
 40
33.0
 10
395.4068307823444
 20
28.857396910502
 10
395.4068307823444
 20
28.857396910502
 10
395.7296544354325
 20
28.857396910502
 10
395.7296544354325
 20
28.857396910502
 10
395.7296544354325
 20
28.857396910502
 10
395.5665613906749
 20
28.32805122181077
 10
395.5665613906749
 20
28.32805122181077
 10
395.7081110374387
 20
28.55000178208216
 10
395.8351694758834
 20
28.64892585201409
 10
396.0039756869598
 20
28.77675794839777
 10
396.1732877513042
 20
28.90277492423224
 10
396.3742602789986
 20
28.92845441659237
 10
396.5137567566165
 20
28.92845441659237
 10
396.6864610134627
 20
28.92845441659237
 10
396.8531842993187
 20
28.8943539551269
 10
396.9408159389486
 20
28.70506068670399
 10
397.0079753992694
 20
28.55662250867558
 10
397.0110997871
 20
28.5391110587869
 10
396.9919071189977
 20
28.24610299242514
 10
397.1674382029287
 20
28.54650544331934
 10
397.2970854198616
 20
28.67589973361832
 10
397.5174886642549
 20
28.80022061320189
 10
397.7487826319435
 20
28.92845441659237
 10
397.8836074058529
 20
28.93805075064353
 10
398.0402433824273
 20
28.9149600367716
 10
398.2710017407735
 20
28.88087445334342
 10
398.4182943099307
 20
28.79853939498828
 10
398.4953030309365
 20
28.54832056386854
 10
398.5725795566135
 20
28.29887539068781
 10
398.5308317839817
 20
28.16507720135141
 10
398.4354040528126
 20
27.76796750808128
 10
398.3918411596316
 20
27.58711008680102
 10
398.3288177936771
 20
27.36812025595006
 10
398.2463637110236
 20
27.10754631087745
 10
398.2463637110236
 20
27.10754631087745
 10
397.5174886642549
 20
24.78695932282479
 10
397.5174886642549
 20
24.78695932282479
 10
397.5174886642549
 20
24.78695932282479
 10
397.1383962741413
 20
24.78695932282479
 10
397.1383962741413
 20
24.78695932282479
 10
397.1383962741413
 20
24.78695932282479
 10
397.7765450495241
 20
26.81569873142421
 10
397.7765450495241
 20
26.81569873142421
 10
397.9098225075554
 20
27.24016913526807
 10
398.0000429256735
 20
27.55015304217612
 10
398.0467302066851
 20
27.74450484327716
 10
398.1053199175276
 20
27.98694246089495
 10
398.1286486799962
 20
28.06694166739577
 10
398.1009160184902
 20
28.24339518963862
 10
398.0755043308013
 20
28.4076487213048
 10
397.9925146388055
 20
28.51460693137258
 10
397.8504293826993
 20
28.51460693137258
 10
397.6990007191758
 20
28.51460693137258
 10
397.5763461797686
 20
28.49775011512458
 10
397.4047131416073
 20
28.32532854098695
 10
397.2330503473714
 20
28.15159769956793
 10
397.0912031398618
 20
27.94766444245305
 10
396.9799749330922
 20
27.71312706263549
 10
396.8689847749192
 20
27.47716139123824
 10
396.7564473008682
 20
27.17806820762544
 10
396.6423625109393
 20
26.81569873142421
 10
396.6423625109393
 20
26.81569873142421
 10
396.0039756869598
 20
24.78695932282479
 10
396.0039756869598
 20
24.78695932282479
 10
396.0039756869598
 20
24.78695932282479
 10
395.6474384013758
 20
24.78695932282479
 10
395.6474384013758
 20
24.78695932282479
 10
395.6474384013758
 20
24.78695932282479
 10
396.3773549107547
 20
27.10650484826726
 10
396.3773549107547
 20
27.10650484826726
 10
396.4543636317604
 20
27.35336124295977
 10
396.5122094407385
 20
27.55457181925085
 10
396.5503269722719
 20
27.71183267339138
 10
396.6151357027011
 20
27.98253856185753
 10
396.6332869081932
 20
28.1655979326565
 10
396.5842786533645
 20
28.32805122181077
 10
396.5360440564749
 20
28.48998377965993
 10
396.4512690000045
 20
28.53134472332225
 10
396.3096895971661
 20
28.53134472332225
 10
396.1909331035284
 20
28.53134472332225
 10
396.0750331930502
 20
28.48038744560878
 10
395.9427971976291
 20
28.37899362148695
 10
395.7763119603696
 20
28.25142932977446
 10
395.7096881093912
 20
28.1466730692254
 10
395.6280076846768
 20
28.02220340926895
 10
395.5177911844429
 20
27.85754817059597
 10
395.4661941511259
 20
27.74670679279587
 10
395.3731171498484
 20
27.50348063920177
 10
395.2800103924964
 20
27.25882619402798
 10
395.1918728995987
 20
26.97412007247326
 10
395.1303968495222
 20
26.77719437092129
 10
395.1303968495222
 20
26.77719437092129
 10
394.5042100161195
 20
24.78695932282479
 10
394.5042100161195
 20
24.78695932282479
 10
394.5042100161195
 20
24.78695932282479
 10
394.1308307923247
 20
24.78695932282479
 10
394.1308307923247
 20
24.78695932282479
 10
394.1308307923247
 20
24.78695932282479
 10
395.4068307823444
 20
28.857396910502
 10
395.4068307823444
 20
28.857396910502
 97
        1
330
3C72
 92
       16
 93
        1
 72
     4
 94
        3
 73
     0
 74
     1
 95
       29
 96
       25
 40
0.0
 40
0.0
 40
0.0
 40
0.0
 40
1.0
 40
1.0
 40
1.0
 40
2.0
 40
2.0
 40
2.0
 40
3.0
 40
3.0
 40
3.0
 40
4.0
 40
4.0
 40
4.0
 40
5.0
 40
5.0
 40
5.0
 40
6.0
 40
6.0
 40
6.0
 40
7.0
 40
7.0
 40
7.0
 40
8.0
 40
8.0
 40
8.0
 40
8.0
 10
389.6462927927937
 20
25.54487629838084
 10
389.6447157208412
 20
25.82830290872873
 10
389.7341922370948
 20
26.33186495879882
 10
389.9634032795631
 20
27.00563175545052
 10
390.2756040140271
 20
27.91796788002499
 10
390.4628292352669
 20
28.25142932977446
 10
390.6266661818889
 20
28.41374871659313
 10
390.866024045788
 20
28.65010121695988
 10
391.1878062362659
 20
28.66188462249246
 10
391.2827281141673
 20
28.65010121695988
 10
391.4178206927478
 20
28.6338841563153
 10
391.6086463990114
 20
28.54546398070914
 10
391.6200429755745
 20
28.24779908867604
 10
391.629148334395
 20
27.99304245618328
 10
391.5557400984131
 20
27.51593355641234
 10
391.2987963944389
 20
26.76695828126675
 10
391.0026639402465
 20
25.896622855958
 10
390.824782126424
 20
25.55448751046927
 10
390.6821910170501
 20
25.40537982076289
 10
390.413553175767
 20
25.1258512561846
 10
390.1254548617105
 20
25.15269123545324
 10
390.0829334311396
 20
25.15269123545324
 10
390.0277061567243
 20
25.15269123545324
 10
389.6470664507327
 20
25.21261996965174
 10
389.6462927927937
 20
25.54487629838084
 97
        1
330
3C74
 75
     0
 76
     1
 98
        1
 10
371.9300318427923
 20
14.61939790801677
1001
ACAD
1010
0.0
1020
0.0
1030
0.0
  0
POLYLINE
  5
3C65
102
{ACAD_REACTORS
330
3C64
330
3C75
102
}
330
A
100
AcDbEntity
  8
TEMPLATE
100
AcDb2dPolyline
 66
     1
 10
0.0
 20
0.0
 30
0.0
  0
VERTEX
  5
3C66
330
3C65
100
AcDbEntity
  8
TEMPLATE
100
AcDbVertex
100
AcDb2dVertex
 10
386.9584116981973
 20
30.78695932253559
 30
0.0
  0
VERTEX
  5
3C67
330
3C65
100
AcDbEntity
  8
TEMPLATE
100
AcDbVertex
100
AcDb2dVertex
 10
386.9584116981973
 20
29.60507779640349
 30
0.0
  0
VERTEX
  5
3C68
330
3C65
100
AcDbEntity
  8
TEMPLATE
100
AcDbVertex
100
AcDb2dVertex
 10
385.086293388135
 20
29.60507779640349
 30
0.0
  0
VERTEX
  5
3C69
330
3C65
100
AcDbEntity
  8
TEMPLATE
100
AcDbVertex
100
AcDb2dVertex
 10
385.086293388135
 20
24.78695932282479
 30
0.0
  0
VERTEX
  5
3C6A
330
3C65
100
AcDbEntity
  8
TEMPLATE
100
AcDbVertex
100
AcDb2dVertex
 10
383.4397707574798
 20
24.78695932282479
 30
0.0
  0
VERTEX
  5
3C6B
330
3C65
100
AcDbEntity
  8
TEMPLATE
100
AcDbVertex
100
AcDb2dVertex
 10
383.4397707574798
 20
29.60507779640349
 30
0.0
  0
VERTEX
  5
3C6C
330
3C65
100
AcDbEntity
  8
TEMPLATE
100
AcDbVertex
100
AcDb2dVertex
 10
381.6008304705712
 20
29.60507779640349
 30
0.0
  0
VERTEX
  5
3C6D
330
3C65
100
AcDbEntity
  8
TEMPLATE
100
AcDbVertex
100
AcDb2dVertex
 10
381.6008304705712
 20
30.78695932253559
 30
0.0
  0
VERTEX
  5
3C6E
330
3C65
100
AcDbEntity
  8
TEMPLATE
100
AcDbVertex
100
AcDb2dVertex
 10
386.9584116981973
 20
30.78695932253559
 30
0.0
  0
SEQEND
  5
3C6F
330
3C65
100
AcDbEntity
  8
TEMPLATE
  0
SPLINE
  5
3C70
102
{ACAD_REACTORS
330
3C64
330
3C75
102
}
330
A
100
AcDbEntity
  8
TEMPLATE
100
AcDbSpline
210
0.0
220
0.0
230
1.0
 70
    11
 71
     3
 72
    56
 73
    52
 74
     0
 42
0.000000001
 43
0.0000000001
 40
0.0
 40
0.0
 40
0.0
 40
0.0
 40
1.0
 40
1.0
 40
1.0
 40
2.0
 40
2.0
 40
2.0
 40
3.0
 40
3.0
 40
3.0
 40
4.0
 40
4.0
 40
4.0
 40
5.0
 40
5.0
 40
5.0
 40
6.0
 40
6.0
 40
6.0
 40
7.0
 40
7.0
 40
7.0
 40
8.0
 40
8.0
 40
8.0
 40
9.0
 40
9.0
 40
9.0
 40
10.0
 40
10.0
 40
10.0
 40
11.0
 40
11.0
 40
11.0
 40
12.0
 40
12.0
 40
12.0
 40
13.0
 40
13.0
 40
13.0
 40
14.0
 40
14.0
 40
14.0
 40
15.0
 40
15.0
 40
15.0
 40
16.0
 40
16.0
 40
16.0
 40
17.0
 40
17.0
 40
17.0
 40
17.0
 10
389.4668487850558
 20
30.64408553045313
 30
0.0
 10
389.6976220214394
 20
30.70904304125516
 30
0.0
 10
389.9955398401064
 20
30.65470844907718
 30
0.0
 10
389.9955398401064
 20
30.65470844907718
 30
0.0
 10
389.9955398401064
 20
30.65470844907718
 30
0.0
 10
389.85241312139
 20
30.22519439059248
 30
0.0
 10
389.85241312139
 20
30.22519439059248
 30
0.0
 10
389.85241312139
 20
30.22519439059248
 30
0.0
 10
389.5599406643706
 20
30.29287458221835
 30
0.0
 10
389.3343598630008
 20
30.1149927683958
 30
0.0
 10
389.1590668276665
 20
29.97588311974736
 30
0.0
 10
389.0455027690426
 20
29.60625316134929
 30
0.0
 10
389.0019398758616
 20
29.46571522112114
 30
0.0
 10
389.0019398758616
 20
29.46571522112114
 30
0.0
 10
388.8077219770962
 20
28.86958202304137
 30
0.0
 10
388.8077219770962
 20
28.86958202304137
 30
0.0
 10
388.8077219770962
 20
28.86958202304137
 30
0.0
 10
389.4445466071603
 20
28.86958202304137
 30
0.0
 10
389.4445466071603
 20
28.86958202304137
 30
0.0
 10
389.4445466071603
 20
28.86958202304137
 30
0.0
 10
389.34550351293
 20
28.49438767869736
 30
0.0
 10
389.34550351293
 20
28.49438767869736
 30
0.0
 10
389.34550351293
 20
28.49438767869736
 30
0.0
 10
388.7034864478522
 20
28.49438767869736
 30
0.0
 10
388.7034864478522
 20
28.49438767869736
 30
0.0
 10
388.7034864478522
 20
28.49438767869736
 30
0.0
 10
387.5547978229109
 20
24.78695932282479
 30
0.0
 10
387.5547978229109
 20
24.78695932282479
 30
0.0
 10
387.5547978229109
 20
24.78695932282479
 30
0.0
 10
387.1951510275336
 20
24.78695932282479
 30
0.0
 10
387.1951510275336
 20
24.78695932282479
 30
0.0
 10
387.1951510275336
 20
24.78695932282479
 30
0.0
 10
388.3448811150849
 20
28.49438767869736
 30
0.0
 10
388.3448811150849
 20
28.49438767869736
 30
0.0
 10
388.3448811150849
 20
28.49438767869736
 30
0.0
 10
387.8711346517413
 20
28.49438767869736
 30
0.0
 10
387.8711346517413
 20
28.49438767869736
 30
0.0
 10
387.8711346517413
 20
28.49438767869736
 30
0.0
 10
387.9704455506427
 20
28.86958202304137
 30
0.0
 10
387.9704455506427
 20
28.86958202304137
 30
0.0
 10
387.9704455506427
 20
28.86958202304137
 30
0.0
 10
388.4491166443289
 20
28.86958202304137
 30
0.0
 10
388.4491166443289
 20
28.86958202304137
 30
0.0
 10
388.4491166443289
 20
28.86958202304137
 30
0.0
 10
388.6184287086733
 20
29.38948015805433
 30
0.0
 10
388.6184287086733
 20
29.38948015805433
 30
0.0
 10
388.7553364078029
 20
29.82536201649855
 30
0.0
 10
388.8715041229524
 20
30.059378665011
 30
0.0
 10
388.971082826525
 20
30.23581730921654
 30
0.0
 10
389.0696051894502
 20
30.41240473379499
 30
0.0
 10
389.2645967461546
 20
30.58586777054282
 30
0.0
 10
389.4668487850558
 20
30.64408553045313
 30
0.0
  0
SPLINE
  5
3C71
102
{ACAD_REACTORS
330
3C64
330
3C75
102
}
330
A
100
AcDbEntity
  8
TEMPLATE
100
AcDbSpline
210
0.0
220
0.0
230
1.0
 70
    11
 71
     3
 72
    38
 73
    34
 74
     0
 42
0.000000001
 43
0.0000000001
 40
0.0
 40
0.0
 40
0.0
 40
0.0
 40
1.0
 40
1.0
 40
1.0
 40
2.0
 40
2.0
 40
2.0
 40
3.0
 40
3.0
 40
3.0
 40
4.0
 40
4.0
 40
4.0
 40
5.0
 40
5.0
 40
5.0
 40
6.0
 40
6.0
 40
6.0
 40
7.0
 40
7.0
 40
7.0
 40
8.0
 40
8.0
 40
8.0
 40
9.0
 40
9.0
 40
9.0
 40
10.0
 40
10.0
 40
10.0
 40
11.0
 40
11.0
 40
11.0
 40
11.0
 10
393.3716045494872
 20
28.85519496098328
 30
0.0
 10
393.3716045494872
 20
28.85519496098328
 30
0.0
 10
393.7413535321836
 20
28.85519496098328
 30
0.0
 10
393.7413535321836
 20
28.85519496098328
 30
0.0
 10
393.7413535321836
 20
28.85519496098328
 30
0.0
 10
393.5761775622055
 20
28.32635512555987
 30
0.0
 10
393.5761775622055
 20
28.32635512555987
 30
0.0
 10
393.7016886847722
 20
28.47480818162555
 30
0.0
 10
393.8997748732327
 20
28.67252241915381
 30
0.0
 10
394.0698903515905
 20
28.77222014702475
 30
0.0
 10
394.3240072284799
 20
28.92067320309043
 30
0.0
 10
394.4692168724166
 20
28.94025270016223
 30
0.0
 10
394.6289177246725
 20
28.93635465439262
 30
0.0
 10
394.6289177246725
 20
28.93635465439262
 30
0.0
 10
394.4728471135151
 20
28.43630382112264
 30
0.0
 10
394.4728471135151
 20
28.43630382112264
 30
0.0
 10
394.3712003627593
 20
28.47934598299858
 30
0.0
 10
394.057958165685
 20
28.39741263165024
 30
0.0
 10
393.8782612313133
 20
28.26815224368685
 30
0.0
 10
393.7162096491659
 20
28.15159769956793
 30
0.0
 10
393.6041780283826
 20
28.0524207030021
 30
0.0
 10
393.4714361796937
 20
27.80309455411968
 30
0.0
 10
393.3397060375404
 20
27.55339645430504
 30
0.0
 10
393.2357383129677
 20
27.15524529842472
 30
0.0
 10
393.0568150365349
 20
26.57765013480655
 30
0.0
 10
393.0568150365349
 20
26.57765013480655
 30
0.0
 10
392.4980257120495
 20
24.78695932282479
 30
0.0
 10
392.4980257120495
 20
24.78695932282479
 30
0.0
 10
392.4980257120495
 20
24.78695932282479
 30
0.0
 10
392.1391674526484
 20
24.78695932282479
 30
0.0
 10
392.1391674526484
 20
24.78695932282479
 30
0.0
 10
392.1391674526484
 20
24.78695932282479
 30
0.0
 10
393.3716045494872
 20
28.85519496098328
 30
0.0
 10
393.3716045494872
 20
28.85519496098328
 30
0.0
  0
SPLINE
  5
3C72
102
{ACAD_REACTORS
330
3C64
330
3C75
102
}
330
A
100
AcDbEntity
  8
TEMPLATE
100
AcDbSpline
210
0.0
220
0.0
230
1.0
 70
    11
 71
     3
 72
   104
 73
   100
 74
     0
 42
0.000000001
 43
0.0000000001
 40
0.0
 40
0.0
 40
0.0
 40
0.0
 40
1.0
 40
1.0
 40
1.0
 40
2.0
 40
2.0
 40
2.0
 40
3.0
 40
3.0
 40
3.0
 40
4.0
 40
4.0
 40
4.0
 40
5.0
 40
5.0
 40
5.0
 40
6.0
 40
6.0
 40
6.0
 40
7.0
 40
7.0
 40
7.0
 40
8.0
 40
8.0
 40
8.0
 40
9.0
 40
9.0
 40
9.0
 40
10.0
 40
10.0
 40
10.0
 40
11.0
 40
11.0
 40
11.0
 40
12.0
 40
12.0
 40
12.0
 40
13.0
 40
13.0
 40
13.0
 40
14.0
 40
14.0
 40
14.0
 40
15.0
 40
15.0
 40
15.0
 40
16.0
 40
16.0
 40
16.0
 40
17.0
 40
17.0
 40
17.0
 40
18.0
 40
18.0
 40
18.0
 40
19.0
 40
19.0
 40
19.0
 40
20.0
 40
20.0
 40
20.0
 40
21.0
 40
21.0
 40
21.0
 40
22.0
 40
22.0
 40
22.0
 40
23.0
 40
23.0
 40
23.0
 40
24.0
 40
24.0
 40
24.0
 40
25.0
 40
25.0
 40
25.0
 40
26.0
 40
26.0
 40
26.0
 40
27.0
 40
27.0
 40
27.0
 40
28.0
 40
28.0
 40
28.0
 40
29.0
 40
29.0
 40
29.0
 40
30.0
 40
30.0
 40
30.0
 40
31.0
 40
31.0
 40
31.0
 40
32.0
 40
32.0
 40
32.0
 40
33.0
 40
33.0
 40
33.0
 40
33.0
 10
395.4068307823444
 20
28.857396910502
 30
0.0
 10
395.4068307823444
 20
28.857396910502
 30
0.0
 10
395.7296544354325
 20
28.857396910502
 30
0.0
 10
395.7296544354325
 20
28.857396910502
 30
0.0
 10
395.7296544354325
 20
28.857396910502
 30
0.0
 10
395.5665613906749
 20
28.32805122181077
 30
0.0
 10
395.5665613906749
 20
28.32805122181077
 30
0.0
 10
395.7081110374387
 20
28.55000178208216
 30
0.0
 10
395.8351694758834
 20
28.64892585201409
 30
0.0
 10
396.0039756869598
 20
28.77675794839777
 30
0.0
 10
396.1732877513042
 20
28.90277492423224
 30
0.0
 10
396.3742602789986
 20
28.92845441659237
 30
0.0
 10
396.5137567566165
 20
28.92845441659237
 30
0.0
 10
396.6864610134627
 20
28.92845441659237
 30
0.0
 10
396.8531842993187
 20
28.8943539551269
 30
0.0
 10
396.9408159389486
 20
28.70506068670399
 30
0.0
 10
397.0079753992694
 20
28.55662250867558
 30
0.0
 10
397.0110997871
 20
28.5391110587869
 30
0.0
 10
396.9919071189977
 20
28.24610299242514
 30
0.0
 10
397.1674382029287
 20
28.54650544331934
 30
0.0
 10
397.2970854198616
 20
28.67589973361832
 30
0.0
 10
397.5174886642549
 20
28.80022061320189
 30
0.0
 10
397.7487826319435
 20
28.92845441659237
 30
0.0
 10
397.8836074058529
 20
28.93805075064353
 30
0.0
 10
398.0402433824273
 20
28.9149600367716
 30
0.0
 10
398.2710017407735
 20
28.88087445334342
 30
0.0
 10
398.4182943099307
 20
28.79853939498828
 30
0.0
 10
398.4953030309365
 20
28.54832056386854
 30
0.0
 10
398.5725795566135
 20
28.29887539068781
 30
0.0
 10
398.5308317839817
 20
28.16507720135141
 30
0.0
 10
398.4354040528126
 20
27.76796750808128
 30
0.0
 10
398.3918411596316
 20
27.58711008680102
 30
0.0
 10
398.3288177936771
 20
27.36812025595006
 30
0.0
 10
398.2463637110236
 20
27.10754631087745
 30
0.0
 10
398.2463637110236
 20
27.10754631087745
 30
0.0
 10
397.5174886642549
 20
24.78695932282479
 30
0.0
 10
397.5174886642549
 20
24.78695932282479
 30
0.0
 10
397.5174886642549
 20
24.78695932282479
 30
0.0
 10
397.1383962741413
 20
24.78695932282479
 30
0.0
 10
397.1383962741413
 20
24.78695932282479
 30
0.0
 10
397.1383962741413
 20
24.78695932282479
 30
0.0
 10
397.7765450495241
 20
26.81569873142421
 30
0.0
 10
397.7765450495241
 20
26.81569873142421
 30
0.0
 10
397.9098225075554
 20
27.24016913526807
 30
0.0
 10
398.0000429256735
 20
27.55015304217612
 30
0.0
 10
398.0467302066851
 20
27.74450484327716
 30
0.0
 10
398.1053199175276
 20
27.98694246089495
 30
0.0
 10
398.1286486799962
 20
28.06694166739577
 30
0.0
 10
398.1009160184902
 20
28.24339518963862
 30
0.0
 10
398.0755043308013
 20
28.4076487213048
 30
0.0
 10
397.9925146388055
 20
28.51460693137258
 30
0.0
 10
397.8504293826993
 20
28.51460693137258
 30
0.0
 10
397.6990007191758
 20
28.51460693137258
 30
0.0
 10
397.5763461797686
 20
28.49775011512458
 30
0.0
 10
397.4047131416073
 20
28.32532854098695
 30
0.0
 10
397.2330503473714
 20
28.15159769956793
 30
0.0
 10
397.0912031398618
 20
27.94766444245305
 30
0.0
 10
396.9799749330922
 20
27.71312706263549
 30
0.0
 10
396.8689847749192
 20
27.47716139123824
 30
0.0
 10
396.7564473008682
 20
27.17806820762544
 30
0.0
 10
396.6423625109393
 20
26.81569873142421
 30
0.0
 10
396.6423625109393
 20
26.81569873142421
 30
0.0
 10
396.0039756869598
 20
24.78695932282479
 30
0.0
 10
396.0039756869598
 20
24.78695932282479
 30
0.0
 10
396.0039756869598
 20
24.78695932282479
 30
0.0
 10
395.6474384013758
 20
24.78695932282479
 30
0.0
 10
395.6474384013758
 20
24.78695932282479
 30
0.0
 10
395.6474384013758
 20
24.78695932282479
 30
0.0
 10
396.3773549107547
 20
27.10650484826726
 30
0.0
 10
396.3773549107547
 20
27.10650484826726
 30
0.0
 10
396.4543636317604
 20
27.35336124295977
 30
0.0
 10
396.5122094407385
 20
27.55457181925085
 30
0.0
 10
396.5503269722719
 20
27.71183267339138
 30
0.0
 10
396.6151357027011
 20
27.98253856185753
 30
0.0
 10
396.6332869081932
 20
28.1655979326565
 30
0.0
 10
396.5842786533645
 20
28.32805122181077
 30
0.0
 10
396.5360440564749
 20
28.48998377965993
 30
0.0
 10
396.4512690000045
 20
28.53134472332225
 30
0.0
 10
396.3096895971661
 20
28.53134472332225
 30
0.0
 10
396.1909331035284
 20
28.53134472332225
 30
0.0
 10
396.0750331930502
 20
28.48038744560878
 30
0.0
 10
395.9427971976291
 20
28.37899362148695
 30
0.0
 10
395.7763119603696
 20
28.25142932977446
 30
0.0
 10
395.7096881093912
 20
28.1466730692254
 30
0.0
 10
395.6280076846768
 20
28.02220340926895
 30
0.0
 10
395.5177911844429
 20
27.85754817059597
 30
0.0
 10
395.4661941511259
 20
27.74670679279587
 30
0.0
 10
395.3731171498484
 20
27.50348063920177
 30
0.0
 10
395.2800103924964
 20
27.25882619402798
 30
0.0
 10
395.1918728995987
 20
26.97412007247326
 30
0.0
 10
395.1303968495222
 20
26.77719437092129
 30
0.0
 10
395.1303968495222
 20
26.77719437092129
 30
0.0
 10
394.5042100161195
 20
24.78695932282479
 30
0.0
 10
394.5042100161195
 20
24.78695932282479
 30
0.0
 10
394.5042100161195
 20
24.78695932282479
 30
0.0
 10
394.1308307923247
 20
24.78695932282479
 30
0.0
 10
394.1308307923247
 20
24.78695932282479
 30
0.0
 10
394.1308307923247
 20
24.78695932282479
 30
0.0
 10
395.4068307823444
 20
28.857396910502
 30
0.0
 10
395.4068307823444
 20
28.857396910502
 30
0.0
  0
SPLINE
  5
3C73
102
{ACAD_REACTORS
330
3C64
330
3C75
102
}
330
A
100
AcDbEntity
  8
TEMPLATE
100
AcDbSpline
210
0.0
220
0.0
230
1.0
 70
    11
 71
     3
 72
    32
 73
    28
 74
     0
 42
0.000000001
 43
0.0000000001
 40
0.0
 40
0.0
 40
0.0
 40
0.0
 40
1.0
 40
1.0
 40
1.0
 40
2.0
 40
2.0
 40
2.0
 40
3.0
 40
3.0
 40
3.0
 40
4.0
 40
4.0
 40
4.0
 40
5.0
 40
5.0
 40
5.0
 40
6.0
 40
6.0
 40
6.0
 40
7.0
 40
7.0
 40
7.0
 40
8.0
 40
8.0
 40
8.0
 40
9.0
 40
9.0
 40
9.0
 40
9.0
 10
390.3419600603343
 20
28.64284073476305
 30
0.0
 10
390.1254548617105
 20
28.36279143887966
 30
0.0
 10
389.9587315758544
 20
28.11075748721071
 30
0.0
 10
389.6888142233646
 20
27.31860614785359
 30
0.0
 10
389.4406634394279
 20
26.59401597582401
 30
0.0
 10
389.2827479516467
 20
26.06685735861421
 30
0.0
 10
389.2588984578731
 20
25.42484029353638
 30
0.0
 10
389.240747252381
 20
24.94707676012474
 30
0.0
 10
389.5316723935223
 20
24.78695932282479
 30
0.0
 10
389.9582257225866
 20
24.78695932282479
 30
0.0
 10
390.1420587513246
 20
24.78695932282479
 30
0.0
 10
390.6059559539832
 20
24.79865346013363
 30
0.0
 10
390.9363078939394
 20
25.20702582763122
 30
0.0
 10
391.1675721055534
 20
25.49393389870466
 30
0.0
 10
391.38071486775
 20
25.79134586410385
 30
0.0
 10
391.6664624519149
 20
26.76695828126675
 30
0.0
 10
391.9042432438614
 20
27.58257228542799
 30
0.0
 10
392.068883604497
 20
28.10971602460051
 30
0.0
 10
392.056713369995
 20
28.40985067082352
 30
0.0
 10
392.056713369995
 20
28.40985067082352
 30
0.0
 10
392.056713369995
 20
28.40985067082352
 30
0.0
 10
392.056713369995
 20
28.40985067082352
 30
0.0
 10
391.9791690396468
 20
28.91055613773418
 30
0.0
 10
391.615639076537
 20
29.01635386089345
 30
0.0
 10
391.4079416759881
 20
29.01635386089345
 30
0.0
 10
391.2033686632698
 20
29.01635386089345
 30
0.0
 10
390.6552022574085
 20
29.05174871160303
 30
0.0
 10
390.3419600603343
 20
28.64284073476305
 30
0.0
  0
SPLINE
  5
3C74
102
{ACAD_REACTORS
330
3C64
330
3C75
102
}
330
A
100
AcDbEntity
  8
TEMPLATE
100
AcDbSpline
210
0.0
220
0.0
230
1.0
 70
    11
 71
     3
 72
    29
 73
    25
 74
     0
 42
0.000000001
 43
0.0000000001
 40
0.0
 40
0.0
 40
0.0
 40
0.0
 40
1.0
 40
1.0
 40
1.0
 40
2.0
 40
2.0
 40
2.0
 40
3.0
 40
3.0
 40
3.0
 40
4.0
 40
4.0
 40
4.0
 40
5.0
 40
5.0
 40
5.0
 40
6.0
 40
6.0
 40
6.0
 40
7.0
 40
7.0
 40
7.0
 40
8.0
 40
8.0
 40
8.0
 40
8.0
 10
389.6462927927937
 20
25.54487629838084
 30
0.0
 10
389.6447157208412
 20
25.82830290872873
 30
0.0
 10
389.7341922370948
 20
26.33186495879882
 30
0.0
 10
389.9634032795631
 20
27.00563175545052
 30
0.0
 10
390.2756040140271
 20
27.91796788002499
 30
0.0
 10
390.4628292352669
 20
28.25142932977446
 30
0.0
 10
390.6266661818889
 20
28.41374871659313
 30
0.0
 10
390.866024045788
 20
28.65010121695988
 30
0.0
 10
391.1878062362659
 20
28.66188462249246
 30
0.0
 10
391.2827281141673
 20
28.65010121695988
 30
0.0
 10
391.4178206927478
 20
28.6338841563153
 30
0.0
 10
391.6086463990114
 20
28.54546398070914
 30
0.0
 10
391.6200429755745
 20
28.24779908867604
 30
0.0
 10
391.629148334395
 20
27.99304245618328
 30
0.0
 10
391.5557400984131
 20
27.51593355641234
 30
0.0
 10
391.2987963944389
 20
26.76695828126675
 30
0.0
 10
391.0026639402465
 20
25.896622855958
 30
0.0
 10
390.824782126424
 20
25.55448751046927
 30
0.0
 10
390.6821910170501
 20
25.40537982076289
 30
0.0
 10
390.413553175767
 20
25.1258512561846
 30
0.0
 10
390.1254548617105
 20
25.15269123545324
 30
0.0
 10
390.0829334311396
 20
25.15269123545324
 30
0.0
 10
390.0277061567243
 20
25.15269123545324
 30
0.0
 10
389.6470664507327
 20
25.21261996965174
 30
0.0
 10
389.6462927927937
 20
25.54487629838084
 30
0.0
  0
MTEXT
  5
3CB5
102
{ACAD_XDICTIONARY
360
3CB7
102
}
330
A
100
AcDbEntity
  8
TEMPLATE
100
AcDbMText
 10
15.00779663219942
 20
17.57619761830519
 30
0.0
 40
4.0
 41
0.0
 46
4.0
 71
     1
 72
     1
  1
{20220803M}
  7
ＭＳ ゴシック
 73
     1
 44
1.0
1001
ACAD
1000
ACAD_MTEXT_DEFINED_HEIGHT_BEGIN
1070
    46
1040
4.0
1000
ACAD_MTEXT_DEFINED_HEIGHT_END
  0
LINE
  5
4115
330
A
100
AcDbEntity
  8
MODEL
100
AcDbLine
 10
40.47268864340958
 20
342.9660998776789
 30
0.0
 11
39.97409605789204
 21
342.4675072921613
 31
0.0
  0
LINE
  5
4116
330
A
100
AcDbEntity
  8
MODEL
100
AcDbLine
 10
39.97340834398096
 20
342.4675072921613
 30
0.0
 11
39.97340834398096
 21
341.468946693304
 31
0.0
  0
LINE
  5
4117
330
A
100
AcDbEntity
  8
MODEL
100
AcDbLine
 10
37.28719780738561
 20
341.175292853282
 30
0.0
 11
36.97910197523129
 21
323.5037961947174
 31
0.0
  0
LINE
  5
4118
330
A
100
AcDbEntity
  8
MODEL
100
AcDbLine
 10
43.98690672891956
 20
242.5103534615106
 30
0.0
 11
43.98690672891956
 21
251.7724844156493
 31
0.0
  0
LINE
  5
4119
330
A
100
AcDbEntity
  8
MODEL
100
AcDbLine
 10
62.92998640903176
 20
252.3254064001407
 30
0.0
 11
62.92998640903176
 21
252.3570412400493
 31
0.0
  0
LINE
  5
411A
102
{ACAD_REACTORS
330
44FD
102
}
330
A
100
AcDbEntity
  8
HIDDEN
 48
0.25
100
AcDbLine
 10
77.43112193761584
 20
321.4764155849163
 30
0.0
 11
76.71039775882633
 21
320.2282148363445
 31
0.0
  0
LINE
  5
411B
330
A
100
AcDbEntity
  8
MODEL
100
AcDbLine
 10
201.1673596709438
 20
234.3912030275514
 30
0.0
 11
44.46486789710542
 21
234.3912030275514
 31
0.0
  0
LINE
  5
411C
102
{ACAD_REACTORS
330
44FD
102
}
330
A
100
AcDbEntity
  8
HIDDEN
 48
0.25
100
AcDbLine
 10
78.87119486737282
 20
318.9807018016841
 30
0.0
 11
79.59054361834018
 21
320.2289025502557
 31
0.0
  0
LINE
  5
411D
102
{ACAD_REACTORS
330
44FD
102
}
330
A
100
AcDbEntity
  8
HIDDEN
 48
0.25
100
AcDbLine
 10
83.04149202403295
 20
322.3883242309802
 30
0.0
 11
83.04149202403295
 21
316.23672329656
 31
0.0
  0
LINE
  5
411E
330
A
100
AcDbEntity
  8
MODEL
100
AcDbLine
 10
83.79522647055313
 20
311.6049701055795
 30
0.0
 11
82.96310258339574
 21
323.5031084808064
 31
0.0
  0
LINE
  5
411F
330
A
100
AcDbEntity
  8
MODEL
100
AcDbLine
 10
83.45549579849006
 20
311.4412941947476
 30
0.0
 11
83.3949769743171
 21
314.9500105689689
 31
0.0
  0
LINE
  5
4120
102
{ACAD_REACTORS
330
44FD
102
}
330
A
100
AcDbEntity
  8
HIDDEN
 48
0.25
100
AcDbLine
 10
85.23942568377646
 20
337.3254703791754
 30
0.0
 11
85.23942568377646
 21
313.5876493111619
 31
0.0
  0
LINE
  5
4121
330
A
100
AcDbEntity
  8
MODEL
100
AcDbLine
 10
62.63289399945455
 20
252.295146988054
 30
0.0
 11
44.48549931443722
 21
252.2758909985443
 31
0.0
  0
LINE
  5
4122
330
A
100
AcDbEntity
  8
MODEL
100
AcDbLine
 10
181.7050559879821
 20
252.3570412400493
 30
0.0
 11
62.92998640903176
 21
252.3570412400493
 31
0.0
  0
LINE
  5
4123
102
{ACAD_REACTORS
330
44FD
102
}
330
A
100
AcDbEntity
  8
HIDDEN
 48
0.25
100
AcDbLine
 10
90.4853073973324
 20
328.5853142835301
 30
0.0
 11
90.4853073973324
 21
316.7084950395461
 31
0.0
  0
LINE
  5
4124
102
{ACAD_REACTORS
330
44FD
102
}
330
A
100
AcDbEntity
  8
HIDDEN
 48
0.25
100
AcDbLine
 10
76.71039775882633
 20
320.2289025502557
 30
0.0
 11
77.4297465097938
 21
318.9807018016841
 31
0.0
  0
LINE
  5
4125
102
{ACAD_REACTORS
330
44FD
102
}
330
A
100
AcDbEntity
  8
HIDDEN
 48
0.25
100
AcDbLine
 10
79.59191904616245
 20
320.2289025502557
 30
0.0
 11
78.87119486737282
 21
321.4764155849163
 31
0.0
  0
LINE
  5
4126
102
{ACAD_REACTORS
330
44FD
102
}
330
A
100
AcDbEntity
  8
HIDDEN
 48
0.25
100
AcDbLine
 10
100.6084561681166
 20
322.2555954461458
 30
0.0
 11
100.5878247507848
 21
322.2755391495666
 31
0.0
  0
LINE
  5
4127
102
{ACAD_REACTORS
330
44FD
102
}
330
A
100
AcDbEntity
  8
HIDDEN
 48
0.25
100
AcDbLine
 10
166.7610327006764
 20
321.4764155849163
 30
0.0
 11
166.0416839497088
 21
320.2282148363445
 31
0.0
  0
LINE
  5
4128
102
{ACAD_REACTORS
330
44FD
102
}
330
A
100
AcDbEntity
  8
HIDDEN
 48
0.25
100
AcDbLine
 10
168.2011056304332
 20
318.9807018016841
 30
0.0
 11
168.9218298092227
 21
320.2289025502557
 31
0.0
  0
LINE
  5
4129
330
A
100
AcDbEntity
  8
MODEL
100
AcDbLine
 10
181.7050559879821
 20
311.2459834440069
 30
0.0
 11
162.8616948249734
 21
311.2459834440069
 31
0.0
  0
LINE
  5
412A
330
A
100
AcDbEntity
  8
MODEL
100
AcDbLine
 10
82.77053274307576
 20
311.2459834440069
 30
0.0
 11
44.46486789710542
 21
311.2459834440069
 31
0.0
  0
LINE
  5
412B
330
A
100
AcDbEntity
  8
MODEL
100
AcDbLine
 10
83.65493283269728
 20
311.2459834440069
 30
0.0
 11
161.9772947353519
 21
311.2459834440069
 31
0.0
  0
LINE
  5
412C
330
A
100
AcDbEntity
  8
MODEL
100
AcDbLine
 10
161.5385332600965
 20
311.3271336855118
 30
0.0
 11
84.09506973577476
 21
311.3271336855118
 31
0.0
  0
LINE
  5
412D
330
A
100
AcDbEntity
  8
MODEL
100
AcDbLine
 10
162.2400014493763
 20
311.9529533445752
 30
0.0
 11
162.1836089086696
 21
311.9529533445752
 31
0.0
  0
LINE
  5
412E
330
A
100
AcDbEntity
  8
MODEL
100
AcDbLine
 10
83.44586780373533
 20
311.9529533445752
 30
0.0
 11
83.3922261186728
 21
311.9529533445752
 31
0.0
  0
LINE
  5
412F
102
{ACAD_REACTORS
330
44FD
102
}
330
A
100
AcDbEntity
  8
HIDDEN
 48
0.25
100
AcDbLine
 10
85.53789352117604
 20
313.2878060459403
 30
0.0
 11
160.0943340468731
 21
313.2878060459403
 31
0.0
  0
LINE
  5
4130
102
{ACAD_REACTORS
330
44FD
102
}
330
A
100
AcDbEntity
  8
HIDDEN
 48
0.25
100
AcDbLine
 10
162.5907355440162
 20
316.236035582649
 30
0.0
 11
162.2221208876887
 21
316.236035582649
 31
0.0
  0
LINE
  5
4131
102
{ACAD_REACTORS
330
44FD
102
}
330
A
100
AcDbEntity
  8
HIDDEN
 48
0.25
100
AcDbLine
 10
83.04149202403295
 20
316.236035582649
 30
0.0
 11
83.41010668036023
 21
316.236035582649
 31
0.0
  0
LINE
  5
4132
102
{ACAD_REACTORS
330
44FD
102
}
330
A
100
AcDbEntity
  8
HIDDEN
 48
0.25
100
AcDbLine
 10
160.0544466400317
 20
316.4086517743245
 30
0.0
 11
155.4453880081163
 21
316.4086517743245
 31
0.0
  0
LINE
  5
4133
102
{ACAD_REACTORS
330
44FD
102
}
330
A
100
AcDbEntity
  8
HIDDEN
 48
0.25
100
AcDbLine
 10
90.18683955993282
 20
316.4086517743245
 30
0.0
 11
85.57778092801726
 21
316.4086517743245
 31
0.0
  0
LINE
  5
4134
102
{ACAD_REACTORS
330
44FD
102
}
330
A
100
AcDbEntity
  8
HIDDEN
 48
0.25
100
AcDbLine
 10
155.1469201707168
 20
316.7078073256351
 30
0.0
 11
155.1469201707168
 21
328.5853142835301
 31
0.0
  0
LINE
  5
4135
102
{ACAD_REACTORS
330
44FD
102
}
330
A
100
AcDbEntity
  8
HIDDEN
 48
0.25
100
AcDbLine
 10
141.0309044323256
 20
318.2634161924499
 30
0.0
 11
144.5244911005039
 21
318.2634161924499
 31
0.0
  0
LINE
  5
4136
102
{ACAD_REACTORS
330
44FD
102
}
330
A
100
AcDbEntity
  8
HIDDEN
 48
0.25
100
AcDbLine
 10
77.43112193761584
 20
318.9807018016841
 30
0.0
 11
78.87119486737282
 21
318.9807018016841
 31
0.0
  0
LINE
  5
4137
102
{ACAD_REACTORS
330
44FD
102
}
330
A
100
AcDbEntity
  8
HIDDEN
 48
0.25
100
AcDbLine
 10
166.7610327006764
 20
318.9807018016841
 30
0.0
 11
168.2024810582553
 21
318.9807018016841
 31
0.0
  0
LINE
  5
4138
102
{ACAD_REACTORS
330
44FD
102
}
330
A
100
AcDbEntity
  8
HIDDEN
 48
0.25
100
AcDbLine
 10
168.2011056304332
 20
321.4764155849163
 30
0.0
 11
166.7610327006764
 21
321.4764155849163
 31
0.0
  0
LINE
  5
4139
102
{ACAD_REACTORS
330
44FD
102
}
330
A
100
AcDbEntity
  8
HIDDEN
 48
0.25
100
AcDbLine
 10
78.87119486737282
 20
321.4764155849163
 30
0.0
 11
77.4297465097938
 21
321.4764155849163
 31
0.0
  0
LINE
  5
413A
102
{ACAD_REACTORS
330
44FD
102
}
330
A
100
AcDbEntity
  8
HIDDEN
 48
0.25
100
AcDbLine
 10
160.3928018842726
 20
313.5869615972508
 30
0.0
 11
160.3928018842726
 21
337.3247826652643
 31
0.0
  0
LINE
  5
413B
330
A
100
AcDbEntity
  8
MODEL
100
AcDbLine
 10
162.2386260215541
 20
314.9500105689689
 30
0.0
 11
162.1781071973811
 21
311.4412941947476
 31
0.0
  0
LINE
  5
413C
330
A
100
AcDbEntity
  8
MODEL
100
AcDbLine
 10
161.8370010974961
 20
311.6049701055795
 30
0.0
 11
162.6691249846534
 21
323.5031084808064
 31
0.0
  0
LINE
  5
413D
102
{ACAD_REACTORS
330
44FD
102
}
330
A
100
AcDbEntity
  8
HIDDEN
 48
0.25
100
AcDbLine
 10
154.8470769054952
 20
328.8851575487517
 30
0.0
 11
90.78515066255392
 21
328.8851575487517
 31
0.0
  0
LINE
  5
413E
102
{ACAD_REACTORS
330
44FD
102
}
330
A
100
AcDbEntity
  8
HIDDEN
 48
0.25
100
AcDbLine
 10
160.0943340468731
 20
337.6246259304859
 30
0.0
 11
85.53789352117604
 21
337.6246259304859
 31
0.0
  0
LINE
  5
413F
330
A
100
AcDbEntity
  8
MODEL
100
AcDbLine
 10
37.58704107260724
 20
341.468946693304
 30
0.0
 11
208.045874209353
 21
341.468946693304
 31
0.0
  0
LINE
  5
4140
330
A
100
AcDbEntity
  8
MODEL
100
AcDbLine
 10
39.97340834398096
 20
342.4675072921613
 30
0.0
 11
205.6595069379793
 21
342.4675072921613
 31
0.0
  0
LINE
  5
4141
102
{ACAD_REACTORS
330
459C
102
}
330
A
100
AcDbEntity
  8
MODEL
100
AcDbLine
 10
40.47268864340958
 20
342.9660998776789
 30
0.0
 11
205.1602266385506
 21
342.9660998776789
 31
0.0
  0
LINE
  5
4142
102
{ACAD_REACTORS
330
44FD
102
}
330
A
100
AcDbEntity
  8
HIDDEN
 48
0.25
100
AcDbLine
 10
166.0403085218867
 20
320.2289025502557
 30
0.0
 11
166.7610327006764
 21
318.9807018016841
 31
0.0
  0
LINE
  5
4143
102
{ACAD_REACTORS
330
44FD
102
}
330
A
100
AcDbEntity
  8
HIDDEN
 48
0.25
100
AcDbLine
 10
168.9218298092227
 20
320.2289025502557
 30
0.0
 11
168.2024810582553
 21
321.4764155849163
 31
0.0
  0
LINE
  5
4144
330
A
100
AcDbEntity
  8
MODEL
100
AcDbLine
 10
208.3443420467524
 20
341.175292853282
 30
0.0
 11
208.6538133067288
 21
323.5037961947174
 31
0.0
  0
LINE
  5
4145
330
A
100
AcDbEntity
  8
MODEL
100
AcDbLine
 10
205.658131510157
 20
342.4675072921613
 30
0.0
 11
205.658131510157
 21
341.468946693304
 31
0.0
  0
LINE
  5
4146
330
A
100
AcDbEntity
  8
MODEL
100
AcDbLine
 10
205.1602266385506
 20
342.9660998776789
 30
0.0
 11
205.658131510157
 21
342.4675072921613
 31
0.0
  0
LINE
  5
4147
330
A
100
AcDbEntity
  8
MODEL
100
AcDbLine
 10
282.2565794343017
 20
342.9660998776789
 30
0.0
 11
281.7579868487841
 21
342.4675072921613
 31
0.0
  0
LINE
  5
4148
330
A
100
AcDbEntity
  8
MODEL
100
AcDbLine
 10
277.7651198811772
 20
311.3271336855117
 30
0.0
 11
277.7651198811772
 21
339.4725132095006
 31
0.0
  0
LINE
  5
4149
330
A
100
AcDbEntity
  8
MODEL
100
AcDbLine
 10
281.7572991348731
 20
342.4675072921613
 30
0.0
 11
281.7572991348731
 21
341.468946693304
 31
0.0
  0
LINE
  5
414A
330
A
100
AcDbEntity
  8
MODEL
100
AcDbLine
 10
279.0717763121888
 20
341.1752928532819
 30
0.0
 11
278.7629927661235
 21
323.5037961947173
 31
0.0
  0
LINE
  5
414B
330
A
100
AcDbEntity
  8
MODEL
100
AcDbLine
 10
283.5570464401137
 20
314.9465719994137
 30
0.0
 11
283.6182529781979
 21
311.4426696225697
 31
0.0
  0
LINE
  5
414C
330
A
100
AcDbEntity
  8
MODEL
100
AcDbLine
 10
283.1966843507191
 20
311.6200998116228
 30
0.0
 11
283.2503260357817
 21
314.6515427315695
 31
0.0
  0
LINE
  5
414D
330
A
100
AcDbEntity
  8
MODEL
100
AcDbLine
 10
287.7459118723725
 20
320.1099280436425
 30
0.0
 11
287.6771404812665
 21
316.1239382151462
 31
0.0
  0
LINE
  5
414E
330
A
100
AcDbEntity
  8
MODEL
100
AcDbLine
 10
283.5570464401137
 20
314.9465719994137
 30
0.0
 11
283.757171188232
 21
314.949322855058
 31
0.0
  0
LINE
  5
414F
330
A
100
AcDbEntity
  8
MODEL
100
AcDbLine
 10
283.8183777263162
 20
311.2459834440069
 30
0.0
 11
288.5450354370225
 21
311.2459834440069
 31
0.0
  0
LINE
  5
4150
102
{ACAD_REACTORS
330
457E
102
}
330
A
100
AcDbEntity
  8
MODEL
100
AcDbLine
 10
282.8975287994085
 20
311.3271336855117
 30
0.0
 11
277.7651198811772
 21
311.3271336855117
 31
0.0
  0
LINE
  5
4151
330
A
100
AcDbEntity
  8
MODEL
100
AcDbLine
 10
279.3709318634994
 20
341.468946693304
 30
0.0
 11
379.9614702062352
 21
341.468946693304
 31
0.0
  0
LINE
  5
4152
330
A
100
AcDbEntity
  8
MODEL
100
AcDbLine
 10
281.7572991348731
 20
342.4675072921613
 30
0.0
 11
377.5751029348614
 21
342.4675072921613
 31
0.0
  0
LINE
  5
4153
330
A
100
AcDbEntity
  8
MODEL
100
AcDbLine
 10
282.2565794343017
 20
342.9660998776789
 30
0.0
 11
377.0765103493438
 21
342.9660998776789
 31
0.0
  0
LINE
  5
4154
330
A
100
AcDbEntity
  8
MODEL
100
AcDbLine
 10
377.5757906487725
 20
342.4675072921613
 30
0.0
 11
377.5757906487725
 21
341.468946693304
 31
0.0
  0
LINE
  5
4155
330
A
100
AcDbEntity
  8
MODEL
100
AcDbLine
 10
380.2613134714568
 20
341.1752928532819
 30
0.0
 11
380.5700970175221
 21
323.5037961947173
 31
0.0
  0
LINE
  5
4156
330
A
100
AcDbEntity
  8
MODEL
100
AcDbLine
 10
377.0765103493438
 20
342.9660998776789
 30
0.0
 11
377.5751029348614
 21
342.4675072921613
 31
0.0
  0
SPLINE
  5
4157
102
{ACAD_REACTORS
330
44FD
102
}
330
A
100
AcDbEntity
  8
HIDDEN
 48
0.25
100
AcDbSpline
210
0.0
220
0.0
230
1.0
 70
     8
 71
     3
 72
     8
 73
     4
 74
     0
 42
0.000000001
 43
0.0000000001
 40
0.0
 40
0.0
 40
0.0
 40
0.0
 40
1.0
 40
1.0
 40
1.0
 40
1.0
 10
80.43230544547595
 20
323.5044839086284
 30
0.0
 10
81.86412580830034
 20
322.5072987375932
 30
0.0
 10
82.48306832825318
 20
320.6979234375977
 30
0.0
 10
81.96040575584851
 20
319.0329680589247
 30
0.0
  0
SPLINE
  5
4158
102
{ACAD_REACTORS
330
44FD
102
}
330
A
100
AcDbEntity
  8
HIDDEN
 48
0.25
100
AcDbSpline
210
0.0
220
0.0
230
1.0
 70
     8
 71
     3
 72
     8
 73
     4
 74
     0
 42
0.000000001
 43
0.0000000001
 40
0.0
 40
0.0
 40
0.0
 40
0.0
 40
1.0
 40
1.0
 40
1.0
 40
1.0
 10
81.96040575584851
 20
319.0329680589247
 30
0.0
 10
81.43774318344396
 20
317.3680126802515
 30
0.0
 10
79.89451316702815
 20
316.236035582649
 30
0.0
 10
78.15184611640535
 20
316.236035582649
 30
0.0
  0
SPLINE
  5
4159
102
{ACAD_REACTORS
330
44FD
102
}
330
A
100
AcDbEntity
  8
HIDDEN
 48
0.25
100
AcDbSpline
210
0.0
220
0.0
230
1.0
 70
     8
 71
     3
 72
     8
 73
     4
 74
     0
 42
0.000000001
 43
0.0000000001
 40
0.0
 40
0.0
 40
0.0
 40
0.0
 40
1.0
 40
1.0
 40
1.0
 40
1.0
 10
78.15184611640535
 20
316.236035582649
 30
0.0
 10
76.40642821013836
 20
316.236035582649
 30
0.0
 10
74.86457362154482
 20
317.3680126802515
 30
0.0
 10
74.34191104914015
 20
319.0329680589247
 30
0.0
  0
SPLINE
  5
415A
102
{ACAD_REACTORS
330
44FD
102
}
330
A
100
AcDbEntity
  8
HIDDEN
 48
0.25
100
AcDbSpline
210
0.0
220
0.0
230
1.0
 70
     8
 71
     3
 72
     8
 73
     4
 74
     0
 42
0.000000001
 43
0.0000000001
 40
0.0
 40
0.0
 40
0.0
 40
0.0
 40
1.0
 40
1.0
 40
1.0
 40
1.0
 10
74.34191104914015
 20
319.0329680589247
 30
0.0
 10
73.81924847673548
 20
320.6979234375977
 30
0.0
 10
74.43681556886617
 20
322.5072987375932
 30
0.0
 10
75.8700113595126
 20
323.5044839086284
 30
0.0
  0
SPLINE
  5
415B
102
{ACAD_REACTORS
330
44FD
102
}
330
A
100
AcDbEntity
  8
HIDDEN
 48
0.25
100
AcDbSpline
210
0.0
220
0.0
230
1.0
 70
     8
 71
     3
 72
     8
 73
     4
 74
     0
 42
0.000000001
 43
0.0000000001
 40
0.0
 40
0.0
 40
0.0
 40
0.0
 40
1.0
 40
1.0
 40
1.0
 40
1.0
 10
90.78515066255392
 20
328.8851575487517
 30
0.0
 10
90.62009932389986
 20
328.8851575487517
 30
0.0
 10
90.48668282515445
 20
328.7510533360953
 30
0.0
 10
90.4853073973324
 20
328.584626569619
 30
0.0
  0
SPLINE
  5
415C
102
{ACAD_REACTORS
330
44FD
102
}
330
A
100
AcDbEntity
  8
HIDDEN
 48
0.25
100
AcDbSpline
210
0.0
220
0.0
230
1.0
 70
     8
 71
     3
 72
     8
 73
     4
 74
     0
 42
0.000000001
 43
0.0000000001
 40
0.0
 40
0.0
 40
0.0
 40
0.0
 40
1.0
 40
1.0
 40
1.0
 40
1.0
 10
85.33570563132474
 20
316.5317525644041
 30
0.0
 10
85.39209817203158
 20
316.4547286063656
 30
0.0
 10
85.48287640829125
 20
316.4079640604135
 30
0.0
 10
85.57915635583953
 20
316.4079640604135
 30
0.0
  0
SPLINE
  5
415D
330
A
100
AcDbEntity
  8
MODEL
100
AcDbSpline
210
0.0
220
0.0
230
1.0
 70
     8
 71
     3
 72
     8
 73
     4
 74
     0
 42
0.000000001
 43
0.0000000001
 40
0.0
 40
0.0
 40
0.0
 40
0.0
 40
1.0
 40
1.0
 40
1.0
 40
1.0
 10
83.79522647055313
 20
311.6049701055795
 30
0.0
 10
83.80760532095218
 20
311.4481713338581
 30
0.0
 10
83.93689553623125
 20
311.3257582576896
 30
0.0
 10
84.09369430795272
 20
311.3257582576896
 30
0.0
  0
SPLINE
  5
415E
330
A
100
AcDbEntity
  8
MODEL
100
AcDbSpline
210
0.0
220
0.0
230
1.0
 70
     8
 71
     3
 72
     8
 73
     4
 74
     0
 42
0.000000001
 43
0.0000000001
 40
0.0
 40
0.0
 40
0.0
 40
0.0
 40
1.0
 40
1.0
 40
1.0
 40
1.0
 10
37.58704107260724
 20
341.468946693304
 30
0.0
 10
37.42336516177522
 20
341.468946693304
 30
0.0
 10
37.2899486630298
 20
341.3382810502029
 30
0.0
 10
37.28719780738561
 20
341.174605139371
 30
0.0
  0
SPLINE
  5
415F
102
{ACAD_REACTORS
330
44FD
102
}
330
A
100
AcDbEntity
  8
HIDDEN
 48
0.25
100
AcDbSpline
210
0.0
220
0.0
230
1.0
 70
     8
 71
     3
 72
     8
 73
     4
 74
     0
 42
0.000000001
 43
0.0000000001
 40
0.0
 40
0.0
 40
0.0
 40
0.0
 40
1.0
 40
1.0
 40
1.0
 40
1.0
 10
85.32745306439205
 20
337.5372862637814
 30
0.0
 10
85.2710605236851
 20
337.4808937230745
 30
0.0
 10
85.23805025595442
 20
337.4052451928581
 30
0.0
 10
85.23805025595442
 20
337.3247826652643
 30
0.0
  0
SPLINE
  5
4160
102
{ACAD_REACTORS
330
44FD
102
}
330
A
100
AcDbEntity
  8
HIDDEN
 48
0.25
100
AcDbSpline
210
0.0
220
0.0
230
1.0
 70
     8
 71
     3
 72
     8
 73
     4
 74
     0
 42
0.000000001
 43
0.0000000001
 40
0.0
 40
0.0
 40
0.0
 40
0.0
 40
1.0
 40
1.0
 40
1.0
 40
1.0
 10
85.53789352117604
 20
337.6246259304859
 30
0.0
 10
85.45949413531542
 20
337.6246259304859
 30
0.0
 10
85.38384560509888
 20
337.5936788044882
 30
0.0
 10
85.32745306439205
 20
337.5372862637814
 30
0.0
  0
SPLINE
  5
4161
102
{ACAD_REACTORS
330
44FD
102
}
330
A
100
AcDbEntity
  8
HIDDEN
 48
0.25
100
AcDbSpline
210
0.0
220
0.0
230
1.0
 70
     8
 71
     3
 72
     8
 73
     4
 74
     0
 42
0.000000001
 43
0.0000000001
 40
0.0
 40
0.0
 40
0.0
 40
0.0
 40
1.0
 40
1.0
 40
1.0
 40
1.0
 10
85.32607763656989
 20
313.3758334265557
 30
0.0
 10
85.38247017727673
 20
313.3194408858489
 30
0.0
 10
85.45811870749316
 20
313.2871183320291
 30
0.0
 10
85.53926894899809
 20
313.2871183320291
 30
0.0
  0
SPLINE
  5
4162
102
{ACAD_REACTORS
330
44FD
102
}
330
A
100
AcDbEntity
  8
HIDDEN
 48
0.25
100
AcDbSpline
210
0.0
220
0.0
230
1.0
 70
     8
 71
     3
 72
     8
 73
     4
 74
     0
 42
0.000000001
 43
0.0000000001
 40
0.0
 40
0.0
 40
0.0
 40
0.0
 40
1.0
 40
1.0
 40
1.0
 40
1.0
 10
85.23942568377646
 20
313.5869615972508
 30
0.0
 10
85.23942568377646
 20
313.50856221139
 30
0.0
 10
85.26968509586317
 20
313.4322259672625
 30
0.0
 10
85.32607763656989
 20
313.3758334265557
 30
0.0
  0
SPLINE
  5
4163
102
{ACAD_REACTORS
330
44FD
102
}
330
A
100
AcDbEntity
  8
HIDDEN
 48
0.25
100
AcDbSpline
210
0.0
220
0.0
230
1.0
 70
     8
 71
     3
 72
     8
 73
     4
 74
     0
 42
0.000000001
 43
0.0000000001
 40
0.0
 40
0.0
 40
0.0
 40
0.0
 40
1.0
 40
1.0
 40
1.0
 40
1.0
 10
90.4853073973324
 20
316.7078073256351
 30
0.0
 10
90.4853073973324
 20
316.6287202258636
 30
0.0
 10
90.45504798524581
 20
316.552383981736
 30
0.0
 10
90.39865544453897
 20
316.4959914410292
 30
0.0
  0
SPLINE
  5
4164
102
{ACAD_REACTORS
330
44FD
102
}
330
A
100
AcDbEntity
  8
HIDDEN
 48
0.25
100
AcDbSpline
210
0.0
220
0.0
230
1.0
 70
     8
 71
     3
 72
     8
 73
     4
 74
     0
 42
0.000000001
 43
0.0000000001
 40
0.0
 40
0.0
 40
0.0
 40
0.0
 40
1.0
 40
1.0
 40
1.0
 40
1.0
 10
90.39865544453897
 20
316.4959914410292
 30
0.0
 10
90.34226290383214
 20
316.4395989003223
 30
0.0
 10
90.26523894579356
 20
316.4086517743245
 30
0.0
 10
90.18683955993282
 20
316.4086517743245
 30
0.0
  0
SPLINE
  5
4165
330
A
100
AcDbEntity
  8
MODEL
100
AcDbSpline
210
0.0
220
0.0
230
1.0
 70
     8
 71
     3
 72
     8
 73
     4
 74
     0
 42
0.000000001
 43
0.0000000001
 40
0.0
 40
0.0
 40
0.0
 40
0.0
 40
1.0
 40
1.0
 40
1.0
 40
1.0
 10
83.45549579849006
 20
311.4412941947476
 30
0.0
 10
83.45687122631233
 20
311.3326353968002
 30
0.0
 10
83.54489860692792
 20
311.2459834440069
 30
0.0
 10
83.65493283269728
 20
311.2459834440069
 30
0.0
  0
SPLINE
  5
4166
330
A
100
AcDbEntity
  8
MODEL
100
AcDbSpline
210
0.0
220
0.0
230
1.0
 70
     8
 71
     3
 72
     8
 73
     4
 74
     0
 42
0.000000001
 43
0.0000000001
 40
0.0
 40
0.0
 40
0.0
 40
0.0
 40
1.0
 40
1.0
 40
1.0
 40
1.0
 10
162.2757625727513
 20
311.951577916753
 30
0.0
 10
162.2647591501745
 20
311.951577916753
 30
0.0
 10
162.2523802997754
 20
311.9529533445752
 30
0.0
 10
162.2400014493763
 20
311.9529533445752
 30
0.0
  0
SPLINE
  5
4167
330
A
100
AcDbEntity
  8
MODEL
100
AcDbSpline
210
0.0
220
0.0
230
1.0
 70
     8
 71
     3
 72
     8
 73
     4
 74
     0
 42
0.000000001
 43
0.0000000001
 40
0.0
 40
0.0
 40
0.0
 40
0.0
 40
1.0
 40
1.0
 40
1.0
 40
1.0
 10
162.3101482683043
 20
311.9488270611087
 30
0.0
 10
162.2991448457273
 20
311.9502024889309
 30
0.0
 10
162.2881414231504
 20
311.9502024889309
 30
0.0
 10
162.2757625727513
 20
311.951577916753
 30
0.0
  0
SPLINE
  5
4168
330
A
100
AcDbEntity
  8
MODEL
100
AcDbSpline
210
0.0
220
0.0
230
1.0
 70
     8
 71
     3
 72
     8
 73
     4
 74
     0
 42
0.000000001
 43
0.0000000001
 40
0.0
 40
0.0
 40
0.0
 40
0.0
 40
1.0
 40
1.0
 40
1.0
 40
1.0
 10
161.5385332600965
 20
311.3271336855118
 30
0.0
 10
161.6953320318177
 20
311.3271336855118
 30
0.0
 10
161.8246222470968
 20
311.4481713338581
 30
0.0
 10
161.8370010974961
 20
311.6049701055795
 30
0.0
  0
SPLINE
  5
4169
102
{ACAD_REACTORS
330
44FD
102
}
330
A
100
AcDbEntity
  8
HIDDEN
 48
0.25
100
AcDbSpline
210
0.0
220
0.0
230
1.0
 70
     8
 71
     3
 72
     8
 73
     4
 74
     0
 42
0.000000001
 43
0.0000000001
 40
0.0
 40
0.0
 40
0.0
 40
0.0
 40
1.0
 40
1.0
 40
1.0
 40
1.0
 10
160.3928018842726
 20
313.5869615972508
 30
0.0
 10
160.3928018842726
 20
313.507874497479
 30
0.0
 10
160.361167044364
 20
313.4315382533514
 30
0.0
 10
160.3047745036571
 20
313.3758334265557
 30
0.0
  0
SPLINE
  5
416A
102
{ACAD_REACTORS
330
44FD
102
}
330
A
100
AcDbEntity
  8
HIDDEN
 48
0.25
100
AcDbSpline
210
0.0
220
0.0
230
1.0
 70
     8
 71
     3
 72
     8
 73
     4
 74
     0
 42
0.000000001
 43
0.0000000001
 40
0.0
 40
0.0
 40
0.0
 40
0.0
 40
1.0
 40
1.0
 40
1.0
 40
1.0
 10
160.3047745036571
 20
313.3758334265557
 30
0.0
 10
160.2483819629503
 20
313.3194408858489
 30
0.0
 10
160.1727334327338
 20
313.2884937598513
 30
0.0
 10
160.0943340468731
 20
313.2884937598513
 30
0.0
  0
SPLINE
  5
416B
102
{ACAD_REACTORS
330
44FD
102
}
330
A
100
AcDbEntity
  8
HIDDEN
 48
0.25
100
AcDbSpline
210
0.0
220
0.0
230
1.0
 70
     8
 71
     3
 72
     8
 73
     4
 74
     0
 42
0.000000001
 43
0.0000000001
 40
0.0
 40
0.0
 40
0.0
 40
0.0
 40
1.0
 40
1.0
 40
1.0
 40
1.0
 10
160.0544466400317
 20
316.4086517743245
 30
0.0
 10
160.2181225508637
 20
316.4086517743245
 30
0.0
 10
160.3529144774312
 20
316.542755986981
 30
0.0
 10
160.3529144774312
 20
316.7071196117241
 30
0.0
  0
SPLINE
  5
416C
102
{ACAD_REACTORS
330
44FD
102
}
330
A
100
AcDbEntity
  8
HIDDEN
 48
0.25
100
AcDbSpline
210
0.0
220
0.0
230
1.0
 70
     8
 71
     3
 72
     8
 73
     4
 74
     0
 42
0.000000001
 43
0.0000000001
 40
0.0
 40
0.0
 40
0.0
 40
0.0
 40
1.0
 40
1.0
 40
1.0
 40
1.0
 10
155.2335721235102
 20
316.4966791549402
 30
0.0
 10
155.2899646642169
 20
316.4402866142333
 30
0.0
 10
155.3656131944335
 20
316.4079640604135
 30
0.0
 10
155.4467634359383
 20
316.4079640604135
 30
0.0
  0
SPLINE
  5
416D
102
{ACAD_REACTORS
330
44FD
102
}
330
A
100
AcDbEntity
  8
HIDDEN
 48
0.25
100
AcDbSpline
210
0.0
220
0.0
230
1.0
 70
     8
 71
     3
 72
     8
 73
     4
 74
     0
 42
0.000000001
 43
0.0000000001
 40
0.0
 40
0.0
 40
0.0
 40
0.0
 40
1.0
 40
1.0
 40
1.0
 40
1.0
 10
155.1469201707168
 20
316.7078073256351
 30
0.0
 10
155.1469201707168
 20
316.6287202258636
 30
0.0
 10
155.1771795828034
 20
316.553071695647
 30
0.0
 10
155.2335721235102
 20
316.4966791549402
 30
0.0
  0
SPLINE
  5
416E
330
A
100
AcDbEntity
  8
MODEL
100
AcDbSpline
210
0.0
220
0.0
230
1.0
 70
     8
 71
     3
 72
     8
 73
     4
 74
     0
 42
0.000000001
 43
0.0000000001
 40
0.0
 40
0.0
 40
0.0
 40
0.0
 40
1.0
 40
1.0
 40
1.0
 40
1.0
 10
161.9772947353519
 20
311.2459834440069
 30
0.0
 10
162.0859535332991
 20
311.2459834440069
 30
0.0
 10
162.1739809139146
 20
311.3326353968002
 30
0.0
 10
162.1767317695589
 20
311.4412941947476
 30
0.0
  0
SPLINE
  5
416F
102
{ACAD_REACTORS
330
44FD
102
}
330
A
100
AcDbEntity
  8
HIDDEN
 48
0.25
100
AcDbSpline
210
0.0
220
0.0
230
1.0
 70
     8
 71
     3
 72
     8
 73
     4
 74
     0
 42
0.000000001
 43
0.0000000001
 40
0.0
 40
0.0
 40
0.0
 40
0.0
 40
1.0
 40
1.0
 40
1.0
 40
1.0
 10
155.1469201707168
 20
328.5853142835301
 30
0.0
 10
155.1469201707168
 20
328.7503656221841
 30
0.0
 10
155.0121282441493
 20
328.8858452626628
 30
0.0
 10
154.8470769054952
 20
328.8858452626628
 30
0.0
  0
SPLINE
  5
4170
102
{ACAD_REACTORS
330
44FD
102
}
330
A
100
AcDbEntity
  8
HIDDEN
 48
0.25
100
AcDbSpline
210
0.0
220
0.0
230
1.0
 70
     8
 71
     3
 72
     8
 73
     4
 74
     0
 42
0.000000001
 43
0.0000000001
 40
0.0
 40
0.0
 40
0.0
 40
0.0
 40
1.0
 40
1.0
 40
1.0
 40
1.0
 10
160.0943340468731
 20
337.6246259304859
 30
0.0
 10
160.1727334327338
 20
337.6246259304859
 30
0.0
 10
160.2483819629503
 20
337.5936788044882
 30
0.0
 10
160.3047745036571
 20
337.5372862637814
 30
0.0
  0
SPLINE
  5
4171
102
{ACAD_REACTORS
330
44FD
102
}
330
A
100
AcDbEntity
  8
HIDDEN
 48
0.25
100
AcDbSpline
210
0.0
220
0.0
230
1.0
 70
     8
 71
     3
 72
     8
 73
     4
 74
     0
 42
0.000000001
 43
0.0000000001
 40
0.0
 40
0.0
 40
0.0
 40
0.0
 40
1.0
 40
1.0
 40
1.0
 40
1.0
 10
160.3047745036571
 20
337.5372862637814
 30
0.0
 10
160.361167044364
 20
337.4808937230745
 30
0.0
 10
160.3928018842726
 20
337.4052451928581
 30
0.0
 10
160.3928018842726
 20
337.3261580930865
 30
0.0
  0
SPLINE
  5
4172
102
{ACAD_REACTORS
330
44FD
102
}
330
A
100
AcDbEntity
  8
HIDDEN
 48
0.25
100
AcDbSpline
210
0.0
220
0.0
230
1.0
 70
     8
 71
     3
 72
     8
 73
     4
 74
     0
 42
0.000000001
 43
0.0000000001
 40
0.0
 40
0.0
 40
0.0
 40
0.0
 40
1.0
 40
1.0
 40
1.0
 40
1.0
 10
169.7622162085366
 20
323.5044839086284
 30
0.0
 10
171.1940365713608
 20
322.5072987375932
 30
0.0
 10
171.8129790913137
 20
320.6979234375977
 30
0.0
 10
171.290316518909
 20
319.0329680589247
 30
0.0
  0
SPLINE
  5
4173
102
{ACAD_REACTORS
330
44FD
102
}
330
A
100
AcDbEntity
  8
HIDDEN
 48
0.25
100
AcDbSpline
210
0.0
220
0.0
230
1.0
 70
     8
 71
     3
 72
     8
 73
     4
 74
     0
 42
0.000000001
 43
0.0000000001
 40
0.0
 40
0.0
 40
0.0
 40
0.0
 40
1.0
 40
1.0
 40
1.0
 40
1.0
 10
171.290316518909
 20
319.0329680589247
 30
0.0
 10
170.7676539465044
 20
317.3680126802515
 30
0.0
 10
169.2257993579107
 20
316.236035582649
 30
0.0
 10
167.4817568794658
 20
316.236035582649
 30
0.0
  0
SPLINE
  5
4174
102
{ACAD_REACTORS
330
44FD
102
}
330
A
100
AcDbEntity
  8
HIDDEN
 48
0.25
100
AcDbSpline
210
0.0
220
0.0
230
1.0
 70
     8
 71
     3
 72
     8
 73
     4
 74
     0
 42
0.000000001
 43
0.0000000001
 40
0.0
 40
0.0
 40
0.0
 40
0.0
 40
1.0
 40
1.0
 40
1.0
 40
1.0
 10
167.4817568794658
 20
316.236035582649
 30
0.0
 10
165.7363389731988
 20
316.236035582649
 30
0.0
 10
164.1944843846051
 20
317.3680126802515
 30
0.0
 10
163.6718218122004
 20
319.0329680589247
 30
0.0
  0
SPLINE
  5
4175
102
{ACAD_REACTORS
330
44FD
102
}
330
A
100
AcDbEntity
  8
HIDDEN
 48
0.25
100
AcDbSpline
210
0.0
220
0.0
230
1.0
 70
     8
 71
     3
 72
     8
 73
     4
 74
     0
 42
0.000000001
 43
0.0000000001
 40
0.0
 40
0.0
 40
0.0
 40
0.0
 40
1.0
 40
1.0
 40
1.0
 40
1.0
 10
163.6718218122004
 20
319.0329680589247
 30
0.0
 10
163.1491592397958
 20
320.6979234375977
 30
0.0
 10
163.7681017597487
 20
322.5072987375932
 30
0.0
 10
165.199922122573
 20
323.5044839086284
 30
0.0
  0
SPLINE
  5
4176
330
A
100
AcDbEntity
  8
MODEL
100
AcDbSpline
210
0.0
220
0.0
230
1.0
 70
     8
 71
     3
 72
     8
 73
     4
 74
     0
 42
0.000000001
 43
0.0000000001
 40
0.0
 40
0.0
 40
0.0
 40
0.0
 40
1.0
 40
1.0
 40
1.0
 40
1.0
 10
208.3443420467524
 20
341.175292853282
 30
0.0
 10
208.3415911911082
 20
341.3382810502029
 30
0.0
 10
208.2081746923628
 20
341.4696344072151
 30
0.0
 10
208.0444987815308
 20
341.4696344072151
 30
0.0
  0
SPLINE
  5
4177
330
A
100
AcDbEntity
  8
MODEL
100
AcDbSpline
210
0.0
220
0.0
230
1.0
 70
     8
 71
     3
 72
     8
 73
     4
 74
     0
 42
0.000000001
 43
0.0000000001
 40
0.0
 40
0.0
 40
0.0
 40
0.0
 40
1.0
 40
1.0
 40
1.0
 40
1.0
 10
287.658572205668
 20
315.3344426452508
 30
0.0
 10
287.6654493447783
 20
315.5978370731863
 30
0.0
 10
287.672326483889
 20
315.8605437872108
 30
0.0
 10
287.6764527673553
 20
316.1239382151462
 30
0.0
  0
SPLINE
  5
4178
330
A
100
AcDbEntity
  8
MODEL
100
AcDbSpline
210
0.0
220
0.0
230
1.0
 70
     8
 71
     3
 72
     8
 73
     4
 74
     0
 42
0.000000001
 43
0.0000000001
 40
0.0
 40
0.0
 40
0.0
 40
0.0
 40
1.0
 40
1.0
 40
1.0
 40
1.0
 10
289.1055222745354
 20
323.3538745621066
 30
0.0
 10
289.0890171406703
 20
323.3084854439766
 30
0.0
 10
289.0718242928936
 20
323.2624086119358
 30
0.0
 10
289.0566945868503
 20
323.2170194938058
 30
0.0
  0
SPLINE
  5
4179
330
A
100
AcDbEntity
  8
MODEL
100
AcDbSpline
210
0.0
220
0.0
230
1.0
 70
     8
 71
     3
 72
     8
 73
     4
 74
     0
 42
0.000000001
 43
0.0000000001
 40
0.0
 40
0.0
 40
0.0
 40
0.0
 40
1.0
 40
1.0
 40
1.0
 40
1.0
 10
288.5917999829744
 20
321.1483760493413
 30
0.0
 10
288.5608528569769
 20
320.8423433589201
 30
0.0
 10
288.5436600092006
 20
320.535622954588
 30
0.0
 10
288.5436600092006
 20
320.2289025502557
 30
0.0
  0
SPLINE
  5
417A
330
A
100
AcDbEntity
  8
MODEL
100
AcDbSpline
210
0.0
220
0.0
230
1.0
 70
     8
 71
     3
 72
     8
 73
     4
 74
     0
 42
0.000000001
 43
0.0000000001
 40
0.0
 40
0.0
 40
0.0
 40
0.0
 40
1.0
 40
1.0
 40
1.0
 40
1.0
 10
287.658572205668
 20
315.3344426452508
 30
0.0
 10
287.658572205668
 20
315.3227515087627
 30
0.0
 10
287.658572205668
 20
315.3117480861858
 30
0.0
 10
287.6571967778456
 20
315.3000569496979
 30
0.0
  0
SPLINE
  5
417B
330
A
100
AcDbEntity
  8
MODEL
100
AcDbSpline
210
0.0
220
0.0
230
1.0
 70
     8
 71
     3
 72
     8
 73
     4
 74
     0
 42
0.000000001
 43
0.0000000001
 40
0.0
 40
0.0
 40
0.0
 40
0.0
 40
1.0
 40
1.0
 40
1.0
 40
1.0
 10
287.3683569352011
 20
315.0125925348754
 30
0.0
 10
287.4667000244826
 20
315.0139679626976
 30
0.0
 10
287.5581659746533
 20
315.0648587921157
 30
0.0
 10
287.6131830875381
 20
315.1480721753539
 30
0.0
  0
SPLINE
  5
417C
330
A
100
AcDbEntity
  8
MODEL
100
AcDbSpline
210
0.0
220
0.0
230
1.0
 70
     8
 71
     3
 72
     8
 73
     4
 74
     0
 42
0.000000001
 43
0.0000000001
 40
0.0
 40
0.0
 40
0.0
 40
0.0
 40
1.0
 40
1.0
 40
1.0
 40
1.0
 10
279.3709318634994
 20
341.468946693304
 30
0.0
 10
279.2072559526673
 20
341.468946693304
 30
0.0
 10
279.0738394539221
 20
341.3382810502029
 30
0.0
 10
279.0710885982778
 20
341.174605139371
 30
0.0
  0
SPLINE
  5
417D
330
A
100
AcDbEntity
  8
MODEL
100
AcDbSpline
210
0.0
220
0.0
230
1.0
 70
     8
 71
     3
 72
     8
 73
     4
 74
     0
 42
0.000000001
 43
0.0000000001
 40
0.0
 40
0.0
 40
0.0
 40
0.0
 40
1.0
 40
1.0
 40
1.0
 40
1.0
 10
380.2613134714568
 20
341.1752928532819
 30
0.0
 10
380.2585626158124
 20
341.3382810502029
 30
0.0
 10
380.1251461170671
 20
341.469634407215
 30
0.0
 10
379.9614702062352
 20
341.469634407215
 30
0.0
  0
SPLINE
  5
417E
330
A
100
AcDbEntity
  8
MODEL
100
AcDbSpline
210
0.0
220
0.0
230
1.0
 70
     8
 71
     3
 72
     8
 73
     4
 74
     0
 42
0.000000001
 43
0.0000000001
 40
0.0
 40
0.0
 40
0.0
 40
0.0
 40
1.0
 40
1.0
 40
1.0
 40
1.0
 10
282.8975287994085
 20
311.3271336855117
 30
0.0
 10
283.0605169963295
 20
311.3271336855117
 30
0.0
 10
283.1946212089858
 20
311.457799328613
 30
0.0
 10
283.1973720646301
 20
311.6214752394449
 30
0.0
  0
SPLINE
  5
417F
330
A
100
AcDbEntity
  8
MODEL
100
AcDbSpline
210
0.0
220
0.0
230
1.0
 70
     8
 71
     3
 72
     8
 73
     4
 74
     0
 42
0.000000001
 43
0.0000000001
 40
0.0
 40
0.0
 40
0.0
 40
0.0
 40
1.0
 40
1.0
 40
1.0
 40
1.0
 10
283.5439798758036
 20
314.9458842855028
 30
0.0
 10
283.3816793927937
 20
314.9431334298584
 30
0.0
 10
283.2523891775147
 20
314.8138432145794
 30
0.0
 10
283.2496383218706
 20
314.6515427315695
 30
0.0
  0
SPLINE
  5
4180
330
A
100
AcDbEntity
  8
MODEL
100
AcDbSpline
210
0.0
220
0.0
230
1.0
 70
     8
 71
     3
 72
     8
 73
     4
 74
     0
 42
0.000000001
 43
0.0000000001
 40
0.0
 40
0.0
 40
0.0
 40
0.0
 40
1.0
 40
1.0
 40
1.0
 40
1.0
 10
283.6182529781979
 20
311.4412941947476
 30
0.0
 10
283.6196284060201
 20
311.3326353968001
 30
0.0
 10
283.7083435005466
 20
311.2459834440069
 30
0.0
 10
283.8183777263162
 20
311.2459834440069
 30
0.0
  0
POLYLINE
  5
4181
102
{ACAD_REACTORS
330
44FD
102
}
330
A
100
AcDbEntity
  8
HIDDEN
 48
0.25
100
AcDb2dPolyline
 66
     1
 10
0.0
 20
0.0
 30
0.0
  0
VERTEX
  5
4182
330
4181
100
AcDbEntity
  8
HIDDEN
 48
0.25
100
AcDbVertex
100
AcDb2dVertex
 10
144.5244911005039
 20
318.2634161924499
 30
0.0
  0
VERTEX
  5
4183
330
4181
100
AcDbEntity
  8
HIDDEN
 48
0.25
100
AcDbVertex
100
AcDb2dVertex
 10
144.6015150585425
 20
318.2647916202721
 30
0.0
  0
VERTEX
  5
4184
330
4181
100
AcDbEntity
  8
HIDDEN
 48
0.25
100
AcDbVertex
100
AcDb2dVertex
 10
144.6771635887589
 20
318.2689179037386
 30
0.0
  0
VERTEX
  5
4185
330
4181
100
AcDbEntity
  8
HIDDEN
 48
0.25
100
AcDbVertex
100
AcDb2dVertex
 10
144.7541875467975
 20
318.275795042849
 30
0.0
  0
VERTEX
  5
4186
330
4181
100
AcDbEntity
  8
HIDDEN
 48
0.25
100
AcDbVertex
100
AcDb2dVertex
 10
144.7651909693745
 20
318.275795042849
 30
0.0
  0
VERTEX
  5
4187
330
4181
100
AcDbEntity
  8
HIDDEN
 48
0.25
100
AcDbVertex
100
AcDb2dVertex
 10
144.8422149274131
 20
318.286110751515
 30
0.0
  0
VERTEX
  5
4188
330
4181
100
AcDbEntity
  8
HIDDEN
 48
0.25
100
AcDbVertex
100
AcDb2dVertex
 10
144.9178634576295
 20
318.298489601914
 30
0.0
  0
VERTEX
  5
4189
330
4181
100
AcDbEntity
  8
HIDDEN
 48
0.25
100
AcDbVertex
100
AcDb2dVertex
 10
144.994887415668
 20
318.3143070218683
 30
0.0
  0
VERTEX
  5
418A
330
4181
100
AcDbEntity
  8
HIDDEN
 48
0.25
100
AcDbVertex
100
AcDb2dVertex
 10
145.0719113737067
 20
318.3308121557337
 30
0.0
  0
VERTEX
  5
418B
330
4181
100
AcDbEntity
  8
HIDDEN
 48
0.25
100
AcDbVertex
100
AcDb2dVertex
 10
145.146184476101
 20
318.3521312869765
 30
0.0
  0
VERTEX
  5
418C
330
4181
100
AcDbEntity
  8
HIDDEN
 48
0.25
100
AcDbVertex
100
AcDb2dVertex
 10
145.2218330063174
 20
318.3748258460415
 30
0.0
  0
VERTEX
  5
418D
330
4181
100
AcDbEntity
  8
HIDDEN
 48
0.25
100
AcDbVertex
100
AcDb2dVertex
 10
145.2438398514714
 20
318.3817029851519
 30
0.0
  0
VERTEX
  5
418E
330
4181
100
AcDbEntity
  8
HIDDEN
 48
0.25
100
AcDbVertex
100
AcDb2dVertex
 10
145.3181129538656
 20
318.4085238276834
 30
0.0
  0
VERTEX
  5
418F
330
4181
100
AcDbEntity
  8
HIDDEN
 48
0.25
100
AcDbVertex
100
AcDb2dVertex
 10
145.3896352006157
 20
318.4367200980366
 30
0.0
  0
VERTEX
  5
4190
330
4181
100
AcDbEntity
  8
HIDDEN
 48
0.25
100
AcDbVertex
100
AcDb2dVertex
 10
145.4611574473658
 20
318.4676672240344
 30
0.0
  0
SEQEND
  5
4191
330
4181
100
AcDbEntity
  8
HIDDEN
 48
0.25
  0
POLYLINE
  5
4192
102
{ACAD_REACTORS
330
44FD
102
}
330
A
100
AcDbEntity
  8
HIDDEN
 48
0.25
100
AcDb2dPolyline
 66
     1
 10
0.0
 20
0.0
 30
0.0
  0
VERTEX
  5
4193
330
4192
100
AcDbEntity
  8
HIDDEN
 48
0.25
100
AcDbVertex
100
AcDb2dVertex
 10
140.0956135132857
 20
318.4676672240344
 30
0.0
  0
VERTEX
  5
4194
330
4192
100
AcDbEntity
  8
HIDDEN
 48
0.25
100
AcDbVertex
100
AcDb2dVertex
 10
140.1024906523964
 20
318.4649163683901
 30
0.0
  0
VERTEX
  5
4195
330
4192
100
AcDbEntity
  8
HIDDEN
 48
0.25
100
AcDbVertex
100
AcDb2dVertex
 10
140.1740128991465
 20
318.4339692423926
 30
0.0
  0
VERTEX
  5
4196
330
4192
100
AcDbEntity
  8
HIDDEN
 48
0.25
100
AcDbVertex
100
AcDb2dVertex
 10
140.2455351458966
 20
318.4057729720391
 30
0.0
  0
VERTEX
  5
4197
330
4192
100
AcDbEntity
  8
HIDDEN
 48
0.25
100
AcDbVertex
100
AcDb2dVertex
 10
140.3198082482909
 20
318.3789521295079
 30
0.0
  0
VERTEX
  5
4198
330
4192
100
AcDbEntity
  8
HIDDEN
 48
0.25
100
AcDbVertex
100
AcDb2dVertex
 10
140.3940813506853
 20
318.356945284354
 30
0.0
  0
VERTEX
  5
4199
330
4192
100
AcDbEntity
  8
HIDDEN
 48
0.25
100
AcDbVertex
100
AcDb2dVertex
 10
140.4697298809016
 20
318.3356261531111
 30
0.0
  0
VERTEX
  5
419A
330
4192
100
AcDbEntity
  8
HIDDEN
 48
0.25
100
AcDbVertex
100
AcDb2dVertex
 10
140.495863009522
 20
318.3287490140005
 30
0.0
  0
VERTEX
  5
419B
330
4192
100
AcDbEntity
  8
HIDDEN
 48
0.25
100
AcDbVertex
100
AcDb2dVertex
 10
140.5728869675606
 20
318.311556166224
 30
0.0
  0
VERTEX
  5
419C
330
4192
100
AcDbEntity
  8
HIDDEN
 48
0.25
100
AcDbVertex
100
AcDb2dVertex
 10
140.6499109255992
 20
318.2957387462697
 30
0.0
  0
VERTEX
  5
419D
330
4192
100
AcDbEntity
  8
HIDDEN
 48
0.25
100
AcDbVertex
100
AcDb2dVertex
 10
140.7255594558155
 20
318.2847353236928
 30
0.0
  0
VERTEX
  5
419E
330
4192
100
AcDbEntity
  8
HIDDEN
 48
0.25
100
AcDbVertex
100
AcDb2dVertex
 10
140.8039588416763
 20
318.2751073289378
 30
0.0
  0
VERTEX
  5
419F
330
4192
100
AcDbEntity
  8
HIDDEN
 48
0.25
100
AcDbVertex
100
AcDb2dVertex
 10
140.8796073718926
 20
318.2696056176493
 30
0.0
  0
VERTEX
  5
41A0
330
4192
100
AcDbEntity
  8
HIDDEN
 48
0.25
100
AcDbVertex
100
AcDb2dVertex
 10
140.9552559021092
 20
318.2647916202721
 30
0.0
  0
VERTEX
  5
41A1
330
4192
100
AcDbEntity
  8
HIDDEN
 48
0.25
100
AcDbVertex
100
AcDb2dVertex
 10
141.0322798601478
 20
318.2634161924499
 30
0.0
  0
SEQEND
  5
41A2
330
4192
100
AcDbEntity
  8
HIDDEN
 48
0.25
  0
POLYLINE
  5
41A3
102
{ACAD_REACTORS
330
44FD
102
}
330
A
100
AcDbEntity
  8
HIDDEN
 48
0.25
100
AcDb2dPolyline
 66
     1
 10
0.0
 20
0.0
 30
0.0
  0
VERTEX
  5
41A4
330
41A3
100
AcDbEntity
  8
HIDDEN
 48
0.25
100
AcDbVertex
100
AcDb2dVertex
 10
101.8463412080222
 20
316.7552595854982
 30
0.0
  0
VERTEX
  5
41A5
330
41A3
100
AcDbEntity
  8
HIDDEN
 48
0.25
100
AcDbVertex
100
AcDb2dVertex
 10
101.9178634547724
 20
316.7215616038564
 30
0.0
  0
VERTEX
  5
41A6
330
41A3
100
AcDbEntity
  8
HIDDEN
 48
0.25
100
AcDbVertex
100
AcDb2dVertex
 10
101.9893857015225
 20
316.6906144778587
 30
0.0
  0
VERTEX
  5
41A7
330
41A3
100
AcDbEntity
  8
HIDDEN
 48
0.25
100
AcDbVertex
100
AcDb2dVertex
 10
102.0622833760946
 20
316.6624182075054
 30
0.0
  0
VERTEX
  5
41A8
330
41A3
100
AcDbEntity
  8
HIDDEN
 48
0.25
100
AcDbVertex
100
AcDb2dVertex
 10
102.0952936438254
 20
316.6493516431951
 30
0.0
  0
VERTEX
  5
41A9
330
41A3
100
AcDbEntity
  8
HIDDEN
 48
0.25
100
AcDbVertex
100
AcDb2dVertex
 10
102.1695667462199
 20
316.6239062284861
 30
0.0
  0
VERTEX
  5
41AA
330
41A3
100
AcDbEntity
  8
HIDDEN
 48
0.25
100
AcDbVertex
100
AcDb2dVertex
 10
102.2452152764362
 20
316.6018993833321
 30
0.0
  0
VERTEX
  5
41AB
330
41A3
100
AcDbEntity
  8
HIDDEN
 48
0.25
100
AcDbVertex
100
AcDb2dVertex
 10
102.3194883788307
 20
316.5819556799113
 30
0.0
  0
VERTEX
  5
41AC
330
41A3
100
AcDbEntity
  8
HIDDEN
 48
0.25
100
AcDbVertex
100
AcDb2dVertex
 10
102.3965123368693
 20
316.5647628321349
 30
0.0
  0
VERTEX
  5
41AD
330
41A3
100
AcDbEntity
  8
HIDDEN
 48
0.25
100
AcDbVertex
100
AcDb2dVertex
 10
102.4735362949079
 20
316.5496331260917
 30
0.0
  0
VERTEX
  5
41AE
330
41A3
100
AcDbEntity
  8
HIDDEN
 48
0.25
100
AcDbVertex
100
AcDb2dVertex
 10
102.5491848251242
 20
316.5379419896036
 30
0.0
  0
VERTEX
  5
41AF
330
41A3
100
AcDbEntity
  8
HIDDEN
 48
0.25
100
AcDbVertex
100
AcDb2dVertex
 10
102.6262087831628
 20
316.5283139948488
 30
0.0
  0
VERTEX
  5
41B0
330
41A3
100
AcDbEntity
  8
HIDDEN
 48
0.25
100
AcDbVertex
100
AcDb2dVertex
 10
102.7018573133793
 20
316.5228122835603
 30
0.0
  0
VERTEX
  5
41B1
330
41A3
100
AcDbEntity
  8
HIDDEN
 48
0.25
100
AcDbVertex
100
AcDb2dVertex
 10
102.7775058435957
 20
316.518686000094
 30
0.0
  0
VERTEX
  5
41B2
330
41A3
100
AcDbEntity
  8
HIDDEN
 48
0.25
100
AcDbVertex
100
AcDb2dVertex
 10
102.8545298016344
 20
316.5173105722718
 30
0.0
  0
VERTEX
  5
41B3
330
41A3
100
AcDbEntity
  8
HIDDEN
 48
0.25
100
AcDbVertex
100
AcDb2dVertex
 10
102.9301783318508
 20
316.518686000094
 30
0.0
  0
VERTEX
  5
41B4
330
41A3
100
AcDbEntity
  8
HIDDEN
 48
0.25
100
AcDbVertex
100
AcDb2dVertex
 10
103.0058268620673
 20
316.5228122835603
 30
0.0
  0
VERTEX
  5
41B5
330
41A3
100
AcDbEntity
  8
HIDDEN
 48
0.25
100
AcDbVertex
100
AcDb2dVertex
 10
103.0814753922838
 20
316.5283139948488
 30
0.0
  0
VERTEX
  5
41B6
330
41A3
100
AcDbEntity
  8
HIDDEN
 48
0.25
100
AcDbVertex
100
AcDb2dVertex
 10
103.1584993503222
 20
316.5379419896036
 30
0.0
  0
VERTEX
  5
41B7
330
41A3
100
AcDbEntity
  8
HIDDEN
 48
0.25
100
AcDbVertex
100
AcDb2dVertex
 10
103.2341478805387
 20
316.5496331260917
 30
0.0
  0
VERTEX
  5
41B8
330
41A3
100
AcDbEntity
  8
HIDDEN
 48
0.25
100
AcDbVertex
100
AcDb2dVertex
 10
103.3111718385773
 20
316.5647628321349
 30
0.0
  0
VERTEX
  5
41B9
330
41A3
100
AcDbEntity
  8
HIDDEN
 48
0.25
100
AcDbVertex
100
AcDb2dVertex
 10
103.3881957966159
 20
316.5819556799113
 30
0.0
  0
VERTEX
  5
41BA
330
41A3
100
AcDbEntity
  8
HIDDEN
 48
0.25
100
AcDbVertex
100
AcDb2dVertex
 10
103.4624688990103
 20
316.6018993833321
 30
0.0
  0
VERTEX
  5
41BB
330
41A3
100
AcDbEntity
  8
HIDDEN
 48
0.25
100
AcDbVertex
100
AcDb2dVertex
 10
103.5381174292267
 20
316.6239062284861
 30
0.0
  0
VERTEX
  5
41BC
330
41A3
100
AcDbEntity
  8
HIDDEN
 48
0.25
100
AcDbVertex
100
AcDb2dVertex
 10
103.6137659594432
 20
316.6493516431951
 30
0.0
  0
VERTEX
  5
41BD
330
41A3
100
AcDbEntity
  8
HIDDEN
 48
0.25
100
AcDbVertex
100
AcDb2dVertex
 10
103.646776227174
 20
316.6624182075054
 30
0.0
  0
VERTEX
  5
41BE
330
41A3
100
AcDbEntity
  8
HIDDEN
 48
0.25
100
AcDbVertex
100
AcDb2dVertex
 10
103.718298473924
 20
316.6906144778587
 30
0.0
  0
VERTEX
  5
41BF
330
41A3
100
AcDbEntity
  8
HIDDEN
 48
0.25
100
AcDbVertex
100
AcDb2dVertex
 10
103.7911961484963
 20
316.7215616038564
 30
0.0
  0
VERTEX
  5
41C0
330
41A3
100
AcDbEntity
  8
HIDDEN
 48
0.25
100
AcDbVertex
100
AcDb2dVertex
 10
103.8613429674244
 20
316.7552595854982
 30
0.0
  0
SEQEND
  5
41C1
330
41A3
100
AcDbEntity
  8
HIDDEN
 48
0.25
  0
POLYLINE
  5
41C2
102
{ACAD_REACTORS
330
44FD
102
}
330
A
100
AcDbEntity
  8
HIDDEN
 48
0.25
100
AcDb2dPolyline
 66
     1
 10
0.0
 20
0.0
 30
0.0
  0
VERTEX
  5
41C3
330
41C2
100
AcDbEntity
  8
HIDDEN
 48
0.25
100
AcDbVertex
100
AcDb2dVertex
 10
85.33570563132474
 20
316.5317525644041
 30
0.0
  0
VERTEX
  5
41C4
330
41C2
100
AcDbEntity
  8
HIDDEN
 48
0.25
100
AcDbVertex
100
AcDb2dVertex
 10
85.32607763656989
 20
316.5475699843585
 30
0.0
  0
VERTEX
  5
41C5
330
41C2
100
AcDbEntity
  8
HIDDEN
 48
0.25
100
AcDbVertex
100
AcDb2dVertex
 10
85.31644964181504
 20
316.5626996904018
 30
0.0
  0
VERTEX
  5
41C6
330
41C2
100
AcDbEntity
  8
HIDDEN
 48
0.25
100
AcDbVertex
100
AcDb2dVertex
 10
85.30819707488234
 20
316.5798925381782
 30
0.0
  0
VERTEX
  5
41C7
330
41C2
100
AcDbEntity
  8
HIDDEN
 48
0.25
100
AcDbVertex
100
AcDb2dVertex
 10
85.30131993577169
 20
316.5984608137767
 30
0.0
  0
VERTEX
  5
41C8
330
41C2
100
AcDbEntity
  8
HIDDEN
 48
0.25
100
AcDbVertex
100
AcDb2dVertex
 10
85.29444279666114
 20
316.6149659476421
 30
0.0
  0
VERTEX
  5
41C9
330
41C2
100
AcDbEntity
  8
HIDDEN
 48
0.25
100
AcDbVertex
100
AcDb2dVertex
 10
85.28894108537276
 20
316.6335342232407
 30
0.0
  0
VERTEX
  5
41CA
330
41C2
100
AcDbEntity
  8
HIDDEN
 48
0.25
100
AcDbVertex
100
AcDb2dVertex
 10
85.28343937408425
 20
316.6514147849282
 30
0.0
  0
VERTEX
  5
41CB
330
41C2
100
AcDbEntity
  8
HIDDEN
 48
0.25
100
AcDbVertex
100
AcDb2dVertex
 10
85.28068851843994
 20
316.671358488349
 30
0.0
  0
VERTEX
  5
41CC
330
41C2
100
AcDbEntity
  8
HIDDEN
 48
0.25
100
AcDbVertex
100
AcDb2dVertex
 10
85.2793130906179
 20
316.6899267639475
 30
0.0
  0
VERTEX
  5
41CD
330
41C2
100
AcDbEntity
  8
HIDDEN
 48
0.25
100
AcDbVertex
100
AcDb2dVertex
 10
85.27793766279575
 20
316.7078073256351
 30
0.0
  0
SEQEND
  5
41CE
330
41C2
100
AcDbEntity
  8
HIDDEN
 48
0.25
  0
POLYLINE
  5
41CF
330
A
100
AcDbEntity
  8
MODEL
100
AcDb2dPolyline
 66
     1
 10
0.0
 20
0.0
 30
0.0
  0
VERTEX
  5
41D0
330
41CF
100
AcDbEntity
  8
MODEL
100
AcDbVertex
100
AcDb2dVertex
 10
43.98690672891956
 20
242.5103534615106
 30
0.0
  0
VERTEX
  5
41D1
330
41CF
100
AcDbEntity
  8
MODEL
100
AcDbVertex
100
AcDb2dVertex
 10
43.98690672891956
 20
242.4855957607124
 30
0.0
  0
VERTEX
  5
41D2
330
41CF
100
AcDbEntity
  8
MODEL
100
AcDbVertex
100
AcDb2dVertex
 10
43.98690672891956
 20
242.455336348626
 30
0.0
  0
VERTEX
  5
41D3
330
41CF
100
AcDbEntity
  8
MODEL
100
AcDbVertex
100
AcDb2dVertex
 10
43.98690672891956
 20
242.4264523643614
 30
0.0
  0
VERTEX
  5
41D4
330
41CF
100
AcDbEntity
  8
MODEL
100
AcDbVertex
100
AcDb2dVertex
 10
43.98690672891956
 20
242.3961929522749
 30
0.0
  0
VERTEX
  5
41D5
330
41CF
100
AcDbEntity
  8
MODEL
100
AcDbVertex
100
AcDb2dVertex
 10
43.98690672891956
 20
242.3741861071209
 30
0.0
  0
VERTEX
  5
41D6
330
41CF
100
AcDbEntity
  8
MODEL
100
AcDbVertex
100
AcDb2dVertex
 10
43.98553130109752
 20
242.3439266950344
 30
0.0
  0
VERTEX
  5
41D7
330
41CF
100
AcDbEntity
  8
MODEL
100
AcDbVertex
100
AcDb2dVertex
 10
43.98553130109752
 20
242.3287969889912
 30
0.0
  0
VERTEX
  5
41D8
330
41CF
100
AcDbEntity
  8
MODEL
100
AcDbVertex
100
AcDb2dVertex
 10
43.98553130109752
 20
242.2985375769045
 30
0.0
  0
VERTEX
  5
41D9
330
41CF
100
AcDbEntity
  8
MODEL
100
AcDbVertex
100
AcDb2dVertex
 10
43.98553130109752
 20
242.2902850099719
 30
0.0
  0
VERTEX
  5
41DA
330
41CF
100
AcDbEntity
  8
MODEL
100
AcDbVertex
100
AcDb2dVertex
 10
43.98415587327537
 20
242.2614010257074
 30
0.0
  0
VERTEX
  5
41DB
330
41CF
100
AcDbEntity
  8
MODEL
100
AcDbVertex
100
AcDb2dVertex
 10
43.98415587327537
 20
242.2338924692651
 30
0.0
  0
VERTEX
  5
41DC
330
41CF
100
AcDbEntity
  8
MODEL
100
AcDbVertex
100
AcDb2dVertex
 10
43.98278044545322
 20
242.2242644745101
 30
0.0
  0
VERTEX
  5
41DD
330
41CF
100
AcDbEntity
  8
MODEL
100
AcDbVertex
100
AcDb2dVertex
 10
43.98278044545322
 20
242.2160119075775
 30
0.0
  0
VERTEX
  5
41DE
330
41CF
100
AcDbEntity
  8
MODEL
100
AcDbVertex
100
AcDb2dVertex
 10
43.98278044545322
 20
242.2118856241112
 30
0.0
  0
VERTEX
  5
41DF
330
41CF
100
AcDbEntity
  8
MODEL
100
AcDbVertex
100
AcDb2dVertex
 10
43.98140501763118
 20
242.210510196289
 30
0.0
  0
SEQEND
  5
41E0
330
41CF
100
AcDbEntity
  8
MODEL
  0
POLYLINE
  5
41E1
330
A
100
AcDbEntity
  8
MODEL
100
AcDb2dPolyline
 66
     1
 10
0.0
 20
0.0
 30
0.0
  0
VERTEX
  5
41E2
330
41E1
100
AcDbEntity
  8
MODEL
100
AcDbVertex
100
AcDb2dVertex
 10
62.92998640903176
 20
252.3254064001407
 30
0.0
  0
VERTEX
  5
41E3
330
41E1
100
AcDbEntity
  8
MODEL
100
AcDbVertex
100
AcDb2dVertex
 10
62.92861098120983
 20
252.3226555444964
 30
0.0
  0
VERTEX
  5
41E4
330
41E1
100
AcDbEntity
  8
MODEL
100
AcDbVertex
100
AcDb2dVertex
 10
62.92586012556552
 20
252.3212801166742
 30
0.0
  0
VERTEX
  5
41E5
330
41E1
100
AcDbEntity
  8
MODEL
100
AcDbVertex
100
AcDb2dVertex
 10
62.92448469774337
 20
252.3199046888521
 30
0.0
  0
VERTEX
  5
41E6
330
41E1
100
AcDbEntity
  8
MODEL
100
AcDbVertex
100
AcDb2dVertex
 10
62.91073041952217
 20
252.3157784053857
 30
0.0
  0
VERTEX
  5
41E7
330
41E1
100
AcDbEntity
  8
MODEL
100
AcDbVertex
100
AcDb2dVertex
 10
62.90660413605582
 20
252.3157784053857
 30
0.0
  0
VERTEX
  5
41E8
330
41E1
100
AcDbEntity
  8
MODEL
100
AcDbVertex
100
AcDb2dVertex
 10
62.88047100743569
 20
252.3102766940972
 30
0.0
  0
VERTEX
  5
41E9
330
41E1
100
AcDbEntity
  8
MODEL
100
AcDbVertex
100
AcDb2dVertex
 10
62.87359386832503
 20
252.3089012662753
 30
0.0
  0
VERTEX
  5
41EA
330
41E1
100
AcDbEntity
  8
MODEL
100
AcDbVertex
100
AcDb2dVertex
 10
62.84333445623844
 20
252.306150410631
 30
0.0
  0
VERTEX
  5
41EB
330
41E1
100
AcDbEntity
  8
MODEL
100
AcDbVertex
100
AcDb2dVertex
 10
62.8282047501952
 20
252.3047749828089
 30
0.0
  0
VERTEX
  5
41EC
330
41E1
100
AcDbEntity
  8
MODEL
100
AcDbVertex
100
AcDb2dVertex
 10
62.79932076593076
 20
252.3020241271647
 30
0.0
  0
VERTEX
  5
41ED
330
41E1
100
AcDbEntity
  8
MODEL
100
AcDbVertex
100
AcDb2dVertex
 10
62.77731392077675
 20
252.3006486993425
 30
0.0
  0
VERTEX
  5
41EE
330
41E1
100
AcDbEntity
  8
MODEL
100
AcDbVertex
100
AcDb2dVertex
 10
62.74705450869027
 20
252.2992732715203
 30
0.0
  0
VERTEX
  5
41EF
330
41E1
100
AcDbEntity
  8
MODEL
100
AcDbVertex
100
AcDb2dVertex
 10
62.72229680789218
 20
252.2978978436982
 30
0.0
  0
VERTEX
  5
41F0
330
41E1
100
AcDbEntity
  8
MODEL
100
AcDbVertex
100
AcDb2dVertex
 10
62.69341282362763
 20
252.296522415876
 30
0.0
  0
VERTEX
  5
41F1
330
41E1
100
AcDbEntity
  8
MODEL
100
AcDbVertex
100
AcDb2dVertex
 10
62.66315341154103
 20
252.296522415876
 30
0.0
  0
VERTEX
  5
41F2
330
41E1
100
AcDbEntity
  8
MODEL
100
AcDbVertex
100
AcDb2dVertex
 10
62.63289399945455
 20
252.296522415876
 30
0.0
  0
SEQEND
  5
41F3
330
41E1
100
AcDbEntity
  8
MODEL
  0
POLYLINE
  5
41F4
330
A
100
AcDbEntity
  8
MODEL
100
AcDb2dPolyline
 66
     1
 10
0.0
 20
0.0
 30
0.0
  0
VERTEX
  5
41F5
330
41F4
100
AcDbEntity
  8
MODEL
100
AcDbVertex
100
AcDb2dVertex
 10
83.10476170385022
 20
311.8470454022722
 30
0.0
  0
VERTEX
  5
41F6
330
41F4
100
AcDbEntity
  8
MODEL
100
AcDbVertex
100
AcDb2dVertex
 10
83.09100742562913
 20
311.7892774337433
 30
0.0
  0
VERTEX
  5
41F7
330
41F4
100
AcDbEntity
  8
MODEL
100
AcDbVertex
100
AcDb2dVertex
 10
83.07312686394147
 20
311.7191306148154
 30
0.0
  0
VERTEX
  5
41F8
330
41F4
100
AcDbEntity
  8
MODEL
100
AcDbVertex
100
AcDb2dVertex
 10
83.05249544660984
 20
311.6503592237095
 30
0.0
  0
VERTEX
  5
41F9
330
41F4
100
AcDbEntity
  8
MODEL
100
AcDbVertex
100
AcDb2dVertex
 10
83.03048860145594
 20
311.5843386882478
 30
0.0
  0
VERTEX
  5
41FA
330
41F4
100
AcDbEntity
  8
MODEL
100
AcDbVertex
100
AcDb2dVertex
 10
83.0098571841242
 20
311.5306970031851
 30
0.0
  0
VERTEX
  5
41FB
330
41F4
100
AcDbEntity
  8
MODEL
100
AcDbVertex
100
AcDb2dVertex
 10
82.98922576679234
 20
311.4811816015888
 30
0.0
  0
VERTEX
  5
41FC
330
41F4
100
AcDbEntity
  8
MODEL
100
AcDbVertex
100
AcDb2dVertex
 10
82.96721892163845
 20
311.4371679112812
 30
0.0
  0
VERTEX
  5
41FD
330
41F4
100
AcDbEntity
  8
MODEL
100
AcDbVertex
100
AcDb2dVertex
 10
82.94521207648467
 20
311.3972805044397
 30
0.0
  0
VERTEX
  5
41FE
330
41F4
100
AcDbEntity
  8
MODEL
100
AcDbVertex
100
AcDb2dVertex
 10
82.9438366486624
 20
311.3945296487955
 30
0.0
  0
VERTEX
  5
41FF
330
41F4
100
AcDbEntity
  8
MODEL
100
AcDbVertex
100
AcDb2dVertex
 10
82.92320523133077
 20
311.3601439532426
 30
0.0
  0
VERTEX
  5
4200
330
41F4
100
AcDbEntity
  8
MODEL
100
AcDbVertex
100
AcDb2dVertex
 10
82.90119838617687
 20
311.331259968978
 30
0.0
  0
VERTEX
  5
4201
330
41F4
100
AcDbEntity
  8
MODEL
100
AcDbVertex
100
AcDb2dVertex
 10
82.89294581924418
 20
311.3216319742233
 30
0.0
  0
VERTEX
  5
4202
330
41F4
100
AcDbEntity
  8
MODEL
100
AcDbVertex
100
AcDb2dVertex
 10
82.87506525755663
 20
311.2996251290694
 30
0.0
  0
VERTEX
  5
4203
330
41F4
100
AcDbEntity
  8
MODEL
100
AcDbVertex
100
AcDb2dVertex
 10
82.85580926804704
 20
311.283119995204
 30
0.0
  0
VERTEX
  5
4204
330
41F4
100
AcDbEntity
  8
MODEL
100
AcDbVertex
100
AcDb2dVertex
 10
82.85305841240273
 20
311.2803691395597
 30
0.0
  0
VERTEX
  5
4205
330
41F4
100
AcDbEntity
  8
MODEL
100
AcDbVertex
100
AcDb2dVertex
 10
82.8351778507153
 20
311.2679902891608
 30
0.0
  0
VERTEX
  5
4206
330
41F4
100
AcDbEntity
  8
MODEL
100
AcDbVertex
100
AcDb2dVertex
 10
82.81729728902775
 20
311.258362294406
 30
0.0
  0
VERTEX
  5
4207
330
41F4
100
AcDbEntity
  8
MODEL
100
AcDbVertex
100
AcDb2dVertex
 10
82.80079215516224
 20
311.2501097274732
 30
0.0
  0
VERTEX
  5
4208
330
41F4
100
AcDbEntity
  8
MODEL
100
AcDbVertex
100
AcDb2dVertex
 10
82.78428702129685
 20
311.2459834440069
 30
0.0
  0
VERTEX
  5
4209
330
41F4
100
AcDbEntity
  8
MODEL
100
AcDbVertex
100
AcDb2dVertex
 10
82.77053274307576
 20
311.2446080161847
 30
0.0
  0
SEQEND
  5
420A
330
41F4
100
AcDbEntity
  8
MODEL
  0
POLYLINE
  5
420B
330
A
100
AcDbEntity
  8
MODEL
100
AcDb2dPolyline
 66
     1
 10
0.0
 20
0.0
 30
0.0
  0
VERTEX
  5
420C
330
420B
100
AcDbEntity
  8
MODEL
100
AcDbVertex
100
AcDb2dVertex
 10
162.527465864199
 20
311.8470454022722
 30
0.0
  0
VERTEX
  5
420D
330
420B
100
AcDbEntity
  8
MODEL
100
AcDbVertex
100
AcDb2dVertex
 10
162.5412201424201
 20
311.7892774337433
 30
0.0
  0
VERTEX
  5
420E
330
420B
100
AcDbEntity
  8
MODEL
100
AcDbVertex
100
AcDb2dVertex
 10
162.5591007041075
 20
311.7191306148154
 30
0.0
  0
VERTEX
  5
420F
330
420B
100
AcDbEntity
  8
MODEL
100
AcDbVertex
100
AcDb2dVertex
 10
162.5797321214393
 20
311.6503592237095
 30
0.0
  0
VERTEX
  5
4210
330
420B
100
AcDbEntity
  8
MODEL
100
AcDbVertex
100
AcDb2dVertex
 10
162.6017389665932
 20
311.5843386882478
 30
0.0
  0
VERTEX
  5
4211
330
420B
100
AcDbEntity
  8
MODEL
100
AcDbVertex
100
AcDb2dVertex
 10
162.622370383925
 20
311.5306970031851
 30
0.0
  0
VERTEX
  5
4212
330
420B
100
AcDbEntity
  8
MODEL
100
AcDbVertex
100
AcDb2dVertex
 10
162.6430018012567
 20
311.4811816015888
 30
0.0
  0
VERTEX
  5
4213
330
420B
100
AcDbEntity
  8
MODEL
100
AcDbVertex
100
AcDb2dVertex
 10
162.6650086464105
 20
311.4371679112812
 30
0.0
  0
VERTEX
  5
4214
330
420B
100
AcDbEntity
  8
MODEL
100
AcDbVertex
100
AcDb2dVertex
 10
162.6870154915645
 20
311.3972805044397
 30
0.0
  0
VERTEX
  5
4215
330
420B
100
AcDbEntity
  8
MODEL
100
AcDbVertex
100
AcDb2dVertex
 10
162.6883909193866
 20
311.3945296487955
 30
0.0
  0
VERTEX
  5
4216
330
420B
100
AcDbEntity
  8
MODEL
100
AcDbVertex
100
AcDb2dVertex
 10
162.7103977645406
 20
311.3601439532426
 30
0.0
  0
VERTEX
  5
4217
330
420B
100
AcDbEntity
  8
MODEL
100
AcDbVertex
100
AcDb2dVertex
 10
162.7310291818723
 20
311.331259968978
 30
0.0
  0
VERTEX
  5
4218
330
420B
100
AcDbEntity
  8
MODEL
100
AcDbVertex
100
AcDb2dVertex
 10
162.7392817488049
 20
311.3216319742233
 30
0.0
  0
VERTEX
  5
4219
330
420B
100
AcDbEntity
  8
MODEL
100
AcDbVertex
100
AcDb2dVertex
 10
162.7571623104924
 20
311.2996251290694
 30
0.0
  0
VERTEX
  5
421A
330
420B
100
AcDbEntity
  8
MODEL
100
AcDbVertex
100
AcDb2dVertex
 10
162.776418300002
 20
311.283119995204
 30
0.0
  0
VERTEX
  5
421B
330
420B
100
AcDbEntity
  8
MODEL
100
AcDbVertex
100
AcDb2dVertex
 10
162.7791691556462
 20
311.2803691395597
 30
0.0
  0
VERTEX
  5
421C
330
420B
100
AcDbEntity
  8
MODEL
100
AcDbVertex
100
AcDb2dVertex
 10
162.7970497173339
 20
311.2679902891608
 30
0.0
  0
VERTEX
  5
421D
330
420B
100
AcDbEntity
  8
MODEL
100
AcDbVertex
100
AcDb2dVertex
 10
162.8149302790213
 20
311.258362294406
 30
0.0
  0
VERTEX
  5
421E
330
420B
100
AcDbEntity
  8
MODEL
100
AcDbVertex
100
AcDb2dVertex
 10
162.8314354128867
 20
311.2501097274732
 30
0.0
  0
VERTEX
  5
421F
330
420B
100
AcDbEntity
  8
MODEL
100
AcDbVertex
100
AcDb2dVertex
 10
162.8479405467522
 20
311.2459834440069
 30
0.0
  0
VERTEX
  5
4220
330
420B
100
AcDbEntity
  8
MODEL
100
AcDbVertex
100
AcDb2dVertex
 10
162.8616948249734
 20
311.2446080161847
 30
0.0
  0
SEQEND
  5
4221
330
420B
100
AcDbEntity
  8
MODEL
  0
POLYLINE
  5
4222
330
A
100
AcDbEntity
  8
MODEL
100
AcDb2dPolyline
 66
     1
 10
0.0
 20
0.0
 30
0.0
  0
VERTEX
  5
4223
330
4222
100
AcDbEntity
  8
MODEL
100
AcDbVertex
100
AcDb2dVertex
 10
162.3101482683043
 20
311.9488270611087
 30
0.0
  0
VERTEX
  5
4224
330
4222
100
AcDbEntity
  8
MODEL
100
AcDbVertex
100
AcDb2dVertex
 10
162.3211516908813
 20
311.9474516332867
 30
0.0
  0
VERTEX
  5
4225
330
4222
100
AcDbEntity
  8
MODEL
100
AcDbVertex
100
AcDb2dVertex
 10
162.3459093916794
 20
311.9447007776426
 30
0.0
  0
VERTEX
  5
4226
330
4222
100
AcDbEntity
  8
MODEL
100
AcDbVertex
100
AcDb2dVertex
 10
162.3706670924775
 20
311.9405744941761
 30
0.0
  0
VERTEX
  5
4227
330
4222
100
AcDbEntity
  8
MODEL
100
AcDbVertex
100
AcDb2dVertex
 10
162.3954247932756
 20
311.9336973550655
 30
0.0
  0
VERTEX
  5
4228
330
4222
100
AcDbEntity
  8
MODEL
100
AcDbVertex
100
AcDb2dVertex
 10
162.4160562106075
 20
311.9281956437772
 30
0.0
  0
VERTEX
  5
4229
330
4222
100
AcDbEntity
  8
MODEL
100
AcDbVertex
100
AcDb2dVertex
 10
162.4394384835833
 20
311.9199430768444
 30
0.0
  0
VERTEX
  5
422A
330
4222
100
AcDbEntity
  8
MODEL
100
AcDbVertex
100
AcDb2dVertex
 10
162.4628207565593
 20
311.9103150820894
 30
0.0
  0
VERTEX
  5
422B
330
4222
100
AcDbEntity
  8
MODEL
100
AcDbVertex
100
AcDb2dVertex
 10
162.4793258904247
 20
311.9006870873347
 30
0.0
  0
VERTEX
  5
422C
330
4222
100
AcDbEntity
  8
MODEL
100
AcDbVertex
100
AcDb2dVertex
 10
162.4944555964681
 20
311.8910590925801
 30
0.0
  0
VERTEX
  5
422D
330
4222
100
AcDbEntity
  8
MODEL
100
AcDbVertex
100
AcDb2dVertex
 10
162.5082098746893
 20
311.8800556700029
 30
0.0
  0
VERTEX
  5
422E
330
4222
100
AcDbEntity
  8
MODEL
100
AcDbVertex
100
AcDb2dVertex
 10
162.5095853025113
 20
311.8786802421808
 30
0.0
  0
VERTEX
  5
422F
330
4222
100
AcDbEntity
  8
MODEL
100
AcDbVertex
100
AcDb2dVertex
 10
162.517837869444
 20
311.867676819604
 30
0.0
  0
VERTEX
  5
4230
330
4222
100
AcDbEntity
  8
MODEL
100
AcDbVertex
100
AcDb2dVertex
 10
162.5247150085547
 20
311.858048824849
 30
0.0
  0
VERTEX
  5
4231
330
4222
100
AcDbEntity
  8
MODEL
100
AcDbVertex
100
AcDb2dVertex
 10
162.527465864199
 20
311.84566997445
 30
0.0
  0
SEQEND
  5
4232
330
4222
100
AcDbEntity
  8
MODEL
  0
POLYLINE
  5
4233
330
A
100
AcDbEntity
  8
MODEL
100
AcDb2dPolyline
 66
     1
 10
0.0
 20
0.0
 30
0.0
  0
VERTEX
  5
4234
330
4233
100
AcDbEntity
  8
MODEL
100
AcDbVertex
100
AcDb2dVertex
 10
287.6571967778456
 20
315.3007446636091
 30
0.0
  0
VERTEX
  5
4235
330
4233
100
AcDbEntity
  8
MODEL
100
AcDbVertex
100
AcDb2dVertex
 10
287.6571967778456
 20
315.2911166688542
 30
0.0
  0
VERTEX
  5
4236
330
4233
100
AcDbEntity
  8
MODEL
100
AcDbVertex
100
AcDb2dVertex
 10
287.6558213500236
 20
315.2739238210776
 30
0.0
  0
VERTEX
  5
4237
330
4233
100
AcDbEntity
  8
MODEL
100
AcDbVertex
100
AcDb2dVertex
 10
287.6530704943796
 20
315.2587941150344
 30
0.0
  0
VERTEX
  5
4238
330
4233
100
AcDbEntity
  8
MODEL
100
AcDbVertex
100
AcDb2dVertex
 10
287.6530704943796
 20
315.2526046898349
 30
0.0
  0
VERTEX
  5
4239
330
4233
100
AcDbEntity
  8
MODEL
100
AcDbVertex
100
AcDb2dVertex
 10
287.648944210913
 20
315.2374749837916
 30
0.0
  0
VERTEX
  5
423A
330
4233
100
AcDbEntity
  8
MODEL
100
AcDbVertex
100
AcDb2dVertex
 10
287.646193355269
 20
315.220282136015
 30
0.0
  0
VERTEX
  5
423B
330
4233
100
AcDbEntity
  8
MODEL
100
AcDbVertex
100
AcDb2dVertex
 10
287.6406916439803
 20
315.2051524299719
 30
0.0
  0
VERTEX
  5
423C
330
4233
100
AcDbEntity
  8
MODEL
100
AcDbVertex
100
AcDb2dVertex
 10
287.635189932692
 20
315.1907104378398
 30
0.0
  0
VERTEX
  5
423D
330
4233
100
AcDbEntity
  8
MODEL
100
AcDbVertex
100
AcDb2dVertex
 10
287.6290005074922
 20
315.1755807317962
 30
0.0
  0
VERTEX
  5
423E
330
4233
100
AcDbEntity
  8
MODEL
100
AcDbVertex
100
AcDb2dVertex
 10
287.6207479405599
 20
315.1611387396641
 30
0.0
  0
VERTEX
  5
423F
330
4233
100
AcDbEntity
  8
MODEL
100
AcDbVertex
100
AcDb2dVertex
 10
287.6124953736272
 20
315.1473844614429
 30
0.0
  0
SEQEND
  5
4240
330
4233
100
AcDbEntity
  8
MODEL
  0
POLYLINE
  5
4241
330
A
100
AcDbEntity
  8
MODEL
100
AcDb2dPolyline
 66
     1
 10
0.0
 20
0.0
 30
0.0
  0
VERTEX
  5
4242
330
4241
100
AcDbEntity
  8
MODEL
100
AcDbVertex
100
AcDb2dVertex
 10
43.96558759767674
 20
259.3442145764057
 30
0.0
  0
VERTEX
  5
4243
330
4241
100
AcDbEntity
  8
MODEL
100
AcDbVertex
100
AcDb2dVertex
 10
63.42926670846049
 20
259.3442145764057
 30
0.0
  0
SEQEND
  5
4244
330
4241
100
AcDbEntity
  8
MODEL
  0
POLYLINE
  5
4245
102
{ACAD_REACTORS
330
44FD
102
}
330
A
100
AcDbEntity
  8
HIDDEN
 48
0.25
100
AcDb2dPolyline
 66
     1
 10
0.0
 20
0.0
 30
0.0
  0
VERTEX
  5
4246
330
4245
100
AcDbEntity
  8
HIDDEN
 48
0.25
100
AcDbVertex
100
AcDb2dVertex
 10
100.6084561681166
 20
318.7626964918786
 30
0.0
  0
VERTEX
  5
4247
330
4245
100
AcDbEntity
  8
HIDDEN
 48
0.25
100
AcDbVertex
100
AcDb2dVertex
 10
100.6084561681166
 20
322.2555954461458
 30
0.0
  0
SEQEND
  5
4248
330
4245
100
AcDbEntity
  8
HIDDEN
 48
0.25
  0
POLYLINE
  5
4249
102
{ACAD_REACTORS
330
44FD
102
}
330
A
100
AcDbEntity
  8
HIDDEN
 48
0.25
100
AcDb2dPolyline
 66
     1
 10
0.0
 20
0.0
 30
0.0
  0
VERTEX
  5
424A
330
4249
100
AcDbEntity
  8
HIDDEN
 48
0.25
100
AcDbVertex
100
AcDb2dVertex
 10
105.0992280073301
 20
322.2555954461458
 30
0.0
  0
VERTEX
  5
424B
330
4249
100
AcDbEntity
  8
HIDDEN
 48
0.25
100
AcDbVertex
100
AcDb2dVertex
 10
105.0992280073301
 20
318.7626964918786
 30
0.0
  0
SEQEND
  5
424C
330
4249
100
AcDbEntity
  8
HIDDEN
 48
0.25
  0
POLYLINE
  5
424D
102
{ACAD_REACTORS
330
44FD
102
}
330
A
100
AcDbEntity
  8
HIDDEN
 48
0.25
100
AcDb2dPolyline
 66
     1
 10
0.0
 20
0.0
 30
0.0
  0
VERTEX
  5
424E
330
424D
100
AcDbEntity
  8
HIDDEN
 48
0.25
100
AcDbVertex
100
AcDb2dVertex
 10
141.0309044323256
 20
322.7548757455745
 30
0.0
  0
VERTEX
  5
424F
330
424D
100
AcDbEntity
  8
HIDDEN
 48
0.25
100
AcDbVertex
100
AcDb2dVertex
 10
144.5244911005039
 20
322.7548757455745
 30
0.0
  0
SEQEND
  5
4250
330
424D
100
AcDbEntity
  8
HIDDEN
 48
0.25
  0
POLYLINE
  5
4251
330
A
100
AcDbEntity
  8
MODEL
100
AcDb2dPolyline
 66
     1
 10
0.0
 20
0.0
 30
0.0
  0
VERTEX
  5
4252
330
4251
100
AcDbEntity
  8
MODEL
100
AcDbVertex
100
AcDb2dVertex
 10
36.97910197523129
 20
323.5031084808064
 30
0.0
  0
VERTEX
  5
4253
330
4251
100
AcDbEntity
  8
MODEL
100
AcDbVertex
100
AcDb2dVertex
 10
163.7846068936141
 20
323.5031084808064
 30
0.0
  0
SEQEND
  5
4254
330
4251
100
AcDbEntity
  8
MODEL
  0
POLYLINE
  5
4255
330
A
100
AcDbEntity
  8
MODEL
100
AcDb2dPolyline
 66
     1
 10
0.0
 20
0.0
 30
0.0
  0
VERTEX
  5
4256
330
4255
100
AcDbEntity
  8
MODEL
100
AcDbVertex
100
AcDb2dVertex
 10
163.7846068936141
 20
323.5031084808064
 30
0.0
  0
VERTEX
  5
4257
330
4255
100
AcDbEntity
  8
MODEL
100
AcDbVertex
100
AcDb2dVertex
 10
208.6524378789067
 20
323.5031084808064
 30
0.0
  0
SEQEND
  5
4258
330
4255
100
AcDbEntity
  8
MODEL
  0
POLYLINE
  5
4259
102
{ACAD_REACTORS
330
44FD
102
}
330
A
100
AcDbEntity
  8
HIDDEN
 48
0.25
100
AcDb2dPolyline
 66
     1
 10
0.0
 20
0.0
 30
0.0
  0
VERTEX
  5
425A
330
4259
100
AcDbEntity
  8
HIDDEN
 48
0.25
100
AcDbVertex
100
AcDb2dVertex
 10
163.7846068936141
 20
339.4732009234116
 30
0.0
  0
VERTEX
  5
425B
330
4259
100
AcDbEntity
  8
HIDDEN
 48
0.25
100
AcDbVertex
100
AcDb2dVertex
 10
81.8462452466128
 20
339.4732009234116
 30
0.0
  0
SEQEND
  5
425C
330
4259
100
AcDbEntity
  8
HIDDEN
 48
0.25
  0
POLYLINE
  5
425D
330
A
100
AcDbEntity
  8
MODEL
100
AcDb2dPolyline
 66
     1
 10
0.0
 20
0.0
 30
0.0
  0
VERTEX
  5
425E
330
425D
100
AcDbEntity
  8
MODEL
100
AcDbVertex
100
AcDb2dVertex
 10
278.7629927661235
 20
323.5031084808064
 30
0.0
  0
VERTEX
  5
425F
330
425D
100
AcDbEntity
  8
MODEL
100
AcDbVertex
100
AcDb2dVertex
 10
380.5694093036111
 20
323.5031084808064
 30
0.0
  0
SEQEND
  5
4260
330
425D
100
AcDbEntity
  8
MODEL
  0
POLYLINE
  5
4261
330
A
100
AcDbEntity
  8
MODEL
100
AcDb2dPolyline
 66
     1
 10
0.0
 20
0.0
 30
0.0
  0
VERTEX
  5
4262
330
4261
100
AcDbEntity
  8
MODEL
100
AcDbVertex
100
AcDb2dVertex
 10
277.7651198811772
 20
339.4732009234115
 30
0.0
  0
VERTEX
  5
4263
330
4261
100
AcDbEntity
  8
MODEL
100
AcDbVertex
100
AcDb2dVertex
 10
279.0422046140133
 20
339.4732009234115
 30
0.0
  0
SEQEND
  5
4264
330
4261
100
AcDbEntity
  8
MODEL
  0
SPLINE
  5
4265
330
A
100
AcDbEntity
  8
MODEL
100
AcDbSpline
210
0.0
220
0.0
230
1.0
 70
     8
 71
     3
 72
     8
 73
     4
 74
     0
 42
0.000000001
 43
0.0000000001
 40
0.0
 40
0.0
 40
0.0
 40
0.0
 40
1.0
 40
1.0
 40
1.0
 40
1.0
 10
43.96558759767674
 20
259.3442145764057
 30
0.0
 10
43.68981431934225
 20
259.3442145764057
 30
0.0
 10
43.4669950121592
 20
259.1200198414006
 30
0.0
 10
43.4669950121592
 20
258.8449342769772
 30
0.0
  0
SPLINE
  5
4266
330
A
100
AcDbEntity
  8
MODEL
100
AcDbSpline
210
0.0
220
0.0
230
1.0
 70
     8
 71
     3
 72
     8
 73
     4
 74
     0
 42
0.000000001
 43
0.0000000001
 40
0.0
 40
0.0
 40
0.0
 40
0.0
 40
1.0
 40
1.0
 40
1.0
 40
1.0
 10
63.92717158006707
 20
258.8449342769772
 30
0.0
 10
63.92717158006707
 20
259.1213952692228
 30
0.0
 10
63.70435227288402
 20
259.3442145764057
 30
0.0
 10
63.42926670846049
 20
259.3442145764057
 30
0.0
  0
SPLINE
  5
4267
102
{ACAD_REACTORS
330
44FD
102
}
330
A
100
AcDbEntity
  8
HIDDEN
 48
0.25
100
AcDbSpline
210
0.0
220
0.0
230
1.0
 70
     8
 71
     3
 72
     8
 73
     4
 74
     0
 42
0.000000001
 43
0.0000000001
 40
0.0
 40
0.0
 40
0.0
 40
0.0
 40
1.0
 40
1.0
 40
1.0
 40
1.0
 10
101.6345253234162
 20
316.8762972338445
 30
0.0
 10
101.644153318171
 20
316.870795522556
 30
0.0
 10
101.6510304572816
 20
316.8666692390897
 30
0.0
 10
101.6592830242143
 20
316.8611675278012
 30
0.0
  0
SPLINE
  5
4268
102
{ACAD_REACTORS
330
44FD
102
}
330
A
100
AcDbEntity
  8
HIDDEN
 48
0.25
100
AcDbSpline
210
0.0
220
0.0
230
1.0
 70
     8
 71
     3
 72
     8
 73
     4
 74
     0
 42
0.000000001
 43
0.0000000001
 40
0.0
 40
0.0
 40
0.0
 40
0.0
 40
1.0
 40
1.0
 40
1.0
 40
1.0
 10
101.6592830242143
 20
316.8611675278012
 30
0.0
 10
101.6702864467913
 20
316.8542903886906
 30
0.0
 10
101.6812898693683
 20
316.846725535669
 30
0.0
 10
101.6936687197672
 20
316.8398483965584
 30
0.0
  0
SPLINE
  5
4269
102
{ACAD_REACTORS
330
44FD
102
}
330
A
100
AcDbEntity
  8
HIDDEN
 48
0.25
100
AcDbSpline
210
0.0
220
0.0
230
1.0
 70
     8
 71
     3
 72
     8
 73
     4
 74
     0
 42
0.000000001
 43
0.0000000001
 40
0.0
 40
0.0
 40
0.0
 40
0.0
 40
1.0
 40
1.0
 40
1.0
 40
1.0
 10
103.8613429674244
 20
316.7552595854982
 30
0.0
 10
103.9259880750639
 20
316.787582139318
 30
0.0
 10
103.9878823270591
 20
316.8226555487819
 30
0.0
 10
104.0484011512323
 20
316.8611675278012
 30
0.0
  0
SPLINE
  5
426A
102
{ACAD_REACTORS
330
44FD
102
}
330
A
100
AcDbEntity
  8
HIDDEN
 48
0.25
100
AcDbSpline
210
0.0
220
0.0
230
1.0
 70
     8
 71
     3
 72
     8
 73
     4
 74
     0
 42
0.000000001
 43
0.0000000001
 40
0.0
 40
0.0
 40
0.0
 40
0.0
 40
1.0
 40
1.0
 40
1.0
 40
1.0
 10
101.6922932919452
 20
316.8405361104695
 30
0.0
 10
101.7431841213635
 20
316.8095889844719
 30
0.0
 10
101.7940749507817
 20
316.7813927141183
 30
0.0
 10
101.8463412080222
 20
316.7559472994093
 30
0.0
  0
SPLINE
  5
426B
102
{ACAD_REACTORS
330
44FD
102
}
330
A
100
AcDbEntity
  8
HIDDEN
 48
0.25
100
AcDbSpline
210
0.0
220
0.0
230
1.0
 70
     8
 71
     3
 72
     8
 73
     4
 74
     0
 42
0.000000001
 43
0.0000000001
 40
0.0
 40
0.0
 40
0.0
 40
0.0
 40
1.0
 40
1.0
 40
1.0
 40
1.0
 10
104.8887875505461
 20
317.8136512946176
 30
0.0
 10
105.0277057605799
 20
318.1107437041949
 30
0.0
 10
105.0992280073301
 20
318.4346569563036
 30
0.0
 10
105.0992280073301
 20
318.7626964918786
 30
0.0
  0
SPLINE
  5
426C
102
{ACAD_REACTORS
330
44FD
102
}
330
A
100
AcDbEntity
  8
HIDDEN
 48
0.25
100
AcDbSpline
210
0.0
220
0.0
230
1.0
 70
     8
 71
     3
 72
     8
 73
     4
 74
     0
 42
0.000000001
 43
0.0000000001
 40
0.0
 40
0.0
 40
0.0
 40
0.0
 40
1.0
 40
1.0
 40
1.0
 40
1.0
 10
100.6084561681166
 20
318.7626964918786
 30
0.0
 10
100.6084561681166
 20
318.4353446702148
 30
0.0
 10
100.6799784148668
 20
318.111431418106
 30
0.0
 10
100.8175211970784
 20
317.8157144363508
 30
0.0
  0
SPLINE
  5
426D
102
{ACAD_REACTORS
330
44FD
102
}
330
A
100
AcDbEntity
  8
HIDDEN
 48
0.25
100
AcDbSpline
210
0.0
220
0.0
230
1.0
 70
     8
 71
     3
 72
     8
 73
     4
 74
     0
 42
0.000000001
 43
0.0000000001
 40
0.0
 40
0.0
 40
0.0
 40
0.0
 40
1.0
 40
1.0
 40
1.0
 40
1.0
 10
102.8545298016344
 20
324.5009813657524
 30
0.0
 10
101.6138939060845
 20
324.5009813657524
 30
0.0
 10
100.6084561681166
 20
323.4969190556067
 30
0.0
 10
100.6084561681166
 20
322.2555954461458
 30
0.0
  0
SPLINE
  5
426E
102
{ACAD_REACTORS
330
44FD
102
}
330
A
100
AcDbEntity
  8
HIDDEN
 48
0.25
100
AcDbSpline
210
0.0
220
0.0
230
1.0
 70
     8
 71
     3
 72
     8
 73
     4
 74
     0
 42
0.000000001
 43
0.0000000001
 40
0.0
 40
0.0
 40
0.0
 40
0.0
 40
1.0
 40
1.0
 40
1.0
 40
1.0
 10
105.0992280073301
 20
322.2555954461458
 30
0.0
 10
105.0992280073301
 20
323.4969190556067
 30
0.0
 10
104.0937902693622
 20
324.5009813657524
 30
0.0
 10
102.8545298016344
 20
324.5009813657524
 30
0.0
  0
SPLINE
  5
426F
102
{ACAD_REACTORS
330
44FD
102
}
330
A
100
AcDbEntity
  8
HIDDEN
 48
0.25
100
AcDbSpline
210
0.0
220
0.0
230
1.0
 70
     8
 71
     3
 72
     8
 73
     4
 74
     0
 42
0.000000001
 43
0.0000000001
 40
0.0
 40
0.0
 40
0.0
 40
0.0
 40
1.0
 40
1.0
 40
1.0
 40
1.0
 10
100.8312754752996
 20
317.7882058799083
 30
0.0
 10
101.0100810921749
 20
317.4161526540256
 30
0.0
 10
101.2879175122427
 20
317.1004919688497
 30
0.0
 10
101.6345253234162
 20
316.8769849477556
 30
0.0
  0
SPLINE
  5
4270
102
{ACAD_REACTORS
330
44FD
102
}
330
A
100
AcDbEntity
  8
HIDDEN
 48
0.25
100
AcDbSpline
210
0.0
220
0.0
230
1.0
 70
     8
 71
     3
 72
     8
 73
     4
 74
     0
 42
0.000000001
 43
0.0000000001
 40
0.0
 40
0.0
 40
0.0
 40
0.0
 40
1.0
 40
1.0
 40
1.0
 40
1.0
 10
104.0484011512323
 20
316.8611675278012
 30
0.0
 10
104.4060123849828
 20
317.0860499767174
 30
0.0
 10
104.6934767998054
 20
317.4072123731819
 30
0.0
 10
104.876408700147
 20
317.7875181659973
 30
0.0
  0
SPLINE
  5
4271
102
{ACAD_REACTORS
330
44FD
102
}
330
A
100
AcDbEntity
  8
HIDDEN
 48
0.25
100
AcDbSpline
210
0.0
220
0.0
230
1.0
 70
     8
 71
     3
 72
     8
 73
     4
 74
     0
 42
0.000000001
 43
0.0000000001
 40
0.0
 40
0.0
 40
0.0
 40
0.0
 40
1.0
 40
1.0
 40
1.0
 40
1.0
 10
101.8463412080222
 20
316.7552595854982
 30
0.0
 10
101.8490920636665
 20
316.7538841576762
 30
0.0
 10
101.8532183471329
 20
316.752508729854
 30
0.0
 10
101.8573446305992
 20
316.7511333020319
 30
0.0
  0
SPLINE
  5
4272
102
{ACAD_REACTORS
330
44FD
102
}
330
A
100
AcDbEntity
  8
HIDDEN
 48
0.25
100
AcDbSpline
210
0.0
220
0.0
230
1.0
 70
    24
 71
     3
 72
     8
 73
     4
 74
     0
 42
0.000000001
 43
0.0000000001
 40
0.0
 40
0.0
 40
0.0
 40
0.0
 40
1.0
 40
1.0
 40
1.0
 40
1.0
 10
104.8777841279691
 20
317.7882058799083
 30
0.0
 10
104.8819104114354
 20
317.7964584468411
 30
0.0
 10
104.8860366949017
 20
317.8047110137737
 30
0.0
 10
104.8901629783681
 20
317.8129635807065
 30
0.0
  0
SPLINE
  5
4273
102
{ACAD_REACTORS
330
44FD
102
}
330
A
100
AcDbEntity
  8
HIDDEN
 48
0.25
100
AcDbSpline
210
0.0
220
0.0
230
1.0
 70
     8
 71
     3
 72
     8
 73
     4
 74
     0
 42
0.000000001
 43
0.0000000001
 40
0.0
 40
0.0
 40
0.0
 40
0.0
 40
1.0
 40
1.0
 40
1.0
 40
1.0
 10
100.8175211970784
 20
317.8157144363508
 30
0.0
 10
100.8216474805449
 20
317.8053987276848
 30
0.0
 10
100.8257737640112
 20
317.7971461607522
 30
0.0
 10
100.8299000474776
 20
317.7875181659973
 30
0.0
  0
SPLINE
  5
4274
102
{ACAD_REACTORS
330
44FD
102
}
330
A
100
AcDbEntity
  8
HIDDEN
 48
0.25
100
AcDbSpline
210
0.0
220
0.0
230
1.0
 70
     8
 71
     3
 72
     8
 73
     4
 74
     0
 42
0.000000001
 43
0.0000000001
 40
0.0
 40
0.0
 40
0.0
 40
0.0
 40
1.0
 40
1.0
 40
1.0
 40
1.0
 10
139.8260296601508
 20
318.6148380010009
 30
0.0
 10
139.8315313714392
 20
318.6107117175346
 30
0.0
 10
139.8384085105499
 20
318.6072731479792
 30
0.0
 10
139.8439102218383
 20
318.603146864513
 30
0.0
  0
SPLINE
  5
4275
102
{ACAD_REACTORS
330
44FD
102
}
330
A
100
AcDbEntity
  8
HIDDEN
 48
0.25
100
AcDbSpline
210
0.0
220
0.0
230
1.0
 70
     8
 71
     3
 72
     8
 73
     4
 74
     0
 42
0.000000001
 43
0.0000000001
 40
0.0
 40
0.0
 40
0.0
 40
0.0
 40
1.0
 40
1.0
 40
1.0
 40
1.0
 10
139.8439102218383
 20
318.603146864513
 30
0.0
 10
139.8989273347229
 20
318.569448882871
 30
0.0
 10
139.9553198754298
 20
318.5371263290513
 30
0.0
 10
140.0144632717808
 20
318.5075546308759
 30
0.0
  0
SPLINE
  5
4276
102
{ACAD_REACTORS
330
44FD
102
}
330
A
100
AcDbEntity
  8
HIDDEN
 48
0.25
100
AcDbSpline
210
0.0
220
0.0
230
1.0
 70
     8
 71
     3
 72
     8
 73
     4
 74
     0
 42
0.000000001
 43
0.0000000001
 40
0.0
 40
0.0
 40
0.0
 40
0.0
 40
1.0
 40
1.0
 40
1.0
 40
1.0
 10
139.1300631821593
 20
321.7040488894766
 30
0.0
 10
138.7188102633463
 20
321.0493452461487
 30
0.0
 10
138.6734211452164
 20
320.2309656919888
 30
0.0
 10
139.0076501059909
 20
319.5349992139975
 30
0.0
  0
SPLINE
  5
4277
102
{ACAD_REACTORS
330
44FD
102
}
330
A
100
AcDbEntity
  8
HIDDEN
 48
0.25
100
AcDbSpline
210
0.0
220
0.0
230
1.0
 70
     8
 71
     3
 72
     8
 73
     4
 74
     0
 42
0.000000001
 43
0.0000000001
 40
0.0
 40
0.0
 40
0.0
 40
0.0
 40
1.0
 40
1.0
 40
1.0
 40
1.0
 10
141.0309044323256
 20
322.7548757455745
 30
0.0
 10
140.2592894241178
 20
322.7548757455745
 30
0.0
 10
139.5413161009724
 20
322.3573771049824
 30
0.0
 10
139.1300631821593
 20
321.7040488894766
 30
0.0
  0
SPLINE
  5
4278
102
{ACAD_REACTORS
330
44FD
102
}
330
A
100
AcDbEntity
  8
HIDDEN
 48
0.25
100
AcDbSpline
210
0.0
220
0.0
230
1.0
 70
     8
 71
     3
 72
     8
 73
     4
 74
     0
 42
0.000000001
 43
0.0000000001
 40
0.0
 40
0.0
 40
0.0
 40
0.0
 40
1.0
 40
1.0
 40
1.0
 40
1.0
 10
139.0076501059909
 20
319.5343115000865
 30
0.0
 10
139.1905820063325
 20
319.1574442768263
 30
0.0
 10
139.4725447098667
 20
318.8390327360061
 30
0.0
 10
139.8246542323286
 20
318.6148380010009
 30
0.0
  0
SPLINE
  5
4279
102
{ACAD_REACTORS
330
44FD
102
}
330
A
100
AcDbEntity
  8
HIDDEN
 48
0.25
100
AcDbSpline
210
0.0
220
0.0
230
1.0
 70
     8
 71
     3
 72
     8
 73
     4
 74
     0
 42
0.000000001
 43
0.0000000001
 40
0.0
 40
0.0
 40
0.0
 40
0.0
 40
1.0
 40
1.0
 40
1.0
 40
1.0
 10
140.0130878439588
 20
318.5075546308759
 30
0.0
 10
140.028217550002
 20
318.4999897778541
 30
0.0
 10
140.0433472560453
 20
318.4931126387434
 30
0.0
 10
140.0571015342665
 20
318.486235499633
 30
0.0
  0
SPLINE
  5
427A
102
{ACAD_REACTORS
330
44FD
102
}
330
A
100
AcDbEntity
  8
HIDDEN
 48
0.25
100
AcDbSpline
210
0.0
220
0.0
230
1.0
 70
     8
 71
     3
 72
     8
 73
     4
 74
     0
 42
0.000000001
 43
0.0000000001
 40
0.0
 40
0.0
 40
0.0
 40
0.0
 40
1.0
 40
1.0
 40
1.0
 40
1.0
 10
140.8122114086089
 20
318.2744196150268
 30
0.0
 10
140.8851090831812
 20
318.2668547620054
 30
0.0
 10
140.9580067577534
 20
318.2627284785389
 30
0.0
 10
141.0322798601478
 20
318.2627284785389
 30
0.0
  0
SPLINE
  5
427B
102
{ACAD_REACTORS
330
44FD
102
}
330
A
100
AcDbEntity
  8
HIDDEN
 48
0.25
100
AcDbSpline
210
0.0
220
0.0
230
1.0
 70
     8
 71
     3
 72
     8
 73
     4
 74
     0
 42
0.000000001
 43
0.0000000001
 40
0.0
 40
0.0
 40
0.0
 40
0.0
 40
1.0
 40
1.0
 40
1.0
 40
1.0
 10
140.0571015342665
 20
318.485547785722
 30
0.0
 10
140.0681049568433
 20
318.4800460744333
 30
0.0
 10
140.0818592350647
 20
318.4745443631448
 30
0.0
 10
140.0928626576415
 20
318.4690426518566
 30
0.0
  0
SPLINE
  5
427C
102
{ACAD_REACTORS
330
44FD
102
}
330
A
100
AcDbEntity
  8
HIDDEN
 48
0.25
100
AcDbSpline
210
0.0
220
0.0
230
1.0
 70
     8
 71
     3
 72
     8
 73
     4
 74
     0
 42
0.000000001
 43
0.0000000001
 40
0.0
 40
0.0
 40
0.0
 40
0.0
 40
1.0
 40
1.0
 40
1.0
 40
1.0
 10
140.0928626576415
 20
318.4690426518566
 30
0.0
 10
140.0969889411079
 20
318.4676672240344
 30
0.0
 10
140.0997397967521
 20
318.4662917962123
 30
0.0
 10
140.1038660802184
 20
318.4635409405681
 30
0.0
  0
SPLINE
  5
427D
102
{ACAD_REACTORS
330
44FD
102
}
330
A
100
AcDbEntity
  8
HIDDEN
 48
0.25
100
AcDbSpline
210
0.0
220
0.0
230
1.0
 70
     8
 71
     3
 72
     8
 73
     4
 74
     0
 42
0.000000001
 43
0.0000000001
 40
0.0
 40
0.0
 40
0.0
 40
0.0
 40
1.0
 40
1.0
 40
1.0
 40
1.0
 10
145.5574373949141
 20
318.5144317699863
 30
0.0
 10
145.615205363443
 20
318.544003468162
 30
0.0
 10
145.6688470485056
 20
318.5763260219816
 30
0.0
 10
145.7238641613903
 20
318.6100240036234
 30
0.0
  0
SPLINE
  5
427E
102
{ACAD_REACTORS
330
44FD
102
}
330
A
100
AcDbEntity
  8
HIDDEN
 48
0.25
100
AcDbSpline
210
0.0
220
0.0
230
1.0
 70
     8
 71
     3
 72
     8
 73
     4
 74
     0
 42
0.000000001
 43
0.0000000001
 40
0.0
 40
0.0
 40
0.0
 40
0.0
 40
1.0
 40
1.0
 40
1.0
 40
1.0
 10
144.5244911005039
 20
322.7541880316633
 30
0.0
 10
145.2974815365339
 20
322.7541880316633
 30
0.0
 10
146.0154548596792
 20
322.3573771049824
 30
0.0
 10
146.4267077784922
 20
321.7040488894766
 30
0.0
  0
SPLINE
  5
427F
102
{ACAD_REACTORS
330
44FD
102
}
330
A
100
AcDbEntity
  8
HIDDEN
 48
0.25
100
AcDbSpline
210
0.0
220
0.0
230
1.0
 70
     8
 71
     3
 72
     8
 73
     4
 74
     0
 42
0.000000001
 43
0.0000000001
 40
0.0
 40
0.0
 40
0.0
 40
0.0
 40
1.0
 40
1.0
 40
1.0
 40
1.0
 10
146.4267077784922
 20
321.7040488894766
 30
0.0
 10
146.8379606973054
 20
321.0500329600598
 30
0.0
 10
146.8833498154353
 20
320.2302779780778
 30
0.0
 10
146.5477454268386
 20
319.5349992139975
 30
0.0
  0
SPLINE
  5
4280
102
{ACAD_REACTORS
330
44FD
102
}
330
A
100
AcDbEntity
  8
HIDDEN
 48
0.25
100
AcDbSpline
210
0.0
220
0.0
230
1.0
 70
     8
 71
     3
 72
     8
 73
     4
 74
     0
 42
0.000000001
 43
0.0000000001
 40
0.0
 40
0.0
 40
0.0
 40
0.0
 40
1.0
 40
1.0
 40
1.0
 40
1.0
 10
145.7252395892123
 20
318.6107117175346
 30
0.0
 10
146.0814753951408
 20
318.8362818803618
 30
0.0
 10
146.3661889543191
 20
319.1560688490042
 30
0.0
 10
146.5491208546607
 20
319.5349992139975
 30
0.0
  0
SPLINE
  5
4281
102
{ACAD_REACTORS
330
44FD
102
}
330
A
100
AcDbEntity
  8
HIDDEN
 48
0.25
100
AcDbSpline
210
0.0
220
0.0
230
1.0
 70
     8
 71
     3
 72
     8
 73
     4
 74
     0
 42
0.000000001
 43
0.0000000001
 40
0.0
 40
0.0
 40
0.0
 40
0.0
 40
1.0
 40
1.0
 40
1.0
 40
1.0
 10
145.4996694263852
 20
318.485547785722
 30
0.0
 10
145.5189254158948
 20
318.4958634943877
 30
0.0
 10
145.5368059775823
 20
318.5041160613205
 30
0.0
 10
145.5574373949141
 20
318.5137440560753
 30
0.0
  0
SPLINE
  5
4282
102
{ACAD_REACTORS
330
44FD
102
}
330
A
100
AcDbEntity
  8
HIDDEN
 48
0.25
100
AcDbSpline
210
0.0
220
0.0
230
1.0
 70
     8
 71
     3
 72
     8
 73
     4
 74
     0
 42
0.000000001
 43
0.0000000001
 40
0.0
 40
0.0
 40
0.0
 40
0.0
 40
1.0
 40
1.0
 40
1.0
 40
1.0
 10
144.5244911005039
 20
318.2634161924499
 30
0.0
 10
144.607016769831
 20
318.2634161924499
 30
0.0
 10
144.6895424391579
 20
318.2675424759164
 30
0.0
 10
144.772068108485
 20
318.2771704706711
 30
0.0
  0
SPLINE
  5
4283
102
{ACAD_REACTORS
330
44FD
102
}
330
A
100
AcDbEntity
  8
HIDDEN
 48
0.25
100
AcDbSpline
210
0.0
220
0.0
230
1.0
 70
     8
 71
     3
 72
     8
 73
     4
 74
     0
 42
0.000000001
 43
0.0000000001
 40
0.0
 40
0.0
 40
0.0
 40
0.0
 40
1.0
 40
1.0
 40
1.0
 40
1.0
 10
145.4639083030101
 20
318.4690426518566
 30
0.0
 10
145.474911725587
 20
318.4745443631448
 30
0.0
 10
145.4872905759862
 20
318.4800460744333
 30
0.0
 10
145.4996694263852
 20
318.486235499633
 30
0.0
  0
SPLINE
  5
4284
102
{ACAD_REACTORS
330
44FD
102
}
330
A
100
AcDbEntity
  8
HIDDEN
 48
0.25
100
AcDbSpline
210
0.0
220
0.0
230
1.0
 70
     8
 71
     3
 72
     8
 73
     4
 74
     0
 42
0.000000001
 43
0.0000000001
 40
0.0
 40
0.0
 40
0.0
 40
0.0
 40
1.0
 40
1.0
 40
1.0
 40
1.0
 10
145.4529048804331
 20
318.4642286544791
 30
0.0
 10
145.4570311638994
 20
318.4656040823012
 30
0.0
 10
145.4597820195438
 20
318.4669795101234
 30
0.0
 10
145.4639083030101
 20
318.4683549379454
 30
0.0
  0
POLYLINE
  5
4285
102
{ACAD_REACTORS
330
44FD
102
}
330
A
100
AcDbEntity
  8
HIDDEN
 48
0.25
100
AcDb2dPolyline
 66
     1
 10
0.0
 20
0.0
 30
0.0
  0
VERTEX
  5
4286
330
4285
100
AcDbEntity
  8
HIDDEN
 48
0.25
100
AcDbVertex
100
AcDb2dVertex
 10
163.7846068936141
 20
339.4732009234116
 30
0.0
  0
VERTEX
  5
4287
330
4285
100
AcDbEntity
  8
HIDDEN
 48
0.25
100
AcDbVertex
100
AcDb2dVertex
 10
164.2082386628263
 20
339.4663237843011
 30
0.0
  0
VERTEX
  5
4288
330
4285
100
AcDbEntity
  8
HIDDEN
 48
0.25
100
AcDbVertex
100
AcDb2dVertex
 10
164.7474063690964
 20
339.4333135165704
 30
0.0
  0
VERTEX
  5
4289
330
4285
100
AcDbEntity
  8
HIDDEN
 48
0.25
100
AcDbVertex
100
AcDb2dVertex
 10
165.2810723640779
 20
339.3789841175968
 30
0.0
  0
VERTEX
  5
428A
330
4285
100
AcDbEntity
  8
HIDDEN
 48
0.25
100
AcDbVertex
100
AcDb2dVertex
 10
165.8037349364826
 20
339.2985215900028
 30
0.0
  0
VERTEX
  5
428B
330
4285
100
AcDbEntity
  8
HIDDEN
 48
0.25
100
AcDbVertex
100
AcDb2dVertex
 10
166.323646653243
 20
339.1939890755218
 30
0.0
  0
VERTEX
  5
428C
330
4285
100
AcDbEntity
  8
HIDDEN
 48
0.25
100
AcDbVertex
100
AcDb2dVertex
 10
166.839432086537
 20
339.0646988602429
 30
0.0
  0
VERTEX
  5
428D
330
4285
100
AcDbEntity
  8
HIDDEN
 48
0.25
100
AcDbVertex
100
AcDb2dVertex
 10
167.355217519831
 20
338.9099632302547
 30
0.0
  0
VERTEX
  5
428E
330
4285
100
AcDbEntity
  8
HIDDEN
 48
0.25
100
AcDbVertex
100
AcDb2dVertex
 10
167.7595932995336
 20
338.7703573063097
 30
0.0
  0
VERTEX
  5
428F
330
4285
100
AcDbEntity
  8
HIDDEN
 48
0.25
100
AcDbVertex
100
AcDb2dVertex
 10
168.2671261658949
 20
338.5702325581917
 30
0.0
  0
VERTEX
  5
4290
330
4285
100
AcDbEntity
  8
HIDDEN
 48
0.25
100
AcDbVertex
100
AcDb2dVertex
 10
168.7760344600783
 20
338.3432869675423
 30
0.0
  0
VERTEX
  5
4291
330
4285
100
AcDbEntity
  8
HIDDEN
 48
0.25
100
AcDbVertex
100
AcDb2dVertex
 10
169.2918198933723
 20
338.0874573926284
 30
0.0
  0
VERTEX
  5
4292
330
4285
100
AcDbEntity
  8
HIDDEN
 48
0.25
100
AcDbVertex
100
AcDb2dVertex
 10
169.6012911533487
 20
337.9210306261522
 30
0.0
  0
VERTEX
  5
4293
330
4285
100
AcDbEntity
  8
HIDDEN
 48
0.25
100
AcDbVertex
100
AcDb2dVertex
 10
170.119827442287
 20
337.6184365052864
 30
0.0
  0
VERTEX
  5
4294
330
4285
100
AcDbEntity
  8
HIDDEN
 48
0.25
100
AcDbVertex
100
AcDb2dVertex
 10
170.646616298158
 20
337.2814566888675
 30
0.0
  0
VERTEX
  5
4295
330
4285
100
AcDbEntity
  8
HIDDEN
 48
0.25
100
AcDbVertex
100
AcDb2dVertex
 10
171.1871594322501
 20
336.9094034629848
 30
0.0
  0
VERTEX
  5
4296
330
4285
100
AcDbEntity
  8
HIDDEN
 48
0.25
100
AcDbVertex
100
AcDb2dVertex
 10
171.3054462249523
 20
336.8234392241026
 30
0.0
  0
VERTEX
  5
4297
330
4285
100
AcDbEntity
  8
HIDDEN
 48
0.25
100
AcDbVertex
100
AcDb2dVertex
 10
171.8597436372656
 20
336.4025583105345
 30
0.0
  0
VERTEX
  5
4298
330
4285
100
AcDbEntity
  8
HIDDEN
 48
0.25
100
AcDbVertex
100
AcDb2dVertex
 10
172.4360478947328
 20
335.9362882788367
 30
0.0
  0
VERTEX
  5
4299
330
4285
100
AcDbEntity
  8
HIDDEN
 48
0.25
100
AcDbVertex
100
AcDb2dVertex
 10
172.8858127925652
 20
335.5532316303771
 30
0.0
  0
VERTEX
  5
429A
330
4285
100
AcDbEntity
  8
HIDDEN
 48
0.25
100
AcDbVertex
100
AcDb2dVertex
 10
173.5253867298498
 20
334.977615086821
 30
0.0
  0
VERTEX
  5
429B
330
4285
100
AcDbEntity
  8
HIDDEN
 48
0.25
100
AcDbVertex
100
AcDb2dVertex
 10
174.2268549191296
 20
334.3167220182934
 30
0.0
  0
VERTEX
  5
429C
330
4285
100
AcDbEntity
  8
HIDDEN
 48
0.25
100
AcDbVertex
100
AcDb2dVertex
 10
174.3726502682741
 20
334.1757406665266
 30
0.0
  0
VERTEX
  5
429D
330
4285
100
AcDbEntity
  8
HIDDEN
 48
0.25
100
AcDbVertex
100
AcDb2dVertex
 10
175.2144120954098
 20
333.3449822619675
 30
0.0
  0
VERTEX
  5
429E
330
4285
100
AcDbEntity
  8
HIDDEN
 48
0.25
100
AcDbVertex
100
AcDb2dVertex
 10
175.8072214867427
 20
332.7446080176132
 30
0.0
  0
VERTEX
  5
429F
330
4285
100
AcDbEntity
  8
HIDDEN
 48
0.25
100
AcDbVertex
100
AcDb2dVertex
 10
177.1730213141051
 20
331.3423593529645
 30
0.0
  0
VERTEX
  5
42A0
330
4285
100
AcDbEntity
  8
HIDDEN
 48
0.25
100
AcDbVertex
100
AcDb2dVertex
 10
177.2211612878794
 20
331.2914685235461
 30
0.0
  0
VERTEX
  5
42A1
330
4285
100
AcDbEntity
  8
HIDDEN
 48
0.25
100
AcDbVertex
100
AcDb2dVertex
 10
177.5320079756779
 20
330.973056982726
 30
0.0
  0
VERTEX
  5
42A2
330
4285
100
AcDbEntity
  8
HIDDEN
 48
0.25
100
AcDbVertex
100
AcDb2dVertex
 10
178.5429474249342
 20
329.9421738300491
 30
0.0
  0
VERTEX
  5
42A3
330
4285
100
AcDbEntity
  8
HIDDEN
 48
0.25
100
AcDbVertex
100
AcDb2dVertex
 10
179.3654532625605
 20
329.1292959871776
 30
0.0
  0
VERTEX
  5
42A4
330
4285
100
AcDbEntity
  8
HIDDEN
 48
0.25
100
AcDbVertex
100
AcDb2dVertex
 10
180.0958054361046
 20
328.4340172230971
 30
0.0
  0
VERTEX
  5
42A5
330
4285
100
AcDbEntity
  8
HIDDEN
 48
0.25
100
AcDbVertex
100
AcDb2dVertex
 10
180.3626384335955
 20
328.1885033568494
 30
0.0
  0
VERTEX
  5
42A6
330
4285
100
AcDbEntity
  8
HIDDEN
 48
0.25
100
AcDbVertex
100
AcDb2dVertex
 10
181.0104649378129
 20
327.6142622411152
 30
0.0
  0
VERTEX
  5
42A7
330
4285
100
AcDbEntity
  8
HIDDEN
 48
0.25
100
AcDbVertex
100
AcDb2dVertex
 10
181.6225303186552
 20
327.0998522356434
 30
0.0
  0
VERTEX
  5
42A8
330
4285
100
AcDbEntity
  8
HIDDEN
 48
0.25
100
AcDbVertex
100
AcDb2dVertex
 10
182.1314386128385
 20
326.696851883763
 30
0.0
  0
VERTEX
  5
42A9
330
4285
100
AcDbEntity
  8
HIDDEN
 48
0.25
100
AcDbVertex
100
AcDb2dVertex
 10
182.698114875551
 20
326.2745955423729
 30
0.0
  0
VERTEX
  5
42AA
330
4285
100
AcDbEntity
  8
HIDDEN
 48
0.25
100
AcDbVertex
100
AcDb2dVertex
 10
183.2510368600421
 20
325.8929143217354
 30
0.0
  0
VERTEX
  5
42AB
330
4285
100
AcDbEntity
  8
HIDDEN
 48
0.25
100
AcDbVertex
100
AcDb2dVertex
 10
183.3940813535424
 20
325.7986975159203
 30
0.0
  0
VERTEX
  5
42AC
330
4285
100
AcDbEntity
  8
HIDDEN
 48
0.25
100
AcDbVertex
100
AcDb2dVertex
 10
183.9359999154566
 20
325.4589668438572
 30
0.0
  0
VERTEX
  5
42AD
330
4285
100
AcDbEntity
  8
HIDDEN
 48
0.25
100
AcDbVertex
100
AcDb2dVertex
 10
184.4724167660824
 20
325.152246439525
 30
0.0
  0
VERTEX
  5
42AE
330
4285
100
AcDbEntity
  8
HIDDEN
 48
0.25
100
AcDbVertex
100
AcDb2dVertex
 10
185.0033319054198
 20
324.8757854472794
 30
0.0
  0
VERTEX
  5
42AF
330
4285
100
AcDbEntity
  8
HIDDEN
 48
0.25
100
AcDbVertex
100
AcDb2dVertex
 10
185.2770420420212
 20
324.7437443763561
 30
0.0
  0
VERTEX
  5
42B0
330
4285
100
AcDbEntity
  8
HIDDEN
 48
0.25
100
AcDbVertex
100
AcDb2dVertex
 10
185.8107080370026
 20
324.507170790952
 30
0.0
  0
VERTEX
  5
42B1
330
4285
100
AcDbEntity
  8
HIDDEN
 48
0.25
100
AcDbVertex
100
AcDb2dVertex
 10
186.3457494598063
 20
324.297418048079
 30
0.0
  0
VERTEX
  5
42B2
330
4285
100
AcDbEntity
  8
HIDDEN
 48
0.25
100
AcDbVertex
100
AcDb2dVertex
 10
186.88079088261
 20
324.1137984338264
 30
0.0
  0
VERTEX
  5
42B3
330
4285
100
AcDbEntity
  8
HIDDEN
 48
0.25
100
AcDbVertex
100
AcDb2dVertex
 10
187.4227094445243
 20
323.9535610925498
 30
0.0
  0
VERTEX
  5
42B4
330
4285
100
AcDbEntity
  8
HIDDEN
 48
0.25
100
AcDbVertex
100
AcDb2dVertex
 10
187.9728805733711
 20
323.8180814520712
 30
0.0
  0
VERTEX
  5
42B5
330
4285
100
AcDbEntity
  8
HIDDEN
 48
0.25
100
AcDbVertex
100
AcDb2dVertex
 10
188.2933552559246
 20
323.7506854887875
 30
0.0
  0
VERTEX
  5
42B6
330
4285
100
AcDbEntity
  8
HIDDEN
 48
0.25
100
AcDbVertex
100
AcDb2dVertex
 10
188.8531543795263
 20
323.652342399506
 30
0.0
  0
VERTEX
  5
42B7
330
4285
100
AcDbEntity
  8
HIDDEN
 48
0.25
100
AcDbVertex
100
AcDb2dVertex
 10
189.4143289309504
 20
323.5801324388449
 30
0.0
  0
VERTEX
  5
42B8
330
4285
100
AcDbEntity
  8
HIDDEN
 48
0.25
100
AcDbVertex
100
AcDb2dVertex
 10
189.9892577605953
 20
323.5306170372485
 30
0.0
  0
VERTEX
  5
42B9
330
4285
100
AcDbEntity
  8
HIDDEN
 48
0.25
100
AcDbVertex
100
AcDb2dVertex
 10
190.5738145849953
 20
323.5072347642725
 30
0.0
  0
VERTEX
  5
42BA
330
4285
100
AcDbEntity
  8
HIDDEN
 48
0.25
100
AcDbVertex
100
AcDb2dVertex
 10
190.8736578502169
 20
323.5024207668952
 30
0.0
  0
SEQEND
  5
42BB
330
4285
100
AcDbEntity
  8
HIDDEN
 48
0.25
  0
POLYLINE
  5
42BC
102
{ACAD_REACTORS
330
44FD
102
}
330
A
100
AcDbEntity
  8
HIDDEN
 48
0.25
100
AcDb2dPolyline
 66
     1
 10
0.0
 20
0.0
 30
0.0
  0
VERTEX
  5
42BD
330
42BC
100
AcDbEntity
  8
HIDDEN
 48
0.25
100
AcDbVertex
100
AcDb2dVertex
 10
54.75856971783224
 20
323.5031084808064
 30
0.0
  0
VERTEX
  5
42BE
330
42BC
100
AcDbEntity
  8
HIDDEN
 48
0.25
100
AcDbVertex
100
AcDb2dVertex
 10
55.05566212740956
 20
323.5058593364506
 30
0.0
  0
VERTEX
  5
42BF
330
42BC
100
AcDbEntity
  8
HIDDEN
 48
0.25
100
AcDbVertex
100
AcDb2dVertex
 10
55.64159437963156
 20
323.5313047511597
 30
0.0
  0
VERTEX
  5
42C0
330
42BC
100
AcDbEntity
  8
HIDDEN
 48
0.25
100
AcDbVertex
100
AcDb2dVertex
 10
56.21652320927672
 20
323.5794447249338
 30
0.0
  0
VERTEX
  5
42C1
330
42BC
100
AcDbEntity
  8
HIDDEN
 48
0.25
100
AcDbVertex
100
AcDb2dVertex
 10
56.78044861634481
 20
323.652342399506
 30
0.0
  0
VERTEX
  5
42C2
330
42BC
100
AcDbEntity
  8
HIDDEN
 48
0.25
100
AcDbVertex
100
AcDb2dVertex
 10
57.10367415454238
 20
323.7059840845686
 30
0.0
  0
VERTEX
  5
42C3
330
42BC
100
AcDbEntity
  8
HIDDEN
 48
0.25
100
AcDbVertex
100
AcDb2dVertex
 10
57.6607224225001
 20
323.8173937381601
 30
0.0
  0
VERTEX
  5
42C4
330
42BC
100
AcDbEntity
  8
HIDDEN
 48
0.25
100
AcDbVertex
100
AcDb2dVertex
 10
58.20951812352479
 20
323.9528733786387
 30
0.0
  0
VERTEX
  5
42C5
330
42BC
100
AcDbEntity
  8
HIDDEN
 48
0.25
100
AcDbVertex
100
AcDb2dVertex
 10
58.75143668543916
 20
324.1117352920932
 30
0.0
  0
VERTEX
  5
42C6
330
42BC
100
AcDbEntity
  8
HIDDEN
 48
0.25
100
AcDbVertex
100
AcDb2dVertex
 10
59.28647810824276
 20
324.2960426202569
 30
0.0
  0
VERTEX
  5
42C7
330
42BC
100
AcDbEntity
  8
HIDDEN
 48
0.25
100
AcDbVertex
100
AcDb2dVertex
 10
59.82289495886863
 20
324.506483077041
 30
0.0
  0
VERTEX
  5
42C8
330
42BC
100
AcDbEntity
  8
HIDDEN
 48
0.25
100
AcDbVertex
100
AcDb2dVertex
 10
60.35656095385019
 20
324.7430566624451
 30
0.0
  0
VERTEX
  5
42C9
330
42BC
100
AcDbEntity
  8
HIDDEN
 48
0.25
100
AcDbVertex
100
AcDb2dVertex
 10
60.62889566262942
 20
324.8737223055462
 30
0.0
  0
VERTEX
  5
42CA
330
42BC
100
AcDbEntity
  8
HIDDEN
 48
0.25
100
AcDbVertex
100
AcDb2dVertex
 10
61.15981080196678
 20
325.149495583881
 30
0.0
  0
VERTEX
  5
42CB
330
42BC
100
AcDbEntity
  8
HIDDEN
 48
0.25
100
AcDbVertex
100
AcDb2dVertex
 10
61.69622765259254
 20
325.4569037021241
 30
0.0
  0
VERTEX
  5
42CC
330
42BC
100
AcDbEntity
  8
HIDDEN
 48
0.25
100
AcDbVertex
100
AcDb2dVertex
 10
62.2381462145068
 20
325.795946660276
 30
0.0
  0
VERTEX
  5
42CD
330
42BC
100
AcDbEntity
  8
HIDDEN
 48
0.25
100
AcDbVertex
100
AcDb2dVertex
 10
62.38256613582911
 20
325.8908511800021
 30
0.0
  0
VERTEX
  5
42CE
330
42BC
100
AcDbEntity
  8
HIDDEN
 48
0.25
100
AcDbVertex
100
AcDb2dVertex
 10
62.93411269249822
 20
326.2725324006396
 30
0.0
  0
VERTEX
  5
42CF
330
42BC
100
AcDbEntity
  8
HIDDEN
 48
0.25
100
AcDbVertex
100
AcDb2dVertex
 10
63.49941352738841
 20
326.6934133142077
 30
0.0
  0
VERTEX
  5
42D0
330
42BC
100
AcDbEntity
  8
HIDDEN
 48
0.25
100
AcDbVertex
100
AcDb2dVertex
 10
64.00969724939404
 20
327.0991645217322
 30
0.0
  0
VERTEX
  5
42D1
330
42BC
100
AcDbEntity
  8
HIDDEN
 48
0.25
100
AcDbVertex
100
AcDb2dVertex
 10
64.61626091894783
 20
327.6087605298268
 30
0.0
  0
VERTEX
  5
42D2
330
42BC
100
AcDbEntity
  8
HIDDEN
 48
0.25
100
AcDbVertex
100
AcDb2dVertex
 10
65.26271199534307
 20
328.1836893594719
 30
0.0
  0
VERTEX
  5
42D3
330
42BC
100
AcDbEntity
  8
HIDDEN
 48
0.25
100
AcDbVertex
100
AcDb2dVertex
 10
65.5350467041223
 20
328.4340172230971
 30
0.0
  0
VERTEX
  5
42D4
330
42BC
100
AcDbEntity
  8
HIDDEN
 48
0.25
100
AcDbVertex
100
AcDb2dVertex
 10
66.28190401153205
 20
329.1444256932209
 30
0.0
  0
VERTEX
  5
42D5
330
42BC
100
AcDbEntity
  8
HIDDEN
 48
0.25
100
AcDbVertex
100
AcDb2dVertex
 10
67.11816412737943
 20
329.9724332421357
 30
0.0
  0
VERTEX
  5
42D6
330
42BC
100
AcDbEntity
  8
HIDDEN
 48
0.25
100
AcDbVertex
100
AcDb2dVertex
 10
68.13735614356841
 20
331.0101935339231
 30
0.0
  0
VERTEX
  5
42D7
330
42BC
100
AcDbEntity
  8
HIDDEN
 48
0.25
100
AcDbVertex
100
AcDb2dVertex
 10
68.40969085234764
 20
331.2921562374572
 30
0.0
  0
VERTEX
  5
42D8
330
42BC
100
AcDbEntity
  8
HIDDEN
 48
0.25
100
AcDbVertex
100
AcDb2dVertex
 10
68.60775245873259
 20
331.4964072690416
 30
0.0
  0
VERTEX
  5
42D9
330
42BC
100
AcDbEntity
  8
HIDDEN
 48
0.25
100
AcDbVertex
100
AcDb2dVertex
 10
69.82363065348437
 20
332.7452957315242
 30
0.0
  0
VERTEX
  5
42DA
330
42BC
100
AcDbEntity
  8
HIDDEN
 48
0.25
100
AcDbVertex
100
AcDb2dVertex
 10
70.41368918917277
 20
333.3415436924121
 30
0.0
  0
VERTEX
  5
42DB
330
42BC
100
AcDbEntity
  8
HIDDEN
 48
0.25
100
AcDbVertex
100
AcDb2dVertex
 10
71.26095272759716
 20
334.1750529526154
 30
0.0
  0
VERTEX
  5
42DC
330
42BC
100
AcDbEntity
  8
HIDDEN
 48
0.25
100
AcDbVertex
100
AcDb2dVertex
 10
71.37923952029922
 20
334.289213461851
 30
0.0
  0
VERTEX
  5
42DD
330
42BC
100
AcDbEntity
  8
HIDDEN
 48
0.25
100
AcDbVertex
100
AcDb2dVertex
 10
72.09446198780023
 20
334.9624853807775
 30
0.0
  0
VERTEX
  5
42DE
330
42BC
100
AcDbEntity
  8
HIDDEN
 48
0.25
100
AcDbVertex
100
AcDb2dVertex
 10
72.7505410589502
 20
335.5497930608217
 30
0.0
  0
VERTEX
  5
42DF
330
42BC
100
AcDbEntity
  8
HIDDEN
 48
0.25
100
AcDbVertex
100
AcDb2dVertex
 10
73.19067796202779
 20
335.9273479979931
 30
0.0
  0
VERTEX
  5
42E0
330
42BC
100
AcDbEntity
  8
HIDDEN
 48
0.25
100
AcDbVertex
100
AcDb2dVertex
 10
73.77248393078361
 20
336.3991197409792
 30
0.0
  0
VERTEX
  5
42E1
330
42BC
100
AcDbEntity
  8
HIDDEN
 48
0.25
100
AcDbVertex
100
AcDb2dVertex
 10
74.3295321987411
 20
336.8213760823693
 30
0.0
  0
VERTEX
  5
42E2
330
42BC
100
AcDbEntity
  8
HIDDEN
 48
0.25
100
AcDbVertex
100
AcDb2dVertex
 10
74.45332070273167
 20
336.9100911768959
 30
0.0
  0
VERTEX
  5
42E3
330
42BC
100
AcDbEntity
  8
HIDDEN
 48
0.25
100
AcDbVertex
100
AcDb2dVertex
 10
74.98973755335754
 20
337.2835198306008
 30
0.0
  0
VERTEX
  5
42E4
330
42BC
100
AcDbEntity
  8
HIDDEN
 48
0.25
100
AcDbVertex
100
AcDb2dVertex
 10
75.5151509814063
 20
337.6184365052864
 30
0.0
  0
VERTEX
  5
42E5
330
42BC
100
AcDbEntity
  8
HIDDEN
 48
0.25
100
AcDbVertex
100
AcDb2dVertex
 10
76.03231184252246
 20
337.9217183400634
 30
0.0
  0
VERTEX
  5
42E6
330
42BC
100
AcDbEntity
  8
HIDDEN
 48
0.25
100
AcDbVertex
100
AcDb2dVertex
 10
76.34453395814302
 20
338.0902082482727
 30
0.0
  0
VERTEX
  5
42E7
330
42BC
100
AcDbEntity
  8
HIDDEN
 48
0.25
100
AcDbVertex
100
AcDb2dVertex
 10
76.85756853579295
 20
338.3453501092754
 30
0.0
  0
VERTEX
  5
42E8
330
42BC
100
AcDbEntity
  8
HIDDEN
 48
0.25
100
AcDbVertex
100
AcDb2dVertex
 10
77.3664768299763
 20
338.5722956999248
 30
0.0
  0
VERTEX
  5
42E9
330
42BC
100
AcDbEntity
  8
HIDDEN
 48
0.25
100
AcDbVertex
100
AcDb2dVertex
 10
77.87125884069343
 20
338.7710450202207
 30
0.0
  0
VERTEX
  5
42EA
330
42BC
100
AcDbEntity
  8
HIDDEN
 48
0.25
100
AcDbVertex
100
AcDb2dVertex
 10
78.27701004821819
 20
338.9099632302547
 30
0.0
  0
VERTEX
  5
42EB
330
42BC
100
AcDbEntity
  8
HIDDEN
 48
0.25
100
AcDbVertex
100
AcDb2dVertex
 10
78.79142005369005
 20
339.0653865741538
 30
0.0
  0
VERTEX
  5
42EC
330
42BC
100
AcDbEntity
  8
HIDDEN
 48
0.25
100
AcDbVertex
100
AcDb2dVertex
 10
79.30995634262825
 20
339.1946767894328
 30
0.0
  0
VERTEX
  5
42ED
330
42BC
100
AcDbEntity
  8
HIDDEN
 48
0.25
100
AcDbVertex
100
AcDb2dVertex
 10
79.82849263156658
 20
339.2992093039139
 30
0.0
  0
VERTEX
  5
42EE
330
42BC
100
AcDbEntity
  8
HIDDEN
 48
0.25
100
AcDbVertex
100
AcDb2dVertex
 10
80.35115520397113
 20
339.3776086897746
 30
0.0
  0
VERTEX
  5
42EF
330
42BC
100
AcDbEntity
  8
HIDDEN
 48
0.25
100
AcDbVertex
100
AcDb2dVertex
 10
80.88619662677485
 20
339.4340012304814
 30
0.0
  0
VERTEX
  5
42F0
330
42BC
100
AcDbEntity
  8
HIDDEN
 48
0.25
100
AcDbVertex
100
AcDb2dVertex
 10
81.42673976086706
 20
339.4649483564791
 30
0.0
  0
VERTEX
  5
42F1
330
42BC
100
AcDbEntity
  8
HIDDEN
 48
0.25
100
AcDbVertex
100
AcDb2dVertex
 10
81.84762067443495
 20
339.4738886373227
 30
0.0
  0
SEQEND
  5
42F2
330
42BC
100
AcDbEntity
  8
HIDDEN
 48
0.25
  0
SPLINE
  5
42F3
330
A
100
AcDbEntity
  8
MODEL
100
AcDbSpline
210
0.0
220
0.0
230
1.0
 70
     8
 71
     3
 72
     8
 73
     4
 74
     0
 42
0.000000001
 43
0.0000000001
 40
0.0
 40
0.0
 40
0.0
 40
0.0
 40
1.0
 40
1.0
 40
1.0
 40
1.0
 10
83.3922261186728
 20
311.9529533445752
 30
0.0
 10
83.3784718404516
 20
311.9529533445752
 30
0.0
 10
83.36334213440836
 20
311.9529533445752
 30
0.0
 10
83.34958785618716
 20
311.951577916753
 30
0.0
  0
SPLINE
  5
42F4
330
A
100
AcDbEntity
  8
MODEL
100
AcDbSpline
210
0.0
220
0.0
230
1.0
 70
     8
 71
     3
 72
     8
 73
     4
 74
     0
 42
0.000000001
 43
0.0000000001
 40
0.0
 40
0.0
 40
0.0
 40
0.0
 40
1.0
 40
1.0
 40
1.0
 40
1.0
 10
83.34958785618716
 20
311.951577916753
 30
0.0
 10
83.33583357796596
 20
311.9502024889309
 30
0.0
 10
83.32207929974487
 20
311.9502024889309
 30
0.0
 10
83.30832502152356
 20
311.9474516332867
 30
0.0
  0
POLYLINE
  5
42F5
330
A
100
AcDbEntity
  8
MODEL
100
AcDb2dPolyline
 66
     1
 10
0.0
 20
0.0
 30
0.0
  0
VERTEX
  5
42F6
330
42F5
100
AcDbEntity
  8
MODEL
100
AcDbVertex
100
AcDb2dVertex
 10
83.30832502152356
 20
311.9474516332867
 30
0.0
  0
VERTEX
  5
42F7
330
42F5
100
AcDbEntity
  8
MODEL
100
AcDbVertex
100
AcDb2dVertex
 10
83.29732159894667
 20
311.9460762054647
 30
0.0
  0
VERTEX
  5
42F8
330
42F5
100
AcDbEntity
  8
MODEL
100
AcDbVertex
100
AcDb2dVertex
 10
83.27393932597073
 20
311.9419499219983
 30
0.0
  0
VERTEX
  5
42F9
330
42F5
100
AcDbEntity
  8
MODEL
100
AcDbVertex
100
AcDb2dVertex
 10
83.25055705299468
 20
311.9378236385319
 30
0.0
  0
VERTEX
  5
42FA
330
42F5
100
AcDbEntity
  8
MODEL
100
AcDbVertex
100
AcDb2dVertex
 10
83.2285502078409
 20
311.9323219272433
 30
0.0
  0
VERTEX
  5
42FB
330
42F5
100
AcDbEntity
  8
MODEL
100
AcDbVertex
100
AcDb2dVertex
 10
83.2092942183312
 20
311.926820215955
 30
0.0
  0
VERTEX
  5
42FC
330
42F5
100
AcDbEntity
  8
MODEL
100
AcDbVertex
100
AcDb2dVertex
 10
83.1872873731773
 20
311.9185676490222
 30
0.0
  0
VERTEX
  5
42FD
330
42F5
100
AcDbEntity
  8
MODEL
100
AcDbVertex
100
AcDb2dVertex
 10
83.1652805280234
 20
311.9075642264452
 30
0.0
  0
VERTEX
  5
42FE
330
42F5
100
AcDbEntity
  8
MODEL
100
AcDbVertex
100
AcDb2dVertex
 10
83.15152624980232
 20
311.9006870873347
 30
0.0
  0
VERTEX
  5
42FF
330
42F5
100
AcDbEntity
  8
MODEL
100
AcDbVertex
100
AcDb2dVertex
 10
83.13639654375896
 20
311.8896836647579
 30
0.0
  0
VERTEX
  5
4300
330
42F5
100
AcDbEntity
  8
MODEL
100
AcDbVertex
100
AcDb2dVertex
 10
83.12401769335992
 20
311.8800556700029
 30
0.0
  0
VERTEX
  5
4301
330
42F5
100
AcDbEntity
  8
MODEL
100
AcDbVertex
100
AcDb2dVertex
 10
83.11438969860507
 20
311.8690522474261
 30
0.0
  0
VERTEX
  5
4302
330
42F5
100
AcDbEntity
  8
MODEL
100
AcDbVertex
100
AcDb2dVertex
 10
83.10888798731656
 20
311.858048824849
 30
0.0
  0
VERTEX
  5
4303
330
42F5
100
AcDbEntity
  8
MODEL
100
AcDbVertex
100
AcDb2dVertex
 10
83.10476170385022
 20
311.84566997445
 30
0.0
  0
SEQEND
  5
4304
330
42F5
100
AcDbEntity
  8
MODEL
  0
POLYLINE
  5
4305
330
A
100
AcDbEntity
  8
MODEL
100
AcDb2dPolyline
 66
     1
 10
0.0
 20
0.0
 30
0.0
  0
VERTEX
  5
4306
330
4305
100
AcDbEntity
  8
MODEL
100
AcDbVertex
100
AcDb2dVertex
 10
288.5443477231115
 20
243.3754975616224
 30
0.0
  0
VERTEX
  5
4307
330
4305
100
AcDbEntity
  8
MODEL
100
AcDbVertex
100
AcDb2dVertex
 10
288.5443477231115
 20
320.2275271224335
 30
0.0
  0
SEQEND
  5
4308
330
4305
100
AcDbEntity
  8
MODEL
  0
POLYLINE
  5
4309
330
A
100
AcDbEntity
  8
MODEL
100
AcDb2dPolyline
 66
     1
 10
0.0
 20
0.0
 30
0.0
  0
VERTEX
  5
430A
330
4309
100
AcDbEntity
  8
MODEL
100
AcDbVertex
100
AcDb2dVertex
 10
306.5108736495204
 20
243.3754975616224
 30
0.0
  0
VERTEX
  5
430B
330
4309
100
AcDbEntity
  8
MODEL
100
AcDbVertex
100
AcDb2dVertex
 10
306.5108736495204
 20
320.2275271224335
 30
0.0
  0
SEQEND
  5
430C
330
4309
100
AcDbEntity
  8
MODEL
  0
SPLINE
  5
430D
102
{ACAD_REACTORS
330
44FD
102
}
330
A
100
AcDbEntity
  8
HIDDEN
 48
0.25
100
AcDbSpline
210
0.0
220
0.0
230
1.0
 70
    11
 71
     3
 72
    17
 73
    13
 74
     0
 42
0.000000001
 43
0.0000000001
 40
0.0
 40
0.0
 40
0.0
 40
0.0
 40
1.0
 40
1.0
 40
1.0
 40
2.0
 40
2.0
 40
2.0
 40
3.0
 40
3.0
 40
3.0
 40
4.0
 40
4.0
 40
4.0
 40
4.0
 10
90.85529748148195
 20
334.0340716008483
 30
0.0
 10
90.85529748148195
 20
335.1240981498765
 30
0.0
 10
89.97089739186043
 20
336.0084982394979
 30
0.0
 10
88.88018312892126
 20
336.0084982394979
 30
0.0
 10
87.7894688659822
 20
336.0084982394979
 30
0.0
 10
86.90506877636057
 20
335.1240981498765
 30
0.0
 10
86.90506877636057
 20
334.0340716008483
 30
0.0
 10
86.90506877636057
 20
332.9440450518204
 30
0.0
 10
87.7894688659822
 20
332.0596449621988
 30
0.0
 10
88.88018312892126
 20
332.0596449621988
 30
0.0
 10
89.97089739186043
 20
332.0596449621988
 30
0.0
 10
90.85529748148195
 20
332.9440450518204
 30
0.0
 10
90.85529748148195
 20
334.0340716008483
 30
0.0
  0
SPLINE
  5
430E
102
{ACAD_REACTORS
330
44FD
102
}
330
A
100
AcDbEntity
  8
HIDDEN
 48
0.25
100
AcDbSpline
210
0.0
220
0.0
230
1.0
 70
    11
 71
     3
 72
    17
 73
    13
 74
     0
 42
0.000000001
 43
0.0000000001
 40
0.0
 40
0.0
 40
0.0
 40
0.0
 40
1.0
 40
1.0
 40
1.0
 40
2.0
 40
2.0
 40
2.0
 40
3.0
 40
3.0
 40
3.0
 40
4.0
 40
4.0
 40
4.0
 40
4.0
 10
158.7257833638664
 20
334.0340716008483
 30
0.0
 10
158.7257833638664
 20
335.1240981498765
 30
0.0
 10
157.8413832742448
 20
336.0084982394979
 30
0.0
 10
156.7520444391277
 20
336.0084982394979
 30
0.0
 10
155.6613301761888
 20
336.0084982394979
 30
0.0
 10
154.7769300865671
 20
335.1240981498765
 30
0.0
 10
154.7769300865671
 20
334.0340716008483
 30
0.0
 10
154.7769300865671
 20
332.9440450518204
 30
0.0
 10
155.6613301761888
 20
332.0596449621988
 30
0.0
 10
156.7520444391277
 20
332.0596449621988
 30
0.0
 10
157.8413832742448
 20
332.0596449621988
 30
0.0
 10
158.7257833638664
 20
332.9440450518204
 30
0.0
 10
158.7257833638664
 20
334.0340716008483
 30
0.0
  0
POLYLINE
  5
430F
330
A
100
AcDbEntity
  8
MODEL
100
AcDb2dPolyline
 66
     1
 10
0.0
 20
0.0
 30
0.0
  0
VERTEX
  5
4310
330
430F
100
AcDbEntity
  8
MODEL
100
AcDbVertex
100
AcDb2dVertex
 10
43.4669950121592
 20
241.577813398115
 30
0.0
  0
VERTEX
  5
4311
330
430F
100
AcDbEntity
  8
MODEL
100
AcDbVertex
100
AcDb2dVertex
 10
43.4669950121592
 20
258.8449342769772
 30
0.0
  0
SEQEND
  5
4312
330
430F
100
AcDbEntity
  8
MODEL
  0
POLYLINE
  5
4313
330
A
100
AcDbEntity
  8
MODEL
100
AcDb2dPolyline
 66
     1
 10
0.0
 20
0.0
 30
0.0
  0
VERTEX
  5
4314
330
4313
100
AcDbEntity
  8
MODEL
100
AcDbVertex
100
AcDb2dVertex
 10
43.96558759767674
 20
234.89048332698
 30
0.0
  0
VERTEX
  5
4315
330
4313
100
AcDbEntity
  8
MODEL
100
AcDbVertex
100
AcDb2dVertex
 10
43.96558759767674
 20
243.1017874250211
 30
0.0
  0
SEQEND
  5
4316
330
4313
100
AcDbEntity
  8
MODEL
  0
POLYLINE
  5
4317
330
A
100
AcDbEntity
  8
MODEL
100
AcDb2dPolyline
 66
     1
 10
0.0
 20
0.0
 30
0.0
  0
VERTEX
  5
4318
330
4317
100
AcDbEntity
  8
MODEL
100
AcDbVertex
100
AcDb2dVertex
 10
43.96558759767674
 20
311.7452637434354
 30
0.0
  0
VERTEX
  5
4319
330
4317
100
AcDbEntity
  8
MODEL
100
AcDbVertex
100
AcDb2dVertex
 10
43.96558759767674
 20
323.5037961947174
 30
0.0
  0
SEQEND
  5
431A
330
4317
100
AcDbEntity
  8
MODEL
  0
POLYLINE
  5
431B
102
{ACAD_REACTORS
330
4517
102
}
330
A
100
AcDbEntity
  8
MODEL
100
AcDb2dPolyline
 66
     1
 10
0.0
 20
0.0
 30
0.0
  0
VERTEX
  5
431C
330
431B
100
AcDbEntity
  8
MODEL
100
AcDbVertex
100
AcDb2dVertex
 10
63.92717158006707
 20
258.8449342769772
 30
0.0
  0
VERTEX
  5
431D
330
431B
100
AcDbEntity
  8
MODEL
100
AcDbVertex
100
AcDb2dVertex
 10
63.92717158006707
 20
252.5564782742562
 30
0.0
  0
SEQEND
  5
431E
330
431B
100
AcDbEntity
  8
MODEL
  0
POLYLINE
  5
431F
102
{ACAD_REACTORS
330
44FD
102
}
330
A
100
AcDbEntity
  8
HIDDEN
 48
0.25
100
AcDb2dPolyline
 66
     1
 10
0.0
 20
0.0
 30
0.0
  0
VERTEX
  5
4320
330
431F
100
AcDbEntity
  8
HIDDEN
 48
0.25
100
AcDbVertex
100
AcDb2dVertex
 10
73.26082478095583
 20
315.5373182490133
 30
0.0
  0
VERTEX
  5
4321
330
431F
100
AcDbEntity
  8
HIDDEN
 48
0.25
100
AcDbVertex
100
AcDb2dVertex
 10
73.26082478095583
 20
323.5037961947174
 30
0.0
  0
SEQEND
  5
4322
330
431F
100
AcDbEntity
  8
HIDDEN
 48
0.25
  0
POLYLINE
  5
4323
330
A
100
AcDbEntity
  8
MODEL
100
AcDb2dPolyline
 66
     1
 10
0.0
 20
0.0
 30
0.0
  0
VERTEX
  5
4324
330
4323
100
AcDbEntity
  8
MODEL
100
AcDbVertex
100
AcDb2dVertex
 10
43.76615056346975
 20
241.3783763639081
 30
0.0
  0
VERTEX
  5
4325
330
4323
100
AcDbEntity
  8
MODEL
100
AcDbVertex
100
AcDb2dVertex
 10
43.6664320463662
 20
241.3783763639081
 30
0.0
  0
SEQEND
  5
4326
330
4323
100
AcDbEntity
  8
MODEL
  0
POLYLINE
  5
4327
102
{ACAD_REACTORS
330
44FD
102
}
330
A
100
AcDbEntity
  8
HIDDEN
 48
0.25
100
AcDb2dPolyline
 66
     1
 10
0.0
 20
0.0
 30
0.0
  0
VERTEX
  5
4328
330
4327
100
AcDbEntity
  8
HIDDEN
 48
0.25
100
AcDbVertex
100
AcDb2dVertex
 10
83.04149202403295
 20
315.5373182490133
 30
0.0
  0
VERTEX
  5
4329
330
4327
100
AcDbEntity
  8
HIDDEN
 48
0.25
100
AcDbVertex
100
AcDb2dVertex
 10
83.04149202403295
 20
316.236035582649
 30
0.0
  0
SEQEND
  5
432A
330
4327
100
AcDbEntity
  8
HIDDEN
 48
0.25
  0
POLYLINE
  5
432B
102
{ACAD_REACTORS
330
44FD
102
}
330
A
100
AcDbEntity
  8
HIDDEN
 48
0.25
100
AcDb2dPolyline
 66
     1
 10
0.0
 20
0.0
 30
0.0
  0
VERTEX
  5
432C
330
432B
100
AcDbEntity
  8
HIDDEN
 48
0.25
100
AcDbVertex
100
AcDb2dVertex
 10
83.39085069085064
 20
315.138444180599
 30
0.0
  0
VERTEX
  5
432D
330
432B
100
AcDbEntity
  8
HIDDEN
 48
0.25
100
AcDbVertex
100
AcDb2dVertex
 10
83.42248553075939
 20
316.9423177693063
 30
0.0
  0
SEQEND
  5
432E
330
432B
100
AcDbEntity
  8
HIDDEN
 48
0.25
  0
POLYLINE
  5
432F
102
{ACAD_REACTORS
330
44FD
102
}
330
A
100
AcDbEntity
  8
HIDDEN
 48
0.25
100
AcDb2dPolyline
 66
     1
 10
0.0
 20
0.0
 30
0.0
  0
VERTEX
  5
4330
330
432F
100
AcDbEntity
  8
HIDDEN
 48
0.25
100
AcDbVertex
100
AcDb2dVertex
 10
83.39360154649484
 20
314.9500105689689
 30
0.0
  0
VERTEX
  5
4331
330
432F
100
AcDbEntity
  8
HIDDEN
 48
0.25
100
AcDbVertex
100
AcDb2dVertex
 10
83.39085069085064
 20
315.138444180599
 30
0.0
  0
SEQEND
  5
4332
330
432F
100
AcDbEntity
  8
HIDDEN
 48
0.25
  0
POLYLINE
  5
4333
330
A
100
AcDbEntity
  8
MODEL
100
AcDb2dPolyline
 66
     1
 10
0.0
 20
0.0
 30
0.0
  0
VERTEX
  5
4334
330
4333
100
AcDbEntity
  8
MODEL
100
AcDbVertex
100
AcDb2dVertex
 10
62.13086284438162
 20
252.3570412400493
 30
0.0
  0
VERTEX
  5
4335
330
4333
100
AcDbEntity
  8
MODEL
100
AcDbVertex
100
AcDb2dVertex
 10
63.72910997368211
 20
252.3570412400493
 30
0.0
  0
SEQEND
  5
4336
330
4333
100
AcDbEntity
  8
MODEL
  0
POLYLINE
  5
4337
102
{ACAD_REACTORS
330
44FD
102
}
330
A
100
AcDbEntity
  8
HIDDEN
 48
0.25
100
AcDb2dPolyline
 66
     1
 10
0.0
 20
0.0
 30
0.0
  0
VERTEX
  5
4338
330
4337
100
AcDbEntity
  8
HIDDEN
 48
0.25
100
AcDbVertex
100
AcDb2dVertex
 10
172.1719657528863
 20
315.3378812148063
 30
0.0
  0
VERTEX
  5
4339
330
4337
100
AcDbEntity
  8
HIDDEN
 48
0.25
100
AcDbVertex
100
AcDb2dVertex
 10
162.7901725782232
 20
315.3378812148063
 30
0.0
  0
SEQEND
  5
433A
330
4337
100
AcDbEntity
  8
HIDDEN
 48
0.25
  0
POLYLINE
  5
433B
102
{ACAD_REACTORS
330
44FD
102
}
330
A
100
AcDbEntity
  8
HIDDEN
 48
0.25
100
AcDb2dPolyline
 66
     1
 10
0.0
 20
0.0
 30
0.0
  0
VERTEX
  5
433C
330
433B
100
AcDbEntity
  8
HIDDEN
 48
0.25
100
AcDbVertex
100
AcDb2dVertex
 10
73.46026181516294
 20
315.3378812148063
 30
0.0
  0
VERTEX
  5
433D
330
433B
100
AcDbEntity
  8
HIDDEN
 48
0.25
100
AcDbVertex
100
AcDb2dVertex
 10
82.84067956200369
 20
315.3378812148063
 30
0.0
  0
SEQEND
  5
433E
330
433B
100
AcDbEntity
  8
HIDDEN
 48
0.25
  0
POLYLINE
  5
433F
330
A
100
AcDbEntity
  8
MODEL
100
AcDb2dPolyline
 66
     1
 10
0.0
 20
0.0
 30
0.0
  0
VERTEX
  5
4340
330
433F
100
AcDbEntity
  8
MODEL
100
AcDbVertex
100
AcDb2dVertex
 10
184.5480652962989
 20
310.2859348241689
 30
0.0
  0
VERTEX
  5
4341
330
433F
100
AcDbEntity
  8
MODEL
100
AcDbVertex
100
AcDb2dVertex
 10
184.3541299733802
 20
310.0479858109425
 30
0.0
  0
VERTEX
  5
4342
330
433F
100
AcDbEntity
  8
MODEL
100
AcDbVertex
100
AcDb2dVertex
 10
184.1849523512598
 20
309.8416716376249
 30
0.0
  0
SEQEND
  5
4343
330
433F
100
AcDbEntity
  8
MODEL
  0
POLYLINE
  5
4344
330
A
100
AcDbEntity
  8
MODEL
100
AcDb2dPolyline
 66
     1
 10
0.0
 20
0.0
 30
0.0
  0
VERTEX
  5
4345
330
4344
100
AcDbEntity
  8
MODEL
100
AcDbVertex
100
AcDb2dVertex
 10
192.6837208641234
 20
320.2282148363445
 30
0.0
  0
VERTEX
  5
4346
330
4344
100
AcDbEntity
  8
MODEL
100
AcDbVertex
100
AcDb2dVertex
 10
191.8488361760982
 20
319.2069596784225
 30
0.0
  0
VERTEX
  5
4347
330
4344
100
AcDbEntity
  8
MODEL
100
AcDbVertex
100
AcDb2dVertex
 10
191.0620914618469
 20
318.2469110585847
 30
0.0
  0
SEQEND
  5
4348
330
4344
100
AcDbEntity
  8
MODEL
  0
POLYLINE
  5
4349
330
A
100
AcDbEntity
  8
MODEL
100
AcDb2dPolyline
 66
     1
 10
0.0
 20
0.0
 30
0.0
  0
VERTEX
  5
434A
330
4349
100
AcDbEntity
  8
MODEL
100
AcDbVertex
100
AcDb2dVertex
 10
192.6837208641234
 20
320.2282148363445
 30
0.0
  0
VERTEX
  5
434B
330
4349
100
AcDbEntity
  8
MODEL
100
AcDbVertex
100
AcDb2dVertex
 10
183.7008017578744
 20
309.2488622462923
 30
0.0
  0
SEQEND
  5
434C
330
4349
100
AcDbEntity
  8
MODEL
  0
POLYLINE
  5
434D
330
A
100
AcDbEntity
  8
MODEL
100
AcDb2dPolyline
 66
     1
 10
0.0
 20
0.0
 30
0.0
  0
VERTEX
  5
434E
330
434D
100
AcDbEntity
  8
MODEL
100
AcDbVertex
100
AcDb2dVertex
 10
186.8477806148791
 20
313.0959338647548
 30
0.0
  0
VERTEX
  5
434F
330
434D
100
AcDbEntity
  8
MODEL
100
AcDbVertex
100
AcDb2dVertex
 10
186.411769995268
 20
312.5622678697733
 30
0.0
  0
SEQEND
  5
4350
330
434D
100
AcDbEntity
  8
MODEL
  0
POLYLINE
  5
4351
330
A
100
AcDbEntity
  8
MODEL
100
AcDb2dPolyline
 66
     1
 10
0.0
 20
0.0
 30
0.0
  0
VERTEX
  5
4352
330
4351
100
AcDbEntity
  8
MODEL
100
AcDbVertex
100
AcDb2dVertex
 10
186.0115204990317
 20
312.0739909929216
 30
0.0
  0
VERTEX
  5
4353
330
4351
100
AcDbEntity
  8
MODEL
100
AcDbVertex
100
AcDb2dVertex
 10
185.6497829818149
 20
311.6311032341997
 30
0.0
  0
SEQEND
  5
4354
330
4351
100
AcDbEntity
  8
MODEL
  0
POLYLINE
  5
4355
330
A
100
AcDbEntity
  8
MODEL
100
AcDb2dPolyline
 66
     1
 10
0.0
 20
0.0
 30
0.0
  0
VERTEX
  5
4356
330
4355
100
AcDbEntity
  8
MODEL
100
AcDbVertex
100
AcDb2dVertex
 10
187.8408395024479
 20
314.3090612038624
 30
0.0
  0
VERTEX
  5
4357
330
4355
100
AcDbEntity
  8
MODEL
100
AcDbVertex
100
AcDb2dVertex
 10
187.3236786413318
 20
313.6784275474216
 30
0.0
  0
SEQEND
  5
4358
330
4355
100
AcDbEntity
  8
MODEL
  0
POLYLINE
  5
4359
330
A
100
AcDbEntity
  8
MODEL
100
AcDb2dPolyline
 66
     1
 10
0.0
 20
0.0
 30
0.0
  0
VERTEX
  5
435A
330
4359
100
AcDbEntity
  8
MODEL
100
AcDbVertex
100
AcDb2dVertex
 10
183.7145560360956
 20
309.2653673801577
 30
0.0
  0
VERTEX
  5
435B
330
4359
100
AcDbEntity
  8
MODEL
100
AcDbVertex
100
AcDb2dVertex
 10
183.7008017578744
 20
309.2502376741144
 30
0.0
  0
SEQEND
  5
435C
330
4359
100
AcDbEntity
  8
MODEL
  0
POLYLINE
  5
435D
330
A
100
AcDbEntity
  8
MODEL
100
AcDb2dPolyline
 66
     1
 10
0.0
 20
0.0
 30
0.0
  0
VERTEX
  5
435E
330
435D
100
AcDbEntity
  8
MODEL
100
AcDbVertex
100
AcDb2dVertex
 10
192.6837208641234
 20
320.2289025502557
 30
0.0
  0
VERTEX
  5
435F
330
435D
100
AcDbEntity
  8
MODEL
100
AcDbVertex
100
AcDb2dVertex
 10
195.7784334638877
 20
323.5044839086284
 30
0.0
  0
SEQEND
  5
4360
330
435D
100
AcDbEntity
  8
MODEL
  0
POLYLINE
  5
4361
330
A
100
AcDbEntity
  8
MODEL
100
AcDb2dPolyline
 66
     1
 10
0.0
 20
0.0
 30
0.0
  0
VERTEX
  5
4362
330
4361
100
AcDbEntity
  8
MODEL
100
AcDbVertex
100
AcDb2dVertex
 10
192.6837208641234
 20
320.2289025502557
 30
0.0
  0
VERTEX
  5
4363
330
4361
100
AcDbEntity
  8
MODEL
100
AcDbVertex
100
AcDb2dVertex
 10
193.4360798828215
 20
321.0218366897065
 30
0.0
  0
VERTEX
  5
4364
330
4361
100
AcDbEntity
  8
MODEL
100
AcDbVertex
100
AcDb2dVertex
 10
194.1705583398324
 20
321.8030796926691
 30
0.0
  0
VERTEX
  5
4365
330
4361
100
AcDbEntity
  8
MODEL
100
AcDbVertex
100
AcDb2dVertex
 10
194.8940333742661
 20
322.5691929895885
 30
0.0
  0
VERTEX
  5
4366
330
4361
100
AcDbEntity
  8
MODEL
100
AcDbVertex
100
AcDb2dVertex
 10
195.5886244244354
 20
323.3057345883323
 30
0.0
  0
SEQEND
  5
4367
330
4361
100
AcDbEntity
  8
MODEL
  0
POLYLINE
  5
4368
102
{ACAD_REACTORS
330
44FD
102
}
330
A
100
AcDbEntity
  8
HIDDEN
 48
0.25
100
AcDb2dPolyline
 66
     1
 10
0.0
 20
0.0
 30
0.0
  0
VERTEX
  5
4369
330
4368
100
AcDbEntity
  8
HIDDEN
 48
0.25
100
AcDbVertex
100
AcDb2dVertex
 10
162.2097420372898
 20
316.9423177693063
 30
0.0
  0
VERTEX
  5
436A
330
4368
100
AcDbEntity
  8
HIDDEN
 48
0.25
100
AcDbVertex
100
AcDb2dVertex
 10
162.2413768771984
 20
315.138444180599
 30
0.0
  0
SEQEND
  5
436B
330
4368
100
AcDbEntity
  8
HIDDEN
 48
0.25
  0
POLYLINE
  5
436C
102
{ACAD_REACTORS
330
44FD
102
}
330
A
100
AcDbEntity
  8
HIDDEN
 48
0.25
100
AcDb2dPolyline
 66
     1
 10
0.0
 20
0.0
 30
0.0
  0
VERTEX
  5
436D
330
436C
100
AcDbEntity
  8
HIDDEN
 48
0.25
100
AcDbVertex
100
AcDb2dVertex
 10
162.5907355440162
 20
316.236035582649
 30
0.0
  0
VERTEX
  5
436E
330
436C
100
AcDbEntity
  8
HIDDEN
 48
0.25
100
AcDbVertex
100
AcDb2dVertex
 10
162.5907355440162
 20
315.5373182490133
 30
0.0
  0
SEQEND
  5
436F
330
436C
100
AcDbEntity
  8
HIDDEN
 48
0.25
  0
POLYLINE
  5
4370
102
{ACAD_REACTORS
330
44FD
102
}
330
A
100
AcDbEntity
  8
HIDDEN
 48
0.25
100
AcDb2dPolyline
 66
     1
 10
0.0
 20
0.0
 30
0.0
  0
VERTEX
  5
4371
330
4370
100
AcDbEntity
  8
HIDDEN
 48
0.25
100
AcDbVertex
100
AcDb2dVertex
 10
162.2413768771984
 20
315.138444180599
 30
0.0
  0
VERTEX
  5
4372
330
4370
100
AcDbEntity
  8
HIDDEN
 48
0.25
100
AcDbVertex
100
AcDb2dVertex
 10
162.2386260215541
 20
314.9493228550581
 30
0.0
  0
SEQEND
  5
4373
330
4370
100
AcDbEntity
  8
HIDDEN
 48
0.25
  0
POLYLINE
  5
4374
102
{ACAD_REACTORS
330
44FD
102
}
330
A
100
AcDbEntity
  8
HIDDEN
 48
0.25
100
AcDb2dPolyline
 66
     1
 10
0.0
 20
0.0
 30
0.0
  0
VERTEX
  5
4375
330
4374
100
AcDbEntity
  8
HIDDEN
 48
0.25
100
AcDbVertex
100
AcDb2dVertex
 10
81.84762067443495
 20
323.5031084808064
 30
0.0
  0
VERTEX
  5
4376
330
4374
100
AcDbEntity
  8
HIDDEN
 48
0.25
100
AcDbVertex
100
AcDb2dVertex
 10
82.68525621810448
 20
323.5031084808064
 30
0.0
  0
SEQEND
  5
4377
330
4374
100
AcDbEntity
  8
HIDDEN
 48
0.25
  0
POLYLINE
  5
4378
102
{ACAD_REACTORS
330
44FD
102
}
330
A
100
AcDbEntity
  8
HIDDEN
 48
0.25
100
AcDb2dPolyline
 66
     1
 10
0.0
 20
0.0
 30
0.0
  0
VERTEX
  5
4379
330
4378
100
AcDbEntity
  8
HIDDEN
 48
0.25
100
AcDbVertex
100
AcDb2dVertex
 10
162.9483467777667
 20
323.5031084808064
 30
0.0
  0
VERTEX
  5
437A
330
4378
100
AcDbEntity
  8
HIDDEN
 48
0.25
100
AcDbVertex
100
AcDb2dVertex
 10
163.7846068936141
 20
323.5031084808064
 30
0.0
  0
SEQEND
  5
437B
330
4378
100
AcDbEntity
  8
HIDDEN
 48
0.25
  0
POLYLINE
  5
437C
102
{ACAD_REACTORS
330
44FD
102
}
330
A
100
AcDbEntity
  8
HIDDEN
 48
0.25
100
AcDb2dPolyline
 66
     1
 10
0.0
 20
0.0
 30
0.0
  0
VERTEX
  5
437D
330
437C
100
AcDbEntity
  8
HIDDEN
 48
0.25
100
AcDbVertex
100
AcDb2dVertex
 10
172.3714027870932
 20
323.5031084808064
 30
0.0
  0
VERTEX
  5
437E
330
437C
100
AcDbEntity
  8
HIDDEN
 48
0.25
100
AcDbVertex
100
AcDb2dVertex
 10
172.3714027870932
 20
315.5373182490133
 30
0.0
  0
SEQEND
  5
437F
330
437C
100
AcDbEntity
  8
HIDDEN
 48
0.25
  0
POLYLINE
  5
4380
102
{ACAD_REACTORS
330
4517
102
}
330
A
100
AcDbEntity
  8
MODEL
100
AcDb2dPolyline
 66
     1
 10
0.0
 20
0.0
 30
0.0
  0
VERTEX
  5
4381
330
4380
100
AcDbEntity
  8
MODEL
100
AcDbVertex
100
AcDb2dVertex
 10
183.7008017578744
 20
254.3541624377638
 30
0.0
  0
VERTEX
  5
4382
330
4380
100
AcDbEntity
  8
MODEL
100
AcDbVertex
100
AcDb2dVertex
 10
183.7008017578744
 20
309.2488622462923
 30
0.0
  0
SEQEND
  5
4383
330
4380
100
AcDbEntity
  8
MODEL
  0
POLYLINE
  5
4384
330
A
100
AcDbEntity
  8
MODEL
100
AcDb2dPolyline
 66
     1
 10
0.0
 20
0.0
 30
0.0
  0
VERTEX
  5
4385
330
4384
100
AcDbEntity
  8
MODEL
100
AcDbVertex
100
AcDb2dVertex
 10
201.6666399703724
 20
234.89048332698
 30
0.0
  0
VERTEX
  5
4386
330
4384
100
AcDbEntity
  8
MODEL
100
AcDbVertex
100
AcDb2dVertex
 10
201.6666399703724
 20
323.5037961947174
 30
0.0
  0
SEQEND
  5
4387
330
4384
100
AcDbEntity
  8
MODEL
  0
POLYLINE
  5
4388
330
A
100
AcDbEntity
  8
MODEL
100
AcDb2dPolyline
 66
     1
 10
0.0
 20
0.0
 30
0.0
  0
VERTEX
  5
4389
330
4388
100
AcDbEntity
  8
MODEL
100
AcDbVertex
100
AcDb2dVertex
 10
287.7459118723725
 20
320.1099280436425
 30
0.0
  0
VERTEX
  5
438A
330
4388
100
AcDbEntity
  8
MODEL
100
AcDbVertex
100
AcDb2dVertex
 10
287.6867684760213
 20
323.5031084808064
 30
0.0
  0
SEQEND
  5
438B
330
4388
100
AcDbEntity
  8
MODEL
  0
POLYLINE
  5
438C
330
A
100
AcDbEntity
  8
MODEL
100
AcDb2dPolyline
 66
     1
 10
0.0
 20
0.0
 30
0.0
  0
VERTEX
  5
438D
330
438C
100
AcDbEntity
  8
MODEL
100
AcDbVertex
100
AcDb2dVertex
 10
288.5443477231115
 20
320.2282148363444
 30
0.0
  0
VERTEX
  5
438E
330
438C
100
AcDbEntity
  8
MODEL
100
AcDbVertex
100
AcDb2dVertex
 10
288.5443477231115
 20
320.2282148363444
 30
0.0
  0
SEQEND
  5
438F
330
438C
100
AcDbEntity
  8
MODEL
  0
POLYLINE
  5
4390
330
A
100
AcDbEntity
  8
MODEL
100
AcDb2dPolyline
 66
     1
 10
0.0
 20
0.0
 30
0.0
  0
VERTEX
  5
4391
330
4390
100
AcDbEntity
  8
MODEL
100
AcDbVertex
100
AcDb2dVertex
 10
288.5443477231115
 20
243.3741221338001
 30
0.0
  0
VERTEX
  5
4392
330
4390
100
AcDbEntity
  8
MODEL
100
AcDbVertex
100
AcDb2dVertex
 10
288.5443477231115
 20
243.3741221338001
 30
0.0
  0
SEQEND
  5
4393
330
4390
100
AcDbEntity
  8
MODEL
  0
POLYLINE
  5
4394
330
A
100
AcDbEntity
  8
MODEL
100
AcDb2dPolyline
 66
     1
 10
0.0
 20
0.0
 30
0.0
  0
VERTEX
  5
4395
330
4394
100
AcDbEntity
  8
MODEL
100
AcDbVertex
100
AcDb2dVertex
 10
306.5108736495204
 20
243.3741221338001
 30
0.0
  0
VERTEX
  5
4396
330
4394
100
AcDbEntity
  8
MODEL
100
AcDbVertex
100
AcDb2dVertex
 10
306.5108736495204
 20
243.3741221338001
 30
0.0
  0
SEQEND
  5
4397
330
4394
100
AcDbEntity
  8
MODEL
  0
POLYLINE
  5
4398
330
A
100
AcDbEntity
  8
MODEL
100
AcDb2dPolyline
 66
     1
 10
0.0
 20
0.0
 30
0.0
  0
VERTEX
  5
4399
330
4398
100
AcDbEntity
  8
MODEL
100
AcDbVertex
100
AcDb2dVertex
 10
306.5108736495204
 20
320.2282148363444
 30
0.0
  0
VERTEX
  5
439A
330
4398
100
AcDbEntity
  8
MODEL
100
AcDbVertex
100
AcDb2dVertex
 10
306.5108736495204
 20
320.2282148363444
 30
0.0
  0
SEQEND
  5
439B
330
4398
100
AcDbEntity
  8
MODEL
  0
POLYLINE
  5
439C
330
A
100
AcDbEntity
  8
MODEL
100
AcDb2dPolyline
 66
     1
 10
0.0
 20
0.0
 30
0.0
  0
VERTEX
  5
439D
330
439C
100
AcDbEntity
  8
MODEL
100
AcDbVertex
100
AcDb2dVertex
 10
288.5443477231115
 20
315.0332239522072
 30
0.0
  0
VERTEX
  5
439E
330
439C
100
AcDbEntity
  8
MODEL
100
AcDbVertex
100
AcDb2dVertex
 10
283.757171188232
 20
314.9500105689688
 30
0.0
  0
SEQEND
  5
439F
330
439C
100
AcDbEntity
  8
MODEL
  0
SPLINE
  5
43A0
330
A
100
AcDbEntity
  8
MODEL
100
AcDbSpline
210
0.0
220
0.0
230
1.0
 70
     8
 71
     3
 72
     8
 73
     4
 74
     0
 42
0.000000001
 43
0.0000000001
 40
0.0
 40
0.0
 40
0.0
 40
0.0
 40
1.0
 40
1.0
 40
1.0
 40
1.0
 10
43.96558759767674
 20
234.89048332698
 30
0.0
 10
43.96558759767674
 20
234.6140223347344
 30
0.0
 10
44.18978233268189
 20
234.3912030275514
 30
0.0
 10
44.46418018319434
 20
234.3912030275514
 30
0.0
  0
SPLINE
  5
43A1
330
A
100
AcDbEntity
  8
MODEL
100
AcDbSpline
210
0.0
220
0.0
230
1.0
 70
     8
 71
     3
 72
     8
 73
     4
 74
     0
 42
0.000000001
 43
0.0000000001
 40
0.0
 40
0.0
 40
0.0
 40
0.0
 40
1.0
 40
1.0
 40
1.0
 40
1.0
 10
62.13086284438162
 20
252.3570412400493
 30
0.0
 10
62.07584573149683
 20
252.3570412400493
 30
0.0
 10
62.02495490207849
 20
252.3350343948953
 30
0.0
 10
61.9864429230592
 20
252.295146988054
 30
0.0
  0
SPLINE
  5
43A2
330
A
100
AcDbEntity
  8
MODEL
100
AcDbSpline
210
0.0
220
0.0
230
1.0
 70
     8
 71
     3
 72
     8
 73
     4
 74
     0
 42
0.000000001
 43
0.0000000001
 40
0.0
 40
0.0
 40
0.0
 40
0.0
 40
1.0
 40
1.0
 40
1.0
 40
1.0
 10
43.52613840851018
 20
241.4375197602589
 30
0.0
 10
43.56258724579635
 20
241.3990077812396
 30
0.0
 10
43.61347807521469
 20
241.3783763639081
 30
0.0
 10
43.6664320463662
 20
241.3783763639081
 30
0.0
  0
SPLINE
  5
43A3
330
A
100
AcDbEntity
  8
MODEL
100
AcDbSpline
210
0.0
220
0.0
230
1.0
 70
     8
 71
     3
 72
     8
 73
     4
 74
     0
 42
0.000000001
 43
0.0000000001
 40
0.0
 40
0.0
 40
0.0
 40
0.0
 40
1.0
 40
1.0
 40
1.0
 40
1.0
 10
43.4669950121592
 20
241.577813398115
 30
0.0
 10
43.4669950121592
 20
241.5241717130525
 30
0.0
 10
43.48762642949094
 20
241.4732808836342
 30
0.0
 10
43.52613840851018
 20
241.4375197602589
 30
0.0
  0
SPLINE
  5
43A4
330
A
100
AcDbEntity
  8
MODEL
100
AcDbSpline
210
0.0
220
0.0
230
1.0
 70
     8
 71
     3
 72
     8
 73
     4
 74
     0
 42
0.000000001
 43
0.0000000001
 40
0.0
 40
0.0
 40
0.0
 40
0.0
 40
1.0
 40
1.0
 40
1.0
 40
1.0
 10
43.96627531158782
 20
241.577813398115
 30
0.0
 10
43.96627531158782
 20
241.5255471408746
 30
0.0
 10
43.94564389425614
 20
241.4746563114564
 30
0.0
 10
43.90713191523685
 20
241.4361443324368
 30
0.0
  0
SPLINE
  5
43A5
330
A
100
AcDbEntity
  8
MODEL
100
AcDbSpline
210
0.0
220
0.0
230
1.0
 70
     8
 71
     3
 72
     8
 73
     4
 74
     0
 42
0.000000001
 43
0.0000000001
 40
0.0
 40
0.0
 40
0.0
 40
0.0
 40
1.0
 40
1.0
 40
1.0
 40
1.0
 10
43.90713191523685
 20
241.4361443324368
 30
0.0
 10
43.86930765012858
 20
241.3990077812396
 30
0.0
 10
43.81841682071018
 20
241.3770009360859
 30
0.0
 10
43.76615056346975
 20
241.3770009360859
 30
0.0
  0
SPLINE
  5
43A6
330
A
100
AcDbEntity
  8
MODEL
100
AcDbSpline
210
0.0
220
0.0
230
1.0
 70
     8
 71
     3
 72
     8
 73
     4
 74
     0
 42
0.000000001
 43
0.0000000001
 40
0.0
 40
0.0
 40
0.0
 40
0.0
 40
1.0
 40
1.0
 40
1.0
 40
1.0
 10
63.92854700788911
 20
252.5564782742562
 30
0.0
 10
63.92854700788911
 20
252.5042120170158
 30
0.0
 10
63.90791559055737
 20
252.4533211875975
 30
0.0
 10
63.86940361153808
 20
252.4161846364004
 30
0.0
  0
SPLINE
  5
43A7
330
A
100
AcDbEntity
  8
MODEL
100
AcDbSpline
210
0.0
220
0.0
230
1.0
 70
     8
 71
     3
 72
     8
 73
     4
 74
     0
 42
0.000000001
 43
0.0000000001
 40
0.0
 40
0.0
 40
0.0
 40
0.0
 40
1.0
 40
1.0
 40
1.0
 40
1.0
 10
63.86940361153808
 20
252.4161846364004
 30
0.0
 10
63.83089163251879
 20
252.3776726573811
 30
0.0
 10
63.78000080310045
 20
252.3570412400493
 30
0.0
 10
63.72910997368211
 20
252.3570412400493
 30
0.0
  0
SPLINE
  5
43A8
330
A
100
AcDbEntity
  8
MODEL
100
AcDbSpline
210
0.0
220
0.0
230
1.0
 70
     8
 71
     3
 72
     8
 73
     4
 74
     0
 42
0.000000001
 43
0.0000000001
 40
0.0
 40
0.0
 40
0.0
 40
0.0
 40
1.0
 40
1.0
 40
1.0
 40
1.0
 10
43.98690672891956
 20
243.1623062491943
 30
0.0
 10
43.97246473678734
 20
243.1458011153289
 30
0.0
 10
43.96558759767674
 20
243.123794270175
 30
0.0
 10
43.96558759767674
 20
243.1004119971989
 30
0.0
  0
SPLINE
  5
43A9
330
A
100
AcDbEntity
  8
MODEL
100
AcDbSpline
210
0.0
220
0.0
230
1.0
 70
     8
 71
     3
 72
     8
 73
     4
 74
     0
 42
0.000000001
 43
0.0000000001
 40
0.0
 40
0.0
 40
0.0
 40
0.0
 40
1.0
 40
1.0
 40
1.0
 40
1.0
 10
43.96558759767674
 20
311.7452637434354
 30
0.0
 10
43.96558759767674
 20
311.4688027511898
 30
0.0
 10
44.18978233268189
 20
311.2459834440069
 30
0.0
 10
44.46418018319434
 20
311.2459834440069
 30
0.0
  0
SPLINE
  5
43AA
102
{ACAD_REACTORS
330
44FD
102
}
330
A
100
AcDbEntity
  8
HIDDEN
 48
0.25
100
AcDbSpline
210
0.0
220
0.0
230
1.0
 70
     8
 71
     3
 72
     8
 73
     4
 74
     0
 42
0.000000001
 43
0.0000000001
 40
0.0
 40
0.0
 40
0.0
 40
0.0
 40
1.0
 40
1.0
 40
1.0
 40
1.0
 10
82.98372405550384
 20
323.2245843468275
 30
0.0
 10
82.9713452051048
 20
323.3813831185489
 30
0.0
 10
82.84205498982573
 20
323.5037961947174
 30
0.0
 10
82.68388079028222
 20
323.5037961947174
 30
0.0
  0
SPLINE
  5
43AB
102
{ACAD_REACTORS
330
44FD
102
}
330
A
100
AcDbEntity
  8
HIDDEN
 48
0.25
100
AcDbSpline
210
0.0
220
0.0
230
1.0
 70
     8
 71
     3
 72
     8
 73
     4
 74
     0
 42
0.000000001
 43
0.0000000001
 40
0.0
 40
0.0
 40
0.0
 40
0.0
 40
1.0
 40
1.0
 40
1.0
 40
1.0
 10
83.04286745185499
 20
315.5373182490133
 30
0.0
 10
83.04286745185499
 20
315.4850519917728
 30
0.0
 10
83.02086060670109
 20
315.4341611623545
 30
0.0
 10
82.98372405550384
 20
315.3963368972463
 30
0.0
  0
SPLINE
  5
43AC
102
{ACAD_REACTORS
330
44FD
102
}
330
A
100
AcDbEntity
  8
HIDDEN
 48
0.25
100
AcDbSpline
210
0.0
220
0.0
230
1.0
 70
     8
 71
     3
 72
     8
 73
     4
 74
     0
 42
0.000000001
 43
0.0000000001
 40
0.0
 40
0.0
 40
0.0
 40
0.0
 40
1.0
 40
1.0
 40
1.0
 40
1.0
 10
82.98372405550384
 20
315.3963368972463
 30
0.0
 10
82.94521207648467
 20
315.3585126321378
 30
0.0
 10
82.89432124706622
 20
315.3371935008952
 30
0.0
 10
82.84205498982573
 20
315.3371935008952
 30
0.0
  0
SPLINE
  5
43AD
102
{ACAD_REACTORS
330
44FD
102
}
330
A
100
AcDbEntity
  8
HIDDEN
 48
0.25
100
AcDbSpline
210
0.0
220
0.0
230
1.0
 70
     8
 71
     3
 72
     8
 73
     4
 74
     0
 42
0.000000001
 43
0.0000000001
 40
0.0
 40
0.0
 40
0.0
 40
0.0
 40
1.0
 40
1.0
 40
1.0
 40
1.0
 10
73.31859274948482
 20
315.3963368972463
 30
0.0
 10
73.35572930068196
 20
315.3585126321378
 30
0.0
 10
73.4066201301003
 20
315.3371935008952
 30
0.0
 10
73.46026181516294
 20
315.3371935008952
 30
0.0
  0
SPLINE
  5
43AE
102
{ACAD_REACTORS
330
44FD
102
}
330
A
100
AcDbEntity
  8
HIDDEN
 48
0.25
100
AcDbSpline
210
0.0
220
0.0
230
1.0
 70
     8
 71
     3
 72
     8
 73
     4
 74
     0
 42
0.000000001
 43
0.0000000001
 40
0.0
 40
0.0
 40
0.0
 40
0.0
 40
1.0
 40
1.0
 40
1.0
 40
1.0
 10
73.26082478095583
 20
315.5373182490133
 30
0.0
 10
73.26082478095583
 20
315.4836765639506
 30
0.0
 10
73.28145619828769
 20
315.4327857345324
 30
0.0
 10
73.31859274948482
 20
315.3963368972463
 30
0.0
  0
SPLINE
  5
43AF
330
A
100
AcDbEntity
  8
MODEL
100
AcDbSpline
210
0.0
220
0.0
230
1.0
 70
     8
 71
     3
 72
     8
 73
     4
 74
     0
 42
0.000000001
 43
0.0000000001
 40
0.0
 40
0.0
 40
0.0
 40
0.0
 40
1.0
 40
1.0
 40
1.0
 40
1.0
 10
183.1162449334747
 20
252.9415980644492
 30
0.0
 10
183.4903613010906
 20
253.3170898598872
 30
0.0
 10
183.6994263300523
 20
253.8232472984263
 30
0.0
 10
183.6994263300523
 20
254.3527870099417
 30
0.0
  0
SPLINE
  5
43B0
330
A
100
AcDbEntity
  8
MODEL
100
AcDbSpline
210
0.0
220
0.0
230
1.0
 70
     8
 71
     3
 72
     8
 73
     4
 74
     0
 42
0.000000001
 43
0.0000000001
 40
0.0
 40
0.0
 40
0.0
 40
0.0
 40
1.0
 40
1.0
 40
1.0
 40
1.0
 10
181.7050559879821
 20
252.3570412400493
 30
0.0
 10
182.2345956994973
 20
252.3570412400493
 30
0.0
 10
182.7407531380366
 20
252.5674816968331
 30
0.0
 10
183.1162449334747
 20
252.9415980644492
 30
0.0
  0
SPLINE
  5
43B1
330
A
100
AcDbEntity
  8
MODEL
100
AcDbSpline
210
0.0
220
0.0
230
1.0
 70
     8
 71
     3
 72
     8
 73
     4
 74
     0
 42
0.000000001
 43
0.0000000001
 40
0.0
 40
0.0
 40
0.0
 40
0.0
 40
1.0
 40
1.0
 40
1.0
 40
1.0
 10
201.1673596709438
 20
234.3912030275514
 30
0.0
 10
201.4438206631893
 20
234.3912030275514
 30
0.0
 10
201.6666399703724
 20
234.6153977625566
 30
0.0
 10
201.6666399703724
 20
234.89048332698
 30
0.0
  0
SPLINE
  5
43B2
102
{ACAD_REACTORS
330
44FD
102
}
330
A
100
AcDbEntity
  8
HIDDEN
 48
0.25
100
AcDbSpline
210
0.0
220
0.0
230
1.0
 70
     8
 71
     3
 72
     8
 73
     4
 74
     0
 42
0.000000001
 43
0.0000000001
 40
0.0
 40
0.0
 40
0.0
 40
0.0
 40
1.0
 40
1.0
 40
1.0
 40
1.0
 10
162.6498789403673
 20
315.3963368972463
 30
0.0
 10
162.6870154915645
 20
315.3585126321378
 30
0.0
 10
162.7365308931607
 20
315.3371935008952
 30
0.0
 10
162.7901725782232
 20
315.3371935008952
 30
0.0
  0
SPLINE
  5
43B3
102
{ACAD_REACTORS
330
44FD
102
}
330
A
100
AcDbEntity
  8
HIDDEN
 48
0.25
100
AcDbSpline
210
0.0
220
0.0
230
1.0
 70
     8
 71
     3
 72
     8
 73
     4
 74
     0
 42
0.000000001
 43
0.0000000001
 40
0.0
 40
0.0
 40
0.0
 40
0.0
 40
1.0
 40
1.0
 40
1.0
 40
1.0
 10
162.5907355440162
 20
315.5373182490133
 30
0.0
 10
162.5907355440162
 20
315.4836765639506
 30
0.0
 10
162.611366961348
 20
315.4327857345324
 30
0.0
 10
162.6498789403673
 20
315.3963368972463
 30
0.0
  0
SPLINE
  5
43B4
102
{ACAD_REACTORS
330
44FD
102
}
330
A
100
AcDbEntity
  8
HIDDEN
 48
0.25
100
AcDbSpline
210
0.0
220
0.0
230
1.0
 70
     8
 71
     3
 72
     8
 73
     4
 74
     0
 42
0.000000001
 43
0.0000000001
 40
0.0
 40
0.0
 40
0.0
 40
0.0
 40
1.0
 40
1.0
 40
1.0
 40
1.0
 10
162.9483467777667
 20
323.5031084808064
 30
0.0
 10
162.7901725782232
 20
323.5031084808064
 30
0.0
 10
162.6608823629442
 20
323.3820708324599
 30
0.0
 10
162.6498789403673
 20
323.2245843468275
 30
0.0
  0
SPLINE
  5
43B5
330
A
100
AcDbEntity
  8
MODEL
100
AcDbSpline
210
0.0
220
0.0
230
1.0
 70
     8
 71
     3
 72
     8
 73
     4
 74
     0
 42
0.000000001
 43
0.0000000001
 40
0.0
 40
0.0
 40
0.0
 40
0.0
 40
1.0
 40
1.0
 40
1.0
 40
1.0
 10
183.7008017578744
 20
309.2488622462923
 30
0.0
 10
183.7008017578744
 20
310.3519553596305
 30
0.0
 10
182.8067736734981
 20
311.2446080161847
 30
0.0
 10
181.7050559879821
 20
311.2446080161847
 30
0.0
  0
SPLINE
  5
43B6
102
{ACAD_REACTORS
330
44FD
102
}
330
A
100
AcDbEntity
  8
HIDDEN
 48
0.25
100
AcDbSpline
210
0.0
220
0.0
230
1.0
 70
     8
 71
     3
 72
     8
 73
     4
 74
     0
 42
0.000000001
 43
0.0000000001
 40
0.0
 40
0.0
 40
0.0
 40
0.0
 40
1.0
 40
1.0
 40
1.0
 40
1.0
 10
172.1719657528863
 20
315.3378812148063
 30
0.0
 10
172.2819999786556
 20
315.3378812148063
 30
0.0
 10
172.3727782149155
 20
315.4265963093328
 30
0.0
 10
172.3727782149155
 20
315.5380059629243
 30
0.0
  0
SPLINE
  5
43B7
330
A
100
AcDbEntity
  8
MODEL
100
AcDbSpline
210
0.0
220
0.0
230
1.0
 70
     8
 71
     3
 72
     8
 73
     4
 74
     0
 42
0.000000001
 43
0.0000000001
 40
0.0
 40
0.0
 40
0.0
 40
0.0
 40
1.0
 40
1.0
 40
1.0
 40
1.0
 10
306.5108736495204
 20
320.2289025502557
 30
0.0
 10
306.5108736495204
 20
321.3498762252813
 30
0.0
 10
306.3004331927364
 20
322.4598464777303
 30
0.0
 10
305.8919311295676
 20
323.5031084808064
 30
0.0
  0
SPLINE
  5
43B8
330
A
100
AcDbEntity
  8
MODEL
100
AcDbSpline
210
0.0
220
0.0
230
1.0
 70
     8
 71
     3
 72
     8
 73
     4
 74
     0
 42
0.000000001
 43
0.0000000001
 40
0.0
 40
0.0
 40
0.0
 40
0.0
 40
1.0
 40
1.0
 40
1.0
 40
1.0
 10
289.1646656708866
 20
323.5079224781834
 30
0.0
 10
288.7547881798955
 20
322.4625973333744
 30
0.0
 10
288.5443477231115
 20
321.3512516531034
 30
0.0
 10
288.5443477231115
 20
320.2289025502557
 30
0.0
  0
SPLINE
  5
43B9
330
A
100
AcDbEntity
  8
MODEL
100
AcDbSpline
210
0.0
220
0.0
230
1.0
 70
     8
 71
     3
 72
     8
 73
     4
 74
     0
 42
0.000000001
 43
0.0000000001
 40
0.0
 40
0.0
 40
0.0
 40
0.0
 40
1.0
 40
1.0
 40
1.0
 40
1.0
 10
297.5272668293603
 20
234.3912030275513
 30
0.0
 10
302.4877472698269
 20
234.3912030275513
 30
0.0
 10
306.5108736495204
 20
238.4143294072449
 30
0.0
 10
306.5108736495204
 20
243.3741221338001
 30
0.0
  0
SPLINE
  5
43BA
330
A
100
AcDbEntity
  8
MODEL
100
AcDbSpline
210
0.0
220
0.0
230
1.0
 70
     8
 71
     3
 72
     8
 73
     4
 74
     0
 42
0.000000001
 43
0.0000000001
 40
0.0
 40
0.0
 40
0.0
 40
0.0
 40
1.0
 40
1.0
 40
1.0
 40
1.0
 10
288.5443477231115
 20
243.3741221338001
 30
0.0
 10
288.5443477231115
 20
238.4143294072449
 30
0.0
 10
292.5654109610718
 20
234.3912030275513
 30
0.0
 10
297.5272668293603
 20
234.3912030275513
 30
0.0
  0
SPLINE
  5
43BB
330
A
100
AcDbEntity
  8
MODEL
100
AcDbSpline
210
0.0
220
0.0
230
1.0
 70
     8
 71
     3
 72
     8
 73
     4
 74
     0
 42
0.000000001
 43
0.0000000001
 40
0.0
 40
0.0
 40
0.0
 40
0.0
 40
1.0
 40
1.0
 40
1.0
 40
1.0
 10
306.5108736495204
 20
320.2282148363444
 30
0.0
 10
306.5088105077874
 20
321.358128792214
 30
0.0
 10
306.2722369223831
 20
322.4736007559513
 30
0.0
 10
305.8135317437068
 20
323.5044839086283
 30
0.0
  0
POLYLINE
  5
43BC
330
A
100
AcDbEntity
  8
MODEL
100
AcDb2dPolyline
 66
     1
 10
0.0
 20
0.0
 30
0.0
  0
VERTEX
  5
43BD
330
43BC
100
AcDbEntity
  8
MODEL
100
AcDbVertex
100
AcDb2dVertex
 10
43.98690672891956
 20
251.7724844156493
 30
0.0
  0
VERTEX
  5
43BE
330
43BC
100
AcDbEntity
  8
MODEL
100
AcDbVertex
100
AcDb2dVertex
 10
43.98828215674172
 20
251.8082455390243
 30
0.0
  0
VERTEX
  5
43BF
330
43BC
100
AcDbEntity
  8
MODEL
100
AcDbVertex
100
AcDb2dVertex
 10
43.99240844020812
 20
251.8453820902216
 30
0.0
  0
VERTEX
  5
43C0
330
43BC
100
AcDbEntity
  8
MODEL
100
AcDbVertex
100
AcDb2dVertex
 10
43.99378386803016
 20
251.8577609406207
 30
0.0
  0
VERTEX
  5
43C1
330
43BC
100
AcDbEntity
  8
MODEL
100
AcDbVertex
100
AcDb2dVertex
 10
44.00272414887394
 20
251.8948974918179
 30
0.0
  0
VERTEX
  5
43C2
330
43BC
100
AcDbEntity
  8
MODEL
100
AcDbVertex
100
AcDb2dVertex
 10
44.01235214362873
 20
251.930658615193
 30
0.0
  0
VERTEX
  5
43C3
330
43BC
100
AcDbEntity
  8
MODEL
100
AcDbVertex
100
AcDb2dVertex
 10
44.02473099402783
 20
251.9636688829237
 30
0.0
  0
VERTEX
  5
43C4
330
43BC
100
AcDbEntity
  8
MODEL
100
AcDbVertex
100
AcDb2dVertex
 10
44.03917298616011
 20
251.9980545784766
 30
0.0
  0
VERTEX
  5
43C5
330
43BC
100
AcDbEntity
  8
MODEL
100
AcDbVertex
100
AcDb2dVertex
 10
44.05774126175857
 20
252.028313990563
 30
0.0
  0
VERTEX
  5
43C6
330
43BC
100
AcDbEntity
  8
MODEL
100
AcDbVertex
100
AcDb2dVertex
 10
44.07699725126832
 20
252.0599488304719
 30
0.0
  0
VERTEX
  5
43C7
330
43BC
100
AcDbEntity
  8
MODEL
100
AcDbVertex
100
AcDb2dVertex
 10
44.08387439037892
 20
252.072327680871
 30
0.0
  0
VERTEX
  5
43C8
330
43BC
100
AcDbEntity
  8
MODEL
100
AcDbVertex
100
AcDb2dVertex
 10
44.10656894944378
 20
252.0998362373134
 30
0.0
  0
VERTEX
  5
43C9
330
43BC
100
AcDbEntity
  8
MODEL
100
AcDbVertex
100
AcDb2dVertex
 10
44.13201436415306
 20
252.1273447937556
 30
0.0
  0
VERTEX
  5
43CA
330
43BC
100
AcDbEntity
  8
MODEL
100
AcDbVertex
100
AcDb2dVertex
 10
44.15883520668427
 20
252.1521024945538
 30
0.0
  0
VERTEX
  5
43CB
330
43BC
100
AcDbEntity
  8
MODEL
100
AcDbVertex
100
AcDb2dVertex
 10
44.18703147703775
 20
252.1754847675299
 30
0.0
  0
VERTEX
  5
43CC
330
43BC
100
AcDbEntity
  8
MODEL
100
AcDbVertex
100
AcDb2dVertex
 10
44.19803489961458
 20
252.1837373344625
 30
0.0
  0
VERTEX
  5
43CD
330
43BC
100
AcDbEntity
  8
MODEL
100
AcDbVertex
100
AcDb2dVertex
 10
44.22898202561225
 20
252.2043687517942
 30
0.0
  0
VERTEX
  5
43CE
330
43BC
100
AcDbEntity
  8
MODEL
100
AcDbVertex
100
AcDb2dVertex
 10
44.25992915160992
 20
252.2222493134818
 30
0.0
  0
VERTEX
  5
43CF
330
43BC
100
AcDbEntity
  8
MODEL
100
AcDbVertex
100
AcDb2dVertex
 10
44.29431484716281
 20
252.237379019525
 30
0.0
  0
VERTEX
  5
43D0
330
43BC
100
AcDbEntity
  8
MODEL
100
AcDbVertex
100
AcDb2dVertex
 10
44.32663740098263
 20
252.2497578699242
 30
0.0
  0
VERTEX
  5
43D1
330
43BC
100
AcDbEntity
  8
MODEL
100
AcDbVertex
100
AcDb2dVertex
 10
44.3617108104466
 20
252.2593858646789
 30
0.0
  0
VERTEX
  5
43D2
330
43BC
100
AcDbEntity
  8
MODEL
100
AcDbVertex
100
AcDb2dVertex
 10
44.39815964773271
 20
252.2676384316117
 30
0.0
  0
VERTEX
  5
43D3
330
43BC
100
AcDbEntity
  8
MODEL
100
AcDbVertex
100
AcDb2dVertex
 10
44.41260163986493
 20
252.2703892872558
 30
0.0
  0
VERTEX
  5
43D4
330
43BC
100
AcDbEntity
  8
MODEL
100
AcDbVertex
100
AcDb2dVertex
 10
44.44905047715105
 20
252.2731401429
 30
0.0
  0
VERTEX
  5
43D5
330
43BC
100
AcDbEntity
  8
MODEL
100
AcDbVertex
100
AcDb2dVertex
 10
44.48412388661507
 20
252.2745155707221
 30
0.0
  0
SEQEND
  5
43D6
330
43BC
100
AcDbEntity
  8
MODEL
  0
MTEXT
  5
44A9
330
A
100
AcDbEntity
  8
TEMPLATE
390
1D
100
AcDbMText
 10
265.8404289095981
 20
78.87309616135087
 30
0.0
 40
4.8865234375
 41
0.0
 46
5.458461156332062
 71
     1
 72
     1
  1
{FLR74-2806-015(マットブラック)}
  7
ＭＳ ゴシック
 73
     1
 44
0.7828267384257843
1001
ACAD
1000
ACAD_MTEXT_DEFINED_HEIGHT_BEGIN
1070
    46
1040
5.458461156332062
1000
ACAD_MTEXT_DEFINED_HEIGHT_END
  0
MTEXT
  5
44AA
330
A
100
AcDbEntity
  8
TEMPLATE
390
1D
100
AcDbMText
 10
265.8404289095981
 20
87.4660388176575
 30
0.0
 40
4.8865234375
 41
0.0
 46
5.458461156332062
 71
     1
 72
     1
  1
{FLR74-2806-001(クローム)}
  7
ＭＳ ゴシック
 73
     1
 44
0.7828267384257843
1001
ACAD
1000
ACAD_MTEXT_DEFINED_HEIGHT_BEGIN
1070
    46
1040
5.458461156332062
1000
ACAD_MTEXT_DEFINED_HEIGHT_END
  0
DIMENSION
  5
44AF
330
A
100
AcDbEntity
  8
DIM
100
AcDbDimension
  2
*D15
 10
208.6538133067288
 20
378.500039970891
 30
0.0
 11
122.6538133010147
 21
378.500039970891
 31
0.0
 70
   160
 71
     5
 42
172.0000000114281
 73
     0
 74
     0
 75
     0
  3
tfrom線あり
100
AcDbAlignedDimension
 13
36.65381329530061
 23
341.9255629974818
 33
0.0
 14
208.6538133067288
 24
341.9255629974818
 34
0.0
100
AcDbRotatedDimension
  0
DIMENSION
  5
44BE
330
A
100
AcDbEntity
  8
DIM
100
AcDbDimension
  2
*D16
 10
142.7776977664148
 20
363.8941677516462
 30
0.0
 11
122.8161137840246
 21
369.3941677516462
 31
0.0
 70
    32
 71
     5
 42
39.92316796478032
 73
     0
 74
     0
 75
     0
  3
tfrom線あり
100
AcDbAlignedDimension
 13
102.8545298016345
 23
315.5010869312061
 33
0.0
 14
142.7776977664148
 24
315.5010869312061
 34
0.0
100
AcDbRotatedDimension
  0
DIMENSION
  5
44EE
330
A
100
AcDbEntity
  8
DIM
100
AcDbDimension
  2
*D19
 10
380.7527880487941
 20
363.8941677516461
 30
0.0
 11
329.351175421041
 21
369.3951056033405
 31
0.0
 70
    32
 71
     5
 42
102.8032252555061
 73
     0
 74
     0
 75
     0
  3
tfrom線あり
100
AcDbAlignedDimension
 13
277.949562793288
 23
346.1269267572924
 33
0.0
 14
380.7527880487941
 24
346.8229720595513
 34
0.0
100
AcDbRotatedDimension
  0
DIMENSION
  5
4515
102
{ACAD_REACTORS
330
4517
102
}
102
{ACAD_XDICTIONARY
360
4516
102
}
330
A
100
AcDbEntity
  8
DIM
100
AcDbDimension
  2
*D20
 10
183.7008017578744
 20
279.3685109759999
 30
0.0
 11
123.8139866689707
 21
284.8694488276943
 31
0.0
 70
    32
 71
     5
 42
119.7736301778073
 73
     0
 74
     0
 75
     0
  3
tfrom線あり
100
AcDbAlignedDimension
 13
63.92717158006707
 23
258.8449342769772
 33
0.0
 14
183.7008017578744
 24
258.8449342769772
 34
0.0
100
AcDbRotatedDimension
  0
DIMENSION
  5
4524
330
A
100
AcDbEntity
  8
DIM
100
AcDbDimension
  2
*D21
 10
201.6666399703724
 20
208.65510144
 30
0.0
 11
122.5963891894413
 21
214.1560392916943
 31
0.0
 70
    32
 71
     5
 42
158.1405015618622
 73
     0
 74
     0
 75
     0
  3
tfrom線あり
100
AcDbAlignedDimension
 13
43.52613840851018
 23
233.0972570050559
 33
0.0
 14
201.6666399703724
 24
234.89048332698
 34
0.0
100
AcDbRotatedDimension
  0
LINE
  5
4560
330
A
100
AcDbEntity
  8
MODEL
 62
     0
100
AcDbLine
 10
220.7651198811772
 20
320.5010869312062
 30
0.0
 11
223.6426780827495
 21
321.6123090775832
 31
0.0
  0
LINE
  5
4561
102
{ACAD_REACTORS
330
457E
102
}
330
A
100
AcDbEntity
  8
MODEL
 62
     0
100
AcDbLine
 10
220.7651198811772
 20
320.5010869312062
 30
0.0
 11
223.6426780827493
 21
319.3898647848293
 31
0.0
  0
LINE
  5
4562
330
A
100
AcDbEntity
  8
MODEL
 62
     0
100
AcDbLine
 10
221.2960601838538
 20
318.2201993854574
 30
0.0
 11
225.1409849038305
 21
322.781974476955
 31
0.0
  0
LINE
  5
4563
330
A
100
AcDbEntity
  8
MODEL
 62
     0
100
AcDbLine
 10
224.1156989400133
 20
318.2201993854574
 30
0.0
 11
227.9606236599899
 21
322.781974476955
 31
0.0
  0
LINE
  5
4564
330
A
100
AcDbEntity
  8
MODEL
 62
     0
100
AcDbLine
 10
226.9353376961733
 20
318.2201993854574
 30
0.0
 11
230.7802624161497
 21
322.781974476955
 31
0.0
  0
LINE
  5
4565
330
A
100
AcDbEntity
  8
MODEL
 62
     0
100
AcDbLine
 10
230.0772208816082
 20
318.2201993854574
 30
0.0
 11
233.9221456015849
 21
322.781974476955
 31
0.0
  0
LINE
  5
4566
330
A
100
AcDbEntity
  8
MODEL
 62
     0
100
AcDbLine
 10
233.460787389
 20
318.2201993854574
 30
0.0
 11
237.3057121089765
 21
322.781974476955
 31
0.0
  0
LINE
  5
4567
330
A
100
AcDbEntity
  8
MODEL
 62
     0
100
AcDbLine
 10
223.6426780827495
 20
321.6123090775832
 30
0.0
 11
277.7651198811772
 21
321.6123090775832
 31
0.0
  0
LINE
  5
4568
330
A
100
AcDbEntity
  8
MODEL
 62
     0
100
AcDbLine
 10
236.7347769384615
 20
318.2201993854574
 30
0.0
 11
240.579701658438
 21
322.781974476955
 31
0.0
  0
LINE
  5
4569
330
A
100
AcDbEntity
  8
MODEL
 62
     0
100
AcDbLine
 10
240.1183434458531
 20
318.2201993854574
 30
0.0
 11
243.9632681658296
 21
322.781974476955
 31
0.0
  0
LINE
  5
456A
330
A
100
AcDbEntity
  8
MODEL
 62
     0
100
AcDbLine
 10
243.6943008734924
 20
318.2201993854574
 30
0.0
 11
247.539225593469
 21
322.781974476955
 31
0.0
  0
LINE
  5
456B
330
A
100
AcDbEntity
  8
MODEL
 62
     0
100
AcDbLine
 10
223.6426780827497
 20
319.3898647848293
 30
0.0
 11
277.7651198811772
 21
319.389864784829
 31
0.0
  0
LINE
  5
456C
330
A
100
AcDbEntity
  8
MODEL
 62
     0
100
AcDbLine
 10
247.1305131504453
 20
318.2201993854574
 30
0.0
 11
250.9754378704219
 21
322.781974476955
 31
0.0
  0
LINE
  5
456D
330
A
100
AcDbEntity
  8
MODEL
 62
     0
100
AcDbLine
 10
250.5140796578371
 20
318.2201993854574
 30
0.0
 11
254.3590043778136
 21
322.781974476955
 31
0.0
  0
LINE
  5
456E
330
A
100
AcDbEntity
  8
MODEL
 62
     0
100
AcDbLine
 10
253.7880692072985
 20
318.2201993854574
 30
0.0
 11
257.632993927275
 21
322.781974476955
 31
0.0
  0
LINE
  5
456F
330
A
100
AcDbEntity
  8
MODEL
 62
     0
100
AcDbLine
 10
257.1716357146902
 20
318.2201993854574
 30
0.0
 11
261.0165604346666
 21
322.781974476955
 31
0.0
  0
LINE
  5
4570
330
A
100
AcDbEntity
  8
MODEL
 62
     0
100
AcDbLine
 10
260.7475931423295
 20
318.2201993854574
 30
0.0
 11
264.4703480792679
 21
322.6370272767403
 31
0.0
  0
LINE
  5
4571
330
A
100
AcDbEntity
  8
MODEL
100
AcDbLine
 10
277.7651198811772
 20
321.6123090775832
 30
0.0
 11
277.7651198811772
 21
319.389864784829
 31
0.0
  0
LINE
  5
4575
330
A
100
AcDbEntity
  8
MODEL
 62
     0
100
AcDbLine
 10
264.208170355794
 20
318.2201993854574
 30
0.0
 11
268.0530950757706
 21
322.781974476955
 31
0.0
  0
LINE
  5
4576
330
A
100
AcDbEntity
  8
MODEL
 62
     0
100
AcDbLine
 10
267.5917368631858
 20
318.2201993854574
 30
0.0
 11
271.4366615831623
 21
322.781974476955
 31
0.0
  0
LINE
  5
4577
330
A
100
AcDbEntity
  8
MODEL
 62
     0
100
AcDbLine
 10
270.8657264126472
 20
318.2201993854574
 30
0.0
 11
274.7106511326237
 21
322.781974476955
 31
0.0
  0
LINE
  5
4578
330
A
100
AcDbEntity
  8
MODEL
 62
     0
100
AcDbLine
 10
274.249292920039
 20
318.2201993854574
 30
0.0
 11
277.7651198811772
 21
322.3915195088419
 31
0.0
  0
DIMENSION
  5
457C
102
{ACAD_REACTORS
330
457E
102
}
102
{ACAD_XDICTIONARY
360
457D
102
}
330
A
100
AcDbEntity
  8
DIM
100
AcDbDimension
  2
*D22
 10
220.7651198811772
 20
297.0160519088716
 30
0.0
 11
249.2651198811772
 21
302.516989760566
 31
0.0
 70
    32
 71
     5
 42
57.0
 73
     0
 74
     0
 75
     0
  3
tfrom線あり
100
AcDbAlignedDimension
 13
277.7651198811772
 23
311.3271336855117
 33
0.0
 14
220.7651198811772
 24
320.5010869312062
 34
0.0
100
AcDbRotatedDimension
  0
DIMENSION
  5
458B
330
A
100
AcDbEntity
  8
DIM
100
AcDbDimension
  2
*D23
 10
396.4007440111116
 20
234.3912030275513
 30
0.0
 11
396.4007440111116
 21
288.6786514526151
 31
0.0
 70
   160
 71
     5
 42
108.5748968501275
 73
     0
 74
     0
 75
     0
  3
tfrom線あり
100
AcDbAlignedDimension
 13
382.2743645186268
 23
342.9660998776789
 33
0.0
 14
309.7826356226268
 24
234.3912030275513
 34
0.0
 50
90.0
100
AcDbRotatedDimension
  0
DIMENSION
  5
459A
102
{ACAD_REACTORS
330
459C
102
}
102
{ACAD_XDICTIONARY
360
459B
102
}
330
A
100
AcDbEntity
  8
DIM
100
AcDbDimension
  2
*D24
 10
27.03189542342973
 20
320.5010869312061
 30
0.0
 11
21.53095757173533
 21
331.7335934044425
 31
0.0
 70
    32
 71
     5
 42
22.46501294647282
 73
     0
 74
     0
 75
     0
  3
tfrom線あり
100
AcDbAlignedDimension
 13
43.99164753350973
 23
342.9660998776789
 33
0.0
 14
102.8545298016345
 24
320.5010869312061
 34
0.0
 50
90.0
100
AcDbRotatedDimension
  0
MTEXT
  5
45C5
330
A
100
AcDbEntity
  8
TEMPLATE
390
1D
100
AcDbMText
 10
25.63067712000003
 20
42.75631871999997
 30
0.0
 40
5.0
 41
0.0
 46
2.791867262723521
 71
     1
 72
     1
  1
{ビス：M4x60mm・プラグS6(下穴Ø6mm)付属}
  7
ＭＳ ゴシック
 73
     1
 44
0.7828267384257843
1001
ACAD
1000
ACAD_MTEXT_DEFINED_HEIGHT_BEGIN
1070
    46
1040
2.791867262723521
1000
ACAD_MTEXT_DEFINED_HEIGHT_END
  0
VIEWPORT
  5
349
330
B
100
AcDbEntity
 67
     1
  8
0
100
AcDbViewport
 10
202.5
 20
128.5
 30
0.0
 40
486.0
 41
308.4
 68
     1
 69
     1
 12
202.5
 22
128.5
 13
0.0
 23
0.0
 14
0.5
 24
0.5
 15
0.0
 25
0.0
 16
0.0
 26
0.0
 36
1.0
 17
0.0
 27
0.0
 37
0.0
 42
50.0
 43
0.0
 44
0.0
 45
308.4
 50
0.0
 51
0.0
 72
   100
 90
   557152
  1

281
     0
 71
     1
 74
     0
110
0.0
120
0.0
130
0.0
111
1.0
121
0.0
131
0.0
112
0.0
122
1.0
132
0.0
 79
     0
146
0.0
170
     0
 61
     5
348
26C
292
     1
282
     1
141
0.0
142
0.0
 63
   256
  0
VIEWPORT
  5
34A
330
B
100
AcDbEntity
 67
     1
  8
0
100
AcDbViewport
 10
202.5
 20
128.5
 30
0.0
 40
324.0
 41
205.6
 68
     2
 69
     2
 12
986.6781359294573
 22
1427.077061889956
 13
0.0
 23
0.0
 14
0.5
 24
0.5
 15
0.0
 25
0.0
 16
0.0
 26
0.0
 36
1.0
 17
0.0
 27
0.0
 37
0.0
 42
50.0
 43
0.0
 44
0.0
 45
2890.021615685494
 50
0.0
 51
0.0
 72
   100
 90
   557152
  1

281
     0
 71
     1
 74
     0
110
0.0
120
0.0
130
0.0
111
1.0
121
0.0
131
0.0
112
0.0
122
1.0
132
0.0
 79
     0
146
0.0
170
     0
 61
     5
348
26C
292
     1
282
     1
141
0.0
142
0.0
 63
   256
  0
ENDSEC
  0
SECTION
  2
OBJECTS
  0
DICTIONARY
  5
19
330
0
100
AcDbDictionary
281
     1
  3
ACAD_COLOR
350
674
  3
ACAD_DETAILVIEWSTYLE
350
BBF
  3
ACAD_FIELDLIST
350
3BE4
  3
ACAD_GROUP
350
1A
  3
ACAD_IMAGE_VARS
350
27B
  3
ACAD_LAYOUT
350
1E
  3
ACAD_MATERIAL
350
263
  3
ACAD_MLEADERSTYLE
350
336
  3
ACAD_MLINESTYLE
350
1B
  3
ACAD_PLOTSETTINGS
350
22
  3
ACAD_PLOTSTYLENAME
350
1F
  3
ACAD_SCALELIST
350
241
  3
ACAD_SECTIONVIEWSTYLE
350
BC0
  3
ACAD_TABLESTYLE
350
278
  3
ACAD_VISUALSTYLE
350
267
  3
ACDB_RECOMPOSE_DATA
350
45D0
  3
AcDbVariableDictionary
350
330
  3
APPDATA
350
27A
  3
DimOffsetDictionary
350
E38
  0
SUN
  5
904
330
15
100
AcDbSun
 90
        1
290
     0
 63
     7
421
 16777215
 40
1.0
291
     1
 91
  2455826
 92
 54000000
292
     0
 70
     2
 71
   256
280
     1
  0
DICTIONARY
  5
2E1
330
2
100
AcDbDictionary
280
     1
281
     1
  3
ACAD_LAYERSTATES
360
2E2
  3
ACLYDICTIONARY
360
DDE
  0
DICTIONARY
  5
3D3D
330
A
100
AcDbDictionary
280
     1
281
     1
  3
ACAD_SORTENTS
360
3D3E
  0
DICTIONARY
  5
3CB7
330
3CB5
100
AcDbDictionary
280
     1
281
     1
  3
ACAD_FIELD
360
45C7
  0
DICTIONARY
  5
4516
330
4515
100
AcDbDictionary
280
     1
281
     1
  3
ACAD_DIMASSOC
360
4517
  0
DICTIONARY
  5
457D
330
457C
100
AcDbDictionary
280
     1
281
     1
  3
ACAD_DIMASSOC
360
457E
  0
DICTIONARY
  5
459B
330
459A
100
AcDbDictionary
280
     1
281
     1
  3
ACAD_DIMASSOC
360
459C
  0
DICTIONARY
  5
674
102
{ACAD_REACTORS
330
19
102
}
330
19
100
AcDbDictionary
281
     1
  0
DICTIONARY
  5
BBF
102
{ACAD_REACTORS
330
19
102
}
330
19
100
AcDbDictionary
281
     1
  0
FIELDLIST
  5
3BE4
102
{ACAD_REACTORS
330
19
102
}
330
19
100
AcDbIdSet
 90
        2
330
3CB9
330
3CB6
100
AcDbFieldList
  0
DICTIONARY
  5
1A
102
{ACAD_REACTORS
330
19
102
}
330
19
100
AcDbDictionary
281
     1
  3
*A1
350
3C75
  3
*A2
350
44FD
  0
RASTERVARIABLES
  5
27B
102
{ACAD_REACTORS
330
19
102
}
330
19
100
AcDbRasterVariables
 90
        0
 70
     1
 71
     1
 72
     1
  0
DICTIONARY
  5
1E
102
{ACAD_REACTORS
330
19
102
}
330
19
100
AcDbDictionary
281
     1
  3
Layout1
350
21
  3
Model
350
20
  0
DICTIONARY
  5
263
102
{ACAD_REACTORS
330
19
102
}
330
19
100
AcDbDictionary
281
     1
  3
ByBlock
350
265
  3
ByLayer
350
264
  3
Global
350
266
  0
DICTIONARY
  5
336
102
{ACAD_REACTORS
330
19
102
}
330
19
100
AcDbDictionary
281
     1
  3
Standard
350
D59
  0
DICTIONARY
  5
1B
102
{ACAD_REACTORS
330
19
102
}
330
19
100
AcDbDictionary
281
     1
  3
Standard
350
1C
  0
DICTIONARY
  5
22
102
{ACAD_REACTORS
330
19
102
}
330
19
100
AcDbDictionary
281
     1
  0
ACDBDICTIONARYWDFLT
  5
1F
102
{ACAD_REACTORS
330
19
102
}
330
19
100
AcDbDictionary
281
     1
  3
Normal
350
1D
100
AcDbDictionaryWithDefault
340
1D
  0
DICTIONARY
  5
241
102
{ACAD_REACTORS
330
19
102
}
330
19
100
AcDbDictionary
281
     1
  3
A0
350
242
  3
A1
350
243
  3
A2
350
244
  3
A3
350
245
  3
A4
350
246
  3
A5
350
247
  3
A6
350
248
  3
A7
350
249
  3
A8
350
24A
  3
A9
350
24B
  3
B0
350
24C
  3
B1
350
24D
  3
B2
350
24E
  3
B3
350
24F
  3
B4
350
250
  3
B5
350
251
  3
B6
350
252
  3
B7
350
253
  3
B8
350
254
  3
B9
350
255
  3
C0
350
256
  3
C1
350
257
  3
C2
350
258
  3
C3
350
259
  3
C4
350
25A
  3
C5
350
25B
  3
C6
350
25C
  3
C7
350
25D
  3
C8
350
25E
  3
C9
350
25F
  3
D0
350
260
  3
D1
350
261
  3
D2
350
262
  0
DICTIONARY
  5
BC0
102
{ACAD_REACTORS
330
19
102
}
330
19
100
AcDbDictionary
281
     1
  0
DICTIONARY
  5
278
102
{ACAD_REACTORS
330
19
102
}
330
19
100
AcDbDictionary
281
     1
  3
Standard
350
279
  0
DICTIONARY
  5
267
102
{ACAD_REACTORS
330
19
102
}
330
19
100
AcDbDictionary
281
     1
  3
2dWireframe
350
26C
  3
3D Hidden
350
26E
  3
3dWireframe
350
26D
  3
Basic
350
26F
  3
Brighten
350
273
  3
ColorChange
350
277
  3
Conceptual
350
271
  3
Dim
350
272
  3
EdgeColorOff
350
8FE
  3
Facepattern
350
276
  3
Flat
350
268
  3
FlatWithEdges
350
269
  3
Gouraud
350
26A
  3
GouraudWithEdges
350
26B
  3
Hidden
350
8FB
  3
JitterOff
350
8FC
  3
Linepattern
350
275
  3
OverhangOff
350
8FD
  3
Realistic
350
270
  3
Shaded
350
903
  3
Shaded with edges
350
902
  3
Shades of Gray
350
8FF
  3
Sketchy
350
900
  3
Thicken
350
274
  3
Wireframe
350
8FA
  3
X-Ray
350
901
  0
XRECORD
  5
45D0
102
{ACAD_REACTORS
330
19
102
}
330
19
100
AcDbXrecord
280
     1
 90
        1
330
279
  0
DICTIONARY
  5
330
102
{ACAD_REACTORS
330
19
102
}
330
19
100
AcDbDictionary
281
     1
  3
CANNOSCALE
350
331
  3
CMLEADERSTYLE
350
D5E
  3
CTABLESTYLE
350
335
  3
HPTRANSPARENCY
350
D52
  3
XCLIPFRAME
350
896
  0
DICTIONARY
  5
27A
102
{ACAD_REACTORS
330
19
102
}
330
19
100
AcDbDictionary
281
     1
  0
DICTIONARY
  5
E38
102
{ACAD_REACTORS
330
19
102
}
330
19
100
AcDbDictionary
281
     1
  3
DIMRAILANGLE
350
246C
  3
DIMRAILFIRSTOFFSET
350
246A
  3
DIMRAILOFFSET
350
246B
  3
DIMRAILSENABLED
350
246D
  0
DICTIONARY
  5
2E2
102
{ACAD_REACTORS
330
2E1
102
}
330
2E1
100
AcDbDictionary
281
     1
  0
DICTIONARY
  5
DDE
102
{ACAD_REACTORS
330
2E1
102
}
330
2E1
100
AcDbDictionary
281
     1
1001
ACAD
1000
<All
  0
SORTENTSTABLE
  5
3D3E
102
{ACAD_REACTORS
330
3D3D
102
}
330
3D3D
100
AcDbSortentsTable
330
A
331
3C64
  5
3C1F
331
3C65
  5
3C63
331
3C70
  5
3C64
331
3C71
  5
3C65
331
3C72
  5
3C70
331
3C73
  5
3C71
331
3C74
  5
3C72
331
3CB5
  5
3C92
  0
DICTIONARY
  5
45C7
102
{ACAD_REACTORS
330
3CB7
102
}
330
3CB7
100
AcDbDictionary
280
     1
281
     1
  3
TEXT
360
3CB6
  0
DIMASSOC
  5
4517
102
{ACAD_REACTORS
330
4516
102
}
330
4516
100
AcDbDimAssoc
330
4515
 90
        3
 70
     0
 71
     1
  1
AcDbOsnapPointRef
 72
    13
331
431B
 73
     2
 91
        1
 40
0.0
 10
0.0
 20
0.0
 30
0.0
 75
     0
  1
AcDbOsnapPointRef
 72
     8
331
4380
 73
     2
 91
        1
 40
0.0818070206208818
 10
0.0
 20
0.0
 30
0.0
 75
     1
  1
AcDbOsnapPointRef
 72
    13
331
431B
 73
     2
 91
        1
 40
0.0
 10
0.0
 20
0.0
 30
0.0
 75
     0
  0
DIMASSOC
  5
457E
102
{ACAD_REACTORS
330
457D
102
}
330
457D
100
AcDbDimAssoc
330
457C
 90
        3
 70
     0
 71
     1
  1
AcDbOsnapPointRef
 72
     1
331
4150
 73
     0
 91
        0
 40
0.0
 10
0.0
 20
0.0
 30
0.0
 75
     0
  1
AcDbOsnapPointRef
 72
    13
331
4561
 73
     0
 91
        0
 40
0.0
 10
0.0
 20
0.0
 30
0.0
 75
     0
  0
DIMASSOC
  5
459C
102
{ACAD_REACTORS
330
459B
102
}
330
459B
100
AcDbDimAssoc
330
459A
 90
        1
 70
     0
 71
     1
  1
AcDbOsnapPointRef
 72
    10
331
4141
 73
     0
 91
        0
 40
0.0213674873820991
 10
0.0
 20
0.0
 30
0.0
 75
     0
  0
GROUP
  5
3C75
102
{ACAD_REACTORS
330
1A
102
}
330
1A
100
AcDbGroup
300

 70
     1
 71
     1
340
3C64
340
3C65
340
3C70
340
3C71
340
3C72
340
3C73
340
3C74
  0
GROUP
  5
44FD
102
{ACAD_REACTORS
330
1A
102
}
330
1A
100
AcDbGroup
300

 70
     1
 71
     1
340
411A
340
411C
340
411D
340
4120
340
4123
340
4124
340
4125
340
4126
340
4127
340
4128
340
412F
340
4130
340
4131
340
4132
340
4133
340
4134
340
4135
340
4136
340
4137
340
4138
340
4139
340
413A
340
413D
340
413E
340
4142
340
4143
340
4157
340
4158
340
4159
340
415A
340
415B
340
415C
340
415F
340
4160
340
4161
340
4162
340
4163
340
4164
340
4169
340
416A
340
416B
340
416C
340
416D
340
416F
340
4170
340
4171
340
4172
340
4173
340
4174
340
4175
340
4181
340
4192
340
41A3
340
41C2
340
4245
340
4249
340
424D
340
4259
340
4267
340
4268
340
4269
340
426A
340
426B
340
426C
340
426D
340
426E
340
426F
340
4270
340
4271
340
4272
340
4273
340
4274
340
4275
340
4276
340
4277
340
4278
340
4279
340
427A
340
427B
340
427C
340
427D
340
427E
340
427F
340
4280
340
4281
340
4282
340
4283
340
4284
340
4285
340
42BC
340
430D
340
430E
340
431F
340
4327
340
432B
340
432F
340
4337
340
433B
340
4368
340
436C
340
4370
340
4374
340
4378
340
437C
340
43AA
340
43AB
340
43AC
340
43AD
340
43AE
340
43B2
340
43B3
340
43B4
340
43B6
  0
LAYOUT
  5
21
102
{ACAD_REACTORS
330
1E
102
}
330
1E
100
AcDbPlotSettings
  1

  2
none_device
  4
ISO_A3_(420.00_x_297.00_MM)
  6

 40
7.5
 41
20.0
 42
7.5
 43
20.0
 44
420.0
 45
297.0
 46
0.0
 47
0.0
 48
0.0
 49
0.0
140
0.0
141
0.0
142
1.0
143
1.0
 70
     0
 72
     1
 73
     0
 74
     0
  7

 75
     0
 76
     0
 77
     2
 78
   300
147
1.0
148
0.0
149
0.0
100
AcDbLayout
  1
Layout1
 70
     0
 71
     0
 10
-7.5
 20
-20.0
 11
412.5
 21
277.0
 12
0.0
 22
0.0
 32
0.0
 14
0.0
 24
0.0
 34
0.0
 15
0.0
 25
0.0
 35
0.0
146
0.0
 13
0.0
 23
0.0
 33
0.0
 16
0.0
 26
0.0
 36
0.0
 17
0.0
 27
0.0
 37
0.0
 76
     0
330
B
331
349
  0
LAYOUT
  5
20
102
{ACAD_REACTORS
330
1E
102
}
330
1E
100
AcDbPlotSettings
  1

  2
none_device
  4
ISO_A3_(420.00_x_297.00_MM)
  6

 40
7.5
 41
20.0
 42
7.5
 43
20.0
 44
420.0
 45
297.0
 46
0.0
 47
0.0
 48
0.0
 49
0.0
140
0.0
141
0.0
142
1.0
143
1.0
 70
  1024
 72
     1
 73
     0
 74
     0
  7

 75
     0
 76
     0
 77
     2
 78
   300
147
1.0
148
0.0
149
0.0
100
AcDbLayout
  1
Model
 70
     0
 71
     1
 10
0.0
 20
0.0
 11
420.0
 21
594.0
 12
0.0
 22
0.0
 32
0.0
 14
0.0
 24
0.0
 34
-0.0000000000000071
 15
420.0
 25
594.0
 35
0.0000000000000071
146
0.0
 13
0.0
 23
0.0
 33
0.0
 16
0.0
 26
0.0
 36
0.0
 17
0.0
 27
0.0
 37
0.0
 76
     0
330
A
331
15
  0
MATERIAL
  5
265
102
{ACAD_REACTORS
330
263
102
}
330
263
100
AcDbMaterial
  1
ByBlock
 72
     1
 94
      127
  0
MATERIAL
  5
264
102
{ACAD_REACTORS
330
263
102
}
330
263
100
AcDbMaterial
  1
ByLayer
 72
     1
 94
      127
  0
MATERIAL
  5
266
102
{ACAD_REACTORS
330
263
102
}
330
263
100
AcDbMaterial
  1
Global
 72
     1
 94
      127
  0
MLEADERSTYLE
  5
D59
102
{ACAD_REACTORS
330
336
102
}
330
336
100
AcDbMLeaderStyle
170
     2
171
     1
172
     0
 90
        2
 40
0.0
 41
0.0
173
     1
 91
-1056964608
340
11
 92
       -2
290
     1
 42
2.0
291
     1
 43
8.0
  3
Standard
341
0
 44
4.0
300

342
17
174
     1
178
     6
175
     1
176
     0
 93
-1056964608
 45
4.0
292
     0
297
     0
 46
4.0
343
0
 94
-1056964608
 47
1.0
 49
1.0
140
1.0
293
     1
141
0.0
294
     1
177
     0
142
1.0
295
     0
296
     0
143
3.75
1001
ACAD_MLEADERVER
1070
     2
  0
MLINESTYLE
  5
1C
102
{ACAD_REACTORS
330
1B
102
}
330
1B
100
AcDbMlineStyle
  2
Standard
 70
     0
  3

 62
     0
 51
90.0
 52
90.0
 71
     2
 49
0.5
 62
   256
  6
BYLAYER
 49
-0.5
 62
   256
  6
BYLAYER
  0
ACDBPLACEHOLDER
  5
1D
102
{ACAD_REACTORS
330
1F
102
}
330
1F
  0
SCALE
  5
242
102
{ACAD_REACTORS
330
241
102
}
330
241
100
AcDbScale
 70
     0
300
1:1
140
1.0
141
1.0
290
     1
  0
SCALE
  5
243
102
{ACAD_REACTORS
330
241
102
}
330
241
100
AcDbScale
 70
     0
300
1:2
140
1.0
141
2.0
290
     0
  0
SCALE
  5
244
102
{ACAD_REACTORS
330
241
102
}
330
241
100
AcDbScale
 70
     0
300
1:4
140
1.0
141
4.0
290
     0
  0
SCALE
  5
245
102
{ACAD_REACTORS
330
241
102
}
330
241
100
AcDbScale
 70
     0
300
1:5
140
1.0
141
5.0
290
     0
  0
SCALE
  5
246
102
{ACAD_REACTORS
330
241
102
}
330
241
100
AcDbScale
 70
     0
300
1:8
140
1.0
141
8.0
290
     0
  0
SCALE
  5
247
102
{ACAD_REACTORS
330
241
102
}
330
241
100
AcDbScale
 70
     0
300
1:10
140
1.0
141
10.0
290
     0
  0
SCALE
  5
248
102
{ACAD_REACTORS
330
241
102
}
330
241
100
AcDbScale
 70
     0
300
1:16
140
1.0
141
16.0
290
     0
  0
SCALE
  5
249
102
{ACAD_REACTORS
330
241
102
}
330
241
100
AcDbScale
 70
     0
300
1:20
140
1.0
141
20.0
290
     0
  0
SCALE
  5
24A
102
{ACAD_REACTORS
330
241
102
}
330
241
100
AcDbScale
 70
     0
300
1:30
140
1.0
141
30.0
290
     0
  0
SCALE
  5
24B
102
{ACAD_REACTORS
330
241
102
}
330
241
100
AcDbScale
 70
     0
300
1:40
140
1.0
141
40.0
290
     0
  0
SCALE
  5
24C
102
{ACAD_REACTORS
330
241
102
}
330
241
100
AcDbScale
 70
     0
300
1:50
140
1.0
141
50.0
290
     0
  0
SCALE
  5
24D
102
{ACAD_REACTORS
330
241
102
}
330
241
100
AcDbScale
 70
     0
300
1:100
140
1.0
141
100.0
290
     0
  0
SCALE
  5
24E
102
{ACAD_REACTORS
330
241
102
}
330
241
100
AcDbScale
 70
     0
300
2:1
140
2.0
141
1.0
290
     0
  0
SCALE
  5
24F
102
{ACAD_REACTORS
330
241
102
}
330
241
100
AcDbScale
 70
     0
300
4:1
140
4.0
141
1.0
290
     0
  0
SCALE
  5
250
102
{ACAD_REACTORS
330
241
102
}
330
241
100
AcDbScale
 70
     0
300
8:1
140
8.0
141
1.0
290
     0
  0
SCALE
  5
251
102
{ACAD_REACTORS
330
241
102
}
330
241
100
AcDbScale
 70
     0
300
10:1
140
10.0
141
1.0
290
     0
  0
SCALE
  5
252
102
{ACAD_REACTORS
330
241
102
}
330
241
100
AcDbScale
 70
     0
300
100:1
140
100.0
141
1.0
290
     0
  0
SCALE
  5
253
102
{ACAD_REACTORS
330
241
102
}
330
241
100
AcDbScale
 70
     0
300
1/128" = 1'-0"
140
0.0078125
141
12.0
290
     0
  0
SCALE
  5
254
102
{ACAD_REACTORS
330
241
102
}
330
241
100
AcDbScale
 70
     0
300
1/64" = 1'-0"
140
0.015625
141
12.0
290
     0
  0
SCALE
  5
255
102
{ACAD_REACTORS
330
241
102
}
330
241
100
AcDbScale
 70
     0
300
1/32" = 1'-0"
140
0.03125
141
12.0
290
     0
  0
SCALE
  5
256
102
{ACAD_REACTORS
330
241
102
}
330
241
100
AcDbScale
 70
     0
300
1/16" = 1'-0"
140
0.0625
141
12.0
290
     0
  0
SCALE
  5
257
102
{ACAD_REACTORS
330
241
102
}
330
241
100
AcDbScale
 70
     0
300
3/32" = 1'-0"
140
0.09375
141
12.0
290
     0
  0
SCALE
  5
258
102
{ACAD_REACTORS
330
241
102
}
330
241
100
AcDbScale
 70
     0
300
1/8" = 1'-0"
140
0.125
141
12.0
290
     0
  0
SCALE
  5
259
102
{ACAD_REACTORS
330
241
102
}
330
241
100
AcDbScale
 70
     0
300
3/16" = 1'-0"
140
0.1875
141
12.0
290
     0
  0
SCALE
  5
25A
102
{ACAD_REACTORS
330
241
102
}
330
241
100
AcDbScale
 70
     0
300
1/4" = 1'-0"
140
0.25
141
12.0
290
     0
  0
SCALE
  5
25B
102
{ACAD_REACTORS
330
241
102
}
330
241
100
AcDbScale
 70
     0
300
3/8" = 1'-0"
140
0.375
141
12.0
290
     0
  0
SCALE
  5
25C
102
{ACAD_REACTORS
330
241
102
}
330
241
100
AcDbScale
 70
     0
300
1/2" = 1'-0"
140
0.5
141
12.0
290
     0
  0
SCALE
  5
25D
102
{ACAD_REACTORS
330
241
102
}
330
241
100
AcDbScale
 70
     0
300
3/4" = 1'-0"
140
0.75
141
12.0
290
     0
  0
SCALE
  5
25E
102
{ACAD_REACTORS
330
241
102
}
330
241
100
AcDbScale
 70
     0
300
1" = 1'-0"
140
1.0
141
12.0
290
     0
  0
SCALE
  5
25F
102
{ACAD_REACTORS
330
241
102
}
330
241
100
AcDbScale
 70
     0
300
1-1/2" = 1'-0"
140
1.5
141
12.0
290
     0
  0
SCALE
  5
260
102
{ACAD_REACTORS
330
241
102
}
330
241
100
AcDbScale
 70
     0
300
3" = 1'-0"
140
3.0
141
12.0
290
     0
  0
SCALE
  5
261
102
{ACAD_REACTORS
330
241
102
}
330
241
100
AcDbScale
 70
     0
300
6" = 1'-0"
140
6.0
141
12.0
290
     0
  0
SCALE
  5
262
102
{ACAD_REACTORS
330
241
102
}
330
241
100
AcDbScale
 70
     0
300
1'-0" = 1'-0"
140
12.0
141
12.0
290
     0
  0
TABLESTYLE
  5
279
102
{ACAD_REACTORS
330
278
102
}
102
{ACAD_XDICTIONARY
360
45CE
102
}
330
278
100
AcDbTableStyle
  3
Standard
 70
     0
 71
     0
 40
0.06
 41
0.06
280
     0
281
     0
  7
Standard
140
4.5
170
     2
 62
     0
 63
   257
283
     0
 90
        4
 91
        0
  1

274
    -2
284
     1
 64
     0
275
    -2
285
     1
 65
     0
276
    -2
286
     1
 66
     0
277
    -2
287
     1
 67
     0
278
    -2
288
     1
 68
     0
279
    -2
289
     1
 69
     0
  7
Standard
140
6.0
170
     5
 62
     0
 63
   257
283
     0
 90
        4
 91
        0
  1

274
    -2
284
     1
 64
     0
275
    -2
285
     1
 65
     0
276
    -2
286
     1
 66
     0
277
    -2
287
     1
 67
     0
278
    -2
288
     1
 68
     0
279
    -2
289
     1
 69
     0
  7
Standard
140
4.5
170
     5
 62
     0
 63
   257
283
     0
 90
        4
 91
        0
  1

274
    -2
284
     1
 64
     0
275
    -2
285
     1
 65
     0
276
    -2
286
     1
 66
     0
277
    -2
287
     1
 67
     0
278
    -2
288
     1
 68
     0
279
    -2
289
     1
 69
     0
  0
VISUALSTYLE
  5
26C
102
{ACAD_REACTORS
330
267
102
}
330
267
100
AcDbVisualStyle
  2
2dWireframe
 70
     4
 71
     0
 72
     2
 73
     0
 90
        0
 40
-0.6
 41
-30.0
 62
     5
 63
     7
421
 16777215
 74
     1
 91
        4
 64
     7
 65
   257
 75
     1
175
     1
 42
1.0
 92
        0
 66
   257
 43
1.0
 76
     1
 77
     6
 78
     2
 67
     7
 79
     5
170
     0
171
     0
290
     0
174
     0
 93
        1
 44
0.0
173
     0
291
     0
 45
0.0
  0
VISUALSTYLE
  5
26E
102
{ACAD_REACTORS
330
267
102
}
330
267
100
AcDbVisualStyle
  2
3D Hidden
 70
     6
 71
     1
 72
     2
 73
     2
 90
        0
 40
-0.6
 41
-30.0
 62
     5
 63
     7
421
 16777215
 74
     2
 91
        2
 64
     7
 65
   257
 75
     2
175
     1
 42
40.0
 92
        0
 66
   257
 43
1.0
 76
     1
 77
     6
 78
     2
 67
     7
 79
     3
170
     0
171
     0
290
     0
174
     0
 93
        1
 44
0.0
173
     0
291
     0
 45
0.0
  0
VISUALSTYLE
  5
26D
102
{ACAD_REACTORS
330
267
102
}
330
267
100
AcDbVisualStyle
  2
3dWireframe
 70
     5
 71
     0
 72
     2
 73
     0
 90
        0
 40
-0.6
 41
-30.0
 62
     5
 63
     7
421
 16777215
 74
     1
 91
        4
 64
     7
 65
   257
 75
     1
175
     1
 42
1.0
 92
        0
 66
   257
 43
1.0
 76
     1
 77
     6
 78
     2
 67
     7
 79
     5
170
     0
171
     0
290
     0
174
     0
 93
        1
 44
0.0
173
     0
291
     0
 45
0.0
  0
VISUALSTYLE
  5
26F
102
{ACAD_REACTORS
330
267
102
}
330
267
100
AcDbVisualStyle
  2
Basic
 70
     7
 71
     1
 72
     0
 73
     1
 90
        0
 40
-0.6
 41
-30.0
 62
     5
 63
     7
421
 16777215
 74
     0
 91
        4
 64
     7
 65
   257
 75
     1
175
     1
 42
1.0
 92
        8
 66
     7
 43
1.0
 76
     1
 77
     6
 78
     2
 67
     7
 79
     5
170
     0
171
     0
290
     0
174
     0
 93
        1
 44
0.0
173
     0
291
     1
 45
0.0
  0
VISUALSTYLE
  5
273
102
{ACAD_REACTORS
330
267
102
}
330
267
100
AcDbVisualStyle
  2
Brighten
 70
    12
 71
     2
 72
     2
 73
     0
 90
        0
 40
-0.6
 41
-30.0
 62
     5
 63
     7
421
 16777215
 74
     1
 91
        4
 64
     7
 65
   257
 75
     1
175
     1
 42
1.0
 92
        8
 66
     7
 43
1.0
 76
     1
 77
     6
 78
     2
 67
     7
 79
     5
170
     0
171
     0
290
     0
174
     0
 93
        1
 44
50.0
173
     0
291
     1
 45
0.0
  0
VISUALSTYLE
  5
277
102
{ACAD_REACTORS
330
267
102
}
330
267
100
AcDbVisualStyle
  2
ColorChange
 70
    16
 71
     2
 72
     2
 73
     3
 90
        0
 40
-0.6
 41
-30.0
 62
     5
 63
     8
421
  8421504
 74
     1
 91
        4
 64
     7
 65
   257
 75
     1
175
     1
 42
1.0
 92
        8
 66
     8
424
  8421504
 43
1.0
 76
     1
 77
     6
 78
     2
 67
     7
 79
     5
170
     0
171
     0
290
     0
174
     0
 93
        1
 44
0.0
173
     0
291
     1
 45
0.0
  0
VISUALSTYLE
  5
271
102
{ACAD_REACTORS
330
267
102
}
330
267
100
AcDbVisualStyle
  2
Conceptual
 70
     9
 71
     3
 72
     2
 73
     0
 90
        0
 40
-0.6
 41
-30.0
 62
     5
 63
     7
421
 16777215
 74
     2
 91
        2
 64
     7
 65
   257
 75
     1
175
     1
 42
40.0
 92
        8
 66
     7
 43
1.0
 76
     1
 77
     6
 78
     2
 67
     7
 79
     3
170
     0
171
     0
290
     0
174
     0
 93
        1
 44
0.0
173
     0
291
     0
 45
0.0
  0
VISUALSTYLE
  5
272
102
{ACAD_REACTORS
330
267
102
}
330
267
100
AcDbVisualStyle
  2
Dim
 70
    11
 71
     2
 72
     2
 73
     0
 90
        0
 40
-0.6
 41
-30.0
 62
     5
 63
     7
421
 16777215
 74
     1
 91
        4
 64
     7
 65
   257
 75
     1
175
     1
 42
1.0
 92
        8
 66
     7
 43
1.0
 76
     1
 77
     6
 78
     2
 67
     7
 79
     5
170
     0
171
     0
290
     0
174
     0
 93
        1
 44
-50.0
173
     0
291
     1
 45
0.0
  0
VISUALSTYLE
  5
8FE
102
{ACAD_REACTORS
330
267
102
}
330
267
100
AcDbVisualStyle
  2
EdgeColorOff
 70
    22
 71
     2
 72
     2
 73
     0
 90
        0
 40
0.6
 41
30.0
 62
     5
 63
     7
421
 16777215
 74
     1
 91
        4
 64
     7
 65
   257
 75
     1
175
     1
 42
1.0
 92
        8
 66
     7
 43
1.0
 76
     1
 77
     6
 78
     2
 67
     7
 79
     5
170
     0
171
     0
290
     0
174
     0
 93
        1
 44
0.0
173
     0
291
     1
 45
0.0
  0
VISUALSTYLE
  5
276
102
{ACAD_REACTORS
330
267
102
}
330
267
100
AcDbVisualStyle
  2
Facepattern
 70
    15
 71
     2
 72
     2
 73
     0
 90
        0
 40
-0.6
 41
-30.0
 62
     5
 63
     7
421
 16777215
 74
     1
 91
        4
 64
     7
 65
   257
 75
     1
175
     1
 42
1.0
 92
        8
 66
     7
 43
1.0
 76
     1
 77
     6
 78
     2
 67
     7
 79
     5
170
     0
171
     0
290
     0
174
     0
 93
        1
 44
0.0
173
     0
291
     1
 45
0.0
  0
VISUALSTYLE
  5
268
102
{ACAD_REACTORS
330
267
102
}
330
267
100
AcDbVisualStyle
  2
Flat
 70
     0
 71
     2
 72
     1
 73
     1
 90
        2
 40
-0.6
 41
30.0
 62
     5
 63
     7
421
 16777215
 74
     0
 91
        4
 64
     7
 65
   257
 75
     1
175
     1
 42
1.0
 92
        8
 66
     7
 43
1.0
 76
     1
 77
     6
 78
     2
 67
     7
 79
     5
170
     0
171
     0
290
     0
174
     0
 93
       13
 44
0.0
173
     0
291
     1
 45
0.0
  0
VISUALSTYLE
  5
269
102
{ACAD_REACTORS
330
267
102
}
330
267
100
AcDbVisualStyle
  2
FlatWithEdges
 70
     1
 71
     2
 72
     1
 73
     1
 90
        2
 40
-0.6
 41
30.0
 62
     5
 63
     7
421
 16777215
 74
     1
 91
        4
 64
     7
 65
   257
 75
     1
175
     1
 42
1.0
 92
        0
 66
   257
 43
1.0
 76
     1
 77
     6
 78
     2
 67
     7
 79
     5
170
     0
171
     0
290
     0
174
     0
 93
       13
 44
0.0
173
     0
291
     1
 45
0.0
  0
VISUALSTYLE
  5
26A
102
{ACAD_REACTORS
330
267
102
}
330
267
100
AcDbVisualStyle
  2
Gouraud
 70
     2
 71
     2
 72
     2
 73
     1
 90
        2
 40
-0.6
 41
30.0
 62
     5
 63
     7
421
 16777215
 74
     0
 91
        4
 64
     7
 65
   257
 75
     1
175
     1
 42
1.0
 92
        0
 66
     7
 43
1.0
 76
     1
 77
     6
 78
     2
 67
     7
 79
     5
170
     0
171
     0
290
     0
174
     0
 93
       13
 44
0.0
173
     0
291
     1
 45
0.0
  0
VISUALSTYLE
  5
26B
102
{ACAD_REACTORS
330
267
102
}
330
267
100
AcDbVisualStyle
  2
GouraudWithEdges
 70
     3
 71
     2
 72
     2
 73
     1
 90
        2
 40
-0.6
 41
30.0
 62
     5
 63
     7
421
 16777215
 74
     1
 91
        4
 64
     7
 65
   257
 75
     1
175
     1
 42
1.0
 92
        0
 66
   257
 43
1.0
 76
     1
 77
     6
 78
     2
 67
     7
 79
     5
170
     0
171
     0
290
     0
174
     0
 93
       13
 44
0.0
173
     0
291
     1
 45
0.0
  0
VISUALSTYLE
  5
8FB
102
{ACAD_REACTORS
330
267
102
}
330
267
100
AcDbVisualStyle
  2
Hidden
 70
     6
 71
     1
 72
     2
 73
     2
 90
        0
 40
0.6
 41
30.0
 62
     5
 63
     7
421
 16777215
 74
     2
 91
        2
 64
     7
 65
   257
 75
     2
175
     1
 42
40.0
 92
        0
 66
   257
 43
1.0
 76
     1
 77
     6
 78
     2
 67
     7
 79
     3
170
     0
171
     0
290
     0
174
     0
 93
        1
 44
0.0
173
     0
291
     0
 45
0.0
  0
VISUALSTYLE
  5
8FC
102
{ACAD_REACTORS
330
267
102
}
330
267
100
AcDbVisualStyle
  2
JitterOff
 70
    20
 71
     2
 72
     2
 73
     0
 90
        0
 40
0.6
 41
30.0
 62
     5
 63
     7
421
 16777215
 74
     1
 91
        4
 64
     7
 65
   257
 75
     1
175
     1
 42
1.0
 92
       10
 66
     7
 43
1.0
 76
     1
 77
     6
 78
     2
 67
     7
 79
     5
170
     0
171
     0
290
     0
174
     0
 93
        1
 44
0.0
173
     0
291
     1
 45
0.0
  0
VISUALSTYLE
  5
275
102
{ACAD_REACTORS
330
267
102
}
330
267
100
AcDbVisualStyle
  2
Linepattern
 70
    14
 71
     2
 72
     2
 73
     0
 90
        0
 40
-0.6
 41
-30.0
 62
     5
 63
     7
421
 16777215
 74
     1
 91
        4
 64
     7
 65
   257
 75
     7
175
     7
 42
1.0
 92
        8
 66
     7
 43
1.0
 76
     1
 77
     6
 78
     2
 67
     7
 79
     5
170
     0
171
     0
290
     0
174
     0
 93
        1
 44
0.0
173
     0
291
     1
 45
0.0
  0
VISUALSTYLE
  5
8FD
102
{ACAD_REACTORS
330
267
102
}
330
267
100
AcDbVisualStyle
  2
OverhangOff
 70
    21
 71
     2
 72
     2
 73
     0
 90
        0
 40
0.6
 41
30.0
 62
     5
 63
     7
421
 16777215
 74
     1
 91
        4
 64
     7
 65
   257
 75
     1
175
     1
 42
1.0
 92
        9
 66
     7
 43
1.0
 76
     1
 77
     6
 78
     2
 67
     7
 79
     5
170
     0
171
     0
290
     0
174
     0
 93
        1
 44
0.0
173
     0
291
     1
 45
0.0
  0
VISUALSTYLE
  5
270
102
{ACAD_REACTORS
330
267
102
}
330
267
100
AcDbVisualStyle
  2
Realistic
 70
     8
 71
     2
 72
     2
 73
     0
 90
        0
 40
-0.6
 41
-30.0
 62
     5
 63
     7
421
 16777215
 74
     1
 91
        0
 64
     7
 65
   257
 75
     1
175
     1
 42
1.0
 92
        8
 66
     8
424
  7895160
 43
1.0
 76
     1
 77
     6
 78
     2
 67
     7
 79
     5
170
     0
171
     0
290
     0
174
     0
 93
       13
 44
0.0
173
     0
291
     0
 45
0.0
  0
VISUALSTYLE
  5
903
102
{ACAD_REACTORS
330
267
102
}
330
267
100
AcDbVisualStyle
  2
Shaded
 70
    27
 71
     2
 72
     2
 73
     1
 90
        2
 40
0.6
 41
30.0
 62
     5
 63
     7
421
 16777215
 74
     0
 91
        4
 64
     7
 65
   257
 75
     1
175
     1
 42
1.0
 92
        8
 66
   257
 43
1.0
 76
     1
 77
     6
 78
     2
 67
     8
425
  7895160
 79
     3
170
     0
171
     0
290
     0
174
     0
 93
        5
 44
0.0
173
     0
291
     0
 45
0.0
  0
VISUALSTYLE
  5
902
102
{ACAD_REACTORS
330
267
102
}
330
267
100
AcDbVisualStyle
  2
Shaded with edges
 70
    26
 71
     2
 72
     2
 73
     1
 90
        2
 40
0.6
 41
30.0
 62
     5
 63
     7
421
 16777215
 74
     1
 91
       10
 64
     7
 65
   257
 75
     2
175
     1
 42
1.0
 92
        8
 66
   257
 43
1.0
 76
     1
 77
     6
 78
     2
 67
     7
 79
     3
170
     0
171
     0
290
     0
174
     0
 93
        5
 44
0.0
173
     0
291
     0
 45
0.0
  0
VISUALSTYLE
  5
8FF
102
{ACAD_REACTORS
330
267
102
}
330
267
100
AcDbVisualStyle
  2
Shades of Gray
 70
    23
 71
     2
 72
     2
 73
     3
 90
        0
 40
0.6
 41
30.0
 62
     5
 63
     7
421
 16777215
 74
     2
 91
        2
 64
     7
 65
     7
 75
     1
175
     1
 42
40.0
 92
        8
 66
     7
 43
1.0
 76
     1
 77
     6
 78
     2
 67
     7
 79
     3
170
     0
171
     0
290
     0
174
     0
 93
        1
 44
0.0
173
     0
291
     0
 45
0.0
  0
VISUALSTYLE
  5
900
102
{ACAD_REACTORS
330
267
102
}
330
267
100
AcDbVisualStyle
  2
Sketchy
 70
    24
 71
     1
 72
     2
 73
     2
 90
        0
 40
0.6
 41
30.0
 62
     5
 63
     7
421
 16777215
 74
     2
 91
        2
 64
     7
 65
     7
 75
     1
175
     1
 42
40.0
 92
       11
 66
     7
 43
1.0
 76
     1
 77
     6
 78
     2
 67
     7
 79
     6
170
     0
171
     0
290
     0
174
     0
 93
        1
 44
0.0
173
     0
291
     0
 45
0.0
  0
VISUALSTYLE
  5
274
102
{ACAD_REACTORS
330
267
102
}
330
267
100
AcDbVisualStyle
  2
Thicken
 70
    13
 71
     2
 72
     2
 73
     0
 90
        0
 40
-0.6
 41
-30.0
 62
     5
 63
     7
421
 16777215
 74
     1
 91
        4
 64
     7
 65
   257
 75
     1
175
     1
 42
1.0
 92
       12
 66
     7
 43
1.0
 76
     1
 77
     6
 78
     2
 67
     7
 79
     5
170
     0
171
     0
290
     0
174
     0
 93
        1
 44
0.0
173
     0
291
     1
 45
0.0
  0
VISUALSTYLE
  5
8FA
102
{ACAD_REACTORS
330
267
102
}
330
267
100
AcDbVisualStyle
  2
Wireframe
 70
     5
 71
     0
 72
     2
 73
     0
 90
        0
 40
0.6
 41
30.0
 62
     5
 63
     7
421
 16777215
 74
     1
 91
        4
 64
     7
 65
   257
 75
     1
175
     1
 42
1.0
 92
        0
 66
   257
 43
1.0
 76
     1
 77
     6
 78
     2
 67
     7
 79
     3
170
     0
171
     0
290
     0
174
     0
 93
        1
 44
0.0
173
     0
291
     0
 45
0.0
  0
VISUALSTYLE
  5
901
102
{ACAD_REACTORS
330
267
102
}
330
267
100
AcDbVisualStyle
  2
X-Ray
 70
    25
 71
     2
 72
     2
 73
     1
 90
        1
 40
0.5
 41
30.0
 62
     5
 63
     7
421
 16777215
 74
     1
 91
        0
 64
     7
 65
   257
 75
     1
175
     1
 42
1.0
 92
        8
 66
     7
 43
1.0
 76
     1
 77
     6
 78
     2
 67
     7
 79
     3
170
     0
171
     0
290
     0
174
     0
 93
       13
 44
0.0
173
     0
291
     0
 45
0.0
  0
DICTIONARYVAR
  5
331
102
{ACAD_REACTORS
330
330
102
}
330
330
100
DictionaryVariables
280
     0
  1
1:1
  0
DICTIONARYVAR
  5
D5E
102
{ACAD_REACTORS
330
330
102
}
330
330
100
DictionaryVariables
280
     0
  1
Standard
  0
DICTIONARYVAR
  5
335
102
{ACAD_REACTORS
330
330
102
}
330
330
100
DictionaryVariables
280
     0
  1
Standard
  0
DICTIONARYVAR
  5
D52
102
{ACAD_REACTORS
330
330
102
}
330
330
100
DictionaryVariables
280
     0
  1
ByLayer
  0
DICTIONARYVAR
  5
896
102
{ACAD_REACTORS
330
330
102
}
330
330
100
DictionaryVariables
280
     0
  1
0
  0
DICTIONARYVAR
  5
246C
102
{ACAD_REACTORS
330
E38
102
}
330
E38
100
DictionaryVariables
280
     0
  1
0.261799
  0
DICTIONARYVAR
  5
246A
102
{ACAD_REACTORS
330
E38
102
}
330
E38
100
DictionaryVariables
280
     0
  1
0.400000
  0
DICTIONARYVAR
  5
246B
102
{ACAD_REACTORS
330
E38
102
}
330
E38
100
DictionaryVariables
280
     0
  1
0.250000
  0
DICTIONARYVAR
  5
246D
102
{ACAD_REACTORS
330
E38
102
}
330
E38
100
DictionaryVariables
280
     0
  1
1
  0
FIELD
  5
3CB6
102
{ACAD_REACTORS
330
45C7
102
}
330
45C7
100
AcDbField
  1
_text
  2
{%<\_FldIdx 0>%M}
 90
        1
360
3CB9
 97
        0
 91
       63
 92
        0
 94
       11
 95
        2
 96
        0
300

 93
        1
  6
ACFD_FIELDTEXT_CHECKSUM
 93
        2
 90
        2
140
4485.0
 94
        0
300

302

304
ACVALUE_END
  7
ACFD_FIELD_VALUE
 93
        6
 90
        4
  1
{20220803M}
 94
        0
300

302

304
ACVALUE_END
301
{20220803M}
 98
       11
  0
DICTIONARY
  5
45CE
330
279
100
AcDbDictionary
280
     1
281
     1
  3
ACAD_ROUNDTRIP_2008_TABLESTYLE_CELLSTYLEMAP
360
45CF
  0
FIELD
  5
3CB9
330
3CB6
100
AcDbField
  1
AcVar
  2
\AcVar CreateDate \f "yyyyMMdd"
 90
        0
 97
        0
 91
       63
 92
        0
 94
       11
 95
        2
 96
        0
300

 93
        1
  6
Variable
 93
        2
 90
        4
  1
CreateDate
 94
        0
300

302

304
ACVALUE_END
  7
ACFD_FIELD_VALUE
 93
        6
 90
        8
 92
       16
310
E607080000000300080006001D000000
 94
        0
300
yyyyMMdd
302

304
ACVALUE_END
301
20220803
 98
        8
  0
CELLSTYLEMAP
  5
45CF
102
{ACAD_REACTORS
330
45CE
102
}
330
45CE
100
AcDbCellStyleMap
 90
        3
300
CELLSTYLE
  1
TABLEFORMAT_BEGIN
 90
        5
170
     1
 91
        0
 92
    32768
 62
   257
 93
        1
300
CONTENTFORMAT
  1
CONTENTFORMAT_BEGIN
 90
        0
 91
        0
 92
        4
 93
        0
300

 40
0.0
140
1.0
 94
        5
 62
     0
340
17
144
6.0
309
CONTENTFORMAT_END
171
     1
301
MARGIN
  1
CELLMARGIN_BEGIN
 40
0.06
 40
0.06
 40
0.06
 40
0.06
 40
0.18
 40
0.18
309
CELLMARGIN_END
 94
        6
 95
        1
302
GRIDFORMAT
  1
GRIDFORMAT_BEGIN
 90
        0
 91
        1
 62
     0
 92
       -2
340
0
 93
        0
 40
0.045
309
GRIDFORMAT_END
 95
        2
302
GRIDFORMAT
  1
GRIDFORMAT_BEGIN
 90
        0
 91
        1
 62
     0
 92
       -2
340
0
 93
        0
 40
0.045
309
GRIDFORMAT_END
 95
        4
302
GRIDFORMAT
  1
GRIDFORMAT_BEGIN
 90
        0
 91
        1
 62
     0
 92
       -2
340
0
 93
        0
 40
0.045
309
GRIDFORMAT_END
 95
        8
302
GRIDFORMAT
  1
GRIDFORMAT_BEGIN
 90
        0
 91
        1
 62
     0
 92
       -2
340
0
 93
        0
 40
0.045
309
GRIDFORMAT_END
 95
       16
302
GRIDFORMAT
  1
GRIDFORMAT_BEGIN
 90
        0
 91
        1
 62
     0
 92
       -2
340
0
 93
        0
 40
0.045
309
GRIDFORMAT_END
 95
       32
302
GRIDFORMAT
  1
GRIDFORMAT_BEGIN
 90
        0
 91
        1
 62
     0
 92
       -2
340
0
 93
        0
 40
0.045
309
GRIDFORMAT_END
309
TABLEFORMAT_END
  1
CELLSTYLE_BEGIN
 90
        1
 91
        1
300
_TITLE
309
CELLSTYLE_END
300
CELLSTYLE
  1
TABLEFORMAT_BEGIN
 90
        5
170
     1
 91
        0
 92
        0
 62
   257
 93
        1
300
CONTENTFORMAT
  1
CONTENTFORMAT_BEGIN
 90
        0
 91
        0
 92
        4
 93
        0
300

 40
0.0
140
1.0
 94
        5
 62
     0
340
17
144
4.5
309
CONTENTFORMAT_END
171
     1
301
MARGIN
  1
CELLMARGIN_BEGIN
 40
0.06
 40
0.06
 40
0.06
 40
0.06
 40
0.18
 40
0.18
309
CELLMARGIN_END
 94
        6
 95
        1
302
GRIDFORMAT
  1
GRIDFORMAT_BEGIN
 90
        0
 91
        1
 62
     0
 92
       -2
340
0
 93
        0
 40
0.045
309
GRIDFORMAT_END
 95
        2
302
GRIDFORMAT
  1
GRIDFORMAT_BEGIN
 90
        0
 91
        1
 62
     0
 92
       -2
340
0
 93
        0
 40
0.045
309
GRIDFORMAT_END
 95
        4
302
GRIDFORMAT
  1
GRIDFORMAT_BEGIN
 90
        0
 91
        1
 62
     0
 92
       -2
340
0
 93
        0
 40
0.045
309
GRIDFORMAT_END
 95
        8
302
GRIDFORMAT
  1
GRIDFORMAT_BEGIN
 90
        0
 91
        1
 62
     0
 92
       -2
340
0
 93
        0
 40
0.045
309
GRIDFORMAT_END
 95
       16
302
GRIDFORMAT
  1
GRIDFORMAT_BEGIN
 90
        0
 91
        1
 62
     0
 92
       -2
340
0
 93
        0
 40
0.045
309
GRIDFORMAT_END
 95
       32
302
GRIDFORMAT
  1
GRIDFORMAT_BEGIN
 90
        0
 91
        1
 62
     0
 92
       -2
340
0
 93
        0
 40
0.045
309
GRIDFORMAT_END
309
TABLEFORMAT_END
  1
CELLSTYLE_BEGIN
 90
        2
 91
        1
300
_HEADER
309
CELLSTYLE_END
300
CELLSTYLE
  1
TABLEFORMAT_BEGIN
 90
        5
170
     1
 91
        0
 92
        0
 62
   257
 93
        1
300
CONTENTFORMAT
  1
CONTENTFORMAT_BEGIN
 90
        0
 91
        0
 92
        4
 93
        0
300

 40
0.0
140
1.0
 94
        2
 62
     0
340
17
144
4.5
309
CONTENTFORMAT_END
171
     1
301
MARGIN
  1
CELLMARGIN_BEGIN
 40
0.06
 40
0.06
 40
0.06
 40
0.06
 40
0.18
 40
0.18
309
CELLMARGIN_END
 94
        6
 95
        1
302
GRIDFORMAT
  1
GRIDFORMAT_BEGIN
 90
        0
 91
        1
 62
     0
 92
       -2
340
0
 93
        0
 40
0.045
309
GRIDFORMAT_END
 95
        2
302
GRIDFORMAT
  1
GRIDFORMAT_BEGIN
 90
        0
 91
        1
 62
     0
 92
       -2
340
0
 93
        0
 40
0.045
309
GRIDFORMAT_END
 95
        4
302
GRIDFORMAT
  1
GRIDFORMAT_BEGIN
 90
        0
 91
        1
 62
     0
 92
       -2
340
0
 93
        0
 40
0.045
309
GRIDFORMAT_END
 95
        8
302
GRIDFORMAT
  1
GRIDFORMAT_BEGIN
 90
        0
 91
        1
 62
     0
 92
       -2
340
0
 93
        0
 40
0.045
309
GRIDFORMAT_END
 95
       16
302
GRIDFORMAT
  1
GRIDFORMAT_BEGIN
 90
        0
 91
        1
 62
     0
 92
       -2
340
0
 93
        0
 40
0.045
309
GRIDFORMAT_END
 95
       32
302
GRIDFORMAT
  1
GRIDFORMAT_BEGIN
 90
        0
 91
        1
 62
     0
 92
       -2
340
0
 93
        0
 40
0.045
309
GRIDFORMAT_END
309
TABLEFORMAT_END
  1
CELLSTYLE_BEGIN
 90
        3
 91
        2
300
_DATA
309
CELLSTYLE_END
  0
ENDSEC
  0
EOF
