  0
SECTION
  2
HEADER
  9
$ACADVER
  1
AC1021
  9
$ACADMAINTVER
 70
    25
  9
$DWGCODEPAGE
  3
ANSI_932
  9
$LASTSAVEDBY
  1
tform
  9
$INSBASE
 10
0.0
 20
0.0
 30
0.0
  9
$EXTMIN
 10
0.0
 20
0.0
 30
-0.0000000000000071
  9
$EXTMAX
 10
420.0
 20
594.0
 30
0.0000000000000071
  9
$LIMMIN
 10
0.0
 20
0.0
  9
$LIMMAX
 10
420.0
 20
594.0
  9
$ORTHOMODE
 70
     1
  9
$REGENMODE
 70
     1
  9
$FILLMODE
 70
     1
  9
$QTEXTMODE
 70
     0
  9
$MIRRTEXT
 70
     1
  9
$LTSCALE
 40
1.0
  9
$ATTMODE
 70
     1
  9
$TEXTSIZE
 40
2.5
  9
$TRACEWID
 40
1.0
  9
$TEXTSTYLE
  7
ＭＳ ゴシック
  9
$CLAYER
  8
DIM
  9
$CELTYPE
  6
ByLayer
  9
$CECOLOR
 62
   256
  9
$CELTSCALE
 40
1.0
  9
$DISPSILH
 70
     0
  9
$DIMSCALE
 40
1.0
  9
$DIMASZ
 40
2.0
  9
$DIMEXO
 40
5.0
  9
$DIMDLI
 40
0.9999999999999999
  9
$DIMRND
 40
0.0
  9
$DIMDLE
 40
0.0
  9
$DIMEXE
 40
0.0
  9
$DIMTP
 40
0.0
  9
$DIMTM
 40
0.0
  9
$DIMTXT
 40
5.0
  9
$DIMCEN
 40
0.0
  9
$DIMTSZ
 40
0.0
  9
$DIMTOL
 70
     0
  9
$DIMLIM
 70
     0
  9
$DIMTIH
 70
     0
  9
$DIMTOH
 70
     0
  9
$DIMSE1
 70
     0
  9
$DIMSE2
 70
     0
  9
$DIMTAD
 70
     1
  9
$DIMZIN
 70
    11
  9
$DIMBLK
  1
DOT
  9
$DIMASO
 70
     1
  9
$DIMSHO
 70
     1
  9
$DIMPOST
  1
<>
  9
$DIMAPOST
  1
[]
  9
$DIMALT
 70
     0
  9
$DIMALTD
 70
     1
  9
$DIMALTF
 40
1.0
  9
$DIMLFAC
 40
1.0
  9
$DIMTOFL
 70
     0
  9
$DIMTVP
 40
0.0
  9
$DIMTIX
 70
     1
  9
$DIMSOXD
 70
     0
  9
$DIMSAH
 70
     0
  9
$DIMBLK1
  1

  9
$DIMBLK2
  1

  9
$DIMSTYLE
  2
tfrom線あり
  9
$DIMCLRD
 70
     0
  9
$DIMCLRE
 70
     0
  9
$DIMCLRT
 70
     0
  9
$DIMTFAC
 40
1.0
  9
$DIMGAP
 40
3.0
  9
$DIMJUST
 70
     0
  9
$DIMSD1
 70
     0
  9
$DIMSD2
 70
     0
  9
$DIMTOLJ
 70
     1
  9
$DIMTZIN
 70
    11
  9
$DIMALTZ
 70
    11
  9
$DIMALTTZ
 70
    11
  9
$DIMUPT
 70
     0
  9
$DIMDEC
 70
     0
  9
$DIMTDEC
 70
     1
  9
$DIMALTU
 70
     2
  9
$DIMALTTD
 70
     2
  9
$DIMTXSTY
  7
ＭＳ ゴシック
  9
$DIMAUNIT
 70
     0
  9
$DIMADEC
 70
     2
  9
$DIMALTRND
 40
0.0
  9
$DIMAZIN
 70
     0
  9
$DIMDSEP
 70
    46
  9
$DIMATFIT
 70
     0
  9
$DIMFRAC
 70
     2
  9
$DIMLDRBLK
  1
DOT
  9
$DIMLUNIT
 70
     2
  9
$DIMLWD
 70
    -2
  9
$DIMLWE
 70
    -2
  9
$DIMTMOVE
 70
     0
  9
$DIMFXL
 40
1.0
  9
$DIMFXLON
 70
     0
  9
$DIMJOGANG
 40
0.7853981633974483
  9
$DIMTFILL
 70
     0
  9
$DIMTFILLCLR
 70
     0
  9
$DIMARCSYM
 70
     0
  9
$DIMLTYPE
  6

  9
$DIMLTEX1
  6

  9
$DIMLTEX2
  6

  9
$LUNITS
 70
     2
  9
$LUPREC
 70
     0
  9
$SKETCHINC
 40
0.1
  9
$FILLETRAD
 40
0.0
  9
$AUNITS
 70
     0
  9
$AUPREC
 70
     0
  9
$MENU
  1
acad
  9
$ELEVATION
 40
0.0
  9
$PELEVATION
 40
0.0
  9
$THICKNESS
 40
0.0
  9
$LIMCHECK
 70
     0
  9
$CHAMFERA
 40
0.0
  9
$CHAMFERB
 40
0.0
  9
$CHAMFERC
 40
0.0
  9
$CHAMFERD
 40
0.0
  9
$SKPOLY
 70
     0
  9
$TDCREATE
 40
2447893.375
  9
$TDUCREATE
 40
0.0
  9
$TDUPDATE
 40
2459800.666165822
  9
$TDUUPDATE
 40
2459800.291165822
  9
$TDINDWG
 40
0.1412665509
  9
$TDUSRTIMER
 40
0.0000599306
  9
$USRTIMER
 70
     1
  9
$ANGBASE
 50
0.0
  9
$ANGDIR
 70
     0
  9
$PDMODE
 70
     1
  9
$PDSIZE
 40
-2.0
  9
$PLINEWID
 40
0.0
  9
$SPLFRAME
 70
     0
  9
$SPLINETYPE
 70
     6
  9
$SPLINESEGS
 70
     8
  9
$HANDSEED
  5
462A
  9
$SURFTAB1
 70
     6
  9
$SURFTAB2
 70
     6
  9
$SURFTYPE
 70
     6
  9
$SURFU
 70
     6
  9
$SURFV
 70
     6
  9
$UCSBASE
  2

  9
$UCSNAME
  2

  9
$UCSORG
 10
0.0
 20
0.0
 30
0.0
  9
$UCSXDIR
 10
1.0
 20
0.0
 30
0.0
  9
$UCSYDIR
 10
0.0
 20
1.0
 30
0.0
  9
$UCSORTHOREF
  2

  9
$UCSORTHOVIEW
 70
     0
  9
$UCSORGTOP
 10
0.0
 20
0.0
 30
0.0
  9
$UCSORGBOTTOM
 10
0.0
 20
0.0
 30
0.0
  9
$UCSORGLEFT
 10
0.0
 20
0.0
 30
0.0
  9
$UCSORGRIGHT
 10
0.0
 20
0.0
 30
0.0
  9
$UCSORGFRONT
 10
0.0
 20
0.0
 30
0.0
  9
$UCSORGBACK
 10
0.0
 20
0.0
 30
0.0
  9
$PUCSBASE
  2

  9
$PUCSNAME
  2

  9
$PUCSORG
 10
0.0
 20
0.0
 30
0.0
  9
$PUCSXDIR
 10
1.0
 20
0.0
 30
0.0
  9
$PUCSYDIR
 10
0.0
 20
1.0
 30
0.0
  9
$PUCSORTHOREF
  2

  9
$PUCSORTHOVIEW
 70
     0
  9
$PUCSORGTOP
 10
0.0
 20
0.0
 30
0.0
  9
$PUCSORGBOTTOM
 10
0.0
 20
0.0
 30
0.0
  9
$PUCSORGLEFT
 10
0.0
 20
0.0
 30
0.0
  9
$PUCSORGRIGHT
 10
0.0
 20
0.0
 30
0.0
  9
$PUCSORGFRONT
 10
0.0
 20
0.0
 30
0.0
  9
$PUCSORGBACK
 10
0.0
 20
0.0
 30
0.0
  9
$USERI1
 70
     0
  9
$USERI2
 70
     0
  9
$USERI3
 70
     0
  9
$USERI4
 70
     0
  9
$USERI5
 70
     0
  9
$USERR1
 40
0.0
  9
$USERR2
 40
0.0
  9
$USERR3
 40
0.0
  9
$USERR4
 40
0.0
  9
$USERR5
 40
0.0
  9
$WORLDVIEW
 70
     1
  9
$SHADEDGE
 70
     3
  9
$SHADEDIF
 70
    70
  9
$TILEMODE
 70
     1
  9
$MAXACTVP
 70
    64
  9
$PINSBASE
 10
0.0
 20
0.0
 30
0.0
  9
$PLIMCHECK
 70
     0
  9
$PEXTMIN
 10
0.0
 20
0.0
 30
0.0
  9
$PEXTMAX
 10
0.0
 20
0.0
 30
0.0
  9
$PLIMMIN
 10
-7.5
 20
-20.0
  9
$PLIMMAX
 10
412.5
 20
277.0
  9
$UNITMODE
 70
     0
  9
$VISRETAIN
 70
     0
  9
$PLINEGEN
 70
     1
  9
$PSLTSCALE
 70
     0
  9
$TREEDEPTH
 70
  3020
  9
$CMLSTYLE
  2
Standard
  9
$CMLJUST
 70
     0
  9
$CMLSCALE
 40
1.0
  9
$PROXYGRAPHICS
 70
     0
  9
$MEASUREMENT
 70
     1
  9
$CELWEIGHT
370
    -1
  9
$ENDCAPS
280
     0
  9
$JOINSTYLE
280
     0
  9
$LWDISPLAY
290
     1
  9
$INSUNITS
 70
     4
  9
$HYPERLINKBASE
  1

  9
$STYLESHEET
  1

  9
$XEDIT
290
     1
  9
$CEPSNTYPE
380
     0
  9
$PSTYLEMODE
290
     1
  9
$FINGERPRINTGUID
  2

  9
$VERSIONGUID
  2

  9
$EXTNAMES
290
     1
  9
$PSVPSCALE
 40
0.0
  9
$OLESTARTUP
290
     0
  9
$SORTENTS
280
   127
  9
$INDEXCTL
280
     0
  9
$HIDETEXT
280
     1
  9
$XCLIPFRAME
290
     0
  9
$HALOGAP
280
     0
  9
$OBSCOLOR
 70
   257
  9
$OBSLTYPE
280
     0
  9
$INTERSECTIONDISPLAY
280
     0
  9
$INTERSECTIONCOLOR
 70
   257
  9
$DIMASSOC
280
     2
  9
$PROJECTNAME
  1

  9
$CAMERADISPLAY
290
     0
  9
$LENSLENGTH
 40
50.0
  9
$CAMERAHEIGHT
 40
0.0
  9
$STEPSPERSEC
 40
2.0
  9
$STEPSIZE
 40
6.0
  9
$3DDWFPREC
 40
2.0
  9
$PSOLWIDTH
 40
0.25
  9
$PSOLHEIGHT
 40
4.0
  9
$LOFTANG1
 40
1.570796326794897
  9
$LOFTANG2
 40
1.570796326794897
  9
$LOFTMAG1
 40
0.0
  9
$LOFTMAG2
 40
0.0
  9
$LOFTPARAM
 70
     7
  9
$LOFTNORMALS
280
     1
  9
$LATITUDE
 40
37.795
  9
$LONGITUDE
 40
-122.394
  9
$NORTHDIRECTION
 40
0.0
  9
$TIMEZONE
 70
 -8000
  9
$LIGHTGLYPHDISPLAY
280
     1
  9
$TILEMODELIGHTSYNCH
280
     1
  9
$SOLIDHIST
280
     1
  9
$SHOWHIST
280
     1
  9
$DWFFRAME
280
     2
  9
$DGNFRAME
280
     2
  9
$REALWORLDSCALE
290
     1
  9
$INTERFERECOLOR
 62
   256
  9
$CSHADOW
280
     0
  9
$SHADOWPLANELOCATION
 40
0.0
  0
ENDSEC
  0
SECTION
  2
CLASSES
  0
CLASS
  1
LWPOLYLINE
  2
AcDbPolyline
  3
ObjectDBX Classes
 90
        0
 91
        1
280
     0
281
     1
  0
CLASS
  1
IMAGE
  2
AcDbRasterImage
  3
ISM
 90
      127
 91
        4
280
     0
281
     1
  0
CLASS
  1
OLE2FRAME
  2
AcDbOle2Frame
  3
ObjectDBX Classes
 90
        0
 91
        1
280
     0
281
     1
  0
CLASS
  1
HATCH
  2
AcDbHatch
  3
ObjectDBX Classes
 90
        0
 91
        1
280
     0
281
     1
  0
CLASS
  1
DICTIONARYVAR
  2
AcDbDictionaryVar
  3
ObjectDBX Classes
 90
        0
 91
        3
280
     0
281
     0
  0
CLASS
  1
RASTERVARIABLES
  2
AcDbRasterVariables
  3
ISM
 90
        0
 91
        3
280
     0
281
     0
  0
CLASS
  1
IMAGEDEF
  2
AcDbRasterImageDef
  3
ISM
 90
        0
 91
        3
280
     0
281
     0
  0
CLASS
  1
IMAGEDEF_REACTOR
  2
AcDbRasterImageDefReactor
  3
ISM
 90
        1
 91
        3
280
     0
281
     0
  0
CLASS
  1
IDBUFFER
  2
AcDbIdBuffer
  3
ObjectDBX Classes
 90
        0
 91
        3
280
     0
281
     0
  0
CLASS
  1
SPATIAL_FILTER
  2
AcDbSpatialFilter
  3
ObjectDBX Classes
 90
        0
 91
        3
280
     0
281
     0
  0
CLASS
  1
XRECORD
  2
AcDbXrecord
  3
ObjectDBX Classes
 90
        0
 91
        1
280
     0
281
     0
  0
CLASS
  1
SORTENTSTABLE
  2
AcDbSortentsTable
  3
ObjectDBX Classes
 90
        0
 91
        3
280
     0
281
     0
  0
CLASS
  1
LAYER_INDEX
  2
AcDbLayerIndex
  3
ObjectDBX Classes
 90
        0
 91
        3
280
     0
281
     0
  0
CLASS
  1
SPATIAL_INDEX
  2
AcDbSpatialIndex
  3
AutoCAD 2000
 90
        0
 91
        3
280
     0
281
     0
  0
CLASS
  1
OBJECT_PTR
  2
CAseDLPNTableRecord
  3
ASE-LPNTableRecord
 90
        1
 91
        3
280
     0
281
     0
  0
CLASS
  1
LAYOUT
  2
AcDbLayout
  3
ObjectDBX Classes
 90
        0
 91
        1
280
     0
281
     0
  0
CLASS
  1
PLOTSETTINGS
  2
AcDbPlotSettings
  3
ObjectDBX Classes
 90
        0
 91
        3
280
     0
281
     0
  0
CLASS
  1
ACDBDICTIONARYWDFLT
  2
AcDbDictionaryWithDefault
  3
ObjectDBX Classes
 90
        0
 91
        3
280
     0
281
     0
  0
CLASS
  1
ACDBPLACEHOLDER
  2
AcDbPlaceHolder
  3
ObjectDBX Classes
 90
        0
 91
        1
280
     0
281
     0
  0
CLASS
  1
SCALE
  2
AcDbScale
  3
ObjectDBX Classes
 90
     1153
 91
        3
280
     0
281
     0
  0
CLASS
  1
MATERIAL
  2
AcDbMaterial
  3
ObjectDBX Classes
 90
     1153
 91
        3
280
     0
281
     0
  0
CLASS
  1
VISUALSTYLE
  2
AcDbVisualStyle
  3
ObjectDBX Classes
 90
     4095
 91
        3
280
     0
281
     0
  0
CLASS
  1
TABLESTYLE
  2
AcDbTableStyle
  3
ObjectDBX Classes
 90
     4095
 91
        3
280
     0
281
     0
  0
CLASS
  1
DIMASSOC
  2
AcDbDimAssoc
  3
"AcDbDimAssoc|Product Desc:     AcDim ARX App For Dimension|Company:          Autodesk, Inc.|WEB Address:      www.autodesk.com"
 90
        0
 91
        3
280
     0
281
     0
  0
CLASS
  1
CELLSTYLEMAP
  2
AcDbCellStyleMap
  3
ObjectDBX Classes
 90
     1152
 91
        3
280
     0
281
     0
  0
CLASS
  1
SUN
  2
AcDbSun
  3
SCENEOE
 90
     1153
 91
        3
280
     0
281
     0
  0
CLASS
  1
MLEADERSTYLE
  2
AcDbMLeaderStyle
  3
ACDB_MLEADERSTYLE_CLASS
 90
     4095
 91
        3
280
     0
281
     0
  0
CLASS
  1
FIELD
  2
AcDbField
  3
ObjectDBX Classes
 90
     1152
 91
        3
280
     0
281
     0
  0
CLASS
  1
FIELDLIST
  2
AcDbFieldList
  3
ObjectDBX Classes
 90
     1152
 91
        3
280
     0
281
     0
  0
ENDSEC
  0
SECTION
  2
TABLES
  0
TABLE
  2
VPORT
  5
7
330
0
100
AcDbSymbolTable
 70
     1
  0
VPORT
  5
15
330
7
100
AcDbSymbolTableRecord
100
AcDbViewportTableRecord
  2
*ACTIVE
 70
     0
 10
0.0
 20
0.0
 11
1.0
 21
1.0
 12
301.0201356708997
 22
223.401285469834
 13
0.0
 23
0.0
 14
1.0
 24
1.0
 15
0.0
 25
0.0
 16
0.0
 26
0.0
 36
1.0
 17
-91.02013567089972
 27
73.59871453016603
 37
-46.86809886248109
 40
605.88
 41
2.147058823529412
 42
50.0
 43
0.0
 44
0.0
 50
0.0
 51
0.0
 71
    16
 72
  2000
 73
     1
 74
     1
 75
     0
 76
     0
 77
     0
 78
     0
281
     0
 65
     1
110
0.0
120
0.0
130
0.0
111
1.0
121
0.0
131
0.0
112
0.0
122
1.0
132
0.0
 79
     0
146
0.0
348
26C
 60
     3
 61
     5
292
     1
282
     1
141
0.0
142
0.0
 63
   256
361
904
  0
ENDTAB
  0
TABLE
  2
LTYPE
  5
4
330
0
100
AcDbSymbolTable
 70
     3
  0
LTYPE
  5
11
330
4
100
AcDbSymbolTableRecord
100
AcDbLinetypeTableRecord
  2
ByBlock
 70
     0
  3

 72
    65
 73
     0
 40
0.0
  0
LTYPE
  5
12
330
4
100
AcDbSymbolTableRecord
100
AcDbLinetypeTableRecord
  2
ByLayer
 70
     0
  3

 72
    65
 73
     0
 40
0.0
  0
LTYPE
  5
13
330
4
100
AcDbSymbolTableRecord
100
AcDbLinetypeTableRecord
  2
Continuous
 70
     0
  3
Solid line
 72
    65
 73
     0
 40
0.0
  0
LTYPE
  5
D6C
330
4
100
AcDbSymbolTableRecord
100
AcDbLinetypeTableRecord
  2
BORDER
 70
     0
  3
Border __  __  . __  __  . __  __  . __  __  . 
 72
    65
 73
     6
 40
44.45
 49
12.7
 74
     0
 49
-6.35
 74
     0
 49
12.7
 74
     0
 49
-6.35
 74
     0
 49
0.0
 74
     0
 49
-6.35
 74
     0
  0
LTYPE
  5
D6D
330
4
100
AcDbSymbolTableRecord
100
AcDbLinetypeTableRecord
  2
HIDDEN
 70
     0
  3
Hidden _ _ _ _ _ _ _ _ _ _ _ _ _ _ _ _ _ _ _ _ 
 72
    65
 73
     2
 40
9.524999999999999
 49
6.35
 74
     0
 49
-3.175
 74
     0
  0
ENDTAB
  0
TABLE
  2
LAYER
  5
2
102
{ACAD_XDICTIONARY
360
2E1
102
}
330
0
100
AcDbSymbolTable
 70
     9
  0
LAYER
  5
14
330
2
100
AcDbSymbolTableRecord
100
AcDbLayerTableRecord
  2
0
 70
     0
 62
     7
  6
Continuous
370
    -3
390
1D
347
266
  0
LAYER
  5
4B
330
2
100
AcDbSymbolTableRecord
100
AcDbLayerTableRecord
  2
TEMPLATE
 70
     0
 62
     7
  6
Continuous
370
    20
390
1D
347
266
  0
LAYER
  5
4C
330
2
100
AcDbSymbolTableRecord
100
AcDbLayerTableRecord
  2
DIM
 70
     0
 62
     3
  6
Continuous
370
    13
390
1D
347
266
  0
LAYER
  5
4D
330
2
100
AcDbSymbolTableRecord
100
AcDbLayerTableRecord
  2
MODEL
 70
     0
 62
     7
  6
Continuous
370
    20
390
1D
347
266
  0
LAYER
  5
88C
330
2
100
AcDbSymbolTableRecord
100
AcDbLayerTableRecord
  2
HIDDEN
 70
     0
 62
     8
  6
HIDDEN
370
    20
390
1D
347
266
1001
AcAecLayerStandard
1000

1000

  0
LAYER
  5
D6B
330
2
100
AcDbSymbolTableRecord
100
AcDbLayerTableRecord
  2
BORDER
 70
     0
 62
     4
  6
BORDER
290
     0
370
    20
390
1D
347
266
1001
AcAecLayerStandard
1000

1000

  0
LAYER
  5
D8C
330
2
100
AcDbSymbolTableRecord
100
AcDbLayerTableRecord
  2
Defpoints
 70
     0
 62
     7
  6
Continuous
290
     0
370
    -3
390
1D
347
266
  0
LAYER
  5
3653
330
2
100
AcDbSymbolTableRecord
100
AcDbLayerTableRecord
  2
Standard
 70
     0
 62
     7
  6
Continuous
370
    -3
390
1D
347
266
  0
LAYER
  5
3D4E
330
2
100
AcDbSymbolTableRecord
100
AcDbLayerTableRecord
  2
レイヤー 1
 70
     0
 62
     7
  6
Continuous
370
    -3
390
1D
347
266
  0
ENDTAB
  0
TABLE
  2
STYLE
  5
3
330
0
100
AcDbSymbolTable
 70
     2
  0
STYLE
  5
17
330
3
100
AcDbSymbolTableRecord
100
AcDbTextStyleTableRecord
  2
Standard
 70
     0
 40
0.0
 41
1.0
 50
0.0
 71
     0
 42
2.5
  3
txt
  4
BIGFONT.SHX
  0
STYLE
  5
39
330
3
100
AcDbSymbolTableRecord
100
AcDbTextStyleTableRecord
  2
ＭＳ ゴシック
 70
     0
 40
0.0
 41
1.0
 50
0.0
 71
     0
 42
2.5
  3
msgothic.ttc
  4
ＭＳ ゴシック
1001
ACAD
1000
ＭＳ ゴシック
1071
        0
  0
ENDTAB
  0
TABLE
  2
VIEW
  5
5
330
0
100
AcDbSymbolTable
 70
     0
  0
ENDTAB
  0
TABLE
  2
UCS
  5
6
330
0
100
AcDbSymbolTable
 70
     0
  0
ENDTAB
  0
TABLE
  2
APPID
  5
8
330
0
100
AcDbSymbolTable
 70
     4
  0
APPID
  5
16
330
8
100
AcDbSymbolTableRecord
100
AcDbRegAppTableRecord
  2
ACAD
 70
     0
  0
APPID
  5
7AC
330
8
100
AcDbSymbolTableRecord
100
AcDbRegAppTableRecord
  2
AcAecLayerStandard
 70
     0
  0
APPID
  5
E29
330
8
100
AcDbSymbolTableRecord
100
AcDbRegAppTableRecord
  2
ACAD_MLEADERVER
 70
     0
  0
APPID
  5
458B
330
8
100
AcDbSymbolTableRecord
100
AcDbRegAppTableRecord
  2
PLOTTRANSPARENCY
 70
     0
  0
ENDTAB
  0
TABLE
  2
DIMSTYLE
  5
9
330
0
100
AcDbSymbolTable
 70
     4
100
AcDbDimStyleTable
  0
DIMSTYLE
105
18
330
9
100
AcDbSymbolTableRecord
100
AcDbDimStyleTableRecord
  2
Standard
 70
     0
178
     0
340
17
  0
DIMSTYLE
105
57
102
{ACAD_REACTORS
330
4521
330
4530
330
453F
330
4551
330
4560
330
45D7
330
45F5
102
}
330
9
100
AcDbSymbolTableRecord
100
AcDbDimStyleTableRecord
  2
tfrom線あり
 70
     0
  3
<>
  4
[]
 41
2.0
 42
5.0
 43
0.9999999999999999
 44
0.0
 73
     0
 74
     0
 77
     1
 78
    11
140
5.0
141
0.0
143
1.0
147
3.0
171
     1
174
     1
178
     0
179
     2
271
     0
272
     1
276
     2
284
    11
285
    11
286
    11
289
     0
340
39
341
4E
342
4E
  0
DIMSTYLE
105
3D5B
330
9
100
AcDbSymbolTableRecord
100
AcDbDimStyleTableRecord
  2
ISO-25
 70
     0
 41
2.5
 42
0.625
 43
3.75
 44
1.25
 73
     0
 74
     0
 77
     1
 78
     8
140
2.5
141
2.5
143
0.03937007874016
147
0.625
171
     3
172
     1
178
     0
271
     2
272
     2
274
     3
278
    44
283
     0
284
     8
340
17
  0
DIMSTYLE
105
45A0
330
9
100
AcDbSymbolTableRecord
100
AcDbDimStyleTableRecord
  2
tform線あり
 70
     0
  3
<>
  4
[]
 41
9.999389648437498
 42
25.0
 43
0.9999999999999999
 44
0.0
 73
     0
 74
     0
 77
     1
 78
    11
140
24.4326171875
141
0.0
143
1.0
146
0.8
147
10.0
171
     1
172
     1
174
     1
178
     0
179
     2
271
     1
272
     1
276
     2
284
    11
285
    11
286
    11
289
     0
340
39
341
4E
342
4E
  0
ENDTAB
  0
TABLE
  2
BLOCK_RECORD
  5
1
330
0
100
AcDbSymbolTable
 70
    22
  0
BLOCK_RECORD
  5
A
102
{ACAD_XDICTIONARY
360
3D3D
102
}
330
1
100
AcDbSymbolTableRecord
100
AcDbBlockTableRecord
  2
*MODEL_SPACE
340
20
 70
     0
280
     1
281
     0
  0
BLOCK_RECORD
  5
B
330
1
100
AcDbSymbolTableRecord
100
AcDbBlockTableRecord
  2
*PAPER_SPACE
340
21
 70
     0
280
     1
281
     0
  0
BLOCK_RECORD
  5
4E
330
1
100
AcDbSymbolTableRecord
100
AcDbBlockTableRecord
  2
_DOT
340
0
102
{BLKREFS
331
3B8C
331
3B8D
331
3B98
331
3B99
331
3BA4
331
3BA5
331
3BB0
331
3BB1
331
3BBC
331
3BBD
331
3BC8
331
3BC9
331
3BD4
331
3BD5
331
3CFD
331
3CFE
331
3D0C
331
3D0D
331
3D2A
331
3D2B
331
3D36
331
3D37
331
4518
331
4519
331
452A
331
452B
331
4539
331
453A
331
4548
331
4549
331
455A
331
455B
331
4569
331
456A
331
45E0
331
45E1
331
45EF
331
45F0
331
45FE
331
45FF
102
}
 70
     0
280
     1
281
     0
  0
BLOCK_RECORD
  5
68D
330
1
100
AcDbSymbolTableRecord
100
AcDbBlockTableRecord
  2
block 2
340
0
102
{BLKREFS
331
68C
331
1343
102
}
 70
     0
280
     1
281
     0
  0
BLOCK_RECORD
  5
3B86
330
1
100
AcDbSymbolTableRecord
100
AcDbBlockTableRecord
  2
*D2
340
0
 70
     0
280
     1
281
     0
  0
BLOCK_RECORD
  5
3B92
330
1
100
AcDbSymbolTableRecord
100
AcDbBlockTableRecord
  2
*D3
340
0
 70
     0
280
     1
281
     0
  0
BLOCK_RECORD
  5
3B9E
330
1
100
AcDbSymbolTableRecord
100
AcDbBlockTableRecord
  2
*D4
340
0
 70
     0
280
     1
281
     0
  0
BLOCK_RECORD
  5
3BAA
330
1
100
AcDbSymbolTableRecord
100
AcDbBlockTableRecord
  2
*D5
340
0
 70
     0
280
     1
281
     0
  0
BLOCK_RECORD
  5
3BB6
330
1
100
AcDbSymbolTableRecord
100
AcDbBlockTableRecord
  2
*D6
340
0
 70
     0
280
     1
281
     0
  0
BLOCK_RECORD
  5
3BC2
330
1
100
AcDbSymbolTableRecord
100
AcDbBlockTableRecord
  2
*D7
340
0
 70
     0
280
     1
281
     0
  0
BLOCK_RECORD
  5
3BCE
330
1
100
AcDbSymbolTableRecord
100
AcDbBlockTableRecord
  2
*D8
340
0
 70
     0
280
     1
281
     0
  0
BLOCK_RECORD
  5
3CF8
330
1
100
AcDbSymbolTableRecord
100
AcDbBlockTableRecord
  2
*D9
340
0
 70
     0
280
     1
281
     0
  0
BLOCK_RECORD
  5
3D07
330
1
100
AcDbSymbolTableRecord
100
AcDbBlockTableRecord
  2
*D10
340
0
 70
     0
280
     1
281
     0
  0
BLOCK_RECORD
  5
3D24
330
1
100
AcDbSymbolTableRecord
100
AcDbBlockTableRecord
  2
*D11
340
0
 70
     0
280
     1
281
     0
  0
BLOCK_RECORD
  5
3D30
330
1
100
AcDbSymbolTableRecord
100
AcDbBlockTableRecord
  2
*D12
340
0
 70
     0
280
     1
281
     0
  0
BLOCK_RECORD
  5
4512
330
1
100
AcDbSymbolTableRecord
100
AcDbBlockTableRecord
  2
*D13
340
0
 70
     0
280
     1
281
     0
  0
BLOCK_RECORD
  5
4524
330
1
100
AcDbSymbolTableRecord
100
AcDbBlockTableRecord
  2
*D14
340
0
 70
     0
280
     1
281
     0
  0
BLOCK_RECORD
  5
4533
330
1
100
AcDbSymbolTableRecord
100
AcDbBlockTableRecord
  2
*D15
340
0
 70
     0
280
     1
281
     0
  0
BLOCK_RECORD
  5
4542
330
1
100
AcDbSymbolTableRecord
100
AcDbBlockTableRecord
  2
*D16
340
0
 70
     0
280
     1
281
     0
  0
BLOCK_RECORD
  5
4554
330
1
100
AcDbSymbolTableRecord
100
AcDbBlockTableRecord
  2
*D17
340
0
 70
     0
280
     1
281
     0
  0
BLOCK_RECORD
  5
4563
330
1
100
AcDbSymbolTableRecord
100
AcDbBlockTableRecord
  2
*D18
340
0
 70
     0
280
     1
281
     0
  0
BLOCK_RECORD
  5
45DA
330
1
100
AcDbSymbolTableRecord
100
AcDbBlockTableRecord
  2
*D19
340
0
 70
     0
280
     1
281
     0
  0
BLOCK_RECORD
  5
45E9
330
1
100
AcDbSymbolTableRecord
100
AcDbBlockTableRecord
  2
*D20
340
0
 70
     0
280
     1
281
     0
  0
BLOCK_RECORD
  5
45F8
330
1
100
AcDbSymbolTableRecord
100
AcDbBlockTableRecord
  2
*D21
340
0
 70
     0
280
     1
281
     0
  0
ENDTAB
  0
ENDSEC
  0
SECTION
  2
BLOCKS
  0
BLOCK
  5
D
330
A
100
AcDbEntity
  8
0
390
1D
100
AcDbBlockBegin
  2
*MODEL_SPACE
 70
     0
 10
0.0
 20
0.0
 30
0.0
  3
*MODEL_SPACE
  1
*MODEL_SPACE
  0
ENDBLK
  5
E
330
A
100
AcDbEntity
  8
0
390
1D
100
AcDbBlockEnd
  0
BLOCK
  5
F
330
B
100
AcDbEntity
 67
     1
  8
0
390
1D
100
AcDbBlockBegin
  2
*PAPER_SPACE
 70
     0
 10
0.0
 20
0.0
 30
0.0
  3
*PAPER_SPACE
  1
*PAPER_SPACE
  0
ENDBLK
  5
10
330
B
100
AcDbEntity
 67
     1
  8
0
390
1D
100
AcDbBlockEnd
  0
BLOCK
  5
2462
330
4E
100
AcDbEntity
  8
0
390
1D
100
AcDbBlockBegin
  2
_DOT
 70
     0
 10
0.0
 20
0.0
 30
0.0
  3
_DOT
  1
_DOT
  0
POLYLINE
  5
2464
330
4E
100
AcDbEntity
  8
0
  6
ByBlock
 62
     0
370
    -2
390
1D
100
AcDb2dPolyline
 66
     1
 10
0.0
 20
0.0
 30
0.0
 70
     1
 40
0.5
 41
0.5
  0
VERTEX
  5
2465
330
2464
100
AcDbEntity
  8
0
  6
ByBlock
 62
     0
370
    -2
390
1D
100
AcDbVertex
100
AcDb2dVertex
 10
-0.25
 20
0.0
 30
0.0
 42
1.0
  0
VERTEX
  5
2466
330
2464
100
AcDbEntity
  8
0
  6
ByBlock
 62
     0
370
    -2
390
1D
100
AcDbVertex
100
AcDb2dVertex
 10
0.25
 20
0.0
 30
0.0
 42
1.0
  0
SEQEND
  5
2467
330
2464
100
AcDbEntity
  8
0
390
1D
  0
LINE
  5
2468
330
4E
100
AcDbEntity
  8
0
  6
ByBlock
 62
     0
370
    -2
390
1D
100
AcDbLine
 10
-0.5
 20
0.0
 30
0.0
 11
-1.0
 21
0.0
 31
0.0
  0
ENDBLK
  5
2469
330
4E
100
AcDbEntity
  8
0
390
1D
100
AcDbBlockEnd
  0
BLOCK
  5
68E
330
68D
100
AcDbEntity
  8
0
100
AcDbBlockBegin
  2
block 2
 70
     0
 10
0.0
 20
0.0
 30
0.0
  3
block 2
  1
block 2
  0
ENDBLK
  5
6B0
330
68D
100
AcDbEntity
  8
0
100
AcDbBlockEnd
  0
BLOCK
  5
3B87
330
3B86
100
AcDbEntity
  8
0
100
AcDbBlockBegin
  2
*D2
 70
     1
 10
0.0
 20
0.0
 30
0.0
  3
*D2
  1

  0
LINE
  5
3B89
330
3B86
100
AcDbEntity
  8
DIM
 62
     0
370
    -2
100
AcDbLine
 10
120.4165303244005
 20
319.2077009873063
 30
0.0
 11
80.41653032440028
 21
319.2077009873061
 31
0.0
  0
LINE
  5
3B8A
330
3B86
100
AcDbEntity
  8
DIM
 62
     0
370
    -2
100
AcDbLine
 10
95.2823248987792
 20
182.2077009873063
 30
0.0
 11
80.41653032440077
 21
182.2077009873062
 31
0.0
  0
LINE
  5
3B8B
330
3B86
100
AcDbEntity
  8
DIM
 62
     0
370
    -2
100
AcDbLine
 10
80.41653032440028
 20
317.2077009873061
 30
0.0
 11
80.41653032440077
 21
184.2077009873062
 31
0.0
  0
INSERT
  5
3B8C
330
3B86
100
AcDbEntity
  8
DIM
 62
     0
370
    -2
100
AcDbBlockReference
  2
_DOT
 10
80.41653032440028
 20
319.2077009873061
 30
0.0
 41
2.0
 42
2.0
 43
2.0
 50
90.0000000000002
  0
INSERT
  5
3B8D
330
3B86
100
AcDbEntity
  8
DIM
 62
     0
370
    -2
100
AcDbBlockReference
  2
_DOT
 10
80.41653032440077
 20
182.2077009873062
 30
0.0
 41
2.0
 42
2.0
 43
2.0
 50
270.0000000000002
  0
MTEXT
  5
3B8E
330
3B86
100
AcDbEntity
  8
DIM
 62
     0
 48
0.05
100
AcDbMText
 10
72.41653032440053
 20
250.7077009873063
 30
0.0
 40
5.0
 41
0.0
 46
0.0
 71
     2
 72
     1
  1
\A1;137
  7
ＭＳ ゴシック
 11
-3.526781462166923E-15
 21
1.0
 31
0.0
 73
     1
 44
1.0
  0
POINT
  5
3B8F
330
3B86
100
AcDbEntity
  8
Defpoints
 62
     0
100
AcDbPoint
 10
125.4165303244005
 20
319.2077009873063
 30
0.0
  0
POINT
  5
3B90
330
3B86
100
AcDbEntity
  8
Defpoints
 62
     0
100
AcDbPoint
 10
100.2823248987792
 20
182.2077009873063
 30
0.0
  0
POINT
  5
3B91
330
3B86
100
AcDbEntity
  8
Defpoints
 62
     0
100
AcDbPoint
 10
80.41653032440077
 20
182.2077009873062
 30
0.0
  0
ENDBLK
  5
3B88
330
3B86
100
AcDbEntity
  8
0
100
AcDbBlockEnd
  0
BLOCK
  5
3B93
330
3B92
100
AcDbEntity
  8
0
100
AcDbBlockBegin
  2
*D3
 70
     1
 10
0.0
 20
0.0
 30
0.0
  3
*D3
  1

  0
LINE
  5
3B95
330
3B92
100
AcDbEntity
  8
DIM
 62
     0
370
    -2
100
AcDbLine
 10
100.4165303244005
 20
456.7854077805792
 30
0.0
 11
100.4165303244005
 21
469.9574301222169
 31
0.0
  0
LINE
  5
3B96
330
3B92
100
AcDbEntity
  8
DIM
 62
     0
370
    -2
100
AcDbLine
 10
172.4165303244005
 20
456.7854077805792
 30
0.0
 11
172.4165303244005
 21
469.9574301222169
 31
0.0
  0
LINE
  5
3B97
330
3B92
100
AcDbEntity
  8
DIM
 62
     0
370
    -2
100
AcDbLine
 10
102.4165303244005
 20
469.9574301222169
 30
0.0
 11
170.4165303244005
 21
469.9574301222169
 31
0.0
  0
INSERT
  5
3B98
330
3B92
100
AcDbEntity
  8
DIM
 62
     0
370
    -2
100
AcDbBlockReference
  2
_DOT
 10
100.4165303244005
 20
469.9574301222169
 30
0.0
 41
2.0
 42
2.0
 43
2.0
 50
180.0
  0
INSERT
  5
3B99
330
3B92
100
AcDbEntity
  8
DIM
 62
     0
370
    -2
100
AcDbBlockReference
  2
_DOT
 10
172.4165303244005
 20
469.9574301222169
 30
0.0
 41
2.0
 42
2.0
 43
2.0
  0
MTEXT
  5
3B9A
330
3B92
100
AcDbEntity
  8
DIM
 62
     0
 48
0.05
100
AcDbMText
 10
136.4165303244005
 20
477.9574301222169
 30
0.0
 40
5.0
 41
0.0
 46
0.0
 71
     2
 72
     1
  1
\A1;72
  7
ＭＳ ゴシック
 73
     1
 44
1.0
  0
POINT
  5
3B9B
330
3B92
100
AcDbEntity
  8
Defpoints
 62
     0
100
AcDbPoint
 10
100.4165303244005
 20
451.7854077805792
 30
0.0
  0
POINT
  5
3B9C
330
3B92
100
AcDbEntity
  8
Defpoints
 62
     0
100
AcDbPoint
 10
172.4165303244005
 20
451.7854077805792
 30
0.0
  0
POINT
  5
3B9D
330
3B92
100
AcDbEntity
  8
Defpoints
 62
     0
100
AcDbPoint
 10
172.4165303244005
 20
469.9574301222169
 30
0.0
  0
ENDBLK
  5
3B94
330
3B92
100
AcDbEntity
  8
0
100
AcDbBlockEnd
  0
BLOCK
  5
3B9F
330
3B9E
100
AcDbEntity
  8
0
100
AcDbBlockBegin
  2
*D4
 70
     1
 10
0.0
 20
0.0
 30
0.0
  3
*D4
  1

  0
LINE
  5
3BA1
330
3B9E
100
AcDbEntity
  8
DIM
 62
     0
370
    -2
100
AcDbLine
 10
95.4165303244005
 20
448.3104475998533
 30
0.0
 11
80.41653032440041
 21
448.3104475998533
 31
0.0
  0
LINE
  5
3BA2
330
3B9E
100
AcDbEntity
  8
DIM
 62
     0
370
    -2
100
AcDbLine
 10
120.4165303244005
 20
380.0604475998529
 30
0.0
 11
80.41653032440065
 21
380.0604475998528
 31
0.0
  0
LINE
  5
3BA3
330
3B9E
100
AcDbEntity
  8
DIM
 62
     0
370
    -2
100
AcDbLine
 10
80.41653032440041
 20
446.3104475998533
 30
0.0
 11
80.41653032440065
 21
382.0604475998528
 31
0.0
  0
INSERT
  5
3BA4
330
3B9E
100
AcDbEntity
  8
DIM
 62
     0
370
    -2
100
AcDbBlockReference
  2
_DOT
 10
80.41653032440041
 20
448.3104475998533
 30
0.0
 41
2.0
 42
2.0
 43
2.0
 50
90.0000000000002
  0
INSERT
  5
3BA5
330
3B9E
100
AcDbEntity
  8
DIM
 62
     0
370
    -2
100
AcDbBlockReference
  2
_DOT
 10
80.41653032440065
 20
380.0604475998528
 30
0.0
 41
2.0
 42
2.0
 43
2.0
 50
270.0000000000002
  0
MTEXT
  5
3BA6
330
3B9E
100
AcDbEntity
  8
DIM
 62
     0
 48
0.05
100
AcDbMText
 10
72.41653032440053
 20
414.1854475998531
 30
0.0
 40
5.0
 41
0.0
 46
0.0
 71
     2
 72
     1
  1
\A1;68
  7
ＭＳ ゴシック
 11
-3.539700075581425E-15
 21
1.0
 31
0.0
 73
     1
 44
1.0
  0
POINT
  5
3BA7
330
3B9E
100
AcDbEntity
  8
Defpoints
 62
     0
100
AcDbPoint
 10
100.4165303244005
 20
448.3104475998533
 30
0.0
  0
POINT
  5
3BA8
330
3B9E
100
AcDbEntity
  8
Defpoints
 62
     0
100
AcDbPoint
 10
125.4165303244005
 20
380.0604475998529
 30
0.0
  0
POINT
  5
3BA9
330
3B9E
100
AcDbEntity
  8
Defpoints
 62
     0
100
AcDbPoint
 10
80.41653032440065
 20
380.0604475998528
 30
0.0
  0
ENDBLK
  5
3BA0
330
3B9E
100
AcDbEntity
  8
0
100
AcDbBlockEnd
  0
BLOCK
  5
3BAB
330
3BAA
100
AcDbEntity
  8
0
100
AcDbBlockBegin
  2
*D5
 70
     1
 10
0.0
 20
0.0
 30
0.0
  3
*D5
  1

  0
LINE
  5
3BAD
330
3BAA
100
AcDbEntity
  8
DIM
 62
     0
370
    -2
100
AcDbLine
 10
125.4165303244005
 20
375.0604475998529
 30
0.0
 11
125.4165303244005
 21
361.7949884833052
 31
0.0
  0
LINE
  5
3BAE
330
3BAA
100
AcDbEntity
  8
DIM
 62
     0
370
    -2
100
AcDbLine
 10
147.4165303244005
 20
375.0604475998529
 30
0.0
 11
147.4165303244005
 21
361.7949884833052
 31
0.0
  0
LINE
  5
3BAF
330
3BAA
100
AcDbEntity
  8
DIM
 62
     0
370
    -2
100
AcDbLine
 10
127.4165303244005
 20
361.7949884833052
 30
0.0
 11
145.4165303244005
 21
361.7949884833052
 31
0.0
  0
INSERT
  5
3BB0
330
3BAA
100
AcDbEntity
  8
DIM
 62
     0
370
    -2
100
AcDbBlockReference
  2
_DOT
 10
125.4165303244005
 20
361.7949884833052
 30
0.0
 41
2.0
 42
2.0
 43
2.0
 50
180.0
  0
INSERT
  5
3BB1
330
3BAA
100
AcDbEntity
  8
DIM
 62
     0
370
    -2
100
AcDbBlockReference
  2
_DOT
 10
147.4165303244005
 20
361.7949884833052
 30
0.0
 41
2.0
 42
2.0
 43
2.0
  0
MTEXT
  5
3BB2
330
3BAA
100
AcDbEntity
  8
DIM
 62
     0
 48
0.05
100
AcDbMText
 10
136.4165303244005
 20
369.7949884833052
 30
0.0
 40
5.0
 41
0.0
 46
0.0
 71
     2
 72
     1
  1
\A1;22
  7
ＭＳ ゴシック
 73
     1
 44
1.0
  0
POINT
  5
3BB3
330
3BAA
100
AcDbEntity
  8
Defpoints
 62
     0
100
AcDbPoint
 10
125.4165303244005
 20
380.0604475998529
 30
0.0
  0
POINT
  5
3BB4
330
3BAA
100
AcDbEntity
  8
Defpoints
 62
     0
100
AcDbPoint
 10
147.4165303244005
 20
380.0604475998529
 30
0.0
  0
POINT
  5
3BB5
330
3BAA
100
AcDbEntity
  8
Defpoints
 62
     0
100
AcDbPoint
 10
147.4165303244005
 20
361.7949884833052
 30
0.0
  0
ENDBLK
  5
3BAC
330
3BAA
100
AcDbEntity
  8
0
100
AcDbBlockEnd
  0
BLOCK
  5
3BB7
330
3BB6
100
AcDbEntity
  8
0
100
AcDbBlockBegin
  2
*D6
 70
     1
 10
0.0
 20
0.0
 30
0.0
  3
*D6
  1

  0
LINE
  5
3BB9
330
3BB6
100
AcDbEntity
  8
DIM
 62
     0
370
    -2
100
AcDbLine
 10
176.6454837165862
 20
212.2077009873064
 30
0.0
 11
193.3903881603889
 21
212.2077009873063
 31
0.0
  0
LINE
  5
3BBA
330
3BB6
100
AcDbEntity
  8
DIM
 62
     0
370
    -2
100
AcDbLine
 10
176.6454837165862
 20
182.2077009873063
 30
0.0
 11
193.3903881603889
 21
182.2077009873062
 31
0.0
  0
LINE
  5
3BBB
330
3BB6
100
AcDbEntity
  8
DIM
 62
     0
370
    -2
100
AcDbLine
 10
193.3903881603889
 20
210.2077009873063
 30
0.0
 11
193.3903881603889
 21
184.2077009873062
 31
0.0
  0
INSERT
  5
3BBC
330
3BB6
100
AcDbEntity
  8
DIM
 62
     0
370
    -2
100
AcDbBlockReference
  2
_DOT
 10
193.3903881603889
 20
212.2077009873063
 30
0.0
 41
2.0
 42
2.0
 43
2.0
 50
89.99999999999982
  0
INSERT
  5
3BBD
330
3BB6
100
AcDbEntity
  8
DIM
 62
     0
370
    -2
100
AcDbBlockReference
  2
_DOT
 10
193.3903881603889
 20
182.2077009873062
 30
0.0
 41
2.0
 42
2.0
 43
2.0
 50
269.9999999999998
  0
MTEXT
  5
3BBE
330
3BB6
100
AcDbEntity
  8
DIM
 62
     0
 48
0.05
100
AcDbMText
 10
185.3903881603889
 20
197.2077009873064
 30
0.0
 40
5.0
 41
0.0
 46
0.0
 71
     2
 72
     1
  1
\A1;30
  7
ＭＳ ゴシック
 11
2.842170943040393E-15
 21
1.0
 31
0.0
 73
     1
 44
1.0
  0
POINT
  5
3BBF
330
3BB6
100
AcDbEntity
  8
Defpoints
 62
     0
100
AcDbPoint
 10
171.6454837165862
 20
212.2077009873064
 30
0.0
  0
POINT
  5
3BC0
330
3BB6
100
AcDbEntity
  8
Defpoints
 62
     0
100
AcDbPoint
 10
171.6454837165862
 20
182.2077009873063
 30
0.0
  0
POINT
  5
3BC1
330
3BB6
100
AcDbEntity
  8
Defpoints
 62
     0
100
AcDbPoint
 10
193.3903881603888
 20
182.2077009873062
 30
0.0
  0
ENDBLK
  5
3BB8
330
3BB6
100
AcDbEntity
  8
0
100
AcDbBlockEnd
  0
BLOCK
  5
3BC3
330
3BC2
100
AcDbEntity
  8
0
100
AcDbBlockBegin
  2
*D7
 70
     1
 10
0.0
 20
0.0
 30
0.0
  3
*D7
  1

  0
LINE
  5
3BC5
330
3BC2
100
AcDbEntity
  8
DIM
 62
     0
370
    -2
100
AcDbLine
 10
177.9901558885232
 20
438.06044758632
 30
0.0
 11
190.3107608583836
 21
438.06044758632
 31
0.0
  0
LINE
  5
3BC6
330
3BC2
100
AcDbEntity
  8
DIM
 62
     0
370
    -2
100
AcDbLine
 10
177.4165317216699
 20
448.31044758632
 30
0.0
 11
190.3107608583836
 21
448.31044758632
 31
0.0
  0
LINE
  5
3BC7
330
3BC2
100
AcDbEntity
  8
DIM
 62
     0
370
    -2
100
AcDbLine
 10
190.3107608583836
 20
440.06044758632
 30
0.0
 11
190.3107608583836
 21
446.31044758632
 31
0.0
  0
INSERT
  5
3BC8
330
3BC2
100
AcDbEntity
  8
DIM
 62
     0
370
    -2
100
AcDbBlockReference
  2
_DOT
 10
190.3107608583836
 20
438.06044758632
 30
0.0
 41
2.0
 42
2.0
 43
2.0
 50
270.0
  0
INSERT
  5
3BC9
330
3BC2
100
AcDbEntity
  8
DIM
 62
     0
370
    -2
100
AcDbBlockReference
  2
_DOT
 10
190.3107608583836
 20
448.31044758632
 30
0.0
 41
2.0
 42
2.0
 43
2.0
 50
90.0
  0
MTEXT
  5
3BCA
330
3BC2
100
AcDbEntity
  8
DIM
 62
     0
 48
0.05
100
AcDbMText
 10
182.3107608583836
 20
443.18544758632
 30
0.0
 40
5.0
 41
0.0
 46
0.0
 71
     2
 72
     1
  1
\A1;10
  7
ＭＳ ゴシック
 11
0.0
 21
1.0
 31
0.0
 73
     1
 44
1.0
  0
POINT
  5
3BCB
330
3BC2
100
AcDbEntity
  8
Defpoints
 62
     0
100
AcDbPoint
 10
172.9901558885232
 20
438.06044758632
 30
0.0
  0
POINT
  5
3BCC
330
3BC2
100
AcDbEntity
  8
Defpoints
 62
     0
100
AcDbPoint
 10
172.4165317216699
 20
448.31044758632
 30
0.0
  0
POINT
  5
3BCD
330
3BC2
100
AcDbEntity
  8
Defpoints
 62
     0
100
AcDbPoint
 10
190.3107608583836
 20
448.31044758632
 30
0.0
  0
ENDBLK
  5
3BC4
330
3BC2
100
AcDbEntity
  8
0
100
AcDbBlockEnd
  0
BLOCK
  5
3BCF
330
3BCE
100
AcDbEntity
  8
0
100
AcDbBlockBegin
  2
*D8
 70
     1
 10
0.0
 20
0.0
 30
0.0
  3
*D8
  1

  0
LINE
  5
3BD1
330
3BCE
100
AcDbEntity
  8
DIM
 62
     0
370
    -2
100
AcDbLine
 10
182.9901558885232
 20
438.06044758632
 30
0.0
 11
190.3107608583836
 21
438.06044758632
 31
0.0
  0
LINE
  5
3BD2
330
3BCE
100
AcDbEntity
  8
DIM
 62
     0
370
    -2
100
AcDbLine
 10
150.8011504144714
 20
380.0604500198659
 30
0.0
 11
190.3107608583836
 21
380.0604500198659
 31
0.0
  0
LINE
  5
3BD3
330
3BCE
100
AcDbEntity
  8
DIM
 62
     0
370
    -2
100
AcDbLine
 10
190.3107608583836
 20
436.06044758632
 30
0.0
 11
190.3107608583836
 21
382.0604500198659
 31
0.0
  0
INSERT
  5
3BD4
330
3BCE
100
AcDbEntity
  8
DIM
 62
     0
370
    -2
100
AcDbBlockReference
  2
_DOT
 10
190.3107608583836
 20
438.06044758632
 30
0.0
 41
2.0
 42
2.0
 43
2.0
 50
90.0
  0
INSERT
  5
3BD5
330
3BCE
100
AcDbEntity
  8
DIM
 62
     0
370
    -2
100
AcDbBlockReference
  2
_DOT
 10
190.3107608583836
 20
380.0604500198659
 30
0.0
 41
2.0
 42
2.0
 43
2.0
 50
270.0
  0
MTEXT
  5
3BD6
330
3BCE
100
AcDbEntity
  8
DIM
 62
     0
 48
0.05
100
AcDbMText
 10
184.8107608583836
 20
409.060448803093
 30
0.0
 40
5.0
 41
0.0
 46
0.0
 71
     5
 72
     1
  1
\A1;58
  7
ＭＳ ゴシック
 11
0.0
 21
1.0
 31
0.0
 73
     1
 44
1.0
  0
POINT
  5
3BD7
330
3BCE
100
AcDbEntity
  8
Defpoints
 62
     0
100
AcDbPoint
 10
177.9901558885232
 20
438.06044758632
 30
0.0
  0
POINT
  5
3BD8
330
3BCE
100
AcDbEntity
  8
Defpoints
 62
     0
100
AcDbPoint
 10
145.8011504144714
 20
380.0604500198659
 30
0.0
  0
POINT
  5
3BD9
330
3BCE
100
AcDbEntity
  8
Defpoints
 62
     0
100
AcDbPoint
 10
190.3107608583836
 20
380.0604500198659
 30
0.0
  0
ENDBLK
  5
3BD0
330
3BCE
100
AcDbEntity
  8
0
100
AcDbBlockEnd
  0
BLOCK
  5
3CF9
330
3CF8
100
AcDbEntity
  8
0
100
AcDbBlockBegin
  2
*D9
 70
     1
 10
0.0
 20
0.0
 30
0.0
  3
*D9
  1

  0
LINE
  5
3CFA
330
3CF8
100
AcDbEntity
  8
DIM
 62
     0
370
    -2
100
AcDbLine
 10
0.5
 20
67.50177050455927
 30
0.0
 11
0.5
 21
97.57489301398171
 31
0.0
  0
LINE
  5
3CFB
330
3CF8
100
AcDbEntity
  8
DIM
 62
     0
370
    -2
100
AcDbLine
 10
57.58899696048613
 20
67.50177050455927
 30
0.0
 11
57.58899696048613
 21
97.57489301398171
 31
0.0
  0
LINE
  5
3CFC
330
3CF8
100
AcDbEntity
  8
DIM
 62
     0
370
    -2
100
AcDbLine
 10
2.5
 20
97.57489301398171
 30
0.0
 11
55.58899696048613
 21
97.57489301398171
 31
0.0
  0
INSERT
  5
3CFD
330
3CF8
100
AcDbEntity
  8
DIM
 62
     0
370
    -2
100
AcDbBlockReference
  2
_DOT
 10
0.5
 20
97.57489301398171
 30
0.0
 41
2.0
 42
2.0
 43
2.0
 50
180.0
  0
INSERT
  5
3CFE
330
3CF8
100
AcDbEntity
  8
DIM
 62
     0
370
    -2
100
AcDbBlockReference
  2
_DOT
 10
57.58899696048613
 20
97.57489301398171
 30
0.0
 41
2.0
 42
2.0
 43
2.0
  0
MTEXT
  5
3CFF
330
3CF8
100
AcDbEntity
  8
DIM
 62
     0
100
AcDbMText
 10
29.04449848024305
 20
103.0748930139817
 30
0.0
 40
5.0
 41
0.0
 46
0.0
 71
     5
 72
     1
  1
\A1;57
  7
ＭＳ ゴシック
 73
     1
 44
1.0
  0
POINT
  5
3D00
330
3CF8
100
AcDbEntity
  8
Defpoints
 62
     0
100
AcDbPoint
 10
0.5
 20
62.50177050455927
 30
0.0
  0
POINT
  5
3D01
330
3CF8
100
AcDbEntity
  8
Defpoints
 62
     0
100
AcDbPoint
 10
57.58899696048613
 20
62.50177050455927
 30
0.0
  0
POINT
  5
3D02
330
3CF8
100
AcDbEntity
  8
Defpoints
 62
     0
100
AcDbPoint
 10
57.58899696048613
 20
97.57489301398171
 30
0.0
  0
ENDBLK
  5
3D03
330
3CF8
100
AcDbEntity
  8
0
100
AcDbBlockEnd
  0
BLOCK
  5
3D08
330
3D07
100
AcDbEntity
  8
0
100
AcDbBlockBegin
  2
*D10
 70
     1
 10
0.0
 20
0.0
 30
0.0
  3
*D10
  1

  0
LINE
  5
3D09
330
3D07
100
AcDbEntity
  8
DIM
 62
     0
370
    -2
100
AcDbLine
 10
10.10104278775087
 20
57.50177050455927
 30
0.0
 11
10.10104278775087
 21
19.15243768996962
 31
0.0
  0
LINE
  5
3D0A
330
3D07
100
AcDbEntity
  8
DIM
 62
     0
370
    -2
100
AcDbLine
 10
47.98795417273527
 20
57.50177050455927
 30
0.0
 11
47.98795417273527
 21
19.15243768996962
 31
0.0
  0
LINE
  5
3D0B
330
3D07
100
AcDbEntity
  8
DIM
 62
     0
370
    -2
100
AcDbLine
 10
12.10104278775087
 20
19.15243768996962
 30
0.0
 11
45.98795417273527
 21
19.15243768996962
 31
0.0
  0
INSERT
  5
3D0C
330
3D07
100
AcDbEntity
  8
DIM
 62
     0
370
    -2
100
AcDbBlockReference
  2
_DOT
 10
10.10104278775087
 20
19.15243768996962
 30
0.0
 41
2.0
 42
2.0
 43
2.0
 50
180.0
  0
INSERT
  5
3D0D
330
3D07
100
AcDbEntity
  8
DIM
 62
     0
370
    -2
100
AcDbBlockReference
  2
_DOT
 10
47.98795417273527
 20
19.15243768996962
 30
0.0
 41
2.0
 42
2.0
 43
2.0
  0
MTEXT
  5
3D0E
330
3D07
100
AcDbEntity
  8
DIM
 62
     0
100
AcDbMText
 10
29.04449848024307
 20
24.65243768996962
 30
0.0
 40
5.0
 41
0.0
 46
0.0
 71
     5
 72
     1
  1
\A1;38
  7
ＭＳ ゴシック
 73
     1
 44
1.0
  0
POINT
  5
3D0F
330
3D07
100
AcDbEntity
  8
Defpoints
 62
     0
100
AcDbPoint
 10
10.10104278775087
 20
62.50177050455927
 30
0.0
  0
POINT
  5
3D10
330
3D07
100
AcDbEntity
  8
Defpoints
 62
     0
100
AcDbPoint
 10
47.98795417273527
 20
62.50177050455927
 30
0.0
  0
POINT
  5
3D11
330
3D07
100
AcDbEntity
  8
Defpoints
 62
     0
100
AcDbPoint
 10
47.98795417273527
 20
19.15243768996962
 30
0.0
  0
ENDBLK
  5
3D12
330
3D07
100
AcDbEntity
  8
0
100
AcDbBlockEnd
  0
BLOCK
  5
3D25
330
3D24
100
AcDbEntity
  8
0
100
AcDbBlockBegin
  2
*D11
 70
     1
 10
0.0
 20
0.0
 30
0.0
  3
*D11
  1

  0
LINE
  5
3D27
330
3D24
100
AcDbEntity
  8
DIM
 62
     0
370
    -2
100
AcDbLine
 10
-209.5109718151585
 20
338.6076747477204
 30
0.0
 11
-209.5109718151585
 21
403.7539197665653
 31
0.0
  0
LINE
  5
3D28
330
3D24
100
AcDbEntity
  8
DIM
 62
     0
370
    -2
100
AcDbLine
 10
-95.33297789418617
 20
338.6076747477204
 30
0.0
 11
-95.33297789418617
 21
403.7539197665653
 31
0.0
  0
LINE
  5
3D29
330
3D24
100
AcDbEntity
  8
DIM
 62
     0
370
    -2
100
AcDbLine
 10
-207.5109718151585
 20
403.7539197665653
 30
0.0
 11
-97.33297789418617
 21
403.7539197665653
 31
0.0
  0
INSERT
  5
3D2A
330
3D24
100
AcDbEntity
  8
DIM
 62
     0
370
    -2
100
AcDbBlockReference
  2
_DOT
 10
-209.5109718151585
 20
403.7539197665653
 30
0.0
 41
2.0
 42
2.0
 43
2.0
 50
180.0
  0
INSERT
  5
3D2B
330
3D24
100
AcDbEntity
  8
DIM
 62
     0
370
    -2
100
AcDbBlockReference
  2
_DOT
 10
-95.33297789418617
 20
403.7539197665653
 30
0.0
 41
2.0
 42
2.0
 43
2.0
  0
MTEXT
  5
3D2C
330
3D24
100
AcDbEntity
  8
DIM
 62
     0
100
AcDbMText
 10
-152.4219748546724
 20
409.2548576182597
 30
0.0
 40
5.0
 41
0.0
 46
0.0
 71
     5
 72
     1
  1
\A1;114
  7
ＭＳ ゴシック
 73
     1
 44
1.0
  0
POINT
  5
3D2D
330
3D24
100
AcDbEntity
  8
Defpoints
 62
     0
100
AcDbPoint
 10
-209.5109718151585
 20
333.6076747477204
 30
0.0
  0
POINT
  5
3D2E
330
3D24
100
AcDbEntity
  8
Defpoints
 62
     0
100
AcDbPoint
 10
-95.33297789418617
 20
333.6076747477204
 30
0.0
  0
POINT
  5
3D2F
330
3D24
100
AcDbEntity
  8
Defpoints
 62
     0
100
AcDbPoint
 10
-95.33297789418617
 20
403.7539197665653
 30
0.0
  0
ENDBLK
  5
3D26
330
3D24
100
AcDbEntity
  8
0
100
AcDbBlockEnd
  0
BLOCK
  5
3D31
330
3D30
100
AcDbEntity
  8
0
100
AcDbBlockBegin
  2
*D12
 70
     1
 10
0.0
 20
0.0
 30
0.0
  3
*D12
  1

  0
LINE
  5
3D33
330
3D30
100
AcDbEntity
  8
DIM
 62
     0
370
    -2
100
AcDbLine
 10
-190.3088862396568
 20
328.6076747477204
 30
0.0
 11
-190.3088862396568
 21
246.9090091185411
 31
0.0
  0
LINE
  5
3D34
330
3D30
100
AcDbEntity
  8
DIM
 62
     0
370
    -2
100
AcDbLine
 10
-114.535063469688
 20
328.6076747477204
 30
0.0
 11
-114.535063469688
 21
246.9090091185411
 31
0.0
  0
LINE
  5
3D35
330
3D30
100
AcDbEntity
  8
DIM
 62
     0
370
    -2
100
AcDbLine
 10
-188.3088862396568
 20
246.9090091185411
 30
0.0
 11
-116.535063469688
 21
246.9090091185411
 31
0.0
  0
INSERT
  5
3D36
330
3D30
100
AcDbEntity
  8
DIM
 62
     0
370
    -2
100
AcDbBlockReference
  2
_DOT
 10
-190.3088862396568
 20
246.9090091185411
 30
0.0
 41
2.0
 42
2.0
 43
2.0
 50
180.0
  0
INSERT
  5
3D37
330
3D30
100
AcDbEntity
  8
DIM
 62
     0
370
    -2
100
AcDbBlockReference
  2
_DOT
 10
-114.535063469688
 20
246.9090091185411
 30
0.0
 41
2.0
 42
2.0
 43
2.0
  0
MTEXT
  5
3D38
330
3D30
100
AcDbEntity
  8
DIM
 62
     0
100
AcDbMText
 10
-152.4219748546724
 20
252.4099469702355
 30
0.0
 40
5.0
 41
0.0
 46
0.0
 71
     5
 72
     1
  1
\A1;76
  7
ＭＳ ゴシック
 73
     1
 44
1.0
  0
POINT
  5
3D39
330
3D30
100
AcDbEntity
  8
Defpoints
 62
     0
100
AcDbPoint
 10
-190.3088862396568
 20
333.6076747477204
 30
0.0
  0
POINT
  5
3D3A
330
3D30
100
AcDbEntity
  8
Defpoints
 62
     0
100
AcDbPoint
 10
-114.535063469688
 20
333.6076747477204
 30
0.0
  0
POINT
  5
3D3B
330
3D30
100
AcDbEntity
  8
Defpoints
 62
     0
100
AcDbPoint
 10
-114.535063469688
 20
246.9090091185411
 30
0.0
  0
ENDBLK
  5
3D32
330
3D30
100
AcDbEntity
  8
0
100
AcDbBlockEnd
  0
BLOCK
  5
4513
330
4512
100
AcDbEntity
  8
0
100
AcDbBlockBegin
  2
*D13
 70
     1
 10
0.0
 20
0.0
 30
0.0
  3
*D13
  1

  0
LINE
  5
4515
330
4512
100
AcDbEntity
  8
DIM
 62
     0
370
    -2
100
AcDbLine
 10
241.2382137963162
 20
332.7184129707982
 30
0.0
 11
228.4368552262316
 21
332.7184129707982
 31
0.0
  0
LINE
  5
4516
330
4512
100
AcDbEntity
  8
DIM
 62
     0
370
    -2
100
AcDbLine
 10
241.2382137963162
 20
280.7176939837995
 30
0.0
 11
228.4368552262316
 21
280.7176939837995
 31
0.0
  0
LINE
  5
4517
330
4512
100
AcDbEntity
  8
DIM
 62
     0
370
    -2
100
AcDbLine
 10
228.4368552262316
 20
330.7184129707982
 30
0.0
 11
228.4368552262316
 21
282.7176939837995
 31
0.0
  0
INSERT
  5
4518
330
4512
100
AcDbEntity
  8
DIM
 62
     0
370
    -2
100
AcDbBlockReference
  2
_DOT
 10
228.4368552262316
 20
332.7184129707982
 30
0.0
 41
2.0
 42
2.0
 43
2.0
 50
90.0
  0
INSERT
  5
4519
330
4512
100
AcDbEntity
  8
DIM
 62
     0
370
    -2
100
AcDbBlockReference
  2
_DOT
 10
228.4368552262316
 20
280.7176939837995
 30
0.0
 41
2.0
 42
2.0
 43
2.0
 50
270.0
  0
MTEXT
  5
451A
330
4512
100
AcDbEntity
  8
DIM
 62
     0
100
AcDbMText
 10
222.9359173745372
 20
306.7180534772989
 30
0.0
 40
5.0
 41
0.0
 46
0.0
 71
     5
 72
     1
  1
\A1;%%c52
  7
ＭＳ ゴシック
 11
0.0
 21
1.0
 31
0.0
 73
     1
 44
1.0
  0
POINT
  5
451B
330
4512
100
AcDbEntity
  8
Defpoints
 62
     0
100
AcDbPoint
 10
246.2382137963162
 20
332.7184129707982
 30
0.0
  0
POINT
  5
451C
330
4512
100
AcDbEntity
  8
Defpoints
 62
     0
100
AcDbPoint
 10
246.2382137963162
 20
280.7176939837995
 30
0.0
  0
POINT
  5
451D
330
4512
100
AcDbEntity
  8
Defpoints
 62
     0
100
AcDbPoint
 10
228.4368552262316
 20
280.7176939837995
 30
0.0
  0
ENDBLK
  5
4514
330
4512
100
AcDbEntity
  8
0
100
AcDbBlockEnd
  0
BLOCK
  5
4525
330
4524
100
AcDbEntity
  8
0
100
AcDbBlockBegin
  2
*D14
 70
     1
 10
0.0
 20
0.0
 30
0.0
  3
*D14
  1

  0
LINE
  5
4527
330
4524
100
AcDbEntity
  8
DIM
 62
     0
370
    -2
100
AcDbLine
 10
248.9657168613197
 20
272.6141198871118
 30
0.0
 11
248.9657168613197
 21
248.7182834573848
 31
0.0
  0
LINE
  5
4528
330
4524
100
AcDbEntity
  8
DIM
 62
     0
370
    -2
100
AcDbLine
 10
355.4669376428542
 20
280.785235296331
 30
0.0
 11
355.4669376428542
 21
248.7182834573848
 31
0.0
  0
LINE
  5
4529
330
4524
100
AcDbEntity
  8
DIM
 62
     0
370
    -2
100
AcDbLine
 10
250.9657168613197
 20
248.7182834573848
 30
0.0
 11
353.4669376428542
 21
248.7182834573848
 31
0.0
  0
INSERT
  5
452A
330
4524
100
AcDbEntity
  8
DIM
 62
     0
370
    -2
100
AcDbBlockReference
  2
_DOT
 10
248.9657168613197
 20
248.7182834573848
 30
0.0
 41
2.0
 42
2.0
 43
2.0
 50
180.0
  0
INSERT
  5
452B
330
4524
100
AcDbEntity
  8
DIM
 62
     0
370
    -2
100
AcDbBlockReference
  2
_DOT
 10
355.4669376428542
 20
248.7182834573848
 30
0.0
 41
2.0
 42
2.0
 43
2.0
  0
MTEXT
  5
452C
330
4524
100
AcDbEntity
  8
DIM
 62
     0
100
AcDbMText
 10
302.216327252087
 20
254.2192213090792
 30
0.0
 40
5.0
 41
0.0
 46
0.0
 71
     5
 72
     1
  1
\A1;107
  7
ＭＳ ゴシック
 73
     1
 44
1.0
  0
POINT
  5
452D
330
4524
100
AcDbEntity
  8
Defpoints
 62
     0
100
AcDbPoint
 10
248.9657168613197
 20
277.6141198871118
 30
0.0
  0
POINT
  5
452E
330
4524
100
AcDbEntity
  8
Defpoints
 62
     0
100
AcDbPoint
 10
355.4669376428542
 20
285.785235296331
 30
0.0
  0
POINT
  5
452F
330
4524
100
AcDbEntity
  8
Defpoints
 62
     0
100
AcDbPoint
 10
355.4669376428542
 20
248.7182834573848
 30
0.0
  0
ENDBLK
  5
4526
330
4524
100
AcDbEntity
  8
0
100
AcDbBlockEnd
  0
BLOCK
  5
4534
330
4533
100
AcDbEntity
  8
0
100
AcDbBlockBegin
  2
*D15
 70
     1
 10
0.0
 20
0.0
 30
0.0
  3
*D15
  1

  0
LINE
  5
4536
330
4533
100
AcDbEntity
  8
DIM
 62
     0
370
    -2
100
AcDbLine
 10
363.5910506730801
 20
366.7183530584284
 30
0.0
 11
381.9370946994207
 21
366.7183530584284
 31
0.0
  0
LINE
  5
4537
330
4533
100
AcDbEntity
  8
DIM
 62
     0
370
    -2
100
AcDbLine
 10
312.5215793654602
 20
273.3671749675904
 30
0.0
 11
381.9370946994207
 21
273.3671749675904
 31
0.0
  0
LINE
  5
4538
330
4533
100
AcDbEntity
  8
DIM
 62
     0
370
    -2
100
AcDbLine
 10
381.9370946994207
 20
364.7183530584284
 30
0.0
 11
381.9370946994207
 21
275.3671749675904
 31
0.0
  0
INSERT
  5
4539
330
4533
100
AcDbEntity
  8
DIM
 62
     0
370
    -2
100
AcDbBlockReference
  2
_DOT
 10
381.9370946994207
 20
366.7183530584284
 30
0.0
 41
2.0
 42
2.0
 43
2.0
 50
90.0
  0
INSERT
  5
453A
330
4533
100
AcDbEntity
  8
DIM
 62
     0
370
    -2
100
AcDbBlockReference
  2
_DOT
 10
381.9370946994207
 20
273.3671749675904
 30
0.0
 41
2.0
 42
2.0
 43
2.0
 50
270.0
  0
MTEXT
  5
453B
330
4533
100
AcDbEntity
  8
DIM
 62
     0
100
AcDbMText
 10
376.4361568477263
 20
320.0427640130094
 30
0.0
 40
5.0
 41
0.0
 46
0.0
 71
     5
 72
     1
  1
\A1;93
  7
ＭＳ ゴシック
 11
0.0
 21
1.0
 31
0.0
 73
     1
 44
1.0
  0
POINT
  5
453C
330
4533
100
AcDbEntity
  8
Defpoints
 62
     0
100
AcDbPoint
 10
358.5910506730801
 20
366.7183530584284
 30
0.0
  0
POINT
  5
453D
330
4533
100
AcDbEntity
  8
Defpoints
 62
     0
100
AcDbPoint
 10
307.5215793654602
 20
273.3671749675904
 30
0.0
  0
POINT
  5
453E
330
4533
100
AcDbEntity
  8
Defpoints
 62
     0
100
AcDbPoint
 10
381.9370946994207
 20
273.3671749675904
 30
0.0
  0
ENDBLK
  5
4535
330
4533
100
AcDbEntity
  8
0
100
AcDbBlockEnd
  0
BLOCK
  5
4543
330
4542
100
AcDbEntity
  8
0
100
AcDbBlockBegin
  2
*D16
 70
     1
 10
0.0
 20
0.0
 30
0.0
  3
*D16
  1

  0
LINE
  5
4545
330
4542
100
AcDbEntity
  8
DIM
 62
     0
370
    -2
100
AcDbLine
 10
47.27719488000014
 20
375.7064704421448
 30
0.0
 11
47.27719488000014
 21
392.9359169565382
 31
0.0
  0
LINE
  5
4546
330
4542
100
AcDbEntity
  8
DIM
 62
     0
370
    -2
100
AcDbLine
 10
139.2771948877125
 20
375.7064704421448
 30
0.0
 11
139.2771948877125
 21
392.9359169565382
 31
0.0
  0
LINE
  5
4547
330
4542
100
AcDbEntity
  8
DIM
 62
     0
370
    -2
100
AcDbLine
 10
49.27719488000014
 20
392.9359169565382
 30
0.0
 11
137.2771948877125
 21
392.9359169565382
 31
0.0
  0
INSERT
  5
4548
330
4542
100
AcDbEntity
  8
DIM
 62
     0
370
    -2
100
AcDbBlockReference
  2
_DOT
 10
47.27719488000014
 20
392.9359169565382
 30
0.0
 41
2.0
 42
2.0
 43
2.0
 50
180.0
  0
INSERT
  5
4549
330
4542
100
AcDbEntity
  8
DIM
 62
     0
370
    -2
100
AcDbBlockReference
  2
_DOT
 10
139.2771948877125
 20
392.9359169565382
 30
0.0
 41
2.0
 42
2.0
 43
2.0
  0
MTEXT
  5
454A
330
4542
100
AcDbEntity
  8
DIM
 62
     0
100
AcDbMText
 10
93.2771948838563
 20
398.4368548082326
 30
0.0
 40
5.0
 41
0.0
 46
0.0
 71
     5
 72
     1
  1
\A1;%%c92
  7
ＭＳ ゴシック
 73
     1
 44
1.0
  0
POINT
  5
454B
330
4542
100
AcDbEntity
  8
Defpoints
 62
     0
100
AcDbPoint
 10
47.27719488000014
 20
370.7064704421448
 30
0.0
  0
POINT
  5
454C
330
4542
100
AcDbEntity
  8
Defpoints
 62
     0
100
AcDbPoint
 10
139.2771948877125
 20
370.7064704421448
 30
0.0
  0
POINT
  5
454D
330
4542
100
AcDbEntity
  8
Defpoints
 62
     0
100
AcDbPoint
 10
139.2771948877125
 20
392.9359169565382
 30
0.0
  0
ENDBLK
  5
4544
330
4542
100
AcDbEntity
  8
0
100
AcDbBlockEnd
  0
BLOCK
  5
4555
330
4554
100
AcDbEntity
  8
0
100
AcDbBlockBegin
  2
*D17
 70
     1
 10
0.0
 20
0.0
 30
0.0
  3
*D17
  1

  0
LINE
  5
4557
330
4554
100
AcDbEntity
  8
DIM
 62
     0
370
    -2
100
AcDbLine
 10
129.1804603434625
 20
308.6562808856788
 30
0.0
 11
171.4561994968021
 21
308.6562808856788
 31
0.0
  0
LINE
  5
4558
330
4554
100
AcDbEntity
  8
DIM
 62
     0
370
    -2
100
AcDbLine
 10
129.1804603434625
 20
273.3671749675905
 30
0.0
 11
171.4561994968021
 21
273.3671749675905
 31
0.0
  0
LINE
  5
4559
330
4554
100
AcDbEntity
  8
DIM
 62
     0
370
    -2
100
AcDbLine
 10
171.4561994968021
 20
306.6562808856788
 30
0.0
 11
171.4561994968021
 21
275.3671749675905
 31
0.0
  0
INSERT
  5
455A
330
4554
100
AcDbEntity
  8
DIM
 62
     0
370
    -2
100
AcDbBlockReference
  2
_DOT
 10
171.4561994968021
 20
308.6562808856788
 30
0.0
 41
2.0
 42
2.0
 43
2.0
 50
90.0
  0
INSERT
  5
455B
330
4554
100
AcDbEntity
  8
DIM
 62
     0
370
    -2
100
AcDbBlockReference
  2
_DOT
 10
171.4561994968021
 20
273.3671749675905
 30
0.0
 41
2.0
 42
2.0
 43
2.0
 50
270.0
  0
MTEXT
  5
455C
330
4554
100
AcDbEntity
  8
DIM
 62
     0
100
AcDbMText
 10
165.9552616451077
 20
291.0117279266346
 30
0.0
 40
5.0
 41
0.0
 46
0.0
 71
     5
 72
     1
  1
\A1;35
  7
ＭＳ ゴシック
 11
0.0
 21
1.0
 31
0.0
 73
     1
 44
1.0
  0
POINT
  5
455D
330
4554
100
AcDbEntity
  8
Defpoints
 62
     0
100
AcDbPoint
 10
124.1804603434625
 20
308.6562808856788
 30
0.0
  0
POINT
  5
455E
330
4554
100
AcDbEntity
  8
Defpoints
 62
     0
100
AcDbPoint
 10
124.1804603434625
 20
273.3671749675905
 30
0.0
  0
POINT
  5
455F
330
4554
100
AcDbEntity
  8
Defpoints
 62
     0
100
AcDbPoint
 10
171.4561994968021
 20
273.3671749675905
 30
0.0
  0
ENDBLK
  5
4556
330
4554
100
AcDbEntity
  8
0
100
AcDbBlockEnd
  0
BLOCK
  5
4564
330
4563
100
AcDbEntity
  8
0
100
AcDbBlockBegin
  2
*D18
 70
     1
 10
0.0
 20
0.0
 30
0.0
  3
*D18
  1

  0
LINE
  5
4566
330
4563
100
AcDbEntity
  8
DIM
 62
     0
370
    -2
100
AcDbLine
 10
83.27737462867793
 20
322.4815026634055
 30
0.0
 11
83.27737462867793
 21
380.235669006209
 31
0.0
  0
LINE
  5
4567
330
4563
100
AcDbEntity
  8
DIM
 62
     0
370
    -2
100
AcDbLine
 10
103.2770151390348
 20
322.4815026634055
 30
0.0
 11
103.2770151390348
 21
380.235669006209
 31
0.0
  0
LINE
  5
4568
330
4563
100
AcDbEntity
  8
DIM
 62
     0
370
    -2
100
AcDbLine
 10
85.27737462867793
 20
380.235669006209
 30
0.0
 11
101.2770151390348
 21
380.235669006209
 31
0.0
  0
INSERT
  5
4569
330
4563
100
AcDbEntity
  8
DIM
 62
     0
370
    -2
100
AcDbBlockReference
  2
_DOT
 10
83.27737462867793
 20
380.235669006209
 30
0.0
 41
2.0
 42
2.0
 43
2.0
 50
180.0
  0
INSERT
  5
456A
330
4563
100
AcDbEntity
  8
DIM
 62
     0
370
    -2
100
AcDbBlockReference
  2
_DOT
 10
103.2770151390348
 20
380.235669006209
 30
0.0
 41
2.0
 42
2.0
 43
2.0
  0
MTEXT
  5
456B
330
4563
100
AcDbEntity
  8
DIM
 62
     0
100
AcDbMText
 10
93.27719488385635
 20
385.7366068579034
 30
0.0
 40
5.0
 41
0.0
 46
0.0
 71
     5
 72
     1
  1
\A1;20
  7
ＭＳ ゴシック
 73
     1
 44
1.0
  0
POINT
  5
456C
330
4563
100
AcDbEntity
  8
Defpoints
 62
     0
100
AcDbPoint
 10
83.27737462867793
 20
317.4815026634055
 30
0.0
  0
POINT
  5
456D
330
4563
100
AcDbEntity
  8
Defpoints
 62
     0
100
AcDbPoint
 10
103.2770151390348
 20
317.4815026634055
 30
0.0
  0
POINT
  5
456E
330
4563
100
AcDbEntity
  8
Defpoints
 62
     0
100
AcDbPoint
 10
103.2770151390348
 20
380.235669006209
 30
0.0
  0
ENDBLK
  5
4565
330
4563
100
AcDbEntity
  8
0
100
AcDbBlockEnd
  0
BLOCK
  5
45DB
330
45DA
100
AcDbEntity
  8
0
100
AcDbBlockBegin
  2
*D19
 70
     1
 10
0.0
 20
0.0
 30
0.0
  3
*D19
  1

  0
LINE
  5
45DD
330
45DA
100
AcDbEntity
  8
DIM
 62
     0
370
    -2
100
AcDbLine
 10
248.9657168613197
 20
337.7177239457686
 30
0.0
 11
248.9657168613197
 21
353.4962422579202
 31
0.0
  0
LINE
  5
45DE
330
45DA
100
AcDbEntity
  8
DIM
 62
     0
370
    -2
100
AcDbLine
 10
191.9657168613197
 20
313.6562808856789
 30
0.0
 11
191.9657168613197
 21
353.4962422579202
 31
0.0
  0
LINE
  5
45DF
330
45DA
100
AcDbEntity
  8
DIM
 62
     0
370
    -2
100
AcDbLine
 10
246.9657168613197
 20
353.4962422579202
 30
0.0
 11
193.9657168613197
 21
353.4962422579202
 31
0.0
  0
INSERT
  5
45E0
330
45DA
100
AcDbEntity
  8
DIM
 62
     0
370
    -2
100
AcDbBlockReference
  2
_DOT
 10
248.9657168613197
 20
353.4962422579202
 30
0.0
 41
2.0
 42
2.0
 43
2.0
  0
INSERT
  5
45E1
330
45DA
100
AcDbEntity
  8
DIM
 62
     0
370
    -2
100
AcDbBlockReference
  2
_DOT
 10
191.9657168613197
 20
353.4962422579202
 30
0.0
 41
2.0
 42
2.0
 43
2.0
 50
180.0
  0
MTEXT
  5
45E2
330
45DA
100
AcDbEntity
  8
DIM
 62
     0
100
AcDbMText
 10
220.4657168613197
 20
358.9971801096146
 30
0.0
 40
5.0
 41
0.0
 46
0.0
 71
     5
 72
     1
  1
\A1;57
  7
ＭＳ ゴシック
 73
     1
 44
1.0
  0
POINT
  5
45E3
330
45DA
100
AcDbEntity
  8
Defpoints
 62
     0
100
AcDbPoint
 10
248.9657168613197
 20
332.7177239457686
 30
0.0
  0
POINT
  5
45E4
330
45DA
100
AcDbEntity
  8
Defpoints
 62
     0
100
AcDbPoint
 10
191.9657168613197
 20
308.6562808856789
 30
0.0
  0
POINT
  5
45E5
330
45DA
100
AcDbEntity
  8
Defpoints
 62
     0
100
AcDbPoint
 10
191.9657168613197
 20
353.4962422579202
 30
0.0
  0
ENDBLK
  5
45DC
330
45DA
100
AcDbEntity
  8
0
100
AcDbBlockEnd
  0
BLOCK
  5
45EA
330
45E9
100
AcDbEntity
  8
0
100
AcDbBlockBegin
  2
*D20
 70
     1
 10
0.0
 20
0.0
 30
0.0
  3
*D20
  1

  0
LINE
  5
45EC
330
45E9
100
AcDbEntity
  8
DIM
 62
     0
370
    -2
100
AcDbLine
 10
67.27821344041614
 20
268.3671749675905
 30
0.0
 11
67.27821344041614
 21
248.7618315878403
 31
0.0
  0
LINE
  5
45ED
330
45E9
100
AcDbEntity
  8
DIM
 62
     0
370
    -2
100
AcDbLine
 10
119.2775543773556
 20
268.3671749675905
 30
0.0
 11
119.2775543773556
 21
248.7618315878403
 31
0.0
  0
LINE
  5
45EE
330
45E9
100
AcDbEntity
  8
DIM
 62
     0
370
    -2
100
AcDbLine
 10
69.27821344041614
 20
248.7618315878403
 30
0.0
 11
117.2775543773556
 21
248.7618315878403
 31
0.0
  0
INSERT
  5
45EF
330
45E9
100
AcDbEntity
  8
DIM
 62
     0
370
    -2
100
AcDbBlockReference
  2
_DOT
 10
67.27821344041614
 20
248.7618315878403
 30
0.0
 41
2.0
 42
2.0
 43
2.0
 50
180.0
  0
INSERT
  5
45F0
330
45E9
100
AcDbEntity
  8
DIM
 62
     0
370
    -2
100
AcDbBlockReference
  2
_DOT
 10
119.2775543773556
 20
248.7618315878403
 30
0.0
 41
2.0
 42
2.0
 43
2.0
  0
MTEXT
  5
45F1
330
45E9
100
AcDbEntity
  8
DIM
 62
     0
100
AcDbMText
 10
93.27788390888585
 20
254.2627694395347
 30
0.0
 40
5.0
 41
0.0
 46
0.0
 71
     5
 72
     1
  1
\A1;52
  7
ＭＳ ゴシック
 73
     1
 44
1.0
  0
POINT
  5
45F2
330
45E9
100
AcDbEntity
  8
Defpoints
 62
     0
100
AcDbPoint
 10
67.27821344041614
 20
273.3671749675905
 30
0.0
  0
POINT
  5
45F3
330
45E9
100
AcDbEntity
  8
Defpoints
 62
     0
100
AcDbPoint
 10
119.2775543773556
 20
273.3671749675905
 30
0.0
  0
POINT
  5
45F4
330
45E9
100
AcDbEntity
  8
Defpoints
 62
     0
100
AcDbPoint
 10
119.2775543773556
 20
248.7618315878403
 30
0.0
  0
ENDBLK
  5
45EB
330
45E9
100
AcDbEntity
  8
0
100
AcDbBlockEnd
  0
BLOCK
  5
45F9
330
45F8
100
AcDbEntity
  8
0
100
AcDbBlockBegin
  2
*D21
 70
     1
 10
0.0
 20
0.0
 30
0.0
  3
*D21
  1

  0
LINE
  5
45FB
330
45F8
100
AcDbEntity
  8
DIM
 62
     0
370
    -2
100
AcDbLine
 10
74.25931411640335
 20
332.7173879975931
 30
0.0
 11
31.83468998430738
 21
332.7173879975931
 31
0.0
  0
LINE
  5
45FC
330
45F8
100
AcDbEntity
  8
DIM
 62
     0
370
    -2
100
AcDbLine
 10
74.2144838383257
 20
280.7176939837997
 30
0.0
 11
31.83468998430737
 21
280.7176939837997
 31
0.0
  0
LINE
  5
45FD
330
45F8
100
AcDbEntity
  8
DIM
 62
     0
370
    -2
100
AcDbLine
 10
31.83468998430738
 20
330.7173879975931
 30
0.0
 11
31.83468998430737
 21
282.7176939837997
 31
0.0
  0
INSERT
  5
45FE
330
45F8
100
AcDbEntity
  8
DIM
 62
     0
370
    -2
100
AcDbBlockReference
  2
_DOT
 10
31.83468998430738
 20
332.7173879975931
 30
0.0
 41
2.0
 42
2.0
 43
2.0
 50
90.0
  0
INSERT
  5
45FF
330
45F8
100
AcDbEntity
  8
DIM
 62
     0
370
    -2
100
AcDbBlockReference
  2
_DOT
 10
31.83468998430737
 20
280.7176939837997
 30
0.0
 41
2.0
 42
2.0
 43
2.0
 50
270.0
  0
MTEXT
  5
4600
330
45F8
100
AcDbEntity
  8
DIM
 62
     0
100
AcDbMText
 10
26.33375213261297
 20
306.7175409906964
 30
0.0
 40
5.0
 41
0.0
 46
0.0
 71
     5
 72
     1
  1
\A1;52
  7
ＭＳ ゴシック
 11
6.832181892951356E-17
 21
1.0
 31
0.0
 73
     1
 44
1.0
  0
POINT
  5
4601
330
45F8
100
AcDbEntity
  8
Defpoints
 62
     0
100
AcDbPoint
 10
79.25931411640335
 20
332.7173879975931
 30
0.0
  0
POINT
  5
4602
330
45F8
100
AcDbEntity
  8
Defpoints
 62
     0
100
AcDbPoint
 10
79.2144838383257
 20
280.7176939837997
 30
0.0
  0
POINT
  5
4603
330
45F8
100
AcDbEntity
  8
Defpoints
 62
     0
100
AcDbPoint
 10
31.83468998430737
 20
280.7176939837997
 30
0.0
  0
ENDBLK
  5
45FA
330
45F8
100
AcDbEntity
  8
0
100
AcDbBlockEnd
  0
ENDSEC
  0
SECTION
  2
ENTITIES
  0
MTEXT
  5
177
330
A
100
AcDbEntity
  8
TEMPLATE
390
1D
100
AcDbMText
 10
15.84042890954615
 20
68.74635032628565
 30
0.0
 40
3.257682291666665
 41
0.0
 46
0.0
 71
     1
 72
     1
  1
品名
  7
ＭＳ ゴシック
 73
     1
 44
0.7828267384257843
  0
MTEXT
  5
178
330
A
100
AcDbEntity
  8
TEMPLATE
390
1D
100
AcDbMText
 10
15.84042890954615
 20
51.7463503262856
 30
0.0
 40
3.257682291666665
 41
0.0
 46
0.0
 71
     1
 72
     1
  1
仕様
  7
ＭＳ ゴシック
 73
     1
 44
0.7828267384257843
  0
LINE
  5
179
330
A
100
AcDbEntity
  8
TEMPLATE
390
1D
100
AcDbLine
 10
404.4404289094496
 20
53.42933470128568
 30
0.0
 11
14.44042890944975
 21
53.42933470128568
 31
0.0
  0
LWPOLYLINE
  5
17A
330
A
100
AcDbEntity
  8
TEMPLATE
390
1D
100
AcDbPolyline
 90
        5
 70
   128
 43
0.0
 10
404.4404289094496
 20
579.4293347012853
 10
14.44042890944975
 20
579.4293347012853
 10
14.44042890944975
 20
19.42933470128565
 10
404.4404289094496
 20
19.42933470128565
 10
404.4404289094496
 20
579.4293347012853
  0
LINE
  5
17B
330
A
100
AcDbEntity
  8
TEMPLATE
390
1D
100
AcDbLine
 10
404.4404289094496
 20
70.42933470128564
 30
0.0
 11
14.44042890944975
 21
70.42933470128564
 31
0.0
  0
LINE
  5
17C
330
A
100
AcDbEntity
  8
TEMPLATE
390
1D
100
AcDbLine
 10
404.4404289095464
 20
36.42933470128565
 30
0.0
 11
253.840428909546
 21
36.42933470128565
 31
0.0
  0
MTEXT
  5
17E
330
A
100
AcDbEntity
  8
TEMPLATE
390
1D
100
AcDbMText
 10
259.8147101599982
 20
30.44725580662403
 30
0.0
 40
4.8865234375
 41
0.0
 46
0.0
 71
     1
 72
     1
  1
大洋金物株式会社 ティーフォルム事業部
  7
ＭＳ ゴシック
 73
     1
 44
0.7828267384257843
  0
MTEXT
  5
180
330
A
100
AcDbEntity
  8
TEMPLATE
390
1D
100
AcDbMText
 10
366.240428909598
 20
46.02985813878564
 30
0.0
 40
4.8865234375
 41
0.0
 46
4.8865234375
 71
     1
 72
     1
  1
{1:2}
  7
ＭＳ ゴシック
 73
     1
 44
0.7828267384257843
1001
ACAD
1000
ACAD_MTEXT_DEFINED_HEIGHT_BEGIN
1070
    46
1040
4.8865234375
1000
ACAD_MTEXT_DEFINED_HEIGHT_END
  0
MTEXT
  5
181
330
A
100
AcDbEntity
  8
TEMPLATE
390
1D
100
AcDbMText
 10
355.640428909598
 20
51.7463503262856
 30
0.0
 40
3.257682291666665
 41
0.0
 46
0.0
 71
     1
 72
     1
  1
縮尺
  7
ＭＳ ゴシック
 73
     1
 44
0.7828267384257843
  0
LINE
  5
182
330
A
100
AcDbEntity
  8
TEMPLATE
390
1D
100
AcDbLine
 10
354.240428909598
 20
36.42933470128565
 30
0.0
 11
354.240428909598
 21
53.42933470128568
 31
0.0
  0
MTEXT
  5
183
330
A
100
AcDbEntity
  8
TEMPLATE
390
1D
100
AcDbMText
 10
305.440428909598
 20
51.7463503262856
 30
0.0
 40
3.257682291666665
 41
0.0
 46
0.0
 71
     1
 72
     1
  1
容量
  7
ＭＳ ゴシック
 73
     1
 44
0.7828267384257843
  0
LINE
  5
184
330
A
100
AcDbEntity
  8
TEMPLATE
390
1D
100
AcDbLine
 10
304.040428909598
 20
36.42933470128565
 30
0.0
 11
304.040428909598
 21
53.42933470128568
 31
0.0
  0
MTEXT
  5
185
330
A
100
AcDbEntity
  8
TEMPLATE
390
1D
100
AcDbMText
 10
255.240428909598
 20
68.74635032628565
 30
0.0
 40
3.257682291666665
 41
0.0
 46
0.0
 71
     1
 72
     1
  1
品番
  7
ＭＳ ゴシック
 73
     1
 44
0.7828267384257843
  0
MTEXT
  5
186
330
A
100
AcDbEntity
  8
TEMPLATE
390
1D
100
AcDbMText
 10
255.240428909598
 20
51.7463503262856
 30
0.0
 40
3.257682291666665
 41
0.0
 46
0.0
 71
     1
 72
     1
  1
重量
  7
ＭＳ ゴシック
 73
     1
 44
0.7828267384257843
  0
MTEXT
  5
187
330
A
100
AcDbEntity
  8
TEMPLATE
390
1D
100
AcDbMText
 10
265.840428909598
 20
63.02985813878564
 30
0.0
 40
4.8865234375
 41
0.0
 46
4.8865234375
 71
     1
 72
     1
  1
{FLR74-2807}
  7
ＭＳ ゴシック
 73
     1
 44
0.7828267384257843
1001
ACAD
1000
ACAD_MTEXT_DEFINED_HEIGHT_BEGIN
1070
    46
1040
4.8865234375
1000
ACAD_MTEXT_DEFINED_HEIGHT_END
  0
LINE
  5
188
330
A
100
AcDbEntity
  8
TEMPLATE
390
1D
100
AcDbLine
 10
253.840428909598
 20
19.42933470128565
 30
0.0
 11
253.840428909598
 21
70.42933470128564
 31
0.0
  0
MTEXT
  5
189
330
A
100
AcDbEntity
  8
TEMPLATE
390
1D
100
AcDbMText
 10
26.44042890954615
 20
63.02985813878564
 30
0.0
 40
4.8865234375
 41
0.0
 46
5.507344722044204
 71
     1
 72
     1
  1
{ソープディスペンサー　-KEUCO, Reva-}
  7
ＭＳ ゴシック
 73
     1
 44
0.7828267384257843
1001
ACAD
1000
ACAD_MTEXT_DEFINED_HEIGHT_BEGIN
1070
    46
1040
5.507344722044204
1000
ACAD_MTEXT_DEFINED_HEIGHT_END
  0
INSERT
  5
68C
330
A
100
AcDbEntity
  8
TEMPLATE
100
AcDbBlockReference
  2
block 2
 10
367.7097207081031
 20
3.349230605734547
 30
0.0
 41
0.1524
 42
0.1524
 43
0.1524
  0
LWPOLYLINE
  5
D69
330
A
100
AcDbEntity
  8
BORDER
100
AcDbPolyline
 90
        4
 70
     1
 43
0.0
 10
0.0
 20
0.0
 10
0.0
 20
594.0
 10
420.0
 20
594.0
 10
420.0
 20
0.0
  0
INSERT
  5
1343
330
A
100
AcDbEntity
  8
TEMPLATE
100
AcDbBlockReference
  2
block 2
 10
838.6973883465873
 20
9.774128564918277
 30
0.0
 41
0.1524
 42
0.1524
 43
0.1524
  0
HATCH
  5
3C64
102
{ACAD_REACTORS
330
3C75
102
}
330
A
100
AcDbEntity
  8
TEMPLATE
100
AcDbHatch
 10
0.0
 20
0.0
 30
0.0
210
0.0
220
0.0
230
1.0
  2
SOLID
 70
     1
 71
     1
 91
        6
 92
        1
 93
        8
 72
     1
 10
386.9584116981973
 20
30.78695932253559
 11
386.9584116981973
 21
29.60507779640349
 72
     1
 10
386.9584116981973
 20
29.60507779640349
 11
385.086293388135
 21
29.60507779640349
 72
     1
 10
385.086293388135
 20
29.60507779640349
 11
385.086293388135
 21
24.78695932282479
 72
     1
 10
385.086293388135
 20
24.78695932282479
 11
383.4397707574798
 21
24.78695932282479
 72
     1
 10
383.4397707574798
 20
24.78695932282479
 11
383.4397707574798
 21
29.60507779640349
 72
     1
 10
383.4397707574798
 20
29.60507779640349
 11
381.6008304705712
 21
29.60507779640349
 72
     1
 10
381.6008304705712
 20
29.60507779640349
 11
381.6008304705712
 21
30.78695932253559
 72
     1
 10
381.6008304705712
 20
30.78695932253559
 11
386.9584116981973
 21
30.78695932253559
 97
        1
330
3C65
 92
        1
 93
        1
 72
     4
 94
        3
 73
     0
 74
     1
 95
       56
 96
       52
 40
0.0
 40
0.0
 40
0.0
 40
0.0
 40
1.0
 40
1.0
 40
1.0
 40
2.0
 40
2.0
 40
2.0
 40
3.0
 40
3.0
 40
3.0
 40
4.0
 40
4.0
 40
4.0
 40
5.0
 40
5.0
 40
5.0
 40
6.0
 40
6.0
 40
6.0
 40
7.0
 40
7.0
 40
7.0
 40
8.0
 40
8.0
 40
8.0
 40
9.0
 40
9.0
 40
9.0
 40
10.0
 40
10.0
 40
10.0
 40
11.0
 40
11.0
 40
11.0
 40
12.0
 40
12.0
 40
12.0
 40
13.0
 40
13.0
 40
13.0
 40
14.0
 40
14.0
 40
14.0
 40
15.0
 40
15.0
 40
15.0
 40
16.0
 40
16.0
 40
16.0
 40
17.0
 40
17.0
 40
17.0
 40
17.0
 10
389.4668487850558
 20
30.64408553045313
 10
389.6976220214394
 20
30.70904304125516
 10
389.9955398401064
 20
30.65470844907718
 10
389.9955398401064
 20
30.65470844907718
 10
389.9955398401064
 20
30.65470844907718
 10
389.85241312139
 20
30.22519439059248
 10
389.85241312139
 20
30.22519439059248
 10
389.85241312139
 20
30.22519439059248
 10
389.5599406643706
 20
30.29287458221835
 10
389.3343598630008
 20
30.1149927683958
 10
389.1590668276665
 20
29.97588311974736
 10
389.0455027690426
 20
29.60625316134929
 10
389.0019398758616
 20
29.46571522112114
 10
389.0019398758616
 20
29.46571522112114
 10
388.8077219770962
 20
28.86958202304137
 10
388.8077219770962
 20
28.86958202304137
 10
388.8077219770962
 20
28.86958202304137
 10
389.4445466071603
 20
28.86958202304137
 10
389.4445466071603
 20
28.86958202304137
 10
389.4445466071603
 20
28.86958202304137
 10
389.34550351293
 20
28.49438767869736
 10
389.34550351293
 20
28.49438767869736
 10
389.34550351293
 20
28.49438767869736
 10
388.7034864478522
 20
28.49438767869736
 10
388.7034864478522
 20
28.49438767869736
 10
388.7034864478522
 20
28.49438767869736
 10
387.5547978229109
 20
24.78695932282479
 10
387.5547978229109
 20
24.78695932282479
 10
387.5547978229109
 20
24.78695932282479
 10
387.1951510275336
 20
24.78695932282479
 10
387.1951510275336
 20
24.78695932282479
 10
387.1951510275336
 20
24.78695932282479
 10
388.3448811150849
 20
28.49438767869736
 10
388.3448811150849
 20
28.49438767869736
 10
388.3448811150849
 20
28.49438767869736
 10
387.8711346517413
 20
28.49438767869736
 10
387.8711346517413
 20
28.49438767869736
 10
387.8711346517413
 20
28.49438767869736
 10
387.9704455506427
 20
28.86958202304137
 10
387.9704455506427
 20
28.86958202304137
 10
387.9704455506427
 20
28.86958202304137
 10
388.4491166443289
 20
28.86958202304137
 10
388.4491166443289
 20
28.86958202304137
 10
388.4491166443289
 20
28.86958202304137
 10
388.6184287086733
 20
29.38948015805433
 10
388.6184287086733
 20
29.38948015805433
 10
388.7553364078029
 20
29.82536201649855
 10
388.8715041229524
 20
30.059378665011
 10
388.971082826525
 20
30.23581730921654
 10
389.0696051894502
 20
30.41240473379499
 10
389.2645967461546
 20
30.58586777054282
 10
389.4668487850558
 20
30.64408553045313
 97
        1
330
3C70
 92
        1
 93
        1
 72
     4
 94
        3
 73
     0
 74
     1
 95
       32
 96
       28
 40
0.0
 40
0.0
 40
0.0
 40
0.0
 40
1.0
 40
1.0
 40
1.0
 40
2.0
 40
2.0
 40
2.0
 40
3.0
 40
3.0
 40
3.0
 40
4.0
 40
4.0
 40
4.0
 40
5.0
 40
5.0
 40
5.0
 40
6.0
 40
6.0
 40
6.0
 40
7.0
 40
7.0
 40
7.0
 40
8.0
 40
8.0
 40
8.0
 40
9.0
 40
9.0
 40
9.0
 40
9.0
 10
390.3419600603343
 20
28.64284073476305
 10
390.1254548617105
 20
28.36279143887966
 10
389.9587315758544
 20
28.11075748721071
 10
389.6888142233646
 20
27.31860614785359
 10
389.4406634394279
 20
26.59401597582401
 10
389.2827479516467
 20
26.06685735861421
 10
389.2588984578731
 20
25.42484029353638
 10
389.240747252381
 20
24.94707676012474
 10
389.5316723935223
 20
24.78695932282479
 10
389.9582257225866
 20
24.78695932282479
 10
390.1420587513246
 20
24.78695932282479
 10
390.6059559539832
 20
24.79865346013363
 10
390.9363078939394
 20
25.20702582763122
 10
391.1675721055534
 20
25.49393389870466
 10
391.38071486775
 20
25.79134586410385
 10
391.6664624519149
 20
26.76695828126675
 10
391.9042432438614
 20
27.58257228542799
 10
392.068883604497
 20
28.10971602460051
 10
392.056713369995
 20
28.40985067082352
 10
392.056713369995
 20
28.40985067082352
 10
392.056713369995
 20
28.40985067082352
 10
392.056713369995
 20
28.40985067082352
 10
391.9791690396468
 20
28.91055613773418
 10
391.615639076537
 20
29.01635386089345
 10
391.4079416759881
 20
29.01635386089345
 10
391.2033686632698
 20
29.01635386089345
 10
390.6552022574085
 20
29.05174871160303
 10
390.3419600603343
 20
28.64284073476305
 97
        1
330
3C73
 92
        1
 93
        1
 72
     4
 94
        3
 73
     0
 74
     1
 95
       38
 96
       34
 40
0.0
 40
0.0
 40
0.0
 40
0.0
 40
1.0
 40
1.0
 40
1.0
 40
2.0
 40
2.0
 40
2.0
 40
3.0
 40
3.0
 40
3.0
 40
4.0
 40
4.0
 40
4.0
 40
5.0
 40
5.0
 40
5.0
 40
6.0
 40
6.0
 40
6.0
 40
7.0
 40
7.0
 40
7.0
 40
8.0
 40
8.0
 40
8.0
 40
9.0
 40
9.0
 40
9.0
 40
10.0
 40
10.0
 40
10.0
 40
11.0
 40
11.0
 40
11.0
 40
11.0
 10
393.3716045494872
 20
28.85519496098328
 10
393.3716045494872
 20
28.85519496098328
 10
393.7413535321836
 20
28.85519496098328
 10
393.7413535321836
 20
28.85519496098328
 10
393.7413535321836
 20
28.85519496098328
 10
393.5761775622055
 20
28.32635512555987
 10
393.5761775622055
 20
28.32635512555987
 10
393.7016886847722
 20
28.47480818162555
 10
393.8997748732327
 20
28.67252241915381
 10
394.0698903515905
 20
28.77222014702475
 10
394.3240072284799
 20
28.92067320309043
 10
394.4692168724166
 20
28.94025270016223
 10
394.6289177246725
 20
28.93635465439262
 10
394.6289177246725
 20
28.93635465439262
 10
394.4728471135151
 20
28.43630382112264
 10
394.4728471135151
 20
28.43630382112264
 10
394.3712003627593
 20
28.47934598299858
 10
394.057958165685
 20
28.39741263165024
 10
393.8782612313133
 20
28.26815224368685
 10
393.7162096491659
 20
28.15159769956793
 10
393.6041780283826
 20
28.0524207030021
 10
393.4714361796937
 20
27.80309455411968
 10
393.3397060375404
 20
27.55339645430504
 10
393.2357383129677
 20
27.15524529842472
 10
393.0568150365349
 20
26.57765013480655
 10
393.0568150365349
 20
26.57765013480655
 10
392.4980257120495
 20
24.78695932282479
 10
392.4980257120495
 20
24.78695932282479
 10
392.4980257120495
 20
24.78695932282479
 10
392.1391674526484
 20
24.78695932282479
 10
392.1391674526484
 20
24.78695932282479
 10
392.1391674526484
 20
24.78695932282479
 10
393.3716045494872
 20
28.85519496098328
 10
393.3716045494872
 20
28.85519496098328
 97
        1
330
3C71
 92
        1
 93
        1
 72
     4
 94
        3
 73
     0
 74
     1
 95
      104
 96
      100
 40
0.0
 40
0.0
 40
0.0
 40
0.0
 40
1.0
 40
1.0
 40
1.0
 40
2.0
 40
2.0
 40
2.0
 40
3.0
 40
3.0
 40
3.0
 40
4.0
 40
4.0
 40
4.0
 40
5.0
 40
5.0
 40
5.0
 40
6.0
 40
6.0
 40
6.0
 40
7.0
 40
7.0
 40
7.0
 40
8.0
 40
8.0
 40
8.0
 40
9.0
 40
9.0
 40
9.0
 40
10.0
 40
10.0
 40
10.0
 40
11.0
 40
11.0
 40
11.0
 40
12.0
 40
12.0
 40
12.0
 40
13.0
 40
13.0
 40
13.0
 40
14.0
 40
14.0
 40
14.0
 40
15.0
 40
15.0
 40
15.0
 40
16.0
 40
16.0
 40
16.0
 40
17.0
 40
17.0
 40
17.0
 40
18.0
 40
18.0
 40
18.0
 40
19.0
 40
19.0
 40
19.0
 40
20.0
 40
20.0
 40
20.0
 40
21.0
 40
21.0
 40
21.0
 40
22.0
 40
22.0
 40
22.0
 40
23.0
 40
23.0
 40
23.0
 40
24.0
 40
24.0
 40
24.0
 40
25.0
 40
25.0
 40
25.0
 40
26.0
 40
26.0
 40
26.0
 40
27.0
 40
27.0
 40
27.0
 40
28.0
 40
28.0
 40
28.0
 40
29.0
 40
29.0
 40
29.0
 40
30.0
 40
30.0
 40
30.0
 40
31.0
 40
31.0
 40
31.0
 40
32.0
 40
32.0
 40
32.0
 40
33.0
 40
33.0
 40
33.0
 40
33.0
 10
395.4068307823444
 20
28.857396910502
 10
395.4068307823444
 20
28.857396910502
 10
395.7296544354325
 20
28.857396910502
 10
395.7296544354325
 20
28.857396910502
 10
395.7296544354325
 20
28.857396910502
 10
395.5665613906749
 20
28.32805122181077
 10
395.5665613906749
 20
28.32805122181077
 10
395.7081110374387
 20
28.55000178208216
 10
395.8351694758834
 20
28.64892585201409
 10
396.0039756869598
 20
28.77675794839777
 10
396.1732877513042
 20
28.90277492423224
 10
396.3742602789986
 20
28.92845441659237
 10
396.5137567566165
 20
28.92845441659237
 10
396.6864610134627
 20
28.92845441659237
 10
396.8531842993187
 20
28.8943539551269
 10
396.9408159389486
 20
28.70506068670399
 10
397.0079753992694
 20
28.55662250867558
 10
397.0110997871
 20
28.5391110587869
 10
396.9919071189977
 20
28.24610299242514
 10
397.1674382029287
 20
28.54650544331934
 10
397.2970854198616
 20
28.67589973361832
 10
397.5174886642549
 20
28.80022061320189
 10
397.7487826319435
 20
28.92845441659237
 10
397.8836074058529
 20
28.93805075064353
 10
398.0402433824273
 20
28.9149600367716
 10
398.2710017407735
 20
28.88087445334342
 10
398.4182943099307
 20
28.79853939498828
 10
398.4953030309365
 20
28.54832056386854
 10
398.5725795566135
 20
28.29887539068781
 10
398.5308317839817
 20
28.16507720135141
 10
398.4354040528126
 20
27.76796750808128
 10
398.3918411596316
 20
27.58711008680102
 10
398.3288177936771
 20
27.36812025595006
 10
398.2463637110236
 20
27.10754631087745
 10
398.2463637110236
 20
27.10754631087745
 10
397.5174886642549
 20
24.78695932282479
 10
397.5174886642549
 20
24.78695932282479
 10
397.5174886642549
 20
24.78695932282479
 10
397.1383962741413
 20
24.78695932282479
 10
397.1383962741413
 20
24.78695932282479
 10
397.1383962741413
 20
24.78695932282479
 10
397.7765450495241
 20
26.81569873142421
 10
397.7765450495241
 20
26.81569873142421
 10
397.9098225075554
 20
27.24016913526807
 10
398.0000429256735
 20
27.55015304217612
 10
398.0467302066851
 20
27.74450484327716
 10
398.1053199175276
 20
27.98694246089495
 10
398.1286486799962
 20
28.06694166739577
 10
398.1009160184902
 20
28.24339518963862
 10
398.0755043308013
 20
28.4076487213048
 10
397.9925146388055
 20
28.51460693137258
 10
397.8504293826993
 20
28.51460693137258
 10
397.6990007191758
 20
28.51460693137258
 10
397.5763461797686
 20
28.49775011512458
 10
397.4047131416073
 20
28.32532854098695
 10
397.2330503473714
 20
28.15159769956793
 10
397.0912031398618
 20
27.94766444245305
 10
396.9799749330922
 20
27.71312706263549
 10
396.8689847749192
 20
27.47716139123824
 10
396.7564473008682
 20
27.17806820762544
 10
396.6423625109393
 20
26.81569873142421
 10
396.6423625109393
 20
26.81569873142421
 10
396.0039756869598
 20
24.78695932282479
 10
396.0039756869598
 20
24.78695932282479
 10
396.0039756869598
 20
24.78695932282479
 10
395.6474384013758
 20
24.78695932282479
 10
395.6474384013758
 20
24.78695932282479
 10
395.6474384013758
 20
24.78695932282479
 10
396.3773549107547
 20
27.10650484826726
 10
396.3773549107547
 20
27.10650484826726
 10
396.4543636317604
 20
27.35336124295977
 10
396.5122094407385
 20
27.55457181925085
 10
396.5503269722719
 20
27.71183267339138
 10
396.6151357027011
 20
27.98253856185753
 10
396.6332869081932
 20
28.1655979326565
 10
396.5842786533645
 20
28.32805122181077
 10
396.5360440564749
 20
28.48998377965993
 10
396.4512690000045
 20
28.53134472332225
 10
396.3096895971661
 20
28.53134472332225
 10
396.1909331035284
 20
28.53134472332225
 10
396.0750331930502
 20
28.48038744560878
 10
395.9427971976291
 20
28.37899362148695
 10
395.7763119603696
 20
28.25142932977446
 10
395.7096881093912
 20
28.1466730692254
 10
395.6280076846768
 20
28.02220340926895
 10
395.5177911844429
 20
27.85754817059597
 10
395.4661941511259
 20
27.74670679279587
 10
395.3731171498484
 20
27.50348063920177
 10
395.2800103924964
 20
27.25882619402798
 10
395.1918728995987
 20
26.97412007247326
 10
395.1303968495222
 20
26.77719437092129
 10
395.1303968495222
 20
26.77719437092129
 10
394.5042100161195
 20
24.78695932282479
 10
394.5042100161195
 20
24.78695932282479
 10
394.5042100161195
 20
24.78695932282479
 10
394.1308307923247
 20
24.78695932282479
 10
394.1308307923247
 20
24.78695932282479
 10
394.1308307923247
 20
24.78695932282479
 10
395.4068307823444
 20
28.857396910502
 10
395.4068307823444
 20
28.857396910502
 97
        1
330
3C72
 92
       16
 93
        1
 72
     4
 94
        3
 73
     0
 74
     1
 95
       29
 96
       25
 40
0.0
 40
0.0
 40
0.0
 40
0.0
 40
1.0
 40
1.0
 40
1.0
 40
2.0
 40
2.0
 40
2.0
 40
3.0
 40
3.0
 40
3.0
 40
4.0
 40
4.0
 40
4.0
 40
5.0
 40
5.0
 40
5.0
 40
6.0
 40
6.0
 40
6.0
 40
7.0
 40
7.0
 40
7.0
 40
8.0
 40
8.0
 40
8.0
 40
8.0
 10
389.6462927927937
 20
25.54487629838084
 10
389.6447157208412
 20
25.82830290872873
 10
389.7341922370948
 20
26.33186495879882
 10
389.9634032795631
 20
27.00563175545052
 10
390.2756040140271
 20
27.91796788002499
 10
390.4628292352669
 20
28.25142932977446
 10
390.6266661818889
 20
28.41374871659313
 10
390.866024045788
 20
28.65010121695988
 10
391.1878062362659
 20
28.66188462249246
 10
391.2827281141673
 20
28.65010121695988
 10
391.4178206927478
 20
28.6338841563153
 10
391.6086463990114
 20
28.54546398070914
 10
391.6200429755745
 20
28.24779908867604
 10
391.629148334395
 20
27.99304245618328
 10
391.5557400984131
 20
27.51593355641234
 10
391.2987963944389
 20
26.76695828126675
 10
391.0026639402465
 20
25.896622855958
 10
390.824782126424
 20
25.55448751046927
 10
390.6821910170501
 20
25.40537982076289
 10
390.413553175767
 20
25.1258512561846
 10
390.1254548617105
 20
25.15269123545324
 10
390.0829334311396
 20
25.15269123545324
 10
390.0277061567243
 20
25.15269123545324
 10
389.6470664507327
 20
25.21261996965174
 10
389.6462927927937
 20
25.54487629838084
 97
        1
330
3C74
 75
     0
 76
     1
 98
        1
 10
371.9300318427923
 20
14.61939790801677
1001
ACAD
1010
0.0
1020
0.0
1030
0.0
  0
POLYLINE
  5
3C65
102
{ACAD_REACTORS
330
3C64
330
3C75
102
}
330
A
100
AcDbEntity
  8
TEMPLATE
100
AcDb2dPolyline
 66
     1
 10
0.0
 20
0.0
 30
0.0
  0
VERTEX
  5
3C66
330
3C65
100
AcDbEntity
  8
TEMPLATE
100
AcDbVertex
100
AcDb2dVertex
 10
386.9584116981973
 20
30.78695932253559
 30
0.0
  0
VERTEX
  5
3C67
330
3C65
100
AcDbEntity
  8
TEMPLATE
100
AcDbVertex
100
AcDb2dVertex
 10
386.9584116981973
 20
29.60507779640349
 30
0.0
  0
VERTEX
  5
3C68
330
3C65
100
AcDbEntity
  8
TEMPLATE
100
AcDbVertex
100
AcDb2dVertex
 10
385.086293388135
 20
29.60507779640349
 30
0.0
  0
VERTEX
  5
3C69
330
3C65
100
AcDbEntity
  8
TEMPLATE
100
AcDbVertex
100
AcDb2dVertex
 10
385.086293388135
 20
24.78695932282479
 30
0.0
  0
VERTEX
  5
3C6A
330
3C65
100
AcDbEntity
  8
TEMPLATE
100
AcDbVertex
100
AcDb2dVertex
 10
383.4397707574798
 20
24.78695932282479
 30
0.0
  0
VERTEX
  5
3C6B
330
3C65
100
AcDbEntity
  8
TEMPLATE
100
AcDbVertex
100
AcDb2dVertex
 10
383.4397707574798
 20
29.60507779640349
 30
0.0
  0
VERTEX
  5
3C6C
330
3C65
100
AcDbEntity
  8
TEMPLATE
100
AcDbVertex
100
AcDb2dVertex
 10
381.6008304705712
 20
29.60507779640349
 30
0.0
  0
VERTEX
  5
3C6D
330
3C65
100
AcDbEntity
  8
TEMPLATE
100
AcDbVertex
100
AcDb2dVertex
 10
381.6008304705712
 20
30.78695932253559
 30
0.0
  0
VERTEX
  5
3C6E
330
3C65
100
AcDbEntity
  8
TEMPLATE
100
AcDbVertex
100
AcDb2dVertex
 10
386.9584116981973
 20
30.78695932253559
 30
0.0
  0
SEQEND
  5
3C6F
330
3C65
100
AcDbEntity
  8
TEMPLATE
  0
SPLINE
  5
3C70
102
{ACAD_REACTORS
330
3C64
330
3C75
102
}
330
A
100
AcDbEntity
  8
TEMPLATE
100
AcDbSpline
210
0.0
220
0.0
230
1.0
 70
    11
 71
     3
 72
    56
 73
    52
 74
     0
 42
0.000000001
 43
0.0000000001
 40
0.0
 40
0.0
 40
0.0
 40
0.0
 40
1.0
 40
1.0
 40
1.0
 40
2.0
 40
2.0
 40
2.0
 40
3.0
 40
3.0
 40
3.0
 40
4.0
 40
4.0
 40
4.0
 40
5.0
 40
5.0
 40
5.0
 40
6.0
 40
6.0
 40
6.0
 40
7.0
 40
7.0
 40
7.0
 40
8.0
 40
8.0
 40
8.0
 40
9.0
 40
9.0
 40
9.0
 40
10.0
 40
10.0
 40
10.0
 40
11.0
 40
11.0
 40
11.0
 40
12.0
 40
12.0
 40
12.0
 40
13.0
 40
13.0
 40
13.0
 40
14.0
 40
14.0
 40
14.0
 40
15.0
 40
15.0
 40
15.0
 40
16.0
 40
16.0
 40
16.0
 40
17.0
 40
17.0
 40
17.0
 40
17.0
 10
389.4668487850558
 20
30.64408553045313
 30
0.0
 10
389.6976220214394
 20
30.70904304125516
 30
0.0
 10
389.9955398401064
 20
30.65470844907718
 30
0.0
 10
389.9955398401064
 20
30.65470844907718
 30
0.0
 10
389.9955398401064
 20
30.65470844907718
 30
0.0
 10
389.85241312139
 20
30.22519439059248
 30
0.0
 10
389.85241312139
 20
30.22519439059248
 30
0.0
 10
389.85241312139
 20
30.22519439059248
 30
0.0
 10
389.5599406643706
 20
30.29287458221835
 30
0.0
 10
389.3343598630008
 20
30.1149927683958
 30
0.0
 10
389.1590668276665
 20
29.97588311974736
 30
0.0
 10
389.0455027690426
 20
29.60625316134929
 30
0.0
 10
389.0019398758616
 20
29.46571522112114
 30
0.0
 10
389.0019398758616
 20
29.46571522112114
 30
0.0
 10
388.8077219770962
 20
28.86958202304137
 30
0.0
 10
388.8077219770962
 20
28.86958202304137
 30
0.0
 10
388.8077219770962
 20
28.86958202304137
 30
0.0
 10
389.4445466071603
 20
28.86958202304137
 30
0.0
 10
389.4445466071603
 20
28.86958202304137
 30
0.0
 10
389.4445466071603
 20
28.86958202304137
 30
0.0
 10
389.34550351293
 20
28.49438767869736
 30
0.0
 10
389.34550351293
 20
28.49438767869736
 30
0.0
 10
389.34550351293
 20
28.49438767869736
 30
0.0
 10
388.7034864478522
 20
28.49438767869736
 30
0.0
 10
388.7034864478522
 20
28.49438767869736
 30
0.0
 10
388.7034864478522
 20
28.49438767869736
 30
0.0
 10
387.5547978229109
 20
24.78695932282479
 30
0.0
 10
387.5547978229109
 20
24.78695932282479
 30
0.0
 10
387.5547978229109
 20
24.78695932282479
 30
0.0
 10
387.1951510275336
 20
24.78695932282479
 30
0.0
 10
387.1951510275336
 20
24.78695932282479
 30
0.0
 10
387.1951510275336
 20
24.78695932282479
 30
0.0
 10
388.3448811150849
 20
28.49438767869736
 30
0.0
 10
388.3448811150849
 20
28.49438767869736
 30
0.0
 10
388.3448811150849
 20
28.49438767869736
 30
0.0
 10
387.8711346517413
 20
28.49438767869736
 30
0.0
 10
387.8711346517413
 20
28.49438767869736
 30
0.0
 10
387.8711346517413
 20
28.49438767869736
 30
0.0
 10
387.9704455506427
 20
28.86958202304137
 30
0.0
 10
387.9704455506427
 20
28.86958202304137
 30
0.0
 10
387.9704455506427
 20
28.86958202304137
 30
0.0
 10
388.4491166443289
 20
28.86958202304137
 30
0.0
 10
388.4491166443289
 20
28.86958202304137
 30
0.0
 10
388.4491166443289
 20
28.86958202304137
 30
0.0
 10
388.6184287086733
 20
29.38948015805433
 30
0.0
 10
388.6184287086733
 20
29.38948015805433
 30
0.0
 10
388.7553364078029
 20
29.82536201649855
 30
0.0
 10
388.8715041229524
 20
30.059378665011
 30
0.0
 10
388.971082826525
 20
30.23581730921654
 30
0.0
 10
389.0696051894502
 20
30.41240473379499
 30
0.0
 10
389.2645967461546
 20
30.58586777054282
 30
0.0
 10
389.4668487850558
 20
30.64408553045313
 30
0.0
  0
SPLINE
  5
3C71
102
{ACAD_REACTORS
330
3C64
330
3C75
102
}
330
A
100
AcDbEntity
  8
TEMPLATE
100
AcDbSpline
210
0.0
220
0.0
230
1.0
 70
    11
 71
     3
 72
    38
 73
    34
 74
     0
 42
0.000000001
 43
0.0000000001
 40
0.0
 40
0.0
 40
0.0
 40
0.0
 40
1.0
 40
1.0
 40
1.0
 40
2.0
 40
2.0
 40
2.0
 40
3.0
 40
3.0
 40
3.0
 40
4.0
 40
4.0
 40
4.0
 40
5.0
 40
5.0
 40
5.0
 40
6.0
 40
6.0
 40
6.0
 40
7.0
 40
7.0
 40
7.0
 40
8.0
 40
8.0
 40
8.0
 40
9.0
 40
9.0
 40
9.0
 40
10.0
 40
10.0
 40
10.0
 40
11.0
 40
11.0
 40
11.0
 40
11.0
 10
393.3716045494872
 20
28.85519496098328
 30
0.0
 10
393.3716045494872
 20
28.85519496098328
 30
0.0
 10
393.7413535321836
 20
28.85519496098328
 30
0.0
 10
393.7413535321836
 20
28.85519496098328
 30
0.0
 10
393.7413535321836
 20
28.85519496098328
 30
0.0
 10
393.5761775622055
 20
28.32635512555987
 30
0.0
 10
393.5761775622055
 20
28.32635512555987
 30
0.0
 10
393.7016886847722
 20
28.47480818162555
 30
0.0
 10
393.8997748732327
 20
28.67252241915381
 30
0.0
 10
394.0698903515905
 20
28.77222014702475
 30
0.0
 10
394.3240072284799
 20
28.92067320309043
 30
0.0
 10
394.4692168724166
 20
28.94025270016223
 30
0.0
 10
394.6289177246725
 20
28.93635465439262
 30
0.0
 10
394.6289177246725
 20
28.93635465439262
 30
0.0
 10
394.4728471135151
 20
28.43630382112264
 30
0.0
 10
394.4728471135151
 20
28.43630382112264
 30
0.0
 10
394.3712003627593
 20
28.47934598299858
 30
0.0
 10
394.057958165685
 20
28.39741263165024
 30
0.0
 10
393.8782612313133
 20
28.26815224368685
 30
0.0
 10
393.7162096491659
 20
28.15159769956793
 30
0.0
 10
393.6041780283826
 20
28.0524207030021
 30
0.0
 10
393.4714361796937
 20
27.80309455411968
 30
0.0
 10
393.3397060375404
 20
27.55339645430504
 30
0.0
 10
393.2357383129677
 20
27.15524529842472
 30
0.0
 10
393.0568150365349
 20
26.57765013480655
 30
0.0
 10
393.0568150365349
 20
26.57765013480655
 30
0.0
 10
392.4980257120495
 20
24.78695932282479
 30
0.0
 10
392.4980257120495
 20
24.78695932282479
 30
0.0
 10
392.4980257120495
 20
24.78695932282479
 30
0.0
 10
392.1391674526484
 20
24.78695932282479
 30
0.0
 10
392.1391674526484
 20
24.78695932282479
 30
0.0
 10
392.1391674526484
 20
24.78695932282479
 30
0.0
 10
393.3716045494872
 20
28.85519496098328
 30
0.0
 10
393.3716045494872
 20
28.85519496098328
 30
0.0
  0
SPLINE
  5
3C72
102
{ACAD_REACTORS
330
3C64
330
3C75
102
}
330
A
100
AcDbEntity
  8
TEMPLATE
100
AcDbSpline
210
0.0
220
0.0
230
1.0
 70
    11
 71
     3
 72
   104
 73
   100
 74
     0
 42
0.000000001
 43
0.0000000001
 40
0.0
 40
0.0
 40
0.0
 40
0.0
 40
1.0
 40
1.0
 40
1.0
 40
2.0
 40
2.0
 40
2.0
 40
3.0
 40
3.0
 40
3.0
 40
4.0
 40
4.0
 40
4.0
 40
5.0
 40
5.0
 40
5.0
 40
6.0
 40
6.0
 40
6.0
 40
7.0
 40
7.0
 40
7.0
 40
8.0
 40
8.0
 40
8.0
 40
9.0
 40
9.0
 40
9.0
 40
10.0
 40
10.0
 40
10.0
 40
11.0
 40
11.0
 40
11.0
 40
12.0
 40
12.0
 40
12.0
 40
13.0
 40
13.0
 40
13.0
 40
14.0
 40
14.0
 40
14.0
 40
15.0
 40
15.0
 40
15.0
 40
16.0
 40
16.0
 40
16.0
 40
17.0
 40
17.0
 40
17.0
 40
18.0
 40
18.0
 40
18.0
 40
19.0
 40
19.0
 40
19.0
 40
20.0
 40
20.0
 40
20.0
 40
21.0
 40
21.0
 40
21.0
 40
22.0
 40
22.0
 40
22.0
 40
23.0
 40
23.0
 40
23.0
 40
24.0
 40
24.0
 40
24.0
 40
25.0
 40
25.0
 40
25.0
 40
26.0
 40
26.0
 40
26.0
 40
27.0
 40
27.0
 40
27.0
 40
28.0
 40
28.0
 40
28.0
 40
29.0
 40
29.0
 40
29.0
 40
30.0
 40
30.0
 40
30.0
 40
31.0
 40
31.0
 40
31.0
 40
32.0
 40
32.0
 40
32.0
 40
33.0
 40
33.0
 40
33.0
 40
33.0
 10
395.4068307823444
 20
28.857396910502
 30
0.0
 10
395.4068307823444
 20
28.857396910502
 30
0.0
 10
395.7296544354325
 20
28.857396910502
 30
0.0
 10
395.7296544354325
 20
28.857396910502
 30
0.0
 10
395.7296544354325
 20
28.857396910502
 30
0.0
 10
395.5665613906749
 20
28.32805122181077
 30
0.0
 10
395.5665613906749
 20
28.32805122181077
 30
0.0
 10
395.7081110374387
 20
28.55000178208216
 30
0.0
 10
395.8351694758834
 20
28.64892585201409
 30
0.0
 10
396.0039756869598
 20
28.77675794839777
 30
0.0
 10
396.1732877513042
 20
28.90277492423224
 30
0.0
 10
396.3742602789986
 20
28.92845441659237
 30
0.0
 10
396.5137567566165
 20
28.92845441659237
 30
0.0
 10
396.6864610134627
 20
28.92845441659237
 30
0.0
 10
396.8531842993187
 20
28.8943539551269
 30
0.0
 10
396.9408159389486
 20
28.70506068670399
 30
0.0
 10
397.0079753992694
 20
28.55662250867558
 30
0.0
 10
397.0110997871
 20
28.5391110587869
 30
0.0
 10
396.9919071189977
 20
28.24610299242514
 30
0.0
 10
397.1674382029287
 20
28.54650544331934
 30
0.0
 10
397.2970854198616
 20
28.67589973361832
 30
0.0
 10
397.5174886642549
 20
28.80022061320189
 30
0.0
 10
397.7487826319435
 20
28.92845441659237
 30
0.0
 10
397.8836074058529
 20
28.93805075064353
 30
0.0
 10
398.0402433824273
 20
28.9149600367716
 30
0.0
 10
398.2710017407735
 20
28.88087445334342
 30
0.0
 10
398.4182943099307
 20
28.79853939498828
 30
0.0
 10
398.4953030309365
 20
28.54832056386854
 30
0.0
 10
398.5725795566135
 20
28.29887539068781
 30
0.0
 10
398.5308317839817
 20
28.16507720135141
 30
0.0
 10
398.4354040528126
 20
27.76796750808128
 30
0.0
 10
398.3918411596316
 20
27.58711008680102
 30
0.0
 10
398.3288177936771
 20
27.36812025595006
 30
0.0
 10
398.2463637110236
 20
27.10754631087745
 30
0.0
 10
398.2463637110236
 20
27.10754631087745
 30
0.0
 10
397.5174886642549
 20
24.78695932282479
 30
0.0
 10
397.5174886642549
 20
24.78695932282479
 30
0.0
 10
397.5174886642549
 20
24.78695932282479
 30
0.0
 10
397.1383962741413
 20
24.78695932282479
 30
0.0
 10
397.1383962741413
 20
24.78695932282479
 30
0.0
 10
397.1383962741413
 20
24.78695932282479
 30
0.0
 10
397.7765450495241
 20
26.81569873142421
 30
0.0
 10
397.7765450495241
 20
26.81569873142421
 30
0.0
 10
397.9098225075554
 20
27.24016913526807
 30
0.0
 10
398.0000429256735
 20
27.55015304217612
 30
0.0
 10
398.0467302066851
 20
27.74450484327716
 30
0.0
 10
398.1053199175276
 20
27.98694246089495
 30
0.0
 10
398.1286486799962
 20
28.06694166739577
 30
0.0
 10
398.1009160184902
 20
28.24339518963862
 30
0.0
 10
398.0755043308013
 20
28.4076487213048
 30
0.0
 10
397.9925146388055
 20
28.51460693137258
 30
0.0
 10
397.8504293826993
 20
28.51460693137258
 30
0.0
 10
397.6990007191758
 20
28.51460693137258
 30
0.0
 10
397.5763461797686
 20
28.49775011512458
 30
0.0
 10
397.4047131416073
 20
28.32532854098695
 30
0.0
 10
397.2330503473714
 20
28.15159769956793
 30
0.0
 10
397.0912031398618
 20
27.94766444245305
 30
0.0
 10
396.9799749330922
 20
27.71312706263549
 30
0.0
 10
396.8689847749192
 20
27.47716139123824
 30
0.0
 10
396.7564473008682
 20
27.17806820762544
 30
0.0
 10
396.6423625109393
 20
26.81569873142421
 30
0.0
 10
396.6423625109393
 20
26.81569873142421
 30
0.0
 10
396.0039756869598
 20
24.78695932282479
 30
0.0
 10
396.0039756869598
 20
24.78695932282479
 30
0.0
 10
396.0039756869598
 20
24.78695932282479
 30
0.0
 10
395.6474384013758
 20
24.78695932282479
 30
0.0
 10
395.6474384013758
 20
24.78695932282479
 30
0.0
 10
395.6474384013758
 20
24.78695932282479
 30
0.0
 10
396.3773549107547
 20
27.10650484826726
 30
0.0
 10
396.3773549107547
 20
27.10650484826726
 30
0.0
 10
396.4543636317604
 20
27.35336124295977
 30
0.0
 10
396.5122094407385
 20
27.55457181925085
 30
0.0
 10
396.5503269722719
 20
27.71183267339138
 30
0.0
 10
396.6151357027011
 20
27.98253856185753
 30
0.0
 10
396.6332869081932
 20
28.1655979326565
 30
0.0
 10
396.5842786533645
 20
28.32805122181077
 30
0.0
 10
396.5360440564749
 20
28.48998377965993
 30
0.0
 10
396.4512690000045
 20
28.53134472332225
 30
0.0
 10
396.3096895971661
 20
28.53134472332225
 30
0.0
 10
396.1909331035284
 20
28.53134472332225
 30
0.0
 10
396.0750331930502
 20
28.48038744560878
 30
0.0
 10
395.9427971976291
 20
28.37899362148695
 30
0.0
 10
395.7763119603696
 20
28.25142932977446
 30
0.0
 10
395.7096881093912
 20
28.1466730692254
 30
0.0
 10
395.6280076846768
 20
28.02220340926895
 30
0.0
 10
395.5177911844429
 20
27.85754817059597
 30
0.0
 10
395.4661941511259
 20
27.74670679279587
 30
0.0
 10
395.3731171498484
 20
27.50348063920177
 30
0.0
 10
395.2800103924964
 20
27.25882619402798
 30
0.0
 10
395.1918728995987
 20
26.97412007247326
 30
0.0
 10
395.1303968495222
 20
26.77719437092129
 30
0.0
 10
395.1303968495222
 20
26.77719437092129
 30
0.0
 10
394.5042100161195
 20
24.78695932282479
 30
0.0
 10
394.5042100161195
 20
24.78695932282479
 30
0.0
 10
394.5042100161195
 20
24.78695932282479
 30
0.0
 10
394.1308307923247
 20
24.78695932282479
 30
0.0
 10
394.1308307923247
 20
24.78695932282479
 30
0.0
 10
394.1308307923247
 20
24.78695932282479
 30
0.0
 10
395.4068307823444
 20
28.857396910502
 30
0.0
 10
395.4068307823444
 20
28.857396910502
 30
0.0
  0
SPLINE
  5
3C73
102
{ACAD_REACTORS
330
3C64
330
3C75
102
}
330
A
100
AcDbEntity
  8
TEMPLATE
100
AcDbSpline
210
0.0
220
0.0
230
1.0
 70
    11
 71
     3
 72
    32
 73
    28
 74
     0
 42
0.000000001
 43
0.0000000001
 40
0.0
 40
0.0
 40
0.0
 40
0.0
 40
1.0
 40
1.0
 40
1.0
 40
2.0
 40
2.0
 40
2.0
 40
3.0
 40
3.0
 40
3.0
 40
4.0
 40
4.0
 40
4.0
 40
5.0
 40
5.0
 40
5.0
 40
6.0
 40
6.0
 40
6.0
 40
7.0
 40
7.0
 40
7.0
 40
8.0
 40
8.0
 40
8.0
 40
9.0
 40
9.0
 40
9.0
 40
9.0
 10
390.3419600603343
 20
28.64284073476305
 30
0.0
 10
390.1254548617105
 20
28.36279143887966
 30
0.0
 10
389.9587315758544
 20
28.11075748721071
 30
0.0
 10
389.6888142233646
 20
27.31860614785359
 30
0.0
 10
389.4406634394279
 20
26.59401597582401
 30
0.0
 10
389.2827479516467
 20
26.06685735861421
 30
0.0
 10
389.2588984578731
 20
25.42484029353638
 30
0.0
 10
389.240747252381
 20
24.94707676012474
 30
0.0
 10
389.5316723935223
 20
24.78695932282479
 30
0.0
 10
389.9582257225866
 20
24.78695932282479
 30
0.0
 10
390.1420587513246
 20
24.78695932282479
 30
0.0
 10
390.6059559539832
 20
24.79865346013363
 30
0.0
 10
390.9363078939394
 20
25.20702582763122
 30
0.0
 10
391.1675721055534
 20
25.49393389870466
 30
0.0
 10
391.38071486775
 20
25.79134586410385
 30
0.0
 10
391.6664624519149
 20
26.76695828126675
 30
0.0
 10
391.9042432438614
 20
27.58257228542799
 30
0.0
 10
392.068883604497
 20
28.10971602460051
 30
0.0
 10
392.056713369995
 20
28.40985067082352
 30
0.0
 10
392.056713369995
 20
28.40985067082352
 30
0.0
 10
392.056713369995
 20
28.40985067082352
 30
0.0
 10
392.056713369995
 20
28.40985067082352
 30
0.0
 10
391.9791690396468
 20
28.91055613773418
 30
0.0
 10
391.615639076537
 20
29.01635386089345
 30
0.0
 10
391.4079416759881
 20
29.01635386089345
 30
0.0
 10
391.2033686632698
 20
29.01635386089345
 30
0.0
 10
390.6552022574085
 20
29.05174871160303
 30
0.0
 10
390.3419600603343
 20
28.64284073476305
 30
0.0
  0
SPLINE
  5
3C74
102
{ACAD_REACTORS
330
3C64
330
3C75
102
}
330
A
100
AcDbEntity
  8
TEMPLATE
100
AcDbSpline
210
0.0
220
0.0
230
1.0
 70
    11
 71
     3
 72
    29
 73
    25
 74
     0
 42
0.000000001
 43
0.0000000001
 40
0.0
 40
0.0
 40
0.0
 40
0.0
 40
1.0
 40
1.0
 40
1.0
 40
2.0
 40
2.0
 40
2.0
 40
3.0
 40
3.0
 40
3.0
 40
4.0
 40
4.0
 40
4.0
 40
5.0
 40
5.0
 40
5.0
 40
6.0
 40
6.0
 40
6.0
 40
7.0
 40
7.0
 40
7.0
 40
8.0
 40
8.0
 40
8.0
 40
8.0
 10
389.6462927927937
 20
25.54487629838084
 30
0.0
 10
389.6447157208412
 20
25.82830290872873
 30
0.0
 10
389.7341922370948
 20
26.33186495879882
 30
0.0
 10
389.9634032795631
 20
27.00563175545052
 30
0.0
 10
390.2756040140271
 20
27.91796788002499
 30
0.0
 10
390.4628292352669
 20
28.25142932977446
 30
0.0
 10
390.6266661818889
 20
28.41374871659313
 30
0.0
 10
390.866024045788
 20
28.65010121695988
 30
0.0
 10
391.1878062362659
 20
28.66188462249246
 30
0.0
 10
391.2827281141673
 20
28.65010121695988
 30
0.0
 10
391.4178206927478
 20
28.6338841563153
 30
0.0
 10
391.6086463990114
 20
28.54546398070914
 30
0.0
 10
391.6200429755745
 20
28.24779908867604
 30
0.0
 10
391.629148334395
 20
27.99304245618328
 30
0.0
 10
391.5557400984131
 20
27.51593355641234
 30
0.0
 10
391.2987963944389
 20
26.76695828126675
 30
0.0
 10
391.0026639402465
 20
25.896622855958
 30
0.0
 10
390.824782126424
 20
25.55448751046927
 30
0.0
 10
390.6821910170501
 20
25.40537982076289
 30
0.0
 10
390.413553175767
 20
25.1258512561846
 30
0.0
 10
390.1254548617105
 20
25.15269123545324
 30
0.0
 10
390.0829334311396
 20
25.15269123545324
 30
0.0
 10
390.0277061567243
 20
25.15269123545324
 30
0.0
 10
389.6470664507327
 20
25.21261996965174
 30
0.0
 10
389.6462927927937
 20
25.54487629838084
 30
0.0
  0
MTEXT
  5
3CB5
102
{ACAD_XDICTIONARY
360
3CB7
102
}
330
A
100
AcDbEntity
  8
TEMPLATE
100
AcDbMText
 10
15.00779663219942
 20
17.57619761830519
 30
0.0
 40
4.0
 41
0.0
 46
4.0
 71
     1
 72
     1
  1
{20220803M}
  7
ＭＳ ゴシック
 73
     1
 44
1.0
1001
ACAD
1000
ACAD_MTEXT_DEFINED_HEIGHT_BEGIN
1070
    46
1040
4.0
1000
ACAD_MTEXT_DEFINED_HEIGHT_END
  0
LINE
  5
4133
330
A
100
AcDbEntity
  8
MODEL
100
AcDbLine
 10
252.4659640118954
 20
280.7176939837995
 30
0.0
 11
257.4655296269698
 21
280.7176939837995
 31
0.0
  0
LINE
  5
4134
330
A
100
AcDbEntity
  8
MODEL
100
AcDbLine
 10
320.8000213265316
 20
289.1775432977304
 30
0.0
 11
320.8365396531026
 21
289.1802993978491
 31
0.0
  0
LINE
  5
4135
330
A
100
AcDbEntity
  8
MODEL
100
AcDbLine
 10
320.6994236722041
 20
289.1706530474341
 30
0.0
 11
320.8000213265316
 21
289.1775432977304
 31
0.0
  0
LINE
  5
4136
330
A
100
AcDbEntity
  8
MODEL
100
AcDbLine
 10
336.9087374945064
 20
287.9180055435469
 30
0.0
 11
341.1241926258493
 21
287.9180055435469
 31
0.0
  0
LINE
  5
4137
330
A
100
AcDbEntity
  8
MODEL
100
AcDbLine
 10
354.166747411922
 20
289.7177389209689
 30
0.0
 11
267.3206546259236
 21
289.7177389209689
 31
0.0
  0
LINE
  5
4138
330
A
100
AcDbEntity
  8
MODEL
100
AcDbLine
 10
318.1328054367917
 20
289.1775432977304
 30
0.0
 11
318.2327140660898
 21
289.1706530474341
 31
0.0
  0
LINE
  5
4139
330
A
100
AcDbEntity
  8
MODEL
100
AcDbLine
 10
318.0962871102208
 20
289.1802993978491
 30
0.0
 11
318.1334944618213
 21
289.1775432977304
 31
0.0
  0
LINE
  5
413A
330
A
100
AcDbEntity
  8
MODEL
100
AcDbLine
 10
263.4662486101124
 20
330.43153889742
 30
0.0
 11
263.4662486101124
 21
365.7178887153898
 31
0.0
  0
LINE
  5
413B
330
A
100
AcDbEntity
  8
MODEL
100
AcDbLine
 10
318.6447510338149
 20
289.1541164467226
 30
0.0
 11
318.6447510338149
 21
289.1706530474341
 31
0.0
  0
LINE
  5
413C
330
A
100
AcDbEntity
  8
MODEL
100
AcDbLine
 10
320.2887647545381
 20
289.1706530474341
 30
0.0
 11
320.2887647545381
 21
289.1541164467226
 31
0.0
  0
LINE
  5
413D
330
A
100
AcDbEntity
  8
MODEL
100
AcDbLine
 10
355.4669376428542
 20
292.2175217285061
 30
0.0
 11
355.4669376428542
 21
365.719266765449
 31
0.0
  0
LINE
  5
413E
330
A
100
AcDbEntity
  8
MODEL
100
AcDbLine
 10
48.27765922303877
 20
291.4182526941228
 30
0.0
 11
48.27765922303877
 21
290.0181538338925
 31
0.0
  0
LINE
  5
413F
102
{ACAD_REACTORS
330
456F
102
}
330
A
100
AcDbEntity
  8
HIDDEN
 48
0.25
100
AcDbLine
 10
90.77672305128947
 20
280.7176939837996
 30
0.0
 11
95.77628866636397
 21
280.7176939837996
 31
0.0
  0
LINE
  5
4140
330
A
100
AcDbEntity
  8
MODEL
100
AcDbLine
 10
121.8062762361377
 20
289.1541164467227
 30
0.0
 11
121.7690688845372
 21
289.1513603466042
 31
0.0
  0
LINE
  5
4141
102
{ACAD_REACTORS
330
456F
102
}
330
A
100
AcDbEntity
  8
HIDDEN
 48
0.25
100
AcDbLine
 10
92.52684662657737
 20
287.7181882849511
 30
0.0
 11
94.02754314113517
 21
287.7181882849511
 31
0.0
  0
LINE
  5
4142
330
A
100
AcDbEntity
  8
MODEL
100
AcDbLine
 10
137.9776936818097
 20
289.717738920969
 30
0.0
 11
112.926121654126
 21
289.717738920969
 31
0.0
  0
LINE
  5
4143
330
A
100
AcDbEntity
  8
MODEL
100
AcDbLine
 10
73.62964616364604
 20
289.717738920969
 30
0.0
 11
48.57669608590287
 21
289.717738920969
 31
0.0
  0
LINE
  5
4144
330
A
100
AcDbEntity
  8
MODEL
100
AcDbLine
 10
64.78532088317559
 20
289.1499822965449
 30
0.0
 11
64.74949158163429
 21
289.1541164467227
 31
0.0
  0
LINE
  5
4145
330
A
100
AcDbEntity
  8
MODEL
100
AcDbLine
 10
64.59101582481674
 20
289.1802993978491
 30
0.0
 11
64.59101582481674
 21
289.1706530474341
 31
0.0
  0
LINE
  5
4146
330
A
100
AcDbEntity
  8
MODEL
100
AcDbLine
 10
64.74949158163429
 20
289.174787197612
 30
0.0
 11
64.74949158163429
 21
289.1541164467227
 31
0.0
  0
LINE
  5
4147
330
A
100
AcDbEntity
  8
MODEL
100
AcDbLine
 10
64.78532088317559
 20
289.1499822965449
 30
0.0
 11
64.78532088317559
 21
289.1734091475527
 31
0.0
  0
LINE
  5
4148
102
{ACAD_REACTORS
330
456F
102
}
330
A
100
AcDbEntity
  8
HIDDEN
 48
0.25
100
AcDbLine
 10
90.77672305128947
 20
280.7176939837996
 30
0.0
 11
90.62513754476856
 21
280.8706575403799
 31
0.0
  0
LINE
  5
4149
102
{ACAD_REACTORS
330
456F
102
}
330
A
100
AcDbEntity
  8
HIDDEN
 48
0.25
100
AcDbLine
 10
90.77672305128947
 20
280.7176939837996
 30
0.0
 11
90.77672305128947
 21
280.8527428896092
 31
0.0
  0
LINE
  5
414A
102
{ACAD_REACTORS
330
456F
102
}
330
A
100
AcDbEntity
  8
HIDDEN
 48
0.25
100
AcDbLine
 10
95.77766671642317
 20
280.7176939837996
 30
0.0
 11
95.77766671642317
 21
280.8527428896092
 31
0.0
  0
LINE
  5
414B
330
A
100
AcDbEntity
  8
MODEL
100
AcDbLine
 10
121.7690688845372
 20
289.1499822965449
 30
0.0
 11
121.7690688845372
 21
289.1734091475527
 31
0.0
  0
LINE
  5
414C
330
A
100
AcDbEntity
  8
MODEL
100
AcDbLine
 10
121.8062762361377
 20
289.174787197612
 30
0.0
 11
121.8062762361377
 21
289.1541164467227
 31
0.0
  0
LINE
  5
414D
330
A
100
AcDbEntity
  8
MODEL
100
AcDbLine
 10
121.9633739428959
 20
289.1802993978491
 30
0.0
 11
121.9633739428959
 21
289.1706530474341
 31
0.0
  0
LINE
  5
414E
102
{ACAD_REACTORS
330
456F
102
}
330
A
100
AcDbEntity
  8
HIDDEN
 48
0.25
100
AcDbLine
 10
95.77766671642317
 20
280.7176939837996
 30
0.0
 11
95.92925222294427
 21
280.8706575403799
 31
0.0
  0
LINE
  5
414F
330
A
100
AcDbEntity
  8
MODEL
100
AcDbLine
 10
138.278108594733
 20
291.4182526941228
 30
0.0
 11
138.278108594733
 21
290.0181538338925
 31
0.0
  0
SPLINE
  5
4150
330
A
100
AcDbEntity
  8
MODEL
100
AcDbSpline
210
0.0
220
0.0
230
1.0
 70
     8
 71
     3
 72
     8
 73
     4
 74
     0
 42
0.000000001
 43
0.0000000001
 40
0.0
 40
0.0
 40
0.0
 40
0.0
 40
1.0
 40
1.0
 40
1.0
 40
1.0
 10
320.425191710407
 20
289.1541164467226
 30
0.0
 10
320.5168320393493
 20
289.1582505969006
 30
0.0
 10
320.6091613933211
 20
289.1637627971376
 30
0.0
 10
320.6994236722041
 20
289.1706530474341
 30
0.0
  0
SPLINE
  5
4151
330
A
100
AcDbEntity
  8
MODEL
100
AcDbSpline
210
0.0
220
0.0
230
1.0
 70
     8
 71
     3
 72
     8
 73
     4
 74
     0
 42
0.000000001
 43
0.0000000001
 40
0.0
 40
0.0
 40
0.0
 40
0.0
 40
1.0
 40
1.0
 40
1.0
 40
1.0
 10
319.6031848500454
 20
289.1541164467226
 30
0.0
 10
319.6955142040173
 20
289.1582505969006
 30
0.0
 10
319.7871545329596
 20
289.1637627971376
 30
0.0
 10
319.8774168118425
 20
289.1706530474341
 30
0.0
  0
SPLINE
  5
4152
330
A
100
AcDbEntity
  8
MODEL
100
AcDbSpline
210
0.0
220
0.0
230
1.0
 70
     8
 71
     3
 72
     8
 73
     4
 74
     0
 42
0.000000001
 43
0.0000000001
 40
0.0
 40
0.0
 40
0.0
 40
0.0
 40
1.0
 40
1.0
 40
1.0
 40
1.0
 10
319.0554099514809
 20
289.1706530474341
 30
0.0
 10
319.1470502804232
 20
289.1637627971376
 30
0.0
 10
319.237312559306
 20
289.1582505969006
 30
0.0
 10
319.3289528882483
 20
289.1541164467226
 30
0.0
  0
SPLINE
  5
4153
330
A
100
AcDbEntity
  8
MODEL
100
AcDbSpline
210
0.0
220
0.0
230
1.0
 70
     8
 71
     3
 72
     8
 73
     4
 74
     0
 42
0.000000001
 43
0.0000000001
 40
0.0
 40
0.0
 40
0.0
 40
0.0
 40
1.0
 40
1.0
 40
1.0
 40
1.0
 10
318.2334030911193
 20
289.1706530474341
 30
0.0
 10
318.3250434200615
 20
289.1637627971376
 30
0.0
 10
318.4153056989445
 20
289.1582505969006
 30
0.0
 10
318.5076350529164
 20
289.1541164467226
 30
0.0
  0
SPLINE
  5
4154
330
A
100
AcDbEntity
  8
MODEL
100
AcDbSpline
210
0.0
220
0.0
230
1.0
 70
     8
 71
     3
 72
     8
 73
     4
 74
     0
 42
0.000000001
 43
0.0000000001
 40
0.0
 40
0.0
 40
0.0
 40
0.0
 40
1.0
 40
1.0
 40
1.0
 40
1.0
 10
354.4671623248453
 20
291.4182526941227
 30
0.0
 10
354.4671623248453
 20
291.5836187012365
 30
0.0
 10
354.3328024440653
 20
291.7186676070461
 30
0.0
 10
354.1660583868923
 20
291.7186676070461
 30
0.0
  0
SPLINE
  5
4155
330
A
100
AcDbEntity
  8
MODEL
100
AcDbSpline
210
0.0
220
0.0
230
1.0
 70
     8
 71
     3
 72
     8
 73
     4
 74
     0
 42
0.000000001
 43
0.0000000001
 40
0.0
 40
0.0
 40
0.0
 40
0.0
 40
1.0
 40
1.0
 40
1.0
 40
1.0
 10
354.166747411922
 20
289.7177389209689
 30
0.0
 10
354.3321134190358
 20
289.7177389209689
 30
0.0
 10
354.4671623248453
 20
289.8514097767193
 30
0.0
 10
354.4671623248453
 20
290.0181538338924
 30
0.0
  0
SPLINE
  5
4156
330
A
100
AcDbEntity
  8
MODEL
100
AcDbSpline
210
0.0
220
0.0
230
1.0
 70
     8
 71
     3
 72
     8
 73
     4
 74
     0
 42
0.000000001
 43
0.0000000001
 40
0.0
 40
0.0
 40
0.0
 40
0.0
 40
1.0
 40
1.0
 40
1.0
 40
1.0
 10
336.7199446363848
 20
288.0530544493566
 30
0.0
 10
336.7481946625999
 20
287.9717494958589
 30
0.0
 10
336.8246764408901
 20
287.9180055435469
 30
0.0
 10
336.9094265195359
 20
287.9180055435469
 30
0.0
  0
SPLINE
  5
4157
330
A
100
AcDbEntity
  8
MODEL
100
AcDbSpline
210
0.0
220
0.0
230
1.0
 70
     8
 71
     3
 72
     8
 73
     4
 74
     0
 42
0.000000001
 43
0.0000000001
 40
0.0
 40
0.0
 40
0.0
 40
0.0
 40
1.0
 40
1.0
 40
1.0
 40
1.0
 10
341.1241926258493
 20
287.9180055435469
 30
0.0
 10
341.2089427044951
 20
287.9180055435469
 30
0.0
 10
341.2854244827852
 20
287.9717494958589
 30
0.0
 10
341.3129854839709
 20
288.0516763992973
 30
0.0
  0
SPLINE
  5
4158
330
A
100
AcDbEntity
  8
MODEL
100
AcDbSpline
210
0.0
220
0.0
230
1.0
 70
     8
 71
     3
 72
     8
 73
     4
 74
     0
 42
0.000000001
 43
0.0000000001
 40
0.0
 40
0.0
 40
0.0
 40
0.0
 40
1.0
 40
1.0
 40
1.0
 40
1.0
 10
64.04806410145977
 20
289.2175067494497
 30
0.0
 10
64.29473506207125
 20
289.1899457482641
 30
0.0
 10
64.5400279726233
 20
289.1665188972563
 30
0.0
 10
64.78532088317559
 20
289.1499822965449
 30
0.0
  0
SPLINE
  5
4159
330
A
100
AcDbEntity
  8
MODEL
100
AcDbSpline
210
0.0
220
0.0
230
1.0
 70
     8
 71
     3
 72
     8
 73
     4
 74
     0
 42
0.000000001
 43
0.0000000001
 40
0.0
 40
0.0
 40
0.0
 40
0.0
 40
1.0
 40
1.0
 40
1.0
 40
1.0
 10
64.82804043501312
 20
289.1706530474341
 30
0.0
 10
64.93415028957781
 20
289.1637627971377
 30
0.0
 10
65.0375040440241
 20
289.1582505969006
 30
0.0
 10
65.1436138985888
 20
289.1541164467227
 30
0.0
  0
SPLINE
  5
415A
330
A
100
AcDbEntity
  8
MODEL
100
AcDbSpline
210
0.0
220
0.0
230
1.0
 70
     8
 71
     3
 72
     8
 73
     4
 74
     0
 42
0.000000001
 43
0.0000000001
 40
0.0
 40
0.0
 40
0.0
 40
0.0
 40
1.0
 40
1.0
 40
1.0
 40
1.0
 10
65.38201655884438
 20
289.1541164467227
 30
0.0
 10
65.43438246109724
 20
289.1582505969006
 30
0.0
 10
65.48812641340908
 20
289.1637627971377
 30
0.0
 10
65.5391142656025
 20
289.1706530474341
 30
0.0
  0
SPLINE
  5
415B
330
A
100
AcDbEntity
  8
MODEL
100
AcDbSpline
210
0.0
220
0.0
230
1.0
 70
     8
 71
     3
 72
     8
 73
     4
 74
     0
 42
0.000000001
 43
0.0000000001
 40
0.0
 40
0.0
 40
0.0
 40
0.0
 40
1.0
 40
1.0
 40
1.0
 40
1.0
 10
64.59101582481674
 20
289.1706530474341
 30
0.0
 10
64.64338172706937
 20
289.1637627971377
 30
0.0
 10
64.69712567938143
 20
289.1582505969006
 30
0.0
 10
64.74811353157486
 20
289.1541164467227
 30
0.0
  0
SPLINE
  5
415C
330
A
100
AcDbEntity
  8
MODEL
100
AcDbSpline
210
0.0
220
0.0
230
1.0
 70
     8
 71
     3
 72
     8
 73
     4
 74
     0
 42
0.000000001
 43
0.0000000001
 40
0.0
 40
0.0
 40
0.0
 40
0.0
 40
1.0
 40
1.0
 40
1.0
 40
1.0
 10
48.27765922303877
 20
290.0181538338925
 30
0.0
 10
48.27765922303877
 20
289.8527878267786
 30
0.0
 10
48.4113300787891
 20
289.717738920969
 30
0.0
 10
48.5780741359623
 20
289.717738920969
 30
0.0
  0
SPLINE
  5
415D
330
A
100
AcDbEntity
  8
MODEL
100
AcDbSpline
210
0.0
220
0.0
230
1.0
 70
     8
 71
     3
 72
     8
 73
     4
 74
     0
 42
0.000000001
 43
0.0000000001
 40
0.0
 40
0.0
 40
0.0
 40
0.0
 40
1.0
 40
1.0
 40
1.0
 40
1.0
 10
48.57669608590287
 20
291.7172895569869
 30
0.0
 10
48.4113300787891
 20
291.7172895569869
 30
0.0
 10
48.27628117297957
 20
291.5836187012366
 30
0.0
 10
48.27628117297957
 20
291.4168746440635
 30
0.0
  0
SPLINE
  5
415E
102
{ACAD_REACTORS
330
456F
102
}
330
A
100
AcDbEntity
  8
HIDDEN
 48
0.25
100
AcDbSpline
210
0.0
220
0.0
230
1.0
 70
     8
 71
     3
 72
     8
 73
     4
 74
     0
 42
0.000000001
 43
0.0000000001
 40
0.0
 40
0.0
 40
0.0
 40
0.0
 40
1.0
 40
1.0
 40
1.0
 40
1.0
 10
74.13125638522467
 20
298.9823694695206
 30
0.0
 10
77.58464983378474
 20
292.1472411754828
 30
0.0
 10
84.4197781278225
 20
287.6713345829355
 30
0.0
 10
92.06657790677727
 20
287.2386268643211
 30
0.0
  0
SPLINE
  5
415F
102
{ACAD_REACTORS
330
456F
102
}
330
A
100
AcDbEntity
  8
HIDDEN
 48
0.25
100
AcDbSpline
210
0.0
220
0.0
230
1.0
 70
     8
 71
     3
 72
     8
 73
     4
 74
     0
 42
0.000000001
 43
0.0000000001
 40
0.0
 40
0.0
 40
0.0
 40
0.0
 40
1.0
 40
1.0
 40
1.0
 40
1.0
 10
75.31775748626626
 20
320.3883100653744
 30
0.0
 10
71.12986335610901
 20
313.9755541145065
 30
0.0
 10
70.67648488660518
 20
305.8174977635583
 30
0.0
 10
74.13125638522467
 20
298.9823694695206
 30
0.0
  0
SPLINE
  5
4160
102
{ACAD_REACTORS
330
456F
102
}
330
A
100
AcDbEntity
  8
HIDDEN
 48
0.25
100
AcDbSpline
210
0.0
220
0.0
230
1.0
 70
     8
 71
     3
 72
     8
 73
     4
 74
     0
 42
0.000000001
 43
0.0000000001
 40
0.0
 40
0.0
 40
0.0
 40
0.0
 40
1.0
 40
1.0
 40
1.0
 40
1.0
 10
111.2366322814463
 20
320.3883100653744
 30
0.0
 10
115.425904461663
 20
313.9755541145065
 30
0.0
 10
115.8765268310482
 20
305.8174977635583
 30
0.0
 10
112.4245114325474
 20
298.9823694695206
 30
0.0
  0
SPLINE
  5
4161
102
{ACAD_REACTORS
330
456F
102
}
330
A
100
AcDbEntity
  8
HIDDEN
 48
0.25
100
AcDbSpline
210
0.0
220
0.0
230
1.0
 70
     8
 71
     3
 72
     8
 73
     4
 74
     0
 42
0.000000001
 43
0.0000000001
 40
0.0
 40
0.0
 40
0.0
 40
0.0
 40
1.0
 40
1.0
 40
1.0
 40
1.0
 10
112.4245114325474
 20
298.9823694695206
 30
0.0
 10
108.9711179839871
 20
292.1472411754828
 30
0.0
 10
102.1359896899493
 20
287.6713345829355
 30
0.0
 10
94.48918991099467
 20
287.2386268643211
 30
0.0
  0
SPLINE
  5
4162
102
{ACAD_REACTORS
330
456F
102
}
330
A
100
AcDbEntity
  8
HIDDEN
 48
0.25
100
AcDbSpline
210
0.0
220
0.0
230
1.0
 70
     8
 71
     3
 72
     8
 73
     4
 74
     0
 42
0.000000001
 43
0.0000000001
 40
0.0
 40
0.0
 40
0.0
 40
0.0
 40
1.0
 40
1.0
 40
1.0
 40
1.0
 10
74.11196368439471
 20
299.0306012215954
 30
0.0
 10
77.5557107825399
 20
292.1734241266092
 30
0.0
 10
84.39910737693333
 20
287.6809809333505
 30
0.0
 10
92.05693155636217
 20
287.2441390645582
 30
0.0
  0
SPLINE
  5
4163
102
{ACAD_REACTORS
330
456F
102
}
330
A
100
AcDbEntity
  8
HIDDEN
 48
0.25
100
AcDbSpline
210
0.0
220
0.0
230
1.0
 70
     8
 71
     3
 72
     8
 73
     4
 74
     0
 42
0.000000001
 43
0.0000000001
 40
0.0
 40
0.0
 40
0.0
 40
0.0
 40
1.0
 40
1.0
 40
1.0
 40
1.0
 10
75.37287948863752
 20
320.4627247685755
 30
0.0
 10
71.14915605693875
 20
314.0568590680041
 30
0.0
 10
70.66959463630872
 20
305.8864002665223
 30
0.0
 10
74.11196368439471
 20
299.0306012215954
 30
0.0
  0
SPLINE
  5
4164
102
{ACAD_REACTORS
330
456F
102
}
330
A
100
AcDbEntity
  8
HIDDEN
 48
0.25
100
AcDbSpline
210
0.0
220
0.0
230
1.0
 70
     8
 71
     3
 72
     8
 73
     4
 74
     0
 42
0.000000001
 43
0.0000000001
 40
0.0
 40
0.0
 40
0.0
 40
0.0
 40
1.0
 40
1.0
 40
1.0
 40
1.0
 10
111.1884005293715
 20
320.4530784181606
 30
0.0
 10
115.406611760833
 20
314.0485907676484
 30
0.0
 10
115.8847951314039
 20
305.8781319661667
 30
0.0
 10
112.4410480332587
 20
299.0250890213582
 30
0.0
  0
SPLINE
  5
4165
102
{ACAD_REACTORS
330
456F
102
}
330
A
100
AcDbEntity
  8
HIDDEN
 48
0.25
100
AcDbSpline
210
0.0
220
0.0
230
1.0
 70
     8
 71
     3
 72
     8
 73
     4
 74
     0
 42
0.000000001
 43
0.0000000001
 40
0.0
 40
0.0
 40
0.0
 40
0.0
 40
1.0
 40
1.0
 40
1.0
 40
1.0
 10
112.4410480332587
 20
299.0250890213582
 30
0.0
 10
108.9959228850541
 20
292.1734241266092
 30
0.0
 10
102.1566604408387
 20
287.6809809333505
 30
0.0
 10
94.49745821135036
 20
287.2441390645582
 30
0.0
  0
SPLINE
  5
4166
330
A
100
AcDbEntity
  8
MODEL
100
AcDbSpline
210
0.0
220
0.0
230
1.0
 70
     8
 71
     3
 72
     8
 73
     4
 74
     0
 42
0.000000001
 43
0.0000000001
 40
0.0
 40
0.0
 40
0.0
 40
0.0
 40
1.0
 40
1.0
 40
1.0
 40
1.0
 10
121.7690688845372
 20
289.1499822965449
 30
0.0
 10
122.0143617950893
 20
289.1678969473156
 30
0.0
 10
122.2610327557008
 20
289.1885676982048
 30
0.0
 10
122.5063256662531
 20
289.218884799509
 30
0.0
  0
SPLINE
  5
4167
330
A
100
AcDbEntity
  8
MODEL
100
AcDbSpline
210
0.0
220
0.0
230
1.0
 70
     8
 71
     3
 72
     8
 73
     4
 74
     0
 42
0.000000001
 43
0.0000000001
 40
0.0
 40
0.0
 40
0.0
 40
0.0
 40
1.0
 40
1.0
 40
1.0
 40
1.0
 10
121.4107758691238
 20
289.1541164467227
 30
0.0
 10
121.5168857236887
 20
289.1582505969006
 30
0.0
 10
121.621617528194
 20
289.1637627971377
 30
0.0
 10
121.7263493326995
 20
289.1706530474341
 30
0.0
  0
SPLINE
  5
4168
330
A
100
AcDbEntity
  8
MODEL
100
AcDbSpline
210
0.0
220
0.0
230
1.0
 70
     8
 71
     3
 72
     8
 73
     4
 74
     0
 42
0.000000001
 43
0.0000000001
 40
0.0
 40
0.0
 40
0.0
 40
0.0
 40
1.0
 40
1.0
 40
1.0
 40
1.0
 10
121.0152755021101
 20
289.1706530474341
 30
0.0
 10
121.0676414043627
 20
289.1637627971377
 30
0.0
 10
121.1213853566748
 20
289.1582505969006
 30
0.0
 10
121.1723732088682
 20
289.1541164467227
 30
0.0
  0
SPLINE
  5
4169
330
A
100
AcDbEntity
  8
MODEL
100
AcDbSpline
210
0.0
220
0.0
230
1.0
 70
     8
 71
     3
 72
     8
 73
     4
 74
     0
 42
0.000000001
 43
0.0000000001
 40
0.0
 40
0.0
 40
0.0
 40
0.0
 40
1.0
 40
1.0
 40
1.0
 40
1.0
 10
121.8062762361377
 20
289.1541164467227
 30
0.0
 10
121.8586421383906
 20
289.1582505969006
 30
0.0
 10
121.9123860907024
 20
289.1637627971377
 30
0.0
 10
121.9633739428959
 20
289.1706530474341
 30
0.0
  0
SPLINE
  5
416A
330
A
100
AcDbEntity
  8
MODEL
100
AcDbSpline
210
0.0
220
0.0
230
1.0
 70
     8
 71
     3
 72
     8
 73
     4
 74
     0
 42
0.000000001
 43
0.0000000001
 40
0.0
 40
0.0
 40
0.0
 40
0.0
 40
1.0
 40
1.0
 40
1.0
 40
1.0
 10
137.9776936818097
 20
289.717738920969
 30
0.0
 10
138.1430596889235
 20
289.717738920969
 30
0.0
 10
138.278108594733
 20
289.8514097767194
 30
0.0
 10
138.278108594733
 20
290.0181538338925
 30
0.0
  0
SPLINE
  5
416B
330
A
100
AcDbEntity
  8
MODEL
100
AcDbSpline
210
0.0
220
0.0
230
1.0
 70
     8
 71
     3
 72
     8
 73
     4
 74
     0
 42
0.000000001
 43
0.0000000001
 40
0.0
 40
0.0
 40
0.0
 40
0.0
 40
1.0
 40
1.0
 40
1.0
 40
1.0
 10
138.278108594733
 20
291.4182526941228
 30
0.0
 10
138.278108594733
 20
291.5836187012366
 30
0.0
 10
138.1430596889235
 20
291.7186676070461
 30
0.0
 10
137.9776936818097
 20
291.7186676070461
 30
0.0
  0
POLYLINE
  5
416C
330
A
100
AcDbEntity
  8
MODEL
100
AcDb2dPolyline
 66
     1
 10
0.0
 20
0.0
 30
0.0
  0
VERTEX
  5
416D
330
416C
100
AcDbEntity
  8
MODEL
100
AcDbVertex
100
AcDb2dVertex
 10
251.9657318403762
 20
280.7176939837995
 30
0.0
  0
VERTEX
  5
416E
330
416C
100
AcDbEntity
  8
MODEL
100
AcDbVertex
100
AcDb2dVertex
 10
251.9733111157022
 20
280.7190720338588
 30
0.0
  0
VERTEX
  5
416F
330
416C
100
AcDbEntity
  8
MODEL
100
AcDbVertex
100
AcDb2dVertex
 10
252.0408355686071
 20
280.7259622841552
 30
0.0
  0
VERTEX
  5
4170
330
416C
100
AcDbEntity
  8
MODEL
100
AcDbVertex
100
AcDb2dVertex
 10
252.0932014708598
 20
280.7314744843924
 30
0.0
  0
VERTEX
  5
4171
330
416C
100
AcDbEntity
  8
MODEL
100
AcDbVertex
100
AcDb2dVertex
 10
252.263390653181
 20
280.7507671852223
 30
0.0
  0
VERTEX
  5
4172
330
416C
100
AcDbEntity
  8
MODEL
100
AcDbVertex
100
AcDb2dVertex
 10
252.38052490822
 20
280.7631696357558
 30
0.0
  0
VERTEX
  5
4173
330
416C
100
AcDbEntity
  8
MODEL
100
AcDbVertex
100
AcDb2dVertex
 10
252.6196165935054
 20
280.7852184367044
 30
0.0
  0
VERTEX
  5
4174
330
416C
100
AcDbEntity
  8
MODEL
100
AcDbVertex
100
AcDb2dVertex
 10
252.8463058282572
 20
280.8045111375342
 30
0.0
  0
VERTEX
  5
4175
330
416C
100
AcDbEntity
  8
MODEL
100
AcDbVertex
100
AcDb2dVertex
 10
253.0977999640762
 20
280.8238038383643
 30
0.0
  0
VERTEX
  5
4176
330
416C
100
AcDbEntity
  8
MODEL
100
AcDbVertex
100
AcDb2dVertex
 10
253.1543000165067
 20
280.827937988542
 30
0.0
  0
VERTEX
  5
4177
330
416C
100
AcDbEntity
  8
MODEL
100
AcDbVertex
100
AcDb2dVertex
 10
253.4078612274146
 20
280.8444745892535
 30
0.0
  0
VERTEX
  5
4178
330
416C
100
AcDbEntity
  8
MODEL
100
AcDbVertex
100
AcDb2dVertex
 10
253.6634895134113
 20
280.8582550898463
 30
0.0
  0
VERTEX
  5
4179
330
416C
100
AcDbEntity
  8
MODEL
100
AcDbVertex
100
AcDb2dVertex
 10
253.7902701188653
 20
280.8651453401426
 30
0.0
  0
VERTEX
  5
417A
330
416C
100
AcDbEntity
  8
MODEL
100
AcDbVertex
100
AcDb2dVertex
 10
254.0486545049806
 20
280.8761697406169
 30
0.0
  0
VERTEX
  5
417B
330
416C
100
AcDbEntity
  8
MODEL
100
AcDbVertex
100
AcDb2dVertex
 10
254.3001486407995
 20
280.8830599909134
 30
0.0
  0
VERTEX
  5
417C
330
416C
100
AcDbEntity
  8
MODEL
100
AcDbVertex
100
AcDb2dVertex
 10
254.5564659518259
 20
280.8885721911504
 30
0.0
  0
VERTEX
  5
417D
330
416C
100
AcDbEntity
  8
MODEL
100
AcDbVertex
100
AcDb2dVertex
 10
254.8251857133859
 20
280.891328291269
 30
0.0
  0
VERTEX
  5
417E
330
416C
100
AcDbEntity
  8
MODEL
100
AcDbVertex
100
AcDb2dVertex
 10
254.9657468194326
 20
280.891328291269
 30
0.0
  0
SEQEND
  5
417F
330
416C
100
AcDbEntity
  8
MODEL
  0
POLYLINE
  5
4180
330
A
100
AcDbEntity
  8
MODEL
100
AcDb2dPolyline
 66
     1
 10
0.0
 20
0.0
 30
0.0
  0
VERTEX
  5
4181
330
4180
100
AcDbEntity
  8
MODEL
100
AcDbVertex
100
AcDb2dVertex
 10
254.9657468194326
 20
280.891328291269
 30
0.0
  0
VERTEX
  5
4182
330
4180
100
AcDbEntity
  8
MODEL
100
AcDbVertex
100
AcDb2dVertex
 10
255.106996950509
 20
280.891328291269
 30
0.0
  0
VERTEX
  5
4183
330
4180
100
AcDbEntity
  8
MODEL
100
AcDbVertex
100
AcDb2dVertex
 10
255.3750276870393
 20
280.8885721911504
 30
0.0
  0
VERTEX
  5
4184
330
4180
100
AcDbEntity
  8
MODEL
100
AcDbVertex
100
AcDb2dVertex
 10
255.6320340230954
 20
280.8830599909134
 30
0.0
  0
VERTEX
  5
4185
330
4180
100
AcDbEntity
  8
MODEL
100
AcDbVertex
100
AcDb2dVertex
 10
255.8835281589143
 20
280.8747916905576
 30
0.0
  0
VERTEX
  5
4186
330
4180
100
AcDbEntity
  8
MODEL
100
AcDbVertex
100
AcDb2dVertex
 10
256.14122352
 20
280.8651453401426
 30
0.0
  0
VERTEX
  5
4187
330
4180
100
AcDbEntity
  8
MODEL
100
AcDbVertex
100
AcDb2dVertex
 10
256.2686931504836
 20
280.8582550898463
 30
0.0
  0
VERTEX
  5
4188
330
4180
100
AcDbEntity
  8
MODEL
100
AcDbVertex
100
AcDb2dVertex
 10
256.5236324114507
 20
280.8444745892535
 30
0.0
  0
VERTEX
  5
4189
330
4180
100
AcDbEntity
  8
MODEL
100
AcDbVertex
100
AcDb2dVertex
 10
256.7778826473882
 20
280.827937988542
 30
0.0
  0
VERTEX
  5
418A
330
4180
100
AcDbEntity
  8
MODEL
100
AcDbVertex
100
AcDb2dVertex
 10
256.8343826998188
 20
280.8238038383643
 30
0.0
  0
VERTEX
  5
418B
330
4180
100
AcDbEntity
  8
MODEL
100
AcDbVertex
100
AcDb2dVertex
 10
257.085187810608
 20
280.8045111375342
 30
0.0
  0
VERTEX
  5
418C
330
4180
100
AcDbEntity
  8
MODEL
100
AcDbVertex
100
AcDb2dVertex
 10
257.3125660703896
 20
280.7852184367044
 30
0.0
  0
VERTEX
  5
418D
330
4180
100
AcDbEntity
  8
MODEL
100
AcDbVertex
100
AcDb2dVertex
 10
257.5509687306453
 20
280.7631696357558
 30
0.0
  0
VERTEX
  5
418E
330
4180
100
AcDbEntity
  8
MODEL
100
AcDbVertex
100
AcDb2dVertex
 10
257.6681029856842
 20
280.7507671852223
 30
0.0
  0
VERTEX
  5
418F
330
4180
100
AcDbEntity
  8
MODEL
100
AcDbVertex
100
AcDb2dVertex
 10
257.7500969642115
 20
280.7411208348073
 30
0.0
  0
VERTEX
  5
4190
330
4180
100
AcDbEntity
  8
MODEL
100
AcDbVertex
100
AcDb2dVertex
 10
257.8913470952879
 20
280.7259622841552
 30
0.0
  0
VERTEX
  5
4191
330
4180
100
AcDbEntity
  8
MODEL
100
AcDbVertex
100
AcDb2dVertex
 10
257.9292434719181
 20
280.7218281339773
 30
0.0
  0
VERTEX
  5
4192
330
4180
100
AcDbEntity
  8
MODEL
100
AcDbVertex
100
AcDb2dVertex
 10
257.9657617984891
 20
280.7176939837995
 30
0.0
  0
SEQEND
  5
4193
330
4180
100
AcDbEntity
  8
MODEL
  0
POLYLINE
  5
4194
330
A
100
AcDbEntity
  8
MODEL
100
AcDb2dPolyline
 66
     1
 10
0.0
 20
0.0
 30
0.0
  0
VERTEX
  5
4195
330
4194
100
AcDbEntity
  8
MODEL
100
AcDbVertex
100
AcDb2dVertex
 10
320.2887647545381
 20
289.1541164467226
 30
0.0
  0
VERTEX
  5
4196
330
4194
100
AcDbEntity
  8
MODEL
100
AcDbVertex
100
AcDb2dVertex
 10
320.2901428045975
 20
289.1527383966634
 30
0.0
  0
VERTEX
  5
4197
330
4194
100
AcDbEntity
  8
MODEL
100
AcDbVertex
100
AcDb2dVertex
 10
320.2915208546567
 20
289.1527383966634
 30
0.0
  0
VERTEX
  5
4198
330
4194
100
AcDbEntity
  8
MODEL
100
AcDbVertex
100
AcDb2dVertex
 10
320.2928989047159
 20
289.1527383966634
 30
0.0
  0
VERTEX
  5
4199
330
4194
100
AcDbEntity
  8
MODEL
100
AcDbVertex
100
AcDb2dVertex
 10
320.2956550048345
 20
289.1527383966634
 30
0.0
  0
VERTEX
  5
419A
330
4194
100
AcDbEntity
  8
MODEL
100
AcDbVertex
100
AcDb2dVertex
 10
320.2970330548939
 20
289.1513603466041
 30
0.0
  0
VERTEX
  5
419B
330
4194
100
AcDbEntity
  8
MODEL
100
AcDbVertex
100
AcDb2dVertex
 10
320.2997891550124
 20
289.1513603466041
 30
0.0
  0
VERTEX
  5
419C
330
4194
100
AcDbEntity
  8
MODEL
100
AcDbVertex
100
AcDb2dVertex
 10
320.3011672050716
 20
289.1513603466041
 30
0.0
  0
VERTEX
  5
419D
330
4194
100
AcDbEntity
  8
MODEL
100
AcDbVertex
100
AcDb2dVertex
 10
320.3039233051902
 20
289.1513603466041
 30
0.0
  0
VERTEX
  5
419E
330
4194
100
AcDbEntity
  8
MODEL
100
AcDbVertex
100
AcDb2dVertex
 10
320.3053013552494
 20
289.1513603466041
 30
0.0
  0
VERTEX
  5
419F
330
4194
100
AcDbEntity
  8
MODEL
100
AcDbVertex
100
AcDb2dVertex
 10
320.3066794053088
 20
289.1513603466041
 30
0.0
  0
SEQEND
  5
41A0
330
4194
100
AcDbEntity
  8
MODEL
  0
POLYLINE
  5
41A1
330
A
100
AcDbEntity
  8
MODEL
100
AcDb2dPolyline
 66
     1
 10
0.0
 20
0.0
 30
0.0
  0
VERTEX
  5
41A2
330
41A1
100
AcDbEntity
  8
MODEL
100
AcDbVertex
100
AcDb2dVertex
 10
320.3073684303383
 20
289.1513603466041
 30
0.0
  0
VERTEX
  5
41A3
330
41A1
100
AcDbEntity
  8
MODEL
100
AcDbVertex
100
AcDb2dVertex
 10
320.3073684303383
 20
289.1513603466041
 30
0.0
  0
VERTEX
  5
41A4
330
41A1
100
AcDbEntity
  8
MODEL
100
AcDbVertex
100
AcDb2dVertex
 10
320.3190818558423
 20
289.1513603466041
 30
0.0
  0
VERTEX
  5
41A5
330
41A1
100
AcDbEntity
  8
MODEL
100
AcDbVertex
100
AcDb2dVertex
 10
320.3314843063758
 20
289.1513603466041
 30
0.0
  0
VERTEX
  5
41A6
330
41A1
100
AcDbEntity
  8
MODEL
100
AcDbVertex
100
AcDb2dVertex
 10
320.3425087068501
 20
289.1513603466041
 30
0.0
  0
VERTEX
  5
41A7
330
41A1
100
AcDbEntity
  8
MODEL
100
AcDbVertex
100
AcDb2dVertex
 10
320.3556001824132
 20
289.1513603466041
 30
0.0
  0
VERTEX
  5
41A8
330
41A1
100
AcDbEntity
  8
MODEL
100
AcDbVertex
100
AcDb2dVertex
 10
320.3666245828875
 20
289.1513603466041
 30
0.0
  0
VERTEX
  5
41A9
330
41A1
100
AcDbEntity
  8
MODEL
100
AcDbVertex
100
AcDb2dVertex
 10
320.3783380083914
 20
289.1527383966634
 30
0.0
  0
VERTEX
  5
41AA
330
41A1
100
AcDbEntity
  8
MODEL
100
AcDbVertex
100
AcDb2dVertex
 10
320.3907404589249
 20
289.1527383966634
 30
0.0
  0
VERTEX
  5
41AB
330
41A1
100
AcDbEntity
  8
MODEL
100
AcDbVertex
100
AcDb2dVertex
 10
320.4017648593992
 20
289.1527383966634
 30
0.0
  0
VERTEX
  5
41AC
330
41A1
100
AcDbEntity
  8
MODEL
100
AcDbVertex
100
AcDb2dVertex
 10
320.4134782849031
 20
289.1541164467226
 30
0.0
  0
VERTEX
  5
41AD
330
41A1
100
AcDbEntity
  8
MODEL
100
AcDbVertex
100
AcDb2dVertex
 10
320.4258807354366
 20
289.1541164467226
 30
0.0
  0
SEQEND
  5
41AE
330
41A1
100
AcDbEntity
  8
MODEL
  0
POLYLINE
  5
41AF
330
A
100
AcDbEntity
  8
MODEL
100
AcDb2dPolyline
 66
     1
 10
0.0
 20
0.0
 30
0.0
  0
VERTEX
  5
41B0
330
41AF
100
AcDbEntity
  8
MODEL
100
AcDbVertex
100
AcDb2dVertex
 10
319.8774168118425
 20
289.1706530474341
 30
0.0
  0
VERTEX
  5
41B1
330
41AF
100
AcDbEntity
  8
MODEL
100
AcDbVertex
100
AcDb2dVertex
 10
319.9029107379392
 20
289.1720310974934
 30
0.0
  0
VERTEX
  5
41B2
330
41AF
100
AcDbEntity
  8
MODEL
100
AcDbVertex
100
AcDb2dVertex
 10
319.9435632146881
 20
289.1747871976119
 30
0.0
  0
VERTEX
  5
41B3
330
41AF
100
AcDbEntity
  8
MODEL
100
AcDbVertex
100
AcDb2dVertex
 10
319.9731912909626
 20
289.1761652476712
 30
0.0
  0
VERTEX
  5
41B4
330
41AF
100
AcDbEntity
  8
MODEL
100
AcDbVertex
100
AcDb2dVertex
 10
320.014532792741
 20
289.1775432977304
 30
0.0
  0
VERTEX
  5
41B5
330
41AF
100
AcDbEntity
  8
MODEL
100
AcDbVertex
100
AcDb2dVertex
 10
320.0441608690155
 20
289.1789213477898
 30
0.0
  0
VERTEX
  5
41B6
330
41AF
100
AcDbEntity
  8
MODEL
100
AcDbVertex
100
AcDb2dVertex
 10
320.0848133457644
 20
289.1802993978491
 30
0.0
  0
VERTEX
  5
41B7
330
41AF
100
AcDbEntity
  8
MODEL
100
AcDbVertex
100
AcDb2dVertex
 10
320.1103072718611
 20
289.1802993978491
 30
0.0
  0
VERTEX
  5
41B8
330
41AF
100
AcDbEntity
  8
MODEL
100
AcDbVertex
100
AcDb2dVertex
 10
320.1509597486099
 20
289.1802993978491
 30
0.0
  0
VERTEX
  5
41B9
330
41AF
100
AcDbEntity
  8
MODEL
100
AcDbVertex
100
AcDb2dVertex
 10
320.1668073242918
 20
289.1802993978491
 30
0.0
  0
VERTEX
  5
41BA
330
41AF
100
AcDbEntity
  8
MODEL
100
AcDbVertex
100
AcDb2dVertex
 10
320.2074598010405
 20
289.1802993978491
 30
0.0
  0
VERTEX
  5
41BB
330
41AF
100
AcDbEntity
  8
MODEL
100
AcDbVertex
100
AcDb2dVertex
 10
320.2315756770779
 20
289.1789213477898
 30
0.0
  0
VERTEX
  5
41BC
330
41AF
100
AcDbEntity
  8
MODEL
100
AcDbVertex
100
AcDb2dVertex
 10
320.2515574029376
 20
289.1775432977304
 30
0.0
  0
VERTEX
  5
41BD
330
41AF
100
AcDbEntity
  8
MODEL
100
AcDbVertex
100
AcDb2dVertex
 10
320.2680940036489
 20
289.1761652476712
 30
0.0
  0
VERTEX
  5
41BE
330
41AF
100
AcDbEntity
  8
MODEL
100
AcDbVertex
100
AcDb2dVertex
 10
320.2798074291527
 20
289.1747871976119
 30
0.0
  0
VERTEX
  5
41BF
330
41AF
100
AcDbEntity
  8
MODEL
100
AcDbVertex
100
AcDb2dVertex
 10
320.2866976794492
 20
289.1734091475526
 30
0.0
  0
VERTEX
  5
41C0
330
41AF
100
AcDbEntity
  8
MODEL
100
AcDbVertex
100
AcDb2dVertex
 10
320.2880757295085
 20
289.1720310974934
 30
0.0
  0
VERTEX
  5
41C1
330
41AF
100
AcDbEntity
  8
MODEL
100
AcDbVertex
100
AcDb2dVertex
 10
320.2880757295085
 20
289.1706530474341
 30
0.0
  0
SEQEND
  5
41C2
330
41AF
100
AcDbEntity
  8
MODEL
  0
POLYLINE
  5
41C3
330
A
100
AcDbEntity
  8
MODEL
100
AcDb2dPolyline
 66
     1
 10
0.0
 20
0.0
 30
0.0
  0
VERTEX
  5
41C4
330
41C3
100
AcDbEntity
  8
MODEL
100
AcDbVertex
100
AcDb2dVertex
 10
319.4667578941765
 20
289.1499822965448
 30
0.0
  0
VERTEX
  5
41C5
330
41C3
100
AcDbEntity
  8
MODEL
100
AcDbVertex
100
AcDb2dVertex
 10
319.4750261945322
 20
289.1499822965448
 30
0.0
  0
VERTEX
  5
41C6
330
41C3
100
AcDbEntity
  8
MODEL
100
AcDbVertex
100
AcDb2dVertex
 10
319.4888066951251
 20
289.1499822965448
 30
0.0
  0
VERTEX
  5
41C7
330
41C3
100
AcDbEntity
  8
MODEL
100
AcDbVertex
100
AcDb2dVertex
 10
319.5018981706882
 20
289.1499822965448
 30
0.0
  0
VERTEX
  5
41C8
330
41C3
100
AcDbEntity
  8
MODEL
100
AcDbVertex
100
AcDb2dVertex
 10
319.5074103709253
 20
289.1499822965448
 30
0.0
  0
VERTEX
  5
41C9
330
41C3
100
AcDbEntity
  8
MODEL
100
AcDbVertex
100
AcDb2dVertex
 10
319.5211908715182
 20
289.1499822965448
 30
0.0
  0
VERTEX
  5
41CA
330
41C3
100
AcDbEntity
  8
MODEL
100
AcDbVertex
100
AcDb2dVertex
 10
319.5356603971406
 20
289.1527383966634
 30
0.0
  0
VERTEX
  5
41CB
330
41C3
100
AcDbEntity
  8
MODEL
100
AcDbVertex
100
AcDb2dVertex
 10
319.5480628476741
 20
289.1527383966634
 30
0.0
  0
VERTEX
  5
41CC
330
41C3
100
AcDbEntity
  8
MODEL
100
AcDbVertex
100
AcDb2dVertex
 10
319.5625323732966
 20
289.1527383966634
 30
0.0
  0
VERTEX
  5
41CD
330
41C3
100
AcDbEntity
  8
MODEL
100
AcDbVertex
100
AcDb2dVertex
 10
319.5763128738895
 20
289.1527383966634
 30
0.0
  0
VERTEX
  5
41CE
330
41C3
100
AcDbEntity
  8
MODEL
100
AcDbVertex
100
AcDb2dVertex
 10
319.5894043494526
 20
289.1541164467226
 30
0.0
  0
VERTEX
  5
41CF
330
41C3
100
AcDbEntity
  8
MODEL
100
AcDbVertex
100
AcDb2dVertex
 10
319.6031848500454
 20
289.1541164467226
 30
0.0
  0
SEQEND
  5
41D0
330
41C3
100
AcDbEntity
  8
MODEL
  0
POLYLINE
  5
41D1
330
A
100
AcDbEntity
  8
MODEL
100
AcDb2dPolyline
 66
     1
 10
0.0
 20
0.0
 30
0.0
  0
VERTEX
  5
41D2
330
41D1
100
AcDbEntity
  8
MODEL
100
AcDbVertex
100
AcDb2dVertex
 10
319.329641913278
 20
289.1541164467226
 30
0.0
  0
VERTEX
  5
41D3
330
41D1
100
AcDbEntity
  8
MODEL
100
AcDbVertex
100
AcDb2dVertex
 10
319.3337760634558
 20
289.1541164467226
 30
0.0
  0
VERTEX
  5
41D4
330
41D1
100
AcDbEntity
  8
MODEL
100
AcDbVertex
100
AcDb2dVertex
 10
319.3475565640487
 20
289.1527383966634
 30
0.0
  0
VERTEX
  5
41D5
330
41D1
100
AcDbEntity
  8
MODEL
100
AcDbVertex
100
AcDb2dVertex
 10
319.3620260896711
 20
289.1527383966634
 30
0.0
  0
VERTEX
  5
41D6
330
41D1
100
AcDbEntity
  8
MODEL
100
AcDbVertex
100
AcDb2dVertex
 10
319.3702943900269
 20
289.1527383966634
 30
0.0
  0
VERTEX
  5
41D7
330
41D1
100
AcDbEntity
  8
MODEL
100
AcDbVertex
100
AcDb2dVertex
 10
319.3847639156493
 20
289.1527383966634
 30
0.0
  0
VERTEX
  5
41D8
330
41D1
100
AcDbEntity
  8
MODEL
100
AcDbVertex
100
AcDb2dVertex
 10
319.398544416242
 20
289.1513603466041
 30
0.0
  0
VERTEX
  5
41D9
330
41D1
100
AcDbEntity
  8
MODEL
100
AcDbVertex
100
AcDb2dVertex
 10
319.4116358918052
 20
289.1513603466041
 30
0.0
  0
VERTEX
  5
41DA
330
41D1
100
AcDbEntity
  8
MODEL
100
AcDbVertex
100
AcDb2dVertex
 10
319.4254163923981
 20
289.1513603466041
 30
0.0
  0
VERTEX
  5
41DB
330
41D1
100
AcDbEntity
  8
MODEL
100
AcDbVertex
100
AcDb2dVertex
 10
319.4398859180205
 20
289.1513603466041
 30
0.0
  0
VERTEX
  5
41DC
330
41D1
100
AcDbEntity
  8
MODEL
100
AcDbVertex
100
AcDb2dVertex
 10
319.452288368554
 20
289.1513603466041
 30
0.0
  0
VERTEX
  5
41DD
330
41D1
100
AcDbEntity
  8
MODEL
100
AcDbVertex
100
AcDb2dVertex
 10
319.4667578941765
 20
289.1513603466041
 30
0.0
  0
SEQEND
  5
41DE
330
41D1
100
AcDbEntity
  8
MODEL
  0
POLYLINE
  5
41DF
330
A
100
AcDbEntity
  8
MODEL
100
AcDb2dPolyline
 66
     1
 10
0.0
 20
0.0
 30
0.0
  0
VERTEX
  5
41E0
330
41DF
100
AcDbEntity
  8
MODEL
100
AcDbVertex
100
AcDb2dVertex
 10
318.6447510338149
 20
289.1706530474341
 30
0.0
  0
VERTEX
  5
41E1
330
41DF
100
AcDbEntity
  8
MODEL
100
AcDbVertex
100
AcDb2dVertex
 10
318.6461290838743
 20
289.1720310974934
 30
0.0
  0
VERTEX
  5
41E2
330
41DF
100
AcDbEntity
  8
MODEL
100
AcDbVertex
100
AcDb2dVertex
 10
318.6475071339335
 20
289.1734091475526
 30
0.0
  0
VERTEX
  5
41E3
330
41DF
100
AcDbEntity
  8
MODEL
100
AcDbVertex
100
AcDb2dVertex
 10
318.6543973842299
 20
289.1747871976119
 30
0.0
  0
VERTEX
  5
41E4
330
41DF
100
AcDbEntity
  8
MODEL
100
AcDbVertex
100
AcDb2dVertex
 10
318.6654217847042
 20
289.1761652476712
 30
0.0
  0
VERTEX
  5
41E5
330
41DF
100
AcDbEntity
  8
MODEL
100
AcDbVertex
100
AcDb2dVertex
 10
318.6812693603858
 20
289.1775432977304
 30
0.0
  0
VERTEX
  5
41E6
330
41DF
100
AcDbEntity
  8
MODEL
100
AcDbVertex
100
AcDb2dVertex
 10
318.7012510862455
 20
289.1789213477898
 30
0.0
  0
VERTEX
  5
41E7
330
41DF
100
AcDbEntity
  8
MODEL
100
AcDbVertex
100
AcDb2dVertex
 10
318.7246779372533
 20
289.1802993978491
 30
0.0
  0
VERTEX
  5
41E8
330
41DF
100
AcDbEntity
  8
MODEL
100
AcDbVertex
100
AcDb2dVertex
 10
318.7405255129349
 20
289.1802993978491
 30
0.0
  0
VERTEX
  5
41E9
330
41DF
100
AcDbEntity
  8
MODEL
100
AcDbVertex
100
AcDb2dVertex
 10
318.7811779896838
 20
289.1802993978491
 30
0.0
  0
VERTEX
  5
41EA
330
41DF
100
AcDbEntity
  8
MODEL
100
AcDbVertex
100
AcDb2dVertex
 10
318.8066719157805
 20
289.1802993978491
 30
0.0
  0
VERTEX
  5
41EB
330
41DF
100
AcDbEntity
  8
MODEL
100
AcDbVertex
100
AcDb2dVertex
 10
318.8473243925293
 20
289.1802993978491
 30
0.0
  0
VERTEX
  5
41EC
330
41DF
100
AcDbEntity
  8
MODEL
100
AcDbVertex
100
AcDb2dVertex
 10
318.8776414938336
 20
289.1789213477898
 30
0.0
  0
VERTEX
  5
41ED
330
41DF
100
AcDbEntity
  8
MODEL
100
AcDbVertex
100
AcDb2dVertex
 10
318.9182939705823
 20
289.1775432977304
 30
0.0
  0
VERTEX
  5
41EE
330
41DF
100
AcDbEntity
  8
MODEL
100
AcDbVertex
100
AcDb2dVertex
 10
318.9479220468569
 20
289.1761652476712
 30
0.0
  0
VERTEX
  5
41EF
330
41DF
100
AcDbEntity
  8
MODEL
100
AcDbVertex
100
AcDb2dVertex
 10
318.9899525736651
 20
289.1747871976119
 30
0.0
  0
VERTEX
  5
41F0
330
41DF
100
AcDbEntity
  8
MODEL
100
AcDbVertex
100
AcDb2dVertex
 10
319.0140684497025
 20
289.1734091475526
 30
0.0
  0
VERTEX
  5
41F1
330
41DF
100
AcDbEntity
  8
MODEL
100
AcDbVertex
100
AcDb2dVertex
 10
319.0554099514809
 20
289.1706530474341
 30
0.0
  0
SEQEND
  5
41F2
330
41DF
100
AcDbEntity
  8
MODEL
  0
POLYLINE
  5
41F3
330
A
100
AcDbEntity
  8
MODEL
100
AcDb2dPolyline
 66
     1
 10
0.0
 20
0.0
 30
0.0
  0
VERTEX
  5
41F4
330
41F3
100
AcDbEntity
  8
MODEL
100
AcDbVertex
100
AcDb2dVertex
 10
318.5076350529164
 20
289.1541164467226
 30
0.0
  0
VERTEX
  5
41F5
330
41F3
100
AcDbEntity
  8
MODEL
100
AcDbVertex
100
AcDb2dVertex
 10
318.510391153035
 20
289.1541164467226
 30
0.0
  0
VERTEX
  5
41F6
330
41F3
100
AcDbEntity
  8
MODEL
100
AcDbVertex
100
AcDb2dVertex
 10
318.5227936035685
 20
289.1527383966634
 30
0.0
  0
VERTEX
  5
41F7
330
41F3
100
AcDbEntity
  8
MODEL
100
AcDbVertex
100
AcDb2dVertex
 10
318.5372631291909
 20
289.1527383966634
 30
0.0
  0
VERTEX
  5
41F8
330
41F3
100
AcDbEntity
  8
MODEL
100
AcDbVertex
100
AcDb2dVertex
 10
318.5496655797244
 20
289.1527383966634
 30
0.0
  0
VERTEX
  5
41F9
330
41F3
100
AcDbEntity
  8
MODEL
100
AcDbVertex
100
AcDb2dVertex
 10
318.5641351053469
 20
289.1513603466041
 30
0.0
  0
VERTEX
  5
41FA
330
41F3
100
AcDbEntity
  8
MODEL
100
AcDbVertex
100
AcDb2dVertex
 10
318.5737814557619
 20
289.1513603466041
 30
0.0
  0
VERTEX
  5
41FB
330
41F3
100
AcDbEntity
  8
MODEL
100
AcDbVertex
100
AcDb2dVertex
 10
318.5875619563548
 20
289.1513603466041
 30
0.0
  0
VERTEX
  5
41FC
330
41F3
100
AcDbEntity
  8
MODEL
100
AcDbVertex
100
AcDb2dVertex
 10
318.5937631816215
 20
289.1513603466041
 30
0.0
  0
VERTEX
  5
41FD
330
41F3
100
AcDbEntity
  8
MODEL
100
AcDbVertex
100
AcDb2dVertex
 10
318.6075436822143
 20
289.1513603466041
 30
0.0
  0
VERTEX
  5
41FE
330
41F3
100
AcDbEntity
  8
MODEL
100
AcDbVertex
100
AcDb2dVertex
 10
318.6102997823328
 20
289.1513603466041
 30
0.0
  0
VERTEX
  5
41FF
330
41F3
100
AcDbEntity
  8
MODEL
100
AcDbVertex
100
AcDb2dVertex
 10
318.6233912578961
 20
289.1513603466041
 30
0.0
  0
VERTEX
  5
4200
330
41F3
100
AcDbEntity
  8
MODEL
100
AcDbVertex
100
AcDb2dVertex
 10
318.6344156583702
 20
289.1513603466041
 30
0.0
  0
VERTEX
  5
4201
330
41F3
100
AcDbEntity
  8
MODEL
100
AcDbVertex
100
AcDb2dVertex
 10
318.6413059086667
 20
289.1527383966634
 30
0.0
  0
VERTEX
  5
4202
330
41F3
100
AcDbEntity
  8
MODEL
100
AcDbVertex
100
AcDb2dVertex
 10
318.6440620087853
 20
289.1541164467226
 30
0.0
  0
SEQEND
  5
4203
330
41F3
100
AcDbEntity
  8
MODEL
  0
POLYLINE
  5
4204
102
{ACAD_REACTORS
330
456F
102
}
330
A
100
AcDbEntity
  8
HIDDEN
 48
0.25
100
AcDb2dPolyline
 66
     1
 10
0.0
 20
0.0
 30
0.0
  0
VERTEX
  5
4205
330
4204
100
AcDbEntity
  8
HIDDEN
 48
0.25
100
AcDbVertex
100
AcDb2dVertex
 10
65.54049231566194
 20
289.1706530474341
 30
0.0
  0
VERTEX
  5
4206
330
4204
100
AcDbEntity
  8
HIDDEN
 48
0.25
100
AcDbVertex
100
AcDb2dVertex
 10
65.5611630665511
 20
289.1734091475527
 30
0.0
  0
VERTEX
  5
4207
330
4204
100
AcDbEntity
  8
HIDDEN
 48
0.25
100
AcDbVertex
100
AcDb2dVertex
 10
65.5859679676181
 20
289.174787197612
 30
0.0
  0
VERTEX
  5
4208
330
4204
100
AcDbEntity
  8
HIDDEN
 48
0.25
100
AcDbVertex
100
AcDb2dVertex
 10
65.5969923680924
 20
289.1761652476713
 30
0.0
  0
VERTEX
  5
4209
330
4204
100
AcDbEntity
  8
HIDDEN
 48
0.25
100
AcDbVertex
100
AcDb2dVertex
 10
65.62317531921883
 20
289.1775432977305
 30
0.0
  0
VERTEX
  5
420A
330
4204
100
AcDbEntity
  8
HIDDEN
 48
0.25
100
AcDbVertex
100
AcDb2dVertex
 10
65.64798022028583
 20
289.1775432977305
 30
0.0
  0
VERTEX
  5
420B
330
4204
100
AcDbEntity
  8
HIDDEN
 48
0.25
100
AcDbVertex
100
AcDb2dVertex
 10
65.66865097117523
 20
289.1789213477898
 30
0.0
  0
VERTEX
  5
420C
330
4204
100
AcDbEntity
  8
HIDDEN
 48
0.25
100
AcDbVertex
100
AcDb2dVertex
 10
65.69345587224223
 20
289.1789213477898
 30
0.0
  0
VERTEX
  5
420D
330
4204
100
AcDbEntity
  8
HIDDEN
 48
0.25
100
AcDbVertex
100
AcDb2dVertex
 10
65.71963882336865
 20
289.1802993978491
 30
0.0
  0
VERTEX
  5
420E
330
4204
100
AcDbEntity
  8
HIDDEN
 48
0.25
100
AcDbVertex
100
AcDb2dVertex
 10
65.74444372443565
 20
289.1802993978491
 30
0.0
  0
VERTEX
  5
420F
330
4204
100
AcDbEntity
  8
HIDDEN
 48
0.25
100
AcDbVertex
100
AcDb2dVertex
 10
65.76924862550266
 20
289.1802993978491
 30
0.0
  0
VERTEX
  5
4210
330
4204
100
AcDbEntity
  8
HIDDEN
 48
0.25
100
AcDbVertex
100
AcDb2dVertex
 10
65.79680962668829
 20
289.1802993978491
 30
0.0
  0
SEQEND
  5
4211
330
4204
100
AcDbEntity
  8
HIDDEN
 48
0.25
  0
POLYLINE
  5
4212
330
A
100
AcDbEntity
  8
MODEL
100
AcDb2dPolyline
 66
     1
 10
0.0
 20
0.0
 30
0.0
  0
VERTEX
  5
4213
330
4212
100
AcDbEntity
  8
MODEL
100
AcDbVertex
100
AcDb2dVertex
 10
65.144991948648
 20
289.1541164467227
 30
0.0
  0
VERTEX
  5
4214
330
4212
100
AcDbEntity
  8
MODEL
100
AcDbVertex
100
AcDb2dVertex
 10
65.16290659941876
 20
289.1527383966635
 30
0.0
  0
VERTEX
  5
4215
330
4212
100
AcDbEntity
  8
MODEL
100
AcDbVertex
100
AcDb2dVertex
 10
65.18633345042656
 20
289.1527383966635
 30
0.0
  0
VERTEX
  5
4216
330
4212
100
AcDbEntity
  8
MODEL
100
AcDbVertex
100
AcDb2dVertex
 10
65.21113835149356
 20
289.1513603466042
 30
0.0
  0
VERTEX
  5
4217
330
4212
100
AcDbEntity
  8
MODEL
100
AcDbVertex
100
AcDb2dVertex
 10
65.23318715244216
 20
289.1513603466042
 30
0.0
  0
VERTEX
  5
4218
330
4212
100
AcDbEntity
  8
MODEL
100
AcDbVertex
100
AcDb2dVertex
 10
65.25799205350916
 20
289.1513603466042
 30
0.0
  0
VERTEX
  5
4219
330
4212
100
AcDbEntity
  8
MODEL
100
AcDbVertex
100
AcDb2dVertex
 10
65.28141890451695
 20
289.1513603466042
 30
0.0
  0
VERTEX
  5
421A
330
4212
100
AcDbEntity
  8
MODEL
100
AcDbVertex
100
AcDb2dVertex
 10
65.29106525493182
 20
289.1513603466042
 30
0.0
  0
VERTEX
  5
421B
330
4212
100
AcDbEntity
  8
MODEL
100
AcDbVertex
100
AcDb2dVertex
 10
65.31311405588042
 20
289.1513603466042
 30
0.0
  0
VERTEX
  5
421C
330
4212
100
AcDbEntity
  8
MODEL
100
AcDbVertex
100
AcDb2dVertex
 10
65.33791895694742
 20
289.1513603466042
 30
0.0
  0
VERTEX
  5
421D
330
4212
100
AcDbEntity
  8
MODEL
100
AcDbVertex
100
AcDb2dVertex
 10
65.35721165777738
 20
289.1527383966635
 30
0.0
  0
VERTEX
  5
421E
330
4212
100
AcDbEntity
  8
MODEL
100
AcDbVertex
100
AcDb2dVertex
 10
65.38201655884438
 20
289.1541164467227
 30
0.0
  0
SEQEND
  5
421F
330
4212
100
AcDbEntity
  8
MODEL
  0
POLYLINE
  5
4220
330
A
100
AcDbEntity
  8
MODEL
100
AcDb2dPolyline
 66
     1
 10
0.0
 20
0.0
 30
0.0
  0
VERTEX
  5
4221
330
4220
100
AcDbEntity
  8
MODEL
100
AcDbVertex
100
AcDb2dVertex
 10
64.55380847321601
 20
289.1775432977305
 30
0.0
  0
VERTEX
  5
4222
330
4220
100
AcDbEntity
  8
MODEL
100
AcDbVertex
100
AcDb2dVertex
 10
64.55518652327544
 20
289.1789213477898
 30
0.0
  0
VERTEX
  5
4223
330
4220
100
AcDbEntity
  8
MODEL
100
AcDbVertex
100
AcDb2dVertex
 10
64.55932067345327
 20
289.1789213477898
 30
0.0
  0
VERTEX
  5
4224
330
4220
100
AcDbEntity
  8
MODEL
100
AcDbVertex
100
AcDb2dVertex
 10
64.5648328736903
 20
289.1802993978491
 30
0.0
  0
VERTEX
  5
4225
330
4220
100
AcDbEntity
  8
MODEL
100
AcDbVertex
100
AcDb2dVertex
 10
64.5758572741646
 20
289.1802993978491
 30
0.0
  0
VERTEX
  5
4226
330
4220
100
AcDbEntity
  8
MODEL
100
AcDbVertex
100
AcDb2dVertex
 10
64.5868816746389
 20
289.1802993978491
 30
0.0
  0
VERTEX
  5
4227
330
4220
100
AcDbEntity
  8
MODEL
100
AcDbVertex
100
AcDb2dVertex
 10
64.6006621752316
 20
289.1802993978491
 30
0.0
  0
VERTEX
  5
4228
330
4220
100
AcDbEntity
  8
MODEL
100
AcDbVertex
100
AcDb2dVertex
 10
64.60617437546887
 20
289.1802993978491
 30
0.0
  0
VERTEX
  5
4229
330
4220
100
AcDbEntity
  8
MODEL
100
AcDbVertex
100
AcDb2dVertex
 10
64.6351134267137
 20
289.1789213477898
 30
0.0
  0
VERTEX
  5
422A
330
4220
100
AcDbEntity
  8
MODEL
100
AcDbVertex
100
AcDb2dVertex
 10
64.64889392730663
 20
289.1789213477898
 30
0.0
  0
VERTEX
  5
422B
330
4220
100
AcDbEntity
  8
MODEL
100
AcDbVertex
100
AcDb2dVertex
 10
64.67507687843283
 20
289.1775432977305
 30
0.0
  0
VERTEX
  5
422C
330
4220
100
AcDbEntity
  8
MODEL
100
AcDbVertex
100
AcDb2dVertex
 10
64.69574762932223
 20
289.1775432977305
 30
0.0
  0
VERTEX
  5
422D
330
4220
100
AcDbEntity
  8
MODEL
100
AcDbVertex
100
AcDb2dVertex
 10
64.72330863050786
 20
289.1761652476713
 30
0.0
  0
VERTEX
  5
422E
330
4220
100
AcDbEntity
  8
MODEL
100
AcDbVertex
100
AcDb2dVertex
 10
64.74673548151566
 20
289.174787197612
 30
0.0
  0
VERTEX
  5
422F
330
4220
100
AcDbEntity
  8
MODEL
100
AcDbVertex
100
AcDb2dVertex
 10
64.77429648270129
 20
289.1734091475527
 30
0.0
  0
VERTEX
  5
4230
330
4220
100
AcDbEntity
  8
MODEL
100
AcDbVertex
100
AcDb2dVertex
 10
64.80047943382749
 20
289.1720310974935
 30
0.0
  0
VERTEX
  5
4231
330
4220
100
AcDbEntity
  8
MODEL
100
AcDbVertex
100
AcDb2dVertex
 10
64.82804043501312
 20
289.1706530474341
 30
0.0
  0
SEQEND
  5
4232
330
4220
100
AcDbEntity
  8
MODEL
  0
POLYLINE
  5
4233
330
A
100
AcDbEntity
  8
MODEL
100
AcDb2dPolyline
 66
     1
 10
0.0
 20
0.0
 30
0.0
  0
VERTEX
  5
4234
330
4233
100
AcDbEntity
  8
MODEL
100
AcDbVertex
100
AcDb2dVertex
 10
64.59101582481674
 20
289.1706530474341
 30
0.0
  0
VERTEX
  5
4235
330
4233
100
AcDbEntity
  8
MODEL
100
AcDbVertex
100
AcDb2dVertex
 10
64.58963777475753
 20
289.1706530474341
 30
0.0
  0
VERTEX
  5
4236
330
4233
100
AcDbEntity
  8
MODEL
100
AcDbVertex
100
AcDb2dVertex
 10
64.5868816746389
 20
289.1706530474341
 30
0.0
  0
VERTEX
  5
4237
330
4233
100
AcDbEntity
  8
MODEL
100
AcDbVertex
100
AcDb2dVertex
 10
64.58274752446107
 20
289.1720310974935
 30
0.0
  0
VERTEX
  5
4238
330
4233
100
AcDbEntity
  8
MODEL
100
AcDbVertex
100
AcDb2dVertex
 10
64.57861337428324
 20
289.1720310974935
 30
0.0
  0
VERTEX
  5
4239
330
4233
100
AcDbEntity
  8
MODEL
100
AcDbVertex
100
AcDb2dVertex
 10
64.5758572741646
 20
289.1734091475527
 30
0.0
  0
VERTEX
  5
423A
330
4233
100
AcDbEntity
  8
MODEL
100
AcDbVertex
100
AcDb2dVertex
 10
64.5744792241054
 20
289.1734091475527
 30
0.0
  0
VERTEX
  5
423B
330
4233
100
AcDbEntity
  8
MODEL
100
AcDbVertex
100
AcDb2dVertex
 10
64.57034507392757
 20
289.1734091475527
 30
0.0
  0
VERTEX
  5
423C
330
4233
100
AcDbEntity
  8
MODEL
100
AcDbVertex
100
AcDb2dVertex
 10
64.56621092374974
 20
289.1734091475527
 30
0.0
  0
VERTEX
  5
423D
330
4233
100
AcDbEntity
  8
MODEL
100
AcDbVertex
100
AcDb2dVertex
 10
64.5634548236311
 20
289.174787197612
 30
0.0
  0
VERTEX
  5
423E
330
4233
100
AcDbEntity
  8
MODEL
100
AcDbVertex
100
AcDb2dVertex
 10
64.5620767735719
 20
289.174787197612
 30
0.0
  0
VERTEX
  5
423F
330
4233
100
AcDbEntity
  8
MODEL
100
AcDbVertex
100
AcDb2dVertex
 10
64.55932067345327
 20
289.1761652476713
 30
0.0
  0
VERTEX
  5
4240
330
4233
100
AcDbEntity
  8
MODEL
100
AcDbVertex
100
AcDb2dVertex
 10
64.55656457333464
 20
289.1761652476713
 30
0.0
  0
VERTEX
  5
4241
330
4233
100
AcDbEntity
  8
MODEL
100
AcDbVertex
100
AcDb2dVertex
 10
64.55380847321601
 20
289.1775432977305
 30
0.0
  0
SEQEND
  5
4242
330
4233
100
AcDbEntity
  8
MODEL
  0
POLYLINE
  5
4243
330
A
100
AcDbEntity
  8
MODEL
100
AcDb2dPolyline
 66
     1
 10
0.0
 20
0.0
 30
0.0
  0
VERTEX
  5
4244
330
4243
100
AcDbEntity
  8
MODEL
100
AcDbVertex
100
AcDb2dVertex
 10
121.7263493326995
 20
289.1706530474341
 30
0.0
  0
VERTEX
  5
4245
330
4243
100
AcDbEntity
  8
MODEL
100
AcDbVertex
100
AcDb2dVertex
 10
121.7525322838257
 20
289.1720310974935
 30
0.0
  0
VERTEX
  5
4246
330
4243
100
AcDbEntity
  8
MODEL
100
AcDbVertex
100
AcDb2dVertex
 10
121.7800932850113
 20
289.1734091475527
 30
0.0
  0
VERTEX
  5
4247
330
4243
100
AcDbEntity
  8
MODEL
100
AcDbVertex
100
AcDb2dVertex
 10
121.8048981860785
 20
289.174787197612
 30
0.0
  0
VERTEX
  5
4248
330
4243
100
AcDbEntity
  8
MODEL
100
AcDbVertex
100
AcDb2dVertex
 10
121.8310811372047
 20
289.1761652476713
 30
0.0
  0
VERTEX
  5
4249
330
4243
100
AcDbEntity
  8
MODEL
100
AcDbVertex
100
AcDb2dVertex
 10
121.8503738380347
 20
289.1775432977305
 30
0.0
  0
VERTEX
  5
424A
330
4243
100
AcDbEntity
  8
MODEL
100
AcDbVertex
100
AcDb2dVertex
 10
121.8793128892798
 20
289.1789213477898
 30
0.0
  0
VERTEX
  5
424B
330
4243
100
AcDbEntity
  8
MODEL
100
AcDbVertex
100
AcDb2dVertex
 10
121.8930933898725
 20
289.1789213477898
 30
0.0
  0
VERTEX
  5
424C
330
4243
100
AcDbEntity
  8
MODEL
100
AcDbVertex
100
AcDb2dVertex
 10
121.9206543910581
 20
289.1802993978491
 30
0.0
  0
VERTEX
  5
424D
330
4243
100
AcDbEntity
  8
MODEL
100
AcDbVertex
100
AcDb2dVertex
 10
121.9275446413546
 20
289.1802993978491
 30
0.0
  0
VERTEX
  5
424E
330
4243
100
AcDbEntity
  8
MODEL
100
AcDbVertex
100
AcDb2dVertex
 10
121.953727592481
 20
289.1802993978491
 30
0.0
  0
VERTEX
  5
424F
330
4243
100
AcDbEntity
  8
MODEL
100
AcDbVertex
100
AcDb2dVertex
 10
121.9675080930737
 20
289.1802993978491
 30
0.0
  0
VERTEX
  5
4250
330
4243
100
AcDbEntity
  8
MODEL
100
AcDbVertex
100
AcDb2dVertex
 10
121.9799105436074
 20
289.1802993978491
 30
0.0
  0
VERTEX
  5
4251
330
4243
100
AcDbEntity
  8
MODEL
100
AcDbVertex
100
AcDb2dVertex
 10
121.9895568940223
 20
289.1802993978491
 30
0.0
  0
VERTEX
  5
4252
330
4243
100
AcDbEntity
  8
MODEL
100
AcDbVertex
100
AcDb2dVertex
 10
121.9950690942593
 20
289.1789213477898
 30
0.0
  0
VERTEX
  5
4253
330
4243
100
AcDbEntity
  8
MODEL
100
AcDbVertex
100
AcDb2dVertex
 10
121.9992032444372
 20
289.1789213477898
 30
0.0
  0
VERTEX
  5
4254
330
4243
100
AcDbEntity
  8
MODEL
100
AcDbVertex
100
AcDb2dVertex
 10
122.0005812944966
 20
289.1789213477898
 30
0.0
  0
VERTEX
  5
4255
330
4243
100
AcDbEntity
  8
MODEL
100
AcDbVertex
100
AcDb2dVertex
 10
122.0005812944966
 20
289.1775432977305
 30
0.0
  0
SEQEND
  5
4256
330
4243
100
AcDbEntity
  8
MODEL
  0
POLYLINE
  5
4257
330
A
100
AcDbEntity
  8
MODEL
100
AcDb2dPolyline
 66
     1
 10
0.0
 20
0.0
 30
0.0
  0
VERTEX
  5
4258
330
4257
100
AcDbEntity
  8
MODEL
100
AcDbVertex
100
AcDb2dVertex
 10
121.1737512589274
 20
289.1541164467227
 30
0.0
  0
VERTEX
  5
4259
330
4257
100
AcDbEntity
  8
MODEL
100
AcDbVertex
100
AcDb2dVertex
 10
121.1930439597574
 20
289.1527383966635
 30
0.0
  0
VERTEX
  5
425A
330
4257
100
AcDbEntity
  8
MODEL
100
AcDbVertex
100
AcDb2dVertex
 10
121.2164708107652
 20
289.1513603466042
 30
0.0
  0
VERTEX
  5
425B
330
4257
100
AcDbEntity
  8
MODEL
100
AcDbVertex
100
AcDb2dVertex
 10
121.2247391111208
 20
289.1513603466042
 30
0.0
  0
VERTEX
  5
425C
330
4257
100
AcDbEntity
  8
MODEL
100
AcDbVertex
100
AcDb2dVertex
 10
121.2495440121878
 20
289.1513603466042
 30
0.0
  0
VERTEX
  5
425D
330
4257
100
AcDbEntity
  8
MODEL
100
AcDbVertex
100
AcDb2dVertex
 10
121.2729708631956
 20
289.1513603466042
 30
0.0
  0
VERTEX
  5
425E
330
4257
100
AcDbEntity
  8
MODEL
100
AcDbVertex
100
AcDb2dVertex
 10
121.2922635640256
 20
289.1513603466042
 30
0.0
  0
VERTEX
  5
425F
330
4257
100
AcDbEntity
  8
MODEL
100
AcDbVertex
100
AcDb2dVertex
 10
121.3156904150334
 20
289.1513603466042
 30
0.0
  0
VERTEX
  5
4260
330
4257
100
AcDbEntity
  8
MODEL
100
AcDbVertex
100
AcDb2dVertex
 10
121.3391172660412
 20
289.1513603466042
 30
0.0
  0
VERTEX
  5
4261
330
4257
100
AcDbEntity
  8
MODEL
100
AcDbVertex
100
AcDb2dVertex
 10
121.3639221671082
 20
289.1527383966635
 30
0.0
  0
VERTEX
  5
4262
330
4257
100
AcDbEntity
  8
MODEL
100
AcDbVertex
100
AcDb2dVertex
 10
121.3859709680568
 20
289.1527383966635
 30
0.0
  0
VERTEX
  5
4263
330
4257
100
AcDbEntity
  8
MODEL
100
AcDbVertex
100
AcDb2dVertex
 10
121.4107758691238
 20
289.1541164467227
 30
0.0
  0
SEQEND
  5
4264
330
4257
100
AcDbEntity
  8
MODEL
  0
POLYLINE
  5
4265
330
A
100
AcDbEntity
  8
MODEL
100
AcDb2dPolyline
 66
     1
 10
0.0
 20
0.0
 30
0.0
  0
VERTEX
  5
4266
330
4265
100
AcDbEntity
  8
MODEL
100
AcDbVertex
100
AcDb2dVertex
 10
120.7589581910835
 20
289.1802993978491
 30
0.0
  0
VERTEX
  5
4267
330
4265
100
AcDbEntity
  8
MODEL
100
AcDbVertex
100
AcDb2dVertex
 10
120.7782508919135
 20
289.1802993978491
 30
0.0
  0
VERTEX
  5
4268
330
4265
100
AcDbEntity
  8
MODEL
100
AcDbVertex
100
AcDb2dVertex
 10
120.8044338430399
 20
289.1802993978491
 30
0.0
  0
VERTEX
  5
4269
330
4265
100
AcDbEntity
  8
MODEL
100
AcDbVertex
100
AcDb2dVertex
 10
120.8292387441069
 20
289.1802993978491
 30
0.0
  0
VERTEX
  5
426A
330
4265
100
AcDbEntity
  8
MODEL
100
AcDbVertex
100
AcDb2dVertex
 10
120.8540436451741
 20
289.1789213477898
 30
0.0
  0
VERTEX
  5
426B
330
4265
100
AcDbEntity
  8
MODEL
100
AcDbVertex
100
AcDb2dVertex
 10
120.8816046463598
 20
289.1789213477898
 30
0.0
  0
VERTEX
  5
426C
330
4265
100
AcDbEntity
  8
MODEL
100
AcDbVertex
100
AcDb2dVertex
 10
120.9064095474268
 20
289.1775432977305
 30
0.0
  0
VERTEX
  5
426D
330
4265
100
AcDbEntity
  8
MODEL
100
AcDbVertex
100
AcDb2dVertex
 10
120.9160558978416
 20
289.1775432977305
 30
0.0
  0
VERTEX
  5
426E
330
4265
100
AcDbEntity
  8
MODEL
100
AcDbVertex
100
AcDb2dVertex
 10
120.9422388489681
 20
289.1761652476713
 30
0.0
  0
VERTEX
  5
426F
330
4265
100
AcDbEntity
  8
MODEL
100
AcDbVertex
100
AcDb2dVertex
 10
120.9670437500351
 20
289.174787197612
 30
0.0
  0
VERTEX
  5
4270
330
4265
100
AcDbEntity
  8
MODEL
100
AcDbVertex
100
AcDb2dVertex
 10
120.9904706010429
 20
289.1734091475527
 30
0.0
  0
VERTEX
  5
4271
330
4265
100
AcDbEntity
  8
MODEL
100
AcDbVertex
100
AcDb2dVertex
 10
121.0152755021101
 20
289.1706530474341
 30
0.0
  0
SEQEND
  5
4272
330
4265
100
AcDbEntity
  8
MODEL
  0
POLYLINE
  5
4273
330
A
100
AcDbEntity
  8
MODEL
100
AcDb2dPolyline
 66
     1
 10
0.0
 20
0.0
 30
0.0
  0
VERTEX
  5
4274
330
4273
100
AcDbEntity
  8
MODEL
100
AcDbVertex
100
AcDb2dVertex
 10
122.0005812944966
 20
289.1775432977305
 30
0.0
  0
VERTEX
  5
4275
330
4273
100
AcDbEntity
  8
MODEL
100
AcDbVertex
100
AcDb2dVertex
 10
122.0005812944966
 20
289.1761652476713
 30
0.0
  0
VERTEX
  5
4276
330
4273
100
AcDbEntity
  8
MODEL
100
AcDbVertex
100
AcDb2dVertex
 10
121.997825194378
 20
289.1761652476713
 30
0.0
  0
VERTEX
  5
4277
330
4273
100
AcDbEntity
  8
MODEL
100
AcDbVertex
100
AcDb2dVertex
 10
121.9950690942593
 20
289.174787197612
 30
0.0
  0
VERTEX
  5
4278
330
4273
100
AcDbEntity
  8
MODEL
100
AcDbVertex
100
AcDb2dVertex
 10
121.9909349440815
 20
289.174787197612
 30
0.0
  0
VERTEX
  5
4279
330
4273
100
AcDbEntity
  8
MODEL
100
AcDbVertex
100
AcDb2dVertex
 10
121.9868007939037
 20
289.1734091475527
 30
0.0
  0
VERTEX
  5
427A
330
4273
100
AcDbEntity
  8
MODEL
100
AcDbVertex
100
AcDb2dVertex
 10
121.9840446937853
 20
289.1734091475527
 30
0.0
  0
VERTEX
  5
427B
330
4273
100
AcDbEntity
  8
MODEL
100
AcDbVertex
100
AcDb2dVertex
 10
121.9799105436074
 20
289.1720310974935
 30
0.0
  0
VERTEX
  5
427C
330
4273
100
AcDbEntity
  8
MODEL
100
AcDbVertex
100
AcDb2dVertex
 10
121.9757763934294
 20
289.1720310974935
 30
0.0
  0
VERTEX
  5
427D
330
4273
100
AcDbEntity
  8
MODEL
100
AcDbVertex
100
AcDb2dVertex
 10
121.9716422432515
 20
289.1706530474341
 30
0.0
  0
VERTEX
  5
427E
330
4273
100
AcDbEntity
  8
MODEL
100
AcDbVertex
100
AcDb2dVertex
 10
121.9688861431331
 20
289.1706530474341
 30
0.0
  0
VERTEX
  5
427F
330
4273
100
AcDbEntity
  8
MODEL
100
AcDbVertex
100
AcDb2dVertex
 10
121.9647519929553
 20
289.1706530474341
 30
0.0
  0
SEQEND
  5
4280
330
4273
100
AcDbEntity
  8
MODEL
  0
POLYLINE
  5
4281
330
A
100
AcDbEntity
  8
MODEL
100
AcDb2dPolyline
 66
     1
 10
0.0
 20
0.0
 30
0.0
  0
VERTEX
  5
4282
330
4281
100
AcDbEntity
  8
MODEL
100
AcDbVertex
100
AcDb2dVertex
 10
262.2067108559289
 20
332.7184129707982
 30
0.0
  0
VERTEX
  5
4283
330
4281
100
AcDbEntity
  8
MODEL
100
AcDbVertex
100
AcDb2dVertex
 10
248.9664058863493
 20
332.7184129707982
 30
0.0
  0
SEQEND
  5
4284
330
4281
100
AcDbEntity
  8
MODEL
  0
POLYLINE
  5
4285
330
A
100
AcDbEntity
  8
MODEL
100
AcDb2dPolyline
 66
     1
 10
0.0
 20
0.0
 30
0.0
  0
VERTEX
  5
4286
330
4285
100
AcDbEntity
  8
MODEL
100
AcDbVertex
100
AcDb2dVertex
 10
350.208298616635
 20
289.7177389209689
 30
0.0
  0
VERTEX
  5
4287
330
4285
100
AcDbEntity
  8
MODEL
100
AcDbVertex
100
AcDb2dVertex
 10
350.2165669169906
 20
289.2188847995089
 30
0.0
  0
SEQEND
  5
4288
330
4285
100
AcDbEntity
  8
MODEL
  0
POLYLINE
  5
4289
330
A
100
AcDbEntity
  8
MODEL
100
AcDb2dPolyline
 66
     1
 10
0.0
 20
0.0
 30
0.0
  0
VERTEX
  5
428A
330
4289
100
AcDbEntity
  8
MODEL
100
AcDbVertex
100
AcDb2dVertex
 10
52.53583390621964
 20
289.717738920969
 30
0.0
  0
VERTEX
  5
428B
330
4289
100
AcDbEntity
  8
MODEL
100
AcDbVertex
100
AcDb2dVertex
 10
52.52756560586397
 20
289.218884799509
 30
0.0
  0
SEQEND
  5
428C
330
4289
100
AcDbEntity
  8
MODEL
  0
POLYLINE
  5
428D
102
{ACAD_REACTORS
330
456F
102
}
330
A
100
AcDbEntity
  8
HIDDEN
 48
0.25
100
AcDb2dPolyline
 66
     1
 10
0.0
 20
0.0
 30
0.0
  0
VERTEX
  5
428E
330
428D
100
AcDbEntity
  8
HIDDEN
 48
0.25
100
AcDbVertex
100
AcDb2dVertex
 10
104.7777116535926
 20
306.2005956800386
 30
0.0
  0
VERTEX
  5
428F
330
428D
100
AcDbEntity
  8
HIDDEN
 48
0.25
100
AcDbVertex
100
AcDb2dVertex
 10
101.7776966745361
 20
306.2005956800386
 30
0.0
  0
SEQEND
  5
4290
330
428D
100
AcDbEntity
  8
HIDDEN
 48
0.25
  0
POLYLINE
  5
4291
102
{ACAD_REACTORS
330
456F
102
}
330
A
100
AcDbEntity
  8
HIDDEN
 48
0.25
100
AcDb2dPolyline
 66
     1
 10
0.0
 20
0.0
 30
0.0
  0
VERTEX
  5
4292
330
4291
100
AcDbEntity
  8
HIDDEN
 48
0.25
100
AcDbVertex
100
AcDb2dVertex
 10
80.82031137297838
 20
307.1569624211801
 30
0.0
  0
VERTEX
  5
4293
330
4291
100
AcDbEntity
  8
HIDDEN
 48
0.25
100
AcDbVertex
100
AcDb2dVertex
 10
80.82031137297838
 20
310.1569774002367
 30
0.0
  0
SEQEND
  5
4294
330
4291
100
AcDbEntity
  8
HIDDEN
 48
0.25
  0
POLYLINE
  5
4295
102
{ACAD_REACTORS
330
456F
102
}
330
A
100
AcDbEntity
  8
HIDDEN
 48
0.25
100
AcDb2dPolyline
 66
     1
 10
0.0
 20
0.0
 30
0.0
  0
VERTEX
  5
4296
330
4295
100
AcDbEntity
  8
HIDDEN
 48
0.25
100
AcDbVertex
100
AcDb2dVertex
 10
101.7776966745361
 20
311.1133441413782
 30
0.0
  0
VERTEX
  5
4297
330
4295
100
AcDbEntity
  8
HIDDEN
 48
0.25
100
AcDbVertex
100
AcDb2dVertex
 10
104.7777116535926
 20
311.1133441413782
 30
0.0
  0
SEQEND
  5
4298
330
4295
100
AcDbEntity
  8
HIDDEN
 48
0.25
  0
POLYLINE
  5
4299
102
{ACAD_REACTORS
330
456F
102
}
330
A
100
AcDbEntity
  8
HIDDEN
 48
0.25
100
AcDb2dPolyline
 66
     1
 10
0.0
 20
0.0
 30
0.0
  0
VERTEX
  5
429A
330
4299
100
AcDbEntity
  8
HIDDEN
 48
0.25
100
AcDbVertex
100
AcDb2dVertex
 10
85.73305983431817
 20
310.1569774002367
 30
0.0
  0
VERTEX
  5
429B
330
4299
100
AcDbEntity
  8
HIDDEN
 48
0.25
100
AcDbVertex
100
AcDb2dVertex
 10
85.73305983431817
 20
307.1569624211801
 30
0.0
  0
SEQEND
  5
429C
330
4299
100
AcDbEntity
  8
HIDDEN
 48
0.25
  0
POLYLINE
  5
429D
330
A
100
AcDbEntity
  8
MODEL
100
AcDb2dPolyline
 66
     1
 10
0.0
 20
0.0
 30
0.0
  0
VERTEX
  5
429E
330
429D
100
AcDbEntity
  8
MODEL
100
AcDbVertex
100
AcDb2dVertex
 10
134.018555861493
 20
289.717738920969
 30
0.0
  0
VERTEX
  5
429F
330
429D
100
AcDbEntity
  8
MODEL
100
AcDbVertex
100
AcDb2dVertex
 10
134.0268241618489
 20
289.218884799509
 30
0.0
  0
SEQEND
  5
42A0
330
429D
100
AcDbEntity
  8
MODEL
  0
SPLINE
  5
42A1
102
{ACAD_REACTORS
330
456F
102
}
330
A
100
AcDbEntity
  8
HIDDEN
 48
0.25
100
AcDbSpline
210
0.0
220
0.0
230
1.0
 70
     8
 71
     3
 72
     8
 73
     4
 74
     0
 42
0.000000001
 43
0.0000000001
 40
0.0
 40
0.0
 40
0.0
 40
0.0
 40
1.0
 40
1.0
 40
1.0
 40
1.0
 10
83.27737462867788
 20
304.6998991654807
 30
0.0
 10
84.63337588701131
 20
304.6998991654807
 30
0.0
 10
85.73305983431817
 20
305.8009611628469
 30
0.0
 10
85.73305983431817
 20
307.1569624211801
 30
0.0
  0
SPLINE
  5
42A2
102
{ACAD_REACTORS
330
456F
102
}
330
A
100
AcDbEntity
  8
HIDDEN
 48
0.25
100
AcDbSpline
210
0.0
220
0.0
230
1.0
 70
     8
 71
     3
 72
     8
 73
     4
 74
     0
 42
0.000000001
 43
0.0000000001
 40
0.0
 40
0.0
 40
0.0
 40
0.0
 40
1.0
 40
1.0
 40
1.0
 40
1.0
 10
80.82031137297838
 20
307.1569624211801
 30
0.0
 10
80.82031137297838
 20
305.8009611628469
 30
0.0
 10
81.91999532028547
 20
304.6998991654807
 30
0.0
 10
83.27737462867788
 20
304.6998991654807
 30
0.0
  0
SPLINE
  5
42A3
102
{ACAD_REACTORS
330
456F
102
}
330
A
100
AcDbEntity
  8
HIDDEN
 48
0.25
100
AcDbSpline
210
0.0
220
0.0
230
1.0
 70
     8
 71
     3
 72
     8
 73
     4
 74
     0
 42
0.000000001
 43
0.0000000001
 40
0.0
 40
0.0
 40
0.0
 40
0.0
 40
1.0
 40
1.0
 40
1.0
 40
1.0
 10
83.27737462867788
 20
312.6140406559361
 30
0.0
 10
81.92137337034467
 20
312.6140406559361
 30
0.0
 10
80.82168942303781
 20
311.5129786585699
 30
0.0
 10
80.82168942303781
 20
310.1569774002367
 30
0.0
  0
SPLINE
  5
42A4
102
{ACAD_REACTORS
330
456F
102
}
330
A
100
AcDbEntity
  8
HIDDEN
 48
0.25
100
AcDbSpline
210
0.0
220
0.0
230
1.0
 70
     8
 71
     3
 72
     8
 73
     4
 74
     0
 42
0.000000001
 43
0.0000000001
 40
0.0
 40
0.0
 40
0.0
 40
0.0
 40
1.0
 40
1.0
 40
1.0
 40
1.0
 10
85.73305983431817
 20
310.1569774002367
 30
0.0
 10
85.73305983431817
 20
311.5129786585699
 30
0.0
 10
84.63475393707051
 20
312.6140406559361
 30
0.0
 10
83.27737462867788
 20
312.6140406559361
 30
0.0
  0
SPLINE
  5
42A5
102
{ACAD_REACTORS
330
456F
102
}
330
A
100
AcDbEntity
  8
HIDDEN
 48
0.25
100
AcDbSpline
210
0.0
220
0.0
230
1.0
 70
     8
 71
     3
 72
     8
 73
     4
 74
     0
 42
0.000000001
 43
0.0000000001
 40
0.0
 40
0.0
 40
0.0
 40
0.0
 40
1.0
 40
1.0
 40
1.0
 40
1.0
 10
104.7777116535926
 20
311.1133441413782
 30
0.0
 10
106.1350909619852
 20
311.1133441413782
 30
0.0
 10
107.2333968592328
 20
310.012282144012
 30
0.0
 10
107.2333968592328
 20
308.6562808856788
 30
0.0
  0
SPLINE
  5
42A6
102
{ACAD_REACTORS
330
456F
102
}
330
A
100
AcDbEntity
  8
HIDDEN
 48
0.25
100
AcDbSpline
210
0.0
220
0.0
230
1.0
 70
     8
 71
     3
 72
     8
 73
     4
 74
     0
 42
0.000000001
 43
0.0000000001
 40
0.0
 40
0.0
 40
0.0
 40
0.0
 40
1.0
 40
1.0
 40
1.0
 40
1.0
 10
107.2333968592328
 20
308.6562808856788
 30
0.0
 10
107.2333968592328
 20
307.3002796273455
 30
0.0
 10
106.1350909619852
 20
306.1992176299793
 30
0.0
 10
104.7777116535926
 20
306.1992176299793
 30
0.0
  0
SPLINE
  5
42A7
102
{ACAD_REACTORS
330
456F
102
}
330
A
100
AcDbEntity
  8
HIDDEN
 48
0.25
100
AcDbSpline
210
0.0
220
0.0
230
1.0
 70
     8
 71
     3
 72
     8
 73
     4
 74
     0
 42
0.000000001
 43
0.0000000001
 40
0.0
 40
0.0
 40
0.0
 40
0.0
 40
1.0
 40
1.0
 40
1.0
 40
1.0
 10
99.32063341883656
 20
308.6562808856788
 30
0.0
 10
99.32063341883656
 20
307.3002796273455
 30
0.0
 10
100.4216954162029
 20
306.2005956800386
 30
0.0
 10
101.7776966745361
 20
306.2005956800386
 30
0.0
  0
SPLINE
  5
42A8
102
{ACAD_REACTORS
330
456F
102
}
330
A
100
AcDbEntity
  8
HIDDEN
 48
0.25
100
AcDbSpline
210
0.0
220
0.0
230
1.0
 70
     8
 71
     3
 72
     8
 73
     4
 74
     0
 42
0.000000001
 43
0.0000000001
 40
0.0
 40
0.0
 40
0.0
 40
0.0
 40
1.0
 40
1.0
 40
1.0
 40
1.0
 10
101.7776966745361
 20
311.1133441413782
 30
0.0
 10
100.4216954162029
 20
311.1133441413782
 30
0.0
 10
99.32063341883656
 20
310.0136601940713
 30
0.0
 10
99.32063341883656
 20
308.6562808856788
 30
0.0
  0
POLYLINE
  5
42A9
330
A
100
AcDbEntity
  8
MODEL
100
AcDb2dPolyline
 66
     1
 10
0.0
 20
0.0
 30
0.0
  0
VERTEX
  5
42AA
330
42A9
100
AcDbEntity
  8
MODEL
100
AcDbVertex
100
AcDb2dVertex
 10
252.4659640118954
 20
280.7176939837995
 30
0.0
  0
VERTEX
  5
42AB
330
42A9
100
AcDbEntity
  8
MODEL
100
AcDbVertex
100
AcDb2dVertex
 10
248.9664058863493
 20
280.7176939837995
 30
0.0
  0
SEQEND
  5
42AC
330
42A9
100
AcDbEntity
  8
MODEL
  0
POLYLINE
  5
42AD
102
{ACAD_REACTORS
330
45D9
102
}
330
A
100
AcDbEntity
  8
MODEL
100
AcDb2dPolyline
 66
     1
 10
0.0
 20
0.0
 30
0.0
  0
VERTEX
  5
42AE
330
42AD
100
AcDbEntity
  8
MODEL
100
AcDbVertex
100
AcDb2dVertex
 10
248.9657168613197
 20
280.7176939837995
 30
0.0
  0
VERTEX
  5
42AF
330
42AD
100
AcDbEntity
  8
MODEL
100
AcDbVertex
100
AcDb2dVertex
 10
248.9657168613197
 20
332.7177239457686
 30
0.0
  0
SEQEND
  5
42B0
330
42AD
100
AcDbEntity
  8
MODEL
  0
POLYLINE
  5
42B1
330
A
100
AcDbEntity
  8
MODEL
100
AcDb2dPolyline
 66
     1
 10
0.0
 20
0.0
 30
0.0
  0
VERTEX
  5
42B2
330
42B1
100
AcDbEntity
  8
MODEL
100
AcDbVertex
100
AcDb2dVertex
 10
336.3168649940447
 20
289.2175067494497
 30
0.0
  0
VERTEX
  5
42B3
330
42B1
100
AcDbEntity
  8
MODEL
100
AcDbVertex
100
AcDb2dVertex
 10
336.7199446363848
 20
288.0516763992973
 30
0.0
  0
SEQEND
  5
42B4
330
42B1
100
AcDbEntity
  8
MODEL
  0
POLYLINE
  5
42B5
330
A
100
AcDbEntity
  8
MODEL
100
AcDb2dPolyline
 66
     1
 10
0.0
 20
0.0
 30
0.0
  0
VERTEX
  5
42B6
330
42B5
100
AcDbEntity
  8
MODEL
100
AcDbVertex
100
AcDb2dVertex
 10
341.7167541513405
 20
289.2175067494497
 30
0.0
  0
VERTEX
  5
42B7
330
42B5
100
AcDbEntity
  8
MODEL
100
AcDbVertex
100
AcDb2dVertex
 10
341.3129854839709
 20
288.0516763992973
 30
0.0
  0
SEQEND
  5
42B8
330
42B5
100
AcDbEntity
  8
MODEL
  0
POLYLINE
  5
42B9
330
A
100
AcDbEntity
  8
MODEL
100
AcDb2dPolyline
 66
     1
 10
0.0
 20
0.0
 30
0.0
  0
VERTEX
  5
42BA
330
42B9
100
AcDbEntity
  8
MODEL
100
AcDbVertex
100
AcDb2dVertex
 10
354.4671623248453
 20
291.4182526941227
 30
0.0
  0
VERTEX
  5
42BB
330
42B9
100
AcDbEntity
  8
MODEL
100
AcDbVertex
100
AcDb2dVertex
 10
354.4671623248453
 20
290.0181538338924
 30
0.0
  0
SEQEND
  5
42BC
330
42B9
100
AcDbEntity
  8
MODEL
  0
SPLINE
  5
42BD
330
A
100
AcDbEntity
  8
MODEL
100
AcDbSpline
210
0.0
220
0.0
230
1.0
 70
     8
 71
     3
 72
     8
 73
     4
 74
     0
 42
0.000000001
 43
0.0000000001
 40
0.0
 40
0.0
 40
0.0
 40
0.0
 40
1.0
 40
1.0
 40
1.0
 40
1.0
 10
320.8365396531026
 20
289.1802993978491
 30
0.0
 10
320.933692182282
 20
289.1885676982047
 30
0.0
 10
321.0315337364909
 20
289.199592098679
 30
0.0
 10
321.1286862656704
 20
289.2106164991532
 30
0.0
  0
SPLINE
  5
42BE
330
A
100
AcDbEntity
  8
MODEL
100
AcDbSpline
210
0.0
220
0.0
230
1.0
 70
     8
 71
     3
 72
     8
 73
     4
 74
     0
 42
0.000000001
 43
0.0000000001
 40
0.0
 40
0.0
 40
0.0
 40
0.0
 40
1.0
 40
1.0
 40
1.0
 40
1.0
 10
317.8048295226827
 20
289.2106164991532
 30
0.0
 10
317.9026710768917
 20
289.199592098679
 30
0.0
 10
317.999823606071
 20
289.1885676982047
 30
0.0
 10
318.0969761352504
 20
289.1802993978491
 30
0.0
  0
SPLINE
  5
42BF
102
{ACAD_REACTORS
330
456F
102
}
330
A
100
AcDbEntity
  8
HIDDEN
 48
0.25
100
AcDbSpline
210
0.0
220
0.0
230
1.0
 70
    11
 71
     3
 72
    17
 73
    13
 74
     0
 42
0.000000001
 43
0.0000000001
 40
0.0
 40
0.0
 40
0.0
 40
0.0
 40
1.0
 40
1.0
 40
1.0
 40
2.0
 40
2.0
 40
2.0
 40
3.0
 40
3.0
 40
3.0
 40
4.0
 40
4.0
 40
4.0
 40
4.0
 10
119.2775543773556
 20
306.7173644522693
 30
0.0
 10
119.2775543773556
 20
321.0773350950153
 30
0.0
 10
107.6371655266022
 20
332.7177239457686
 30
0.0
 10
93.27788390888587
 20
332.7177239457686
 30
0.0
 10
78.91860229116958
 20
332.7177239457686
 30
0.0
 10
67.27821344041615
 20
321.0773350950153
 30
0.0
 10
67.27821344041615
 20
306.7173644522693
 30
0.0
 10
67.27821344041615
 20
292.3580828345529
 30
0.0
 10
78.91860229116958
 20
280.7176939837996
 30
0.0
 10
93.27788390888587
 20
280.7176939837996
 30
0.0
 10
107.6371655266022
 20
280.7176939837996
 30
0.0
 10
119.2775543773556
 20
292.3580828345529
 30
0.0
 10
119.2775543773556
 20
306.7173644522693
 30
0.0
  0
POLYLINE
  5
42C0
330
A
100
AcDbEntity
  8
MODEL
100
AcDb2dPolyline
 66
     1
 10
0.0
 20
0.0
 30
0.0
  0
VERTEX
  5
42C1
330
42C0
100
AcDbEntity
  8
MODEL
100
AcDbVertex
100
AcDb2dVertex
 10
354.966705471335
 20
291.7172895569868
 30
0.0
  0
VERTEX
  5
42C2
330
42C0
100
AcDbEntity
  8
MODEL
100
AcDbVertex
100
AcDb2dVertex
 10
268.0489540822541
 20
291.7172895569868
 30
0.0
  0
SEQEND
  5
42C3
330
42C0
100
AcDbEntity
  8
MODEL
  0
POLYLINE
  5
42C4
330
A
100
AcDbEntity
  8
MODEL
100
AcDb2dPolyline
 66
     1
 10
0.0
 20
0.0
 30
0.0
  0
VERTEX
  5
42C5
330
42C4
100
AcDbEntity
  8
MODEL
100
AcDbVertex
100
AcDb2dVertex
 10
355.4669376428542
 20
292.2175217285061
 30
0.0
  0
VERTEX
  5
42C6
330
42C4
100
AcDbEntity
  8
MODEL
100
AcDbVertex
100
AcDb2dVertex
 10
268.2143200893678
 20
292.2175217285061
 30
0.0
  0
SEQEND
  5
42C7
330
42C4
100
AcDbEntity
  8
MODEL
  0
POLYLINE
  5
42C8
330
A
100
AcDbEntity
  8
MODEL
100
AcDb2dPolyline
 66
     1
 10
0.0
 20
0.0
 30
0.0
  0
VERTEX
  5
42C9
330
42C8
100
AcDbEntity
  8
MODEL
100
AcDbVertex
100
AcDb2dVertex
 10
354.966705471335
 20
291.7172895569868
 30
0.0
  0
VERTEX
  5
42CA
330
42C8
100
AcDbEntity
  8
MODEL
100
AcDbVertex
100
AcDb2dVertex
 10
355.4662486178248
 20
292.2175217285061
 30
0.0
  0
SEQEND
  5
42CB
330
42C8
100
AcDbEntity
  8
MODEL
  0
POLYLINE
  5
42CC
330
A
100
AcDbEntity
  8
MODEL
100
AcDb2dPolyline
 66
     1
 10
0.0
 20
0.0
 30
0.0
  0
VERTEX
  5
42CD
330
42CC
100
AcDbEntity
  8
MODEL
100
AcDbVertex
100
AcDb2dVertex
 10
47.77742705151957
 20
291.7172895569869
 30
0.0
  0
VERTEX
  5
42CE
330
42CC
100
AcDbEntity
  8
MODEL
100
AcDbVertex
100
AcDb2dVertex
 10
47.27719488000014
 20
292.2175217285062
 30
0.0
  0
SEQEND
  5
42CF
330
42CC
100
AcDbEntity
  8
MODEL
  0
POLYLINE
  5
42D0
330
A
100
AcDbEntity
  8
MODEL
100
AcDb2dPolyline
 66
     1
 10
0.0
 20
0.0
 30
0.0
  0
VERTEX
  5
42D1
330
42D0
100
AcDbEntity
  8
MODEL
100
AcDbVertex
100
AcDb2dVertex
 10
47.27719488000014
 20
365.7185777404195
 30
0.0
  0
VERTEX
  5
42D2
330
42D0
100
AcDbEntity
  8
MODEL
100
AcDbVertex
100
AcDb2dVertex
 10
47.27719488000014
 20
292.2175217285062
 30
0.0
  0
SEQEND
  5
42D3
330
42D0
100
AcDbEntity
  8
MODEL
  0
POLYLINE
  5
42D4
330
A
100
AcDbEntity
  8
MODEL
100
AcDb2dPolyline
 66
     1
 10
0.0
 20
0.0
 30
0.0
  0
VERTEX
  5
42D5
330
42D4
100
AcDbEntity
  8
MODEL
100
AcDbVertex
100
AcDb2dVertex
 10
138.7783407662525
 20
291.7172895569869
 30
0.0
  0
VERTEX
  5
42D6
330
42D4
100
AcDbEntity
  8
MODEL
100
AcDbVertex
100
AcDb2dVertex
 10
114.4984767717664
 20
291.7172895569869
 30
0.0
  0
SEQEND
  5
42D7
330
42D4
100
AcDbEntity
  8
MODEL
  0
POLYLINE
  5
42D8
330
A
100
AcDbEntity
  8
MODEL
100
AcDb2dPolyline
 66
     1
 10
0.0
 20
0.0
 30
0.0
  0
VERTEX
  5
42D9
330
42D8
100
AcDbEntity
  8
MODEL
100
AcDbVertex
100
AcDb2dVertex
 10
72.05591299594619
 20
291.7172895569869
 30
0.0
  0
VERTEX
  5
42DA
330
42D8
100
AcDbEntity
  8
MODEL
100
AcDbVertex
100
AcDb2dVertex
 10
47.77604900146014
 20
291.7172895569869
 30
0.0
  0
SEQEND
  5
42DB
330
42D8
100
AcDbEntity
  8
MODEL
  0
POLYLINE
  5
42DC
330
A
100
AcDbEntity
  8
MODEL
100
AcDb2dPolyline
 66
     1
 10
0.0
 20
0.0
 30
0.0
  0
VERTEX
  5
42DD
330
42DC
100
AcDbEntity
  8
MODEL
100
AcDbVertex
100
AcDb2dVertex
 10
139.2771948877125
 20
292.2175217285062
 30
0.0
  0
VERTEX
  5
42DE
330
42DC
100
AcDbEntity
  8
MODEL
100
AcDbVertex
100
AcDb2dVertex
 10
114.8512575869426
 20
292.2175217285062
 30
0.0
  0
SEQEND
  5
42DF
330
42DC
100
AcDbEntity
  8
MODEL
  0
POLYLINE
  5
42E0
330
A
100
AcDbEntity
  8
MODEL
100
AcDb2dPolyline
 66
     1
 10
0.0
 20
0.0
 30
0.0
  0
VERTEX
  5
42E1
330
42E0
100
AcDbEntity
  8
MODEL
100
AcDbVertex
100
AcDb2dVertex
 10
71.70313218077001
 20
292.2175217285062
 30
0.0
  0
VERTEX
  5
42E2
330
42E0
100
AcDbEntity
  8
MODEL
100
AcDbVertex
100
AcDb2dVertex
 10
47.27719488000014
 20
292.2175217285062
 30
0.0
  0
SEQEND
  5
42E3
330
42E0
100
AcDbEntity
  8
MODEL
  0
POLYLINE
  5
42E4
330
A
100
AcDbEntity
  8
MODEL
100
AcDb2dPolyline
 66
     1
 10
0.0
 20
0.0
 30
0.0
  0
VERTEX
  5
42E5
330
42E4
100
AcDbEntity
  8
MODEL
100
AcDbVertex
100
AcDb2dVertex
 10
139.2771948877125
 20
365.7185777404195
 30
0.0
  0
VERTEX
  5
42E6
330
42E4
100
AcDbEntity
  8
MODEL
100
AcDbVertex
100
AcDb2dVertex
 10
139.2771948877125
 20
292.2175217285062
 30
0.0
  0
SEQEND
  5
42E7
330
42E4
100
AcDbEntity
  8
MODEL
  0
POLYLINE
  5
42E8
330
A
100
AcDbEntity
  8
MODEL
100
AcDb2dPolyline
 66
     1
 10
0.0
 20
0.0
 30
0.0
  0
VERTEX
  5
42E9
330
42E8
100
AcDbEntity
  8
MODEL
100
AcDbVertex
100
AcDb2dVertex
 10
138.7783407662525
 20
291.7172895569869
 30
0.0
  0
VERTEX
  5
42EA
330
42E8
100
AcDbEntity
  8
MODEL
100
AcDbVertex
100
AcDb2dVertex
 10
139.2771948877125
 20
292.2175217285062
 30
0.0
  0
SEQEND
  5
42EB
330
42E8
100
AcDbEntity
  8
MODEL
  0
POLYLINE
  5
43D5
330
A
100
AcDbEntity
  8
MODEL
100
AcDb2dPolyline
 66
     1
 10
0.0
 20
0.0
 30
0.0
  0
VERTEX
  5
43D6
330
43D5
100
AcDbEntity
  8
MODEL
100
AcDbVertex
100
AcDb2dVertex
 10
300.9561004728738
 20
273.3671749675904
 30
0.0
  0
VERTEX
  5
43D7
330
43D5
100
AcDbEntity
  8
MODEL
100
AcDbVertex
100
AcDb2dVertex
 10
297.9774452697361
 20
273.3671749675904
 30
0.0
  0
SEQEND
  5
43D8
330
43D5
100
AcDbEntity
  8
MODEL
  0
POLYLINE
  5
43D9
330
A
100
AcDbEntity
  8
MODEL
100
AcDb2dPolyline
 66
     1
 10
0.0
 20
0.0
 30
0.0
  0
VERTEX
  5
43DA
330
43D9
100
AcDbEntity
  8
MODEL
100
AcDbVertex
100
AcDb2dVertex
 10
274.5064966600485
 20
280.7176939837995
 30
0.0
  0
VERTEX
  5
43DB
330
43D9
100
AcDbEntity
  8
MODEL
100
AcDbVertex
100
AcDb2dVertex
 10
257.4655296269698
 20
280.7176939837995
 30
0.0
  0
SEQEND
  5
43DC
330
43D9
100
AcDbEntity
  8
MODEL
  0
POLYLINE
  5
43DD
330
A
100
AcDbEntity
  8
MODEL
100
AcDb2dPolyline
 66
     1
 10
0.0
 20
0.0
 30
0.0
  0
VERTEX
  5
43DE
330
43DD
100
AcDbEntity
  8
MODEL
100
AcDbVertex
100
AcDb2dVertex
 10
303.1747610683175
 20
287.8683957414128
 30
0.0
  0
VERTEX
  5
43DF
330
43DD
100
AcDbEntity
  8
MODEL
100
AcDbVertex
100
AcDb2dVertex
 10
312.6826174523321
 20
287.8683957414128
 30
0.0
  0
SEQEND
  5
43E0
330
43DD
100
AcDbEntity
  8
MODEL
  0
POLYLINE
  5
43E1
330
A
100
AcDbEntity
  8
MODEL
100
AcDb2dPolyline
 66
     1
 10
0.0
 20
0.0
 30
0.0
  0
VERTEX
  5
43E2
330
43E1
100
AcDbEntity
  8
MODEL
100
AcDbVertex
100
AcDb2dVertex
 10
272.7108974328044
 20
288.3644937627543
 30
0.0
  0
VERTEX
  5
43E3
330
43E1
100
AcDbEntity
  8
MODEL
100
AcDbVertex
100
AcDb2dVertex
 10
267.4935999083635
 20
288.3644937627543
 30
0.0
  0
SEQEND
  5
43E4
330
43E1
100
AcDbEntity
  8
MODEL
  0
POLYLINE
  5
43E5
330
A
100
AcDbEntity
  8
MODEL
100
AcDb2dPolyline
 66
     1
 10
0.0
 20
0.0
 30
0.0
  0
VERTEX
  5
43E6
330
43E5
100
AcDbEntity
  8
MODEL
100
AcDbVertex
100
AcDb2dVertex
 10
350.2165669169906
 20
289.2175067494497
 30
0.0
  0
VERTEX
  5
43E7
330
43E5
100
AcDbEntity
  8
MODEL
100
AcDbVertex
100
AcDb2dVertex
 10
273.5859592204483
 20
289.2175067494497
 30
0.0
  0
SEQEND
  5
43E8
330
43E5
100
AcDbEntity
  8
MODEL
  0
POLYLINE
  5
43E9
330
A
100
AcDbEntity
  8
MODEL
100
AcDb2dPolyline
 66
     1
 10
0.0
 20
0.0
 30
0.0
  0
VERTEX
  5
43EA
330
43E9
100
AcDbEntity
  8
MODEL
100
AcDbVertex
100
AcDb2dVertex
 10
268.7248876363317
 20
289.7094706206133
 30
0.0
  0
VERTEX
  5
43EB
330
43E9
100
AcDbEntity
  8
MODEL
100
AcDbVertex
100
AcDb2dVertex
 10
272.8397451133472
 20
289.7094706206133
 30
0.0
  0
SEQEND
  5
43EC
330
43E9
100
AcDbEntity
  8
MODEL
  0
POLYLINE
  5
43ED
330
A
100
AcDbEntity
  8
MODEL
100
AcDb2dPolyline
 66
     1
 10
0.0
 20
0.0
 30
0.0
  0
VERTEX
  5
43EE
330
43ED
100
AcDbEntity
  8
MODEL
100
AcDbVertex
100
AcDb2dVertex
 10
295.9772056086886
 20
275.3322743521263
 30
0.0
  0
VERTEX
  5
43EF
330
43ED
100
AcDbEntity
  8
MODEL
100
AcDbVertex
100
AcDb2dVertex
 10
295.7339797732254
 20
289.2188847995089
 30
0.0
  0
SEQEND
  5
43F0
330
43ED
100
AcDbEntity
  8
MODEL
  0
POLYLINE
  5
43F1
330
A
100
AcDbEntity
  8
MODEL
100
AcDb2dPolyline
 66
     1
 10
0.0
 20
0.0
 30
0.0
  0
VERTEX
  5
43F2
330
43F1
100
AcDbEntity
  8
MODEL
100
AcDbVertex
100
AcDb2dVertex
 10
303.1981879193252
 20
289.2175067494497
 30
0.0
  0
VERTEX
  5
43F3
330
43F1
100
AcDbEntity
  8
MODEL
100
AcDbVertex
100
AcDb2dVertex
 10
302.9556511088916
 20
275.3322743521263
 30
0.0
  0
SEQEND
  5
43F4
330
43F1
100
AcDbEntity
  8
MODEL
  0
POLYLINE
  5
43F5
330
A
100
AcDbEntity
  8
MODEL
100
AcDb2dPolyline
 66
     1
 10
0.0
 20
0.0
 30
0.0
  0
VERTEX
  5
43F6
330
43F5
100
AcDbEntity
  8
MODEL
100
AcDbVertex
100
AcDb2dVertex
 10
313.1828496238516
 20
288.3589815625171
 30
0.0
  0
VERTEX
  5
43F7
330
43F5
100
AcDbEntity
  8
MODEL
100
AcDbVertex
100
AcDb2dVertex
 10
313.1986971995333
 20
289.2188847995089
 30
0.0
  0
SEQEND
  5
43F8
330
43F5
100
AcDbEntity
  8
MODEL
  0
POLYLINE
  5
43F9
330
A
100
AcDbEntity
  8
MODEL
100
AcDb2dPolyline
 66
     1
 10
0.0
 20
0.0
 30
0.0
  0
VERTEX
  5
43FA
330
43F9
100
AcDbEntity
  8
MODEL
100
AcDbVertex
100
AcDb2dVertex
 10
354.4671623248453
 20
366.7183530584284
 30
0.0
  0
VERTEX
  5
43FB
330
43F9
100
AcDbEntity
  8
MODEL
100
AcDbVertex
100
AcDb2dVertex
 10
264.4653349030917
 20
366.7183530584284
 30
0.0
  0
SEQEND
  5
43FC
330
43F9
100
AcDbEntity
  8
MODEL
  0
POLYLINE
  5
43FD
330
A
100
AcDbEntity
  8
MODEL
100
AcDb2dPolyline
 66
     1
 10
0.0
 20
0.0
 30
0.0
  0
VERTEX
  5
43FE
330
43FD
100
AcDbEntity
  8
MODEL
100
AcDbVertex
100
AcDb2dVertex
 10
66.56300545964893
 20
273.3671749675905
 30
0.0
  0
VERTEX
  5
43FF
330
43FD
100
AcDbEntity
  8
MODEL
100
AcDbVertex
100
AcDb2dVertex
 10
119.9913843080637
 20
273.3671749675905
 30
0.0
  0
SEQEND
  5
4400
330
43FD
100
AcDbEntity
  8
MODEL
  0
POLYLINE
  5
4401
330
A
100
AcDbEntity
  8
MODEL
100
AcDb2dPolyline
 66
     1
 10
0.0
 20
0.0
 30
0.0
  0
VERTEX
  5
4402
330
4401
100
AcDbEntity
  8
MODEL
100
AcDbVertex
100
AcDb2dVertex
 10
134.0282022119081
 20
289.2175067494497
 30
0.0
  0
VERTEX
  5
4403
330
4401
100
AcDbEntity
  8
MODEL
100
AcDbVertex
100
AcDb2dVertex
 10
112.594011589839
 20
289.2175067494497
 30
0.0
  0
SEQEND
  5
4404
330
4401
100
AcDbEntity
  8
MODEL
  0
POLYLINE
  5
4405
330
A
100
AcDbEntity
  8
MODEL
100
AcDb2dPolyline
 66
     1
 10
0.0
 20
0.0
 30
0.0
  0
VERTEX
  5
4406
330
4405
100
AcDbEntity
  8
MODEL
100
AcDbVertex
100
AcDb2dVertex
 10
73.96037817787362
 20
289.2175067494497
 30
0.0
  0
VERTEX
  5
4407
330
4405
100
AcDbEntity
  8
MODEL
100
AcDbVertex
100
AcDb2dVertex
 10
52.52618755580454
 20
289.2175067494497
 30
0.0
  0
SEQEND
  5
4408
330
4405
100
AcDbEntity
  8
MODEL
  0
POLYLINE
  5
4409
330
A
100
AcDbEntity
  8
MODEL
100
AcDb2dPolyline
 66
     1
 10
0.0
 20
0.0
 30
0.0
  0
VERTEX
  5
440A
330
4409
100
AcDbEntity
  8
MODEL
100
AcDbVertex
100
AcDb2dVertex
 10
65.79543157662908
 20
289.2175067494497
 30
0.0
  0
VERTEX
  5
440B
330
4409
100
AcDbEntity
  8
MODEL
100
AcDbVertex
100
AcDb2dVertex
 10
66.06415133818894
 20
273.8591388387541
 30
0.0
  0
SEQEND
  5
440C
330
4409
100
AcDbEntity
  8
MODEL
  0
POLYLINE
  5
440D
102
{ACAD_REACTORS
330
456F
102
}
330
A
100
AcDbEntity
  8
HIDDEN
 48
0.25
100
AcDb2dPolyline
 66
     1
 10
0.0
 20
0.0
 30
0.0
  0
VERTEX
  5
440E
330
440D
100
AcDbEntity
  8
HIDDEN
 48
0.25
100
AcDbVertex
100
AcDb2dVertex
 10
75.1565256293303
 20
320.1891818318081
 30
0.0
  0
VERTEX
  5
440F
330
440D
100
AcDbEntity
  8
HIDDEN
 48
0.25
100
AcDbVertex
100
AcDb2dVertex
 10
76.08808746940474
 20
321.3281402058045
 30
0.0
  0
VERTEX
  5
4410
330
440D
100
AcDbEntity
  8
HIDDEN
 48
0.25
100
AcDbVertex
100
AcDb2dVertex
 10
77.08992986250257
 20
322.4030192520444
 30
0.0
  0
VERTEX
  5
4411
330
440D
100
AcDbEntity
  8
HIDDEN
 48
0.25
100
AcDbVertex
100
AcDb2dVertex
 10
78.15791865844596
 20
323.4124409204683
 30
0.0
  0
VERTEX
  5
4412
330
440D
100
AcDbEntity
  8
HIDDEN
 48
0.25
100
AcDbVertex
100
AcDb2dVertex
 10
79.29067580717572
 20
324.3508930108392
 30
0.0
  0
VERTEX
  5
4413
330
440D
100
AcDbEntity
  8
HIDDEN
 48
0.25
100
AcDbVertex
100
AcDb2dVertex
 10
80.47993300833593
 20
325.2142413729792
 30
0.0
  0
VERTEX
  5
4414
330
440D
100
AcDbEntity
  8
HIDDEN
 48
0.25
100
AcDbVertex
100
AcDb2dVertex
 10
81.72293416180798
 20
326.0004189317995
 30
0.0
  0
VERTEX
  5
4415
330
440D
100
AcDbEntity
  8
HIDDEN
 48
0.25
100
AcDbVertex
100
AcDb2dVertex
 10
83.01554511741449
 20
326.7032244620332
 30
0.0
  0
VERTEX
  5
4416
330
440D
100
AcDbEntity
  8
HIDDEN
 48
0.25
100
AcDbVertex
100
AcDb2dVertex
 10
84.3494975747991
 20
327.3226579636804
 30
0.0
  0
VERTEX
  5
4417
330
440D
100
AcDbEntity
  8
HIDDEN
 48
0.25
100
AcDbVertex
100
AcDb2dVertex
 10
85.72065738378467
 20
327.8545852865631
 30
0.0
  0
VERTEX
  5
4418
330
440D
100
AcDbEntity
  8
HIDDEN
 48
0.25
100
AcDbVertex
100
AcDb2dVertex
 10
86.97054878755318
 20
328.2521527286659
 30
0.0
  0
SEQEND
  5
4419
330
440D
100
AcDbEntity
  8
HIDDEN
 48
0.25
  0
POLYLINE
  5
441A
102
{ACAD_REACTORS
330
456F
102
}
330
A
100
AcDbEntity
  8
HIDDEN
 48
0.25
100
AcDb2dPolyline
 66
     1
 10
0.0
 20
0.0
 30
0.0
  0
VERTEX
  5
441B
330
441A
100
AcDbEntity
  8
HIDDEN
 48
0.25
100
AcDbVertex
100
AcDb2dVertex
 10
87.02291468980577
 20
328.259732003992
 30
0.0
  0
VERTEX
  5
441C
330
441A
100
AcDbEntity
  8
HIDDEN
 48
0.25
100
AcDbVertex
100
AcDb2dVertex
 10
99.53147507790676
 20
328.259732003992
 30
0.0
  0
SEQEND
  5
441D
330
441A
100
AcDbEntity
  8
HIDDEN
 48
0.25
  0
POLYLINE
  5
441E
102
{ACAD_REACTORS
330
456F
102
}
330
A
100
AcDbEntity
  8
HIDDEN
 48
0.25
100
AcDb2dPolyline
 66
     1
 10
0.0
 20
0.0
 30
0.0
  0
VERTEX
  5
441F
330
441E
100
AcDbEntity
  8
HIDDEN
 48
0.25
100
AcDbVertex
100
AcDb2dVertex
 10
99.56179217921097
 20
328.2576649289031
 30
0.0
  0
VERTEX
  5
4420
330
441E
100
AcDbEntity
  8
HIDDEN
 48
0.25
100
AcDbVertex
100
AcDb2dVertex
 10
99.56592632938887
 20
328.2562868788438
 30
0.0
  0
VERTEX
  5
4421
330
441E
100
AcDbEntity
  8
HIDDEN
 48
0.25
100
AcDbVertex
100
AcDb2dVertex
 10
99.57006047956666
 20
328.2562868788438
 30
0.0
  0
VERTEX
  5
4422
330
441E
100
AcDbEntity
  8
HIDDEN
 48
0.25
100
AcDbVertex
100
AcDb2dVertex
 10
99.57419462974447
 20
328.2549088287845
 30
0.0
  0
VERTEX
  5
4423
330
441E
100
AcDbEntity
  8
HIDDEN
 48
0.25
100
AcDbVertex
100
AcDb2dVertex
 10
99.57832877992237
 20
328.2549088287845
 30
0.0
  0
VERTEX
  5
4424
330
441E
100
AcDbEntity
  8
HIDDEN
 48
0.25
100
AcDbVertex
100
AcDb2dVertex
 10
99.58246293010016
 20
328.2535307787252
 30
0.0
  0
VERTEX
  5
4425
330
441E
100
AcDbEntity
  8
HIDDEN
 48
0.25
100
AcDbVertex
100
AcDb2dVertex
 10
99.58521903021877
 20
328.2521527286659
 30
0.0
  0
SEQEND
  5
4426
330
441E
100
AcDbEntity
  8
HIDDEN
 48
0.25
  0
POLYLINE
  5
4427
102
{ACAD_REACTORS
330
456F
102
}
330
A
100
AcDbEntity
  8
HIDDEN
 48
0.25
100
AcDb2dPolyline
 66
     1
 10
0.0
 20
0.0
 30
0.0
  0
VERTEX
  5
4428
330
4427
100
AcDbEntity
  8
HIDDEN
 48
0.25
100
AcDbVertex
100
AcDb2dVertex
 10
86.96917073749398
 20
328.2521527286659
 30
0.0
  0
VERTEX
  5
4429
330
4427
100
AcDbEntity
  8
HIDDEN
 48
0.25
100
AcDbVertex
100
AcDb2dVertex
 10
86.97192683761239
 20
328.2521527286659
 30
0.0
  0
VERTEX
  5
442A
330
4427
100
AcDbEntity
  8
HIDDEN
 48
0.25
100
AcDbVertex
100
AcDb2dVertex
 10
86.97606098779022
 20
328.2535307787252
 30
0.0
  0
VERTEX
  5
442B
330
4427
100
AcDbEntity
  8
HIDDEN
 48
0.25
100
AcDbVertex
100
AcDb2dVertex
 10
86.98019513796805
 20
328.2555978538142
 30
0.0
  0
VERTEX
  5
442C
330
4427
100
AcDbEntity
  8
HIDDEN
 48
0.25
100
AcDbVertex
100
AcDb2dVertex
 10
86.98432928814589
 20
328.2569759038735
 30
0.0
  0
VERTEX
  5
442D
330
4427
100
AcDbEntity
  8
HIDDEN
 48
0.25
100
AcDbVertex
100
AcDb2dVertex
 10
86.98984148838316
 20
328.2569759038735
 30
0.0
  0
VERTEX
  5
442E
330
4427
100
AcDbEntity
  8
HIDDEN
 48
0.25
100
AcDbVertex
100
AcDb2dVertex
 10
86.99397563856097
 20
328.2583539539328
 30
0.0
  0
SEQEND
  5
442F
330
4427
100
AcDbEntity
  8
HIDDEN
 48
0.25
  0
POLYLINE
  5
4430
102
{ACAD_REACTORS
330
456F
102
}
330
A
100
AcDbEntity
  8
HIDDEN
 48
0.25
100
AcDb2dPolyline
 66
     1
 10
0.0
 20
0.0
 30
0.0
  0
VERTEX
  5
4431
330
4430
100
AcDbEntity
  8
HIDDEN
 48
0.25
100
AcDbVertex
100
AcDb2dVertex
 10
99.58521903021877
 20
328.2521527286659
 30
0.0
  0
VERTEX
  5
4432
330
4430
100
AcDbEntity
  8
HIDDEN
 48
0.25
100
AcDbVertex
100
AcDb2dVertex
 10
100.8447567844022
 20
327.8504511363853
 30
0.0
  0
VERTEX
  5
4433
330
4430
100
AcDbEntity
  8
HIDDEN
 48
0.25
100
AcDbVertex
100
AcDb2dVertex
 10
102.2159165933878
 20
327.3178347884729
 30
0.0
  0
VERTEX
  5
4434
330
4430
100
AcDbEntity
  8
HIDDEN
 48
0.25
100
AcDbVertex
100
AcDb2dVertex
 10
103.5484910007132
 20
326.6984012868257
 30
0.0
  0
VERTEX
  5
4435
330
4430
100
AcDbEntity
  8
HIDDEN
 48
0.25
100
AcDbVertex
100
AcDb2dVertex
 10
104.8383458562011
 20
325.995595756592
 30
0.0
  0
VERTEX
  5
4436
330
4430
100
AcDbEntity
  8
HIDDEN
 48
0.25
100
AcDbVertex
100
AcDb2dVertex
 10
106.0827250597326
 20
325.2101072228014
 30
0.0
  0
VERTEX
  5
4437
330
4430
100
AcDbEntity
  8
HIDDEN
 48
0.25
100
AcDbVertex
100
AcDb2dVertex
 10
107.2706042108333
 20
324.3460698356317
 30
0.0
  0
VERTEX
  5
4438
330
4430
100
AcDbEntity
  8
HIDDEN
 48
0.25
100
AcDbVertex
100
AcDb2dVertex
 10
108.4019833095037
 20
323.4076177452608
 30
0.0
  0
VERTEX
  5
4439
330
4430
100
AcDbEntity
  8
HIDDEN
 48
0.25
100
AcDbVertex
100
AcDb2dVertex
 10
109.4699721054471
 20
322.3988851018665
 30
0.0
  0
VERTEX
  5
443A
330
4430
100
AcDbEntity
  8
HIDDEN
 48
0.25
100
AcDbVertex
100
AcDb2dVertex
 10
110.4718144985449
 20
321.3219389805378
 30
0.0
  0
VERTEX
  5
443B
330
4430
100
AcDbEntity
  8
HIDDEN
 48
0.25
100
AcDbVertex
100
AcDb2dVertex
 10
111.4019982885601
 20
320.1850476816303
 30
0.0
  0
VERTEX
  5
443C
330
4430
100
AcDbEntity
  8
HIDDEN
 48
0.25
100
AcDbVertex
100
AcDb2dVertex
 10
111.6362667986381
 20
319.8577607925508
 30
0.0
  0
SEQEND
  5
443D
330
4430
100
AcDbEntity
  8
HIDDEN
 48
0.25
  0
POLYLINE
  5
443E
330
A
100
AcDbEntity
  8
MODEL
100
AcDb2dPolyline
 66
     1
 10
0.0
 20
0.0
 30
0.0
  0
VERTEX
  5
443F
330
443E
100
AcDbEntity
  8
MODEL
100
AcDbVertex
100
AcDb2dVertex
 10
120.4916164795829
 20
273.8591388387541
 30
0.0
  0
VERTEX
  5
4440
330
443E
100
AcDbEntity
  8
MODEL
100
AcDbVertex
100
AcDb2dVertex
 10
120.7589581910835
 20
289.2175067494497
 30
0.0
  0
SEQEND
  5
4441
330
443E
100
AcDbEntity
  8
MODEL
  0
POLYLINE
  5
4442
330
A
100
AcDbEntity
  8
MODEL
100
AcDb2dPolyline
 66
     1
 10
0.0
 20
0.0
 30
0.0
  0
VERTEX
  5
4443
330
4442
100
AcDbEntity
  8
MODEL
100
AcDbVertex
100
AcDb2dVertex
 10
138.278108594733
 20
366.7183530584284
 30
0.0
  0
VERTEX
  5
4444
330
4442
100
AcDbEntity
  8
MODEL
100
AcDbVertex
100
AcDb2dVertex
 10
48.27628117297957
 20
366.7183530584284
 30
0.0
  0
SEQEND
  5
4445
330
4442
100
AcDbEntity
  8
MODEL
  0
SPLINE
  5
4446
330
A
100
AcDbEntity
  8
MODEL
100
AcDbSpline
210
0.0
220
0.0
230
1.0
 70
     8
 71
     3
 72
     8
 73
     4
 74
     0
 42
0.000000001
 43
0.0000000001
 40
0.0
 40
0.0
 40
0.0
 40
0.0
 40
1.0
 40
1.0
 40
1.0
 40
1.0
 10
273.3186175089476
 20
288.7875551309538
 30
0.0
 10
273.3806297616154
 20
288.9088235361706
 30
0.0
 10
273.4440200643423
 20
289.0300919413874
 30
0.0
 10
273.50603231701
 20
289.1527383966634
 30
0.0
  0
SPLINE
  5
4447
330
A
100
AcDbEntity
  8
MODEL
100
AcDbSpline
210
0.0
220
0.0
230
1.0
 70
     8
 71
     3
 72
     8
 73
     4
 74
     0
 42
0.000000001
 43
0.0000000001
 40
0.0
 40
0.0
 40
0.0
 40
0.0
 40
1.0
 40
1.0
 40
1.0
 40
1.0
 10
295.9772056086886
 20
275.3322743521263
 30
0.0
 10
295.9951202594593
 20
274.2422367552344
 30
0.0
 10
296.8860296227849
 20
273.3671749675904
 30
0.0
 10
297.9767562447065
 20
273.3671749675904
 30
0.0
  0
SPLINE
  5
4448
330
A
100
AcDbEntity
  8
MODEL
100
AcDbSpline
210
0.0
220
0.0
230
1.0
 70
     8
 71
     3
 72
     8
 73
     4
 74
     0
 42
0.000000001
 43
0.0000000001
 40
0.0
 40
0.0
 40
0.0
 40
0.0
 40
1.0
 40
1.0
 40
1.0
 40
1.0
 10
300.9561004728738
 20
273.3671749675904
 30
0.0
 10
302.0468270947953
 20
273.3671749675904
 30
0.0
 10
302.9370474330913
 20
274.2422367552344
 30
0.0
 10
302.9556511088916
 20
275.3336524021856
 30
0.0
  0
SPLINE
  5
4449
330
A
100
AcDbEntity
  8
MODEL
100
AcDbSpline
210
0.0
220
0.0
230
1.0
 70
     8
 71
     3
 72
     8
 73
     4
 74
     0
 42
0.000000001
 43
0.0000000001
 40
0.0
 40
0.0
 40
0.0
 40
0.0
 40
1.0
 40
1.0
 40
1.0
 40
1.0
 10
274.5064966600485
 20
280.7176939837995
 30
0.0
 10
274.9991495562418
 20
280.7176939837995
 30
0.0
 10
275.4166987242042
 20
281.0746089491535
 30
0.0
 10
275.4945585525536
 20
281.56106062008
 30
0.0
  0
SPLINE
  5
444A
330
A
100
AcDbEntity
  8
MODEL
100
AcDbSpline
210
0.0
220
0.0
230
1.0
 70
     8
 71
     3
 72
     8
 73
     4
 74
     0
 42
0.000000001
 43
0.0000000001
 40
0.0
 40
0.0
 40
0.0
 40
0.0
 40
1.0
 40
1.0
 40
1.0
 40
1.0
 10
355.4669376428542
 20
365.7185777404194
 30
0.0
 10
355.4669376428542
 20
366.2704867891618
 30
0.0
 10
355.0197603986174
 20
366.7190420834581
 30
0.0
 10
354.4664732998156
 20
366.7190420834581
 30
0.0
  0
SPLINE
  5
444B
330
A
100
AcDbEntity
  8
MODEL
100
AcDbSpline
210
0.0
220
0.0
230
1.0
 70
     8
 71
     3
 72
     8
 73
     4
 74
     0
 42
0.000000001
 43
0.0000000001
 40
0.0
 40
0.0
 40
0.0
 40
0.0
 40
1.0
 40
1.0
 40
1.0
 40
1.0
 10
264.4660239281214
 20
366.7183530584284
 30
0.0
 10
263.914114879379
 20
366.7183530584284
 30
0.0
 10
263.4655595850828
 20
366.2711758141914
 30
0.0
 10
263.4655595850828
 20
365.7178887153898
 30
0.0
  0
SPLINE
  5
444C
330
A
100
AcDbEntity
  8
MODEL
100
AcDbSpline
210
0.0
220
0.0
230
1.0
 70
     8
 71
     3
 72
     8
 73
     4
 74
     0
 42
0.000000001
 43
0.0000000001
 40
0.0
 40
0.0
 40
0.0
 40
0.0
 40
1.0
 40
1.0
 40
1.0
 40
1.0
 10
312.6833064773618
 20
287.8683957414128
 30
0.0
 10
312.95547136407
 20
287.8683957414128
 30
0.0
 10
313.1787154736737
 20
288.0861276507793
 30
0.0
 10
313.1828496238516
 20
288.3589815625171
 30
0.0
  0
SPLINE
  5
444D
330
A
100
AcDbEntity
  8
MODEL
100
AcDbSpline
210
0.0
220
0.0
230
1.0
 70
     8
 71
     3
 72
     8
 73
     4
 74
     0
 42
0.000000001
 43
0.0000000001
 40
0.0
 40
0.0
 40
0.0
 40
0.0
 40
1.0
 40
1.0
 40
1.0
 40
1.0
 10
66.06415133818894
 20
273.8591388387541
 30
0.0
 10
66.06828548836677
 20
273.5862849270163
 30
0.0
 10
66.29015154791125
 20
273.3685530176497
 30
0.0
 10
66.56300545964893
 20
273.3685530176497
 30
0.0
  0
SPLINE
  5
444E
102
{ACAD_REACTORS
330
456F
102
}
330
A
100
AcDbEntity
  8
HIDDEN
 48
0.25
100
AcDbSpline
210
0.0
220
0.0
230
1.0
 70
     8
 71
     3
 72
     8
 73
     4
 74
     0
 42
0.000000001
 43
0.0000000001
 40
0.0
 40
0.0
 40
0.0
 40
0.0
 40
1.0
 40
1.0
 40
1.0
 40
1.0
 10
74.09956123386121
 20
289.1610066970192
 30
0.0
 10
74.06235388226048
 20
289.1982140486198
 30
0.0
 10
74.01274408012648
 20
289.2175067494497
 30
0.0
 10
73.96037817787362
 20
289.2175067494497
 30
0.0
  0
SPLINE
  5
444F
330
A
100
AcDbEntity
  8
MODEL
100
AcDbSpline
210
0.0
220
0.0
230
1.0
 70
     8
 71
     3
 72
     8
 73
     4
 74
     0
 42
0.000000001
 43
0.0000000001
 40
0.0
 40
0.0
 40
0.0
 40
0.0
 40
1.0
 40
1.0
 40
1.0
 40
1.0
 10
48.27765922303877
 20
366.7183530584284
 30
0.0
 10
47.72506114926693
 20
366.7183530584284
 30
0.0
 10
47.27719488000014
 20
366.2711758141915
 30
0.0
 10
47.27719488000014
 20
365.7178887153898
 30
0.0
  0
SPLINE
  5
4450
330
A
100
AcDbEntity
  8
MODEL
100
AcDbSpline
210
0.0
220
0.0
230
1.0
 70
     8
 71
     3
 72
     8
 73
     4
 74
     0
 42
0.000000001
 43
0.0000000001
 40
0.0
 40
0.0
 40
0.0
 40
0.0
 40
1.0
 40
1.0
 40
1.0
 40
1.0
 10
119.9913843080637
 20
273.3671749675905
 30
0.0
 10
120.2642382198013
 20
273.3671749675905
 30
0.0
 10
120.4861042793458
 20
273.5862849270163
 30
0.0
 10
120.4902384295237
 20
273.8591388387541
 30
0.0
  0
SPLINE
  5
4451
102
{ACAD_REACTORS
330
456F
102
}
330
A
100
AcDbEntity
  8
HIDDEN
 48
0.25
100
AcDbSpline
210
0.0
220
0.0
230
1.0
 70
     8
 71
     3
 72
     8
 73
     4
 74
     0
 42
0.000000001
 43
0.0000000001
 40
0.0
 40
0.0
 40
0.0
 40
0.0
 40
1.0
 40
1.0
 40
1.0
 40
1.0
 10
112.594011589839
 20
289.2175067494497
 30
0.0
 10
112.5375115374085
 20
289.2175067494497
 30
0.0
 10
112.4851456351557
 20
289.1940798984419
 30
0.0
 10
112.4479382835552
 20
289.1527383966635
 30
0.0
  0
SPLINE
  5
4452
330
A
100
AcDbEntity
  8
MODEL
100
AcDbSpline
210
0.0
220
0.0
230
1.0
 70
     8
 71
     3
 72
     8
 73
     4
 74
     0
 42
0.000000001
 43
0.0000000001
 40
0.0
 40
0.0
 40
0.0
 40
0.0
 40
1.0
 40
1.0
 40
1.0
 40
1.0
 10
139.2771948877125
 20
365.7185777404195
 30
0.0
 10
139.2771948877125
 20
366.2704867891619
 30
0.0
 10
138.8307066685051
 20
366.7190420834581
 30
0.0
 10
138.2767305446738
 20
366.7190420834581
 30
0.0
  0
POLYLINE
  5
4453
330
A
100
AcDbEntity
  8
MODEL
100
AcDb2dPolyline
 66
     1
 10
0.0
 20
0.0
 30
0.0
  0
VERTEX
  5
4454
330
4453
100
AcDbEntity
  8
MODEL
100
AcDbVertex
100
AcDb2dVertex
 10
267.1008556414682
 20
289.1499822965448
 30
0.0
  0
VERTEX
  5
4455
330
4453
100
AcDbEntity
  8
MODEL
100
AcDbVertex
100
AcDb2dVertex
 10
267.1036117415867
 20
289.1568725468413
 30
0.0
  0
VERTEX
  5
4456
330
4453
100
AcDbEntity
  8
MODEL
100
AcDbVertex
100
AcDb2dVertex
 10
267.1070568667349
 20
289.1651408471969
 30
0.0
  0
VERTEX
  5
4457
330
4453
100
AcDbEntity
  8
MODEL
100
AcDbVertex
100
AcDb2dVertex
 10
267.1098129668535
 20
289.1720310974934
 30
0.0
  0
VERTEX
  5
4458
330
4453
100
AcDbEntity
  8
MODEL
100
AcDbVertex
100
AcDb2dVertex
 10
267.1125690669721
 20
289.1789213477898
 30
0.0
  0
VERTEX
  5
4459
330
4453
100
AcDbEntity
  8
MODEL
100
AcDbVertex
100
AcDb2dVertex
 10
267.1153251670906
 20
289.1858115980862
 30
0.0
  0
VERTEX
  5
445A
330
4453
100
AcDbEntity
  8
MODEL
100
AcDbVertex
100
AcDb2dVertex
 10
267.1180812672092
 20
289.1940798984418
 30
0.0
  0
VERTEX
  5
445B
330
4453
100
AcDbEntity
  8
MODEL
100
AcDbVertex
100
AcDb2dVertex
 10
267.1222154173871
 20
289.2009701487382
 30
0.0
  0
VERTEX
  5
445C
330
4453
100
AcDbEntity
  8
MODEL
100
AcDbVertex
100
AcDb2dVertex
 10
267.1249715175056
 20
289.209238449094
 30
0.0
  0
VERTEX
  5
445D
330
4453
100
AcDbEntity
  8
MODEL
100
AcDbVertex
100
AcDb2dVertex
 10
267.1277276176241
 20
289.2161286993904
 30
0.0
  0
VERTEX
  5
445E
330
4453
100
AcDbEntity
  8
MODEL
100
AcDbVertex
100
AcDb2dVertex
 10
267.1304837177427
 20
289.224396999746
 30
0.0
  0
SEQEND
  5
445F
330
4453
100
AcDbEntity
  8
MODEL
  0
POLYLINE
  5
4460
330
A
100
AcDbEntity
  8
MODEL
100
AcDb2dPolyline
 66
     1
 10
0.0
 20
0.0
 30
0.0
  0
VERTEX
  5
4461
330
4460
100
AcDbEntity
  8
MODEL
100
AcDbVertex
100
AcDb2dVertex
 10
267.1304837177427
 20
289.224396999746
 30
0.0
  0
VERTEX
  5
4462
330
4460
100
AcDbEntity
  8
MODEL
100
AcDbVertex
100
AcDb2dVertex
 10
267.4998011336303
 20
290.1848978910655
 30
0.0
  0
VERTEX
  5
4463
330
4460
100
AcDbEntity
  8
MODEL
100
AcDbVertex
100
AcDb2dVertex
 10
267.9772954791714
 20
291.5078259479761
 30
0.0
  0
VERTEX
  5
4464
330
4460
100
AcDbEntity
  8
MODEL
100
AcDbVertex
100
AcDb2dVertex
 10
268.4100031977859
 20
292.8059491038195
 30
0.0
  0
VERTEX
  5
4465
330
4460
100
AcDbEntity
  8
MODEL
100
AcDbVertex
100
AcDb2dVertex
 10
268.7986133145034
 20
294.0820234587144
 30
0.0
  0
VERTEX
  5
4466
330
4460
100
AcDbEntity
  8
MODEL
100
AcDbVertex
100
AcDb2dVertex
 10
269.1451929044127
 20
295.3346709626016
 30
0.0
  0
VERTEX
  5
4467
330
4460
100
AcDbEntity
  8
MODEL
100
AcDbVertex
100
AcDb2dVertex
 10
269.4090894907652
 20
296.39301340813
 30
0.0
  0
VERTEX
  5
4468
330
4460
100
AcDbEntity
  8
MODEL
100
AcDbVertex
100
AcDb2dVertex
 10
269.681943402503
 20
297.6167218607722
 30
0.0
  0
VERTEX
  5
4469
330
4460
100
AcDbEntity
  8
MODEL
100
AcDbVertex
100
AcDb2dVertex
 10
269.9162119125809
 20
298.8238937127031
 30
0.0
  0
VERTEX
  5
446A
330
4460
100
AcDbEntity
  8
MODEL
100
AcDbVertex
100
AcDb2dVertex
 10
269.9396387635887
 20
298.9575645684534
 30
0.0
  0
VERTEX
  5
446B
330
4460
100
AcDbEntity
  8
MODEL
100
AcDbVertex
100
AcDb2dVertex
 10
270.1332547969178
 20
300.1550900699693
 30
0.0
  0
VERTEX
  5
446C
330
4460
100
AcDbEntity
  8
MODEL
100
AcDbVertex
100
AcDb2dVertex
 10
270.288285428587
 20
301.3457253211888
 30
0.0
  0
VERTEX
  5
446D
330
4460
100
AcDbEntity
  8
MODEL
100
AcDbVertex
100
AcDb2dVertex
 10
270.4081757837445
 20
302.5225800718154
 30
0.0
  0
VERTEX
  5
446E
330
4460
100
AcDbEntity
  8
MODEL
100
AcDbVertex
100
AcDb2dVertex
 10
270.4322916597819
 20
302.8174827845017
 30
0.0
  0
VERTEX
  5
446F
330
4460
100
AcDbEntity
  8
MODEL
100
AcDbVertex
100
AcDb2dVertex
 10
270.5087734380721
 20
303.9943375351284
 30
0.0
  0
VERTEX
  5
4470
330
4460
100
AcDbEntity
  8
MODEL
100
AcDbVertex
100
AcDb2dVertex
 10
270.5480478647616
 20
305.1698142356958
 30
0.0
  0
VERTEX
  5
4471
330
4460
100
AcDbEntity
  8
MODEL
100
AcDbVertex
100
AcDb2dVertex
 10
270.5521820149394
 20
306.339778736026
 30
0.0
  0
VERTEX
  5
4472
330
4460
100
AcDbEntity
  8
MODEL
100
AcDbVertex
100
AcDb2dVertex
 10
270.5211758886056
 20
307.5111212864155
 30
0.0
  0
VERTEX
  5
4473
330
4460
100
AcDbEntity
  8
MODEL
100
AcDbVertex
100
AcDb2dVertex
 10
270.4550294857601
 20
308.6865979869829
 30
0.0
  0
VERTEX
  5
4474
330
4460
100
AcDbEntity
  8
MODEL
100
AcDbVertex
100
AcDb2dVertex
 10
270.3537428064029
 20
309.8662088377282
 30
0.0
  0
VERTEX
  5
4475
330
4460
100
AcDbEntity
  8
MODEL
100
AcDbVertex
100
AcDb2dVertex
 10
270.3220476550394
 20
310.1611115504144
 30
0.0
  0
VERTEX
  5
4476
330
4460
100
AcDbEntity
  8
MODEL
100
AcDbVertex
100
AcDb2dVertex
 10
270.1752853237259
 20
311.3448565513375
 30
0.0
  0
VERTEX
  5
4477
330
4460
100
AcDbEntity
  8
MODEL
100
AcDbVertex
100
AcDb2dVertex
 10
269.9920046658414
 20
312.5382479026755
 30
0.0
  0
VERTEX
  5
4478
330
4460
100
AcDbEntity
  8
MODEL
100
AcDbVertex
100
AcDb2dVertex
 10
269.772205681386
 20
313.7454197546064
 30
0.0
  0
VERTEX
  5
4479
330
4460
100
AcDbEntity
  8
MODEL
100
AcDbVertex
100
AcDb2dVertex
 10
269.7467117552893
 20
313.8722003600603
 30
0.0
  0
VERTEX
  5
447A
330
4460
100
AcDbEntity
  8
MODEL
100
AcDbVertex
100
AcDb2dVertex
 10
269.484193218996
 20
315.0890185624061
 30
0.0
  0
VERTEX
  5
447B
330
4460
100
AcDbEntity
  8
MODEL
100
AcDbVertex
100
AcDb2dVertex
 10
269.1824002560133
 20
316.3237514155226
 30
0.0
  0
VERTEX
  5
447C
330
4460
100
AcDbEntity
  8
MODEL
100
AcDbVertex
100
AcDb2dVertex
 10
268.8957658436827
 20
317.3834719111103
 30
0.0
  0
VERTEX
  5
447D
330
4460
100
AcDbEntity
  8
MODEL
100
AcDbVertex
100
AcDb2dVertex
 10
268.5174911024099
 20
318.6526560157089
 30
0.0
  0
VERTEX
  5
447E
330
4460
100
AcDbEntity
  8
MODEL
100
AcDbVertex
100
AcDb2dVertex
 10
268.0971858343289
 20
319.9452669713152
 30
0.0
  0
VERTEX
  5
447F
330
4460
100
AcDbEntity
  8
MODEL
100
AcDbVertex
100
AcDb2dVertex
 10
267.6314049142916
 20
321.261993802959
 30
0.0
  0
VERTEX
  5
4480
330
4460
100
AcDbEntity
  8
MODEL
100
AcDbVertex
100
AcDb2dVertex
 10
267.1194593172685
 20
322.606970660818
 30
0.0
  0
VERTEX
  5
4481
330
4460
100
AcDbEntity
  8
MODEL
100
AcDbVertex
100
AcDb2dVertex
 10
266.7239589502546
 20
323.5860752279377
 30
0.0
  0
VERTEX
  5
4482
330
4460
100
AcDbEntity
  8
MODEL
100
AcDbVertex
100
AcDb2dVertex
 10
266.124507174467
 20
324.9875521382273
 30
0.0
  0
VERTEX
  5
4483
330
4460
100
AcDbEntity
  8
MODEL
100
AcDbVertex
100
AcDb2dVertex
 10
265.4754455965453
 20
326.4207241998803
 30
0.0
  0
VERTEX
  5
4484
330
4460
100
AcDbEntity
  8
MODEL
100
AcDbVertex
100
AcDb2dVertex
 10
264.7685059161337
 20
327.8938597132527
 30
0.0
  0
VERTEX
  5
4485
330
4460
100
AcDbEntity
  8
MODEL
100
AcDbVertex
100
AcDb2dVertex
 10
264.4984081045145
 20
328.4347443615207
 30
0.0
  0
VERTEX
  5
4486
330
4460
100
AcDbEntity
  8
MODEL
100
AcDbVertex
100
AcDb2dVertex
 10
263.708785420546
 20
329.9740262777385
 30
0.0
  0
VERTEX
  5
4487
330
4460
100
AcDbEntity
  8
MODEL
100
AcDbVertex
100
AcDb2dVertex
 10
262.8564614588802
 20
331.556027745794
 30
0.0
  0
VERTEX
  5
4488
330
4460
100
AcDbEntity
  8
MODEL
100
AcDbVertex
100
AcDb2dVertex
 10
262.8309675327835
 20
331.6028814478096
 30
0.0
  0
VERTEX
  5
4489
330
4460
100
AcDbEntity
  8
MODEL
100
AcDbVertex
100
AcDb2dVertex
 10
262.2067108559289
 20
332.7191019958278
 30
0.0
  0
SEQEND
  5
448A
330
4460
100
AcDbEntity
  8
MODEL
  0
POLYLINE
  5
448B
330
A
100
AcDbEntity
  8
MODEL
100
AcDb2dPolyline
 66
     1
 10
0.0
 20
0.0
 30
0.0
  0
VERTEX
  5
448C
330
448B
100
AcDbEntity
  8
MODEL
100
AcDbVertex
100
AcDb2dVertex
 10
287.4663684425643
 20
289.2175067494497
 30
0.0
  0
VERTEX
  5
448D
330
448B
100
AcDbEntity
  8
MODEL
100
AcDbVertex
100
AcDb2dVertex
 10
287.1866242805301
 20
289.2119945492125
 30
0.0
  0
VERTEX
  5
448E
330
448B
100
AcDbEntity
  8
MODEL
100
AcDbVertex
100
AcDb2dVertex
 10
286.9020569432884
 20
289.1954579485011
 30
0.0
  0
VERTEX
  5
448F
330
448B
100
AcDbEntity
  8
MODEL
100
AcDbVertex
100
AcDb2dVertex
 10
286.607154230602
 20
289.1678969473155
 30
0.0
  0
VERTEX
  5
4490
330
448B
100
AcDbEntity
  8
MODEL
100
AcDbVertex
100
AcDb2dVertex
 10
286.377019870702
 20
289.1389578960706
 30
0.0
  0
VERTEX
  5
4491
330
448B
100
AcDbEntity
  8
MODEL
100
AcDbVertex
100
AcDb2dVertex
 10
286.0407756562372
 20
289.0879700438772
 30
0.0
  0
VERTEX
  5
4492
330
448B
100
AcDbEntity
  8
MODEL
100
AcDbVertex
100
AcDb2dVertex
 10
285.6983302165056
 20
289.0245797411502
 30
0.0
  0
VERTEX
  5
4493
330
448B
100
AcDbEntity
  8
MODEL
100
AcDbVertex
100
AcDb2dVertex
 10
285.3765555276634
 20
288.9556772381861
 30
0.0
  0
VERTEX
  5
4494
330
448B
100
AcDbEntity
  8
MODEL
100
AcDbVertex
100
AcDb2dVertex
 10
285.0093051868648
 20
288.8647259342735
 30
0.0
  0
VERTEX
  5
4495
330
448B
100
AcDbEntity
  8
MODEL
100
AcDbVertex
100
AcDb2dVertex
 10
284.6324084956512
 20
288.7599941297681
 30
0.0
  0
VERTEX
  5
4496
330
448B
100
AcDbEntity
  8
MODEL
100
AcDbVertex
100
AcDb2dVertex
 10
284.4353473371739
 20
288.7021160272782
 30
0.0
  0
VERTEX
  5
4497
330
448B
100
AcDbEntity
  8
MODEL
100
AcDbVertex
100
AcDb2dVertex
 10
284.0412250202194
 20
288.5753354218243
 30
0.0
  0
VERTEX
  5
4498
330
448B
100
AcDbEntity
  8
MODEL
100
AcDbVertex
100
AcDb2dVertex
 10
283.6409014779979
 20
288.4361523658368
 30
0.0
  0
VERTEX
  5
4499
330
448B
100
AcDbEntity
  8
MODEL
100
AcDbVertex
100
AcDb2dVertex
 10
283.5375477235518
 20
288.3989450142363
 30
0.0
  0
VERTEX
  5
449A
330
448B
100
AcDbEntity
  8
MODEL
100
AcDbVertex
100
AcDb2dVertex
 10
283.1255107558266
 20
288.2404692574189
 30
0.0
  0
VERTEX
  5
449B
330
448B
100
AcDbEntity
  8
MODEL
100
AcDbVertex
100
AcDb2dVertex
 10
282.7134737881013
 20
288.0695910500679
 30
0.0
  0
VERTEX
  5
449C
330
448B
100
AcDbEntity
  8
MODEL
100
AcDbVertex
100
AcDb2dVertex
 10
282.301436820376
 20
287.8863103921834
 30
0.0
  0
VERTEX
  5
449D
330
448B
100
AcDbEntity
  8
MODEL
100
AcDbVertex
100
AcDb2dVertex
 10
281.8852657024729
 20
287.6892492337062
 30
0.0
  0
VERTEX
  5
449E
330
448B
100
AcDbEntity
  8
MODEL
100
AcDbVertex
100
AcDb2dVertex
 10
281.8459912757835
 20
287.6699565328761
 30
0.0
  0
VERTEX
  5
449F
330
448B
100
AcDbEntity
  8
MODEL
100
AcDbVertex
100
AcDb2dVertex
 10
281.4277530827915
 20
287.4577368237469
 30
0.0
  0
VERTEX
  5
44A0
330
448B
100
AcDbEntity
  8
MODEL
100
AcDbVertex
100
AcDb2dVertex
 10
281.0143380650069
 20
287.238626864321
 30
0.0
  0
VERTEX
  5
44A1
330
448B
100
AcDbEntity
  8
MODEL
100
AcDbVertex
100
AcDb2dVertex
 10
280.6098803726077
 20
287.0071144543617
 30
0.0
  0
VERTEX
  5
44A2
330
448B
100
AcDbEntity
  8
MODEL
100
AcDbVertex
100
AcDb2dVertex
 10
280.2722581080836
 20
286.8045410956473
 30
0.0
  0
VERTEX
  5
44A3
330
448B
100
AcDbEntity
  8
MODEL
100
AcDbVertex
100
AcDb2dVertex
 10
279.8994955670479
 20
286.5702725855693
 30
0.0
  0
VERTEX
  5
44A4
330
448B
100
AcDbEntity
  8
MODEL
100
AcDbVertex
100
AcDb2dVertex
 10
279.523287900864
 20
286.3222235748986
 30
0.0
  0
VERTEX
  5
44A5
330
448B
100
AcDbEntity
  8
MODEL
100
AcDbVertex
100
AcDb2dVertex
 10
279.1601717102433
 20
286.0686623639908
 30
0.0
  0
VERTEX
  5
44A6
330
448B
100
AcDbEntity
  8
MODEL
100
AcDbVertex
100
AcDb2dVertex
 10
278.8087689451263
 20
285.8082109027865
 30
0.0
  0
VERTEX
  5
44A7
330
448B
100
AcDbEntity
  8
MODEL
100
AcDbVertex
100
AcDb2dVertex
 10
278.7694945184368
 20
285.7792718515415
 30
0.0
  0
VERTEX
  5
44A8
330
448B
100
AcDbEntity
  8
MODEL
100
AcDbVertex
100
AcDb2dVertex
 10
278.4380734791796
 20
285.5188203903373
 30
0.0
  0
VERTEX
  5
44A9
330
448B
100
AcDbEntity
  8
MODEL
100
AcDbVertex
100
AcDb2dVertex
 10
278.1218109905744
 20
285.258368929133
 30
0.0
  0
VERTEX
  5
44AA
330
448B
100
AcDbEntity
  8
MODEL
100
AcDbVertex
100
AcDb2dVertex
 10
278.0370609119285
 20
285.1853322759911
 30
0.0
  0
VERTEX
  5
44AB
330
448B
100
AcDbEntity
  8
MODEL
100
AcDbVertex
100
AcDb2dVertex
 10
277.7449142993607
 20
284.9248808147868
 30
0.0
  0
VERTEX
  5
44AC
330
448B
100
AcDbEntity
  8
MODEL
100
AcDbVertex
100
AcDb2dVertex
 10
277.4699933125341
 20
284.6671854537012
 30
0.0
  0
VERTEX
  5
44AD
330
448B
100
AcDbEntity
  8
MODEL
100
AcDbVertex
100
AcDb2dVertex
 10
277.3287431814577
 20
284.5280023977137
 30
0.0
  0
VERTEX
  5
44AE
330
448B
100
AcDbEntity
  8
MODEL
100
AcDbVertex
100
AcDb2dVertex
 10
277.0848283209648
 20
284.2758192368651
 30
0.0
  0
VERTEX
  5
44AF
330
448B
100
AcDbEntity
  8
MODEL
100
AcDbVertex
100
AcDb2dVertex
 10
276.8588281112426
 20
284.0277702261944
 30
0.0
  0
VERTEX
  5
44B0
330
448B
100
AcDbEntity
  8
MODEL
100
AcDbVertex
100
AcDb2dVertex
 10
276.6652120779135
 20
283.8003919664129
 30
0.0
  0
VERTEX
  5
44B1
330
448B
100
AcDbEntity
  8
MODEL
100
AcDbVertex
100
AcDb2dVertex
 10
276.4750411697326
 20
283.5619893061572
 30
0.0
  0
VERTEX
  5
44B2
330
448B
100
AcDbEntity
  8
MODEL
100
AcDbVertex
100
AcDb2dVertex
 10
276.3014068622631
 20
283.32634274602
 30
0.0
  0
VERTEX
  5
44B3
330
448B
100
AcDbEntity
  8
MODEL
100
AcDbVertex
100
AcDb2dVertex
 10
276.1897848074613
 20
283.1637328390247
 30
0.0
  0
VERTEX
  5
44B4
330
448B
100
AcDbEntity
  8
MODEL
100
AcDbVertex
100
AcDb2dVertex
 10
276.0519798015331
 20
282.950135079836
 30
0.0
  0
VERTEX
  5
44B5
330
448B
100
AcDbEntity
  8
MODEL
100
AcDbVertex
100
AcDb2dVertex
 10
275.9300223712867
 20
282.7406714708251
 30
0.0
  0
VERTEX
  5
44B6
330
448B
100
AcDbEntity
  8
MODEL
100
AcDbVertex
100
AcDb2dVertex
 10
275.821845441633
 20
282.5339639619329
 30
0.0
  0
VERTEX
  5
44B7
330
448B
100
AcDbEntity
  8
MODEL
100
AcDbVertex
100
AcDb2dVertex
 10
275.7880832151806
 20
282.4636834089096
 30
0.0
  0
VERTEX
  5
44B8
330
448B
100
AcDbEntity
  8
MODEL
100
AcDbVertex
100
AcDb2dVertex
 10
275.7019550864755
 20
282.2707564006101
 30
0.0
  0
VERTEX
  5
44B9
330
448B
100
AcDbEntity
  8
MODEL
100
AcDbVertex
100
AcDb2dVertex
 10
275.6282294083039
 20
282.0805854924292
 30
0.0
  0
VERTEX
  5
44BA
330
448B
100
AcDbEntity
  8
MODEL
100
AcDbVertex
100
AcDb2dVertex
 10
275.6240952581261
 20
282.0681830418957
 30
0.0
  0
VERTEX
  5
44BB
330
448B
100
AcDbEntity
  8
MODEL
100
AcDbVertex
100
AcDb2dVertex
 10
275.5689732557548
 20
281.8959267844855
 30
0.0
  0
VERTEX
  5
44BC
330
448B
100
AcDbEntity
  8
MODEL
100
AcDbVertex
100
AcDb2dVertex
 10
275.5269427289467
 20
281.7278046772531
 30
0.0
  0
VERTEX
  5
44BD
330
448B
100
AcDbEntity
  8
MODEL
100
AcDbVertex
100
AcDb2dVertex
 10
275.4945585525536
 20
281.56106062008
 30
0.0
  0
SEQEND
  5
44BE
330
448B
100
AcDbEntity
  8
MODEL
  0
POLYLINE
  5
44BF
330
A
100
AcDbEntity
  8
MODEL
100
AcDb2dPolyline
 66
     1
 10
0.0
 20
0.0
 30
0.0
  0
VERTEX
  5
44C0
330
44BF
100
AcDbEntity
  8
MODEL
100
AcDbVertex
100
AcDb2dVertex
 10
267.085697090816
 20
288.9708357888382
 30
0.0
  0
VERTEX
  5
44C1
330
44BF
100
AcDbEntity
  8
MODEL
100
AcDbVertex
100
AcDb2dVertex
 10
267.0843190407568
 20
288.9791040891939
 30
0.0
  0
VERTEX
  5
44C2
330
44BF
100
AcDbEntity
  8
MODEL
100
AcDbVertex
100
AcDb2dVertex
 10
267.0808739156086
 20
288.9956406899053
 30
0.0
  0
VERTEX
  5
44C3
330
44BF
100
AcDbEntity
  8
MODEL
100
AcDbVertex
100
AcDb2dVertex
 10
267.0794958655493
 20
289.0149333907352
 30
0.0
  0
VERTEX
  5
44C4
330
44BF
100
AcDbEntity
  8
MODEL
100
AcDbVertex
100
AcDb2dVertex
 10
267.0794958655493
 20
289.0328480415059
 30
0.0
  0
VERTEX
  5
44C5
330
44BF
100
AcDbEntity
  8
MODEL
100
AcDbVertex
100
AcDb2dVertex
 10
267.0794958655493
 20
289.0507626922766
 30
0.0
  0
VERTEX
  5
44C6
330
44BF
100
AcDbEntity
  8
MODEL
100
AcDbVertex
100
AcDb2dVertex
 10
267.0808739156086
 20
289.0700553931065
 30
0.0
  0
VERTEX
  5
44C7
330
44BF
100
AcDbEntity
  8
MODEL
100
AcDbVertex
100
AcDb2dVertex
 10
267.0843190407568
 20
289.0879700438772
 30
0.0
  0
VERTEX
  5
44C8
330
44BF
100
AcDbEntity
  8
MODEL
100
AcDbVertex
100
AcDb2dVertex
 10
267.0870751408754
 20
289.1045066445885
 30
0.0
  0
VERTEX
  5
44C9
330
44BF
100
AcDbEntity
  8
MODEL
100
AcDbVertex
100
AcDb2dVertex
 10
267.0898312409939
 20
289.1141529950035
 30
0.0
  0
VERTEX
  5
44CA
330
44BF
100
AcDbEntity
  8
MODEL
100
AcDbVertex
100
AcDb2dVertex
 10
267.095343441231
 20
289.1320676457742
 30
0.0
  0
VERTEX
  5
44CB
330
44BF
100
AcDbEntity
  8
MODEL
100
AcDbVertex
100
AcDb2dVertex
 10
267.1008556414682
 20
289.1486042464855
 30
0.0
  0
SEQEND
  5
44CC
330
44BF
100
AcDbEntity
  8
MODEL
  0
POLYLINE
  5
44CD
330
A
100
AcDbEntity
  8
MODEL
100
AcDb2dPolyline
 66
     1
 10
0.0
 20
0.0
 30
0.0
  0
VERTEX
  5
44CE
330
44CD
100
AcDbEntity
  8
MODEL
100
AcDbVertex
100
AcDb2dVertex
 10
273.5053432919803
 20
289.1527383966634
 30
0.0
  0
VERTEX
  5
44CF
330
44CD
100
AcDbEntity
  8
MODEL
100
AcDbVertex
100
AcDb2dVertex
 10
273.5094774421582
 20
289.1596286469598
 30
0.0
  0
VERTEX
  5
44D0
330
44CD
100
AcDbEntity
  8
MODEL
100
AcDbVertex
100
AcDb2dVertex
 10
273.513611592336
 20
289.1678969473155
 30
0.0
  0
VERTEX
  5
44D1
330
44CD
100
AcDbEntity
  8
MODEL
100
AcDbVertex
100
AcDb2dVertex
 10
273.5205018426324
 20
289.1789213477898
 30
0.0
  0
VERTEX
  5
44D2
330
44CD
100
AcDbEntity
  8
MODEL
100
AcDbVertex
100
AcDb2dVertex
 10
273.5267030678992
 20
289.1871896481454
 30
0.0
  0
VERTEX
  5
44D3
330
44CD
100
AcDbEntity
  8
MODEL
100
AcDbVertex
100
AcDb2dVertex
 10
273.5349713682549
 20
289.1940798984418
 30
0.0
  0
VERTEX
  5
44D4
330
44CD
100
AcDbEntity
  8
MODEL
100
AcDbVertex
100
AcDb2dVertex
 10
273.5418616185513
 20
289.2009701487382
 30
0.0
  0
VERTEX
  5
44D5
330
44CD
100
AcDbEntity
  8
MODEL
100
AcDbVertex
100
AcDb2dVertex
 10
273.5446177186698
 20
289.2037262488569
 30
0.0
  0
VERTEX
  5
44D6
330
44CD
100
AcDbEntity
  8
MODEL
100
AcDbVertex
100
AcDb2dVertex
 10
273.5549530941145
 20
289.209238449094
 30
0.0
  0
VERTEX
  5
44D7
330
44CD
100
AcDbEntity
  8
MODEL
100
AcDbVertex
100
AcDb2dVertex
 10
273.5645994445294
 20
289.2133725992718
 30
0.0
  0
VERTEX
  5
44D8
330
44CD
100
AcDbEntity
  8
MODEL
100
AcDbVertex
100
AcDb2dVertex
 10
273.5742457949444
 20
289.2161286993904
 30
0.0
  0
VERTEX
  5
44D9
330
44CD
100
AcDbEntity
  8
MODEL
100
AcDbVertex
100
AcDb2dVertex
 10
273.5859592204483
 20
289.2175067494497
 30
0.0
  0
SEQEND
  5
44DA
330
44CD
100
AcDbEntity
  8
MODEL
  0
POLYLINE
  5
44DB
330
A
100
AcDbEntity
  8
MODEL
100
AcDb2dPolyline
 66
     1
 10
0.0
 20
0.0
 30
0.0
  0
VERTEX
  5
44DC
330
44DB
100
AcDbEntity
  8
MODEL
100
AcDbVertex
100
AcDb2dVertex
 10
273.3186175089476
 20
288.7875551309538
 30
0.0
  0
VERTEX
  5
44DD
330
44DB
100
AcDbEntity
  8
MODEL
100
AcDbVertex
100
AcDb2dVertex
 10
273.3013918832066
 20
288.7558599795902
 30
0.0
  0
VERTEX
  5
44DE
330
44DB
100
AcDbEntity
  8
MODEL
100
AcDbVertex
100
AcDb2dVertex
 10
273.281410157347
 20
288.7269209283454
 30
0.0
  0
VERTEX
  5
44DF
330
44DB
100
AcDbEntity
  8
MODEL
100
AcDbVertex
100
AcDb2dVertex
 10
273.2579833063392
 20
288.6966038270411
 30
0.0
  0
VERTEX
  5
44E0
330
44DB
100
AcDbEntity
  8
MODEL
100
AcDbVertex
100
AcDb2dVertex
 10
273.2324893802426
 20
288.6676647757963
 30
0.0
  0
VERTEX
  5
44E1
330
44DB
100
AcDbEntity
  8
MODEL
100
AcDbVertex
100
AcDb2dVertex
 10
273.202861303968
 20
288.637347674492
 30
0.0
  0
VERTEX
  5
44E2
330
44DB
100
AcDbEntity
  8
MODEL
100
AcDbVertex
100
AcDb2dVertex
 10
273.1704771275748
 20
288.608408623247
 30
0.0
  0
VERTEX
  5
44E3
330
44DB
100
AcDbEntity
  8
MODEL
100
AcDbVertex
100
AcDb2dVertex
 10
273.1332697759743
 20
288.5780915219429
 30
0.0
  0
VERTEX
  5
44E4
330
44DB
100
AcDbEntity
  8
MODEL
100
AcDbVertex
100
AcDb2dVertex
 10
273.0926172992254
 20
288.5505305207573
 30
0.0
  0
VERTEX
  5
44E5
330
44DB
100
AcDbEntity
  8
MODEL
100
AcDbVertex
100
AcDb2dVertex
 10
273.0698794732473
 20
288.5353719701051
 30
0.0
  0
VERTEX
  5
44E6
330
44DB
100
AcDbEntity
  8
MODEL
100
AcDbVertex
100
AcDb2dVertex
 10
273.0237147962613
 20
288.5064329188603
 30
0.0
  0
VERTEX
  5
44E7
330
44DB
100
AcDbEntity
  8
MODEL
100
AcDbVertex
100
AcDb2dVertex
 10
272.9727269440679
 20
288.4788719176747
 30
0.0
  0
VERTEX
  5
44E8
330
44DB
100
AcDbEntity
  8
MODEL
100
AcDbVertex
100
AcDb2dVertex
 10
272.9176049416967
 20
288.451310916489
 30
0.0
  0
VERTEX
  5
44E9
330
44DB
100
AcDbEntity
  8
MODEL
100
AcDbVertex
100
AcDb2dVertex
 10
272.855592689029
 20
288.4237499153033
 30
0.0
  0
VERTEX
  5
44EA
330
44DB
100
AcDbEntity
  8
MODEL
100
AcDbVertex
100
AcDb2dVertex
 10
272.8500804887918
 20
288.4209938151848
 30
0.0
  0
VERTEX
  5
44EB
330
44DB
100
AcDbEntity
  8
MODEL
100
AcDbVertex
100
AcDb2dVertex
 10
272.7804889607981
 20
288.3920547639398
 30
0.0
  0
VERTEX
  5
44EC
330
44DB
100
AcDbEntity
  8
MODEL
100
AcDbVertex
100
AcDb2dVertex
 10
272.7102084077747
 20
288.3644937627543
 30
0.0
  0
SEQEND
  5
44ED
330
44DB
100
AcDbEntity
  8
MODEL
  0
POLYLINE
  5
44EE
330
A
100
AcDbEntity
  8
MODEL
100
AcDb2dPolyline
 66
     1
 10
0.0
 20
0.0
 30
0.0
  0
VERTEX
  5
44EF
330
44EE
100
AcDbEntity
  8
MODEL
100
AcDbVertex
100
AcDb2dVertex
 10
267.4929108833339
 20
288.3644937627543
 30
0.0
  0
VERTEX
  5
44F0
330
44EE
100
AcDbEntity
  8
MODEL
100
AcDbVertex
100
AcDb2dVertex
 10
267.4591486568814
 20
288.4127255148291
 30
0.0
  0
VERTEX
  5
44F1
330
44EE
100
AcDbEntity
  8
MODEL
100
AcDbVertex
100
AcDb2dVertex
 10
267.4198742301919
 20
288.4650914170818
 30
0.0
  0
VERTEX
  5
44F2
330
44EE
100
AcDbEntity
  8
MODEL
100
AcDbVertex
100
AcDb2dVertex
 10
267.3819778535617
 20
288.5119451190973
 30
0.0
  0
VERTEX
  5
44F3
330
44EE
100
AcDbEntity
  8
MODEL
100
AcDbVertex
100
AcDb2dVertex
 10
267.3551058774057
 20
288.5436402704609
 30
0.0
  0
VERTEX
  5
44F4
330
44EE
100
AcDbEntity
  8
MODEL
100
AcDbVertex
100
AcDb2dVertex
 10
267.3082521753901
 20
288.6001403228914
 30
0.0
  0
VERTEX
  5
44F5
330
44EE
100
AcDbEntity
  8
MODEL
100
AcDbVertex
100
AcDb2dVertex
 10
267.2607094483449
 20
288.656640375322
 30
0.0
  0
VERTEX
  5
44F6
330
44EE
100
AcDbEntity
  8
MODEL
100
AcDbVertex
100
AcDb2dVertex
 10
267.239349672426
 20
288.6828233264483
 30
0.0
  0
VERTEX
  5
44F7
330
44EE
100
AcDbEntity
  8
MODEL
100
AcDbVertex
100
AcDb2dVertex
 10
267.2042093959143
 20
288.7269209283454
 30
0.0
  0
VERTEX
  5
44F8
330
44EE
100
AcDbEntity
  8
MODEL
100
AcDbVertex
100
AcDb2dVertex
 10
267.1759593696991
 20
288.7682624301238
 30
0.0
  0
VERTEX
  5
44F9
330
44EE
100
AcDbEntity
  8
MODEL
100
AcDbVertex
100
AcDb2dVertex
 10
267.1518434936616
 20
288.8068478317837
 30
0.0
  0
VERTEX
  5
44FA
330
44EE
100
AcDbEntity
  8
MODEL
100
AcDbVertex
100
AcDb2dVertex
 10
267.131861767802
 20
288.8412990832657
 30
0.0
  0
VERTEX
  5
44FB
330
44EE
100
AcDbEntity
  8
MODEL
100
AcDbVertex
100
AcDb2dVertex
 10
267.1153251670906
 20
288.8757503347477
 30
0.0
  0
VERTEX
  5
44FC
330
44EE
100
AcDbEntity
  8
MODEL
100
AcDbVertex
100
AcDb2dVertex
 10
267.1022336915274
 20
288.9088235361706
 30
0.0
  0
VERTEX
  5
44FD
330
44EE
100
AcDbEntity
  8
MODEL
100
AcDbVertex
100
AcDb2dVertex
 10
267.0925873411125
 20
288.9391406374747
 30
0.0
  0
VERTEX
  5
44FE
330
44EE
100
AcDbEntity
  8
MODEL
100
AcDbVertex
100
AcDb2dVertex
 10
267.085697090816
 20
288.9708357888382
 30
0.0
  0
SEQEND
  5
44FF
330
44EE
100
AcDbEntity
  8
MODEL
  0
MTEXT
  5
4503
330
A
100
AcDbEntity
  8
TEMPLATE
390
1D
100
AcDbMText
 10
265.840428909598
 20
78.15343721388523
 30
0.0
 40
4.8865234375
 41
0.0
 46
5.458461156332062
 71
     1
 72
     1
  1
{FLR74-2807-015(マットブラック)}
  7
ＭＳ ゴシック
 73
     1
 44
0.7828267384257843
1001
ACAD
1000
ACAD_MTEXT_DEFINED_HEIGHT_BEGIN
1070
    46
1040
5.458461156332062
1000
ACAD_MTEXT_DEFINED_HEIGHT_END
  0
MTEXT
  5
4504
330
A
100
AcDbEntity
  8
TEMPLATE
390
1D
100
AcDbMText
 10
265.840428909598
 20
86.40266216393955
 30
0.0
 40
4.8865234375
 41
0.0
 46
5.458461156332062
 71
     1
 72
     1
  1
{FLR74-2807-011(ホワイト)}
  7
ＭＳ ゴシック
 73
     1
 44
0.7828267384257843
1001
ACAD
1000
ACAD_MTEXT_DEFINED_HEIGHT_BEGIN
1070
    46
1040
5.458461156332062
1000
ACAD_MTEXT_DEFINED_HEIGHT_END
  0
DIMENSION
  5
4521
330
A
100
AcDbEntity
  8
DIM
100
AcDbDimension
  2
*D14
 10
355.4669376428542
 20
248.7182834573848
 30
0.0
 11
302.216327252087
 21
254.2192213090792
 31
0.0
 70
    32
 71
     5
 42
106.5012207815345
 73
     0
 74
     0
 75
     0
  3
tfrom線あり
100
AcDbAlignedDimension
 13
248.9657168613197
 23
277.6141198871118
 33
0.0
 14
355.4669376428542
 24
285.785235296331
 34
0.0
100
AcDbRotatedDimension
  0
DIMENSION
  5
4530
330
A
100
AcDbEntity
  8
DIM
100
AcDbDimension
  2
*D15
 10
381.9370946994207
 20
273.3671749675904
 30
0.0
 11
376.4361568477263
 21
320.0427640130094
 31
0.0
 70
    32
 71
     5
 42
93.351178090838
 73
     0
 74
     0
 75
     0
  3
tfrom線あり
100
AcDbAlignedDimension
 13
358.5910506730801
 23
366.7183530584284
 33
0.0
 14
307.5215793654602
 24
273.3671749675904
 34
0.0
 50
90.0
100
AcDbRotatedDimension
  0
DIMENSION
  5
453F
330
A
100
AcDbEntity
  8
DIM
100
AcDbDimension
  2
*D16
 10
139.2771948877125
 20
392.9359169565382
 30
0.0
 11
93.2771948838563
 21
398.4368548082326
 31
0.0
 70
    32
 71
     5
 42
92.00000000771232
 73
     0
 74
     0
 75
     0
  3
tfrom線あり
100
AcDbAlignedDimension
 13
47.27719488000014
 23
370.7064704421448
 33
0.0
 14
139.2771948877125
 24
370.7064704421448
 34
0.0
100
AcDbRotatedDimension
1001
ACAD
1000
DSTYLE
1002
{
1070
     3
1000
%%c<>
1002
}
  0
DIMENSION
  5
4551
330
A
100
AcDbEntity
  8
DIM
100
AcDbDimension
  2
*D17
 10
171.4561994968021
 20
273.3671749675905
 30
0.0
 11
165.9552616451077
 21
291.0117279266346
 31
0.0
 70
    32
 71
     5
 42
35.28910591808835
 73
     0
 74
     0
 75
     0
  3
tfrom線あり
100
AcDbAlignedDimension
 13
124.1804603434625
 23
308.6562808856788
 33
0.0
 14
124.1804603434625
 24
273.3671749675905
 34
0.0
 50
90.0
100
AcDbRotatedDimension
  0
DIMENSION
  5
4560
330
A
100
AcDbEntity
  8
DIM
100
AcDbDimension
  2
*D18
 10
103.2770151390348
 20
380.235669006209
 30
0.0
 11
93.27719488385635
 21
385.7366068579034
 31
0.0
 70
    32
 71
     5
 42
19.99964051035684
 73
     0
 74
     0
 75
     0
  3
tfrom線あり
100
AcDbAlignedDimension
 13
83.27737462867793
 23
317.4815026634055
 33
0.0
 14
103.2770151390348
 24
317.4815026634055
 34
0.0
100
AcDbRotatedDimension
  0
LINE
  5
45C1
330
A
100
AcDbEntity
  8
MODEL
 62
     0
100
AcDbLine
 10
191.9657168613197
 20
308.6562808856789
 30
0.0
 11
194.843275062892
 21
309.7675030320559
 31
0.0
  0
LINE
  5
45C2
102
{ACAD_REACTORS
330
45D9
102
}
330
A
100
AcDbEntity
  8
MODEL
 62
     0
100
AcDbLine
 10
191.9657168613197
 20
308.6562808856789
 30
0.0
 11
194.8432750628918
 21
307.545058739302
 31
0.0
  0
LINE
  5
45C3
330
A
100
AcDbEntity
  8
MODEL
 62
     0
100
AcDbLine
 10
192.4966571639963
 20
306.3753933399302
 30
0.0
 11
196.341581883973
 21
310.9371684314277
 31
0.0
  0
LINE
  5
45C4
330
A
100
AcDbEntity
  8
MODEL
 62
     0
100
AcDbLine
 10
195.3162959201558
 20
306.3753933399302
 30
0.0
 11
199.1612206401324
 21
310.9371684314277
 31
0.0
  0
LINE
  5
45C5
330
A
100
AcDbEntity
  8
MODEL
 62
     0
100
AcDbLine
 10
198.1359346763158
 20
306.3753933399302
 30
0.0
 11
201.9808593962922
 21
310.9371684314277
 31
0.0
  0
LINE
  5
45C6
330
A
100
AcDbEntity
  8
MODEL
 62
     0
100
AcDbLine
 10
201.2778178617507
 20
306.3753933399302
 30
0.0
 11
205.1227425817274
 21
310.9371684314277
 31
0.0
  0
LINE
  5
45C7
330
A
100
AcDbEntity
  8
MODEL
 62
     0
100
AcDbLine
 10
204.6613843691425
 20
306.3753933399302
 30
0.0
 11
208.506309089119
 21
310.9371684314277
 31
0.0
  0
LINE
  5
45C8
330
A
100
AcDbEntity
  8
MODEL
 62
     0
100
AcDbLine
 10
194.843275062892
 20
309.7675030320559
 30
0.0
 11
248.9657168613197
 21
309.7675030320559
 31
0.0
  0
LINE
  5
45C9
330
A
100
AcDbEntity
  8
MODEL
 62
     0
100
AcDbLine
 10
207.935373918604
 20
306.3753933399302
 30
0.0
 11
211.7802986385805
 21
310.9371684314277
 31
0.0
  0
LINE
  5
45CA
330
A
100
AcDbEntity
  8
MODEL
 62
     0
100
AcDbLine
 10
211.3189404259956
 20
306.3753933399302
 30
0.0
 11
215.1638651459721
 21
310.9371684314277
 31
0.0
  0
LINE
  5
45CB
330
A
100
AcDbEntity
  8
MODEL
 62
     0
100
AcDbLine
 10
214.8948978536349
 20
306.3753933399302
 30
0.0
 11
218.7398225736115
 21
310.9371684314277
 31
0.0
  0
LINE
  5
45CC
330
A
100
AcDbEntity
  8
MODEL
 62
     0
100
AcDbLine
 10
194.8432750628922
 20
307.545058739302
 30
0.0
 11
248.9657168613197
 21
307.5450587393017
 31
0.0
  0
LINE
  5
45CD
330
A
100
AcDbEntity
  8
MODEL
 62
     0
100
AcDbLine
 10
218.3311101305878
 20
306.3753933399302
 30
0.0
 11
222.1760348505644
 21
310.9371684314277
 31
0.0
  0
LINE
  5
45CE
330
A
100
AcDbEntity
  8
MODEL
 62
     0
100
AcDbLine
 10
221.7146766379796
 20
306.3753933399302
 30
0.0
 11
225.5596013579561
 21
310.9371684314277
 31
0.0
  0
LINE
  5
45CF
330
A
100
AcDbEntity
  8
MODEL
 62
     0
100
AcDbLine
 10
224.988666187441
 20
306.3753933399302
 30
0.0
 11
228.8335909074175
 21
310.9371684314277
 31
0.0
  0
LINE
  5
45D0
330
A
100
AcDbEntity
  8
MODEL
 62
     0
100
AcDbLine
 10
228.3722326948327
 20
306.3753933399302
 30
0.0
 11
232.2171574148091
 21
310.9371684314277
 31
0.0
  0
LINE
  5
45D1
330
A
100
AcDbEntity
  8
MODEL
 62
     0
100
AcDbLine
 10
231.948190122472
 20
306.3753933399302
 30
0.0
 11
235.6709450594104
 21
310.792221231213
 31
0.0
  0
LINE
  5
45D2
330
A
100
AcDbEntity
  8
MODEL
100
AcDbLine
 10
248.9657168613197
 20
309.7675030320559
 30
0.0
 11
248.9657168613197
 21
307.5450587393017
 31
0.0
  0
LINE
  5
45D3
330
A
100
AcDbEntity
  8
MODEL
 62
     0
100
AcDbLine
 10
235.4087673359365
 20
306.3753933399302
 30
0.0
 11
239.2536920559131
 21
310.9371684314277
 31
0.0
  0
LINE
  5
45D4
330
A
100
AcDbEntity
  8
MODEL
 62
     0
100
AcDbLine
 10
238.7923338433283
 20
306.3753933399302
 30
0.0
 11
242.6372585633048
 21
310.9371684314277
 31
0.0
  0
LINE
  5
45D5
330
A
100
AcDbEntity
  8
MODEL
 62
     0
100
AcDbLine
 10
242.0663233927897
 20
306.3753933399302
 30
0.0
 11
245.9112481127662
 21
310.9371684314277
 31
0.0
  0
LINE
  5
45D6
330
A
100
AcDbEntity
  8
MODEL
 62
     0
100
AcDbLine
 10
245.4498899001815
 20
306.3753933399302
 30
0.0
 11
248.9657168613197
 21
310.5467134633146
 31
0.0
  0
DIMENSION
  5
45D7
102
{ACAD_REACTORS
330
45D9
102
}
102
{ACAD_XDICTIONARY
360
45D8
102
}
330
A
100
AcDbEntity
  8
DIM
100
AcDbDimension
  2
*D19
 10
191.9657168613197
 20
353.4962422579202
 30
0.0
 11
220.4657168613197
 21
358.9971801096146
 31
0.0
 70
    32
 71
     5
 42
56.99999999999997
 73
     0
 74
     0
 75
     0
  3
tfrom線あり
100
AcDbAlignedDimension
 13
248.9657168613197
 23
332.7177239457686
 33
0.0
 14
191.9657168613197
 24
308.6562808856789
 34
0.0
100
AcDbRotatedDimension
  0
DIMENSION
  5
45F5
330
A
100
AcDbEntity
  8
DIM
100
AcDbDimension
  2
*D21
 10
31.83468998430737
 20
280.7176939837997
 30
0.0
 11
26.33375213261297
 21
306.7175409906964
 31
0.0
 70
    32
 71
     5
 42
51.99969401379337
 73
     0
 74
     0
 75
     0
  3
tfrom線あり
100
AcDbAlignedDimension
 13
79.25931411640335
 23
332.7173879975931
 33
0.0
 14
79.2144838383257
 24
280.7176939837997
 34
0.0
 50
90.0
100
AcDbRotatedDimension
1001
ACAD
1000
DSTYLE
1002
{
1070
     3
1000
<>
1002
}
  0
MTEXT
  5
4621
330
A
100
AcDbEntity
  8
TEMPLATE
390
1D
100
AcDbMText
 10
24.85372994973007
 20
44.19174921702566
 30
0.0
 40
5.0
 41
0.0
 46
2.791867262723521
 71
     1
 72
     1
  1
{ビス：M4x60mm・プラグS6(下穴Ø6mm)付属}
  7
ＭＳ ゴシック
 73
     1
 44
0.7828267384257843
1001
ACAD
1000
ACAD_MTEXT_DEFINED_HEIGHT_BEGIN
1070
    46
1040
2.791867262723521
1000
ACAD_MTEXT_DEFINED_HEIGHT_END
  0
VIEWPORT
  5
349
330
B
100
AcDbEntity
 67
     1
  8
0
100
AcDbViewport
 10
202.5
 20
128.5
 30
0.0
 40
486.0
 41
308.4
 68
     1
 69
     1
 12
202.5
 22
128.5
 13
0.0
 23
0.0
 14
0.5
 24
0.5
 15
0.0
 25
0.0
 16
0.0
 26
0.0
 36
1.0
 17
0.0
 27
0.0
 37
0.0
 42
50.0
 43
0.0
 44
0.0
 45
308.4
 50
0.0
 51
0.0
 72
   100
 90
   557152
  1

281
     0
 71
     1
 74
     0
110
0.0
120
0.0
130
0.0
111
1.0
121
0.0
131
0.0
112
0.0
122
1.0
132
0.0
 79
     0
146
0.0
170
     0
 61
     5
348
26C
292
     1
282
     1
141
0.0
142
0.0
 63
   256
  0
VIEWPORT
  5
34A
330
B
100
AcDbEntity
 67
     1
  8
0
100
AcDbViewport
 10
202.5
 20
128.5
 30
0.0
 40
324.0
 41
205.6
 68
     2
 69
     2
 12
986.6781359294573
 22
1427.077061889956
 13
0.0
 23
0.0
 14
0.5
 24
0.5
 15
0.0
 25
0.0
 16
0.0
 26
0.0
 36
1.0
 17
0.0
 27
0.0
 37
0.0
 42
50.0
 43
0.0
 44
0.0
 45
2890.021615685494
 50
0.0
 51
0.0
 72
   100
 90
   557152
  1

281
     0
 71
     1
 74
     0
110
0.0
120
0.0
130
0.0
111
1.0
121
0.0
131
0.0
112
0.0
122
1.0
132
0.0
 79
     0
146
0.0
170
     0
 61
     5
348
26C
292
     1
282
     1
141
0.0
142
0.0
 63
   256
  0
ENDSEC
  0
SECTION
  2
OBJECTS
  0
DICTIONARY
  5
19
330
0
100
AcDbDictionary
281
     1
  3
ACAD_COLOR
350
674
  3
ACAD_DETAILVIEWSTYLE
350
BBF
  3
ACAD_FIELDLIST
350
3BE4
  3
ACAD_GROUP
350
1A
  3
ACAD_IMAGE_VARS
350
27B
  3
ACAD_LAYOUT
350
1E
  3
ACAD_MATERIAL
350
263
  3
ACAD_MLEADERSTYLE
350
336
  3
ACAD_MLINESTYLE
350
1B
  3
ACAD_PLOTSETTINGS
350
22
  3
ACAD_PLOTSTYLENAME
350
1F
  3
ACAD_SCALELIST
350
241
  3
ACAD_SECTIONVIEWSTYLE
350
BC0
  3
ACAD_TABLESTYLE
350
278
  3
ACAD_VISUALSTYLE
350
267
  3
ACDB_RECOMPOSE_DATA
350
4629
  3
AcDbVariableDictionary
350
330
  3
APPDATA
350
27A
  3
DimOffsetDictionary
350
E38
  0
SUN
  5
904
330
15
100
AcDbSun
 90
        1
290
     0
 63
     7
421
 16777215
 40
1.0
291
     1
 91
  2455826
 92
 54000000
292
     0
 70
     2
 71
   256
280
     1
  0
DICTIONARY
  5
2E1
330
2
100
AcDbDictionary
280
     1
281
     1
  3
ACAD_LAYERSTATES
360
2E2
  3
ACLYDICTIONARY
360
DDE
  0
DICTIONARY
  5
3D3D
330
A
100
AcDbDictionary
280
     1
281
     1
  3
ACAD_SORTENTS
360
3D3E
  0
DICTIONARY
  5
3CB7
330
3CB5
100
AcDbDictionary
280
     1
281
     1
  3
ACAD_FIELD
360
4623
  0
DICTIONARY
  5
45D8
330
45D7
100
AcDbDictionary
280
     1
281
     1
  3
ACAD_DIMASSOC
360
45D9
  0
DICTIONARY
  5
674
102
{ACAD_REACTORS
330
19
102
}
330
19
100
AcDbDictionary
281
     1
  0
DICTIONARY
  5
BBF
102
{ACAD_REACTORS
330
19
102
}
330
19
100
AcDbDictionary
281
     1
  0
FIELDLIST
  5
3BE4
102
{ACAD_REACTORS
330
19
102
}
330
19
100
AcDbIdSet
 90
        2
330
3CB9
330
3CB6
100
AcDbFieldList
  0
DICTIONARY
  5
1A
102
{ACAD_REACTORS
330
19
102
}
330
19
100
AcDbDictionary
281
     1
  3
*A1
350
3C75
  3
*A2
350
456F
  0
RASTERVARIABLES
  5
27B
102
{ACAD_REACTORS
330
19
102
}
330
19
100
AcDbRasterVariables
 90
        0
 70
     1
 71
     1
 72
     1
  0
DICTIONARY
  5
1E
102
{ACAD_REACTORS
330
19
102
}
330
19
100
AcDbDictionary
281
     1
  3
Layout1
350
21
  3
Model
350
20
  0
DICTIONARY
  5
263
102
{ACAD_REACTORS
330
19
102
}
330
19
100
AcDbDictionary
281
     1
  3
ByBlock
350
265
  3
ByLayer
350
264
  3
Global
350
266
  0
DICTIONARY
  5
336
102
{ACAD_REACTORS
330
19
102
}
330
19
100
AcDbDictionary
281
     1
  3
Standard
350
D59
  0
DICTIONARY
  5
1B
102
{ACAD_REACTORS
330
19
102
}
330
19
100
AcDbDictionary
281
     1
  3
Standard
350
1C
  0
DICTIONARY
  5
22
102
{ACAD_REACTORS
330
19
102
}
330
19
100
AcDbDictionary
281
     1
  0
ACDBDICTIONARYWDFLT
  5
1F
102
{ACAD_REACTORS
330
19
102
}
330
19
100
AcDbDictionary
281
     1
  3
Normal
350
1D
100
AcDbDictionaryWithDefault
340
1D
  0
DICTIONARY
  5
241
102
{ACAD_REACTORS
330
19
102
}
330
19
100
AcDbDictionary
281
     1
  3
A0
350
242
  3
A1
350
243
  3
A2
350
244
  3
A3
350
245
  3
A4
350
246
  3
A5
350
247
  3
A6
350
248
  3
A7
350
249
  3
A8
350
24A
  3
A9
350
24B
  3
B0
350
24C
  3
B1
350
24D
  3
B2
350
24E
  3
B3
350
24F
  3
B4
350
250
  3
B5
350
251
  3
B6
350
252
  3
B7
350
253
  3
B8
350
254
  3
B9
350
255
  3
C0
350
256
  3
C1
350
257
  3
C2
350
258
  3
C3
350
259
  3
C4
350
25A
  3
C5
350
25B
  3
C6
350
25C
  3
C7
350
25D
  3
C8
350
25E
  3
C9
350
25F
  3
D0
350
260
  3
D1
350
261
  3
D2
350
262
  0
DICTIONARY
  5
BC0
102
{ACAD_REACTORS
330
19
102
}
330
19
100
AcDbDictionary
281
     1
  0
DICTIONARY
  5
278
102
{ACAD_REACTORS
330
19
102
}
330
19
100
AcDbDictionary
281
     1
  3
Standard
350
279
  0
DICTIONARY
  5
267
102
{ACAD_REACTORS
330
19
102
}
330
19
100
AcDbDictionary
281
     1
  3
2dWireframe
350
26C
  3
3D Hidden
350
26E
  3
3dWireframe
350
26D
  3
Basic
350
26F
  3
Brighten
350
273
  3
ColorChange
350
277
  3
Conceptual
350
271
  3
Dim
350
272
  3
EdgeColorOff
350
8FE
  3
Facepattern
350
276
  3
Flat
350
268
  3
FlatWithEdges
350
269
  3
Gouraud
350
26A
  3
GouraudWithEdges
350
26B
  3
Hidden
350
8FB
  3
JitterOff
350
8FC
  3
Linepattern
350
275
  3
OverhangOff
350
8FD
  3
Realistic
350
270
  3
Shaded
350
903
  3
Shaded with edges
350
902
  3
Shades of Gray
350
8FF
  3
Sketchy
350
900
  3
Thicken
350
274
  3
Wireframe
350
8FA
  3
X-Ray
350
901
  0
XRECORD
  5
4629
102
{ACAD_REACTORS
330
19
102
}
330
19
100
AcDbXrecord
280
     1
 90
        1
330
279
  0
DICTIONARY
  5
330
102
{ACAD_REACTORS
330
19
102
}
330
19
100
AcDbDictionary
281
     1
  3
CANNOSCALE
350
331
  3
CMLEADERSTYLE
350
D5E
  3
CTABLESTYLE
350
335
  3
HPTRANSPARENCY
350
D52
  3
XCLIPFRAME
350
896
  0
DICTIONARY
  5
27A
102
{ACAD_REACTORS
330
19
102
}
330
19
100
AcDbDictionary
281
     1
  0
DICTIONARY
  5
E38
102
{ACAD_REACTORS
330
19
102
}
330
19
100
AcDbDictionary
281
     1
  3
DIMRAILANGLE
350
246C
  3
DIMRAILFIRSTOFFSET
350
246A
  3
DIMRAILOFFSET
350
246B
  3
DIMRAILSENABLED
350
246D
  0
DICTIONARY
  5
2E2
102
{ACAD_REACTORS
330
2E1
102
}
330
2E1
100
AcDbDictionary
281
     1
  0
DICTIONARY
  5
DDE
102
{ACAD_REACTORS
330
2E1
102
}
330
2E1
100
AcDbDictionary
281
     1
1001
ACAD
1000
<All
  0
SORTENTSTABLE
  5
3D3E
102
{ACAD_REACTORS
330
3D3D
102
}
330
3D3D
100
AcDbSortentsTable
330
A
331
3C64
  5
3C1F
331
3C65
  5
3C63
331
3C70
  5
3C64
331
3C71
  5
3C65
331
3C72
  5
3C70
331
3C73
  5
3C71
331
3C74
  5
3C72
331
3CB5
  5
3C92
  0
DICTIONARY
  5
4623
102
{ACAD_REACTORS
330
3CB7
102
}
330
3CB7
100
AcDbDictionary
280
     1
281
     1
  3
TEXT
360
3CB6
  0
DIMASSOC
  5
45D9
102
{ACAD_REACTORS
330
45D8
102
}
330
45D8
100
AcDbDimAssoc
330
45D7
 90
        3
 70
     0
 71
     1
  1
AcDbOsnapPointRef
 72
     1
331
42AD
 73
     2
 91
        1
 40
1.0
 10
0.0
 20
0.0
 30
0.0
 75
     0
  1
AcDbOsnapPointRef
 72
    13
331
45C2
 73
     0
 91
        0
 40
0.0
 10
0.0
 20
0.0
 30
0.0
 75
     0
  0
GROUP
  5
3C75
102
{ACAD_REACTORS
330
1A
102
}
330
1A
100
AcDbGroup
300

 70
     1
 71
     1
340
3C64
340
3C65
340
3C70
340
3C71
340
3C72
340
3C73
340
3C74
  0
GROUP
  5
456F
102
{ACAD_REACTORS
330
1A
102
}
330
1A
100
AcDbGroup
300

 70
     1
 71
     1
340
413F
340
4141
340
4148
340
4149
340
414A
340
414E
340
415E
340
415F
340
4160
340
4161
340
4162
340
4163
340
4164
340
4165
340
4204
340
428D
340
4291
340
4295
340
4299
340
42A1
340
42A2
340
42A3
340
42A4
340
42A5
340
42A6
340
42A7
340
42A8
340
42BF
340
440D
340
441A
340
441E
340
4427
340
4430
340
444E
340
4451
  0
LAYOUT
  5
21
102
{ACAD_REACTORS
330
1E
102
}
330
1E
100
AcDbPlotSettings
  1

  2
none_device
  4
ISO_A3_(420.00_x_297.00_MM)
  6

 40
7.5
 41
20.0
 42
7.5
 43
20.0
 44
420.0
 45
297.0
 46
0.0
 47
0.0
 48
0.0
 49
0.0
140
0.0
141
0.0
142
1.0
143
1.0
 70
     0
 72
     1
 73
     0
 74
     0
  7

 75
     0
 76
     0
 77
     2
 78
   300
147
1.0
148
0.0
149
0.0
100
AcDbLayout
  1
Layout1
 70
     0
 71
     0
 10
-7.5
 20
-20.0
 11
412.5
 21
277.0
 12
0.0
 22
0.0
 32
0.0
 14
0.0
 24
0.0
 34
0.0
 15
0.0
 25
0.0
 35
0.0
146
0.0
 13
0.0
 23
0.0
 33
0.0
 16
0.0
 26
0.0
 36
0.0
 17
0.0
 27
0.0
 37
0.0
 76
     0
330
B
331
349
  0
LAYOUT
  5
20
102
{ACAD_REACTORS
330
1E
102
}
330
1E
100
AcDbPlotSettings
  1

  2
none_device
  4
ISO_A3_(420.00_x_297.00_MM)
  6

 40
7.5
 41
20.0
 42
7.5
 43
20.0
 44
420.0
 45
297.0
 46
0.0
 47
0.0
 48
0.0
 49
0.0
140
0.0
141
0.0
142
1.0
143
1.0
 70
  1024
 72
     1
 73
     0
 74
     0
  7

 75
     0
 76
     0
 77
     2
 78
   300
147
1.0
148
0.0
149
0.0
100
AcDbLayout
  1
Model
 70
     0
 71
     1
 10
0.0
 20
0.0
 11
420.0
 21
594.0
 12
0.0
 22
0.0
 32
0.0
 14
0.0
 24
0.0
 34
-0.0000000000000071
 15
420.0
 25
594.0
 35
0.0000000000000071
146
0.0
 13
0.0
 23
0.0
 33
0.0
 16
0.0
 26
0.0
 36
0.0
 17
0.0
 27
0.0
 37
0.0
 76
     0
330
A
331
15
  0
MATERIAL
  5
265
102
{ACAD_REACTORS
330
263
102
}
330
263
100
AcDbMaterial
  1
ByBlock
 72
     1
 94
      127
  0
MATERIAL
  5
264
102
{ACAD_REACTORS
330
263
102
}
330
263
100
AcDbMaterial
  1
ByLayer
 72
     1
 94
      127
  0
MATERIAL
  5
266
102
{ACAD_REACTORS
330
263
102
}
330
263
100
AcDbMaterial
  1
Global
 72
     1
 94
      127
  0
MLEADERSTYLE
  5
D59
102
{ACAD_REACTORS
330
336
102
}
330
336
100
AcDbMLeaderStyle
170
     2
171
     1
172
     0
 90
        2
 40
0.0
 41
0.0
173
     1
 91
-1056964608
340
11
 92
       -2
290
     1
 42
2.0
291
     1
 43
8.0
  3
Standard
341
0
 44
4.0
300

342
17
174
     1
178
     6
175
     1
176
     0
 93
-1056964608
 45
4.0
292
     0
297
     0
 46
4.0
343
0
 94
-1056964608
 47
1.0
 49
1.0
140
1.0
293
     1
141
0.0
294
     1
177
     0
142
1.0
295
     0
296
     0
143
3.75
1001
ACAD_MLEADERVER
1070
     2
  0
MLINESTYLE
  5
1C
102
{ACAD_REACTORS
330
1B
102
}
330
1B
100
AcDbMlineStyle
  2
Standard
 70
     0
  3

 62
     0
 51
90.0
 52
90.0
 71
     2
 49
0.5
 62
   256
  6
BYLAYER
 49
-0.5
 62
   256
  6
BYLAYER
  0
ACDBPLACEHOLDER
  5
1D
102
{ACAD_REACTORS
330
1F
102
}
330
1F
  0
SCALE
  5
242
102
{ACAD_REACTORS
330
241
102
}
330
241
100
AcDbScale
 70
     0
300
1:1
140
1.0
141
1.0
290
     1
  0
SCALE
  5
243
102
{ACAD_REACTORS
330
241
102
}
330
241
100
AcDbScale
 70
     0
300
1:2
140
1.0
141
2.0
290
     0
  0
SCALE
  5
244
102
{ACAD_REACTORS
330
241
102
}
330
241
100
AcDbScale
 70
     0
300
1:4
140
1.0
141
4.0
290
     0
  0
SCALE
  5
245
102
{ACAD_REACTORS
330
241
102
}
330
241
100
AcDbScale
 70
     0
300
1:5
140
1.0
141
5.0
290
     0
  0
SCALE
  5
246
102
{ACAD_REACTORS
330
241
102
}
330
241
100
AcDbScale
 70
     0
300
1:8
140
1.0
141
8.0
290
     0
  0
SCALE
  5
247
102
{ACAD_REACTORS
330
241
102
}
330
241
100
AcDbScale
 70
     0
300
1:10
140
1.0
141
10.0
290
     0
  0
SCALE
  5
248
102
{ACAD_REACTORS
330
241
102
}
330
241
100
AcDbScale
 70
     0
300
1:16
140
1.0
141
16.0
290
     0
  0
SCALE
  5
249
102
{ACAD_REACTORS
330
241
102
}
330
241
100
AcDbScale
 70
     0
300
1:20
140
1.0
141
20.0
290
     0
  0
SCALE
  5
24A
102
{ACAD_REACTORS
330
241
102
}
330
241
100
AcDbScale
 70
     0
300
1:30
140
1.0
141
30.0
290
     0
  0
SCALE
  5
24B
102
{ACAD_REACTORS
330
241
102
}
330
241
100
AcDbScale
 70
     0
300
1:40
140
1.0
141
40.0
290
     0
  0
SCALE
  5
24C
102
{ACAD_REACTORS
330
241
102
}
330
241
100
AcDbScale
 70
     0
300
1:50
140
1.0
141
50.0
290
     0
  0
SCALE
  5
24D
102
{ACAD_REACTORS
330
241
102
}
330
241
100
AcDbScale
 70
     0
300
1:100
140
1.0
141
100.0
290
     0
  0
SCALE
  5
24E
102
{ACAD_REACTORS
330
241
102
}
330
241
100
AcDbScale
 70
     0
300
2:1
140
2.0
141
1.0
290
     0
  0
SCALE
  5
24F
102
{ACAD_REACTORS
330
241
102
}
330
241
100
AcDbScale
 70
     0
300
4:1
140
4.0
141
1.0
290
     0
  0
SCALE
  5
250
102
{ACAD_REACTORS
330
241
102
}
330
241
100
AcDbScale
 70
     0
300
8:1
140
8.0
141
1.0
290
     0
  0
SCALE
  5
251
102
{ACAD_REACTORS
330
241
102
}
330
241
100
AcDbScale
 70
     0
300
10:1
140
10.0
141
1.0
290
     0
  0
SCALE
  5
252
102
{ACAD_REACTORS
330
241
102
}
330
241
100
AcDbScale
 70
     0
300
100:1
140
100.0
141
1.0
290
     0
  0
SCALE
  5
253
102
{ACAD_REACTORS
330
241
102
}
330
241
100
AcDbScale
 70
     0
300
1/128" = 1'-0"
140
0.0078125
141
12.0
290
     0
  0
SCALE
  5
254
102
{ACAD_REACTORS
330
241
102
}
330
241
100
AcDbScale
 70
     0
300
1/64" = 1'-0"
140
0.015625
141
12.0
290
     0
  0
SCALE
  5
255
102
{ACAD_REACTORS
330
241
102
}
330
241
100
AcDbScale
 70
     0
300
1/32" = 1'-0"
140
0.03125
141
12.0
290
     0
  0
SCALE
  5
256
102
{ACAD_REACTORS
330
241
102
}
330
241
100
AcDbScale
 70
     0
300
1/16" = 1'-0"
140
0.0625
141
12.0
290
     0
  0
SCALE
  5
257
102
{ACAD_REACTORS
330
241
102
}
330
241
100
AcDbScale
 70
     0
300
3/32" = 1'-0"
140
0.09375
141
12.0
290
     0
  0
SCALE
  5
258
102
{ACAD_REACTORS
330
241
102
}
330
241
100
AcDbScale
 70
     0
300
1/8" = 1'-0"
140
0.125
141
12.0
290
     0
  0
SCALE
  5
259
102
{ACAD_REACTORS
330
241
102
}
330
241
100
AcDbScale
 70
     0
300
3/16" = 1'-0"
140
0.1875
141
12.0
290
     0
  0
SCALE
  5
25A
102
{ACAD_REACTORS
330
241
102
}
330
241
100
AcDbScale
 70
     0
300
1/4" = 1'-0"
140
0.25
141
12.0
290
     0
  0
SCALE
  5
25B
102
{ACAD_REACTORS
330
241
102
}
330
241
100
AcDbScale
 70
     0
300
3/8" = 1'-0"
140
0.375
141
12.0
290
     0
  0
SCALE
  5
25C
102
{ACAD_REACTORS
330
241
102
}
330
241
100
AcDbScale
 70
     0
300
1/2" = 1'-0"
140
0.5
141
12.0
290
     0
  0
SCALE
  5
25D
102
{ACAD_REACTORS
330
241
102
}
330
241
100
AcDbScale
 70
     0
300
3/4" = 1'-0"
140
0.75
141
12.0
290
     0
  0
SCALE
  5
25E
102
{ACAD_REACTORS
330
241
102
}
330
241
100
AcDbScale
 70
     0
300
1" = 1'-0"
140
1.0
141
12.0
290
     0
  0
SCALE
  5
25F
102
{ACAD_REACTORS
330
241
102
}
330
241
100
AcDbScale
 70
     0
300
1-1/2" = 1'-0"
140
1.5
141
12.0
290
     0
  0
SCALE
  5
260
102
{ACAD_REACTORS
330
241
102
}
330
241
100
AcDbScale
 70
     0
300
3" = 1'-0"
140
3.0
141
12.0
290
     0
  0
SCALE
  5
261
102
{ACAD_REACTORS
330
241
102
}
330
241
100
AcDbScale
 70
     0
300
6" = 1'-0"
140
6.0
141
12.0
290
     0
  0
SCALE
  5
262
102
{ACAD_REACTORS
330
241
102
}
330
241
100
AcDbScale
 70
     0
300
1'-0" = 1'-0"
140
12.0
141
12.0
290
     0
  0
TABLESTYLE
  5
279
102
{ACAD_REACTORS
330
278
102
}
102
{ACAD_XDICTIONARY
360
4627
102
}
330
278
100
AcDbTableStyle
  3
Standard
 70
     0
 71
     0
 40
0.06
 41
0.06
280
     0
281
     0
  7
Standard
140
4.5
170
     2
 62
     0
 63
   257
283
     0
 90
        4
 91
        0
  1

274
    -2
284
     1
 64
     0
275
    -2
285
     1
 65
     0
276
    -2
286
     1
 66
     0
277
    -2
287
     1
 67
     0
278
    -2
288
     1
 68
     0
279
    -2
289
     1
 69
     0
  7
Standard
140
6.0
170
     5
 62
     0
 63
   257
283
     0
 90
        4
 91
        0
  1

274
    -2
284
     1
 64
     0
275
    -2
285
     1
 65
     0
276
    -2
286
     1
 66
     0
277
    -2
287
     1
 67
     0
278
    -2
288
     1
 68
     0
279
    -2
289
     1
 69
     0
  7
Standard
140
4.5
170
     5
 62
     0
 63
   257
283
     0
 90
        4
 91
        0
  1

274
    -2
284
     1
 64
     0
275
    -2
285
     1
 65
     0
276
    -2
286
     1
 66
     0
277
    -2
287
     1
 67
     0
278
    -2
288
     1
 68
     0
279
    -2
289
     1
 69
     0
  0
VISUALSTYLE
  5
26C
102
{ACAD_REACTORS
330
267
102
}
330
267
100
AcDbVisualStyle
  2
2dWireframe
 70
     4
 71
     0
 72
     2
 73
     0
 90
        0
 40
-0.6
 41
-30.0
 62
     5
 63
     7
421
 16777215
 74
     1
 91
        4
 64
     7
 65
   257
 75
     1
175
     1
 42
1.0
 92
        0
 66
   257
 43
1.0
 76
     1
 77
     6
 78
     2
 67
     7
 79
     5
170
     0
171
     0
290
     0
174
     0
 93
        1
 44
0.0
173
     0
291
     0
 45
0.0
  0
VISUALSTYLE
  5
26E
102
{ACAD_REACTORS
330
267
102
}
330
267
100
AcDbVisualStyle
  2
3D Hidden
 70
     6
 71
     1
 72
     2
 73
     2
 90
        0
 40
-0.6
 41
-30.0
 62
     5
 63
     7
421
 16777215
 74
     2
 91
        2
 64
     7
 65
   257
 75
     2
175
     1
 42
40.0
 92
        0
 66
   257
 43
1.0
 76
     1
 77
     6
 78
     2
 67
     7
 79
     3
170
     0
171
     0
290
     0
174
     0
 93
        1
 44
0.0
173
     0
291
     0
 45
0.0
  0
VISUALSTYLE
  5
26D
102
{ACAD_REACTORS
330
267
102
}
330
267
100
AcDbVisualStyle
  2
3dWireframe
 70
     5
 71
     0
 72
     2
 73
     0
 90
        0
 40
-0.6
 41
-30.0
 62
     5
 63
     7
421
 16777215
 74
     1
 91
        4
 64
     7
 65
   257
 75
     1
175
     1
 42
1.0
 92
        0
 66
   257
 43
1.0
 76
     1
 77
     6
 78
     2
 67
     7
 79
     5
170
     0
171
     0
290
     0
174
     0
 93
        1
 44
0.0
173
     0
291
     0
 45
0.0
  0
VISUALSTYLE
  5
26F
102
{ACAD_REACTORS
330
267
102
}
330
267
100
AcDbVisualStyle
  2
Basic
 70
     7
 71
     1
 72
     0
 73
     1
 90
        0
 40
-0.6
 41
-30.0
 62
     5
 63
     7
421
 16777215
 74
     0
 91
        4
 64
     7
 65
   257
 75
     1
175
     1
 42
1.0
 92
        8
 66
     7
 43
1.0
 76
     1
 77
     6
 78
     2
 67
     7
 79
     5
170
     0
171
     0
290
     0
174
     0
 93
        1
 44
0.0
173
     0
291
     1
 45
0.0
  0
VISUALSTYLE
  5
273
102
{ACAD_REACTORS
330
267
102
}
330
267
100
AcDbVisualStyle
  2
Brighten
 70
    12
 71
     2
 72
     2
 73
     0
 90
        0
 40
-0.6
 41
-30.0
 62
     5
 63
     7
421
 16777215
 74
     1
 91
        4
 64
     7
 65
   257
 75
     1
175
     1
 42
1.0
 92
        8
 66
     7
 43
1.0
 76
     1
 77
     6
 78
     2
 67
     7
 79
     5
170
     0
171
     0
290
     0
174
     0
 93
        1
 44
50.0
173
     0
291
     1
 45
0.0
  0
VISUALSTYLE
  5
277
102
{ACAD_REACTORS
330
267
102
}
330
267
100
AcDbVisualStyle
  2
ColorChange
 70
    16
 71
     2
 72
     2
 73
     3
 90
        0
 40
-0.6
 41
-30.0
 62
     5
 63
     8
421
  8421504
 74
     1
 91
        4
 64
     7
 65
   257
 75
     1
175
     1
 42
1.0
 92
        8
 66
     8
424
  8421504
 43
1.0
 76
     1
 77
     6
 78
     2
 67
     7
 79
     5
170
     0
171
     0
290
     0
174
     0
 93
        1
 44
0.0
173
     0
291
     1
 45
0.0
  0
VISUALSTYLE
  5
271
102
{ACAD_REACTORS
330
267
102
}
330
267
100
AcDbVisualStyle
  2
Conceptual
 70
     9
 71
     3
 72
     2
 73
     0
 90
        0
 40
-0.6
 41
-30.0
 62
     5
 63
     7
421
 16777215
 74
     2
 91
        2
 64
     7
 65
   257
 75
     1
175
     1
 42
40.0
 92
        8
 66
     7
 43
1.0
 76
     1
 77
     6
 78
     2
 67
     7
 79
     3
170
     0
171
     0
290
     0
174
     0
 93
        1
 44
0.0
173
     0
291
     0
 45
0.0
  0
VISUALSTYLE
  5
272
102
{ACAD_REACTORS
330
267
102
}
330
267
100
AcDbVisualStyle
  2
Dim
 70
    11
 71
     2
 72
     2
 73
     0
 90
        0
 40
-0.6
 41
-30.0
 62
     5
 63
     7
421
 16777215
 74
     1
 91
        4
 64
     7
 65
   257
 75
     1
175
     1
 42
1.0
 92
        8
 66
     7
 43
1.0
 76
     1
 77
     6
 78
     2
 67
     7
 79
     5
170
     0
171
     0
290
     0
174
     0
 93
        1
 44
-50.0
173
     0
291
     1
 45
0.0
  0
VISUALSTYLE
  5
8FE
102
{ACAD_REACTORS
330
267
102
}
330
267
100
AcDbVisualStyle
  2
EdgeColorOff
 70
    22
 71
     2
 72
     2
 73
     0
 90
        0
 40
0.6
 41
30.0
 62
     5
 63
     7
421
 16777215
 74
     1
 91
        4
 64
     7
 65
   257
 75
     1
175
     1
 42
1.0
 92
        8
 66
     7
 43
1.0
 76
     1
 77
     6
 78
     2
 67
     7
 79
     5
170
     0
171
     0
290
     0
174
     0
 93
        1
 44
0.0
173
     0
291
     1
 45
0.0
  0
VISUALSTYLE
  5
276
102
{ACAD_REACTORS
330
267
102
}
330
267
100
AcDbVisualStyle
  2
Facepattern
 70
    15
 71
     2
 72
     2
 73
     0
 90
        0
 40
-0.6
 41
-30.0
 62
     5
 63
     7
421
 16777215
 74
     1
 91
        4
 64
     7
 65
   257
 75
     1
175
     1
 42
1.0
 92
        8
 66
     7
 43
1.0
 76
     1
 77
     6
 78
     2
 67
     7
 79
     5
170
     0
171
     0
290
     0
174
     0
 93
        1
 44
0.0
173
     0
291
     1
 45
0.0
  0
VISUALSTYLE
  5
268
102
{ACAD_REACTORS
330
267
102
}
330
267
100
AcDbVisualStyle
  2
Flat
 70
     0
 71
     2
 72
     1
 73
     1
 90
        2
 40
-0.6
 41
30.0
 62
     5
 63
     7
421
 16777215
 74
     0
 91
        4
 64
     7
 65
   257
 75
     1
175
     1
 42
1.0
 92
        8
 66
     7
 43
1.0
 76
     1
 77
     6
 78
     2
 67
     7
 79
     5
170
     0
171
     0
290
     0
174
     0
 93
       13
 44
0.0
173
     0
291
     1
 45
0.0
  0
VISUALSTYLE
  5
269
102
{ACAD_REACTORS
330
267
102
}
330
267
100
AcDbVisualStyle
  2
FlatWithEdges
 70
     1
 71
     2
 72
     1
 73
     1
 90
        2
 40
-0.6
 41
30.0
 62
     5
 63
     7
421
 16777215
 74
     1
 91
        4
 64
     7
 65
   257
 75
     1
175
     1
 42
1.0
 92
        0
 66
   257
 43
1.0
 76
     1
 77
     6
 78
     2
 67
     7
 79
     5
170
     0
171
     0
290
     0
174
     0
 93
       13
 44
0.0
173
     0
291
     1
 45
0.0
  0
VISUALSTYLE
  5
26A
102
{ACAD_REACTORS
330
267
102
}
330
267
100
AcDbVisualStyle
  2
Gouraud
 70
     2
 71
     2
 72
     2
 73
     1
 90
        2
 40
-0.6
 41
30.0
 62
     5
 63
     7
421
 16777215
 74
     0
 91
        4
 64
     7
 65
   257
 75
     1
175
     1
 42
1.0
 92
        0
 66
     7
 43
1.0
 76
     1
 77
     6
 78
     2
 67
     7
 79
     5
170
     0
171
     0
290
     0
174
     0
 93
       13
 44
0.0
173
     0
291
     1
 45
0.0
  0
VISUALSTYLE
  5
26B
102
{ACAD_REACTORS
330
267
102
}
330
267
100
AcDbVisualStyle
  2
GouraudWithEdges
 70
     3
 71
     2
 72
     2
 73
     1
 90
        2
 40
-0.6
 41
30.0
 62
     5
 63
     7
421
 16777215
 74
     1
 91
        4
 64
     7
 65
   257
 75
     1
175
     1
 42
1.0
 92
        0
 66
   257
 43
1.0
 76
     1
 77
     6
 78
     2
 67
     7
 79
     5
170
     0
171
     0
290
     0
174
     0
 93
       13
 44
0.0
173
     0
291
     1
 45
0.0
  0
VISUALSTYLE
  5
8FB
102
{ACAD_REACTORS
330
267
102
}
330
267
100
AcDbVisualStyle
  2
Hidden
 70
     6
 71
     1
 72
     2
 73
     2
 90
        0
 40
0.6
 41
30.0
 62
     5
 63
     7
421
 16777215
 74
     2
 91
        2
 64
     7
 65
   257
 75
     2
175
     1
 42
40.0
 92
        0
 66
   257
 43
1.0
 76
     1
 77
     6
 78
     2
 67
     7
 79
     3
170
     0
171
     0
290
     0
174
     0
 93
        1
 44
0.0
173
     0
291
     0
 45
0.0
  0
VISUALSTYLE
  5
8FC
102
{ACAD_REACTORS
330
267
102
}
330
267
100
AcDbVisualStyle
  2
JitterOff
 70
    20
 71
     2
 72
     2
 73
     0
 90
        0
 40
0.6
 41
30.0
 62
     5
 63
     7
421
 16777215
 74
     1
 91
        4
 64
     7
 65
   257
 75
     1
175
     1
 42
1.0
 92
       10
 66
     7
 43
1.0
 76
     1
 77
     6
 78
     2
 67
     7
 79
     5
170
     0
171
     0
290
     0
174
     0
 93
        1
 44
0.0
173
     0
291
     1
 45
0.0
  0
VISUALSTYLE
  5
275
102
{ACAD_REACTORS
330
267
102
}
330
267
100
AcDbVisualStyle
  2
Linepattern
 70
    14
 71
     2
 72
     2
 73
     0
 90
        0
 40
-0.6
 41
-30.0
 62
     5
 63
     7
421
 16777215
 74
     1
 91
        4
 64
     7
 65
   257
 75
     7
175
     7
 42
1.0
 92
        8
 66
     7
 43
1.0
 76
     1
 77
     6
 78
     2
 67
     7
 79
     5
170
     0
171
     0
290
     0
174
     0
 93
        1
 44
0.0
173
     0
291
     1
 45
0.0
  0
VISUALSTYLE
  5
8FD
102
{ACAD_REACTORS
330
267
102
}
330
267
100
AcDbVisualStyle
  2
OverhangOff
 70
    21
 71
     2
 72
     2
 73
     0
 90
        0
 40
0.6
 41
30.0
 62
     5
 63
     7
421
 16777215
 74
     1
 91
        4
 64
     7
 65
   257
 75
     1
175
     1
 42
1.0
 92
        9
 66
     7
 43
1.0
 76
     1
 77
     6
 78
     2
 67
     7
 79
     5
170
     0
171
     0
290
     0
174
     0
 93
        1
 44
0.0
173
     0
291
     1
 45
0.0
  0
VISUALSTYLE
  5
270
102
{ACAD_REACTORS
330
267
102
}
330
267
100
AcDbVisualStyle
  2
Realistic
 70
     8
 71
     2
 72
     2
 73
     0
 90
        0
 40
-0.6
 41
-30.0
 62
     5
 63
     7
421
 16777215
 74
     1
 91
        0
 64
     7
 65
   257
 75
     1
175
     1
 42
1.0
 92
        8
 66
     8
424
  7895160
 43
1.0
 76
     1
 77
     6
 78
     2
 67
     7
 79
     5
170
     0
171
     0
290
     0
174
     0
 93
       13
 44
0.0
173
     0
291
     0
 45
0.0
  0
VISUALSTYLE
  5
903
102
{ACAD_REACTORS
330
267
102
}
330
267
100
AcDbVisualStyle
  2
Shaded
 70
    27
 71
     2
 72
     2
 73
     1
 90
        2
 40
0.6
 41
30.0
 62
     5
 63
     7
421
 16777215
 74
     0
 91
        4
 64
     7
 65
   257
 75
     1
175
     1
 42
1.0
 92
        8
 66
   257
 43
1.0
 76
     1
 77
     6
 78
     2
 67
     8
425
  7895160
 79
     3
170
     0
171
     0
290
     0
174
     0
 93
        5
 44
0.0
173
     0
291
     0
 45
0.0
  0
VISUALSTYLE
  5
902
102
{ACAD_REACTORS
330
267
102
}
330
267
100
AcDbVisualStyle
  2
Shaded with edges
 70
    26
 71
     2
 72
     2
 73
     1
 90
        2
 40
0.6
 41
30.0
 62
     5
 63
     7
421
 16777215
 74
     1
 91
       10
 64
     7
 65
   257
 75
     2
175
     1
 42
1.0
 92
        8
 66
   257
 43
1.0
 76
     1
 77
     6
 78
     2
 67
     7
 79
     3
170
     0
171
     0
290
     0
174
     0
 93
        5
 44
0.0
173
     0
291
     0
 45
0.0
  0
VISUALSTYLE
  5
8FF
102
{ACAD_REACTORS
330
267
102
}
330
267
100
AcDbVisualStyle
  2
Shades of Gray
 70
    23
 71
     2
 72
     2
 73
     3
 90
        0
 40
0.6
 41
30.0
 62
     5
 63
     7
421
 16777215
 74
     2
 91
        2
 64
     7
 65
     7
 75
     1
175
     1
 42
40.0
 92
        8
 66
     7
 43
1.0
 76
     1
 77
     6
 78
     2
 67
     7
 79
     3
170
     0
171
     0
290
     0
174
     0
 93
        1
 44
0.0
173
     0
291
     0
 45
0.0
  0
VISUALSTYLE
  5
900
102
{ACAD_REACTORS
330
267
102
}
330
267
100
AcDbVisualStyle
  2
Sketchy
 70
    24
 71
     1
 72
     2
 73
     2
 90
        0
 40
0.6
 41
30.0
 62
     5
 63
     7
421
 16777215
 74
     2
 91
        2
 64
     7
 65
     7
 75
     1
175
     1
 42
40.0
 92
       11
 66
     7
 43
1.0
 76
     1
 77
     6
 78
     2
 67
     7
 79
     6
170
     0
171
     0
290
     0
174
     0
 93
        1
 44
0.0
173
     0
291
     0
 45
0.0
  0
VISUALSTYLE
  5
274
102
{ACAD_REACTORS
330
267
102
}
330
267
100
AcDbVisualStyle
  2
Thicken
 70
    13
 71
     2
 72
     2
 73
     0
 90
        0
 40
-0.6
 41
-30.0
 62
     5
 63
     7
421
 16777215
 74
     1
 91
        4
 64
     7
 65
   257
 75
     1
175
     1
 42
1.0
 92
       12
 66
     7
 43
1.0
 76
     1
 77
     6
 78
     2
 67
     7
 79
     5
170
     0
171
     0
290
     0
174
     0
 93
        1
 44
0.0
173
     0
291
     1
 45
0.0
  0
VISUALSTYLE
  5
8FA
102
{ACAD_REACTORS
330
267
102
}
330
267
100
AcDbVisualStyle
  2
Wireframe
 70
     5
 71
     0
 72
     2
 73
     0
 90
        0
 40
0.6
 41
30.0
 62
     5
 63
     7
421
 16777215
 74
     1
 91
        4
 64
     7
 65
   257
 75
     1
175
     1
 42
1.0
 92
        0
 66
   257
 43
1.0
 76
     1
 77
     6
 78
     2
 67
     7
 79
     3
170
     0
171
     0
290
     0
174
     0
 93
        1
 44
0.0
173
     0
291
     0
 45
0.0
  0
VISUALSTYLE
  5
901
102
{ACAD_REACTORS
330
267
102
}
330
267
100
AcDbVisualStyle
  2
X-Ray
 70
    25
 71
     2
 72
     2
 73
     1
 90
        1
 40
0.5
 41
30.0
 62
     5
 63
     7
421
 16777215
 74
     1
 91
        0
 64
     7
 65
   257
 75
     1
175
     1
 42
1.0
 92
        8
 66
     7
 43
1.0
 76
     1
 77
     6
 78
     2
 67
     7
 79
     3
170
     0
171
     0
290
     0
174
     0
 93
       13
 44
0.0
173
     0
291
     0
 45
0.0
  0
DICTIONARYVAR
  5
331
102
{ACAD_REACTORS
330
330
102
}
330
330
100
DictionaryVariables
280
     0
  1
1:1
  0
DICTIONARYVAR
  5
D5E
102
{ACAD_REACTORS
330
330
102
}
330
330
100
DictionaryVariables
280
     0
  1
Standard
  0
DICTIONARYVAR
  5
335
102
{ACAD_REACTORS
330
330
102
}
330
330
100
DictionaryVariables
280
     0
  1
Standard
  0
DICTIONARYVAR
  5
D52
102
{ACAD_REACTORS
330
330
102
}
330
330
100
DictionaryVariables
280
     0
  1
ByLayer
  0
DICTIONARYVAR
  5
896
102
{ACAD_REACTORS
330
330
102
}
330
330
100
DictionaryVariables
280
     0
  1
0
  0
DICTIONARYVAR
  5
246C
102
{ACAD_REACTORS
330
E38
102
}
330
E38
100
DictionaryVariables
280
     0
  1
0.261799
  0
DICTIONARYVAR
  5
246A
102
{ACAD_REACTORS
330
E38
102
}
330
E38
100
DictionaryVariables
280
     0
  1
0.400000
  0
DICTIONARYVAR
  5
246B
102
{ACAD_REACTORS
330
E38
102
}
330
E38
100
DictionaryVariables
280
     0
  1
0.250000
  0
DICTIONARYVAR
  5
246D
102
{ACAD_REACTORS
330
E38
102
}
330
E38
100
DictionaryVariables
280
     0
  1
1
  0
FIELD
  5
3CB6
102
{ACAD_REACTORS
330
4623
102
}
330
4623
100
AcDbField
  1
_text
  2
{%<\_FldIdx 0>%M}
 90
        1
360
3CB9
 97
        0
 91
       63
 92
        0
 94
       11
 95
        2
 96
        0
300

 93
        1
  6
ACFD_FIELDTEXT_CHECKSUM
 93
        2
 90
        2
140
4485.0
 94
        0
300

302

304
ACVALUE_END
  7
ACFD_FIELD_VALUE
 93
        6
 90
        4
  1
{20220803M}
 94
        0
300

302

304
ACVALUE_END
301
{20220803M}
 98
       11
  0
DICTIONARY
  5
4627
330
279
100
AcDbDictionary
280
     1
281
     1
  3
ACAD_ROUNDTRIP_2008_TABLESTYLE_CELLSTYLEMAP
360
4628
  0
FIELD
  5
3CB9
330
3CB6
100
AcDbField
  1
AcVar
  2
\AcVar CreateDate \f "yyyyMMdd"
 90
        0
 97
        0
 91
       63
 92
        0
 94
       11
 95
        2
 96
        0
300

 93
        1
  6
Variable
 93
        2
 90
        4
  1
CreateDate
 94
        0
300

302

304
ACVALUE_END
  7
ACFD_FIELD_VALUE
 93
        6
 90
        8
 92
       16
310
E607080000000300080006001D000000
 94
        0
300
yyyyMMdd
302

304
ACVALUE_END
301
20220803
 98
        8
  0
CELLSTYLEMAP
  5
4628
102
{ACAD_REACTORS
330
4627
102
}
330
4627
100
AcDbCellStyleMap
 90
        3
300
CELLSTYLE
  1
TABLEFORMAT_BEGIN
 90
        5
170
     1
 91
        0
 92
    32768
 62
   257
 93
        1
300
CONTENTFORMAT
  1
CONTENTFORMAT_BEGIN
 90
        0
 91
        0
 92
        4
 93
        0
300

 40
0.0
140
1.0
 94
        5
 62
     0
340
17
144
6.0
309
CONTENTFORMAT_END
171
     1
301
MARGIN
  1
CELLMARGIN_BEGIN
 40
0.06
 40
0.06
 40
0.06
 40
0.06
 40
0.18
 40
0.18
309
CELLMARGIN_END
 94
        6
 95
        1
302
GRIDFORMAT
  1
GRIDFORMAT_BEGIN
 90
        0
 91
        1
 62
     0
 92
       -2
340
0
 93
        0
 40
0.045
309
GRIDFORMAT_END
 95
        2
302
GRIDFORMAT
  1
GRIDFORMAT_BEGIN
 90
        0
 91
        1
 62
     0
 92
       -2
340
0
 93
        0
 40
0.045
309
GRIDFORMAT_END
 95
        4
302
GRIDFORMAT
  1
GRIDFORMAT_BEGIN
 90
        0
 91
        1
 62
     0
 92
       -2
340
0
 93
        0
 40
0.045
309
GRIDFORMAT_END
 95
        8
302
GRIDFORMAT
  1
GRIDFORMAT_BEGIN
 90
        0
 91
        1
 62
     0
 92
       -2
340
0
 93
        0
 40
0.045
309
GRIDFORMAT_END
 95
       16
302
GRIDFORMAT
  1
GRIDFORMAT_BEGIN
 90
        0
 91
        1
 62
     0
 92
       -2
340
0
 93
        0
 40
0.045
309
GRIDFORMAT_END
 95
       32
302
GRIDFORMAT
  1
GRIDFORMAT_BEGIN
 90
        0
 91
        1
 62
     0
 92
       -2
340
0
 93
        0
 40
0.045
309
GRIDFORMAT_END
309
TABLEFORMAT_END
  1
CELLSTYLE_BEGIN
 90
        1
 91
        1
300
_TITLE
309
CELLSTYLE_END
300
CELLSTYLE
  1
TABLEFORMAT_BEGIN
 90
        5
170
     1
 91
        0
 92
        0
 62
   257
 93
        1
300
CONTENTFORMAT
  1
CONTENTFORMAT_BEGIN
 90
        0
 91
        0
 92
        4
 93
        0
300

 40
0.0
140
1.0
 94
        5
 62
     0
340
17
144
4.5
309
CONTENTFORMAT_END
171
     1
301
MARGIN
  1
CELLMARGIN_BEGIN
 40
0.06
 40
0.06
 40
0.06
 40
0.06
 40
0.18
 40
0.18
309
CELLMARGIN_END
 94
        6
 95
        1
302
GRIDFORMAT
  1
GRIDFORMAT_BEGIN
 90
        0
 91
        1
 62
     0
 92
       -2
340
0
 93
        0
 40
0.045
309
GRIDFORMAT_END
 95
        2
302
GRIDFORMAT
  1
GRIDFORMAT_BEGIN
 90
        0
 91
        1
 62
     0
 92
       -2
340
0
 93
        0
 40
0.045
309
GRIDFORMAT_END
 95
        4
302
GRIDFORMAT
  1
GRIDFORMAT_BEGIN
 90
        0
 91
        1
 62
     0
 92
       -2
340
0
 93
        0
 40
0.045
309
GRIDFORMAT_END
 95
        8
302
GRIDFORMAT
  1
GRIDFORMAT_BEGIN
 90
        0
 91
        1
 62
     0
 92
       -2
340
0
 93
        0
 40
0.045
309
GRIDFORMAT_END
 95
       16
302
GRIDFORMAT
  1
GRIDFORMAT_BEGIN
 90
        0
 91
        1
 62
     0
 92
       -2
340
0
 93
        0
 40
0.045
309
GRIDFORMAT_END
 95
       32
302
GRIDFORMAT
  1
GRIDFORMAT_BEGIN
 90
        0
 91
        1
 62
     0
 92
       -2
340
0
 93
        0
 40
0.045
309
GRIDFORMAT_END
309
TABLEFORMAT_END
  1
CELLSTYLE_BEGIN
 90
        2
 91
        1
300
_HEADER
309
CELLSTYLE_END
300
CELLSTYLE
  1
TABLEFORMAT_BEGIN
 90
        5
170
     1
 91
        0
 92
        0
 62
   257
 93
        1
300
CONTENTFORMAT
  1
CONTENTFORMAT_BEGIN
 90
        0
 91
        0
 92
        4
 93
        0
300

 40
0.0
140
1.0
 94
        2
 62
     0
340
17
144
4.5
309
CONTENTFORMAT_END
171
     1
301
MARGIN
  1
CELLMARGIN_BEGIN
 40
0.06
 40
0.06
 40
0.06
 40
0.06
 40
0.18
 40
0.18
309
CELLMARGIN_END
 94
        6
 95
        1
302
GRIDFORMAT
  1
GRIDFORMAT_BEGIN
 90
        0
 91
        1
 62
     0
 92
       -2
340
0
 93
        0
 40
0.045
309
GRIDFORMAT_END
 95
        2
302
GRIDFORMAT
  1
GRIDFORMAT_BEGIN
 90
        0
 91
        1
 62
     0
 92
       -2
340
0
 93
        0
 40
0.045
309
GRIDFORMAT_END
 95
        4
302
GRIDFORMAT
  1
GRIDFORMAT_BEGIN
 90
        0
 91
        1
 62
     0
 92
       -2
340
0
 93
        0
 40
0.045
309
GRIDFORMAT_END
 95
        8
302
GRIDFORMAT
  1
GRIDFORMAT_BEGIN
 90
        0
 91
        1
 62
     0
 92
       -2
340
0
 93
        0
 40
0.045
309
GRIDFORMAT_END
 95
       16
302
GRIDFORMAT
  1
GRIDFORMAT_BEGIN
 90
        0
 91
        1
 62
     0
 92
       -2
340
0
 93
        0
 40
0.045
309
GRIDFORMAT_END
 95
       32
302
GRIDFORMAT
  1
GRIDFORMAT_BEGIN
 90
        0
 91
        1
 62
     0
 92
       -2
340
0
 93
        0
 40
0.045
309
GRIDFORMAT_END
309
TABLEFORMAT_END
  1
CELLSTYLE_BEGIN
 90
        3
 91
        2
300
_DATA
309
CELLSTYLE_END
  0
ENDSEC
  0
EOF
