  0
SECTION
  2
HEADER
  9
$ACADVER
  1
AC1021
  9
$ACADMAINTVER
 70
    25
  9
$DWGCODEPAGE
  3
ANSI_932
  9
$LASTSAVEDBY
  1
howeNelson
  9
$INSBASE
 10
0.0
 20
0.0
 30
0.0
  9
$EXTMIN
 10
0.0
 20
0.0
 30
-0.0000000000000071
  9
$EXTMAX
 10
840.0
 20
1188.0
 30
0.0000000000000071
  9
$LIMMIN
 10
0.0
 20
0.0
  9
$LIMMAX
 10
840.0
 20
1188.0
  9
$ORTHOMODE
 70
     0
  9
$REGENMODE
 70
     1
  9
$FILLMODE
 70
     1
  9
$QTEXTMODE
 70
     0
  9
$MIRRTEXT
 70
     1
  9
$LTSCALE
 40
2.0
  9
$ATTMODE
 70
     1
  9
$TEXTSIZE
 40
2.5
  9
$TRACEWID
 40
1.0
  9
$TEXTSTYLE
  7
ＭＳ ゴシック
  9
$CLAYER
  8
DIM
  9
$CELTYPE
  6
ByLayer
  9
$CECOLOR
 62
   256
  9
$CELTSCALE
 40
1.0
  9
$DISPSILH
 70
     0
  9
$DIMSCALE
 40
1.0
  9
$DIMASZ
 40
4.0
  9
$DIMEXO
 40
5.0
  9
$DIMDLI
 40
0.9999999999999999
  9
$DIMRND
 40
0.0
  9
$DIMDLE
 40
0.0
  9
$DIMEXE
 40
0.0
  9
$DIMTP
 40
0.0
  9
$DIMTM
 40
0.0
  9
$DIMTXT
 40
10.0
  9
$DIMCEN
 40
0.0
  9
$DIMTSZ
 40
0.0
  9
$DIMTOL
 70
     0
  9
$DIMLIM
 70
     0
  9
$DIMTIH
 70
     0
  9
$DIMTOH
 70
     0
  9
$DIMSE1
 70
     0
  9
$DIMSE2
 70
     0
  9
$DIMTAD
 70
     1
  9
$DIMZIN
 70
    11
  9
$DIMBLK
  1
DOT
  9
$DIMASO
 70
     1
  9
$DIMSHO
 70
     1
  9
$DIMPOST
  1
<>
  9
$DIMAPOST
  1
[]
  9
$DIMALT
 70
     0
  9
$DIMALTD
 70
     1
  9
$DIMALTF
 40
1.0
  9
$DIMLFAC
 40
1.0
  9
$DIMTOFL
 70
     0
  9
$DIMTVP
 40
0.0
  9
$DIMTIX
 70
     1
  9
$DIMSOXD
 70
     0
  9
$DIMSAH
 70
     0
  9
$DIMBLK1
  1

  9
$DIMBLK2
  1

  9
$DIMSTYLE
  2
tfrom線あり
  9
$DIMCLRD
 70
     0
  9
$DIMCLRE
 70
     0
  9
$DIMCLRT
 70
     0
  9
$DIMTFAC
 40
1.0
  9
$DIMGAP
 40
4.0
  9
$DIMJUST
 70
     0
  9
$DIMSD1
 70
     0
  9
$DIMSD2
 70
     0
  9
$DIMTOLJ
 70
     1
  9
$DIMTZIN
 70
    11
  9
$DIMALTZ
 70
    11
  9
$DIMALTTZ
 70
    11
  9
$DIMUPT
 70
     0
  9
$DIMDEC
 70
     0
  9
$DIMTDEC
 70
     1
  9
$DIMALTU
 70
     2
  9
$DIMALTTD
 70
     2
  9
$DIMTXSTY
  7
ＭＳ ゴシック
  9
$DIMAUNIT
 70
     0
  9
$DIMADEC
 70
     2
  9
$DIMALTRND
 40
0.0
  9
$DIMAZIN
 70
     0
  9
$DIMDSEP
 70
    46
  9
$DIMATFIT
 70
     0
  9
$DIMFRAC
 70
     2
  9
$DIMLDRBLK
  1
DOT
  9
$DIMLUNIT
 70
     2
  9
$DIMLWD
 70
    -2
  9
$DIMLWE
 70
    -2
  9
$DIMTMOVE
 70
     0
  9
$DIMFXL
 40
1.0
  9
$DIMFXLON
 70
     0
  9
$DIMJOGANG
 40
0.7853981633974483
  9
$DIMTFILL
 70
     0
  9
$DIMTFILLCLR
 70
     0
  9
$DIMARCSYM
 70
     0
  9
$DIMLTYPE
  6

  9
$DIMLTEX1
  6

  9
$DIMLTEX2
  6

  9
$LUNITS
 70
     2
  9
$LUPREC
 70
     0
  9
$SKETCHINC
 40
0.1
  9
$FILLETRAD
 40
0.0
  9
$AUNITS
 70
     0
  9
$AUPREC
 70
     0
  9
$MENU
  1
acad
  9
$ELEVATION
 40
0.0
  9
$PELEVATION
 40
0.0
  9
$THICKNESS
 40
0.0
  9
$LIMCHECK
 70
     0
  9
$CHAMFERA
 40
0.0
  9
$CHAMFERB
 40
0.0
  9
$CHAMFERC
 40
0.0
  9
$CHAMFERD
 40
0.0
  9
$SKPOLY
 70
     0
  9
$TDCREATE
 40
2447893.375
  9
$TDUCREATE
 40
0.0
  9
$TDUPDATE
 40
2458465.752774005
  9
$TDUUPDATE
 40
2458465.377774005
  9
$TDINDWG
 40
0.1774302199
  9
$TDUSRTIMER
 40
0.0044049537
  9
$USRTIMER
 70
     1
  9
$ANGBASE
 50
0.0
  9
$ANGDIR
 70
     0
  9
$PDMODE
 70
     1
  9
$PDSIZE
 40
-2.0
  9
$PLINEWID
 40
0.0
  9
$SPLFRAME
 70
     0
  9
$SPLINETYPE
 70
     6
  9
$SPLINESEGS
 70
     8
  9
$HANDSEED
  5
640E
  9
$SURFTAB1
 70
     6
  9
$SURFTAB2
 70
     6
  9
$SURFTYPE
 70
     6
  9
$SURFU
 70
     6
  9
$SURFV
 70
     6
  9
$UCSBASE
  2

  9
$UCSNAME
  2

  9
$UCSORG
 10
0.0
 20
0.0
 30
0.0
  9
$UCSXDIR
 10
1.0
 20
0.0
 30
0.0
  9
$UCSYDIR
 10
0.0
 20
1.0
 30
0.0
  9
$UCSORTHOREF
  2

  9
$UCSORTHOVIEW
 70
     0
  9
$UCSORGTOP
 10
0.0
 20
0.0
 30
0.0
  9
$UCSORGBOTTOM
 10
0.0
 20
0.0
 30
0.0
  9
$UCSORGLEFT
 10
0.0
 20
0.0
 30
0.0
  9
$UCSORGRIGHT
 10
0.0
 20
0.0
 30
0.0
  9
$UCSORGFRONT
 10
0.0
 20
0.0
 30
0.0
  9
$UCSORGBACK
 10
0.0
 20
0.0
 30
0.0
  9
$PUCSBASE
  2

  9
$PUCSNAME
  2

  9
$PUCSORG
 10
0.0
 20
0.0
 30
0.0
  9
$PUCSXDIR
 10
1.0
 20
0.0
 30
0.0
  9
$PUCSYDIR
 10
0.0
 20
1.0
 30
0.0
  9
$PUCSORTHOREF
  2

  9
$PUCSORTHOVIEW
 70
     0
  9
$PUCSORGTOP
 10
0.0
 20
0.0
 30
0.0
  9
$PUCSORGBOTTOM
 10
0.0
 20
0.0
 30
0.0
  9
$PUCSORGLEFT
 10
0.0
 20
0.0
 30
0.0
  9
$PUCSORGRIGHT
 10
0.0
 20
0.0
 30
0.0
  9
$PUCSORGFRONT
 10
0.0
 20
0.0
 30
0.0
  9
$PUCSORGBACK
 10
0.0
 20
0.0
 30
0.0
  9
$USERI1
 70
     0
  9
$USERI2
 70
     0
  9
$USERI3
 70
     0
  9
$USERI4
 70
     0
  9
$USERI5
 70
     0
  9
$USERR1
 40
0.0
  9
$USERR2
 40
0.0
  9
$USERR3
 40
0.0
  9
$USERR4
 40
0.0
  9
$USERR5
 40
0.0
  9
$WORLDVIEW
 70
     1
  9
$SHADEDGE
 70
     3
  9
$SHADEDIF
 70
    70
  9
$TILEMODE
 70
     1
  9
$MAXACTVP
 70
    64
  9
$PINSBASE
 10
0.0
 20
0.0
 30
0.0
  9
$PLIMCHECK
 70
     0
  9
$PEXTMIN
 10
0.0
 20
0.0
 30
0.0
  9
$PEXTMAX
 10
0.0
 20
0.0
 30
0.0
  9
$PLIMMIN
 10
-7.5
 20
-20.0
  9
$PLIMMAX
 10
412.5
 20
277.0
  9
$UNITMODE
 70
     0
  9
$VISRETAIN
 70
     0
  9
$PLINEGEN
 70
     1
  9
$PSLTSCALE
 70
     0
  9
$TREEDEPTH
 70
  3020
  9
$CMLSTYLE
  2
Standard
  9
$CMLJUST
 70
     0
  9
$CMLSCALE
 40
1.0
  9
$PROXYGRAPHICS
 70
     0
  9
$MEASUREMENT
 70
     1
  9
$CELWEIGHT
370
    -1
  9
$ENDCAPS
280
     0
  9
$JOINSTYLE
280
     0
  9
$LWDISPLAY
290
     1
  9
$INSUNITS
 70
     4
  9
$HYPERLINKBASE
  1

  9
$STYLESHEET
  1

  9
$XEDIT
290
     1
  9
$CEPSNTYPE
380
     0
  9
$PSTYLEMODE
290
     1
  9
$FINGERPRINTGUID
  2

  9
$VERSIONGUID
  2

  9
$EXTNAMES
290
     1
  9
$PSVPSCALE
 40
0.0
  9
$OLESTARTUP
290
     0
  9
$SORTENTS
280
   127
  9
$INDEXCTL
280
     0
  9
$HIDETEXT
280
     1
  9
$XCLIPFRAME
290
     0
  9
$HALOGAP
280
     0
  9
$OBSCOLOR
 70
   257
  9
$OBSLTYPE
280
     0
  9
$INTERSECTIONDISPLAY
280
     0
  9
$INTERSECTIONCOLOR
 70
   257
  9
$DIMASSOC
280
     2
  9
$PROJECTNAME
  1

  9
$CAMERADISPLAY
290
     0
  9
$LENSLENGTH
 40
50.0
  9
$CAMERAHEIGHT
 40
0.0
  9
$STEPSPERSEC
 40
2.0
  9
$STEPSIZE
 40
6.0
  9
$3DDWFPREC
 40
2.0
  9
$PSOLWIDTH
 40
0.25
  9
$PSOLHEIGHT
 40
4.0
  9
$LOFTANG1
 40
1.570796326794897
  9
$LOFTANG2
 40
1.570796326794897
  9
$LOFTMAG1
 40
0.0
  9
$LOFTMAG2
 40
0.0
  9
$LOFTPARAM
 70
     7
  9
$LOFTNORMALS
280
     1
  9
$LATITUDE
 40
37.795
  9
$LONGITUDE
 40
-122.394
  9
$NORTHDIRECTION
 40
0.0
  9
$TIMEZONE
 70
 -8000
  9
$LIGHTGLYPHDISPLAY
280
     1
  9
$TILEMODELIGHTSYNCH
280
     1
  9
$SOLIDHIST
280
     1
  9
$SHOWHIST
280
     1
  9
$DWFFRAME
280
     2
  9
$DGNFRAME
280
     2
  9
$REALWORLDSCALE
290
     1
  9
$INTERFERECOLOR
 62
   256
  9
$CSHADOW
280
     0
  9
$SHADOWPLANELOCATION
 40
0.0
  0
ENDSEC
  0
SECTION
  2
CLASSES
  0
CLASS
  1
LWPOLYLINE
  2
AcDbPolyline
  3
ObjectDBX Classes
 90
        0
 91
        1
280
     0
281
     1
  0
CLASS
  1
IMAGE
  2
AcDbRasterImage
  3
ISM
 90
      127
 91
        6
280
     0
281
     1
  0
CLASS
  1
OLE2FRAME
  2
AcDbOle2Frame
  3
ObjectDBX Classes
 90
        0
 91
        1
280
     0
281
     1
  0
CLASS
  1
HATCH
  2
AcDbHatch
  3
ObjectDBX Classes
 90
        0
 91
        1
280
     0
281
     1
  0
CLASS
  1
DICTIONARYVAR
  2
AcDbDictionaryVar
  3
ObjectDBX Classes
 90
        0
 91
        5
280
     0
281
     0
  0
CLASS
  1
RASTERVARIABLES
  2
AcDbRasterVariables
  3
ISM
 90
        0
 91
        5
280
     0
281
     0
  0
CLASS
  1
IMAGEDEF
  2
AcDbRasterImageDef
  3
ISM
 90
        0
 91
        5
280
     0
281
     0
  0
CLASS
  1
IMAGEDEF_REACTOR
  2
AcDbRasterImageDefReactor
  3
ISM
 90
        1
 91
        5
280
     0
281
     0
  0
CLASS
  1
IDBUFFER
  2
AcDbIdBuffer
  3
ObjectDBX Classes
 90
        0
 91
        5
280
     0
281
     0
  0
CLASS
  1
SPATIAL_FILTER
  2
AcDbSpatialFilter
  3
ObjectDBX Classes
 90
        0
 91
        5
280
     0
281
     0
  0
CLASS
  1
XRECORD
  2
AcDbXrecord
  3
ObjectDBX Classes
 90
        0
 91
        1
280
     0
281
     0
  0
CLASS
  1
SORTENTSTABLE
  2
AcDbSortentsTable
  3
ObjectDBX Classes
 90
        0
 91
        5
280
     0
281
     0
  0
CLASS
  1
LAYER_INDEX
  2
AcDbLayerIndex
  3
ObjectDBX Classes
 90
        0
 91
        5
280
     0
281
     0
  0
CLASS
  1
SPATIAL_INDEX
  2
AcDbSpatialIndex
  3
AutoCAD 2000
 90
        0
 91
        5
280
     0
281
     0
  0
CLASS
  1
OBJECT_PTR
  2
CAseDLPNTableRecord
  3
ASE-LPNTableRecord
 90
        1
 91
        5
280
     0
281
     0
  0
CLASS
  1
LAYOUT
  2
AcDbLayout
  3
ObjectDBX Classes
 90
        0
 91
        1
280
     0
281
     0
  0
CLASS
  1
PLOTSETTINGS
  2
AcDbPlotSettings
  3
ObjectDBX Classes
 90
        0
 91
        5
280
     0
281
     0
  0
CLASS
  1
ACDBDICTIONARYWDFLT
  2
AcDbDictionaryWithDefault
  3
ObjectDBX Classes
 90
        0
 91
        5
280
     0
281
     0
  0
CLASS
  1
ACDBPLACEHOLDER
  2
AcDbPlaceHolder
  3
ObjectDBX Classes
 90
        0
 91
        1
280
     0
281
     0
  0
CLASS
  1
SCALE
  2
AcDbScale
  3
ObjectDBX Classes
 90
     1153
 91
        5
280
     0
281
     0
  0
CLASS
  1
MATERIAL
  2
AcDbMaterial
  3
ObjectDBX Classes
 90
     1153
 91
        5
280
     0
281
     0
  0
CLASS
  1
VISUALSTYLE
  2
AcDbVisualStyle
  3
ObjectDBX Classes
 90
     4095
 91
        5
280
     0
281
     0
  0
CLASS
  1
TABLESTYLE
  2
AcDbTableStyle
  3
ObjectDBX Classes
 90
     4095
 91
        5
280
     0
281
     0
  0
CLASS
  1
DIMASSOC
  2
AcDbDimAssoc
  3
"AcDbDimAssoc|Product Desc:     AcDim ARX App For Dimension|Company:          Autodesk, Inc.|WEB Address:      www.autodesk.com"
 90
        0
 91
        5
280
     0
281
     0
  0
CLASS
  1
CELLSTYLEMAP
  2
AcDbCellStyleMap
  3
ObjectDBX Classes
 90
     1152
 91
        5
280
     0
281
     0
  0
CLASS
  1
SUN
  2
AcDbSun
  3
SCENEOE
 90
     1153
 91
        5
280
     0
281
     0
  0
CLASS
  1
MLEADERSTYLE
  2
AcDbMLeaderStyle
  3
ACDB_MLEADERSTYLE_CLASS
 90
     4095
 91
        5
280
     0
281
     0
  0
CLASS
  1
FIELD
  2
AcDbField
  3
ObjectDBX Classes
 90
     1152
 91
        5
280
     0
281
     0
  0
CLASS
  1
FIELDLIST
  2
AcDbFieldList
  3
ObjectDBX Classes
 90
     1152
 91
        5
280
     0
281
     0
  0
ENDSEC
  0
SECTION
  2
TABLES
  0
TABLE
  2
VPORT
  5
7
330
0
100
AcDbSymbolTable
 70
     1
  0
VPORT
  5
15
330
7
100
AcDbSymbolTableRecord
100
AcDbViewportTableRecord
  2
*ACTIVE
 70
     0
 10
0.0
 20
0.0
 11
1.0
 21
1.0
 12
511.0201356709008
 22
520.401285469834
 13
0.0
 23
0.0
 14
1.0
 24
1.0
 15
0.0
 25
0.0
 16
0.0
 26
0.0
 36
1.0
 17
-91.0201356709008
 27
73.59871453016603
 37
-46.86809886248109
 40
1211.76
 41
2.419452887537994
 42
50.0
 43
0.0
 44
0.0
 50
0.0
 51
0.0
 71
    16
 72
  2000
 73
     1
 74
     1
 75
     0
 76
     0
 77
     0
 78
     0
281
     0
 65
     1
110
0.0
120
0.0
130
0.0
111
1.0
121
0.0
131
0.0
112
0.0
122
1.0
132
0.0
 79
     0
146
0.0
348
26C
 60
     3
 61
     5
292
     1
282
     1
141
0.0
142
0.0
 63
   256
361
904
  0
ENDTAB
  0
TABLE
  2
LTYPE
  5
4
330
0
100
AcDbSymbolTable
 70
     4
  0
LTYPE
  5
11
330
4
100
AcDbSymbolTableRecord
100
AcDbLinetypeTableRecord
  2
ByBlock
 70
     0
  3

 72
    65
 73
     0
 40
0.0
  0
LTYPE
  5
12
330
4
100
AcDbSymbolTableRecord
100
AcDbLinetypeTableRecord
  2
ByLayer
 70
     0
  3

 72
    65
 73
     0
 40
0.0
  0
LTYPE
  5
13
330
4
100
AcDbSymbolTableRecord
100
AcDbLinetypeTableRecord
  2
Continuous
 70
     0
  3
Solid line
 72
    65
 73
     0
 40
0.0
  0
LTYPE
  5
D6C
330
4
100
AcDbSymbolTableRecord
100
AcDbLinetypeTableRecord
  2
BORDER
 70
     0
  3
Border __  __  . __  __  . __  __  . __  __  . 
 72
    65
 73
     6
 40
44.45
 49
12.7
 74
     0
 49
-6.35
 74
     0
 49
12.7
 74
     0
 49
-6.35
 74
     0
 49
0.0
 74
     0
 49
-6.35
 74
     0
  0
LTYPE
  5
D6D
330
4
100
AcDbSymbolTableRecord
100
AcDbLinetypeTableRecord
  2
HIDDEN
 70
     0
  3
Hidden _ _ _ _ _ _ _ _ _ _ _ _ _ _ _ _ _ _ _ _ 
 72
    65
 73
     2
 40
9.524999999999999
 49
6.35
 74
     0
 49
-3.175
 74
     0
  0
LTYPE
  5
61EF
330
4
100
AcDbSymbolTableRecord
100
AcDbLinetypeTableRecord
  2
CENTER
 70
     0
  3
 Center _____  _  _____  _  _____  _  _____  _ 
 72
    65
 73
     4
 40
50.8
 49
31.75
 74
     0
 49
-6.35
 74
     0
 49
6.35
 74
     0
 49
-6.35
 74
     0
  0
ENDTAB
  0
TABLE
  2
LAYER
  5
2
102
{ACAD_XDICTIONARY
360
2E1
102
}
330
0
100
AcDbSymbolTable
 70
    11
  0
LAYER
  5
14
330
2
100
AcDbSymbolTableRecord
100
AcDbLayerTableRecord
  2
0
 70
     0
 62
     7
  6
Continuous
370
    -3
390
1D
347
266
  0
LAYER
  5
4B
330
2
100
AcDbSymbolTableRecord
100
AcDbLayerTableRecord
  2
TEMPLATE
 70
     0
 62
     7
  6
Continuous
370
    20
390
1D
347
266
  0
LAYER
  5
4C
330
2
100
AcDbSymbolTableRecord
100
AcDbLayerTableRecord
  2
DIM
 70
     0
 62
     3
  6
Continuous
370
    13
390
1D
347
266
  0
LAYER
  5
4D
330
2
100
AcDbSymbolTableRecord
100
AcDbLayerTableRecord
  2
MODEL
 70
     0
 62
     7
  6
Continuous
370
    20
390
1D
347
266
  0
LAYER
  5
88C
330
2
100
AcDbSymbolTableRecord
100
AcDbLayerTableRecord
  2
HIDDEN
 70
     0
 62
     8
  6
HIDDEN
370
    20
390
1D
347
266
1001
AcAecLayerStandard
1000

1000

  0
LAYER
  5
D6B
330
2
100
AcDbSymbolTableRecord
100
AcDbLayerTableRecord
  2
BORDER
 70
     0
 62
     4
  6
BORDER
290
     0
370
    20
390
1D
347
266
1001
AcAecLayerStandard
1000

1000

  0
LAYER
  5
D8C
330
2
100
AcDbSymbolTableRecord
100
AcDbLayerTableRecord
  2
Defpoints
 70
     0
 62
     7
  6
Continuous
290
     0
370
    -3
390
1D
347
266
  0
LAYER
  5
3653
330
2
100
AcDbSymbolTableRecord
100
AcDbLayerTableRecord
  2
Standard
 70
     0
 62
     7
  6
Continuous
370
    -3
390
1D
347
266
  0
LAYER
  5
61EB
330
2
100
AcDbSymbolTableRecord
100
AcDbLayerTableRecord
  2
モデル
 70
     0
 62
     7
  6
Continuous
370
    20
390
1D
347
266
1001
AcAecLayerStandard
1000

1000

  0
LAYER
  5
61ED
330
2
100
AcDbSymbolTableRecord
100
AcDbLayerTableRecord
  2
寸法
 70
     0
 62
     3
  6
Continuous
370
    13
390
1D
347
266
1001
AcAecLayerStandard
1000

1000

  0
LAYER
  5
61EE
330
2
100
AcDbSymbolTableRecord
100
AcDbLayerTableRecord
  2
CENTER
 70
     0
 62
   252
  6
CENTER
370
    20
390
1D
347
266
1001
AcAecLayerStandard
1000

1000

  0
ENDTAB
  0
TABLE
  2
STYLE
  5
3
330
0
100
AcDbSymbolTable
 70
     2
  0
STYLE
  5
17
330
3
100
AcDbSymbolTableRecord
100
AcDbTextStyleTableRecord
  2
Standard
 70
     0
 40
0.0
 41
1.0
 50
0.0
 71
     0
 42
2.5
  3
txt
  4
BIGFONT.SHX
  0
STYLE
  5
39
330
3
100
AcDbSymbolTableRecord
100
AcDbTextStyleTableRecord
  2
ＭＳ ゴシック
 70
     0
 40
0.0
 41
1.0
 50
0.0
 71
     0
 42
2.5
  3
msgothic.ttc
  4
ＭＳ ゴシック
1001
ACAD
1000
ＭＳ ゴシック
1071
        0
  0
ENDTAB
  0
TABLE
  2
VIEW
  5
5
330
0
100
AcDbSymbolTable
 70
     0
  0
ENDTAB
  0
TABLE
  2
UCS
  5
6
330
0
100
AcDbSymbolTable
 70
     0
  0
ENDTAB
  0
TABLE
  2
APPID
  5
8
330
0
100
AcDbSymbolTable
 70
     3
  0
APPID
  5
16
330
8
100
AcDbSymbolTableRecord
100
AcDbRegAppTableRecord
  2
ACAD
 70
     0
  0
APPID
  5
7AC
330
8
100
AcDbSymbolTableRecord
100
AcDbRegAppTableRecord
  2
AcAecLayerStandard
 70
     0
  0
APPID
  5
E29
330
8
100
AcDbSymbolTableRecord
100
AcDbRegAppTableRecord
  2
ACAD_MLEADERVER
 70
     0
  0
ENDTAB
  0
TABLE
  2
DIMSTYLE
  5
9
330
0
100
AcDbSymbolTable
 70
     2
100
AcDbDimStyleTable
  0
DIMSTYLE
105
18
330
9
100
AcDbSymbolTableRecord
100
AcDbDimStyleTableRecord
  2
Standard
 70
     0
178
     0
340
17
  0
DIMSTYLE
105
57
102
{ACAD_REACTORS
330
5644
330
5674
330
5F3E
330
621D
330
6238
330
63C8
102
}
330
9
100
AcDbSymbolTableRecord
100
AcDbDimStyleTableRecord
  2
tfrom線あり
 70
     0
  3
<>
  4
[]
 41
4.0
 42
5.0
 43
0.9999999999999999
 44
0.0
 73
     0
 74
     0
 77
     1
 78
    11
140
10.0
141
0.0
143
1.0
147
4.0
171
     1
174
     1
178
     0
179
     2
271
     0
272
     1
276
     2
284
    11
285
    11
286
    11
289
     0
340
39
341
4E
342
4E
  0
ENDTAB
  0
TABLE
  2
BLOCK_RECORD
  5
1
330
0
100
AcDbSymbolTable
 70
    23
  0
BLOCK_RECORD
  5
A
102
{ACAD_XDICTIONARY
360
3E3E
102
}
330
1
100
AcDbSymbolTableRecord
100
AcDbBlockTableRecord
  2
*MODEL_SPACE
340
20
 70
     0
280
     1
281
     0
  0
BLOCK_RECORD
  5
B
330
1
100
AcDbSymbolTableRecord
100
AcDbBlockTableRecord
  2
*PAPER_SPACE
340
21
 70
     0
280
     1
281
     0
  0
BLOCK_RECORD
  5
4E
330
1
100
AcDbSymbolTableRecord
100
AcDbBlockTableRecord
  2
_DOT
340
0
102
{BLKREFS
331
3E2C
331
3E2D
331
3E38
331
3E39
331
53A5
331
53A6
331
53B4
331
53B5
331
53C3
331
53C4
331
53D2
331
53D3
331
564D
331
564E
331
565E
331
565F
331
566E
331
566F
331
567B
331
567C
331
5B12
331
5B13
331
5D50
331
5D51
331
5D64
331
5D65
331
5F49
331
5F4A
331
5F4A
331
5F4A
331
61E3
331
61E2
331
6246
331
6247
331
0
331
0
331
0
331
63D3
331
63EF
331
63EE
102
}
 70
     0
280
     1
281
     0
  0
BLOCK_RECORD
  5
68D
330
1
100
AcDbSymbolTableRecord
100
AcDbBlockTableRecord
  2
block 2
340
0
102
{BLKREFS
331
68C
331
1343
102
}
 70
     0
280
     1
281
     0
  0
BLOCK_RECORD
  5
3E26
330
1
100
AcDbSymbolTableRecord
100
AcDbBlockTableRecord
  2
*D2
340
0
 70
     0
280
     1
281
     0
  0
BLOCK_RECORD
  5
3E32
330
1
100
AcDbSymbolTableRecord
100
AcDbBlockTableRecord
  2
*D3
340
0
 70
     0
280
     1
281
     0
  0
BLOCK_RECORD
  5
539F
330
1
100
AcDbSymbolTableRecord
100
AcDbBlockTableRecord
  2
*D4
340
0
 70
     0
280
     1
281
     0
  0
BLOCK_RECORD
  5
53AE
330
1
100
AcDbSymbolTableRecord
100
AcDbBlockTableRecord
  2
*D5
340
0
 70
     0
280
     1
281
     0
  0
BLOCK_RECORD
  5
53BD
330
1
100
AcDbSymbolTableRecord
100
AcDbBlockTableRecord
  2
*D6
340
0
 70
     0
280
     1
281
     0
  0
BLOCK_RECORD
  5
53CC
330
1
100
AcDbSymbolTableRecord
100
AcDbBlockTableRecord
  2
*D7
340
0
 70
     0
280
     1
281
     0
  0
BLOCK_RECORD
  5
5647
330
1
100
AcDbSymbolTableRecord
100
AcDbBlockTableRecord
  2
*D8
340
0
 70
     0
280
     1
281
     0
  0
BLOCK_RECORD
  5
5658
330
1
100
AcDbSymbolTableRecord
100
AcDbBlockTableRecord
  2
*D9
340
0
 70
     0
280
     1
281
     0
  0
BLOCK_RECORD
  5
5668
330
1
100
AcDbSymbolTableRecord
100
AcDbBlockTableRecord
  2
*D10
340
0
 70
     0
280
     1
281
     0
  0
BLOCK_RECORD
  5
5675
330
1
100
AcDbSymbolTableRecord
100
AcDbBlockTableRecord
  2
*D11
340
0
 70
     0
280
     1
281
     0
  0
BLOCK_RECORD
  5
5B0C
330
1
100
AcDbSymbolTableRecord
100
AcDbBlockTableRecord
  2
*D12
340
0
 70
     0
280
     1
281
     0
  0
BLOCK_RECORD
  5
5D4A
330
1
100
AcDbSymbolTableRecord
100
AcDbBlockTableRecord
  2
*D13
340
0
 70
     0
280
     1
281
     0
  0
BLOCK_RECORD
  5
5D5E
330
1
100
AcDbSymbolTableRecord
100
AcDbBlockTableRecord
  2
*D14
340
0
 70
     0
280
     1
281
     0
  0
BLOCK_RECORD
  5
5F41
330
1
100
AcDbSymbolTableRecord
100
AcDbBlockTableRecord
  2
*D15
340
0
 70
     0
280
     1
281
     0
  0
BLOCK_RECORD
  5
61DC
330
1
100
AcDbSymbolTableRecord
100
AcDbBlockTableRecord
  2
*D16
340
0
 70
     0
280
     1
281
     0
  0
BLOCK_RECORD
  5
621E
330
1
100
AcDbSymbolTableRecord
100
AcDbBlockTableRecord
  2
*D18
340
0
 70
     0
280
     1
281
     0
  0
BLOCK_RECORD
  5
6240
330
1
100
AcDbSymbolTableRecord
100
AcDbBlockTableRecord
  2
*D19
340
0
 70
     0
280
     1
281
     0
  0
BLOCK_RECORD
  5
63CB
330
1
100
AcDbSymbolTableRecord
100
AcDbBlockTableRecord
  2
*D21
340
0
 70
     0
280
     1
281
     0
  0
BLOCK_RECORD
  5
63E8
330
1
100
AcDbSymbolTableRecord
100
AcDbBlockTableRecord
  2
*D22
340
0
 70
     0
280
     1
281
     0
  0
ENDTAB
  0
ENDSEC
  0
SECTION
  2
BLOCKS
  0
BLOCK
  5
D
330
A
100
AcDbEntity
  8
0
390
1D
100
AcDbBlockBegin
  2
*MODEL_SPACE
 70
     0
 10
0.0
 20
0.0
 30
0.0
  3
*MODEL_SPACE
  1
*MODEL_SPACE
  0
ENDBLK
  5
E
330
A
100
AcDbEntity
  8
0
390
1D
100
AcDbBlockEnd
  0
BLOCK
  5
F
330
B
100
AcDbEntity
 67
     1
  8
0
390
1D
100
AcDbBlockBegin
  2
*PAPER_SPACE
 70
     0
 10
0.0
 20
0.0
 30
0.0
  3
*PAPER_SPACE
  1
*PAPER_SPACE
  0
ENDBLK
  5
10
330
B
100
AcDbEntity
 67
     1
  8
0
390
1D
100
AcDbBlockEnd
  0
BLOCK
  5
45BC
330
4E
100
AcDbEntity
  8
0
390
1D
100
AcDbBlockBegin
  2
_DOT
 70
     0
 10
0.0
 20
0.0
 30
0.0
  3
_DOT
  1
_DOT
  0
POLYLINE
  5
45BE
330
4E
100
AcDbEntity
  8
0
  6
ByBlock
 62
     0
370
    -2
390
1D
100
AcDb2dPolyline
 66
     1
 10
0.0
 20
0.0
 30
0.0
 70
     1
 40
0.5
 41
0.5
  0
VERTEX
  5
45BF
330
45BE
100
AcDbEntity
  8
0
  6
ByBlock
 62
     0
370
    -2
390
1D
100
AcDbVertex
100
AcDb2dVertex
 10
-0.25
 20
0.0
 30
0.0
 42
1.0
  0
VERTEX
  5
45C0
330
45BE
100
AcDbEntity
  8
0
  6
ByBlock
 62
     0
370
    -2
390
1D
100
AcDbVertex
100
AcDb2dVertex
 10
0.25
 20
0.0
 30
0.0
 42
1.0
  0
SEQEND
  5
45C1
330
45BE
100
AcDbEntity
  8
0
390
1D
  0
LINE
  5
45C2
330
4E
100
AcDbEntity
  8
0
  6
ByBlock
 62
     0
370
    -2
390
1D
100
AcDbLine
 10
-0.5
 20
0.0
 30
0.0
 11
-1.0
 21
0.0
 31
0.0
  0
ENDBLK
  5
45C3
330
4E
100
AcDbEntity
  8
0
390
1D
100
AcDbBlockEnd
  0
BLOCK
  5
68E
330
68D
100
AcDbEntity
  8
0
100
AcDbBlockBegin
  2
block 2
 70
     0
 10
0.0
 20
0.0
 30
0.0
  3
block 2
  1
block 2
  0
ENDBLK
  5
6B0
330
68D
100
AcDbEntity
  8
0
100
AcDbBlockEnd
  0
BLOCK
  5
3E27
330
3E26
100
AcDbEntity
  8
0
100
AcDbBlockBegin
  2
*D2
 70
     1
 10
0.0
 20
0.0
 30
0.0
  3
*D2
  1

  0
LINE
  5
3E29
330
3E26
100
AcDbEntity
  8
DIM
 62
     0
370
    -2
100
AcDbLine
 10
303.9804255319157
 20
657.9305775075987
 30
0.0
 11
303.9804255319157
 21
793.2230675452882
 31
0.0
  0
LINE
  5
3E2A
330
3E26
100
AcDbEntity
  8
DIM
 62
     0
370
    -2
100
AcDbLine
 10
532.3364133738603
 20
657.9305775075987
 30
0.0
 11
532.3364133738603
 21
793.2230675452882
 31
0.0
  0
LINE
  5
3E2B
330
3E26
100
AcDbEntity
  8
DIM
 62
     0
370
    -2
100
AcDbLine
 10
307.9804255319157
 20
793.2230675452882
 30
0.0
 11
528.3364133738603
 21
793.2230675452882
 31
0.0
  0
INSERT
  5
3E2C
330
3E26
100
AcDbEntity
  8
DIM
 62
     0
370
    -2
100
AcDbBlockReference
  2
_DOT
 10
303.9804255319157
 20
793.2230675452882
 30
0.0
 41
4.0
 42
4.0
 43
4.0
 50
180.0
  0
INSERT
  5
3E2D
330
3E26
100
AcDbEntity
  8
DIM
 62
     0
370
    -2
100
AcDbBlockReference
  2
_DOT
 10
532.3364133738603
 20
793.2230675452882
 30
0.0
 41
4.0
 42
4.0
 43
4.0
  0
MTEXT
  5
3E2E
330
3E26
100
AcDbEntity
  8
DIM
 62
     0
100
AcDbMText
 10
418.1584194528875
 20
802.2230675452882
 30
0.0
 40
10.0
 41
0.0
 46
0.0
 71
     5
 72
     1
  1
\A1;228
  7
ＭＳ ゴシック
 73
     1
 44
1.0
  0
POINT
  5
3E2F
330
3E26
100
AcDbEntity
  8
Defpoints
 62
     0
100
AcDbPoint
 10
303.9804255319157
 20
652.9305775075987
 30
0.0
  0
POINT
  5
3E30
330
3E26
100
AcDbEntity
  8
Defpoints
 62
     0
100
AcDbPoint
 10
532.3364133738603
 20
652.9305775075987
 30
0.0
  0
POINT
  5
3E31
330
3E26
100
AcDbEntity
  8
Defpoints
 62
     0
100
AcDbPoint
 10
532.3364133738603
 20
793.2230675452882
 30
0.0
  0
ENDBLK
  5
3E28
330
3E26
100
AcDbEntity
  8
0
100
AcDbBlockEnd
  0
BLOCK
  5
3E33
330
3E32
100
AcDbEntity
  8
0
100
AcDbBlockBegin
  2
*D3
 70
     1
 10
0.0
 20
0.0
 30
0.0
  3
*D3
  1

  0
LINE
  5
3E35
330
3E32
100
AcDbEntity
  8
DIM
 62
     0
370
    -2
100
AcDbLine
 10
342.3845966829192
 20
647.9305775075987
 30
0.0
 11
342.3845966829192
 21
479.5332462492401
 31
0.0
  0
LINE
  5
3E36
330
3E32
100
AcDbEntity
  8
DIM
 62
     0
370
    -2
100
AcDbLine
 10
493.9322422228568
 20
647.9305775075987
 30
0.0
 11
493.9322422228568
 21
479.5332462492401
 31
0.0
  0
LINE
  5
3E37
330
3E32
100
AcDbEntity
  8
DIM
 62
     0
370
    -2
100
AcDbLine
 10
346.3845966829192
 20
479.5332462492401
 30
0.0
 11
489.9322422228568
 21
479.5332462492401
 31
0.0
  0
INSERT
  5
3E38
330
3E32
100
AcDbEntity
  8
DIM
 62
     0
370
    -2
100
AcDbBlockReference
  2
_DOT
 10
342.3845966829192
 20
479.5332462492401
 30
0.0
 41
4.0
 42
4.0
 43
4.0
 50
180.0
  0
INSERT
  5
3E39
330
3E32
100
AcDbEntity
  8
DIM
 62
     0
370
    -2
100
AcDbBlockReference
  2
_DOT
 10
493.9322422228568
 20
479.5332462492401
 30
0.0
 41
4.0
 42
4.0
 43
4.0
  0
MTEXT
  5
3E3A
330
3E32
100
AcDbEntity
  8
DIM
 62
     0
100
AcDbMText
 10
418.158419452888
 20
488.5332462492401
 30
0.0
 40
10.0
 41
0.0
 46
0.0
 71
     5
 72
     1
  1
\A1;152
  7
ＭＳ ゴシック
 73
     1
 44
1.0
  0
POINT
  5
3E3B
330
3E32
100
AcDbEntity
  8
Defpoints
 62
     0
100
AcDbPoint
 10
342.3845966829192
 20
652.9305775075987
 30
0.0
  0
POINT
  5
3E3C
330
3E32
100
AcDbEntity
  8
Defpoints
 62
     0
100
AcDbPoint
 10
493.9322422228568
 20
652.9305775075987
 30
0.0
  0
POINT
  5
3E3D
330
3E32
100
AcDbEntity
  8
Defpoints
 62
     0
100
AcDbPoint
 10
493.9322422228568
 20
479.5332462492401
 30
0.0
  0
ENDBLK
  5
3E34
330
3E32
100
AcDbEntity
  8
0
100
AcDbBlockEnd
  0
BLOCK
  5
53A0
330
539F
100
AcDbEntity
  8
0
100
AcDbBlockBegin
  2
*D4
 70
     1
 10
0.0
 20
0.0
 30
0.0
  3
*D4
  1

  0
LINE
  5
53A2
330
539F
100
AcDbEntity
  8
0
 62
     0
370
    -2
100
AcDbLine
 10
680.8631798412558
 20
516.3435020903185
 30
0.0
 11
729.8319129737499
 21
516.3435020903185
 31
0.0
  0
LINE
  5
53A3
330
539F
100
AcDbEntity
  8
0
 62
     0
370
    -2
100
AcDbLine
 10
680.8631798412558
 20
456.3435020903912
 30
0.0
 11
729.8319129737499
 21
456.3435020903912
 31
0.0
  0
LINE
  5
53A4
330
539F
100
AcDbEntity
  8
0
 62
     0
370
    -2
100
AcDbLine
 10
729.8319129737499
 20
512.3435020903185
 30
0.0
 11
729.8319129737499
 21
460.3435020903912
 31
0.0
  0
INSERT
  5
53A5
330
539F
100
AcDbEntity
  8
0
 62
     0
370
    -2
100
AcDbBlockReference
  2
_DOT
 10
729.8319129737499
 20
516.3435020903185
 30
0.0
 41
4.0
 42
4.0
 43
4.0
 50
90.0
  0
INSERT
  5
53A6
330
539F
100
AcDbEntity
  8
0
 62
     0
370
    -2
100
AcDbBlockReference
  2
_DOT
 10
729.8319129737499
 20
456.3435020903912
 30
0.0
 41
4.0
 42
4.0
 43
4.0
 50
270.0
  0
MTEXT
  5
53A7
330
539F
100
AcDbEntity
  8
0
 62
     0
100
AcDbMText
 10
720.8319129737499
 20
486.3435020903548
 30
0.0
 40
10.0
 41
0.0
 46
0.0
 71
     5
 72
     1
  1
\A1;60
  7
ＭＳ ゴシック
 11
0.0
 21
1.0
 31
0.0
 73
     1
 44
1.0
  0
POINT
  5
53A8
330
539F
100
AcDbEntity
  8
Defpoints
 62
     0
100
AcDbPoint
 10
675.8631798412558
 20
516.3435020903185
 30
0.0
  0
POINT
  5
53A9
330
539F
100
AcDbEntity
  8
Defpoints
 62
     0
100
AcDbPoint
 10
675.8631798412558
 20
456.3435020903912
 30
0.0
  0
POINT
  5
53AA
330
539F
100
AcDbEntity
  8
Defpoints
 62
     0
100
AcDbPoint
 10
729.8319129737499
 20
456.3435020903912
 30
0.0
  0
ENDBLK
  5
53A1
330
539F
100
AcDbEntity
  8
0
100
AcDbBlockEnd
  0
BLOCK
  5
53AF
330
53AE
100
AcDbEntity
  8
0
100
AcDbBlockBegin
  2
*D5
 70
     1
 10
0.0
 20
0.0
 30
0.0
  3
*D5
  1

  0
LINE
  5
53B1
330
53AE
100
AcDbEntity
  8
0
 62
     0
370
    -2
100
AcDbLine
 10
675.8631798412558
 20
521.3435020903185
 30
0.0
 11
675.8631798412558
 21
561.1304751284
 31
0.0
  0
LINE
  5
53B2
330
53AE
100
AcDbEntity
  8
0
 62
     0
370
    -2
100
AcDbLine
 10
75.86317984111031
 20
506.3435020903185
 30
0.0
 11
75.86317984111031
 21
561.1304751284
 31
0.0
  0
LINE
  5
53B3
330
53AE
100
AcDbEntity
  8
0
 62
     0
370
    -2
100
AcDbLine
 10
671.8631798412558
 20
561.1304751284
 30
0.0
 11
79.86317984111031
 21
561.1304751284
 31
0.0
  0
INSERT
  5
53B4
330
53AE
100
AcDbEntity
  8
0
 62
     0
370
    -2
100
AcDbBlockReference
  2
_DOT
 10
675.8631798412558
 20
561.1304751284
 30
0.0
 41
4.0
 42
4.0
 43
4.0
  0
INSERT
  5
53B5
330
53AE
100
AcDbEntity
  8
0
 62
     0
370
    -2
100
AcDbBlockReference
  2
_DOT
 10
75.86317984111031
 20
561.1304751284
 30
0.0
 41
4.0
 42
4.0
 43
4.0
 50
180.0
  0
MTEXT
  5
53B6
330
53AE
100
AcDbEntity
  8
0
 62
     0
100
AcDbMText
 10
375.8631798411831
 20
570.1304751284
 30
0.0
 40
10.0
 41
0.0
 46
0.0
 71
     5
 72
     1
  1
\A1;600
  7
ＭＳ ゴシック
 73
     1
 44
1.0
  0
POINT
  5
53B7
330
53AE
100
AcDbEntity
  8
Defpoints
 62
     0
100
AcDbPoint
 10
675.8631798412558
 20
516.3435020903185
 30
0.0
  0
POINT
  5
53B8
330
53AE
100
AcDbEntity
  8
Defpoints
 62
     0
100
AcDbPoint
 10
75.86317984111031
 20
501.3435020903185
 30
0.0
  0
POINT
  5
53B9
330
53AE
100
AcDbEntity
  8
Defpoints
 62
     0
100
AcDbPoint
 10
75.86317984111031
 20
561.1304751284
 30
0.0
  0
ENDBLK
  5
53B0
330
53AE
100
AcDbEntity
  8
0
100
AcDbBlockEnd
  0
BLOCK
  5
53BE
330
53BD
100
AcDbEntity
  8
0
100
AcDbBlockBegin
  2
*D6
 70
     1
 10
0.0
 20
0.0
 30
0.0
  3
*D6
  1

  0
LINE
  5
53C0
330
53BD
100
AcDbEntity
  8
0
 62
     0
370
    -2
100
AcDbLine
 10
45.86317984111031
 20
491.3435020903912
 30
0.0
 11
45.86317984111031
 21
549.0614928548438
 31
0.0
  0
LINE
  5
53C1
330
53BD
100
AcDbEntity
  8
0
 62
     0
370
    -2
100
AcDbLine
 10
705.8631798412558
 20
491.3435020903912
 30
0.0
 11
705.8631798412558
 21
549.0614928548438
 31
0.0
  0
LINE
  5
53C2
330
53BD
100
AcDbEntity
  8
0
 62
     0
370
    -2
100
AcDbLine
 10
49.86317984111031
 20
549.0614928548438
 30
0.0
 11
701.8631798412558
 21
549.0614928548438
 31
0.0
  0
INSERT
  5
53C3
330
53BD
100
AcDbEntity
  8
0
 62
     0
370
    -2
100
AcDbBlockReference
  2
_DOT
 10
45.86317984111031
 20
549.0614928548438
 30
0.0
 41
4.0
 42
4.0
 43
4.0
 50
180.0
  0
INSERT
  5
53C4
330
53BD
100
AcDbEntity
  8
0
 62
     0
370
    -2
100
AcDbBlockReference
  2
_DOT
 10
705.8631798412558
 20
549.0614928548438
 30
0.0
 41
4.0
 42
4.0
 43
4.0
  0
MTEXT
  5
53C5
330
53BD
100
AcDbEntity
  8
0
 62
     0
100
AcDbMText
 10
375.8631798411831
 20
558.0614928548438
 30
0.0
 40
10.0
 41
0.0
 46
0.0
 71
     5
 72
     1
  1
\A1;660
  7
ＭＳ ゴシック
 73
     1
 44
1.0
  0
POINT
  5
53C6
330
53BD
100
AcDbEntity
  8
Defpoints
 62
     0
100
AcDbPoint
 10
45.86317984111031
 20
486.3435020903912
 30
0.0
  0
POINT
  5
53C7
330
53BD
100
AcDbEntity
  8
Defpoints
 62
     0
100
AcDbPoint
 10
705.8631798412558
 20
486.3435020903912
 30
0.0
  0
POINT
  5
53C8
330
53BD
100
AcDbEntity
  8
Defpoints
 62
     0
100
AcDbPoint
 10
705.8631798412558
 20
549.0614928548438
 30
0.0
  0
ENDBLK
  5
53BF
330
53BD
100
AcDbEntity
  8
0
100
AcDbBlockEnd
  0
BLOCK
  5
53CD
330
53CC
100
AcDbEntity
  8
0
100
AcDbBlockBegin
  2
*D7
 70
     1
 10
0.0
 20
0.0
 30
0.0
  3
*D7
  1

  0
LINE
  5
53CF
330
53CC
100
AcDbEntity
  8
0
 62
     0
370
    -2
100
AcDbLine
 10
678.9221798411768
 20
669.3070670172499
 30
0.0
 11
753.9698775208624
 21
669.3070670172499
 31
0.0
  0
LINE
  5
53D0
330
53CC
100
AcDbEntity
  8
0
 62
     0
370
    -2
100
AcDbLine
 10
695.8631798411102
 20
736.1515670172564
 30
0.0
 11
753.9698775208624
 21
736.1515670172564
 31
0.0
  0
LINE
  5
53D1
330
53CC
100
AcDbEntity
  8
0
 62
     0
370
    -2
100
AcDbLine
 10
753.9698775208624
 20
673.3070670172499
 30
0.0
 11
753.9698775208624
 21
732.1515670172564
 31
0.0
  0
INSERT
  5
53D2
330
53CC
100
AcDbEntity
  8
0
 62
     0
370
    -2
100
AcDbBlockReference
  2
_DOT
 10
753.9698775208624
 20
669.3070670172499
 30
0.0
 41
4.0
 42
4.0
 43
4.0
 50
270.0
  0
INSERT
  5
53D3
330
53CC
100
AcDbEntity
  8
0
 62
     0
370
    -2
100
AcDbBlockReference
  2
_DOT
 10
753.9698775208624
 20
736.1515670172564
 30
0.0
 41
4.0
 42
4.0
 43
4.0
 50
90.0
  0
MTEXT
  5
53D4
330
53CC
100
AcDbEntity
  8
0
 62
     0
100
AcDbMText
 10
744.9698775208624
 20
702.7293170172532
 30
0.0
 40
10.0
 41
0.0
 46
0.0
 71
     5
 72
     1
  1
\A1;67
  7
ＭＳ ゴシック
 11
0.0
 21
1.0
 31
0.0
 73
     1
 44
1.0
  0
POINT
  5
53D5
330
53CC
100
AcDbEntity
  8
Defpoints
 62
     0
100
AcDbPoint
 10
673.9221798411768
 20
669.3070670172499
 30
0.0
  0
POINT
  5
53D6
330
53CC
100
AcDbEntity
  8
Defpoints
 62
     0
100
AcDbPoint
 10
690.8631798411102
 20
736.1515670172564
 30
0.0
  0
POINT
  5
53D7
330
53CC
100
AcDbEntity
  8
Defpoints
 62
     0
100
AcDbPoint
 10
753.9698775208624
 20
736.1515670172564
 30
0.0
  0
ENDBLK
  5
53CE
330
53CC
100
AcDbEntity
  8
0
100
AcDbBlockEnd
  0
BLOCK
  5
5648
330
5647
100
AcDbEntity
  8
0
100
AcDbBlockBegin
  2
*D8
 70
     1
 10
0.0
 20
0.0
 30
0.0
  3
*D8
  1

  0
LINE
  5
564A
330
5647
100
AcDbEntity
  8
DIM
 62
     0
370
    -2
100
AcDbLine
 10
434.0067096231768
 20
344.1877271198096
 30
0.0
 11
326.7871488894343
 21
344.1877271198096
 31
0.0
  0
LINE
  5
564B
330
5647
100
AcDbEntity
  8
DIM
 62
     0
370
    -2
100
AcDbLine
 10
434.0067096231766
 20
904.187727119812
 30
0.0
 11
326.7871488894343
 21
904.187727119812
 31
0.0
  0
LINE
  5
564C
330
5647
100
AcDbEntity
  8
DIM
 62
     0
370
    -2
100
AcDbLine
 10
326.7871488894343
 20
348.1877271198096
 30
0.0
 11
326.7871488894343
 21
900.187727119812
 31
0.0
  0
INSERT
  5
564D
330
5647
100
AcDbEntity
  8
DIM
 62
     0
370
    -2
100
AcDbBlockReference
  2
_DOT
 10
326.7871488894343
 20
344.1877271198096
 30
0.0
 41
4.0
 42
4.0
 43
4.0
 50
270.0
  0
INSERT
  5
564E
330
5647
100
AcDbEntity
  8
DIM
 62
     0
370
    -2
100
AcDbBlockReference
  2
_DOT
 10
326.7871488894343
 20
904.187727119812
 30
0.0
 41
4.0
 42
4.0
 43
4.0
 50
90.0
  0
MTEXT
  5
564F
330
5647
100
AcDbEntity
  8
DIM
 62
     0
100
AcDbMText
 10
317.7871488894343
 20
624.1877271198108
 30
0.0
 40
10.0
 41
0.0
 46
0.0
 71
     5
 72
     1
  1
\A1;560
  7
ＭＳ ゴシック
 11
1.015061051085853E-16
 21
1.0
 31
0.0
 73
     1
 44
1.0
  0
POINT
  5
5650
330
5647
100
AcDbEntity
  8
Defpoints
 62
     0
100
AcDbPoint
 10
439.0067096231768
 20
344.1877271198096
 30
0.0
  0
POINT
  5
5651
330
5647
100
AcDbEntity
  8
Defpoints
 62
     0
100
AcDbPoint
 10
439.0067096231766
 20
904.187727119812
 30
0.0
  0
POINT
  5
5652
330
5647
100
AcDbEntity
  8
Defpoints
 62
     0
100
AcDbPoint
 10
326.7871488894343
 20
904.187727119812
 30
0.0
  0
ENDBLK
  5
5649
330
5647
100
AcDbEntity
  8
0
100
AcDbBlockEnd
  0
BLOCK
  5
5659
330
5658
100
AcDbEntity
  8
0
100
AcDbBlockBegin
  2
*D9
 70
     1
 10
0.0
 20
0.0
 30
0.0
  3
*D9
  1

  0
LINE
  5
565B
330
5658
100
AcDbEntity
  8
DIM
 62
     0
370
    -2
100
AcDbLine
 10
633.3709735298562
 20
374.187727119811
 30
0.0
 11
601.3588522796358
 21
374.187727119811
 31
0.0
  0
LINE
  5
565C
330
5658
100
AcDbEntity
  8
DIM
 62
     0
370
    -2
100
AcDbLine
 10
633.3709735298565
 20
874.187727119811
 30
0.0
 11
601.3588522796358
 21
874.187727119811
 31
0.0
  0
LINE
  5
565D
330
5658
100
AcDbEntity
  8
DIM
 62
     0
370
    -2
100
AcDbLine
 10
601.3588522796358
 20
378.187727119811
 30
0.0
 11
601.3588522796358
 21
870.187727119811
 31
0.0
  0
INSERT
  5
565E
330
5658
100
AcDbEntity
  8
DIM
 62
     0
370
    -2
100
AcDbBlockReference
  2
_DOT
 10
601.3588522796358
 20
374.187727119811
 30
0.0
 41
4.0
 42
4.0
 43
4.0
 50
270.0
  0
INSERT
  5
565F
330
5658
100
AcDbEntity
  8
DIM
 62
     0
370
    -2
100
AcDbBlockReference
  2
_DOT
 10
601.3588522796358
 20
874.187727119811
 30
0.0
 41
4.0
 42
4.0
 43
4.0
 50
90.0
  0
MTEXT
  5
5660
330
5658
100
AcDbEntity
  8
DIM
 62
     0
100
AcDbMText
 10
592.3588522796358
 20
624.187727119811
 30
0.0
 40
10.0
 41
0.0
 46
0.0
 71
     5
 72
     1
  1
\A1;500
  7
ＭＳ ゴシック
 11
0.0
 21
1.0
 31
0.0
 73
     1
 44
1.0
  0
POINT
  5
5661
330
5658
100
AcDbEntity
  8
Defpoints
 62
     0
100
AcDbPoint
 10
638.3709735298562
 20
374.187727119811
 30
0.0
  0
POINT
  5
5662
330
5658
100
AcDbEntity
  8
Defpoints
 62
     0
100
AcDbPoint
 10
638.3709735298565
 20
874.187727119811
 30
0.0
  0
POINT
  5
5663
330
5658
100
AcDbEntity
  8
Defpoints
 62
     0
100
AcDbPoint
 10
601.3588522796358
 20
874.187727119811
 30
0.0
  0
ENDBLK
  5
565A
330
5658
100
AcDbEntity
  8
0
100
AcDbBlockEnd
  0
BLOCK
  5
5669
330
5668
100
AcDbEntity
  8
0
100
AcDbBlockBegin
  2
*D10
 70
     1
 10
0.0
 20
0.0
 30
0.0
  3
*D10
  1

  0
LINE
  5
566B
330
5668
100
AcDbEntity
  8
DIM
 62
     0
370
    -2
100
AcDbLine
 10
678.1641648098539
 20
856.0661931570737
 30
0.0
 11
678.1641648098539
 21
934.20288489666
 31
0.0
  0
LINE
  5
566C
330
5668
100
AcDbEntity
  8
DIM
 62
     0
370
    -2
100
AcDbLine
 10
618.1641648098539
 20
856.0661931570737
 30
0.0
 11
618.1641648098539
 21
934.20288489666
 31
0.0
  0
LINE
  5
566D
330
5668
100
AcDbEntity
  8
DIM
 62
     0
370
    -2
100
AcDbLine
 10
674.1641648098539
 20
934.20288489666
 30
0.0
 11
622.1641648098539
 21
934.20288489666
 31
0.0
  0
INSERT
  5
566E
330
5668
100
AcDbEntity
  8
DIM
 62
     0
370
    -2
100
AcDbBlockReference
  2
_DOT
 10
678.1641648098539
 20
934.20288489666
 30
0.0
 41
4.0
 42
4.0
 43
4.0
  0
INSERT
  5
566F
330
5668
100
AcDbEntity
  8
DIM
 62
     0
370
    -2
100
AcDbBlockReference
  2
_DOT
 10
618.1641648098539
 20
934.20288489666
 30
0.0
 41
4.0
 42
4.0
 43
4.0
 50
180.0
  0
MTEXT
  5
5670
330
5668
100
AcDbEntity
  8
DIM
 62
     0
100
AcDbMText
 10
648.1641648098537
 20
943.20288489666
 30
0.0
 40
10.0
 41
0.0
 46
0.0
 71
     5
 72
     1
  1
\A1;%%c60
  7
ＭＳ ゴシック
 73
     1
 44
1.0
  0
POINT
  5
5671
330
5668
100
AcDbEntity
  8
Defpoints
 62
     0
100
AcDbPoint
 10
678.1641648098539
 20
851.0661931570737
 30
0.0
  0
POINT
  5
5672
330
5668
100
AcDbEntity
  8
Defpoints
 62
     0
100
AcDbPoint
 10
618.1641648098539
 20
851.0661931570737
 30
0.0
  0
POINT
  5
5673
330
5668
100
AcDbEntity
  8
Defpoints
 62
     0
100
AcDbPoint
 10
618.1641648098539
 20
934.20288489666
 30
0.0
  0
ENDBLK
  5
566A
330
5668
100
AcDbEntity
  8
0
100
AcDbBlockEnd
  0
BLOCK
  5
5676
330
5675
100
AcDbEntity
  8
0
100
AcDbBlockBegin
  2
*D11
 70
     1
 10
0.0
 20
0.0
 30
0.0
  3
*D11
  1

  0
LINE
  5
5678
330
5675
100
AcDbEntity
  8
DIM
 62
     0
370
    -2
100
AcDbLine
 10
462.859629345265
 20
923.6399195376043
 30
0.0
 11
462.859629345265
 21
942.4132003604984
 31
0.0
  0
LINE
  5
5679
330
5675
100
AcDbEntity
  8
DIM
 62
     0
370
    -2
100
AcDbLine
 10
531.7431199128353
 20
896.8200889594452
 30
0.0
 11
531.7431199128353
 21
942.4132003604984
 31
0.0
  0
LINE
  5
567A
330
5675
100
AcDbEntity
  8
DIM
 62
     0
370
    -2
100
AcDbLine
 10
466.859629345265
 20
942.4132003604984
 30
0.0
 11
527.7431199128353
 21
942.4132003604984
 31
0.0
  0
INSERT
  5
567B
330
5675
100
AcDbEntity
  8
DIM
 62
     0
370
    -2
100
AcDbBlockReference
  2
_DOT
 10
462.859629345265
 20
942.4132003604984
 30
0.0
 41
4.0
 42
4.0
 43
4.0
 50
180.0
  0
INSERT
  5
567C
330
5675
100
AcDbEntity
  8
DIM
 62
     0
370
    -2
100
AcDbBlockReference
  2
_DOT
 10
531.7431199128353
 20
942.4132003604984
 30
0.0
 41
4.0
 42
4.0
 43
4.0
  0
MTEXT
  5
567D
330
5675
100
AcDbEntity
  8
DIM
 62
     0
100
AcDbMText
 10
497.3013746290503
 20
951.4132003604984
 30
0.0
 40
10.0
 41
0.0
 46
0.0
 71
     5
 72
     1
  1
\A1;70
  7
ＭＳ ゴシック
 73
     1
 44
1.0
  0
POINT
  5
567E
330
5675
100
AcDbEntity
  8
Defpoints
 62
     0
100
AcDbPoint
 10
462.859629345265
 20
918.6399195376043
 30
0.0
  0
POINT
  5
567F
330
5675
100
AcDbEntity
  8
Defpoints
 62
     0
100
AcDbPoint
 10
531.7431199128353
 20
891.8200889594452
 30
0.0
  0
POINT
  5
5680
330
5675
100
AcDbEntity
  8
Defpoints
 62
     0
100
AcDbPoint
 10
531.7431199128353
 20
942.4132003604984
 30
0.0
  0
ENDBLK
  5
5677
330
5675
100
AcDbEntity
  8
0
100
AcDbBlockEnd
  0
BLOCK
  5
5B0D
330
5B0C
100
AcDbEntity
  8
0
100
AcDbBlockBegin
  2
*D12
 70
     1
 10
0.0
 20
0.0
 30
0.0
  3
*D12
  1

  0
LINE
  5
5B0F
330
5B0C
100
AcDbEntity
  8
DIM
 62
     0
370
    -2
100
AcDbLine
 10
177.9469960178309
 20
689.8914483616909
 30
0.0
 11
177.9469960178309
 21
707.8622563582475
 31
0.0
  0
LINE
  5
5B10
330
5B0C
100
AcDbEntity
  8
DIM
 62
     0
370
    -2
100
AcDbLine
 10
200.9469960178309
 20
689.8914483616911
 30
0.0
 11
200.9469960178309
 21
707.8622563582475
 31
0.0
  0
LINE
  5
5B11
330
5B0C
100
AcDbEntity
  8
DIM
 62
     0
370
    -2
100
AcDbLine
 10
181.9469960178309
 20
707.8622563582475
 30
0.0
 11
196.9469960178309
 21
707.8622563582475
 31
0.0
  0
INSERT
  5
5B12
330
5B0C
100
AcDbEntity
  8
DIM
 62
     0
370
    -2
100
AcDbBlockReference
  2
_DOT
 10
177.9469960178309
 20
707.8622563582475
 30
0.0
 41
4.0
 42
4.0
 43
4.0
 50
180.0
  0
INSERT
  5
5B13
330
5B0C
100
AcDbEntity
  8
DIM
 62
     0
370
    -2
100
AcDbBlockReference
  2
_DOT
 10
200.9469960178309
 20
707.8622563582475
 30
0.0
 41
4.0
 42
4.0
 43
4.0
  0
MTEXT
  5
5B14
330
5B0C
100
AcDbEntity
  8
DIM
 62
     0
100
AcDbMText
 10
189.4469960178309
 20
716.8622563582475
 30
0.0
 40
10.0
 41
0.0
 46
0.0
 71
     5
 72
     1
  1
\A1;23
  7
ＭＳ ゴシック
 73
     1
 44
1.0
  0
POINT
  5
5B15
330
5B0C
100
AcDbEntity
  8
Defpoints
 62
     0
100
AcDbPoint
 10
177.9469960178309
 20
684.8914483616909
 30
0.0
  0
POINT
  5
5B16
330
5B0C
100
AcDbEntity
  8
Defpoints
 62
     0
100
AcDbPoint
 10
200.9469960178309
 20
684.8914483616911
 30
0.0
  0
POINT
  5
5B17
330
5B0C
100
AcDbEntity
  8
Defpoints
 62
     0
100
AcDbPoint
 10
200.9469960178309
 20
707.8622563582475
 30
0.0
  0
ENDBLK
  5
5B0E
330
5B0C
100
AcDbEntity
  8
0
100
AcDbBlockEnd
  0
BLOCK
  5
5D4B
330
5D4A
100
AcDbEntity
  8
0
100
AcDbBlockBegin
  2
*D13
 70
     1
 10
0.0
 20
0.0
 30
0.0
  3
*D13
  1

  0
LINE
  5
5D4D
330
5D4A
100
AcDbEntity
  8
DIM
 62
     0
370
    -2
100
AcDbLine
 10
636.5136099997399
 20
896.1484696382865
 30
0.0
 11
636.5136099997399
 21
914.119277634843
 31
0.0
  0
LINE
  5
5D4E
330
5D4A
100
AcDbEntity
  8
DIM
 62
     0
370
    -2
100
AcDbLine
 10
659.5136099997399
 20
896.1484696382865
 30
0.0
 11
659.5136099997399
 21
914.119277634843
 31
0.0
  0
LINE
  5
5D4F
330
5D4A
100
AcDbEntity
  8
DIM
 62
     0
370
    -2
100
AcDbLine
 10
640.5136099997399
 20
914.119277634843
 30
0.0
 11
655.5136099997399
 21
914.119277634843
 31
0.0
  0
INSERT
  5
5D50
330
5D4A
100
AcDbEntity
  8
DIM
 62
     0
370
    -2
100
AcDbBlockReference
  2
_DOT
 10
636.5136099997399
 20
914.119277634843
 30
0.0
 41
4.0
 42
4.0
 43
4.0
 50
180.0
  0
INSERT
  5
5D51
330
5D4A
100
AcDbEntity
  8
DIM
 62
     0
370
    -2
100
AcDbBlockReference
  2
_DOT
 10
659.5136099997399
 20
914.119277634843
 30
0.0
 41
4.0
 42
4.0
 43
4.0
  0
MTEXT
  5
5D52
330
5D4A
100
AcDbEntity
  8
DIM
 62
     0
100
AcDbMText
 10
648.0136099997399
 20
923.119277634843
 30
0.0
 40
10.0
 41
0.0
 46
0.0
 71
     5
 72
     1
  1
\A1;23
  7
ＭＳ ゴシック
 73
     1
 44
1.0
  0
POINT
  5
5D53
330
5D4A
100
AcDbEntity
  8
Defpoints
 62
     0
100
AcDbPoint
 10
636.5136099997399
 20
891.1484696382865
 30
0.0
  0
POINT
  5
5D54
330
5D4A
100
AcDbEntity
  8
Defpoints
 62
     0
100
AcDbPoint
 10
659.5136099997399
 20
891.1484696382865
 30
0.0
  0
POINT
  5
5D55
330
5D4A
100
AcDbEntity
  8
Defpoints
 62
     0
100
AcDbPoint
 10
659.5136099997399
 20
914.119277634843
 30
0.0
  0
ENDBLK
  5
5D4C
330
5D4A
100
AcDbEntity
  8
0
100
AcDbBlockEnd
  0
BLOCK
  5
5D5F
330
5D5E
100
AcDbEntity
  8
0
100
AcDbBlockBegin
  2
*D14
 70
     1
 10
0.0
 20
0.0
 30
0.0
  3
*D14
  1

  0
LINE
  5
5D61
330
5D5E
100
AcDbEntity
  8
DIM
 62
     0
370
    -2
100
AcDbLine
 10
93.99604522796346
 20
1017.501389227964
 30
0.0
 11
93.99604522796346
 21
1064.548875282675
 31
0.0
  0
LINE
  5
5D62
330
5D5E
100
AcDbEntity
  8
DIM
 62
     0
370
    -2
100
AcDbLine
 10
753.9960452279635
 20
1017.501389227964
 30
0.0
 11
753.9960452279635
 21
1064.548875282675
 31
0.0
  0
LINE
  5
5D63
330
5D5E
100
AcDbEntity
  8
DIM
 62
     0
370
    -2
100
AcDbLine
 10
97.99604522796346
 20
1064.548875282675
 30
0.0
 11
749.9960452279635
 21
1064.548875282675
 31
0.0
  0
INSERT
  5
5D64
330
5D5E
100
AcDbEntity
  8
DIM
 62
     0
370
    -2
100
AcDbBlockReference
  2
_DOT
 10
93.99604522796346
 20
1064.548875282675
 30
0.0
 41
4.0
 42
4.0
 43
4.0
 50
180.0
  0
INSERT
  5
5D65
330
5D5E
100
AcDbEntity
  8
DIM
 62
     0
370
    -2
100
AcDbBlockReference
  2
_DOT
 10
753.9960452279635
 20
1064.548875282675
 30
0.0
 41
4.0
 42
4.0
 43
4.0
  0
MTEXT
  5
5D66
330
5D5E
100
AcDbEntity
  8
DIM
 62
     0
100
AcDbMText
 10
423.9960452279635
 20
1073.548875282675
 30
0.0
 40
10.0
 41
0.0
 46
0.0
 71
     5
 72
     1
  1
\A1;660
  7
ＭＳ ゴシック
 73
     1
 44
1.0
  0
POINT
  5
5D67
330
5D5E
100
AcDbEntity
  8
Defpoints
 62
     0
100
AcDbPoint
 10
93.99604522796346
 20
1012.501389227964
 30
0.0
  0
POINT
  5
5D68
330
5D5E
100
AcDbEntity
  8
Defpoints
 62
     0
100
AcDbPoint
 10
753.9960452279635
 20
1012.501389227964
 30
0.0
  0
POINT
  5
5D69
330
5D5E
100
AcDbEntity
  8
Defpoints
 62
     0
100
AcDbPoint
 10
753.9960452279635
 20
1064.548875282675
 30
0.0
  0
ENDBLK
  5
5D60
330
5D5E
100
AcDbEntity
  8
0
100
AcDbBlockEnd
  0
BLOCK
  5
5F42
330
5F41
100
AcDbEntity
  8
0
100
AcDbBlockBegin
  2
*D15
 70
     1
 10
0.0
 20
0.0
 30
0.0
  3
*D15
  1

  0
LINE
  5
5F44
330
5F41
100
AcDbEntity
  8
DIM
 62
     0
370
    -2
100
AcDbLine
 10
462.7431199128349
 20
916.7058885227714
 30
0.0
 11
462.7431199128349
 21
942.4132003604984
 31
0.0
  0
LINE
  5
5F45
330
5F41
100
AcDbEntity
  8
DIM
 62
     0
370
    -2
100
AcDbLine
 10
453.1500482250017
 20
916.7058885227714
 30
0.0
 11
453.1500482250017
 21
942.4132003604984
 31
0.0
  0
LINE
  5
5F46
330
5F41
100
AcDbEntity
  8
DIM
 62
     0
370
    -2
100
AcDbLine
 10
453.1500482250017
 20
942.4132003604984
 30
0.0
 11
409.1200482250018
 21
942.4132003604984
 31
0.0
  0
LINE
  5
5F47
330
5F41
100
AcDbEntity
  8
DIM
 62
     0
370
    -2
100
AcDbLine
 10
458.7431199128349
 20
942.4132003604984
 30
0.0
 11
457.1500482250017
 21
942.4132003604984
 31
0.0
  0
LINE
  5
5F48
330
5F41
100
AcDbEntity
  8
DIM
 62
     0
370
    -2
100
AcDbLine
 10
457.1500482250017
 20
942.4132003604984
 30
0.0
 11
461.1500482250017
 21
942.4132003604984
 31
0.0
  0
INSERT
  5
5F49
330
5F41
100
AcDbEntity
  8
DIM
 62
     0
370
    -2
100
AcDbBlockReference
  2
_DOT
 10
462.7431199128349
 20
942.4132003604984
 30
0.0
 41
4.0
 42
4.0
 43
4.0
  0
INSERT
  5
5F4A
330
5F41
100
AcDbEntity
  8
DIM
 62
     0
370
    -2
100
AcDbBlockReference
  2
_DOT
 10
453.1500482250017
 20
942.4132003604984
 30
0.0
 41
4.0
 42
4.0
 43
4.0
 50
180.0
  0
MTEXT
  5
5F4B
330
5F41
100
AcDbEntity
  8
DIM
 62
     0
100
AcDbMText
 10
425.5100482250018
 20
951.4132003604984
 30
0.0
 40
10.0
 41
0.0
 46
0.0
 71
     5
 72
     1
  1
\A1;6-10
  7
ＭＳ ゴシック
 73
     1
 44
1.0
  0
POINT
  5
5F4C
330
5F41
100
AcDbEntity
  8
Defpoints
 62
     0
100
AcDbPoint
 10
462.7431199128349
 20
911.7058885227714
 30
0.0
  0
POINT
  5
5F4D
330
5F41
100
AcDbEntity
  8
Defpoints
 62
     0
100
AcDbPoint
 10
453.1500482250017
 20
911.7058885227714
 30
0.0
  0
POINT
  5
5F4E
330
5F41
100
AcDbEntity
  8
Defpoints
 62
     0
100
AcDbPoint
 10
453.1500482250017
 20
942.4132003604984
 30
0.0
  0
ENDBLK
  5
5F43
330
5F41
100
AcDbEntity
  8
0
100
AcDbBlockEnd
  0
BLOCK
  5
61DD
330
61DC
100
AcDbEntity
  8
0
100
AcDbBlockBegin
  2
*D16
 70
     1
 10
0.0
 20
0.0
 30
0.0
  3
*D16
  1

  0
LINE
  5
61DF
330
61DC
100
AcDbEntity
  8
DIM
 62
     0
370
    -2
100
AcDbLine
 10
562.5796442289513
 20
876.1287271198172
 30
0.0
 11
656.211434380012
 21
876.1287271198172
 31
0.0
  0
LINE
  5
61E0
330
61DC
100
AcDbEntity
  8
DIM
 62
     0
370
    -2
100
AcDbLine
 10
562.8351442289359
 20
374.1877271198108
 30
0.0
 11
656.211434380012
 21
374.1877271198108
 31
0.0
  0
LINE
  5
61E1
330
61DC
100
AcDbEntity
  8
DIM
 62
     0
370
    -2
100
AcDbLine
 10
656.211434380012
 20
872.1287271198172
 30
0.0
 11
656.211434380012
 21
378.1877271198108
 31
0.0
  0
INSERT
  5
61E2
330
61DC
100
AcDbEntity
  8
DIM
 62
     0
370
    -2
100
AcDbBlockReference
  2
_DOT
 10
656.211434380012
 20
876.1287271198172
 30
0.0
 41
4.0
 42
4.0
 43
4.0
 50
90.0
  0
INSERT
  5
61E3
330
61DC
100
AcDbEntity
  8
DIM
 62
     0
370
    -2
100
AcDbBlockReference
  2
_DOT
 10
656.211434380012
 20
374.1877271198108
 30
0.0
 41
4.0
 42
4.0
 43
4.0
 50
270.0
  0
MTEXT
  5
61E4
330
61DC
100
AcDbEntity
  8
DIM
 62
     0
100
AcDbMText
 10
647.211434380012
 20
625.158227119814
 30
0.0
 40
10.0
 41
0.0
 46
0.0
 71
     5
 72
     1
  1
\A1;502
  7
ＭＳ ゴシック
 11
0.0
 21
1.0
 31
0.0
 73
     1
 44
1.0
  0
POINT
  5
61E5
330
61DC
100
AcDbEntity
  8
Defpoints
 62
     0
100
AcDbPoint
 10
557.5796442289513
 20
876.1287271198172
 30
0.0
  0
POINT
  5
61E6
330
61DC
100
AcDbEntity
  8
Defpoints
 62
     0
100
AcDbPoint
 10
557.8351442289359
 20
374.1877271198108
 30
0.0
  0
POINT
  5
61E7
330
61DC
100
AcDbEntity
  8
Defpoints
 62
     0
100
AcDbPoint
 10
656.211434380012
 20
374.1877271198108
 30
0.0
  0
ENDBLK
  5
61DE
330
61DC
100
AcDbEntity
  8
0
100
AcDbBlockEnd
  0
BLOCK
  5
621F
330
621E
100
AcDbEntity
  8
0
100
AcDbBlockBegin
  2
*D18
 70
     1
 10
0.0
 20
0.0
 30
0.0
  3
*D18
  1

  0
LINE
  5
6220
330
621E
100
AcDbEntity
  8
寸法
 62
     0
370
    -2
100
AcDbLine
 10
64.59542690541502
 20
84.0981859360283
 30
0.0
 11
106.7494466625469
 21
84.0981859360283
 31
0.0
  0
LINE
  5
6221
330
621E
100
AcDbEntity
  8
寸法
 62
     0
370
    -2
100
AcDbLine
 10
64.00838680537186
 20
469.0239002217423
 30
0.0
 11
106.7494466625469
 21
469.0239002217423
 31
0.0
  0
LINE
  5
6222
330
621E
100
AcDbEntity
  8
寸法
 62
     0
370
    -2
100
AcDbLine
 10
106.7494466625469
 20
88.0981859360283
 30
0.0
 11
106.7494466625469
 21
465.0239002217423
 31
0.0
  0
INSERT
  5
6223
330
621E
100
AcDbEntity
  8
寸法
 62
     0
370
    -2
100
AcDbBlockReference
  2
_DOT
 10
106.7494466625469
 20
84.0981859360283
 30
0.0
 41
4.0
 42
4.0
 43
4.0
 50
270.0
  0
INSERT
  5
6224
330
621E
100
AcDbEntity
  8
寸法
 62
     0
370
    -2
100
AcDbBlockReference
  2
_DOT
 10
106.7494466625469
 20
469.0239002217423
 30
0.0
 41
4.0
 42
4.0
 43
4.0
 50
90.0
  0
MTEXT
  5
6225
330
621E
100
AcDbEntity
  8
寸法
 62
     0
100
AcDbMText
 10
97.7494466625469
 20
276.5610430788853
 30
0.0
 40
10.0
 41
0.0
 46
0.0
 71
     5
 72
     1
  1
\A1;600
  7
ＭＳ ゴシック
 11
7.383686871412228E-17
 21
1.0
 31
0.0
 73
     1
 44
1.0
  0
POINT
  5
6226
330
621E
100
AcDbEntity
  8
Defpoints
 62
     0
100
AcDbPoint
 10
59.59542690541502
 20
84.0981859360283
 30
0.0
  0
POINT
  5
6227
330
621E
100
AcDbEntity
  8
Defpoints
 62
     0
100
AcDbPoint
 10
59.00838680537186
 20
469.0239002217423
 30
0.0
  0
POINT
  5
6228
330
621E
100
AcDbEntity
  8
Defpoints
 62
     0
100
AcDbPoint
 10
106.7494466625469
 20
469.0239002217423
 30
0.0
  0
ENDBLK
  5
6229
330
621E
100
AcDbEntity
  8
0
100
AcDbBlockEnd
  0
BLOCK
  5
6241
330
6240
100
AcDbEntity
  8
0
100
AcDbBlockBegin
  2
*D19
 70
     1
 10
0.0
 20
0.0
 30
0.0
  3
*D19
  1

  0
LINE
  5
6243
330
6240
100
AcDbEntity
  8
寸法
 62
     0
370
    -2
100
AcDbLine
 10
670.6858658247027
 20
374.1877271198109
 30
0.0
 11
712.8398855818346
 21
374.1877271198109
 31
0.0
  0
LINE
  5
6244
330
6240
100
AcDbEntity
  8
寸法
 62
     0
370
    -2
100
AcDbLine
 10
670.0988257246595
 20
874.1877271198107
 30
0.0
 11
712.8398855818346
 21
874.1877271198107
 31
0.0
  0
LINE
  5
6245
330
6240
100
AcDbEntity
  8
寸法
 62
     0
370
    -2
100
AcDbLine
 10
712.8398855818346
 20
378.1877271198109
 30
0.0
 11
712.8398855818346
 21
870.1877271198107
 31
0.0
  0
INSERT
  5
6246
330
6240
100
AcDbEntity
  8
寸法
 62
     0
370
    -2
100
AcDbBlockReference
  2
_DOT
 10
712.8398855818346
 20
374.1877271198109
 30
0.0
 41
4.0
 42
4.0
 43
4.0
 50
270.0
  0
INSERT
  5
6247
330
6240
100
AcDbEntity
  8
寸法
 62
     0
370
    -2
100
AcDbBlockReference
  2
_DOT
 10
712.8398855818346
 20
874.1877271198107
 30
0.0
 41
4.0
 42
4.0
 43
4.0
 50
90.0
  0
MTEXT
  5
6248
330
6240
100
AcDbEntity
  8
寸法
 62
     0
100
AcDbMText
 10
703.8398855818346
 20
624.1877271198108
 30
0.0
 40
10.0
 41
0.0
 46
0.0
 71
     5
 72
     1
  1
\A1;500
  7
ＭＳ ゴシック
 11
0.0
 21
1.0
 31
0.0
 73
     1
 44
1.0
  0
POINT
  5
6249
330
6240
100
AcDbEntity
  8
Defpoints
 62
     0
100
AcDbPoint
 10
665.6858658247027
 20
374.1877271198109
 30
0.0
  0
POINT
  5
624A
330
6240
100
AcDbEntity
  8
Defpoints
 62
     0
100
AcDbPoint
 10
665.0988257246595
 20
874.1877271198107
 30
0.0
  0
POINT
  5
624B
330
6240
100
AcDbEntity
  8
Defpoints
 62
     0
100
AcDbPoint
 10
712.8398855818346
 20
874.1877271198107
 30
0.0
  0
ENDBLK
  5
6242
330
6240
100
AcDbEntity
  8
0
100
AcDbBlockEnd
  0
BLOCK
  5
63CC
330
63CB
100
AcDbEntity
  8
0
100
AcDbBlockBegin
  2
*D21
 70
     1
 10
0.0
 20
0.0
 30
0.0
  3
*D21
  1

  0
LINE
  5
63CE
330
63CB
100
AcDbEntity
  8
DIM
 62
     0
370
    -2
100
AcDbLine
 10
141.0211179704158
 20
629.187727119811
 30
0.0
 11
141.0211179704158
 21
633.3050494832828
 31
0.0
  0
LINE
  5
63CF
330
63CB
100
AcDbEntity
  8
DIM
 62
     0
370
    -2
100
AcDbLine
 10
160.7171179703831
 20
629.1877271198109
 30
0.0
 11
160.7171179703831
 21
633.3050494832828
 31
0.0
  0
LINE
  5
63D0
330
63CB
100
AcDbEntity
  8
DIM
 62
     0
370
    -2
100
AcDbLine
 10
160.7171179703831
 20
633.3050494832828
 30
0.0
 11
195.4571179703831
 21
633.3050494832828
 31
0.0
  0
LINE
  5
63D1
330
63CB
100
AcDbEntity
  8
DIM
 62
     0
370
    -2
100
AcDbLine
 10
145.0211179704158
 20
633.3050494832828
 30
0.0
 11
156.7171179703831
 21
633.3050494832828
 31
0.0
  0
LINE
  5
63D2
330
63CB
100
AcDbEntity
  8
DIM
 62
     0
370
    -2
100
AcDbLine
 10
156.7171179703831
 20
633.3050494832828
 30
0.0
 11
152.7171179703831
 21
633.3050494832828
 31
0.0
  0
INSERT
  5
63D3
330
63CB
100
AcDbEntity
  8
DIM
 62
     0
370
    -2
100
AcDbBlockReference
  2
_DOT
 10
141.0211179704158
 20
633.3050494832828
 30
0.0
 41
4.0
 42
4.0
 43
4.0
 50
180.0
  0
INSERT
  5
63D4
330
63CB
100
AcDbEntity
  8
DIM
 62
     0
370
    -2
100
AcDbBlockReference
  2
_DOT
 10
160.7171179703831
 20
633.3050494832828
 30
0.0
 41
4.0
 42
4.0
 43
4.0
  0
MTEXT
  5
63D5
330
63CB
100
AcDbEntity
  8
DIM
 62
     0
100
AcDbMText
 10
182.0871179703831
 20
642.3050494832828
 30
0.0
 40
10.0
 41
0.0
 46
0.0
 71
     5
 72
     1
  1
\A1;%%c20
  7
ＭＳ ゴシック
 73
     1
 44
1.0
  0
POINT
  5
63D6
330
63CB
100
AcDbEntity
  8
Defpoints
 62
     0
100
AcDbPoint
 10
141.0211179704158
 20
624.187727119811
 30
0.0
  0
POINT
  5
63D7
330
63CB
100
AcDbEntity
  8
Defpoints
 62
     0
100
AcDbPoint
 10
160.7171179703831
 20
624.1877271198109
 30
0.0
  0
POINT
  5
63D8
330
63CB
100
AcDbEntity
  8
Defpoints
 62
     0
100
AcDbPoint
 10
160.7171179703831
 20
633.3050494832828
 30
0.0
  0
ENDBLK
  5
63CD
330
63CB
100
AcDbEntity
  8
0
100
AcDbBlockEnd
  0
BLOCK
  5
63E9
330
63E8
100
AcDbEntity
  8
0
100
AcDbBlockBegin
  2
*D22
 70
     1
 10
0.0
 20
0.0
 30
0.0
  3
*D22
  1

  0
LINE
  5
63EB
330
63E8
100
AcDbEntity
  8
DIM
 62
     0
370
    -2
100
AcDbLine
 10
635.4206113929096
 20
374.1877271198109
 30
0.0
 11
585.2861311488834
 21
374.1877271198109
 31
0.0
  0
LINE
  5
63EC
330
63E8
100
AcDbEntity
  8
DIM
 62
     0
370
    -2
100
AcDbLine
 10
618.9445899938682
 20
874.1877271198107
 30
0.0
 11
585.2861311488834
 21
874.1877271198107
 31
0.0
  0
LINE
  5
63ED
330
63E8
100
AcDbEntity
  8
DIM
 62
     0
370
    -2
100
AcDbLine
 10
585.2861311488834
 20
378.1877271198109
 30
0.0
 11
585.2861311488834
 21
870.1877271198107
 31
0.0
  0
INSERT
  5
63EE
330
63E8
100
AcDbEntity
  8
DIM
 62
     0
370
    -2
100
AcDbBlockReference
  2
_DOT
 10
585.2861311488834
 20
374.1877271198109
 30
0.0
 41
4.0
 42
4.0
 43
4.0
 50
270.0
  0
INSERT
  5
63EF
330
63E8
100
AcDbEntity
  8
DIM
 62
     0
370
    -2
100
AcDbBlockReference
  2
_DOT
 10
585.2861311488834
 20
874.1877271198107
 30
0.0
 41
4.0
 42
4.0
 43
4.0
 50
90.0
  0
MTEXT
  5
63F0
330
63E8
100
AcDbEntity
  8
DIM
 62
     0
100
AcDbMText
 10
576.2861311488834
 20
624.1877271198108
 30
0.0
 40
10.0
 41
0.0
 46
0.0
 71
     5
 72
     1
  1
\A1;500
  7
ＭＳ ゴシック
 11
0.0
 21
1.0
 31
0.0
 73
     1
 44
1.0
  0
POINT
  5
63F1
330
63E8
100
AcDbEntity
  8
Defpoints
 62
     0
100
AcDbPoint
 10
640.4206113929096
 20
374.1877271198109
 30
0.0
  0
POINT
  5
63F2
330
63E8
100
AcDbEntity
  8
Defpoints
 62
     0
100
AcDbPoint
 10
623.9445899938682
 20
874.1877271198107
 30
0.0
  0
POINT
  5
63F3
330
63E8
100
AcDbEntity
  8
Defpoints
 62
     0
100
AcDbPoint
 10
585.2861311488834
 20
874.1877271198107
 30
0.0
  0
ENDBLK
  5
63EA
330
63E8
100
AcDbEntity
  8
0
100
AcDbBlockEnd
  0
ENDSEC
  0
SECTION
  2
ENTITIES
  0
MTEXT
  5
177
330
A
100
AcDbEntity
  8
TEMPLATE
390
1D
100
AcDbMText
 10
31.6808578190923
 20
137.4927006525713
 30
0.0
 40
6.51536458333333
 41
0.0
 46
0.0
 71
     1
 72
     1
  1
品名
  7
ＭＳ ゴシック
 73
     1
 44
0.7828267384257843
  0
MTEXT
  5
178
330
A
100
AcDbEntity
  8
TEMPLATE
390
1D
100
AcDbMText
 10
31.6808578190923
 20
103.4927006525712
 30
0.0
 40
6.51536458333333
 41
0.0
 46
0.0
 71
     1
 72
     1
  1
仕様
  7
ＭＳ ゴシック
 73
     1
 44
0.7828267384257843
  0
LINE
  5
179
330
A
100
AcDbEntity
  8
TEMPLATE
390
1D
100
AcDbLine
 10
808.8808578188992
 20
106.8586694025714
 30
0.0
 11
28.8808578188995
 21
106.8586694025714
 31
0.0
  0
LWPOLYLINE
  5
17A
330
A
100
AcDbEntity
  8
TEMPLATE
390
1D
100
AcDbPolyline
 90
        5
 70
   128
 43
0.0
 10
808.8808578188992
 20
1158.858669402571
 10
28.8808578188995
 20
1158.858669402571
 10
28.8808578188995
 20
38.8586694025713
 10
808.8808578188992
 20
38.8586694025713
 10
808.8808578188992
 20
1158.858669402571
  0
LINE
  5
17B
330
A
100
AcDbEntity
  8
TEMPLATE
390
1D
100
AcDbLine
 10
808.8808578188992
 20
140.8586694025713
 30
0.0
 11
28.8808578188995
 21
140.8586694025713
 31
0.0
  0
LINE
  5
17C
330
A
100
AcDbEntity
  8
TEMPLATE
390
1D
100
AcDbLine
 10
808.8808578190929
 20
72.8586694025713
 30
0.0
 11
507.680857819092
 21
72.8586694025713
 31
0.0
  0
MTEXT
  5
17E
330
A
100
AcDbEntity
  8
TEMPLATE
390
1D
100
AcDbMText
 10
519.6294203199964
 20
60.89451161324806
 30
0.0
 40
9.773046875
 41
0.0
 46
0.0
 71
     1
 72
     1
  1
大洋金物株式会社 ティーフォルム事業部
  7
ＭＳ ゴシック
 73
     1
 44
0.7828267384257843
  0
MTEXT
  5
180
330
A
100
AcDbEntity
  8
TEMPLATE
390
1D
100
AcDbMText
 10
732.480857819196
 20
92.05971627757128
 30
0.0
 40
9.773046875
 41
0.0
 46
9.773046875
 71
     1
 72
     1
  1
{1:4}
  7
ＭＳ ゴシック
 73
     1
 44
0.7828267384257843
1001
ACAD
1000
ACAD_MTEXT_DEFINED_HEIGHT_BEGIN
1070
    46
1040
9.773046875
1000
ACAD_MTEXT_DEFINED_HEIGHT_END
  0
MTEXT
  5
181
330
A
100
AcDbEntity
  8
TEMPLATE
390
1D
100
AcDbMText
 10
711.280857819196
 20
103.4927006525712
 30
0.0
 40
6.51536458333333
 41
0.0
 46
0.0
 71
     1
 72
     1
  1
縮尺
  7
ＭＳ ゴシック
 73
     1
 44
0.7828267384257843
  0
LINE
  5
182
330
A
100
AcDbEntity
  8
TEMPLATE
390
1D
100
AcDbLine
 10
708.480857819196
 20
72.8586694025713
 30
0.0
 11
708.480857819196
 21
106.8586694025714
 31
0.0
  0
MTEXT
  5
183
330
A
100
AcDbEntity
  8
TEMPLATE
390
1D
100
AcDbMText
 10
610.880857819196
 20
103.4927006525712
 30
0.0
 40
6.51536458333333
 41
0.0
 46
0.0
 71
     1
 72
     1
  1
容量
  7
ＭＳ ゴシック
 73
     1
 44
0.7828267384257843
  0
LINE
  5
184
330
A
100
AcDbEntity
  8
TEMPLATE
390
1D
100
AcDbLine
 10
608.080857819196
 20
72.8586694025713
 30
0.0
 11
608.080857819196
 21
106.8586694025714
 31
0.0
  0
MTEXT
  5
185
330
A
100
AcDbEntity
  8
TEMPLATE
390
1D
100
AcDbMText
 10
510.480857819196
 20
137.4927006525713
 30
0.0
 40
6.51536458333333
 41
0.0
 46
0.0
 71
     1
 72
     1
  1
品番
  7
ＭＳ ゴシック
 73
     1
 44
0.7828267384257843
  0
MTEXT
  5
186
330
A
100
AcDbEntity
  8
TEMPLATE
390
1D
100
AcDbMText
 10
510.480857819196
 20
103.4927006525712
 30
0.0
 40
6.51536458333333
 41
0.0
 46
0.0
 71
     1
 72
     1
  1
重量
  7
ＭＳ ゴシック
 73
     1
 44
0.7828267384257843
  0
MTEXT
  5
187
330
A
100
AcDbEntity
  8
TEMPLATE
390
1D
100
AcDbMText
 10
531.680857819196
 20
126.0597162775713
 30
0.0
 40
9.773046875
 41
0.0
 46
9.773046875
 71
     1
 72
     1
  1
{FLR82-0602}
  7
ＭＳ ゴシック
 73
     1
 44
0.7828267384257843
1001
ACAD
1000
ACAD_MTEXT_DEFINED_HEIGHT_BEGIN
1070
    46
1040
9.773046875
1000
ACAD_MTEXT_DEFINED_HEIGHT_END
  0
LINE
  5
188
330
A
100
AcDbEntity
  8
TEMPLATE
390
1D
100
AcDbLine
 10
507.680857819196
 20
38.8586694025713
 30
0.0
 11
507.680857819196
 21
140.8586694025713
 31
0.0
  0
MTEXT
  5
189
330
A
100
AcDbEntity
  8
TEMPLATE
390
1D
100
AcDbMText
 10
52.8808578190923
 20
126.0597162775713
 30
0.0
 40
9.773046875
 41
0.0
 46
11.014223828125
 71
     1
 72
     1
  1
{シャワードアハンドル　-KEUCO, Astor-}
  7
ＭＳ ゴシック
 73
     1
 44
0.7828267384257843
1001
ACAD
1000
ACAD_MTEXT_DEFINED_HEIGHT_BEGIN
1070
    46
1040
11.014223828125
1000
ACAD_MTEXT_DEFINED_HEIGHT_END
  0
INSERT
  5
68C
330
A
100
AcDbEntity
  8
TEMPLATE
100
AcDbBlockReference
  2
block 2
 10
367.7097207081031
 20
3.349230605734547
 30
0.0
 41
0.1524
 42
0.1524
 43
0.1524
  0
LWPOLYLINE
  5
D69
330
A
100
AcDbEntity
  8
BORDER
100
AcDbPolyline
 90
        4
 70
     1
 43
0.0
 10
0.0
 20
0.0
 10
0.0
 20
1188.0
 10
840.0
 20
1188.0
 10
840.0
 20
0.0
  0
INSERT
  5
1343
330
A
100
AcDbEntity
  8
TEMPLATE
100
AcDbBlockReference
  2
block 2
 10
838.6973883465873
 20
9.774128564918277
 30
0.0
 41
0.1524
 42
0.1524
 43
0.1524
  0
HATCH
  5
3CE3
102
{ACAD_REACTORS
330
3CF4
102
}
330
A
100
AcDbEntity
  8
TEMPLATE
100
AcDbHatch
 10
0.0
 20
0.0
 30
0.0
210
0.0
220
0.0
230
1.0
  2
SOLID
 70
     1
 71
     1
 91
        6
 92
        1
 93
        8
 72
     1
 10
773.8270902791126
 20
61.34344299952348
 11
773.8270902791126
 21
58.97967994725929
 72
     1
 10
773.8270902791126
 20
58.97967994725929
 11
770.0828536589879
 21
58.97967994725929
 72
     1
 10
770.0828536589879
 20
58.97967994725929
 11
770.0828536589879
 21
49.34344300010187
 72
     1
 10
770.0828536589879
 20
49.34344300010187
 11
766.7898083976775
 21
49.34344300010187
 72
     1
 10
766.7898083976775
 20
49.34344300010187
 11
766.7898083976775
 21
58.97967994725929
 72
     1
 10
766.7898083976775
 20
58.97967994725929
 11
763.1119278238602
 21
58.97967994725929
 72
     1
 10
763.1119278238602
 20
58.97967994725929
 11
763.1119278238602
 21
61.34344299952348
 72
     1
 10
763.1119278238602
 20
61.34344299952348
 11
773.8270902791126
 21
61.34344299952348
 97
        1
330
3CE4
 92
        1
 93
        1
 72
     4
 94
        3
 73
     0
 74
     1
 95
       56
 96
       52
 40
0.0
 40
0.0
 40
0.0
 40
0.0
 40
1.0
 40
1.0
 40
1.0
 40
2.0
 40
2.0
 40
2.0
 40
3.0
 40
3.0
 40
3.0
 40
4.0
 40
4.0
 40
4.0
 40
5.0
 40
5.0
 40
5.0
 40
6.0
 40
6.0
 40
6.0
 40
7.0
 40
7.0
 40
7.0
 40
8.0
 40
8.0
 40
8.0
 40
9.0
 40
9.0
 40
9.0
 40
10.0
 40
10.0
 40
10.0
 40
11.0
 40
11.0
 40
11.0
 40
12.0
 40
12.0
 40
12.0
 40
13.0
 40
13.0
 40
13.0
 40
14.0
 40
14.0
 40
14.0
 40
15.0
 40
15.0
 40
15.0
 40
16.0
 40
16.0
 40
16.0
 40
17.0
 40
17.0
 40
17.0
 40
17.0
 10
778.8439644528296
 20
61.05769541535855
 10
779.3055109255968
 20
61.18761043696263
 10
779.9013465629307
 20
61.07894125260667
 10
779.9013465629307
 20
61.07894125260667
 10
779.9013465629307
 20
61.07894125260667
 10
779.6150931254979
 20
60.21991313563727
 10
779.6150931254979
 20
60.21991313563727
 10
779.6150931254979
 20
60.21991313563727
 10
779.0301482114592
 20
60.35527351888899
 10
778.5789866087196
 20
59.9995098912439
 10
778.2284005380509
 20
59.72129059394702
 10
778.0012724208032
 20
58.98203067715087
 10
777.9141466344411
 20
58.70095479669457
 10
777.9141466344411
 20
58.70095479669457
 10
777.5257108369103
 20
57.50868840053504
 10
777.5257108369103
 20
57.50868840053504
 10
777.5257108369103
 20
57.50868840053504
 10
778.7993600970385
 20
57.50868840053504
 10
778.7993600970385
 20
57.50868840053504
 10
778.7993600970385
 20
57.50868840053504
 10
778.6012739085779
 20
56.75829971184702
 10
778.6012739085779
 20
56.75829971184702
 10
778.6012739085779
 20
56.75829971184702
 10
777.3172397784224
 20
56.75829971184702
 10
777.3172397784224
 20
56.75829971184702
 10
777.3172397784224
 20
56.75829971184702
 10
775.0198625285398
 20
49.34344300010187
 10
775.0198625285398
 20
49.34344300010187
 10
775.0198625285398
 20
49.34344300010187
 10
774.3005689377851
 20
49.34344300010187
 10
774.3005689377851
 20
49.34344300010187
 10
774.3005689377851
 20
49.34344300010187
 10
776.6000291128878
 20
56.75829971184702
 10
776.6000291128878
 20
56.75829971184702
 10
776.6000291128878
 20
56.75829971184702
 10
775.6525361862005
 20
56.75829971184702
 10
775.6525361862005
 20
56.75829971184702
 10
775.6525361862005
 20
56.75829971184702
 10
775.8511579840033
 20
57.50868840053504
 10
775.8511579840033
 20
57.50868840053504
 10
775.8511579840033
 20
57.50868840053504
 10
776.8085001713757
 20
57.50868840053504
 10
776.8085001713757
 20
57.50868840053504
 10
776.8085001713757
 20
57.50868840053504
 10
777.1471243000644
 20
58.54848467056097
 10
777.1471243000644
 20
58.54848467056097
 10
777.4209396983238
 20
59.4202483874494
 10
777.6532751286227
 20
59.88828168447431
 10
777.852432535768
 20
60.24115897288539
 10
778.0494772616182
 20
60.59433382204227
 10
778.439460375027
 20
60.94125989553794
 10
778.8439644528296
 20
61.05769541535855
 97
        1
330
3CEF
 92
        1
 93
        1
 72
     4
 94
        3
 73
     0
 74
     1
 95
       32
 96
       28
 40
0.0
 40
0.0
 40
0.0
 40
0.0
 40
1.0
 40
1.0
 40
1.0
 40
2.0
 40
2.0
 40
2.0
 40
3.0
 40
3.0
 40
3.0
 40
4.0
 40
4.0
 40
4.0
 40
5.0
 40
5.0
 40
5.0
 40
6.0
 40
6.0
 40
6.0
 40
7.0
 40
7.0
 40
7.0
 40
8.0
 40
8.0
 40
8.0
 40
9.0
 40
9.0
 40
9.0
 40
9.0
 10
780.5941870033864
 20
57.0552058239784
 10
780.161176606139
 20
56.49510723221162
 10
779.8277300344266
 20
55.99103932887373
 10
779.2878953294471
 20
54.40673665015949
 10
778.7915937615737
 20
52.95755630610032
 10
778.4757627860113
 20
51.90323907168072
 10
778.4280637984641
 20
50.61920494152507
 10
778.3917613874798
 20
49.66367787470179
 10
778.9736116697625
 20
49.34344300010187
 10
779.8267183278911
 20
49.34344300010187
 10
780.1943843853671
 20
49.34344300010187
 10
781.1221787906843
 20
49.36683127471956
 10
781.7828826705968
 20
50.18357600971474
 10
782.2454110938247
 20
50.75739215186162
 10
782.671696618218
 20
51.35221608265999
 10
783.2431917865476
 20
53.30344091698579
 10
783.7187533704407
 20
54.93466892530829
 10
784.048034091712
 20
55.98895640365332
 10
784.0236936227079
 20
56.58922569609933
 10
784.0236936227079
 20
56.58922569609933
 10
784.0236936227079
 20
56.58922569609933
 10
784.0236936227079
 20
56.58922569609933
 10
783.8686049620114
 20
57.59063662992067
 10
783.141545035792
 20
57.80223207623919
 10
782.7261502346942
 20
57.80223207623919
 10
782.3170042092574
 20
57.80223207623919
 10
781.2206713975349
 20
57.87302177765837
 10
780.5941870033864
 20
57.0552058239784
 97
        1
330
3CF2
 92
        1
 93
        1
 72
     4
 94
        3
 73
     0
 74
     1
 95
       38
 96
       34
 40
0.0
 40
0.0
 40
0.0
 40
0.0
 40
1.0
 40
1.0
 40
1.0
 40
2.0
 40
2.0
 40
2.0
 40
3.0
 40
3.0
 40
3.0
 40
4.0
 40
4.0
 40
4.0
 40
5.0
 40
5.0
 40
5.0
 40
6.0
 40
6.0
 40
6.0
 40
7.0
 40
7.0
 40
7.0
 40
8.0
 40
8.0
 40
8.0
 40
9.0
 40
9.0
 40
9.0
 40
10.0
 40
10.0
 40
10.0
 40
11.0
 40
11.0
 40
11.0
 40
11.0
 10
786.6534759816923
 20
57.47991427641887
 10
786.6534759816923
 20
57.47991427641887
 10
787.392973947085
 20
57.47991427641887
 10
787.392973947085
 20
57.47991427641887
 10
787.392973947085
 20
57.47991427641887
 10
787.062622007129
 20
56.42223460557204
 10
787.062622007129
 20
56.42223460557204
 10
787.3136442522623
 20
56.71914071770341
 10
787.7098166291833
 20
57.11456919275992
 10
788.0500475858989
 20
57.31396464850179
 10
788.5582813396777
 20
57.61087076063316
 10
788.8487006275511
 20
57.65002975477677
 10
789.168102332063
 20
57.64223366323755
 10
789.168102332063
 20
57.64223366323755
 10
788.855961109748
 20
56.64213199669759
 10
788.855961109748
 20
56.64213199669759
 10
788.6526676082365
 20
56.72821632044946
 10
788.026183214088
 20
56.56434961775278
 10
787.6667893453446
 20
56.305828841826
 10
787.3426861810497
 20
56.07271975358816
 10
787.1186229394832
 20
55.8743657604565
 10
786.8531392421053
 20
55.37571346269166
 10
786.5896789577987
 20
54.87631726306238
 10
786.3817435086532
 20
54.08001495130175
 10
786.0238969557877
 20
52.92482462406541
 10
786.0238969557877
 20
52.92482462406541
 10
784.906318306817
 20
49.34344300010187
 10
784.906318306817
 20
49.34344300010187
 10
784.906318306817
 20
49.34344300010187
 10
784.1886017880147
 20
49.34344300010187
 10
784.1886017880147
 20
49.34344300010187
 10
784.1886017880147
 20
49.34344300010187
 10
786.6534759816923
 20
57.47991427641887
 10
786.6534759816923
 20
57.47991427641887
 97
        1
330
3CF0
 92
        1
 93
        1
 72
     4
 94
        3
 73
     0
 74
     1
 95
      104
 96
      100
 40
0.0
 40
0.0
 40
0.0
 40
0.0
 40
1.0
 40
1.0
 40
1.0
 40
2.0
 40
2.0
 40
2.0
 40
3.0
 40
3.0
 40
3.0
 40
4.0
 40
4.0
 40
4.0
 40
5.0
 40
5.0
 40
5.0
 40
6.0
 40
6.0
 40
6.0
 40
7.0
 40
7.0
 40
7.0
 40
8.0
 40
8.0
 40
8.0
 40
9.0
 40
9.0
 40
9.0
 40
10.0
 40
10.0
 40
10.0
 40
11.0
 40
11.0
 40
11.0
 40
12.0
 40
12.0
 40
12.0
 40
13.0
 40
13.0
 40
13.0
 40
14.0
 40
14.0
 40
14.0
 40
15.0
 40
15.0
 40
15.0
 40
16.0
 40
16.0
 40
16.0
 40
17.0
 40
17.0
 40
17.0
 40
18.0
 40
18.0
 40
18.0
 40
19.0
 40
19.0
 40
19.0
 40
20.0
 40
20.0
 40
20.0
 40
21.0
 40
21.0
 40
21.0
 40
22.0
 40
22.0
 40
22.0
 40
23.0
 40
23.0
 40
23.0
 40
24.0
 40
24.0
 40
24.0
 40
25.0
 40
25.0
 40
25.0
 40
26.0
 40
26.0
 40
26.0
 40
27.0
 40
27.0
 40
27.0
 40
28.0
 40
28.0
 40
28.0
 40
29.0
 40
29.0
 40
29.0
 40
30.0
 40
30.0
 40
30.0
 40
31.0
 40
31.0
 40
31.0
 40
32.0
 40
32.0
 40
32.0
 40
33.0
 40
33.0
 40
33.0
 40
33.0
 10
790.7239284474067
 20
57.48431817545629
 10
790.7239284474067
 20
57.48431817545629
 10
791.3695757535829
 20
57.48431817545629
 10
791.3695757535829
 20
57.48431817545629
 10
791.3695757535829
 20
57.48431817545629
 10
791.0433896640677
 20
56.42562679807384
 10
791.0433896640677
 20
56.42562679807384
 10
791.3264889575953
 20
56.86952791861661
 10
791.5806058344847
 20
57.06737605848048
 10
791.9182182566376
 20
57.32304025124783
 10
792.2568423853263
 20
57.57507420291678
 10
792.6587874407151
 20
57.62643318763705
 10
792.937780395951
 20
57.62643318763705
 10
793.2831889096433
 20
57.62643318763705
 10
793.6166354813554
 20
57.55823226470609
 10
793.7918987606151
 20
57.17964572786029
 10
793.9262176812567
 20
56.88276937180346
 10
793.9324664569178
 20
56.8477464720261
 10
793.8940811207133
 20
56.26173033930257
 10
794.2451432885753
 20
56.86253524109098
 10
794.504437722441
 20
57.12132382168895
 10
794.9452442112276
 20
57.36996558085609
 10
795.407832146605
 20
57.62643318763705
 10
795.6774816944237
 20
57.64562585573935
 10
795.9907536475725
 20
57.59944442799551
 10
796.4522703642649
 20
57.53127326113913
 10
796.7468555025794
 20
57.36660314442886
 10
796.9008729445909
 20
56.86616548218939
 10
797.0554259959449
 20
56.36727513582792
 10
796.9719304506814
 20
56.09967875715512
 10
796.7810749883431
 20
55.30545937061487
 10
796.693949201981
 20
54.94374452805434
 10
796.5679024700721
 20
54.50576486635242
 10
796.4029943047651
 20
53.98461697620721
 10
796.4029943047651
 20
53.98461697620721
 10
794.9452442112276
 20
49.34344300010187
 10
794.9452442112276
 20
49.34344300010187
 10
794.9452442112276
 20
49.34344300010187
 10
794.1870594310005
 20
49.34344300010187
 10
794.1870594310005
 20
49.34344300010187
 10
794.1870594310005
 20
49.34344300010187
 10
795.4633569817661
 20
53.40092181730071
 10
795.4633569817661
 20
53.40092181730071
 10
795.7299118978287
 20
54.24986262498844
 10
795.9103527340649
 20
54.86983043880454
 10
796.0037272960881
 20
55.25853404100661
 10
796.1209067177731
 20
55.7434092762422
 10
796.1675642427103
 20
55.90340768924385
 10
796.1120989196984
 20
56.25631473372954
 10
796.0612755443206
 20
56.58482179706189
 10
795.8952961603288
 20
56.79873821719745
 10
795.6111256481165
 20
56.79873821719745
 10
795.3082683210696
 20
56.79873821719745
 10
795.0629592422551
 20
56.76502458470146
 10
794.7196931659325
 20
56.4201814364262
 10
794.3763675774608
 20
56.07271975358816
 10
794.0926731624415
 20
55.66485323935839
 10
793.8702167489023
 20
55.19577847972329
 10
793.6482364325564
 20
54.72384713692878
 10
793.4231614844543
 20
54.12566076970317
 10
793.1949919045965
 20
53.40092181730071
 10
793.1949919045965
 20
53.40092181730071
 10
791.9182182566376
 20
49.34344300010187
 10
791.9182182566376
 20
49.34344300010187
 10
791.9182182566376
 20
49.34344300010187
 10
791.2051436854695
 20
49.34344300010187
 10
791.2051436854695
 20
49.34344300010187
 10
791.2051436854695
 20
49.34344300010187
 10
792.6649767042272
 20
53.98253405098681
 10
792.6649767042272
 20
53.98253405098681
 10
792.8189941462388
 20
54.47624684037184
 10
792.9346857641949
 20
54.87866799295399
 10
793.0109208272618
 20
55.19318970123506
 10
793.1405382881201
 20
55.73460147816736
 10
793.1768406991043
 20
56.10072021976531
 10
793.078824189447
 20
56.42562679807384
 10
792.9823549956677
 20
56.74949191377216
 10
792.8128048827268
 20
56.8322138010968
 10
792.5296460770501
 20
56.8322138010968
 10
792.2921330897748
 20
56.8322138010968
 10
792.0603332688183
 20
56.73029924566987
 10
791.7958612779762
 20
56.5275115974262
 10
791.4628908034572
 20
56.27238301400122
 10
791.3296431015003
 20
56.0628704929031
 10
791.1662822520716
 20
55.81393117299019
 10
790.9458492516037
 20
55.48462069564424
 10
790.8426551849698
 20
55.26293794004404
 10
790.6565011824148
 20
54.77648563285584
 10
790.4702876677106
 20
54.28717674250827
 10
790.2940126819153
 20
53.71776449939881
 10
790.1710605817623
 20
53.32391309629489
 10
790.1710605817623
 20
53.32391309629489
 10
788.9186869149569
 20
49.34344300010187
 10
788.9186869149569
 20
49.34344300010187
 10
788.9186869149569
 20
49.34344300010187
 10
788.1719284673673
 20
49.34344300010187
 10
788.1719284673673
 20
49.34344300010187
 10
788.1719284673673
 20
49.34344300010187
 10
790.7239284474067
 20
57.48431817545629
 10
790.7239284474067
 20
57.48431817545629
 97
        1
330
3CF1
 92
       16
 93
        1
 72
     4
 94
        3
 73
     0
 74
     1
 95
       29
 96
       25
 40
0.0
 40
0.0
 40
0.0
 40
0.0
 40
1.0
 40
1.0
 40
1.0
 40
2.0
 40
2.0
 40
2.0
 40
3.0
 40
3.0
 40
3.0
 40
4.0
 40
4.0
 40
4.0
 40
5.0
 40
5.0
 40
5.0
 40
6.0
 40
6.0
 40
6.0
 40
7.0
 40
7.0
 40
7.0
 40
8.0
 40
8.0
 40
8.0
 40
8.0
 10
779.2028524683053
 20
50.85927695121397
 10
779.1996983244003
 20
51.42613017190976
 10
779.3786513569075
 20
52.43325427204994
 10
779.837073441844
 20
53.78078786535333
 10
780.461474910772
 20
55.60546011450228
 10
780.8359253532517
 20
56.27238301400122
 10
781.1635992464958
 20
56.59702178763855
 10
781.6423149742939
 20
57.06972678837207
 10
782.2858793552498
 20
57.09329359943722
 10
782.4757231110525
 20
57.06972678837207
 10
782.7459082682135
 20
57.03729266708291
 10
783.1275596807407
 20
56.86045231587057
 10
783.1503528338669
 20
56.26512253180438
 10
783.168563551508
 20
55.75560926681887
 10
783.0217470795442
 20
54.80139146727697
 10
782.5078596715957
 20
53.30344091698579
 10
781.915594763211
 20
51.5627700663683
 10
781.5598311355659
 20
50.87849937539085
 10
781.274648916818
 20
50.58028399597808
 10
780.7373732342519
 20
50.02122686682151
 10
780.161176606139
 20
50.07490682535878
 10
780.0761337449972
 20
50.07490682535878
 10
779.9656791961665
 20
50.07490682535878
 10
779.2043997841834
 20
50.19476429375578
 10
779.2028524683053
 20
50.85927695121397
 97
        1
330
3CF3
 75
     0
 76
     1
 98
        1
 10
743.7703305683026
 20
29.00832017048585
1001
ACAD
1010
0.0
1020
0.0
1030
0.0
  0
POLYLINE
  5
3CE4
102
{ACAD_REACTORS
330
3CE3
330
3CF4
102
}
330
A
100
AcDbEntity
  8
TEMPLATE
100
AcDb2dPolyline
 66
     1
 10
0.0
 20
0.0
 30
0.0
  0
VERTEX
  5
3CE5
330
3CE4
100
AcDbEntity
  8
TEMPLATE
100
AcDbVertex
100
AcDb2dVertex
 10
773.8270902791126
 20
61.34344299952348
 30
0.0
  0
VERTEX
  5
3CE6
330
3CE4
100
AcDbEntity
  8
TEMPLATE
100
AcDbVertex
100
AcDb2dVertex
 10
773.8270902791126
 20
58.97967994725929
 30
0.0
  0
VERTEX
  5
3CE7
330
3CE4
100
AcDbEntity
  8
TEMPLATE
100
AcDbVertex
100
AcDb2dVertex
 10
770.0828536589879
 20
58.97967994725929
 30
0.0
  0
VERTEX
  5
3CE8
330
3CE4
100
AcDbEntity
  8
TEMPLATE
100
AcDbVertex
100
AcDb2dVertex
 10
770.0828536589879
 20
49.34344300010187
 30
0.0
  0
VERTEX
  5
3CE9
330
3CE4
100
AcDbEntity
  8
TEMPLATE
100
AcDbVertex
100
AcDb2dVertex
 10
766.7898083976775
 20
49.34344300010187
 30
0.0
  0
VERTEX
  5
3CEA
330
3CE4
100
AcDbEntity
  8
TEMPLATE
100
AcDbVertex
100
AcDb2dVertex
 10
766.7898083976775
 20
58.97967994725929
 30
0.0
  0
VERTEX
  5
3CEB
330
3CE4
100
AcDbEntity
  8
TEMPLATE
100
AcDbVertex
100
AcDb2dVertex
 10
763.1119278238602
 20
58.97967994725929
 30
0.0
  0
VERTEX
  5
3CEC
330
3CE4
100
AcDbEntity
  8
TEMPLATE
100
AcDbVertex
100
AcDb2dVertex
 10
763.1119278238602
 20
61.34344299952348
 30
0.0
  0
VERTEX
  5
3CED
330
3CE4
100
AcDbEntity
  8
TEMPLATE
100
AcDbVertex
100
AcDb2dVertex
 10
773.8270902791126
 20
61.34344299952348
 30
0.0
  0
SEQEND
  5
3CEE
330
3CE4
100
AcDbEntity
  8
TEMPLATE
  0
SPLINE
  5
3CEF
102
{ACAD_REACTORS
330
3CE3
330
3CF4
102
}
330
A
100
AcDbEntity
  8
TEMPLATE
100
AcDbSpline
210
0.0
220
0.0
230
1.0
 70
    11
 71
     3
 72
    56
 73
    52
 74
     0
 42
0.000000001
 43
0.0000000001
 40
0.0
 40
0.0
 40
0.0
 40
0.0
 40
1.0
 40
1.0
 40
1.0
 40
2.0
 40
2.0
 40
2.0
 40
3.0
 40
3.0
 40
3.0
 40
4.0
 40
4.0
 40
4.0
 40
5.0
 40
5.0
 40
5.0
 40
6.0
 40
6.0
 40
6.0
 40
7.0
 40
7.0
 40
7.0
 40
8.0
 40
8.0
 40
8.0
 40
9.0
 40
9.0
 40
9.0
 40
10.0
 40
10.0
 40
10.0
 40
11.0
 40
11.0
 40
11.0
 40
12.0
 40
12.0
 40
12.0
 40
13.0
 40
13.0
 40
13.0
 40
14.0
 40
14.0
 40
14.0
 40
15.0
 40
15.0
 40
15.0
 40
16.0
 40
16.0
 40
16.0
 40
17.0
 40
17.0
 40
17.0
 40
17.0
 10
778.8439644528296
 20
61.05769541535855
 30
0.0
 10
779.3055109255968
 20
61.18761043696263
 30
0.0
 10
779.9013465629307
 20
61.07894125260667
 30
0.0
 10
779.9013465629307
 20
61.07894125260667
 30
0.0
 10
779.9013465629307
 20
61.07894125260667
 30
0.0
 10
779.6150931254979
 20
60.21991313563727
 30
0.0
 10
779.6150931254979
 20
60.21991313563727
 30
0.0
 10
779.6150931254979
 20
60.21991313563727
 30
0.0
 10
779.0301482114592
 20
60.35527351888899
 30
0.0
 10
778.5789866087196
 20
59.9995098912439
 30
0.0
 10
778.2284005380509
 20
59.72129059394702
 30
0.0
 10
778.0012724208032
 20
58.98203067715087
 30
0.0
 10
777.9141466344411
 20
58.70095479669457
 30
0.0
 10
777.9141466344411
 20
58.70095479669457
 30
0.0
 10
777.5257108369103
 20
57.50868840053504
 30
0.0
 10
777.5257108369103
 20
57.50868840053504
 30
0.0
 10
777.5257108369103
 20
57.50868840053504
 30
0.0
 10
778.7993600970385
 20
57.50868840053504
 30
0.0
 10
778.7993600970385
 20
57.50868840053504
 30
0.0
 10
778.7993600970385
 20
57.50868840053504
 30
0.0
 10
778.6012739085779
 20
56.75829971184702
 30
0.0
 10
778.6012739085779
 20
56.75829971184702
 30
0.0
 10
778.6012739085779
 20
56.75829971184702
 30
0.0
 10
777.3172397784224
 20
56.75829971184702
 30
0.0
 10
777.3172397784224
 20
56.75829971184702
 30
0.0
 10
777.3172397784224
 20
56.75829971184702
 30
0.0
 10
775.0198625285398
 20
49.34344300010187
 30
0.0
 10
775.0198625285398
 20
49.34344300010187
 30
0.0
 10
775.0198625285398
 20
49.34344300010187
 30
0.0
 10
774.3005689377851
 20
49.34344300010187
 30
0.0
 10
774.3005689377851
 20
49.34344300010187
 30
0.0
 10
774.3005689377851
 20
49.34344300010187
 30
0.0
 10
776.6000291128878
 20
56.75829971184702
 30
0.0
 10
776.6000291128878
 20
56.75829971184702
 30
0.0
 10
776.6000291128878
 20
56.75829971184702
 30
0.0
 10
775.6525361862005
 20
56.75829971184702
 30
0.0
 10
775.6525361862005
 20
56.75829971184702
 30
0.0
 10
775.6525361862005
 20
56.75829971184702
 30
0.0
 10
775.8511579840033
 20
57.50868840053504
 30
0.0
 10
775.8511579840033
 20
57.50868840053504
 30
0.0
 10
775.8511579840033
 20
57.50868840053504
 30
0.0
 10
776.8085001713757
 20
57.50868840053504
 30
0.0
 10
776.8085001713757
 20
57.50868840053504
 30
0.0
 10
776.8085001713757
 20
57.50868840053504
 30
0.0
 10
777.1471243000644
 20
58.54848467056097
 30
0.0
 10
777.1471243000644
 20
58.54848467056097
 30
0.0
 10
777.4209396983238
 20
59.4202483874494
 30
0.0
 10
777.6532751286227
 20
59.88828168447431
 30
0.0
 10
777.852432535768
 20
60.24115897288539
 30
0.0
 10
778.0494772616182
 20
60.59433382204227
 30
0.0
 10
778.439460375027
 20
60.94125989553794
 30
0.0
 10
778.8439644528296
 20
61.05769541535855
 30
0.0
  0
SPLINE
  5
3CF0
102
{ACAD_REACTORS
330
3CE3
330
3CF4
102
}
330
A
100
AcDbEntity
  8
TEMPLATE
100
AcDbSpline
210
0.0
220
0.0
230
1.0
 70
    11
 71
     3
 72
    38
 73
    34
 74
     0
 42
0.000000001
 43
0.0000000001
 40
0.0
 40
0.0
 40
0.0
 40
0.0
 40
1.0
 40
1.0
 40
1.0
 40
2.0
 40
2.0
 40
2.0
 40
3.0
 40
3.0
 40
3.0
 40
4.0
 40
4.0
 40
4.0
 40
5.0
 40
5.0
 40
5.0
 40
6.0
 40
6.0
 40
6.0
 40
7.0
 40
7.0
 40
7.0
 40
8.0
 40
8.0
 40
8.0
 40
9.0
 40
9.0
 40
9.0
 40
10.0
 40
10.0
 40
10.0
 40
11.0
 40
11.0
 40
11.0
 40
11.0
 10
786.6534759816923
 20
57.47991427641887
 30
0.0
 10
786.6534759816923
 20
57.47991427641887
 30
0.0
 10
787.392973947085
 20
57.47991427641887
 30
0.0
 10
787.392973947085
 20
57.47991427641887
 30
0.0
 10
787.392973947085
 20
57.47991427641887
 30
0.0
 10
787.062622007129
 20
56.42223460557204
 30
0.0
 10
787.062622007129
 20
56.42223460557204
 30
0.0
 10
787.3136442522623
 20
56.71914071770341
 30
0.0
 10
787.7098166291833
 20
57.11456919275992
 30
0.0
 10
788.0500475858989
 20
57.31396464850179
 30
0.0
 10
788.5582813396777
 20
57.61087076063316
 30
0.0
 10
788.8487006275511
 20
57.65002975477677
 30
0.0
 10
789.168102332063
 20
57.64223366323755
 30
0.0
 10
789.168102332063
 20
57.64223366323755
 30
0.0
 10
788.855961109748
 20
56.64213199669759
 30
0.0
 10
788.855961109748
 20
56.64213199669759
 30
0.0
 10
788.6526676082365
 20
56.72821632044946
 30
0.0
 10
788.026183214088
 20
56.56434961775278
 30
0.0
 10
787.6667893453446
 20
56.305828841826
 30
0.0
 10
787.3426861810497
 20
56.07271975358816
 30
0.0
 10
787.1186229394832
 20
55.8743657604565
 30
0.0
 10
786.8531392421053
 20
55.37571346269166
 30
0.0
 10
786.5896789577987
 20
54.87631726306238
 30
0.0
 10
786.3817435086532
 20
54.08001495130175
 30
0.0
 10
786.0238969557877
 20
52.92482462406541
 30
0.0
 10
786.0238969557877
 20
52.92482462406541
 30
0.0
 10
784.906318306817
 20
49.34344300010187
 30
0.0
 10
784.906318306817
 20
49.34344300010187
 30
0.0
 10
784.906318306817
 20
49.34344300010187
 30
0.0
 10
784.1886017880147
 20
49.34344300010187
 30
0.0
 10
784.1886017880147
 20
49.34344300010187
 30
0.0
 10
784.1886017880147
 20
49.34344300010187
 30
0.0
 10
786.6534759816923
 20
57.47991427641887
 30
0.0
 10
786.6534759816923
 20
57.47991427641887
 30
0.0
  0
SPLINE
  5
3CF1
102
{ACAD_REACTORS
330
3CE3
330
3CF4
102
}
330
A
100
AcDbEntity
  8
TEMPLATE
100
AcDbSpline
210
0.0
220
0.0
230
1.0
 70
    11
 71
     3
 72
   104
 73
   100
 74
     0
 42
0.000000001
 43
0.0000000001
 40
0.0
 40
0.0
 40
0.0
 40
0.0
 40
1.0
 40
1.0
 40
1.0
 40
2.0
 40
2.0
 40
2.0
 40
3.0
 40
3.0
 40
3.0
 40
4.0
 40
4.0
 40
4.0
 40
5.0
 40
5.0
 40
5.0
 40
6.0
 40
6.0
 40
6.0
 40
7.0
 40
7.0
 40
7.0
 40
8.0
 40
8.0
 40
8.0
 40
9.0
 40
9.0
 40
9.0
 40
10.0
 40
10.0
 40
10.0
 40
11.0
 40
11.0
 40
11.0
 40
12.0
 40
12.0
 40
12.0
 40
13.0
 40
13.0
 40
13.0
 40
14.0
 40
14.0
 40
14.0
 40
15.0
 40
15.0
 40
15.0
 40
16.0
 40
16.0
 40
16.0
 40
17.0
 40
17.0
 40
17.0
 40
18.0
 40
18.0
 40
18.0
 40
19.0
 40
19.0
 40
19.0
 40
20.0
 40
20.0
 40
20.0
 40
21.0
 40
21.0
 40
21.0
 40
22.0
 40
22.0
 40
22.0
 40
23.0
 40
23.0
 40
23.0
 40
24.0
 40
24.0
 40
24.0
 40
25.0
 40
25.0
 40
25.0
 40
26.0
 40
26.0
 40
26.0
 40
27.0
 40
27.0
 40
27.0
 40
28.0
 40
28.0
 40
28.0
 40
29.0
 40
29.0
 40
29.0
 40
30.0
 40
30.0
 40
30.0
 40
31.0
 40
31.0
 40
31.0
 40
32.0
 40
32.0
 40
32.0
 40
33.0
 40
33.0
 40
33.0
 40
33.0
 10
790.7239284474067
 20
57.48431817545629
 30
0.0
 10
790.7239284474067
 20
57.48431817545629
 30
0.0
 10
791.3695757535829
 20
57.48431817545629
 30
0.0
 10
791.3695757535829
 20
57.48431817545629
 30
0.0
 10
791.3695757535829
 20
57.48431817545629
 30
0.0
 10
791.0433896640677
 20
56.42562679807384
 30
0.0
 10
791.0433896640677
 20
56.42562679807384
 30
0.0
 10
791.3264889575953
 20
56.86952791861661
 30
0.0
 10
791.5806058344847
 20
57.06737605848048
 30
0.0
 10
791.9182182566376
 20
57.32304025124783
 30
0.0
 10
792.2568423853263
 20
57.57507420291678
 30
0.0
 10
792.6587874407151
 20
57.62643318763705
 30
0.0
 10
792.937780395951
 20
57.62643318763705
 30
0.0
 10
793.2831889096433
 20
57.62643318763705
 30
0.0
 10
793.6166354813554
 20
57.55823226470609
 30
0.0
 10
793.7918987606151
 20
57.17964572786029
 30
0.0
 10
793.9262176812567
 20
56.88276937180346
 30
0.0
 10
793.9324664569178
 20
56.8477464720261
 30
0.0
 10
793.8940811207133
 20
56.26173033930257
 30
0.0
 10
794.2451432885753
 20
56.86253524109098
 30
0.0
 10
794.504437722441
 20
57.12132382168895
 30
0.0
 10
794.9452442112276
 20
57.36996558085609
 30
0.0
 10
795.407832146605
 20
57.62643318763705
 30
0.0
 10
795.6774816944237
 20
57.64562585573935
 30
0.0
 10
795.9907536475725
 20
57.59944442799551
 30
0.0
 10
796.4522703642649
 20
57.53127326113913
 30
0.0
 10
796.7468555025794
 20
57.36660314442886
 30
0.0
 10
796.9008729445909
 20
56.86616548218939
 30
0.0
 10
797.0554259959449
 20
56.36727513582792
 30
0.0
 10
796.9719304506814
 20
56.09967875715512
 30
0.0
 10
796.7810749883431
 20
55.30545937061487
 30
0.0
 10
796.693949201981
 20
54.94374452805434
 30
0.0
 10
796.5679024700721
 20
54.50576486635242
 30
0.0
 10
796.4029943047651
 20
53.98461697620721
 30
0.0
 10
796.4029943047651
 20
53.98461697620721
 30
0.0
 10
794.9452442112276
 20
49.34344300010187
 30
0.0
 10
794.9452442112276
 20
49.34344300010187
 30
0.0
 10
794.9452442112276
 20
49.34344300010187
 30
0.0
 10
794.1870594310005
 20
49.34344300010187
 30
0.0
 10
794.1870594310005
 20
49.34344300010187
 30
0.0
 10
794.1870594310005
 20
49.34344300010187
 30
0.0
 10
795.4633569817661
 20
53.40092181730071
 30
0.0
 10
795.4633569817661
 20
53.40092181730071
 30
0.0
 10
795.7299118978287
 20
54.24986262498844
 30
0.0
 10
795.9103527340649
 20
54.86983043880454
 30
0.0
 10
796.0037272960881
 20
55.25853404100661
 30
0.0
 10
796.1209067177731
 20
55.7434092762422
 30
0.0
 10
796.1675642427103
 20
55.90340768924385
 30
0.0
 10
796.1120989196984
 20
56.25631473372954
 30
0.0
 10
796.0612755443206
 20
56.58482179706189
 30
0.0
 10
795.8952961603288
 20
56.79873821719745
 30
0.0
 10
795.6111256481165
 20
56.79873821719745
 30
0.0
 10
795.3082683210696
 20
56.79873821719745
 30
0.0
 10
795.0629592422551
 20
56.76502458470146
 30
0.0
 10
794.7196931659325
 20
56.4201814364262
 30
0.0
 10
794.3763675774608
 20
56.07271975358816
 30
0.0
 10
794.0926731624415
 20
55.66485323935839
 30
0.0
 10
793.8702167489023
 20
55.19577847972329
 30
0.0
 10
793.6482364325564
 20
54.72384713692878
 30
0.0
 10
793.4231614844543
 20
54.12566076970317
 30
0.0
 10
793.1949919045965
 20
53.40092181730071
 30
0.0
 10
793.1949919045965
 20
53.40092181730071
 30
0.0
 10
791.9182182566376
 20
49.34344300010187
 30
0.0
 10
791.9182182566376
 20
49.34344300010187
 30
0.0
 10
791.9182182566376
 20
49.34344300010187
 30
0.0
 10
791.2051436854695
 20
49.34344300010187
 30
0.0
 10
791.2051436854695
 20
49.34344300010187
 30
0.0
 10
791.2051436854695
 20
49.34344300010187
 30
0.0
 10
792.6649767042272
 20
53.98253405098681
 30
0.0
 10
792.6649767042272
 20
53.98253405098681
 30
0.0
 10
792.8189941462388
 20
54.47624684037184
 30
0.0
 10
792.9346857641949
 20
54.87866799295399
 30
0.0
 10
793.0109208272618
 20
55.19318970123506
 30
0.0
 10
793.1405382881201
 20
55.73460147816736
 30
0.0
 10
793.1768406991043
 20
56.10072021976531
 30
0.0
 10
793.078824189447
 20
56.42562679807384
 30
0.0
 10
792.9823549956677
 20
56.74949191377216
 30
0.0
 10
792.8128048827268
 20
56.8322138010968
 30
0.0
 10
792.5296460770501
 20
56.8322138010968
 30
0.0
 10
792.2921330897748
 20
56.8322138010968
 30
0.0
 10
792.0603332688183
 20
56.73029924566987
 30
0.0
 10
791.7958612779762
 20
56.5275115974262
 30
0.0
 10
791.4628908034572
 20
56.27238301400122
 30
0.0
 10
791.3296431015003
 20
56.0628704929031
 30
0.0
 10
791.1662822520716
 20
55.81393117299019
 30
0.0
 10
790.9458492516037
 20
55.48462069564424
 30
0.0
 10
790.8426551849698
 20
55.26293794004404
 30
0.0
 10
790.6565011824148
 20
54.77648563285584
 30
0.0
 10
790.4702876677106
 20
54.28717674250827
 30
0.0
 10
790.2940126819153
 20
53.71776449939881
 30
0.0
 10
790.1710605817623
 20
53.32391309629489
 30
0.0
 10
790.1710605817623
 20
53.32391309629489
 30
0.0
 10
788.9186869149569
 20
49.34344300010187
 30
0.0
 10
788.9186869149569
 20
49.34344300010187
 30
0.0
 10
788.9186869149569
 20
49.34344300010187
 30
0.0
 10
788.1719284673673
 20
49.34344300010187
 30
0.0
 10
788.1719284673673
 20
49.34344300010187
 30
0.0
 10
788.1719284673673
 20
49.34344300010187
 30
0.0
 10
790.7239284474067
 20
57.48431817545629
 30
0.0
 10
790.7239284474067
 20
57.48431817545629
 30
0.0
  0
SPLINE
  5
3CF2
102
{ACAD_REACTORS
330
3CE3
330
3CF4
102
}
330
A
100
AcDbEntity
  8
TEMPLATE
100
AcDbSpline
210
0.0
220
0.0
230
1.0
 70
    11
 71
     3
 72
    32
 73
    28
 74
     0
 42
0.000000001
 43
0.0000000001
 40
0.0
 40
0.0
 40
0.0
 40
0.0
 40
1.0
 40
1.0
 40
1.0
 40
2.0
 40
2.0
 40
2.0
 40
3.0
 40
3.0
 40
3.0
 40
4.0
 40
4.0
 40
4.0
 40
5.0
 40
5.0
 40
5.0
 40
6.0
 40
6.0
 40
6.0
 40
7.0
 40
7.0
 40
7.0
 40
8.0
 40
8.0
 40
8.0
 40
9.0
 40
9.0
 40
9.0
 40
9.0
 10
780.5941870033864
 20
57.0552058239784
 30
0.0
 10
780.161176606139
 20
56.49510723221162
 30
0.0
 10
779.8277300344266
 20
55.99103932887373
 30
0.0
 10
779.2878953294471
 20
54.40673665015949
 30
0.0
 10
778.7915937615737
 20
52.95755630610032
 30
0.0
 10
778.4757627860113
 20
51.90323907168072
 30
0.0
 10
778.4280637984641
 20
50.61920494152507
 30
0.0
 10
778.3917613874798
 20
49.66367787470179
 30
0.0
 10
778.9736116697625
 20
49.34344300010187
 30
0.0
 10
779.8267183278911
 20
49.34344300010187
 30
0.0
 10
780.1943843853671
 20
49.34344300010187
 30
0.0
 10
781.1221787906843
 20
49.36683127471956
 30
0.0
 10
781.7828826705968
 20
50.18357600971474
 30
0.0
 10
782.2454110938247
 20
50.75739215186162
 30
0.0
 10
782.671696618218
 20
51.35221608265999
 30
0.0
 10
783.2431917865476
 20
53.30344091698579
 30
0.0
 10
783.7187533704407
 20
54.93466892530829
 30
0.0
 10
784.048034091712
 20
55.98895640365332
 30
0.0
 10
784.0236936227079
 20
56.58922569609933
 30
0.0
 10
784.0236936227079
 20
56.58922569609933
 30
0.0
 10
784.0236936227079
 20
56.58922569609933
 30
0.0
 10
784.0236936227079
 20
56.58922569609933
 30
0.0
 10
783.8686049620114
 20
57.59063662992067
 30
0.0
 10
783.141545035792
 20
57.80223207623919
 30
0.0
 10
782.7261502346942
 20
57.80223207623919
 30
0.0
 10
782.3170042092574
 20
57.80223207623919
 30
0.0
 10
781.2206713975349
 20
57.87302177765837
 30
0.0
 10
780.5941870033864
 20
57.0552058239784
 30
0.0
  0
SPLINE
  5
3CF3
102
{ACAD_REACTORS
330
3CE3
330
3CF4
102
}
330
A
100
AcDbEntity
  8
TEMPLATE
100
AcDbSpline
210
0.0
220
0.0
230
1.0
 70
    11
 71
     3
 72
    29
 73
    25
 74
     0
 42
0.000000001
 43
0.0000000001
 40
0.0
 40
0.0
 40
0.0
 40
0.0
 40
1.0
 40
1.0
 40
1.0
 40
2.0
 40
2.0
 40
2.0
 40
3.0
 40
3.0
 40
3.0
 40
4.0
 40
4.0
 40
4.0
 40
5.0
 40
5.0
 40
5.0
 40
6.0
 40
6.0
 40
6.0
 40
7.0
 40
7.0
 40
7.0
 40
8.0
 40
8.0
 40
8.0
 40
8.0
 10
779.2028524683053
 20
50.85927695121397
 30
0.0
 10
779.1996983244003
 20
51.42613017190976
 30
0.0
 10
779.3786513569075
 20
52.43325427204994
 30
0.0
 10
779.837073441844
 20
53.78078786535333
 30
0.0
 10
780.461474910772
 20
55.60546011450228
 30
0.0
 10
780.8359253532517
 20
56.27238301400122
 30
0.0
 10
781.1635992464958
 20
56.59702178763855
 30
0.0
 10
781.6423149742939
 20
57.06972678837207
 30
0.0
 10
782.2858793552498
 20
57.09329359943722
 30
0.0
 10
782.4757231110525
 20
57.06972678837207
 30
0.0
 10
782.7459082682135
 20
57.03729266708291
 30
0.0
 10
783.1275596807407
 20
56.86045231587057
 30
0.0
 10
783.1503528338669
 20
56.26512253180438
 30
0.0
 10
783.168563551508
 20
55.75560926681887
 30
0.0
 10
783.0217470795442
 20
54.80139146727697
 30
0.0
 10
782.5078596715957
 20
53.30344091698579
 30
0.0
 10
781.915594763211
 20
51.5627700663683
 30
0.0
 10
781.5598311355659
 20
50.87849937539085
 30
0.0
 10
781.274648916818
 20
50.58028399597808
 30
0.0
 10
780.7373732342519
 20
50.02122686682151
 30
0.0
 10
780.161176606139
 20
50.07490682535878
 30
0.0
 10
780.0761337449972
 20
50.07490682535878
 30
0.0
 10
779.9656791961665
 20
50.07490682535878
 30
0.0
 10
779.2043997841834
 20
50.19476429375578
 30
0.0
 10
779.2028524683053
 20
50.85927695121397
 30
0.0
  0
MTEXT
  5
3D12
330
A
100
AcDbEntity
  8
TEMPLATE
390
1D
100
AcDbMText
 10
52.8808578190923
 20
76.37003932194831
 30
0.0
 40
9.773046875
 41
0.0
 46
9.919642578125
 71
     1
 72
     1
  1
{クローム}
  7
ＭＳ ゴシック
 73
     1
 44
0.7828267384257843
1001
ACAD
1000
ACAD_MTEXT_DEFINED_HEIGHT_BEGIN
1070
    46
1040
9.919642578125
1000
ACAD_MTEXT_DEFINED_HEIGHT_END
  0
MTEXT
  5
3DB7
102
{ACAD_XDICTIONARY
360
3DB8
102
}
330
A
100
AcDbEntity
  8
TEMPLATE
100
AcDbMText
 10
29.38137849384168
 20
35.9671265159328
 30
0.0
 40
8.0
 41
0.0
 46
8.0
 71
     1
 72
     1
  1
{20181212N}
  7
ＭＳ ゴシック
 73
     1
 44
1.0
1001
ACAD
1000
ACAD_MTEXT_DEFINED_HEIGHT_BEGIN
1070
    46
1040
8.0
1000
ACAD_MTEXT_DEFINED_HEIGHT_END
  0
LINE
  5
4839
330
A
100
AcDbEntity
  8
MODEL
100
AcDbLine
 10
159.8271179704561
 20
358.671727119895
 30
0.0
 11
155.5061179704019
 21
356.8817271198577
 31
0.0
  0
LINE
  5
483A
330
A
100
AcDbEntity
  8
MODEL
100
AcDbLine
 10
163.5381179703502
 20
361.5187271199329
 30
0.0
 11
159.8271179704561
 21
358.671727119895
 31
0.0
  0
LINE
  5
483B
330
A
100
AcDbEntity
  8
MODEL
100
AcDbLine
 10
166.385117970388
 20
365.2297271199723
 30
0.0
 11
163.5381179703502
 21
361.5187271199329
 31
0.0
  0
LINE
  5
483C
330
A
100
AcDbEntity
  8
MODEL
100
AcDbLine
 10
168.1751179704254
 20
369.5507271198812
 30
0.0
 11
166.385117970388
 21
365.2297271199723
 31
0.0
  0
LINE
  5
483D
330
A
100
AcDbEntity
  8
MODEL
100
AcDbLine
 10
168.786117970415
 20
374.1877271198109
 30
0.0
 11
168.1751179704254
 21
369.5507271198812
 31
0.0
  0
LINE
  5
483E
330
A
100
AcDbEntity
  8
MODEL
100
AcDbLine
 10
168.1751179704254
 20
378.8247271198861
 30
0.0
 11
168.786117970415
 21
374.1877271198109
 31
0.0
  0
LINE
  5
483F
330
A
100
AcDbEntity
  8
MODEL
100
AcDbLine
 10
166.385117970388
 20
383.1457271199405
 30
0.0
 11
168.1751179704254
 21
378.8247271198861
 31
0.0
  0
LINE
  5
4840
330
A
100
AcDbEntity
  8
MODEL
100
AcDbLine
 10
163.5381179703502
 20
386.8567271198344
 30
0.0
 11
166.385117970388
 21
383.1457271199405
 31
0.0
  0
LINE
  5
4841
330
A
100
AcDbEntity
  8
MODEL
100
AcDbLine
 10
160.717117970383
 20
389.0207271197368
 30
0.0
 11
163.5381179703502
 21
386.8567271198344
 31
0.0
  0
LINE
  5
4842
330
A
100
AcDbEntity
  8
MODEL
100
AcDbLine
 10
138.2001179703759
 20
386.8567271198344
 30
0.0
 11
141.0211179704157
 21
389.0207271197368
 31
0.0
  0
LINE
  5
4843
330
A
100
AcDbEntity
  8
MODEL
100
AcDbLine
 10
135.3531179704107
 20
383.1457271199405
 30
0.0
 11
138.2001179703759
 21
386.8567271198344
 31
0.0
  0
LINE
  5
4844
330
A
100
AcDbEntity
  8
MODEL
100
AcDbLine
 10
133.5631179703735
 20
378.8247271198861
 30
0.0
 11
135.3531179704107
 21
383.1457271199405
 31
0.0
  0
LINE
  5
4845
330
A
100
AcDbEntity
  8
MODEL
100
AcDbLine
 10
132.9521179703834
 20
374.1877271198109
 30
0.0
 11
133.5631179703735
 21
378.8247271198861
 31
0.0
  0
LINE
  5
4846
330
A
100
AcDbEntity
  8
MODEL
100
AcDbLine
 10
133.5631179703735
 20
369.5507271198812
 30
0.0
 11
132.9521179703834
 21
374.1877271198109
 31
0.0
  0
LINE
  5
4847
330
A
100
AcDbEntity
  8
MODEL
100
AcDbLine
 10
135.3531179704107
 20
365.2297271199723
 30
0.0
 11
133.5631179703735
 21
369.5507271198812
 31
0.0
  0
LINE
  5
4848
330
A
100
AcDbEntity
  8
MODEL
100
AcDbLine
 10
138.2001179703759
 20
361.5187271199329
 30
0.0
 11
135.3531179704107
 21
365.2297271199723
 31
0.0
  0
LINE
  5
4849
330
A
100
AcDbEntity
  8
MODEL
100
AcDbLine
 10
141.911117970415
 20
358.671727119895
 30
0.0
 11
138.2001179703759
 21
361.5187271199329
 31
0.0
  0
LINE
  5
484A
330
A
100
AcDbEntity
  8
MODEL
100
AcDbLine
 10
146.232117970397
 20
356.8817271198577
 30
0.0
 11
141.911117970415
 21
358.671727119895
 31
0.0
  0
LINE
  5
484B
330
A
100
AcDbEntity
  8
MODEL
100
AcDbLine
 10
150.8691179703994
 20
356.2707271199405
 30
0.0
 11
146.232117970397
 21
356.8817271198577
 31
0.0
  0
LINE
  5
484C
330
A
100
AcDbEntity
  8
MODEL
100
AcDbLine
 10
156.434117970387
 20
353.4207271199056
 30
0.0
 11
161.6191179703703
 21
355.5677271197283
 31
0.0
  0
LINE
  5
484D
330
A
100
AcDbEntity
  8
MODEL
100
AcDbLine
 10
150.8691179703994
 20
352.6877271197235
 30
0.0
 11
156.434117970387
 21
353.4207271199056
 31
0.0
  0
LINE
  5
484E
330
A
100
AcDbEntity
  8
MODEL
100
AcDbLine
 10
145.3041179704114
 20
353.4207271199056
 30
0.0
 11
150.8691179703994
 21
352.6877271197235
 31
0.0
  0
LINE
  5
484F
330
A
100
AcDbEntity
  8
MODEL
100
AcDbLine
 10
140.1191179704285
 20
355.5677271197283
 30
0.0
 11
145.3041179704114
 21
353.4207271199056
 31
0.0
  0
LINE
  5
4850
330
A
100
AcDbEntity
  8
MODEL
100
AcDbLine
 10
135.6661179703615
 20
358.9847271199187
 30
0.0
 11
140.1191179704285
 21
355.5677271197283
 31
0.0
  0
LINE
  5
4851
330
A
100
AcDbEntity
  8
MODEL
100
AcDbLine
 10
132.2491179703894
 20
363.4377271199855
 30
0.0
 11
135.6661179703615
 21
358.9847271199187
 31
0.0
  0
LINE
  5
4852
330
A
100
AcDbEntity
  8
MODEL
100
AcDbLine
 10
130.1021179704214
 20
368.6227271198958
 30
0.0
 11
132.2491179703894
 21
363.4377271199855
 31
0.0
  0
LINE
  5
4853
330
A
100
AcDbEntity
  8
MODEL
100
AcDbLine
 10
129.3691179703849
 20
374.1877271198109
 30
0.0
 11
130.1021179704214
 21
368.6227271198958
 31
0.0
  0
LINE
  5
4854
330
A
100
AcDbEntity
  8
MODEL
100
AcDbLine
 10
130.1021179704214
 20
379.7527271197259
 30
0.0
 11
129.3691179703849
 21
374.1877271198109
 31
0.0
  0
LINE
  5
4855
330
A
100
AcDbEntity
  8
MODEL
100
AcDbLine
 10
132.2491179703894
 20
384.9377271197818
 30
0.0
 11
130.1021179704214
 21
379.7527271197259
 31
0.0
  0
LINE
  5
4856
330
A
100
AcDbEntity
  8
MODEL
100
AcDbLine
 10
135.6661179703615
 20
389.3907271197031
 30
0.0
 11
132.2491179703894
 21
384.9377271197818
 31
0.0
  0
LINE
  5
4857
330
A
100
AcDbEntity
  8
MODEL
100
AcDbLine
 10
140.1191179704285
 20
392.8077271198936
 30
0.0
 11
135.6661179703615
 21
389.3907271197031
 31
0.0
  0
LINE
  5
4858
330
A
100
AcDbEntity
  8
MODEL
100
AcDbLine
 10
141.0211179704157
 20
393.1807271200022
 30
0.0
 11
140.1191179704285
 21
392.8077271198936
 31
0.0
  0
LINE
  5
4859
330
A
100
AcDbEntity
  8
MODEL
100
AcDbLine
 10
161.6191179703703
 20
392.8077271198936
 30
0.0
 11
160.717117970383
 21
393.1807271200022
 31
0.0
  0
LINE
  5
485A
330
A
100
AcDbEntity
  8
MODEL
100
AcDbLine
 10
166.0721179703644
 20
389.3907271197031
 30
0.0
 11
161.6191179703703
 21
392.8077271198936
 31
0.0
  0
LINE
  5
485B
330
A
100
AcDbEntity
  8
MODEL
100
AcDbLine
 10
169.4891179703363
 20
384.9377271197818
 30
0.0
 11
166.0721179703644
 21
389.3907271197031
 31
0.0
  0
LINE
  5
485C
330
A
100
AcDbEntity
  8
MODEL
100
AcDbLine
 10
171.6361179703774
 20
379.7527271197259
 30
0.0
 11
169.4891179703363
 21
384.9377271197818
 31
0.0
  0
LINE
  5
485D
330
A
100
AcDbEntity
  8
MODEL
100
AcDbLine
 10
172.3691179703412
 20
374.1877271198109
 30
0.0
 11
171.6361179703774
 21
379.7527271197259
 31
0.0
  0
LINE
  5
485E
330
A
100
AcDbEntity
  8
MODEL
100
AcDbLine
 10
171.6361179703774
 20
368.6227271198958
 30
0.0
 11
172.3691179703412
 21
374.1877271198109
 31
0.0
  0
LINE
  5
485F
330
A
100
AcDbEntity
  8
MODEL
100
AcDbLine
 10
169.4891179703363
 20
363.4377271199855
 30
0.0
 11
171.6361179703774
 21
368.6227271198958
 31
0.0
  0
LINE
  5
4860
330
A
100
AcDbEntity
  8
MODEL
100
AcDbLine
 10
163.3691179703267
 20
352.5367271198274
 30
0.0
 11
157.3391179703715
 21
350.0397271198244
 31
0.0
  0
LINE
  5
4861
330
A
100
AcDbEntity
  8
MODEL
100
AcDbLine
 10
168.5471179703409
 20
356.5097271199419
 30
0.0
 11
163.3691179703267
 21
352.5367271198274
 31
0.0
  0
LINE
  5
4862
330
A
100
AcDbEntity
  8
MODEL
100
AcDbLine
 10
172.5201179704554
 20
361.6877271198109
 30
0.0
 11
168.5471179703409
 21
356.5097271199419
 31
0.0
  0
LINE
  5
4863
330
A
100
AcDbEntity
  8
MODEL
100
AcDbLine
 10
175.0171179703859
 20
367.7177271198389
 30
0.0
 11
172.5201179704554
 21
361.6877271198109
 31
0.0
  0
LINE
  5
4864
330
A
100
AcDbEntity
  8
MODEL
100
AcDbLine
 10
175.8691179703994
 20
374.1877271198109
 30
0.0
 11
175.0171179703859
 21
367.7177271198389
 31
0.0
  0
LINE
  5
4865
330
A
100
AcDbEntity
  8
MODEL
100
AcDbLine
 10
175.0171179703859
 20
380.6577271199284
 30
0.0
 11
175.8691179703994
 21
374.1877271198109
 31
0.0
  0
LINE
  5
4866
330
A
100
AcDbEntity
  8
MODEL
100
AcDbLine
 10
172.5201179704554
 20
386.6877271198109
 30
0.0
 11
175.0171179703859
 21
380.6577271199284
 31
0.0
  0
LINE
  5
4867
330
A
100
AcDbEntity
  8
MODEL
100
AcDbLine
 10
168.5471179703409
 20
391.8657271198254
 30
0.0
 11
172.5201179704554
 21
386.6877271198109
 31
0.0
  0
LINE
  5
4868
330
A
100
AcDbEntity
  8
MODEL
100
AcDbLine
 10
163.3691179703267
 20
395.8387271197943
 30
0.0
 11
168.5471179703409
 21
391.8657271198254
 31
0.0
  0
LINE
  5
4869
330
A
100
AcDbEntity
  8
MODEL
100
AcDbLine
 10
160.717117970383
 20
396.9367271198507
 30
0.0
 11
163.3691179703267
 21
395.8387271197943
 31
0.0
  0
LINE
  5
486A
330
A
100
AcDbEntity
  8
MODEL
100
AcDbLine
 10
138.3691179703994
 20
395.8387271197943
 30
0.0
 11
141.0211179704157
 21
396.9367271198507
 31
0.0
  0
LINE
  5
486B
330
A
100
AcDbEntity
  8
MODEL
100
AcDbLine
 10
133.1911179703848
 20
391.8657271198254
 30
0.0
 11
138.3691179703994
 21
395.8387271197943
 31
0.0
  0
LINE
  5
486C
330
A
100
AcDbEntity
  8
MODEL
100
AcDbLine
 10
129.2181179704157
 20
386.6877271198109
 30
0.0
 11
133.1911179703848
 21
391.8657271198254
 31
0.0
  0
LINE
  5
486D
330
A
100
AcDbEntity
  8
MODEL
100
AcDbLine
 10
126.7211179703402
 20
380.6577271199284
 30
0.0
 11
129.2181179704157
 21
386.6877271198109
 31
0.0
  0
LINE
  5
486E
330
A
100
AcDbEntity
  8
MODEL
100
AcDbLine
 10
125.8691179704722
 20
374.1877271198109
 30
0.0
 11
126.7211179703402
 21
380.6577271199284
 31
0.0
  0
LINE
  5
486F
330
A
100
AcDbEntity
  8
MODEL
100
AcDbLine
 10
126.7211179703402
 20
367.7177271198389
 30
0.0
 11
125.8691179704722
 21
374.1877271198109
 31
0.0
  0
LINE
  5
4870
330
A
100
AcDbEntity
  8
MODEL
100
AcDbLine
 10
129.2181179704157
 20
361.6877271198109
 30
0.0
 11
126.7211179703402
 21
367.7177271198389
 31
0.0
  0
LINE
  5
4871
330
A
100
AcDbEntity
  8
MODEL
100
AcDbLine
 10
133.1911179703848
 20
356.5097271199419
 30
0.0
 11
129.2181179704157
 21
361.6877271198109
 31
0.0
  0
LINE
  5
4872
330
A
100
AcDbEntity
  8
MODEL
100
AcDbLine
 10
138.3691179703994
 20
352.5367271198274
 30
0.0
 11
133.1911179703848
 21
356.5097271199419
 31
0.0
  0
LINE
  5
4873
330
A
100
AcDbEntity
  8
MODEL
100
AcDbLine
 10
144.3991179703544
 20
350.0397271198244
 30
0.0
 11
138.3691179703994
 21
352.5367271198274
 31
0.0
  0
LINE
  5
4874
330
A
100
AcDbEntity
  8
MODEL
100
AcDbLine
 10
150.8691179703994
 20
349.1877271199564
 30
0.0
 11
144.3991179703544
 21
350.0397271198244
 31
0.0
  0
LINE
  5
4875
330
A
100
AcDbEntity
  8
MODEL
100
AcDbLine
 10
158.6341179703986
 20
345.2097271197499
 30
0.0
 11
165.8691179703994
 21
348.206727119782
 31
0.0
  0
LINE
  5
4876
330
A
100
AcDbEntity
  8
MODEL
100
AcDbLine
 10
150.8691179703994
 20
344.1877271198109
 30
0.0
 11
158.6341179703986
 21
345.2097271197499
 31
0.0
  0
LINE
  5
4877
330
A
100
AcDbEntity
  8
MODEL
100
AcDbLine
 10
143.1041179703998
 20
345.2097271197499
 30
0.0
 11
150.8691179703994
 21
344.1877271198109
 31
0.0
  0
LINE
  5
4878
330
A
100
AcDbEntity
  8
MODEL
100
AcDbLine
 10
135.8691179704722
 20
348.206727119782
 30
0.0
 11
143.1041179703998
 21
345.2097271197499
 31
0.0
  0
LINE
  5
4879
330
A
100
AcDbEntity
  8
MODEL
100
AcDbLine
 10
129.6561179704104
 20
352.974727119822
 30
0.0
 11
135.8691179704722
 21
348.206727119782
 31
0.0
  0
LINE
  5
487A
330
A
100
AcDbEntity
  8
MODEL
100
AcDbLine
 10
124.8881179704433
 20
359.1877271199564
 30
0.0
 11
129.6561179704104
 21
352.974727119822
 31
0.0
  0
LINE
  5
487B
330
A
100
AcDbEntity
  8
MODEL
100
AcDbLine
 10
121.8911179704112
 20
366.4227271197387
 30
0.0
 11
124.8881179704433
 21
359.1877271199564
 31
0.0
  0
LINE
  5
487C
330
A
100
AcDbEntity
  8
MODEL
100
AcDbLine
 10
120.8691179704722
 20
374.1877271198109
 30
0.0
 11
121.8911179704112
 21
366.4227271197387
 31
0.0
  0
LINE
  5
487D
330
A
100
AcDbEntity
  8
MODEL
100
AcDbLine
 10
121.8911179704112
 20
381.952727119883
 30
0.0
 11
120.8691179704722
 21
374.1877271198109
 31
0.0
  0
LINE
  5
487E
330
A
100
AcDbEntity
  8
MODEL
100
AcDbLine
 10
124.8881179704433
 20
389.1877271199564
 30
0.0
 11
121.8911179704112
 21
381.952727119883
 31
0.0
  0
LINE
  5
487F
330
A
100
AcDbEntity
  8
MODEL
100
AcDbLine
 10
129.6561179704104
 20
395.4007271197997
 30
0.0
 11
124.8881179704433
 21
389.1877271199564
 31
0.0
  0
LINE
  5
4880
330
A
100
AcDbEntity
  8
MODEL
100
AcDbLine
 10
135.8691179704722
 20
400.1687271198397
 30
0.0
 11
129.6561179704104
 21
395.4007271197997
 31
0.0
  0
LINE
  5
4881
330
A
100
AcDbEntity
  8
MODEL
100
AcDbLine
 10
141.0211179704157
 20
402.302727119918
 30
0.0
 11
135.8691179704722
 21
400.1687271198397
 31
0.0
  0
LINE
  5
4882
330
A
100
AcDbEntity
  8
MODEL
100
AcDbLine
 10
165.8691179703994
 20
400.1687271198397
 30
0.0
 11
160.717117970383
 21
402.302727119918
 31
0.0
  0
LINE
  5
4883
330
A
100
AcDbEntity
  8
MODEL
100
AcDbLine
 10
172.082117970388
 20
395.4007271197997
 30
0.0
 11
165.8691179703994
 21
400.1687271198397
 31
0.0
  0
LINE
  5
4884
330
A
100
AcDbEntity
  8
MODEL
100
AcDbLine
 10
176.8501179704281
 20
389.1877271199564
 30
0.0
 11
172.082117970388
 21
395.4007271197997
 31
0.0
  0
LINE
  5
4885
330
A
100
AcDbEntity
  8
MODEL
100
AcDbLine
 10
179.8471179703877
 20
381.952727119883
 30
0.0
 11
176.8501179704281
 21
389.1877271199564
 31
0.0
  0
LINE
  5
4886
330
A
100
AcDbEntity
  8
MODEL
100
AcDbLine
 10
180.8691179703994
 20
374.1877271198109
 30
0.0
 11
179.8471179703877
 21
381.952727119883
 31
0.0
  0
LINE
  5
4887
330
A
100
AcDbEntity
  8
MODEL
100
AcDbLine
 10
179.8471179703877
 20
366.4227271197387
 30
0.0
 11
180.8691179703994
 21
374.1877271198109
 31
0.0
  0
LINE
  5
4888
330
A
100
AcDbEntity
  8
MODEL
100
AcDbLine
 10
176.8501179704281
 20
359.1877271199564
 30
0.0
 11
179.8471179703877
 21
366.4227271197387
 31
0.0
  0
LINE
  5
4889
330
A
100
AcDbEntity
  8
MODEL
100
AcDbLine
 10
165.8691179703994
 20
348.206727119782
 30
0.0
 11
172.082117970388
 21
352.974727119822
 31
0.0
  0
LINE
  5
488A
330
A
100
AcDbEntity
  8
MODEL
100
AcDbLine
 10
172.082117970388
 20
352.974727119822
 30
0.0
 11
176.8501179704281
 21
359.1877271199564
 31
0.0
  0
LINE
  5
488B
330
A
100
AcDbEntity
  8
MODEL
100
AcDbLine
 10
157.3391179703715
 20
350.0397271198244
 30
0.0
 11
150.8691179703994
 21
349.1877271199564
 31
0.0
  0
LINE
  5
488C
330
A
100
AcDbEntity
  8
MODEL
100
AcDbLine
 10
150.8691179703994
 20
349.1877271199564
 30
0.0
 11
157.3391179703715
 21
350.0397271198244
 31
0.0
  0
LINE
  5
488D
330
A
100
AcDbEntity
  8
MODEL
100
AcDbLine
 10
144.3991179703544
 20
350.0397271198244
 30
0.0
 11
150.8691179703994
 21
349.1877271199564
 31
0.0
  0
LINE
  5
488E
330
A
100
AcDbEntity
  8
MODEL
100
AcDbLine
 10
138.3691179703994
 20
352.5367271198274
 30
0.0
 11
144.3991179703544
 21
350.0397271198244
 31
0.0
  0
LINE
  5
488F
330
A
100
AcDbEntity
  8
MODEL
100
AcDbLine
 10
133.1911179703848
 20
356.5097271199419
 30
0.0
 11
138.3691179703994
 21
352.5367271198274
 31
0.0
  0
LINE
  5
4890
330
A
100
AcDbEntity
  8
MODEL
100
AcDbLine
 10
129.2181179704157
 20
361.6877271198109
 30
0.0
 11
133.1911179703848
 21
356.5097271199419
 31
0.0
  0
LINE
  5
4891
330
A
100
AcDbEntity
  8
MODEL
100
AcDbLine
 10
126.7211179703402
 20
367.7177271198389
 30
0.0
 11
129.2181179704157
 21
361.6877271198109
 31
0.0
  0
LINE
  5
4892
330
A
100
AcDbEntity
  8
MODEL
100
AcDbLine
 10
125.8691179704722
 20
374.1877271198109
 30
0.0
 11
126.7211179703402
 21
367.7177271198389
 31
0.0
  0
LINE
  5
4893
330
A
100
AcDbEntity
  8
MODEL
100
AcDbLine
 10
126.7211179703402
 20
380.6577271199284
 30
0.0
 11
125.8691179704722
 21
374.1877271198109
 31
0.0
  0
LINE
  5
4894
330
A
100
AcDbEntity
  8
MODEL
100
AcDbLine
 10
129.2181179704157
 20
386.6877271198109
 30
0.0
 11
126.7211179703402
 21
380.6577271199284
 31
0.0
  0
LINE
  5
4895
330
A
100
AcDbEntity
  8
MODEL
100
AcDbLine
 10
133.1911179703848
 20
391.8657271198254
 30
0.0
 11
129.2181179704157
 21
386.6877271198109
 31
0.0
  0
LINE
  5
4896
330
A
100
AcDbEntity
  8
MODEL
100
AcDbLine
 10
138.3691179703994
 20
395.8387271197943
 30
0.0
 11
133.1911179703848
 21
391.8657271198254
 31
0.0
  0
LINE
  5
4897
330
A
100
AcDbEntity
  8
MODEL
100
AcDbLine
 10
141.0211179704157
 20
396.9367271198507
 30
0.0
 11
138.3691179703994
 21
395.8387271197943
 31
0.0
  0
LINE
  5
4898
330
A
100
AcDbEntity
  8
MODEL
100
AcDbLine
 10
163.3691179703267
 20
395.8387271197943
 30
0.0
 11
160.717117970383
 21
396.9367271198507
 31
0.0
  0
LINE
  5
4899
330
A
100
AcDbEntity
  8
MODEL
100
AcDbLine
 10
168.5471179703409
 20
391.8657271198254
 30
0.0
 11
163.3691179703267
 21
395.8387271197943
 31
0.0
  0
LINE
  5
489A
330
A
100
AcDbEntity
  8
MODEL
100
AcDbLine
 10
172.5201179704554
 20
386.6877271198109
 30
0.0
 11
168.5471179703409
 21
391.8657271198254
 31
0.0
  0
LINE
  5
489B
330
A
100
AcDbEntity
  8
MODEL
100
AcDbLine
 10
175.0171179703859
 20
380.6577271199284
 30
0.0
 11
172.5201179704554
 21
386.6877271198109
 31
0.0
  0
LINE
  5
489C
330
A
100
AcDbEntity
  8
MODEL
100
AcDbLine
 10
175.8691179703994
 20
374.1877271198109
 30
0.0
 11
175.0171179703859
 21
380.6577271199284
 31
0.0
  0
LINE
  5
489D
330
A
100
AcDbEntity
  8
MODEL
100
AcDbLine
 10
175.0171179703859
 20
367.7177271198389
 30
0.0
 11
175.8691179703994
 21
374.1877271198109
 31
0.0
  0
LINE
  5
489E
330
A
100
AcDbEntity
  8
MODEL
100
AcDbLine
 10
172.5201179704554
 20
361.6877271198109
 30
0.0
 11
175.0171179703859
 21
367.7177271198389
 31
0.0
  0
LINE
  5
489F
330
A
100
AcDbEntity
  8
MODEL
100
AcDbLine
 10
168.5471179703409
 20
356.5097271199419
 30
0.0
 11
172.5201179704554
 21
361.6877271198109
 31
0.0
  0
LINE
  5
48A0
330
A
100
AcDbEntity
  8
MODEL
100
AcDbLine
 10
163.3691179703267
 20
352.5367271198274
 30
0.0
 11
168.5471179703409
 21
356.5097271199419
 31
0.0
  0
LINE
  5
48A1
330
A
100
AcDbEntity
  8
MODEL
100
AcDbLine
 10
157.3391179703715
 20
350.0397271198244
 30
0.0
 11
163.3691179703267
 21
352.5367271198274
 31
0.0
  0
LINE
  5
48A2
330
A
100
AcDbEntity
  8
MODEL
100
AcDbLine
 10
161.6191179703703
 20
355.5677271197283
 30
0.0
 11
166.0721179703644
 21
358.9847271199187
 31
0.0
  0
LINE
  5
48A3
330
A
100
AcDbEntity
  8
MODEL
100
AcDbLine
 10
166.0721179703644
 20
358.9847271199187
 30
0.0
 11
169.4891179703363
 21
363.4377271199855
 31
0.0
  0
LINE
  5
48A4
330
A
100
AcDbEntity
  8
MODEL
100
AcDbLine
 10
155.5061179704019
 20
356.8817271198577
 30
0.0
 11
150.8691179703994
 21
356.2707271199405
 31
0.0
  0
LINE
  5
48A5
330
A
100
AcDbEntity
  8
MODEL
100
AcDbLine
 10
150.8691179703994
 20
356.2707271199405
 30
0.0
 11
155.5061179704019
 21
356.8817271198577
 31
0.0
  0
LINE
  5
48A6
330
A
100
AcDbEntity
  8
MODEL
100
AcDbLine
 10
146.232117970397
 20
356.8817271198577
 30
0.0
 11
150.8691179703994
 21
356.2707271199405
 31
0.0
  0
LINE
  5
48A7
330
A
100
AcDbEntity
  8
MODEL
100
AcDbLine
 10
141.911117970415
 20
358.671727119895
 30
0.0
 11
146.232117970397
 21
356.8817271198577
 31
0.0
  0
LINE
  5
48A8
330
A
100
AcDbEntity
  8
MODEL
100
AcDbLine
 10
138.2001179703759
 20
361.5187271199329
 30
0.0
 11
141.911117970415
 21
358.671727119895
 31
0.0
  0
LINE
  5
48A9
330
A
100
AcDbEntity
  8
MODEL
100
AcDbLine
 10
135.3531179704107
 20
365.2297271199723
 30
0.0
 11
138.2001179703759
 21
361.5187271199329
 31
0.0
  0
LINE
  5
48AA
330
A
100
AcDbEntity
  8
MODEL
100
AcDbLine
 10
133.5631179703735
 20
369.5507271198812
 30
0.0
 11
135.3531179704107
 21
365.2297271199723
 31
0.0
  0
LINE
  5
48AB
330
A
100
AcDbEntity
  8
MODEL
100
AcDbLine
 10
132.9521179703834
 20
374.1877271198109
 30
0.0
 11
133.5631179703735
 21
369.5507271198812
 31
0.0
  0
LINE
  5
48AC
330
A
100
AcDbEntity
  8
MODEL
100
AcDbLine
 10
133.5631179703735
 20
378.8247271198861
 30
0.0
 11
132.9521179703834
 21
374.1877271198109
 31
0.0
  0
LINE
  5
48AD
330
A
100
AcDbEntity
  8
MODEL
100
AcDbLine
 10
135.3531179704107
 20
383.1457271199405
 30
0.0
 11
133.5631179703735
 21
378.8247271198861
 31
0.0
  0
LINE
  5
48AE
330
A
100
AcDbEntity
  8
MODEL
100
AcDbLine
 10
138.2001179703759
 20
386.8567271198344
 30
0.0
 11
135.3531179704107
 21
383.1457271199405
 31
0.0
  0
LINE
  5
48AF
330
A
100
AcDbEntity
  8
MODEL
100
AcDbLine
 10
141.0211179704157
 20
389.0207271197368
 30
0.0
 11
138.2001179703759
 21
386.8567271198344
 31
0.0
  0
LINE
  5
48B0
330
A
100
AcDbEntity
  8
MODEL
100
AcDbLine
 10
163.5381179703502
 20
386.8567271198344
 30
0.0
 11
160.717117970383
 21
389.0207271197368
 31
0.0
  0
LINE
  5
48B1
330
A
100
AcDbEntity
  8
MODEL
100
AcDbLine
 10
166.385117970388
 20
383.1457271199405
 30
0.0
 11
163.5381179703502
 21
386.8567271198344
 31
0.0
  0
LINE
  5
48B2
330
A
100
AcDbEntity
  8
MODEL
100
AcDbLine
 10
168.1751179704254
 20
378.8247271198861
 30
0.0
 11
166.385117970388
 21
383.1457271199405
 31
0.0
  0
LINE
  5
48B3
330
A
100
AcDbEntity
  8
MODEL
100
AcDbLine
 10
168.786117970415
 20
374.1877271198109
 30
0.0
 11
168.1751179704254
 21
378.8247271198861
 31
0.0
  0
LINE
  5
48B4
330
A
100
AcDbEntity
  8
MODEL
100
AcDbLine
 10
168.1751179704254
 20
369.5507271198812
 30
0.0
 11
168.786117970415
 21
374.1877271198109
 31
0.0
  0
LINE
  5
48B5
330
A
100
AcDbEntity
  8
MODEL
100
AcDbLine
 10
166.385117970388
 20
365.2297271199723
 30
0.0
 11
168.1751179704254
 21
369.5507271198812
 31
0.0
  0
LINE
  5
48B6
330
A
100
AcDbEntity
  8
MODEL
100
AcDbLine
 10
163.5381179703502
 20
361.5187271199329
 30
0.0
 11
166.385117970388
 21
365.2297271199723
 31
0.0
  0
LINE
  5
48B7
330
A
100
AcDbEntity
  8
MODEL
100
AcDbLine
 10
159.8271179704561
 20
358.671727119895
 30
0.0
 11
163.5381179703502
 21
361.5187271199329
 31
0.0
  0
LINE
  5
48B8
330
A
100
AcDbEntity
  8
MODEL
100
AcDbLine
 10
155.5061179704019
 20
356.8817271198577
 30
0.0
 11
159.8271179704561
 21
358.671727119895
 31
0.0
  0
LINE
  5
48B9
330
A
100
AcDbEntity
  8
MODEL
100
AcDbLine
 10
141.0211179704157
 20
385.0907271199184
 30
0.0
 11
141.3291179704204
 21
385.1877271198691
 31
0.0
  0
LINE
  5
48BC
330
A
100
AcDbEntity
  8
MODEL
100
AcDbLine
 10
142.0301179703192
 20
385.1877271198691
 30
0.0
 11
142.2091179703814
 21
385.0707271196961
 31
0.0
  0
LINE
  5
48BF
330
A
100
AcDbEntity
  8
MODEL
100
AcDbLine
 10
140.262117970381
 20
384.794727119829
 30
0.0
 11
137.879117970336
 21
381.6877271198109
 31
0.0
  0
LINE
  5
48C1
330
A
100
AcDbEntity
  8
MODEL
100
AcDbLine
 10
142.2091179703814
 20
385.0707271196961
 30
0.0
 11
142.9881179704199
 21
385.1877271198691
 31
0.0
  0
LINE
  5
48CA
330
A
100
AcDbEntity
  8
MODEL
100
AcDbLine
 10
144.5181179704043
 20
385.1877271198691
 30
0.0
 11
144.0481179703448
 21
385.1877271198691
 31
0.0
  0
LINE
  5
48CD
330
A
100
AcDbEntity
  8
MODEL
100
AcDbLine
 10
146.8231179703828
 20
385.1877271198691
 30
0.0
 11
147.4491179704303
 21
385.149727119956
 31
0.0
  0
LINE
  5
48CF
330
A
100
AcDbEntity
  8
MODEL
100
AcDbLine
 10
147.4491179704303
 20
385.149727119956
 30
0.0
 11
147.5911179704083
 21
385.1877271198691
 31
0.0
  0
LINE
  5
48D5
330
A
100
AcDbEntity
  8
MODEL
100
AcDbLine
 10
150.8691179703994
 20
385.1877271198691
 30
0.0
 11
147.9221179703409
 21
385.1877271198691
 31
0.0
  0
LINE
  5
48D8
330
A
100
AcDbEntity
  8
MODEL
100
AcDbLine
 10
154.1471179704632
 20
385.1877271198691
 30
0.0
 11
154.2891179704412
 21
385.149727119956
 31
0.0
  0
LINE
  5
48DB
330
A
100
AcDbEntity
  8
MODEL
100
AcDbLine
 10
153.8161179703848
 20
385.1877271198691
 30
0.0
 11
150.8691179703994
 21
385.1877271198691
 31
0.0
  0
LINE
  5
48DC
330
A
100
AcDbEntity
  8
MODEL
100
AcDbLine
 10
154.2891179704412
 20
385.149727119956
 30
0.0
 11
154.9151179704161
 21
385.1877271198691
 31
0.0
  0
LINE
  5
48E5
330
A
100
AcDbEntity
  8
MODEL
100
AcDbLine
 10
157.6901179703809
 20
385.1877271198691
 30
0.0
 11
157.2201179703944
 21
385.1877271198691
 31
0.0
  0
LINE
  5
48E8
330
A
100
AcDbEntity
  8
MODEL
100
AcDbLine
 10
158.7501179704516
 20
385.1877271198691
 30
0.0
 11
159.5291179704175
 21
385.0707271196961
 31
0.0
  0
LINE
  5
48EA
330
A
100
AcDbEntity
  8
MODEL
100
AcDbLine
 10
159.5291179704175
 20
385.0707271196961
 30
0.0
 11
159.7081179704065
 21
385.1877271198691
 31
0.0
  0
LINE
  5
48EC
330
A
100
AcDbEntity
  8
MODEL
100
AcDbLine
 10
160.717117970383
 20
385.0907271199184
 30
0.0
 11
160.717117970383
 21
624.1877271198109
 31
0.0
  0
LINE
  5
48ED
330
A
100
AcDbEntity
  8
MODEL
100
AcDbLine
 10
160.4091179704511
 20
385.1877271198691
 30
0.0
 11
160.717117970383
 21
385.0907271199184
 31
0.0
  0
LINE
  5
48F1
330
A
100
AcDbEntity
  8
MODEL
100
AcDbLine
 10
163.8591179703901
 20
381.6877271198109
 30
0.0
 11
161.4761179703448
 21
384.794727119829
 31
0.0
  0
LINE
  5
4946
330
A
100
AcDbEntity
  8
MODEL
100
AcDbLine
 10
136.3801179703689
 20
378.0697271198233
 30
0.0
 11
135.8691179704722
 21
374.1877271198109
 31
0.0
  0
LINE
  5
4947
330
A
100
AcDbEntity
  8
MODEL
100
AcDbLine
 10
165.8691179703994
 20
374.1877271198109
 30
0.0
 11
165.3581179704299
 21
378.0697271198233
 31
0.0
  0
LINE
  5
4948
330
A
100
AcDbEntity
  8
MODEL
100
AcDbLine
 10
136.3801179703689
 20
370.3057271197985
 30
0.0
 11
137.879117970336
 21
366.6877271199564
 31
0.0
  0
LINE
  5
4949
330
A
100
AcDbEntity
  8
MODEL
100
AcDbLine
 10
137.879117970336
 20
366.6877271199564
 30
0.0
 11
140.262117970381
 21
363.5807271199382
 31
0.0
  0
LINE
  5
494A
330
A
100
AcDbEntity
  8
MODEL
100
AcDbLine
 10
140.262117970381
 20
363.5807271199382
 30
0.0
 11
143.3691179703994
 21
361.1977271198202
 31
0.0
  0
LINE
  5
494B
330
A
100
AcDbEntity
  8
MODEL
100
AcDbLine
 10
143.3691179703994
 20
361.1977271198202
 30
0.0
 11
146.9871179704596
 21
359.6987271199259
 31
0.0
  0
LINE
  5
494C
330
A
100
AcDbEntity
  8
MODEL
100
AcDbLine
 10
146.9871179704596
 20
359.6987271199259
 30
0.0
 11
150.8691179703994
 21
359.1877271199564
 31
0.0
  0
LINE
  5
494D
330
A
100
AcDbEntity
  8
MODEL
100
AcDbLine
 10
150.8691179703994
 20
359.1877271199564
 30
0.0
 11
154.7511179704118
 21
359.6987271199259
 31
0.0
  0
LINE
  5
494E
330
A
100
AcDbEntity
  8
MODEL
100
AcDbLine
 10
154.7511179704118
 20
359.6987271199259
 30
0.0
 11
158.3691179703267
 21
361.1977271198202
 31
0.0
  0
LINE
  5
494F
330
A
100
AcDbEntity
  8
MODEL
100
AcDbLine
 10
158.3691179703267
 20
361.1977271198202
 30
0.0
 11
161.4761179703448
 21
363.5807271199382
 31
0.0
  0
LINE
  5
4950
330
A
100
AcDbEntity
  8
MODEL
100
AcDbLine
 10
161.4761179703448
 20
363.5807271199382
 30
0.0
 11
163.8591179703901
 21
366.6877271199564
 31
0.0
  0
LINE
  5
4951
330
A
100
AcDbEntity
  8
MODEL
100
AcDbLine
 10
163.8591179703901
 20
366.6877271199564
 30
0.0
 11
165.3581179704299
 21
370.3057271197985
 31
0.0
  0
LINE
  5
4952
330
A
100
AcDbEntity
  8
MODEL
100
AcDbLine
 10
165.3581179704299
 20
370.3057271197985
 30
0.0
 11
165.8691179703994
 21
374.1877271198109
 31
0.0
  0
LINE
  5
4953
330
A
100
AcDbEntity
  8
MODEL
100
AcDbLine
 10
135.8691179704722
 20
374.1877271198109
 30
0.0
 11
136.3801179703689
 21
370.3057271197985
 31
0.0
  0
LINE
  5
4954
330
A
100
AcDbEntity
  8
MODEL
100
AcDbLine
 10
165.3581179704299
 20
378.0697271198233
 30
0.0
 11
163.8591179703901
 21
381.6877271198109
 31
0.0
  0
LINE
  5
4959
330
A
100
AcDbEntity
  8
MODEL
100
AcDbLine
 10
137.879117970336
 20
381.6877271198109
 30
0.0
 11
136.3801179703689
 21
378.0697271198233
 31
0.0
  0
LINE
  5
495A
330
A
100
AcDbEntity
  8
MODEL
100
AcDbLine
 10
160.9631179704256
 20
385.1877271198691
 30
0.0
 11
160.717117970383
 21
385.1877271198691
 31
0.0
  0
LINE
  5
495B
330
A
100
AcDbEntity
  8
MODEL
100
AcDbLine
 10
161.4761179703448
 20
384.794727119829
 30
0.0
 11
160.9631179704256
 21
385.1877271198691
 31
0.0
  0
LINE
  5
495E
330
A
100
AcDbEntity
  8
MODEL
100
AcDbLine
 10
160.4091179704511
 20
385.1877271198691
 30
0.0
 11
160.1311179703434
 21
385.1877271198691
 31
0.0
  0
LINE
  5
495F
330
A
100
AcDbEntity
  8
MODEL
100
AcDbLine
 10
160.717117970383
 20
385.0907271199184
 30
0.0
 11
160.4091179704511
 21
385.1877271198691
 31
0.0
  0
LINE
  5
4960
330
A
100
AcDbEntity
  8
MODEL
100
AcDbLine
 10
159.7081179704065
 20
385.1877271198691
 30
0.0
 11
159.5291179704175
 21
385.0707271196961
 31
0.0
  0
LINE
  5
4961
330
A
100
AcDbEntity
  8
MODEL
100
AcDbLine
 10
160.1311179703434
 20
385.1877271198691
 30
0.0
 11
159.7081179704065
 21
385.1877271198691
 31
0.0
  0
LINE
  5
4965
330
A
100
AcDbEntity
  8
MODEL
100
AcDbLine
 10
158.7501179704516
 20
385.1877271198691
 30
0.0
 11
157.6901179703809
 21
385.1877271198691
 31
0.0
  0
LINE
  5
4966
330
A
100
AcDbEntity
  8
MODEL
100
AcDbLine
 10
159.5291179704175
 20
385.0707271196961
 30
0.0
 11
158.7501179704516
 21
385.1877271198691
 31
0.0
  0
LINE
  5
4967
330
A
100
AcDbEntity
  8
MODEL
100
AcDbLine
 10
154.9151179704161
 20
385.1877271198691
 30
0.0
 11
154.2891179704412
 21
385.149727119956
 31
0.0
  0
LINE
  5
4968
330
A
100
AcDbEntity
  8
MODEL
100
AcDbLine
 10
157.2201179703944
 20
385.1877271198691
 30
0.0
 11
154.9151179704161
 21
385.1877271198691
 31
0.0
  0
LINE
  5
496C
330
A
100
AcDbEntity
  8
MODEL
100
AcDbLine
 10
154.1471179704632
 20
385.1877271198691
 30
0.0
 11
153.8161179703848
 21
385.1877271198691
 31
0.0
  0
LINE
  5
496D
330
A
100
AcDbEntity
  8
MODEL
100
AcDbLine
 10
154.2891179704412
 20
385.149727119956
 30
0.0
 11
154.1471179704632
 21
385.1877271198691
 31
0.0
  0
LINE
  5
496E
330
A
100
AcDbEntity
  8
MODEL
100
AcDbLine
 10
147.5911179704083
 20
385.1877271198691
 30
0.0
 11
147.4491179704303
 21
385.149727119956
 31
0.0
  0
LINE
  5
496F
330
A
100
AcDbEntity
  8
MODEL
100
AcDbLine
 10
147.9221179703409
 20
385.1877271198691
 30
0.0
 11
147.5911179704083
 21
385.1877271198691
 31
0.0
  0
LINE
  5
4973
330
A
100
AcDbEntity
  8
MODEL
100
AcDbLine
 10
146.8231179703828
 20
385.1877271198691
 30
0.0
 11
144.5181179704043
 21
385.1877271198691
 31
0.0
  0
LINE
  5
4974
330
A
100
AcDbEntity
  8
MODEL
100
AcDbLine
 10
147.4491179704303
 20
385.149727119956
 30
0.0
 11
146.8231179703828
 21
385.1877271198691
 31
0.0
  0
LINE
  5
4975
330
A
100
AcDbEntity
  8
MODEL
100
AcDbLine
 10
142.9881179704199
 20
385.1877271198691
 30
0.0
 11
142.2091179703814
 21
385.0707271196961
 31
0.0
  0
LINE
  5
4976
330
A
100
AcDbEntity
  8
MODEL
100
AcDbLine
 10
144.0481179703448
 20
385.1877271198691
 30
0.0
 11
142.9881179704199
 21
385.1877271198691
 31
0.0
  0
LINE
  5
497A
330
A
100
AcDbEntity
  8
MODEL
100
AcDbLine
 10
142.0301179703192
 20
385.1877271198691
 30
0.0
 11
141.6071179703824
 21
385.1877271198691
 31
0.0
  0
LINE
  5
497B
330
A
100
AcDbEntity
  8
MODEL
100
AcDbLine
 10
142.2091179703814
 20
385.0707271196961
 30
0.0
 11
142.0301179703192
 21
385.1877271198691
 31
0.0
  0
LINE
  5
497C
330
A
100
AcDbEntity
  8
MODEL
100
AcDbLine
 10
141.3291179704204
 20
385.1877271198691
 30
0.0
 11
141.0211179704157
 21
385.0907271199184
 31
0.0
  0
LINE
  5
497D
330
A
100
AcDbEntity
  8
MODEL
100
AcDbLine
 10
141.6071179703824
 20
385.1877271198691
 30
0.0
 11
141.3291179704204
 21
385.1877271198691
 31
0.0
  0
LINE
  5
4980
330
A
100
AcDbEntity
  8
MODEL
100
AcDbLine
 10
140.7751179704455
 20
385.1877271198691
 30
0.0
 11
140.262117970381
 21
384.794727119829
 31
0.0
  0
LINE
  5
4981
330
A
100
AcDbEntity
  8
MODEL
100
AcDbLine
 10
141.0211179704157
 20
385.1877271198691
 30
0.0
 11
140.7751179704455
 21
385.1877271198691
 31
0.0
  0
LINE
  5
4982
330
A
100
AcDbEntity
  8
MODEL
100
AcDbLine
 10
141.0211179704157
 20
385.0907271199184
 30
0.0
 11
141.0211179704157
 21
385.1877271198691
 31
0.0
  0
LINE
  5
53ED
330
A
100
AcDbEntity
  8
MODEL
100
AcDbLine
 10
141.0211179704157
 20
624.187727119811
 30
0.0
 11
141.0211179704157
 21
385.0907271199184
 31
0.0
  0
DIMENSION
  5
5644
330
A
100
AcDbEntity
  8
DIM
100
AcDbDimension
  2
*D8
 10
326.7871488894343
 20
904.187727119812
 30
0.0
 11
326.7871488894343
 21
624.1877271198108
 31
0.0
 70
   160
 71
     5
 42
560.0000000000025
 73
     0
 74
     0
 75
     0
  3
tfrom線あり
100
AcDbAlignedDimension
 13
439.0067096231768
 23
344.1877271198096
 33
0.0
 14
439.0067096231766
 24
904.187727119812
 34
0.0
 50
90.0
100
AcDbRotatedDimension
1001
ACAD
1000
DSTYLE
1002
{
1070
   144
1040
1.0
1002
}
  0
DIMENSION
  5
5674
330
A
100
AcDbEntity
  8
DIM
100
AcDbDimension
  2
*D11
 10
531.7431199128353
 20
942.4132003604984
 30
0.0
 11
497.3013746290503
 21
942.4132003604984
 31
0.0
 70
   160
  1
70
 71
     5
 42
68.88349056757028
 73
     0
 74
     0
 75
     0
 52
-270.0
  3
tfrom線あり
100
AcDbAlignedDimension
 13
462.859629345265
 23
918.6399195376043
 33
0.0
 14
531.7431199128353
 24
891.8200889594452
 34
0.0
 50
180.0
100
AcDbRotatedDimension
1001
ACAD
1000
DSTYLE
1002
{
1070
   144
1040
1.0
1002
}
  0
LINE
  5
5E27
330
A
100
AcDbEntity
  8
MODEL
100
AcDbLine
 10
410.0860482249882
 20
863.1877271198982
 30
0.0
 11
410.4470482250364
 21
863.2257271198114
 31
0.0
  0
LINE
  5
5E28
330
A
100
AcDbEntity
  8
MODEL
100
AcDbLine
 10
408.9260482249703
 20
863.1877271198982
 30
0.0
 11
410.0860482249882
 21
863.1877271198982
 31
0.0
  0
LINE
  5
5E29
330
A
100
AcDbEntity
  8
MODEL
100
AcDbLine
 10
410.4720482249142
 20
863.1877271198982
 30
0.0
 11
410.6380482250135
 21
863.1877271198982
 31
0.0
  0
LINE
  5
5E2A
330
A
100
AcDbEntity
  8
MODEL
100
AcDbLine
 10
410.4470482250364
 20
863.2257271198114
 30
0.0
 11
410.4720482249142
 21
863.1877271198982
 31
0.0
  0
LINE
  5
5E2B
330
A
100
AcDbEntity
  8
MODEL
100
AcDbLine
 10
406.9790482250428
 20
863.1877271198982
 30
0.0
 11
406.0500482249375
 21
863.3047271199257
 31
0.0
  0
LINE
  5
5E2C
330
A
100
AcDbEntity
  8
MODEL
100
AcDbLine
 10
412.1500482250158
 20
884.1877271198109
 30
0.0
 11
412.1500482250158
 21
883.8467271199124
 31
0.0
  0
LINE
  5
5E2D
330
A
100
AcDbEntity
  8
MODEL
100
AcDbLine
 10
419.1500482249868
 20
881.1877271199273
 30
0.0
 11
412.1500482250158
 21
884.1877271198109
 31
0.0
  0
LINE
  5
5E2E
330
A
100
AcDbEntity
  8
MODEL
100
AcDbLine
 10
412.1500482250158
 20
864.1877271198109
 30
0.0
 11
419.1500482249868
 21
867.1877271196945
 31
0.0
  0
LINE
  5
5E2F
330
A
100
AcDbEntity
  8
MODEL
100
AcDbLine
 10
412.1500482250158
 20
864.5287271197094
 30
0.0
 11
412.1500482250158
 21
864.1877271198109
 31
0.0
  0
LINE
  5
5E30
330
A
100
AcDbEntity
  8
MODEL
100
AcDbLine
 10
419.1500482249868
 20
867.1877271196945
 30
0.0
 11
419.1500482249868
 21
881.1877271199273
 31
0.0
  0
LINE
  5
5E31
330
A
100
AcDbEntity
  8
MODEL
100
AcDbLine
 10
412.1500482250158
 20
865.5277271198656
 30
0.0
 11
412.1500482250158
 21
864.5287271197094
 31
0.0
  0
LINE
  5
5E32
330
A
100
AcDbEntity
  8
MODEL
100
AcDbLine
 10
412.1500482250158
 20
867.1167271198146
 30
0.0
 11
412.1500482250158
 21
865.5277271198656
 31
0.0
  0
LINE
  5
5E33
330
A
100
AcDbEntity
  8
MODEL
100
AcDbLine
 10
412.1500482250158
 20
869.1877271196654
 30
0.0
 11
412.1500482250158
 21
867.1167271198146
 31
0.0
  0
LINE
  5
5E34
330
A
100
AcDbEntity
  8
MODEL
100
AcDbLine
 10
412.1500482250158
 20
871.5997271197057
 30
0.0
 11
412.1500482250158
 21
869.1877271196654
 31
0.0
  0
LINE
  5
5E35
330
A
100
AcDbEntity
  8
MODEL
100
AcDbLine
 10
412.1500482250158
 20
874.1877271198109
 30
0.0
 11
412.1500482250158
 21
871.5997271197057
 31
0.0
  0
LINE
  5
5E36
330
A
100
AcDbEntity
  8
MODEL
100
AcDbLine
 10
412.1500482250158
 20
876.7757271199162
 30
0.0
 11
412.1500482250158
 21
874.1877271198109
 31
0.0
  0
LINE
  5
5E37
330
A
100
AcDbEntity
  8
MODEL
100
AcDbLine
 10
412.1500482250158
 20
879.1877271196654
 30
0.0
 11
412.1500482250158
 21
876.7757271199162
 31
0.0
  0
LINE
  5
5E38
330
A
100
AcDbEntity
  8
MODEL
100
AcDbLine
 10
412.1500482250158
 20
881.2587271198072
 30
0.0
 11
412.1500482250158
 21
879.1877271196654
 31
0.0
  0
LINE
  5
5E39
330
A
100
AcDbEntity
  8
MODEL
100
AcDbLine
 10
412.1500482250158
 20
882.8477271197562
 30
0.0
 11
412.1500482250158
 21
881.2587271198072
 31
0.0
  0
LINE
  5
5E3A
330
A
100
AcDbEntity
  8
MODEL
100
AcDbLine
 10
419.5780482250158
 20
882.6157271196507
 30
0.0
 11
419.1990482249859
 21
881.1877271199273
 31
0.0
  0
LINE
  5
5E3B
330
A
100
AcDbEntity
  8
MODEL
100
AcDbLine
 10
419.1990482249859
 20
867.1877271196945
 30
0.0
 11
419.5780482250158
 21
865.7597271196801
 31
0.0
  0
LINE
  5
5E3C
330
A
100
AcDbEntity
  8
MODEL
100
AcDbLine
 10
420.6650482249862
 20
864.6637271197187
 30
0.0
 11
422.1500482250158
 21
864.2617271198333
 31
0.0
  0
LINE
  5
5E3D
330
A
100
AcDbEntity
  8
MODEL
100
AcDbLine
 10
422.1500482250158
 20
884.1137271197886
 30
0.0
 11
420.6650482249862
 21
883.7117271199031
 31
0.0
  0
LINE
  5
5E3E
330
A
100
AcDbEntity
  8
MODEL
100
AcDbLine
 10
423.6350482250456
 20
864.6637271197187
 30
0.0
 11
424.722048225016
 21
865.7597271196801
 31
0.0
  0
LINE
  5
5E3F
330
A
100
AcDbEntity
  8
MODEL
100
AcDbLine
 10
424.722048225016
 20
882.6157271196507
 30
0.0
 11
423.6350482250456
 21
883.7117271199031
 31
0.0
  0
LINE
  5
5E40
330
A
100
AcDbEntity
  8
MODEL
100
AcDbLine
 10
425.1010482249732
 20
867.1877271196945
 30
0.0
 11
425.1500482249723
 21
867.1877271196945
 31
0.0
  0
LINE
  5
5E41
330
A
100
AcDbEntity
  8
MODEL
100
AcDbLine
 10
425.1200482250024
 20
867.3257271198463
 30
0.0
 11
425.1010482249732
 21
867.1877271196945
 31
0.0
  0
LINE
  5
5E42
330
A
100
AcDbEntity
  8
MODEL
100
AcDbLine
 10
440.1500482248995
 20
884.1877271198109
 30
0.0
 11
432.1500482250158
 21
884.1877271198109
 31
0.0
  0
LINE
  5
5E43
330
A
100
AcDbEntity
  8
MODEL
100
AcDbLine
 10
432.1500482250158
 20
864.1877271198109
 30
0.0
 11
440.1500482248995
 21
864.1877271198109
 31
0.0
  0
LINE
  5
5E44
330
A
100
AcDbEntity
  8
MODEL
100
AcDbLine
 10
440.1500482248995
 20
856.2707271196496
 30
0.0
 11
440.3600482249787
 21
855.1637271198933
 31
0.0
  0
LINE
  5
5E45
330
A
100
AcDbEntity
  8
MODEL
100
AcDbLine
 10
440.1500482248995
 20
856.8817271198577
 30
0.0
 11
440.1500482248995
 21
856.2707271196496
 31
0.0
  0
LINE
  5
5E46
330
A
100
AcDbEntity
  8
MODEL
100
AcDbLine
 10
440.1500482248995
 20
858.671727119895
 30
0.0
 11
440.1500482248995
 21
856.8817271198577
 31
0.0
  0
LINE
  5
5E47
330
A
100
AcDbEntity
  8
MODEL
100
AcDbLine
 10
440.1500482248995
 20
861.5187271197874
 30
0.0
 11
440.1500482248995
 21
858.671727119895
 31
0.0
  0
LINE
  5
5E48
330
A
100
AcDbEntity
  8
MODEL
100
AcDbLine
 10
440.1500482248995
 20
865.2297271196812
 30
0.0
 11
440.1500482248995
 21
861.5187271197874
 31
0.0
  0
LINE
  5
5E49
330
A
100
AcDbEntity
  8
MODEL
100
AcDbLine
 10
440.1500482248995
 20
869.5507271197357
 30
0.0
 11
440.1500482248995
 21
865.2297271196812
 31
0.0
  0
LINE
  5
5E4A
330
A
100
AcDbEntity
  8
MODEL
100
AcDbLine
 10
440.1500482248995
 20
874.1877271198109
 30
0.0
 11
440.1500482248995
 21
869.5507271197357
 31
0.0
  0
LINE
  5
5E4B
330
A
100
AcDbEntity
  8
MODEL
100
AcDbLine
 10
440.1500482248995
 20
878.8247271197406
 30
0.0
 11
440.1500482248995
 21
874.1877271198109
 31
0.0
  0
LINE
  5
5E4C
330
A
100
AcDbEntity
  8
MODEL
100
AcDbLine
 10
440.1500482248995
 20
883.1457271196496
 30
0.0
 11
440.1500482248995
 21
878.8247271197406
 31
0.0
  0
LINE
  5
5E4D
330
A
100
AcDbEntity
  8
MODEL
100
AcDbLine
 10
440.9680482250442
 20
854.1647271197371
 30
0.0
 11
441.9170482250085
 21
853.3717271197611
 31
0.0
  0
LINE
  5
5E4E
330
A
100
AcDbEntity
  8
MODEL
100
AcDbLine
 10
443.1110482249681
 20
852.8627271198866
 30
0.0
 11
444.4360482250378
 21
852.6877271197236
 31
0.0
  0
LINE
  5
5E5C
330
A
100
AcDbEntity
  8
MODEL
100
AcDbLine
 10
441.9170482250085
 20
853.3717271197611
 30
0.0
 11
443.1110482249681
 21
852.8627271198866
 31
0.0
  0
LINE
  5
5E5D
330
A
100
AcDbEntity
  8
MODEL
100
AcDbLine
 10
440.3600482249787
 20
855.1637271198933
 30
0.0
 11
440.9680482250442
 21
854.1647271197371
 31
0.0
  0
LINE
  5
5E5E
330
A
100
AcDbEntity
  8
MODEL
100
AcDbLine
 10
425.1500482249723
 20
867.1877271196945
 30
0.0
 11
432.1500482250158
 21
864.1877271198109
 31
0.0
  0
LINE
  5
5E5F
330
A
100
AcDbEntity
  8
MODEL
100
AcDbLine
 10
425.1500482249723
 20
880.9487271196349
 30
0.0
 11
425.1500482249723
 21
867.1877271196945
 31
0.0
  0
LINE
  5
5E60
330
A
100
AcDbEntity
  8
MODEL
100
AcDbLine
 10
425.1500482249723
 20
881.1877271199273
 30
0.0
 11
425.1500482249723
 21
880.9487271196349
 31
0.0
  0
LINE
  5
5E61
330
A
100
AcDbEntity
  8
MODEL
100
AcDbLine
 10
432.1500482250158
 20
884.1877271198109
 30
0.0
 11
425.1500482249723
 21
881.1877271199273
 31
0.0
  0
LINE
  5
5E62
330
A
100
AcDbEntity
  8
MODEL
100
AcDbLine
 10
425.1500482249723
 20
881.1877271199273
 30
0.0
 11
425.1010482249732
 21
881.1877271199273
 31
0.0
  0
LINE
  5
5E63
330
A
100
AcDbEntity
  8
MODEL
100
AcDbLine
 10
425.1010482249732
 20
881.1877271199273
 30
0.0
 11
424.722048225016
 21
882.6157271196507
 31
0.0
  0
LINE
  5
5E64
330
A
100
AcDbEntity
  8
MODEL
100
AcDbLine
 10
424.722048225016
 20
865.7597271196801
 30
0.0
 11
425.1010482249732
 21
867.1877271196945
 31
0.0
  0
LINE
  5
5E65
330
A
100
AcDbEntity
  8
MODEL
100
AcDbLine
 10
425.1010482249732
 20
867.1877271196945
 30
0.0
 11
425.1200482250024
 21
867.3257271198463
 31
0.0
  0
LINE
  5
5E66
330
A
100
AcDbEntity
  8
MODEL
100
AcDbLine
 10
423.6350482250456
 20
883.7117271199031
 30
0.0
 11
422.1500482250158
 21
884.1137271197886
 31
0.0
  0
LINE
  5
5E67
330
A
100
AcDbEntity
  8
MODEL
100
AcDbLine
 10
422.1500482250158
 20
864.2617271198333
 30
0.0
 11
423.6350482250456
 21
864.6637271197187
 31
0.0
  0
LINE
  5
5E68
330
A
100
AcDbEntity
  8
MODEL
100
AcDbLine
 10
420.6650482249862
 20
883.7117271199031
 30
0.0
 11
419.5780482250158
 21
882.6157271196507
 31
0.0
  0
LINE
  5
5E69
330
A
100
AcDbEntity
  8
MODEL
100
AcDbLine
 10
419.5780482250158
 20
865.7597271196801
 30
0.0
 11
420.6650482249862
 21
864.6637271197187
 31
0.0
  0
LINE
  5
5E6A
330
A
100
AcDbEntity
  8
MODEL
100
AcDbLine
 10
419.1500482249868
 20
867.1877271196945
 30
0.0
 11
419.1990482249859
 21
867.1877271196945
 31
0.0
  0
LINE
  5
5E6B
330
A
100
AcDbEntity
  8
MODEL
100
AcDbLine
 10
419.1990482249859
 20
881.1877271199273
 30
0.0
 11
419.1500482249868
 21
881.1877271199273
 31
0.0
  0
LINE
  5
5E6C
330
A
100
AcDbEntity
  8
MODEL
100
AcDbLine
 10
412.1500482250158
 20
883.8467271199124
 30
0.0
 11
412.1500482250158
 21
882.8477271197562
 31
0.0
  0
LINE
  5
5E6D
330
A
100
AcDbEntity
  8
MODEL
100
AcDbLine
 10
406.0500482249375
 20
863.3047271199257
 30
0.0
 11
405.5580482249243
 21
863.1877271198982
 31
0.0
  0
LINE
  5
5E6E
330
A
100
AcDbEntity
  8
MODEL
100
AcDbLine
 10
403.6320482249031
 20
863.1877271198982
 30
0.0
 11
402.7860482250291
 21
863.2847271197033
 31
0.0
  0
LINE
  5
5E6F
330
A
100
AcDbEntity
  8
MODEL
100
AcDbLine
 10
402.7860482250291
 20
863.2847271197033
 30
0.0
 11
402.1970482250655
 21
863.1877271198982
 31
0.0
  0
LINE
  5
5E70
330
A
100
AcDbEntity
  8
MODEL
100
AcDbLine
 10
399.9030482250276
 20
863.1877271198982
 30
0.0
 11
399.3140482250639
 21
863.2847271197033
 31
0.0
  0
LINE
  5
5E71
330
A
100
AcDbEntity
  8
MODEL
100
AcDbLine
 10
399.3140482250639
 20
863.2847271197033
 30
0.0
 11
398.4680482250442
 21
863.1877271198982
 31
0.0
  0
LINE
  5
5E72
330
A
100
AcDbEntity
  8
MODEL
100
AcDbLine
 10
396.5420482249503
 20
863.1877271198982
 30
0.0
 11
396.0500482250101
 21
863.3047271199257
 31
0.0
  0
LINE
  5
5E73
330
A
100
AcDbEntity
  8
MODEL
100
AcDbLine
 10
396.0500482250101
 20
863.3047271199257
 30
0.0
 11
395.1210482249045
 21
863.1877271198982
 31
0.0
  0
LINE
  5
5E74
330
A
100
AcDbEntity
  8
MODEL
100
AcDbLine
 10
393.1740482249773
 20
863.1877271198982
 30
0.0
 11
393.5500482250101
 21
863.1877271198982
 31
0.0
  0
LINE
  5
5E75
330
A
100
AcDbEntity
  8
MODEL
100
AcDbLine
 10
392.0140482249591
 20
863.1877271198982
 30
0.0
 11
391.6530482249109
 21
863.2257271198114
 31
0.0
  0
LINE
  5
5E76
330
A
100
AcDbEntity
  8
MODEL
100
AcDbLine
 10
391.6530482249109
 20
863.2257271198114
 30
0.0
 11
391.6280482250333
 21
863.1877271198982
 31
0.0
  0
LINE
  5
5E77
330
A
100
AcDbEntity
  8
MODEL
100
AcDbLine
 10
390.4430482250647
 20
863.5807271197928
 30
0.0
 11
390.9560482249837
 21
863.1877271198982
 31
0.0
  0
LINE
  5
5E78
330
A
100
AcDbEntity
  8
MODEL
100
AcDbLine
 10
390.9560482249837
 20
863.1877271198982
 30
0.0
 11
391.462048224934
 21
863.1877271198982
 31
0.0
  0
LINE
  5
5E79
330
A
100
AcDbEntity
  8
MODEL
100
AcDbLine
 10
386.0500482250101
 20
874.1877271198109
 30
0.0
 11
386.5610482249796
 21
870.3057271197986
 31
0.0
  0
LINE
  5
5E7A
330
A
100
AcDbEntity
  8
MODEL
100
AcDbLine
 10
388.0600482250194
 20
881.6877271198109
 30
0.0
 11
386.5610482249796
 21
878.0697271198233
 31
0.0
  0
LINE
  5
5E7B
330
A
100
AcDbEntity
  8
MODEL
100
AcDbLine
 10
390.4430482250647
 20
884.7947271196836
 30
0.0
 11
388.0600482250194
 21
881.6877271198109
 31
0.0
  0
LINE
  5
5E7C
330
A
100
AcDbEntity
  8
MODEL
100
AcDbLine
 10
386.5610482249796
 20
878.0697271198233
 30
0.0
 11
386.0500482250101
 21
874.1877271198109
 31
0.0
  0
LINE
  5
5E7D
330
A
100
AcDbEntity
  8
MODEL
100
AcDbLine
 10
388.0600482250194
 20
866.6877271198109
 30
0.0
 11
390.4430482250647
 21
863.5807271197928
 31
0.0
  0
LINE
  5
5E7E
330
A
100
AcDbEntity
  8
MODEL
100
AcDbLine
 10
386.5610482249796
 20
870.3057271197986
 30
0.0
 11
388.0600482250194
 21
866.6877271198109
 31
0.0
  0
LINE
  5
5E7F
330
A
100
AcDbEntity
  8
MODEL
100
AcDbLine
 10
412.1500482250158
 20
884.1517271198472
 30
0.0
 11
411.6570482250283
 21
884.7947271196836
 31
0.0
  0
LINE
  5
5E80
330
A
100
AcDbEntity
  8
MODEL
100
AcDbLine
 10
391.6280482250333
 20
863.1877271198982
 30
0.0
 11
391.6530482249109
 21
863.2257271198114
 31
0.0
  0
LINE
  5
5E81
330
A
100
AcDbEntity
  8
MODEL
100
AcDbLine
 10
391.462048224934
 20
863.1877271198982
 30
0.0
 11
391.6280482250333
 21
863.1877271198982
 31
0.0
  0
LINE
  5
5E82
330
A
100
AcDbEntity
  8
MODEL
100
AcDbLine
 10
392.0140482249591
 20
863.1877271198982
 30
0.0
 11
393.1740482249773
 21
863.1877271198982
 31
0.0
  0
LINE
  5
5E83
330
A
100
AcDbEntity
  8
MODEL
100
AcDbLine
 10
391.6530482249109
 20
863.2257271198114
 30
0.0
 11
392.0140482249591
 21
863.1877271198982
 31
0.0
  0
LINE
  5
5E84
330
A
100
AcDbEntity
  8
MODEL
100
AcDbLine
 10
395.1210482249045
 20
863.1877271198982
 30
0.0
 11
396.0500482250101
 21
863.3047271199257
 31
0.0
  0
LINE
  5
5E85
330
A
100
AcDbEntity
  8
MODEL
100
AcDbLine
 10
393.5500482250101
 20
863.1877271198982
 30
0.0
 11
395.1210482249045
 21
863.1877271198982
 31
0.0
  0
LINE
  5
5E86
330
A
100
AcDbEntity
  8
MODEL
100
AcDbLine
 10
396.5420482249503
 20
863.1877271198982
 30
0.0
 11
397.1680482249979
 21
863.1877271198982
 31
0.0
  0
LINE
  5
5E87
330
A
100
AcDbEntity
  8
MODEL
100
AcDbLine
 10
396.0500482250101
 20
863.3047271199257
 30
0.0
 11
396.5420482249503
 21
863.1877271198982
 31
0.0
  0
LINE
  5
5E88
330
A
100
AcDbEntity
  8
MODEL
100
AcDbLine
 10
398.4680482250442
 20
863.1877271198982
 30
0.0
 11
399.3140482250639
 21
863.2847271197033
 31
0.0
  0
LINE
  5
5E89
330
A
100
AcDbEntity
  8
MODEL
100
AcDbLine
 10
397.1680482249979
 20
863.1877271198982
 30
0.0
 11
398.4680482250442
 21
863.1877271198982
 31
0.0
  0
LINE
  5
5E8A
330
A
100
AcDbEntity
  8
MODEL
100
AcDbLine
 10
399.9030482250276
 20
863.1877271198982
 30
0.0
 11
401.0500482250101
 21
863.1877271198982
 31
0.0
  0
LINE
  5
5E8B
330
A
100
AcDbEntity
  8
MODEL
100
AcDbLine
 10
399.3140482250639
 20
863.2847271197033
 30
0.0
 11
399.9030482250276
 21
863.1877271198982
 31
0.0
  0
LINE
  5
5E8C
330
A
100
AcDbEntity
  8
MODEL
100
AcDbLine
 10
402.1970482250655
 20
863.1877271198982
 30
0.0
 11
402.7860482250291
 21
863.2847271197033
 31
0.0
  0
LINE
  5
5E8D
330
A
100
AcDbEntity
  8
MODEL
100
AcDbLine
 10
401.0500482250101
 20
863.1877271198982
 30
0.0
 11
402.1970482250655
 21
863.1877271198982
 31
0.0
  0
LINE
  5
5E8E
330
A
100
AcDbEntity
  8
MODEL
100
AcDbLine
 10
403.6320482249031
 20
863.1877271198982
 30
0.0
 11
404.9320482249497
 21
863.1877271198982
 31
0.0
  0
LINE
  5
5E8F
330
A
100
AcDbEntity
  8
MODEL
100
AcDbLine
 10
402.7860482250291
 20
863.2847271197033
 30
0.0
 11
403.6320482249031
 21
863.1877271198982
 31
0.0
  0
LINE
  5
5E90
330
A
100
AcDbEntity
  8
MODEL
100
AcDbLine
 10
405.5580482249243
 20
863.1877271198982
 30
0.0
 11
406.0500482249375
 21
863.3047271199257
 31
0.0
  0
LINE
  5
5E91
330
A
100
AcDbEntity
  8
MODEL
100
AcDbLine
 10
404.9320482249497
 20
863.1877271198982
 30
0.0
 11
405.5580482249243
 21
863.1877271198982
 31
0.0
  0
LINE
  5
5E92
330
A
100
AcDbEntity
  8
MODEL
100
AcDbLine
 10
406.9790482250428
 20
863.1877271198982
 30
0.0
 11
408.5500482250101
 21
863.1877271198982
 31
0.0
  0
LINE
  5
5E93
330
A
100
AcDbEntity
  8
MODEL
100
AcDbLine
 10
406.0500482249375
 20
863.3047271199257
 30
0.0
 11
406.9790482250428
 21
863.1877271198982
 31
0.0
  0
LINE
  5
5E94
330
A
100
AcDbEntity
  8
MODEL
100
AcDbLine
 10
408.5500482250101
 20
863.1877271198982
 30
0.0
 11
408.9260482249703
 21
863.1877271198982
 31
0.0
  0
LINE
  5
5E95
330
A
100
AcDbEntity
  8
MODEL
100
AcDbLine
 10
411.6570482250283
 20
863.5807271197928
 30
0.0
 11
412.1500482250158
 21
864.2237271197746
 31
0.0
  0
LINE
  5
5E96
330
A
100
AcDbEntity
  8
MODEL
100
AcDbLine
 10
411.1440482249638
 20
863.1877271198982
 30
0.0
 11
411.6570482250283
 21
863.5807271197928
 31
0.0
  0
LINE
  5
5E97
330
A
100
AcDbEntity
  8
MODEL
100
AcDbLine
 10
410.6380482250135
 20
863.1877271198982
 30
0.0
 11
411.1440482249638
 21
863.1877271198982
 31
0.0
  0
LINE
  5
5E98
330
A
100
AcDbEntity
  8
MODEL
100
AcDbLine
 10
410.4470482250364
 20
863.2257271198114
 30
0.0
 11
410.0860482249882
 21
863.1877271198982
 31
0.0
  0
LINE
  5
5E99
330
A
100
AcDbEntity
  8
MODEL
100
AcDbLine
 10
410.4720482249142
 20
863.1877271198982
 30
0.0
 11
410.4470482250364
 21
863.2257271198114
 31
0.0
  0
LINE
  5
5E9A
330
A
100
AcDbEntity
  8
MODEL
100
AcDbLine
 10
391.0500482250101
 20
863.1877271198982
 30
0.0
 11
391.0500482250104
 21
624.1877271198109
 31
0.0
  0
LINE
  5
5E9B
330
A
100
AcDbEntity
  8
MODEL
100
AcDbLine
 10
411.0500482249375
 20
624.1877271198108
 30
0.0
 11
411.0500482249375
 21
863.1877271198982
 31
0.0
  0
LINE
  5
5EB5
330
A
100
AcDbEntity
  8
MODEL
100
AcDbLine
 10
453.1500482250017
 20
424.9044201288564
 30
0.0
 11
453.1500482250017
 21
364.9044201288564
 31
0.0
  0
LINE
  5
5EB6
330
A
100
AcDbEntity
  8
MODEL
100
AcDbLine
 10
440.1500482248995
 20
886.8567271196889
 30
0.0
 11
440.1500482248995
 21
883.1457271196496
 31
0.0
  0
LINE
  5
5EB7
330
A
100
AcDbEntity
  8
MODEL
100
AcDbLine
 10
440.1500482248995
 20
889.7037271197269
 30
0.0
 11
440.1500482248995
 21
886.8567271196889
 31
0.0
  0
LINE
  5
5EB8
330
A
100
AcDbEntity
  8
MODEL
100
AcDbLine
 10
440.1500482248995
 20
891.4937271197641
 30
0.0
 11
440.1500482248995
 21
889.7037271197269
 31
0.0
  0
LINE
  5
5EB9
330
A
100
AcDbEntity
  8
MODEL
100
AcDbLine
 10
440.1500482248995
 20
892.1047271196812
 30
0.0
 11
440.1500482248995
 21
891.4937271197641
 31
0.0
  0
LINE
  5
5EBA
330
A
100
AcDbEntity
  8
MODEL
100
AcDbLine
 10
440.3600482249787
 20
893.2117271197285
 30
0.0
 11
440.1500482248995
 21
892.1047271196812
 31
0.0
  0
LINE
  5
5EBB
330
A
100
AcDbEntity
  8
MODEL
100
AcDbLine
 10
441.9170482250085
 20
895.0037271197152
 30
0.0
 11
440.9680482250442
 21
894.2107271198847
 31
0.0
  0
LINE
  5
5EBC
330
A
100
AcDbEntity
  8
MODEL
100
AcDbLine
 10
444.4360482250378
 20
895.6877271198982
 30
0.0
 11
443.1110482249681
 21
895.5127271197352
 31
0.0
  0
LINE
  5
5EC8
330
A
100
AcDbEntity
  8
MODEL
100
AcDbLine
 10
443.1110482249681
 20
895.5127271197352
 30
0.0
 11
441.9170482250085
 21
895.0037271197152
 31
0.0
  0
LINE
  5
5EC9
330
A
100
AcDbEntity
  8
MODEL
100
AcDbLine
 10
440.9680482250442
 20
894.2107271198847
 30
0.0
 11
440.3600482249787
 21
893.2117271197285
 31
0.0
  0
LINE
  5
5ECA
330
A
100
AcDbEntity
  8
MODEL
100
AcDbLine
 10
411.6570482250283
 20
884.7947271196836
 30
0.0
 11
408.5500482250101
 21
887.1777271198016
 31
0.0
  0
LINE
  5
5ECB
330
A
100
AcDbEntity
  8
MODEL
100
AcDbLine
 10
404.9320482249497
 20
888.6767271196959
 30
0.0
 11
401.0500482250101
 21
889.1877271196654
 31
0.0
  0
LINE
  5
5ECC
330
A
100
AcDbEntity
  8
MODEL
100
AcDbLine
 10
397.1680482249979
 20
888.6767271196959
 30
0.0
 11
393.5500482250101
 21
887.1777271198016
 31
0.0
  0
LINE
  5
5ECD
330
A
100
AcDbEntity
  8
MODEL
100
AcDbLine
 10
393.5500482250101
 20
887.1777271198016
 30
0.0
 11
390.4430482250647
 21
884.7947271196836
 31
0.0
  0
LINE
  5
5ECE
330
A
100
AcDbEntity
  8
MODEL
100
AcDbLine
 10
401.0500482250101
 20
889.1877271196654
 30
0.0
 11
397.1680482249979
 21
888.6767271196959
 31
0.0
  0
LINE
  5
5ECF
330
A
100
AcDbEntity
  8
MODEL
100
AcDbLine
 10
408.5500482250101
 20
887.1777271198016
 30
0.0
 11
404.9320482249497
 21
888.6767271196959
 31
0.0
  0
LINE
  5
5ED4
330
A
100
AcDbEntity
  8
MODEL
100
AcDbLine
 10
446.1500482250297
 20
849.1877271196665
 30
0.0
 11
446.3950482249523
 21
847.6427271199157
 31
0.0
  0
LINE
  5
5ED5
330
A
100
AcDbEntity
  8
MODEL
100
AcDbLine
 10
446.1500482250297
 20
850.0397271198256
 30
0.0
 11
446.1500482250297
 21
849.1877271196665
 31
0.0
  0
LINE
  5
5ED6
330
A
100
AcDbEntity
  8
MODEL
100
AcDbLine
 10
446.1500482250296
 20
852.5367271198286
 30
0.0
 11
446.1500482250297
 21
850.0397271198256
 31
0.0
  0
LINE
  5
5ED7
330
A
100
AcDbEntity
  8
MODEL
100
AcDbLine
 10
446.1500482250296
 20
856.5097271197975
 30
0.0
 11
446.1500482250296
 21
852.5367271198286
 31
0.0
  0
LINE
  5
5ED8
330
A
100
AcDbEntity
  8
MODEL
100
AcDbLine
 10
446.1500482250296
 20
861.687727119812
 30
0.0
 11
446.1500482250296
 21
856.5097271197975
 31
0.0
  0
LINE
  5
5ED9
330
A
100
AcDbEntity
  8
MODEL
100
AcDbLine
 10
446.1500482250296
 20
867.71772711984
 30
0.0
 11
446.1500482250296
 21
861.687727119812
 31
0.0
  0
LINE
  5
5EDA
330
A
100
AcDbEntity
  8
MODEL
100
AcDbLine
 10
446.1500482250296
 20
874.187727119812
 30
0.0
 11
446.1500482250296
 21
867.71772711984
 31
0.0
  0
LINE
  5
5EDB
330
A
100
AcDbEntity
  8
MODEL
100
AcDbLine
 10
446.1500482250295
 20
880.657727119784
 30
0.0
 11
446.1500482250296
 21
874.187727119812
 31
0.0
  0
LINE
  5
5EDC
330
A
100
AcDbEntity
  8
MODEL
100
AcDbLine
 10
446.1500482250295
 20
886.687727119812
 30
0.0
 11
446.1500482250295
 21
880.657727119784
 31
0.0
  0
LINE
  5
5EDD
330
A
100
AcDbEntity
  8
MODEL
100
AcDbLine
 10
446.1500482250295
 20
891.865727119681
 30
0.0
 11
446.1500482250295
 21
886.687727119812
 31
0.0
  0
LINE
  5
5EDE
330
A
100
AcDbEntity
  8
MODEL
100
AcDbLine
 10
446.1500482250295
 20
895.8387271197954
 30
0.0
 11
446.1500482250295
 21
891.865727119681
 31
0.0
  0
LINE
  5
5EDF
330
A
100
AcDbEntity
  8
MODEL
100
AcDbLine
 10
446.1500482250294
 20
898.3357271197985
 30
0.0
 11
446.1500482250295
 21
895.8387271197954
 31
0.0
  0
LINE
  5
5EE0
330
A
100
AcDbEntity
  8
MODEL
100
AcDbLine
 10
446.1500482250294
 20
899.1877271196665
 30
0.0
 11
446.1500482250294
 21
898.3357271197985
 31
0.0
  0
LINE
  5
5EE1
330
A
100
AcDbEntity
  8
MODEL
100
AcDbLine
 10
446.3950482249519
 20
900.7327271197084
 30
0.0
 11
446.1500482250294
 21
899.1877271196665
 31
0.0
  0
LINE
  5
5EE2
330
A
100
AcDbEntity
  8
MODEL
100
AcDbLine
 10
448.2110482249145
 20
903.232727119854
 30
0.0
 11
447.1050482249875
 21
902.1267271198542
 31
0.0
  0
LINE
  5
5EE3
330
A
100
AcDbEntity
  8
MODEL
100
AcDbLine
 10
447.1050482249878
 20
846.2487271197698
 30
0.0
 11
448.2110482249148
 21
845.1427271197701
 31
0.0
  0
LINE
  5
5EE4
330
A
100
AcDbEntity
  8
MODEL
100
AcDbLine
 10
451.1500482250294
 20
904.187727119812
 30
0.0
 11
449.6050482249147
 21
903.9427271198167
 31
0.0
  0
LINE
  5
5EE5
330
A
100
AcDbEntity
  8
MODEL
100
AcDbLine
 10
449.605048224915
 20
844.4327271198074
 30
0.0
 11
451.1500482250297
 21
844.187727119812
 31
0.0
  0
LINE
  5
5EE6
330
A
100
AcDbEntity
  8
MODEL
100
AcDbLine
 10
453.1500482250003
 20
904.187727119812
 30
0.0
 11
451.1500482250294
 21
904.187727119812
 31
0.0
  0
LINE
  5
5EE7
330
A
100
AcDbEntity
  8
MODEL
100
AcDbLine
 10
451.1500482250297
 20
844.187727119812
 30
0.0
 11
453.1500482250006
 21
844.187727119812
 31
0.0
  0
LINE
  5
5EE8
330
A
100
AcDbEntity
  8
MODEL
100
AcDbLine
 10
448.2110482249148
 20
845.1427271197701
 30
0.0
 11
449.605048224915
 21
844.4327271198074
 31
0.0
  0
LINE
  5
5EE9
330
A
100
AcDbEntity
  8
MODEL
100
AcDbLine
 10
449.6050482249147
 20
903.9427271198167
 30
0.0
 11
448.2110482249145
 21
903.232727119854
 31
0.0
  0
LINE
  5
5EEA
330
A
100
AcDbEntity
  8
MODEL
100
AcDbLine
 10
446.3950482249523
 20
847.6427271199157
 30
0.0
 11
447.1050482249878
 21
846.2487271197698
 31
0.0
  0
LINE
  5
5EEB
330
A
100
AcDbEntity
  8
MODEL
100
AcDbLine
 10
447.1050482249875
 20
902.1267271198542
 30
0.0
 11
446.3950482249519
 21
900.7327271197084
 31
0.0
  0
LINE
  5
5EEC
330
A
100
AcDbEntity
  8
MODEL
100
AcDbLine
 10
453.1500482250006
 20
844.187727119812
 30
0.0
 11
453.1500482250003
 21
904.187727119812
 31
0.0
  0
LINE
  5
5EED
330
A
100
AcDbEntity
  8
MODEL
100
AcDbLine
 10
444.4360482250378
 20
852.6877271197236
 30
0.0
 11
446.1500482250296
 21
852.6877271197237
 31
0.0
  0
LINE
  5
5EEE
330
A
100
AcDbEntity
  8
MODEL
100
AcDbLine
 10
444.4360482250378
 20
895.6877271198982
 30
0.0
 11
446.1500482250295
 21
895.6877271198982
 31
0.0
  0
LINE
  5
5EF2
102
{ACAD_REACTORS
330
5F40
102
}
330
A
100
AcDbEntity
  8
MODEL
100
AcDbLine
 10
462.7431199128349
 20
911.7058885227714
 30
0.0
 11
462.7431199128349
 21
336.6695657168508
 31
0.0
  0
LINE
  5
5EF5
102
{ACAD_REACTORS
330
5F40
102
}
330
A
100
AcDbEntity
  8
MODEL
100
AcDbLine
 10
453.1500482250017
 20
911.7058885227714
 30
0.0
 11
453.1500482250017
 21
336.6695657168507
 31
0.0
  0
HATCH
  5
5EFA
330
A
100
AcDbEntity
  8
MODEL
100
AcDbHatch
 10
0.0
 20
0.0
 30
0.0
210
0.0
220
0.0
230
1.0
  2
ANSI31
 70
     0
 71
     0
 91
        1
 92
        1
 93
        4
 72
     1
 10
462.7431199128349
 20
911.7058885227714
 11
462.7431199128349
 21
336.6695657168507
 72
     1
 10
462.7431199128349
 20
336.6695657168508
 11
453.1500482250017
 21
336.6695657168507
 72
     1
 10
453.1500482250017
 20
336.6695657168507
 11
453.1500482250017
 21
911.7058885227714
 72
     1
 10
453.1500482250017
 20
911.7058885227714
 11
462.7431199128349
 21
911.7058885227714
 97
        0
 75
     0
 76
     1
 52
90.0
 41
2.0
 77
     0
 78
     1
 53
135.0
 43
1313.809313069909
 44
205.3068693009116
 45
-4.490128060534577
 46
-4.490128060534577
 79
     0
 98
        1
 10
1313.809313069909
 20
205.3068693009116
1001
ACAD
1010
0.0
1020
0.0
1030
0.0
  0
LINE
  5
5EFB
330
A
100
AcDbEntity
  8
DIM
100
AcDbLine
 10
172.3977585847925
 20
896.3410229947019
 30
0.0
 11
190.5723158064405
 21
914.9981466966134
 31
0.0
  0
LINE
  5
5EFC
330
A
100
AcDbEntity
  8
DIM
100
AcDbLine
 10
190.5723158064405
 20
914.9981466966134
 30
0.0
 11
217.1240768082642
 21
914.9981466966134
 31
0.0
  0
MTEXT
  5
5F31
330
A
100
AcDbEntity
  8
DIM
390
1D
100
AcDbMText
 10
196.5426904748903
 20
928.7252467455136
 30
0.0
 40
9.773046875
 41
0.0
 46
9.773046875
 71
     1
 72
     1
  1
{%%c60}
  7
ＭＳ ゴシック
 73
     1
 44
0.7828267384257843
1001
ACAD
1000
ACAD_MTEXT_DEFINED_HEIGHT_BEGIN
1070
    46
1040
9.773046875
1000
ACAD_MTEXT_DEFINED_HEIGHT_END
  0
DIMENSION
  5
5F3E
102
{ACAD_REACTORS
330
5F40
102
}
102
{ACAD_XDICTIONARY
360
5F3F
102
}
330
A
100
AcDbEntity
  8
DIM
100
AcDbDimension
  2
*D15
 10
453.1500482250017
 20
942.4132003604984
 30
0.0
 11
425.5100482250018
 21
942.4132003604984
 31
0.0
 70
   160
  1
6-10
 71
     5
 42
9.593071687833117
 73
     0
 74
     1
 75
     1
 52
-270.0
  3
tfrom線あり
100
AcDbAlignedDimension
 13
462.7431199128349
 23
911.7058885227714
 33
0.0
 14
453.1500482250017
 24
911.7058885227714
 34
0.0
 50
180.0
100
AcDbRotatedDimension
1001
ACAD
1000
DSTYLE
1002
{
1070
   172
1070
     1
1070
   144
1040
1.0
1002
}
  0
LINE
  5
5F65
330
A
100
AcDbEntity
  8
MODEL
100
AcDbLine
 10
159.8271179704565
 20
889.7037271197268
 30
0.0
 11
155.5061179704023
 21
891.493727119764
 31
0.0
  0
LINE
  5
5F66
330
A
100
AcDbEntity
  8
MODEL
100
AcDbLine
 10
163.5381179703506
 20
886.8567271196888
 30
0.0
 11
159.8271179704565
 21
889.7037271197268
 31
0.0
  0
LINE
  5
5F67
330
A
100
AcDbEntity
  8
MODEL
100
AcDbLine
 10
166.3851179703884
 20
883.1457271196495
 30
0.0
 11
163.5381179703506
 21
886.8567271196888
 31
0.0
  0
LINE
  5
5F68
330
A
100
AcDbEntity
  8
MODEL
100
AcDbLine
 10
168.1751179704258
 20
878.8247271197405
 30
0.0
 11
166.3851179703884
 21
883.1457271196495
 31
0.0
  0
LINE
  5
5F69
330
A
100
AcDbEntity
  8
MODEL
100
AcDbLine
 10
168.7861179704154
 20
874.1877271198108
 30
0.0
 11
168.1751179704258
 21
878.8247271197405
 31
0.0
  0
LINE
  5
5F6A
330
A
100
AcDbEntity
  8
MODEL
100
AcDbLine
 10
168.1751179704258
 20
869.5507271197356
 30
0.0
 11
168.7861179704154
 21
874.1877271198108
 31
0.0
  0
LINE
  5
5F6B
330
A
100
AcDbEntity
  8
MODEL
100
AcDbLine
 10
166.3851179703884
 20
865.2297271196813
 30
0.0
 11
168.1751179704258
 21
869.5507271197356
 31
0.0
  0
LINE
  5
5F6C
330
A
100
AcDbEntity
  8
MODEL
100
AcDbLine
 10
163.5381179703505
 20
861.5187271197873
 30
0.0
 11
166.3851179703884
 21
865.2297271196813
 31
0.0
  0
LINE
  5
5F6D
330
A
100
AcDbEntity
  8
MODEL
100
AcDbLine
 10
160.7171179703834
 20
859.354727119885
 30
0.0
 11
163.5381179703505
 21
861.5187271197873
 31
0.0
  0
LINE
  5
5F6E
330
A
100
AcDbEntity
  8
MODEL
100
AcDbLine
 10
138.2001179703763
 20
861.5187271197873
 30
0.0
 11
141.0211179704161
 21
859.354727119885
 31
0.0
  0
LINE
  5
5F6F
330
A
100
AcDbEntity
  8
MODEL
100
AcDbLine
 10
135.3531179704111
 20
865.2297271196813
 30
0.0
 11
138.2001179703763
 21
861.5187271197873
 31
0.0
  0
LINE
  5
5F70
330
A
100
AcDbEntity
  8
MODEL
100
AcDbLine
 10
133.5631179703738
 20
869.5507271197357
 30
0.0
 11
135.3531179704111
 21
865.2297271196813
 31
0.0
  0
LINE
  5
5F71
330
A
100
AcDbEntity
  8
MODEL
100
AcDbLine
 10
132.9521179703837
 20
874.1877271198109
 30
0.0
 11
133.5631179703738
 21
869.5507271197357
 31
0.0
  0
LINE
  5
5F72
330
A
100
AcDbEntity
  8
MODEL
100
AcDbLine
 10
133.5631179703738
 20
878.8247271197406
 30
0.0
 11
132.9521179703837
 21
874.1877271198109
 31
0.0
  0
LINE
  5
5F73
330
A
100
AcDbEntity
  8
MODEL
100
AcDbLine
 10
135.3531179704111
 20
883.1457271196496
 30
0.0
 11
133.5631179703738
 21
878.8247271197406
 31
0.0
  0
LINE
  5
5F74
330
A
100
AcDbEntity
  8
MODEL
100
AcDbLine
 10
138.2001179703763
 20
886.8567271196889
 30
0.0
 11
135.3531179704111
 21
883.1457271196496
 31
0.0
  0
LINE
  5
5F75
330
A
100
AcDbEntity
  8
MODEL
100
AcDbLine
 10
141.9111179704154
 20
889.7037271197269
 30
0.0
 11
138.2001179703763
 21
886.8567271196889
 31
0.0
  0
LINE
  5
5F76
330
A
100
AcDbEntity
  8
MODEL
100
AcDbLine
 10
146.2321179703974
 20
891.493727119764
 30
0.0
 11
141.9111179704154
 21
889.7037271197269
 31
0.0
  0
LINE
  5
5F77
330
A
100
AcDbEntity
  8
MODEL
100
AcDbLine
 10
150.8691179703998
 20
892.1047271196813
 30
0.0
 11
146.2321179703974
 21
891.493727119764
 31
0.0
  0
LINE
  5
5F78
330
A
100
AcDbEntity
  8
MODEL
100
AcDbLine
 10
156.4341179703874
 20
894.9547271197162
 30
0.0
 11
161.6191179703707
 21
892.8077271198935
 31
0.0
  0
LINE
  5
5F79
330
A
100
AcDbEntity
  8
MODEL
100
AcDbLine
 10
150.8691179703998
 20
895.6877271198982
 30
0.0
 11
156.4341179703874
 21
894.9547271197162
 31
0.0
  0
LINE
  5
5F7A
330
A
100
AcDbEntity
  8
MODEL
100
AcDbLine
 10
145.3041179704118
 20
894.9547271197162
 30
0.0
 11
150.8691179703998
 21
895.6877271198982
 31
0.0
  0
LINE
  5
5F7B
330
A
100
AcDbEntity
  8
MODEL
100
AcDbLine
 10
140.1191179704289
 20
892.8077271198936
 30
0.0
 11
145.3041179704118
 21
894.9547271197162
 31
0.0
  0
LINE
  5
5F7C
330
A
100
AcDbEntity
  8
MODEL
100
AcDbLine
 10
135.6661179703619
 20
889.3907271197031
 30
0.0
 11
140.1191179704289
 21
892.8077271198936
 31
0.0
  0
LINE
  5
5F7D
330
A
100
AcDbEntity
  8
MODEL
100
AcDbLine
 10
132.2491179703898
 20
884.9377271196363
 30
0.0
 11
135.6661179703619
 21
889.3907271197031
 31
0.0
  0
LINE
  5
5F7E
330
A
100
AcDbEntity
  8
MODEL
100
AcDbLine
 10
130.1021179704218
 20
879.7527271197259
 30
0.0
 11
132.2491179703898
 21
884.9377271196363
 31
0.0
  0
LINE
  5
5F7F
330
A
100
AcDbEntity
  8
MODEL
100
AcDbLine
 10
129.3691179703852
 20
874.1877271198109
 30
0.0
 11
130.1021179704218
 21
879.7527271197259
 31
0.0
  0
LINE
  5
5F80
330
A
100
AcDbEntity
  8
MODEL
100
AcDbLine
 10
130.1021179704218
 20
868.6227271198959
 30
0.0
 11
129.3691179703852
 21
874.1877271198109
 31
0.0
  0
LINE
  5
5F81
330
A
100
AcDbEntity
  8
MODEL
100
AcDbLine
 10
132.2491179703898
 20
863.43772711984
 30
0.0
 11
130.1021179704218
 21
868.6227271198959
 31
0.0
  0
LINE
  5
5F82
330
A
100
AcDbEntity
  8
MODEL
100
AcDbLine
 10
135.6661179703618
 20
858.9847271199186
 30
0.0
 11
132.2491179703898
 21
863.43772711984
 31
0.0
  0
LINE
  5
5F83
330
A
100
AcDbEntity
  8
MODEL
100
AcDbLine
 10
140.1191179704289
 20
855.5677271197281
 30
0.0
 11
135.6661179703618
 21
858.9847271199186
 31
0.0
  0
LINE
  5
5F84
330
A
100
AcDbEntity
  8
MODEL
100
AcDbLine
 10
141.0211179704161
 20
855.1947271196196
 30
0.0
 11
140.1191179704289
 21
855.5677271197281
 31
0.0
  0
LINE
  5
5F85
330
A
100
AcDbEntity
  8
MODEL
100
AcDbLine
 10
161.6191179703707
 20
855.5677271197281
 30
0.0
 11
160.7171179703834
 21
855.1947271196196
 31
0.0
  0
LINE
  5
5F86
330
A
100
AcDbEntity
  8
MODEL
100
AcDbLine
 10
166.0721179703647
 20
858.9847271199186
 30
0.0
 11
161.6191179703707
 21
855.5677271197281
 31
0.0
  0
LINE
  5
5F87
330
A
100
AcDbEntity
  8
MODEL
100
AcDbLine
 10
169.4891179703367
 20
863.4377271198399
 30
0.0
 11
166.0721179703647
 21
858.9847271199186
 31
0.0
  0
LINE
  5
5F88
330
A
100
AcDbEntity
  8
MODEL
100
AcDbLine
 10
171.6361179703778
 20
868.6227271198958
 30
0.0
 11
169.4891179703367
 21
863.4377271198399
 31
0.0
  0
LINE
  5
5F89
330
A
100
AcDbEntity
  8
MODEL
100
AcDbLine
 10
172.3691179703416
 20
874.1877271198108
 30
0.0
 11
171.6361179703778
 21
868.6227271198958
 31
0.0
  0
LINE
  5
5F8A
330
A
100
AcDbEntity
  8
MODEL
100
AcDbLine
 10
171.6361179703778
 20
879.7527271197259
 30
0.0
 11
172.3691179703416
 21
874.1877271198108
 31
0.0
  0
LINE
  5
5F8B
330
A
100
AcDbEntity
  8
MODEL
100
AcDbLine
 10
169.4891179703367
 20
884.9377271196362
 30
0.0
 11
171.6361179703778
 21
879.7527271197259
 31
0.0
  0
LINE
  5
5F8C
330
A
100
AcDbEntity
  8
MODEL
100
AcDbLine
 10
163.3691179703271
 20
895.8387271197944
 30
0.0
 11
157.3391179703719
 21
898.3357271197973
 31
0.0
  0
LINE
  5
5F8D
330
A
100
AcDbEntity
  8
MODEL
100
AcDbLine
 10
168.5471179703413
 20
891.8657271196798
 30
0.0
 11
163.3691179703271
 21
895.8387271197944
 31
0.0
  0
LINE
  5
5F8E
330
A
100
AcDbEntity
  8
MODEL
100
AcDbLine
 10
172.5201179704558
 20
886.6877271198108
 30
0.0
 11
168.5471179703413
 21
891.8657271196798
 31
0.0
  0
LINE
  5
5F8F
330
A
100
AcDbEntity
  8
MODEL
100
AcDbLine
 10
175.0171179703863
 20
880.6577271197829
 30
0.0
 11
172.5201179704558
 21
886.6877271198108
 31
0.0
  0
LINE
  5
5F90
330
A
100
AcDbEntity
  8
MODEL
100
AcDbLine
 10
175.8691179703998
 20
874.1877271198108
 30
0.0
 11
175.0171179703863
 21
880.6577271197829
 31
0.0
  0
LINE
  5
5F91
330
A
100
AcDbEntity
  8
MODEL
100
AcDbLine
 10
175.0171179703863
 20
867.7177271196932
 30
0.0
 11
175.8691179703998
 21
874.1877271198108
 31
0.0
  0
LINE
  5
5F92
330
A
100
AcDbEntity
  8
MODEL
100
AcDbLine
 10
172.5201179704558
 20
861.6877271198108
 30
0.0
 11
175.0171179703863
 21
867.7177271196932
 31
0.0
  0
LINE
  5
5F93
330
A
100
AcDbEntity
  8
MODEL
100
AcDbLine
 10
168.5471179703412
 20
856.5097271197964
 30
0.0
 11
172.5201179704558
 21
861.6877271198108
 31
0.0
  0
LINE
  5
5F94
330
A
100
AcDbEntity
  8
MODEL
100
AcDbLine
 10
163.369117970327
 20
852.5367271198274
 30
0.0
 11
168.5471179703412
 21
856.5097271197964
 31
0.0
  0
LINE
  5
5F95
330
A
100
AcDbEntity
  8
MODEL
100
AcDbLine
 10
160.7171179703834
 20
851.438727119771
 30
0.0
 11
163.369117970327
 21
852.5367271198274
 31
0.0
  0
LINE
  5
5F96
330
A
100
AcDbEntity
  8
MODEL
100
AcDbLine
 10
138.3691179703998
 20
852.5367271198274
 30
0.0
 11
141.0211179704161
 21
851.438727119771
 31
0.0
  0
LINE
  5
5F97
330
A
100
AcDbEntity
  8
MODEL
100
AcDbLine
 10
133.1911179703851
 20
856.5097271197965
 30
0.0
 11
138.3691179703998
 21
852.5367271198274
 31
0.0
  0
LINE
  5
5F98
330
A
100
AcDbEntity
  8
MODEL
100
AcDbLine
 10
129.2181179704161
 20
861.6877271198109
 30
0.0
 11
133.1911179703851
 21
856.5097271197965
 31
0.0
  0
LINE
  5
5F99
330
A
100
AcDbEntity
  8
MODEL
100
AcDbLine
 10
126.7211179703405
 20
867.7177271196934
 30
0.0
 11
129.2181179704161
 21
861.6877271198109
 31
0.0
  0
LINE
  5
5F9A
330
A
100
AcDbEntity
  8
MODEL
100
AcDbLine
 10
125.8691179704726
 20
874.1877271198109
 30
0.0
 11
126.7211179703405
 21
867.7177271196934
 31
0.0
  0
LINE
  5
5F9B
330
A
100
AcDbEntity
  8
MODEL
100
AcDbLine
 10
126.7211179703405
 20
880.657727119783
 30
0.0
 11
125.8691179704726
 21
874.1877271198109
 31
0.0
  0
LINE
  5
5F9C
330
A
100
AcDbEntity
  8
MODEL
100
AcDbLine
 10
129.2181179704161
 20
886.6877271198109
 30
0.0
 11
126.7211179703405
 21
880.657727119783
 31
0.0
  0
LINE
  5
5F9D
330
A
100
AcDbEntity
  8
MODEL
100
AcDbLine
 10
133.1911179703852
 20
891.8657271196798
 30
0.0
 11
129.2181179704161
 21
886.6877271198109
 31
0.0
  0
LINE
  5
5F9E
330
A
100
AcDbEntity
  8
MODEL
100
AcDbLine
 10
138.3691179703998
 20
895.8387271197944
 30
0.0
 11
133.1911179703852
 21
891.8657271196798
 31
0.0
  0
LINE
  5
5F9F
330
A
100
AcDbEntity
  8
MODEL
100
AcDbLine
 10
144.3991179703548
 20
898.3357271197974
 30
0.0
 11
138.3691179703998
 21
895.8387271197944
 31
0.0
  0
LINE
  5
5FA0
330
A
100
AcDbEntity
  8
MODEL
100
AcDbLine
 10
150.8691179703998
 20
899.1877271196653
 30
0.0
 11
144.3991179703548
 21
898.3357271197974
 31
0.0
  0
LINE
  5
5FA1
330
A
100
AcDbEntity
  8
MODEL
100
AcDbLine
 10
158.634117970399
 20
903.1657271198718
 30
0.0
 11
165.8691179703998
 21
900.1687271198397
 31
0.0
  0
LINE
  5
5FA2
330
A
100
AcDbEntity
  8
MODEL
100
AcDbLine
 10
150.8691179703999
 20
904.1877271198108
 30
0.0
 11
158.634117970399
 21
903.1657271198718
 31
0.0
  0
LINE
  5
5FA3
330
A
100
AcDbEntity
  8
MODEL
100
AcDbLine
 10
143.1041179704002
 20
903.1657271198718
 30
0.0
 11
150.8691179703999
 21
904.1877271198108
 31
0.0
  0
LINE
  5
5FA4
330
A
100
AcDbEntity
  8
MODEL
100
AcDbLine
 10
135.8691179704726
 20
900.1687271198398
 30
0.0
 11
143.1041179704002
 21
903.1657271198718
 31
0.0
  0
LINE
  5
5FA5
330
A
100
AcDbEntity
  8
MODEL
100
AcDbLine
 10
129.6561179704108
 20
895.4007271197997
 30
0.0
 11
135.8691179704726
 21
900.1687271198398
 31
0.0
  0
LINE
  5
5FA6
330
A
100
AcDbEntity
  8
MODEL
100
AcDbLine
 10
124.8881179704437
 20
889.1877271196654
 30
0.0
 11
129.6561179704108
 21
895.4007271197997
 31
0.0
  0
LINE
  5
5FA7
330
A
100
AcDbEntity
  8
MODEL
100
AcDbLine
 10
121.8911179704116
 20
881.9527271198831
 30
0.0
 11
124.8881179704437
 21
889.1877271196654
 31
0.0
  0
LINE
  5
5FA8
330
A
100
AcDbEntity
  8
MODEL
100
AcDbLine
 10
120.8691179704726
 20
874.1877271198109
 30
0.0
 11
121.8911179704116
 21
881.9527271198831
 31
0.0
  0
LINE
  5
5FA9
330
A
100
AcDbEntity
  8
MODEL
100
AcDbLine
 10
121.8911179704116
 20
866.4227271197389
 30
0.0
 11
120.8691179704726
 21
874.1877271198109
 31
0.0
  0
LINE
  5
5FAA
330
A
100
AcDbEntity
  8
MODEL
100
AcDbLine
 10
124.8881179704437
 20
859.1877271196654
 30
0.0
 11
121.8911179704116
 21
866.4227271197389
 31
0.0
  0
LINE
  5
5FAB
330
A
100
AcDbEntity
  8
MODEL
100
AcDbLine
 10
129.6561179704107
 20
852.9747271198221
 30
0.0
 11
124.8881179704437
 21
859.1877271196654
 31
0.0
  0
LINE
  5
5FAC
330
A
100
AcDbEntity
  8
MODEL
100
AcDbLine
 10
135.8691179704725
 20
848.206727119782
 30
0.0
 11
129.6561179704107
 21
852.9747271198221
 31
0.0
  0
LINE
  5
5FAD
330
A
100
AcDbEntity
  8
MODEL
100
AcDbLine
 10
141.0211179704161
 20
846.0727271197037
 30
0.0
 11
135.8691179704725
 21
848.206727119782
 31
0.0
  0
LINE
  5
5FAE
330
A
100
AcDbEntity
  8
MODEL
100
AcDbLine
 10
165.8691179703998
 20
848.206727119782
 30
0.0
 11
160.7171179703834
 21
846.0727271197037
 31
0.0
  0
LINE
  5
5FAF
330
A
100
AcDbEntity
  8
MODEL
100
AcDbLine
 10
172.0821179703884
 20
852.974727119822
 30
0.0
 11
165.8691179703998
 21
848.206727119782
 31
0.0
  0
LINE
  5
5FB0
330
A
100
AcDbEntity
  8
MODEL
100
AcDbLine
 10
176.8501179704284
 20
859.1877271196653
 30
0.0
 11
172.0821179703884
 21
852.974727119822
 31
0.0
  0
LINE
  5
5FB1
330
A
100
AcDbEntity
  8
MODEL
100
AcDbLine
 10
179.847117970388
 20
866.4227271197386
 30
0.0
 11
176.8501179704284
 21
859.1877271196653
 31
0.0
  0
LINE
  5
5FB2
330
A
100
AcDbEntity
  8
MODEL
100
AcDbLine
 10
180.8691179703998
 20
874.1877271198108
 30
0.0
 11
179.847117970388
 21
866.4227271197386
 31
0.0
  0
LINE
  5
5FB3
330
A
100
AcDbEntity
  8
MODEL
100
AcDbLine
 10
179.847117970388
 20
881.952727119883
 30
0.0
 11
180.8691179703998
 21
874.1877271198108
 31
0.0
  0
LINE
  5
5FB4
330
A
100
AcDbEntity
  8
MODEL
100
AcDbLine
 10
176.8501179704285
 20
889.1877271196653
 30
0.0
 11
179.847117970388
 21
881.952727119883
 31
0.0
  0
LINE
  5
5FB5
330
A
100
AcDbEntity
  8
MODEL
100
AcDbLine
 10
165.8691179703998
 20
900.1687271198397
 30
0.0
 11
172.0821179703884
 21
895.4007271197997
 31
0.0
  0
LINE
  5
5FB6
330
A
100
AcDbEntity
  8
MODEL
100
AcDbLine
 10
172.0821179703884
 20
895.4007271197997
 30
0.0
 11
176.8501179704285
 21
889.1877271196653
 31
0.0
  0
LINE
  5
5FB7
330
A
100
AcDbEntity
  8
MODEL
100
AcDbLine
 10
157.3391179703719
 20
898.3357271197973
 30
0.0
 11
150.8691179703998
 21
899.1877271196653
 31
0.0
  0
LINE
  5
5FB8
330
A
100
AcDbEntity
  8
MODEL
100
AcDbLine
 10
150.8691179703998
 20
899.1877271196653
 30
0.0
 11
157.3391179703719
 21
898.3357271197973
 31
0.0
  0
LINE
  5
5FB9
330
A
100
AcDbEntity
  8
MODEL
100
AcDbLine
 10
144.3991179703548
 20
898.3357271197974
 30
0.0
 11
150.8691179703998
 21
899.1877271196653
 31
0.0
  0
LINE
  5
5FBA
330
A
100
AcDbEntity
  8
MODEL
100
AcDbLine
 10
138.3691179703998
 20
895.8387271197944
 30
0.0
 11
144.3991179703548
 21
898.3357271197974
 31
0.0
  0
LINE
  5
5FBB
330
A
100
AcDbEntity
  8
MODEL
100
AcDbLine
 10
133.1911179703852
 20
891.8657271196798
 30
0.0
 11
138.3691179703998
 21
895.8387271197944
 31
0.0
  0
LINE
  5
5FBC
330
A
100
AcDbEntity
  8
MODEL
100
AcDbLine
 10
129.2181179704161
 20
886.6877271198109
 30
0.0
 11
133.1911179703852
 21
891.8657271196798
 31
0.0
  0
LINE
  5
5FBD
330
A
100
AcDbEntity
  8
MODEL
100
AcDbLine
 10
126.7211179703405
 20
880.657727119783
 30
0.0
 11
129.2181179704161
 21
886.6877271198109
 31
0.0
  0
LINE
  5
5FBE
330
A
100
AcDbEntity
  8
MODEL
100
AcDbLine
 10
125.8691179704726
 20
874.1877271198109
 30
0.0
 11
126.7211179703405
 21
880.657727119783
 31
0.0
  0
LINE
  5
5FBF
330
A
100
AcDbEntity
  8
MODEL
100
AcDbLine
 10
126.7211179703405
 20
867.7177271196934
 30
0.0
 11
125.8691179704726
 21
874.1877271198109
 31
0.0
  0
LINE
  5
5FC0
330
A
100
AcDbEntity
  8
MODEL
100
AcDbLine
 10
129.2181179704161
 20
861.6877271198109
 30
0.0
 11
126.7211179703405
 21
867.7177271196934
 31
0.0
  0
LINE
  5
5FC1
330
A
100
AcDbEntity
  8
MODEL
100
AcDbLine
 10
133.1911179703851
 20
856.5097271197965
 30
0.0
 11
129.2181179704161
 21
861.6877271198109
 31
0.0
  0
LINE
  5
5FC2
330
A
100
AcDbEntity
  8
MODEL
100
AcDbLine
 10
138.3691179703998
 20
852.5367271198274
 30
0.0
 11
133.1911179703851
 21
856.5097271197965
 31
0.0
  0
LINE
  5
5FC3
330
A
100
AcDbEntity
  8
MODEL
100
AcDbLine
 10
141.0211179704161
 20
851.438727119771
 30
0.0
 11
138.3691179703998
 21
852.5367271198274
 31
0.0
  0
LINE
  5
5FC4
330
A
100
AcDbEntity
  8
MODEL
100
AcDbLine
 10
163.369117970327
 20
852.5367271198274
 30
0.0
 11
160.7171179703834
 21
851.438727119771
 31
0.0
  0
LINE
  5
5FC5
330
A
100
AcDbEntity
  8
MODEL
100
AcDbLine
 10
168.5471179703412
 20
856.5097271197964
 30
0.0
 11
163.369117970327
 21
852.5367271198274
 31
0.0
  0
LINE
  5
5FC6
330
A
100
AcDbEntity
  8
MODEL
100
AcDbLine
 10
172.5201179704558
 20
861.6877271198108
 30
0.0
 11
168.5471179703412
 21
856.5097271197964
 31
0.0
  0
LINE
  5
5FC7
330
A
100
AcDbEntity
  8
MODEL
100
AcDbLine
 10
175.0171179703863
 20
867.7177271196932
 30
0.0
 11
172.5201179704558
 21
861.6877271198108
 31
0.0
  0
LINE
  5
5FC8
330
A
100
AcDbEntity
  8
MODEL
100
AcDbLine
 10
175.8691179703998
 20
874.1877271198108
 30
0.0
 11
175.0171179703863
 21
867.7177271196932
 31
0.0
  0
LINE
  5
5FC9
330
A
100
AcDbEntity
  8
MODEL
100
AcDbLine
 10
175.0171179703863
 20
880.6577271197829
 30
0.0
 11
175.8691179703998
 21
874.1877271198108
 31
0.0
  0
LINE
  5
5FCA
330
A
100
AcDbEntity
  8
MODEL
100
AcDbLine
 10
172.5201179704558
 20
886.6877271198108
 30
0.0
 11
175.0171179703863
 21
880.6577271197829
 31
0.0
  0
LINE
  5
5FCB
330
A
100
AcDbEntity
  8
MODEL
100
AcDbLine
 10
168.5471179703413
 20
891.8657271196798
 30
0.0
 11
172.5201179704558
 21
886.6877271198108
 31
0.0
  0
LINE
  5
5FCC
330
A
100
AcDbEntity
  8
MODEL
100
AcDbLine
 10
163.3691179703271
 20
895.8387271197944
 30
0.0
 11
168.5471179703413
 21
891.8657271196798
 31
0.0
  0
LINE
  5
5FCD
330
A
100
AcDbEntity
  8
MODEL
100
AcDbLine
 10
157.3391179703719
 20
898.3357271197973
 30
0.0
 11
163.3691179703271
 21
895.8387271197944
 31
0.0
  0
LINE
  5
5FCE
330
A
100
AcDbEntity
  8
MODEL
100
AcDbLine
 10
161.6191179703707
 20
892.8077271198935
 30
0.0
 11
166.0721179703648
 21
889.390727119703
 31
0.0
  0
LINE
  5
5FCF
330
A
100
AcDbEntity
  8
MODEL
100
AcDbLine
 10
166.0721179703648
 20
889.390727119703
 30
0.0
 11
169.4891179703367
 21
884.9377271196362
 31
0.0
  0
LINE
  5
5FD0
330
A
100
AcDbEntity
  8
MODEL
100
AcDbLine
 10
155.5061179704023
 20
891.493727119764
 30
0.0
 11
150.8691179703998
 21
892.1047271196813
 31
0.0
  0
LINE
  5
5FD1
330
A
100
AcDbEntity
  8
MODEL
100
AcDbLine
 10
150.8691179703998
 20
892.1047271196813
 30
0.0
 11
155.5061179704023
 21
891.493727119764
 31
0.0
  0
LINE
  5
5FD2
330
A
100
AcDbEntity
  8
MODEL
100
AcDbLine
 10
146.2321179703974
 20
891.493727119764
 30
0.0
 11
150.8691179703998
 21
892.1047271196813
 31
0.0
  0
LINE
  5
5FD3
330
A
100
AcDbEntity
  8
MODEL
100
AcDbLine
 10
141.9111179704154
 20
889.7037271197269
 30
0.0
 11
146.2321179703974
 21
891.493727119764
 31
0.0
  0
LINE
  5
5FD4
330
A
100
AcDbEntity
  8
MODEL
100
AcDbLine
 10
138.2001179703763
 20
886.8567271196889
 30
0.0
 11
141.9111179704154
 21
889.7037271197269
 31
0.0
  0
LINE
  5
5FD5
330
A
100
AcDbEntity
  8
MODEL
100
AcDbLine
 10
135.3531179704111
 20
883.1457271196496
 30
0.0
 11
138.2001179703763
 21
886.8567271196889
 31
0.0
  0
LINE
  5
5FD6
330
A
100
AcDbEntity
  8
MODEL
100
AcDbLine
 10
133.5631179703738
 20
878.8247271197406
 30
0.0
 11
135.3531179704111
 21
883.1457271196496
 31
0.0
  0
LINE
  5
5FD7
330
A
100
AcDbEntity
  8
MODEL
100
AcDbLine
 10
132.9521179703837
 20
874.1877271198109
 30
0.0
 11
133.5631179703738
 21
878.8247271197406
 31
0.0
  0
LINE
  5
5FD8
330
A
100
AcDbEntity
  8
MODEL
100
AcDbLine
 10
133.5631179703738
 20
869.5507271197357
 30
0.0
 11
132.9521179703837
 21
874.1877271198109
 31
0.0
  0
LINE
  5
5FD9
330
A
100
AcDbEntity
  8
MODEL
100
AcDbLine
 10
135.3531179704111
 20
865.2297271196813
 30
0.0
 11
133.5631179703738
 21
869.5507271197357
 31
0.0
  0
LINE
  5
5FDA
330
A
100
AcDbEntity
  8
MODEL
100
AcDbLine
 10
138.2001179703763
 20
861.5187271197873
 30
0.0
 11
135.3531179704111
 21
865.2297271196813
 31
0.0
  0
LINE
  5
5FDB
330
A
100
AcDbEntity
  8
MODEL
100
AcDbLine
 10
141.0211179704161
 20
859.354727119885
 30
0.0
 11
138.2001179703763
 21
861.5187271197873
 31
0.0
  0
LINE
  5
5FDC
330
A
100
AcDbEntity
  8
MODEL
100
AcDbLine
 10
163.5381179703505
 20
861.5187271197873
 30
0.0
 11
160.7171179703834
 21
859.354727119885
 31
0.0
  0
LINE
  5
5FDD
330
A
100
AcDbEntity
  8
MODEL
100
AcDbLine
 10
166.3851179703884
 20
865.2297271196813
 30
0.0
 11
163.5381179703505
 21
861.5187271197873
 31
0.0
  0
LINE
  5
5FDE
330
A
100
AcDbEntity
  8
MODEL
100
AcDbLine
 10
168.1751179704258
 20
869.5507271197356
 30
0.0
 11
166.3851179703884
 21
865.2297271196813
 31
0.0
  0
LINE
  5
5FDF
330
A
100
AcDbEntity
  8
MODEL
100
AcDbLine
 10
168.7861179704154
 20
874.1877271198108
 30
0.0
 11
168.1751179704258
 21
869.5507271197356
 31
0.0
  0
LINE
  5
5FE0
330
A
100
AcDbEntity
  8
MODEL
100
AcDbLine
 10
168.1751179704258
 20
878.8247271197405
 30
0.0
 11
168.7861179704154
 21
874.1877271198108
 31
0.0
  0
LINE
  5
5FE1
330
A
100
AcDbEntity
  8
MODEL
100
AcDbLine
 10
166.3851179703884
 20
883.1457271196495
 30
0.0
 11
168.1751179704258
 21
878.8247271197405
 31
0.0
  0
LINE
  5
5FE2
330
A
100
AcDbEntity
  8
MODEL
100
AcDbLine
 10
163.5381179703506
 20
886.8567271196888
 30
0.0
 11
166.3851179703884
 21
883.1457271196495
 31
0.0
  0
LINE
  5
5FE3
330
A
100
AcDbEntity
  8
MODEL
100
AcDbLine
 10
159.8271179704565
 20
889.7037271197268
 30
0.0
 11
163.5381179703506
 21
886.8567271196888
 31
0.0
  0
LINE
  5
5FE4
330
A
100
AcDbEntity
  8
MODEL
100
AcDbLine
 10
155.5061179704023
 20
891.493727119764
 30
0.0
 11
159.8271179704565
 21
889.7037271197268
 31
0.0
  0
LINE
  5
5FE5
330
A
100
AcDbEntity
  8
MODEL
100
AcDbLine
 10
141.0211179704161
 20
863.2847271197033
 30
0.0
 11
141.3291179704207
 21
863.1877271197526
 31
0.0
  0
LINE
  5
5FE6
330
A
100
AcDbEntity
  8
MODEL
100
AcDbLine
 10
142.0301179703196
 20
863.1877271197526
 30
0.0
 11
142.2091179703817
 21
863.3047271199256
 31
0.0
  0
LINE
  5
5FE7
330
A
100
AcDbEntity
  8
MODEL
100
AcDbLine
 10
140.2621179703814
 20
863.5807271197928
 30
0.0
 11
137.8791179703364
 21
866.6877271198108
 31
0.0
  0
LINE
  5
5FE8
330
A
100
AcDbEntity
  8
MODEL
100
AcDbLine
 10
142.2091179703817
 20
863.3047271199256
 30
0.0
 11
142.9881179704203
 21
863.1877271197526
 31
0.0
  0
LINE
  5
5FE9
330
A
100
AcDbEntity
  8
MODEL
100
AcDbLine
 10
144.5181179704047
 20
863.1877271197526
 30
0.0
 11
144.0481179703452
 21
863.1877271197526
 31
0.0
  0
LINE
  5
5FEA
330
A
100
AcDbEntity
  8
MODEL
100
AcDbLine
 10
146.8231179703831
 20
863.1877271197526
 30
0.0
 11
147.4491179704306
 21
863.2257271196657
 31
0.0
  0
LINE
  5
5FEB
330
A
100
AcDbEntity
  8
MODEL
100
AcDbLine
 10
147.4491179704306
 20
863.2257271196657
 30
0.0
 11
147.5911179704086
 21
863.1877271197526
 31
0.0
  0
LINE
  5
5FEC
330
A
100
AcDbEntity
  8
MODEL
100
AcDbLine
 10
150.8691179703998
 20
863.1877271197526
 30
0.0
 11
147.9221179703412
 21
863.1877271197526
 31
0.0
  0
LINE
  5
5FED
330
A
100
AcDbEntity
  8
MODEL
100
AcDbLine
 10
154.1471179704636
 20
863.1877271197526
 30
0.0
 11
154.2891179704416
 21
863.2257271196657
 31
0.0
  0
LINE
  5
5FEE
330
A
100
AcDbEntity
  8
MODEL
100
AcDbLine
 10
153.8161179703851
 20
863.1877271197526
 30
0.0
 11
150.8691179703998
 21
863.1877271197526
 31
0.0
  0
LINE
  5
5FEF
330
A
100
AcDbEntity
  8
MODEL
100
AcDbLine
 10
154.2891179704416
 20
863.2257271196657
 30
0.0
 11
154.9151179704164
 21
863.1877271197526
 31
0.0
  0
LINE
  5
5FF0
330
A
100
AcDbEntity
  8
MODEL
100
AcDbLine
 10
157.6901179703813
 20
863.1877271197526
 30
0.0
 11
157.2201179703948
 21
863.1877271197526
 31
0.0
  0
LINE
  5
5FF1
330
A
100
AcDbEntity
  8
MODEL
100
AcDbLine
 10
158.7501179704519
 20
863.1877271197526
 30
0.0
 11
159.5291179704178
 21
863.3047271199256
 31
0.0
  0
LINE
  5
5FF2
330
A
100
AcDbEntity
  8
MODEL
100
AcDbLine
 10
159.5291179704178
 20
863.3047271199256
 30
0.0
 11
159.7081179704069
 21
863.1877271197526
 31
0.0
  0
LINE
  5
5FF3
102
{ACAD_REACTORS
330
63CA
102
}
330
A
100
AcDbEntity
  8
MODEL
100
AcDbLine
 10
160.7171179703834
 20
863.2847271197033
 30
0.0
 11
160.7171179703831
 21
624.1877271198109
 31
0.0
  0
LINE
  5
5FF4
330
A
100
AcDbEntity
  8
MODEL
100
AcDbLine
 10
160.4091179704515
 20
863.1877271197526
 30
0.0
 11
160.7171179703834
 21
863.2847271197033
 31
0.0
  0
LINE
  5
5FF5
330
A
100
AcDbEntity
  8
MODEL
100
AcDbLine
 10
163.8591179703905
 20
866.6877271198108
 30
0.0
 11
161.4761179703452
 21
863.5807271197928
 31
0.0
  0
LINE
  5
5FF6
330
A
100
AcDbEntity
  8
MODEL
100
AcDbLine
 10
136.3801179703693
 20
870.3057271197985
 30
0.0
 11
135.8691179704726
 21
874.1877271198108
 31
0.0
  0
LINE
  5
5FF7
330
A
100
AcDbEntity
  8
MODEL
100
AcDbLine
 10
165.8691179703998
 20
874.1877271198108
 30
0.0
 11
165.3581179704303
 21
870.3057271197985
 31
0.0
  0
LINE
  5
5FF8
330
A
100
AcDbEntity
  8
MODEL
100
AcDbLine
 10
136.3801179703693
 20
878.0697271198233
 30
0.0
 11
137.8791179703364
 21
881.6877271196654
 31
0.0
  0
LINE
  5
5FF9
330
A
100
AcDbEntity
  8
MODEL
100
AcDbLine
 10
137.8791179703364
 20
881.6877271196654
 30
0.0
 11
140.2621179703814
 21
884.7947271196836
 31
0.0
  0
LINE
  5
5FFA
330
A
100
AcDbEntity
  8
MODEL
100
AcDbLine
 10
140.2621179703814
 20
884.7947271196836
 30
0.0
 11
143.3691179703998
 21
887.1777271198016
 31
0.0
  0
LINE
  5
5FFB
330
A
100
AcDbEntity
  8
MODEL
100
AcDbLine
 10
143.3691179703998
 20
887.1777271198016
 30
0.0
 11
146.98711797046
 21
888.6767271196958
 31
0.0
  0
LINE
  5
5FFC
330
A
100
AcDbEntity
  8
MODEL
100
AcDbLine
 10
146.98711797046
 20
888.6767271196958
 30
0.0
 11
150.8691179703998
 21
889.1877271196653
 31
0.0
  0
LINE
  5
5FFD
330
A
100
AcDbEntity
  8
MODEL
100
AcDbLine
 10
150.8691179703998
 20
889.1877271196653
 30
0.0
 11
154.7511179704122
 21
888.6767271196958
 31
0.0
  0
LINE
  5
5FFE
330
A
100
AcDbEntity
  8
MODEL
100
AcDbLine
 10
154.7511179704122
 20
888.6767271196958
 30
0.0
 11
158.3691179703271
 21
887.1777271198015
 31
0.0
  0
LINE
  5
5FFF
330
A
100
AcDbEntity
  8
MODEL
100
AcDbLine
 10
158.3691179703271
 20
887.1777271198015
 30
0.0
 11
161.4761179703452
 21
884.7947271196836
 31
0.0
  0
LINE
  5
6000
330
A
100
AcDbEntity
  8
MODEL
100
AcDbLine
 10
161.4761179703452
 20
884.7947271196836
 30
0.0
 11
163.8591179703905
 21
881.6877271196653
 31
0.0
  0
LINE
  5
6001
330
A
100
AcDbEntity
  8
MODEL
100
AcDbLine
 10
163.8591179703905
 20
881.6877271196653
 30
0.0
 11
165.3581179704303
 21
878.0697271198233
 31
0.0
  0
LINE
  5
6002
330
A
100
AcDbEntity
  8
MODEL
100
AcDbLine
 10
165.3581179704303
 20
878.0697271198233
 30
0.0
 11
165.8691179703998
 21
874.1877271198108
 31
0.0
  0
LINE
  5
6003
330
A
100
AcDbEntity
  8
MODEL
100
AcDbLine
 10
135.8691179704726
 20
874.1877271198108
 30
0.0
 11
136.3801179703693
 21
878.0697271198233
 31
0.0
  0
LINE
  5
6004
330
A
100
AcDbEntity
  8
MODEL
100
AcDbLine
 10
165.3581179704303
 20
870.3057271197985
 30
0.0
 11
163.8591179703905
 21
866.6877271198108
 31
0.0
  0
LINE
  5
6005
330
A
100
AcDbEntity
  8
MODEL
100
AcDbLine
 10
137.8791179703364
 20
866.6877271198108
 30
0.0
 11
136.3801179703693
 21
870.3057271197985
 31
0.0
  0
LINE
  5
6006
330
A
100
AcDbEntity
  8
MODEL
100
AcDbLine
 10
160.963117970426
 20
863.1877271197526
 30
0.0
 11
160.7171179703834
 21
863.1877271197526
 31
0.0
  0
LINE
  5
6007
330
A
100
AcDbEntity
  8
MODEL
100
AcDbLine
 10
161.4761179703452
 20
863.5807271197928
 30
0.0
 11
160.963117970426
 21
863.1877271197526
 31
0.0
  0
LINE
  5
6008
330
A
100
AcDbEntity
  8
MODEL
100
AcDbLine
 10
160.4091179704515
 20
863.1877271197526
 30
0.0
 11
160.1311179703438
 21
863.1877271197526
 31
0.0
  0
LINE
  5
6009
330
A
100
AcDbEntity
  8
MODEL
100
AcDbLine
 10
160.7171179703834
 20
863.2847271197033
 30
0.0
 11
160.4091179704515
 21
863.1877271197526
 31
0.0
  0
LINE
  5
600A
330
A
100
AcDbEntity
  8
MODEL
100
AcDbLine
 10
159.7081179704069
 20
863.1877271197526
 30
0.0
 11
159.5291179704178
 21
863.3047271199256
 31
0.0
  0
LINE
  5
600B
330
A
100
AcDbEntity
  8
MODEL
100
AcDbLine
 10
160.1311179703438
 20
863.1877271197526
 30
0.0
 11
159.7081179704069
 21
863.1877271197526
 31
0.0
  0
LINE
  5
600C
330
A
100
AcDbEntity
  8
MODEL
100
AcDbLine
 10
158.7501179704519
 20
863.1877271197526
 30
0.0
 11
157.6901179703813
 21
863.1877271197526
 31
0.0
  0
LINE
  5
600D
330
A
100
AcDbEntity
  8
MODEL
100
AcDbLine
 10
159.5291179704178
 20
863.3047271199256
 30
0.0
 11
158.7501179704519
 21
863.1877271197526
 31
0.0
  0
LINE
  5
600E
330
A
100
AcDbEntity
  8
MODEL
100
AcDbLine
 10
154.9151179704164
 20
863.1877271197526
 30
0.0
 11
154.2891179704416
 21
863.2257271196657
 31
0.0
  0
LINE
  5
600F
330
A
100
AcDbEntity
  8
MODEL
100
AcDbLine
 10
157.2201179703948
 20
863.1877271197526
 30
0.0
 11
154.9151179704164
 21
863.1877271197526
 31
0.0
  0
LINE
  5
6010
330
A
100
AcDbEntity
  8
MODEL
100
AcDbLine
 10
154.1471179704636
 20
863.1877271197526
 30
0.0
 11
153.8161179703851
 21
863.1877271197526
 31
0.0
  0
LINE
  5
6011
330
A
100
AcDbEntity
  8
MODEL
100
AcDbLine
 10
154.2891179704416
 20
863.2257271196657
 30
0.0
 11
154.1471179704636
 21
863.1877271197526
 31
0.0
  0
LINE
  5
6012
330
A
100
AcDbEntity
  8
MODEL
100
AcDbLine
 10
147.5911179704086
 20
863.1877271197526
 30
0.0
 11
147.4491179704306
 21
863.2257271196657
 31
0.0
  0
LINE
  5
6013
330
A
100
AcDbEntity
  8
MODEL
100
AcDbLine
 10
147.9221179703412
 20
863.1877271197526
 30
0.0
 11
147.5911179704086
 21
863.1877271197526
 31
0.0
  0
LINE
  5
6014
330
A
100
AcDbEntity
  8
MODEL
100
AcDbLine
 10
146.8231179703831
 20
863.1877271197526
 30
0.0
 11
144.5181179704047
 21
863.1877271197526
 31
0.0
  0
LINE
  5
6015
330
A
100
AcDbEntity
  8
MODEL
100
AcDbLine
 10
147.4491179704306
 20
863.2257271196657
 30
0.0
 11
146.8231179703831
 21
863.1877271197526
 31
0.0
  0
LINE
  5
6016
330
A
100
AcDbEntity
  8
MODEL
100
AcDbLine
 10
142.9881179704203
 20
863.1877271197526
 30
0.0
 11
142.2091179703817
 21
863.3047271199256
 31
0.0
  0
LINE
  5
6017
330
A
100
AcDbEntity
  8
MODEL
100
AcDbLine
 10
144.0481179703452
 20
863.1877271197526
 30
0.0
 11
142.9881179704203
 21
863.1877271197526
 31
0.0
  0
LINE
  5
6018
330
A
100
AcDbEntity
  8
MODEL
100
AcDbLine
 10
142.0301179703196
 20
863.1877271197526
 30
0.0
 11
141.6071179703828
 21
863.1877271197526
 31
0.0
  0
LINE
  5
6019
330
A
100
AcDbEntity
  8
MODEL
100
AcDbLine
 10
142.2091179703817
 20
863.3047271199256
 30
0.0
 11
142.0301179703196
 21
863.1877271197526
 31
0.0
  0
LINE
  5
601A
330
A
100
AcDbEntity
  8
MODEL
100
AcDbLine
 10
141.3291179704207
 20
863.1877271197526
 30
0.0
 11
141.0211179704161
 21
863.2847271197033
 31
0.0
  0
LINE
  5
601B
330
A
100
AcDbEntity
  8
MODEL
100
AcDbLine
 10
141.6071179703828
 20
863.1877271197526
 30
0.0
 11
141.3291179704207
 21
863.1877271197526
 31
0.0
  0
LINE
  5
601C
330
A
100
AcDbEntity
  8
MODEL
100
AcDbLine
 10
140.7751179704459
 20
863.1877271197526
 30
0.0
 11
140.2621179703814
 21
863.5807271197928
 31
0.0
  0
LINE
  5
601D
330
A
100
AcDbEntity
  8
MODEL
100
AcDbLine
 10
141.0211179704161
 20
863.1877271197526
 30
0.0
 11
140.7751179704459
 21
863.1877271197526
 31
0.0
  0
LINE
  5
601E
330
A
100
AcDbEntity
  8
MODEL
100
AcDbLine
 10
141.0211179704161
 20
863.2847271197033
 30
0.0
 11
141.0211179704161
 21
863.1877271197526
 31
0.0
  0
LINE
  5
601F
102
{ACAD_REACTORS
330
63CA
102
}
330
A
100
AcDbEntity
  8
MODEL
100
AcDbLine
 10
141.0211179704158
 20
624.187727119811
 30
0.0
 11
141.0211179704161
 21
863.2847271197033
 31
0.0
  0
LINE
  5
6020
330
A
100
AcDbEntity
  8
MODEL
100
AcDbLine
 10
410.0860482249884
 20
385.1877271197234
 30
0.0
 11
410.4470482250366
 21
385.1497271198102
 31
0.0
  0
LINE
  5
6021
330
A
100
AcDbEntity
  8
MODEL
100
AcDbLine
 10
408.9260482249705
 20
385.1877271197234
 30
0.0
 11
410.0860482249884
 21
385.1877271197234
 31
0.0
  0
LINE
  5
6022
330
A
100
AcDbEntity
  8
MODEL
100
AcDbLine
 10
410.4720482249144
 20
385.1877271197234
 30
0.0
 11
410.6380482250137
 21
385.1877271197234
 31
0.0
  0
LINE
  5
6023
330
A
100
AcDbEntity
  8
MODEL
100
AcDbLine
 10
410.4470482250366
 20
385.1497271198102
 30
0.0
 11
410.4720482249144
 21
385.1877271197234
 31
0.0
  0
LINE
  5
6024
330
A
100
AcDbEntity
  8
MODEL
100
AcDbLine
 10
406.979048225043
 20
385.1877271197234
 30
0.0
 11
406.0500482249377
 21
385.0707271196959
 31
0.0
  0
LINE
  5
6025
330
A
100
AcDbEntity
  8
MODEL
100
AcDbLine
 10
412.150048225016
 20
364.1877271198107
 30
0.0
 11
412.150048225016
 21
364.5287271197092
 31
0.0
  0
LINE
  5
6026
330
A
100
AcDbEntity
  8
MODEL
100
AcDbLine
 10
419.1500482249871
 20
367.1877271196943
 30
0.0
 11
412.150048225016
 21
364.1877271198107
 31
0.0
  0
LINE
  5
6027
330
A
100
AcDbEntity
  8
MODEL
100
AcDbLine
 10
412.150048225016
 20
384.1877271198107
 30
0.0
 11
419.150048224987
 21
381.1877271199271
 31
0.0
  0
LINE
  5
6028
330
A
100
AcDbEntity
  8
MODEL
100
AcDbLine
 10
412.150048225016
 20
383.8467271199122
 30
0.0
 11
412.150048225016
 21
384.1877271198107
 31
0.0
  0
LINE
  5
6029
330
A
100
AcDbEntity
  8
MODEL
100
AcDbLine
 10
419.150048224987
 20
381.1877271199271
 30
0.0
 11
419.1500482249871
 21
367.1877271196943
 31
0.0
  0
LINE
  5
602A
330
A
100
AcDbEntity
  8
MODEL
100
AcDbLine
 10
412.150048225016
 20
382.847727119756
 30
0.0
 11
412.150048225016
 21
383.8467271199122
 31
0.0
  0
LINE
  5
602B
330
A
100
AcDbEntity
  8
MODEL
100
AcDbLine
 10
412.150048225016
 20
381.258727119807
 30
0.0
 11
412.150048225016
 21
382.847727119756
 31
0.0
  0
LINE
  5
602C
330
A
100
AcDbEntity
  8
MODEL
100
AcDbLine
 10
412.150048225016
 20
379.1877271199562
 30
0.0
 11
412.150048225016
 21
381.258727119807
 31
0.0
  0
LINE
  5
602D
330
A
100
AcDbEntity
  8
MODEL
100
AcDbLine
 10
412.150048225016
 20
376.7757271199159
 30
0.0
 11
412.150048225016
 21
379.1877271199562
 31
0.0
  0
LINE
  5
602E
330
A
100
AcDbEntity
  8
MODEL
100
AcDbLine
 10
412.150048225016
 20
374.1877271198107
 30
0.0
 11
412.150048225016
 21
376.7757271199159
 31
0.0
  0
LINE
  5
602F
330
A
100
AcDbEntity
  8
MODEL
100
AcDbLine
 10
412.150048225016
 20
371.5997271197054
 30
0.0
 11
412.150048225016
 21
374.1877271198107
 31
0.0
  0
LINE
  5
6030
330
A
100
AcDbEntity
  8
MODEL
100
AcDbLine
 10
412.150048225016
 20
369.1877271199562
 30
0.0
 11
412.150048225016
 21
371.5997271197054
 31
0.0
  0
LINE
  5
6031
330
A
100
AcDbEntity
  8
MODEL
100
AcDbLine
 10
412.150048225016
 20
367.1167271198144
 30
0.0
 11
412.150048225016
 21
369.1877271199562
 31
0.0
  0
LINE
  5
6032
330
A
100
AcDbEntity
  8
MODEL
100
AcDbLine
 10
412.150048225016
 20
365.5277271198654
 30
0.0
 11
412.150048225016
 21
367.1167271198144
 31
0.0
  0
LINE
  5
6033
330
A
100
AcDbEntity
  8
MODEL
100
AcDbLine
 10
419.5780482250161
 20
365.7597271199709
 30
0.0
 11
419.1990482249861
 21
367.1877271196943
 31
0.0
  0
LINE
  5
6034
330
A
100
AcDbEntity
  8
MODEL
100
AcDbLine
 10
419.199048224986
 20
381.1877271199271
 30
0.0
 11
419.5780482250159
 21
382.6157271199415
 31
0.0
  0
LINE
  5
6035
330
A
100
AcDbEntity
  8
MODEL
100
AcDbLine
 10
420.6650482249863
 20
383.7117271199029
 30
0.0
 11
422.150048225016
 21
384.1137271197883
 31
0.0
  0
LINE
  5
6036
330
A
100
AcDbEntity
  8
MODEL
100
AcDbLine
 10
422.1500482250161
 20
364.261727119833
 30
0.0
 11
420.6650482249864
 21
364.6637271197185
 31
0.0
  0
LINE
  5
6037
330
A
100
AcDbEntity
  8
MODEL
100
AcDbLine
 10
423.6350482250458
 20
383.7117271199029
 30
0.0
 11
424.7220482250161
 21
382.6157271199415
 31
0.0
  0
LINE
  5
6038
330
A
100
AcDbEntity
  8
MODEL
100
AcDbLine
 10
424.7220482250162
 20
365.7597271199709
 30
0.0
 11
423.6350482250459
 21
364.6637271197185
 31
0.0
  0
LINE
  5
6039
330
A
100
AcDbEntity
  8
MODEL
100
AcDbLine
 10
425.1010482249733
 20
381.1877271199271
 30
0.0
 11
425.1500482249724
 21
381.1877271199271
 31
0.0
  0
LINE
  5
603A
330
A
100
AcDbEntity
  8
MODEL
100
AcDbLine
 10
425.1200482250026
 20
381.0497271197753
 30
0.0
 11
425.1010482249733
 21
381.1877271199271
 31
0.0
  0
LINE
  5
603B
330
A
100
AcDbEntity
  8
MODEL
100
AcDbLine
 10
440.1500482248998
 20
364.1877271198107
 30
0.0
 11
432.1500482250161
 21
364.1877271198107
 31
0.0
  0
LINE
  5
603C
330
A
100
AcDbEntity
  8
MODEL
100
AcDbLine
 10
432.150048225016
 20
384.1877271198107
 30
0.0
 11
440.1500482248996
 21
384.1877271198107
 31
0.0
  0
LINE
  5
603D
330
A
100
AcDbEntity
  8
MODEL
100
AcDbLine
 10
440.1500482248996
 20
392.104727119972
 30
0.0
 11
440.3600482249788
 21
393.2117271197283
 31
0.0
  0
LINE
  5
603E
330
A
100
AcDbEntity
  8
MODEL
100
AcDbLine
 10
440.1500482248996
 20
391.4937271197639
 30
0.0
 11
440.1500482248996
 21
392.104727119972
 31
0.0
  0
LINE
  5
603F
330
A
100
AcDbEntity
  8
MODEL
100
AcDbLine
 10
440.1500482248996
 20
389.7037271197266
 30
0.0
 11
440.1500482248996
 21
391.4937271197639
 31
0.0
  0
LINE
  5
6040
330
A
100
AcDbEntity
  8
MODEL
100
AcDbLine
 10
440.1500482248996
 20
386.8567271198342
 30
0.0
 11
440.1500482248996
 21
389.7037271197266
 31
0.0
  0
LINE
  5
6041
330
A
100
AcDbEntity
  8
MODEL
100
AcDbLine
 10
440.1500482248996
 20
383.1457271199404
 30
0.0
 11
440.1500482248996
 21
386.8567271198342
 31
0.0
  0
LINE
  5
6042
330
A
100
AcDbEntity
  8
MODEL
100
AcDbLine
 10
440.1500482248996
 20
378.8247271198859
 30
0.0
 11
440.1500482248996
 21
383.1457271199404
 31
0.0
  0
LINE
  5
6043
330
A
100
AcDbEntity
  8
MODEL
100
AcDbLine
 10
440.1500482248998
 20
374.1877271198107
 30
0.0
 11
440.1500482248996
 21
378.8247271198859
 31
0.0
  0
LINE
  5
6044
330
A
100
AcDbEntity
  8
MODEL
100
AcDbLine
 10
440.1500482248998
 20
369.550727119881
 30
0.0
 11
440.1500482248998
 21
374.1877271198107
 31
0.0
  0
LINE
  5
6045
330
A
100
AcDbEntity
  8
MODEL
100
AcDbLine
 10
440.1500482248998
 20
365.229727119972
 30
0.0
 11
440.1500482248998
 21
369.550727119881
 31
0.0
  0
LINE
  5
6046
330
A
100
AcDbEntity
  8
MODEL
100
AcDbLine
 10
440.9680482250444
 20
394.2107271198845
 30
0.0
 11
441.9170482250086
 21
395.0037271198605
 31
0.0
  0
LINE
  5
6047
330
A
100
AcDbEntity
  8
MODEL
100
AcDbLine
 10
443.1110482249682
 20
395.512727119735
 30
0.0
 11
444.436048225038
 21
395.687727119898
 31
0.0
  0
LINE
  5
6048
330
A
100
AcDbEntity
  8
MODEL
100
AcDbLine
 10
441.9170482250086
 20
395.0037271198605
 30
0.0
 11
443.1110482249682
 21
395.512727119735
 31
0.0
  0
LINE
  5
6049
330
A
100
AcDbEntity
  8
MODEL
100
AcDbLine
 10
440.3600482249788
 20
393.2117271197283
 30
0.0
 11
440.9680482250444
 21
394.2107271198845
 31
0.0
  0
LINE
  5
604A
330
A
100
AcDbEntity
  8
MODEL
100
AcDbLine
 10
425.1500482249724
 20
381.1877271199271
 30
0.0
 11
432.150048225016
 21
384.1877271198107
 31
0.0
  0
LINE
  5
604B
330
A
100
AcDbEntity
  8
MODEL
100
AcDbLine
 10
425.1500482249725
 20
367.4267271199867
 30
0.0
 11
425.1500482249724
 21
381.1877271199271
 31
0.0
  0
LINE
  5
604C
330
A
100
AcDbEntity
  8
MODEL
100
AcDbLine
 10
425.1500482249725
 20
367.1877271196943
 30
0.0
 11
425.1500482249725
 21
367.4267271199867
 31
0.0
  0
LINE
  5
604D
330
A
100
AcDbEntity
  8
MODEL
100
AcDbLine
 10
432.1500482250161
 20
364.1877271198107
 30
0.0
 11
425.1500482249725
 21
367.1877271196943
 31
0.0
  0
LINE
  5
604E
330
A
100
AcDbEntity
  8
MODEL
100
AcDbLine
 10
425.1500482249725
 20
367.1877271196943
 30
0.0
 11
425.1010482249735
 21
367.1877271196943
 31
0.0
  0
LINE
  5
604F
330
A
100
AcDbEntity
  8
MODEL
100
AcDbLine
 10
425.1010482249735
 20
367.1877271196943
 30
0.0
 11
424.7220482250162
 21
365.7597271199709
 31
0.0
  0
LINE
  5
6050
330
A
100
AcDbEntity
  8
MODEL
100
AcDbLine
 10
424.7220482250161
 20
382.6157271199415
 30
0.0
 11
425.1010482249733
 21
381.1877271199271
 31
0.0
  0
LINE
  5
6051
330
A
100
AcDbEntity
  8
MODEL
100
AcDbLine
 10
425.1010482249733
 20
381.1877271199271
 30
0.0
 11
425.1200482250026
 21
381.0497271197753
 31
0.0
  0
LINE
  5
6052
330
A
100
AcDbEntity
  8
MODEL
100
AcDbLine
 10
423.6350482250459
 20
364.6637271197185
 30
0.0
 11
422.1500482250161
 21
364.261727119833
 31
0.0
  0
LINE
  5
6053
330
A
100
AcDbEntity
  8
MODEL
100
AcDbLine
 10
422.150048225016
 20
384.1137271197883
 30
0.0
 11
423.6350482250458
 21
383.7117271199029
 31
0.0
  0
LINE
  5
6054
330
A
100
AcDbEntity
  8
MODEL
100
AcDbLine
 10
420.6650482249864
 20
364.6637271197185
 30
0.0
 11
419.5780482250161
 21
365.7597271199709
 31
0.0
  0
LINE
  5
6055
330
A
100
AcDbEntity
  8
MODEL
100
AcDbLine
 10
419.5780482250159
 20
382.6157271199415
 30
0.0
 11
420.6650482249863
 21
383.7117271199029
 31
0.0
  0
LINE
  5
6056
330
A
100
AcDbEntity
  8
MODEL
100
AcDbLine
 10
419.150048224987
 20
381.1877271199271
 30
0.0
 11
419.199048224986
 21
381.1877271199271
 31
0.0
  0
LINE
  5
6057
330
A
100
AcDbEntity
  8
MODEL
100
AcDbLine
 10
419.1990482249861
 20
367.1877271196943
 30
0.0
 11
419.1500482249871
 21
367.1877271196943
 31
0.0
  0
LINE
  5
6058
330
A
100
AcDbEntity
  8
MODEL
100
AcDbLine
 10
412.150048225016
 20
364.5287271197092
 30
0.0
 11
412.150048225016
 21
365.5277271198654
 31
0.0
  0
LINE
  5
6059
330
A
100
AcDbEntity
  8
MODEL
100
AcDbLine
 10
406.0500482249377
 20
385.0707271196959
 30
0.0
 11
405.5580482249245
 21
385.1877271197234
 31
0.0
  0
LINE
  5
605A
330
A
100
AcDbEntity
  8
MODEL
100
AcDbLine
 10
403.6320482249033
 20
385.1877271197234
 30
0.0
 11
402.7860482250293
 21
385.0907271199183
 31
0.0
  0
LINE
  5
605B
330
A
100
AcDbEntity
  8
MODEL
100
AcDbLine
 10
402.7860482250293
 20
385.0907271199183
 30
0.0
 11
402.1970482250657
 21
385.1877271197234
 31
0.0
  0
LINE
  5
605C
330
A
100
AcDbEntity
  8
MODEL
100
AcDbLine
 10
399.9030482250278
 20
385.1877271197234
 30
0.0
 11
399.3140482250641
 21
385.0907271199183
 31
0.0
  0
LINE
  5
605D
330
A
100
AcDbEntity
  8
MODEL
100
AcDbLine
 10
399.3140482250641
 20
385.0907271199183
 30
0.0
 11
398.4680482250444
 21
385.1877271197234
 31
0.0
  0
LINE
  5
605E
330
A
100
AcDbEntity
  8
MODEL
100
AcDbLine
 10
396.5420482249505
 20
385.1877271197234
 30
0.0
 11
396.0500482250103
 21
385.0707271196959
 31
0.0
  0
LINE
  5
605F
330
A
100
AcDbEntity
  8
MODEL
100
AcDbLine
 10
396.0500482250103
 20
385.0707271196959
 30
0.0
 11
395.1210482249047
 21
385.1877271197234
 31
0.0
  0
LINE
  5
6060
330
A
100
AcDbEntity
  8
MODEL
100
AcDbLine
 10
393.1740482249775
 20
385.1877271197234
 30
0.0
 11
393.5500482250103
 21
385.1877271197234
 31
0.0
  0
LINE
  5
6061
330
A
100
AcDbEntity
  8
MODEL
100
AcDbLine
 10
392.0140482249593
 20
385.1877271197234
 30
0.0
 11
391.6530482249111
 21
385.1497271198102
 31
0.0
  0
LINE
  5
6062
330
A
100
AcDbEntity
  8
MODEL
100
AcDbLine
 10
391.6530482249111
 20
385.1497271198102
 30
0.0
 11
391.6280482250335
 21
385.1877271197234
 31
0.0
  0
LINE
  5
6063
330
A
100
AcDbEntity
  8
MODEL
100
AcDbLine
 10
390.4430482250649
 20
384.7947271198288
 30
0.0
 11
390.9560482249839
 21
385.1877271197234
 31
0.0
  0
LINE
  5
6064
330
A
100
AcDbEntity
  8
MODEL
100
AcDbLine
 10
390.9560482249839
 20
385.1877271197234
 30
0.0
 11
391.4620482249342
 21
385.1877271197234
 31
0.0
  0
LINE
  5
6065
330
A
100
AcDbEntity
  8
MODEL
100
AcDbLine
 10
386.0500482250103
 20
374.1877271198107
 30
0.0
 11
386.5610482249798
 21
378.069727119823
 31
0.0
  0
LINE
  5
6066
330
A
100
AcDbEntity
  8
MODEL
100
AcDbLine
 10
388.0600482250196
 20
366.6877271198107
 30
0.0
 11
386.5610482249798
 21
370.3057271197983
 31
0.0
  0
LINE
  5
6067
330
A
100
AcDbEntity
  8
MODEL
100
AcDbLine
 10
390.4430482250649
 20
363.580727119938
 30
0.0
 11
388.0600482250196
 21
366.6877271198107
 31
0.0
  0
LINE
  5
6068
330
A
100
AcDbEntity
  8
MODEL
100
AcDbLine
 10
386.5610482249798
 20
370.3057271197983
 30
0.0
 11
386.0500482250103
 21
374.1877271198107
 31
0.0
  0
LINE
  5
6069
330
A
100
AcDbEntity
  8
MODEL
100
AcDbLine
 10
388.0600482250196
 20
381.6877271198107
 30
0.0
 11
390.4430482250649
 21
384.7947271198288
 31
0.0
  0
LINE
  5
606A
330
A
100
AcDbEntity
  8
MODEL
100
AcDbLine
 10
386.5610482249798
 20
378.069727119823
 30
0.0
 11
388.0600482250196
 21
381.6877271198107
 31
0.0
  0
LINE
  5
606B
330
A
100
AcDbEntity
  8
MODEL
100
AcDbLine
 10
412.150048225016
 20
364.2237271197744
 30
0.0
 11
411.6570482250285
 21
363.580727119938
 31
0.0
  0
LINE
  5
606C
330
A
100
AcDbEntity
  8
MODEL
100
AcDbLine
 10
391.6280482250335
 20
385.1877271197234
 30
0.0
 11
391.6530482249111
 21
385.1497271198102
 31
0.0
  0
LINE
  5
606D
330
A
100
AcDbEntity
  8
MODEL
100
AcDbLine
 10
391.4620482249342
 20
385.1877271197234
 30
0.0
 11
391.6280482250335
 21
385.1877271197234
 31
0.0
  0
LINE
  5
606E
330
A
100
AcDbEntity
  8
MODEL
100
AcDbLine
 10
392.0140482249593
 20
385.1877271197234
 30
0.0
 11
393.1740482249775
 21
385.1877271197234
 31
0.0
  0
LINE
  5
606F
330
A
100
AcDbEntity
  8
MODEL
100
AcDbLine
 10
391.6530482249111
 20
385.1497271198102
 30
0.0
 11
392.0140482249593
 21
385.1877271197234
 31
0.0
  0
LINE
  5
6070
330
A
100
AcDbEntity
  8
MODEL
100
AcDbLine
 10
395.1210482249047
 20
385.1877271197234
 30
0.0
 11
396.0500482250103
 21
385.0707271196959
 31
0.0
  0
LINE
  5
6071
330
A
100
AcDbEntity
  8
MODEL
100
AcDbLine
 10
393.5500482250103
 20
385.1877271197234
 30
0.0
 11
395.1210482249047
 21
385.1877271197234
 31
0.0
  0
LINE
  5
6072
330
A
100
AcDbEntity
  8
MODEL
100
AcDbLine
 10
396.5420482249505
 20
385.1877271197234
 30
0.0
 11
397.1680482249981
 21
385.1877271197234
 31
0.0
  0
LINE
  5
6073
330
A
100
AcDbEntity
  8
MODEL
100
AcDbLine
 10
396.0500482250103
 20
385.0707271196959
 30
0.0
 11
396.5420482249505
 21
385.1877271197234
 31
0.0
  0
LINE
  5
6074
330
A
100
AcDbEntity
  8
MODEL
100
AcDbLine
 10
398.4680482250444
 20
385.1877271197234
 30
0.0
 11
399.3140482250641
 21
385.0907271199183
 31
0.0
  0
LINE
  5
6075
330
A
100
AcDbEntity
  8
MODEL
100
AcDbLine
 10
397.1680482249981
 20
385.1877271197234
 30
0.0
 11
398.4680482250444
 21
385.1877271197234
 31
0.0
  0
LINE
  5
6076
330
A
100
AcDbEntity
  8
MODEL
100
AcDbLine
 10
399.9030482250278
 20
385.1877271197234
 30
0.0
 11
401.0500482250103
 21
385.1877271197234
 31
0.0
  0
LINE
  5
6077
330
A
100
AcDbEntity
  8
MODEL
100
AcDbLine
 10
399.3140482250641
 20
385.0907271199183
 30
0.0
 11
399.9030482250278
 21
385.1877271197234
 31
0.0
  0
LINE
  5
6078
330
A
100
AcDbEntity
  8
MODEL
100
AcDbLine
 10
402.1970482250657
 20
385.1877271197234
 30
0.0
 11
402.7860482250293
 21
385.0907271199183
 31
0.0
  0
LINE
  5
6079
330
A
100
AcDbEntity
  8
MODEL
100
AcDbLine
 10
401.0500482250103
 20
385.1877271197234
 30
0.0
 11
402.1970482250657
 21
385.1877271197234
 31
0.0
  0
LINE
  5
607A
330
A
100
AcDbEntity
  8
MODEL
100
AcDbLine
 10
403.6320482249033
 20
385.1877271197234
 30
0.0
 11
404.9320482249499
 21
385.1877271197234
 31
0.0
  0
LINE
  5
607B
330
A
100
AcDbEntity
  8
MODEL
100
AcDbLine
 10
402.7860482250293
 20
385.0907271199183
 30
0.0
 11
403.6320482249033
 21
385.1877271197234
 31
0.0
  0
LINE
  5
607C
330
A
100
AcDbEntity
  8
MODEL
100
AcDbLine
 10
405.5580482249245
 20
385.1877271197234
 30
0.0
 11
406.0500482249377
 21
385.0707271196959
 31
0.0
  0
LINE
  5
607D
330
A
100
AcDbEntity
  8
MODEL
100
AcDbLine
 10
404.9320482249499
 20
385.1877271197234
 30
0.0
 11
405.5580482249245
 21
385.1877271197234
 31
0.0
  0
LINE
  5
607E
330
A
100
AcDbEntity
  8
MODEL
100
AcDbLine
 10
406.979048225043
 20
385.1877271197234
 30
0.0
 11
408.5500482250103
 21
385.1877271197234
 31
0.0
  0
LINE
  5
607F
330
A
100
AcDbEntity
  8
MODEL
100
AcDbLine
 10
406.0500482249377
 20
385.0707271196959
 30
0.0
 11
406.979048225043
 21
385.1877271197234
 31
0.0
  0
LINE
  5
6080
330
A
100
AcDbEntity
  8
MODEL
100
AcDbLine
 10
408.5500482250103
 20
385.1877271197234
 30
0.0
 11
408.9260482249705
 21
385.1877271197234
 31
0.0
  0
LINE
  5
6081
330
A
100
AcDbEntity
  8
MODEL
100
AcDbLine
 10
411.6570482250285
 20
384.7947271198288
 30
0.0
 11
412.150048225016
 21
384.151727119847
 31
0.0
  0
LINE
  5
6082
330
A
100
AcDbEntity
  8
MODEL
100
AcDbLine
 10
411.144048224964
 20
385.1877271197234
 30
0.0
 11
411.6570482250285
 21
384.7947271198288
 31
0.0
  0
LINE
  5
6083
330
A
100
AcDbEntity
  8
MODEL
100
AcDbLine
 10
410.6380482250137
 20
385.1877271197234
 30
0.0
 11
411.144048224964
 21
385.1877271197234
 31
0.0
  0
LINE
  5
6084
330
A
100
AcDbEntity
  8
MODEL
100
AcDbLine
 10
410.4470482250366
 20
385.1497271198102
 30
0.0
 11
410.0860482249884
 21
385.1877271197234
 31
0.0
  0
LINE
  5
6085
330
A
100
AcDbEntity
  8
MODEL
100
AcDbLine
 10
410.4720482249144
 20
385.1877271197234
 30
0.0
 11
410.4470482250366
 21
385.1497271198102
 31
0.0
  0
LINE
  5
6086
330
A
100
AcDbEntity
  8
MODEL
100
AcDbLine
 10
440.1500482248998
 20
361.5187271199327
 30
0.0
 11
440.1500482248998
 21
365.229727119972
 31
0.0
  0
LINE
  5
6087
330
A
100
AcDbEntity
  8
MODEL
100
AcDbLine
 10
440.1500482248998
 20
358.6717271198947
 30
0.0
 11
440.1500482248998
 21
361.5187271199327
 31
0.0
  0
LINE
  5
6088
330
A
100
AcDbEntity
  8
MODEL
100
AcDbLine
 10
440.1500482248998
 20
356.8817271198575
 30
0.0
 11
440.1500482248998
 21
358.6717271198947
 31
0.0
  0
LINE
  5
6089
330
A
100
AcDbEntity
  8
MODEL
100
AcDbLine
 10
440.1500482248998
 20
356.2707271199404
 30
0.0
 11
440.1500482248998
 21
356.8817271198575
 31
0.0
  0
LINE
  5
608A
330
A
100
AcDbEntity
  8
MODEL
100
AcDbLine
 10
440.3600482249789
 20
355.1637271198931
 30
0.0
 11
440.1500482248998
 21
356.2707271199404
 31
0.0
  0
LINE
  5
608B
330
A
100
AcDbEntity
  8
MODEL
100
AcDbLine
 10
441.9170482250087
 20
353.3717271199064
 30
0.0
 11
440.9680482250445
 21
354.1647271197369
 31
0.0
  0
LINE
  5
608C
330
A
100
AcDbEntity
  8
MODEL
100
AcDbLine
 10
444.4360482250381
 20
352.6877271197234
 30
0.0
 11
443.1110482249683
 21
352.8627271198864
 31
0.0
  0
LINE
  5
608D
330
A
100
AcDbEntity
  8
MODEL
100
AcDbLine
 10
443.1110482249683
 20
352.8627271198864
 30
0.0
 11
441.9170482250087
 21
353.3717271199064
 31
0.0
  0
LINE
  5
608E
330
A
100
AcDbEntity
  8
MODEL
100
AcDbLine
 10
440.9680482250445
 20
354.1647271197369
 30
0.0
 11
440.3600482249789
 21
355.1637271198931
 31
0.0
  0
LINE
  5
608F
330
A
100
AcDbEntity
  8
MODEL
100
AcDbLine
 10
411.6570482250285
 20
363.580727119938
 30
0.0
 11
408.5500482250103
 21
361.19772711982
 31
0.0
  0
LINE
  5
6090
330
A
100
AcDbEntity
  8
MODEL
100
AcDbLine
 10
404.9320482249499
 20
359.6987271199257
 30
0.0
 11
401.0500482250103
 21
359.1877271199562
 31
0.0
  0
LINE
  5
6091
330
A
100
AcDbEntity
  8
MODEL
100
AcDbLine
 10
397.1680482249981
 20
359.6987271199257
 30
0.0
 11
393.5500482250103
 21
361.19772711982
 31
0.0
  0
LINE
  5
6092
330
A
100
AcDbEntity
  8
MODEL
100
AcDbLine
 10
393.5500482250103
 20
361.19772711982
 30
0.0
 11
390.4430482250649
 21
363.580727119938
 31
0.0
  0
LINE
  5
6093
330
A
100
AcDbEntity
  8
MODEL
100
AcDbLine
 10
401.0500482250103
 20
359.1877271199562
 30
0.0
 11
397.1680482249981
 21
359.6987271199257
 31
0.0
  0
LINE
  5
6094
330
A
100
AcDbEntity
  8
MODEL
100
AcDbLine
 10
408.5500482250103
 20
361.19772711982
 30
0.0
 11
404.9320482249499
 21
359.6987271199257
 31
0.0
  0
LINE
  5
6095
330
A
100
AcDbEntity
  8
MODEL
100
AcDbLine
 10
446.1500482250298
 20
399.1877271199551
 30
0.0
 11
446.3950482249524
 21
400.7327271197059
 31
0.0
  0
LINE
  5
6096
330
A
100
AcDbEntity
  8
MODEL
100
AcDbLine
 10
446.1500482250298
 20
398.335727119796
 30
0.0
 11
446.1500482250298
 21
399.1877271199551
 31
0.0
  0
LINE
  5
6097
330
A
100
AcDbEntity
  8
MODEL
100
AcDbLine
 10
446.1500482250297
 20
395.838727119793
 30
0.0
 11
446.1500482250298
 21
398.335727119796
 31
0.0
  0
LINE
  5
6098
330
A
100
AcDbEntity
  8
MODEL
100
AcDbLine
 10
446.1500482250297
 20
391.8657271198241
 30
0.0
 11
446.1500482250297
 21
395.838727119793
 31
0.0
  0
LINE
  5
6099
330
A
100
AcDbEntity
  8
MODEL
100
AcDbLine
 10
446.1500482250297
 20
386.6877271198096
 30
0.0
 11
446.1500482250297
 21
391.8657271198241
 31
0.0
  0
LINE
  5
609A
330
A
100
AcDbEntity
  8
MODEL
100
AcDbLine
 10
446.1500482250297
 20
380.6577271197816
 30
0.0
 11
446.1500482250297
 21
386.6877271198096
 31
0.0
  0
LINE
  5
609B
330
A
100
AcDbEntity
  8
MODEL
100
AcDbLine
 10
446.1500482250298
 20
374.1877271198096
 30
0.0
 11
446.1500482250297
 21
380.6577271197816
 31
0.0
  0
LINE
  5
609C
330
A
100
AcDbEntity
  8
MODEL
100
AcDbLine
 10
446.1500482250297
 20
367.7177271198376
 30
0.0
 11
446.1500482250298
 21
374.1877271198096
 31
0.0
  0
LINE
  5
609D
330
A
100
AcDbEntity
  8
MODEL
100
AcDbLine
 10
446.1500482250297
 20
361.6877271198096
 30
0.0
 11
446.1500482250297
 21
367.7177271198376
 31
0.0
  0
LINE
  5
609E
330
A
100
AcDbEntity
  8
MODEL
100
AcDbLine
 10
446.1500482250297
 20
356.5097271199406
 30
0.0
 11
446.1500482250297
 21
361.6877271198096
 31
0.0
  0
LINE
  5
609F
330
A
100
AcDbEntity
  8
MODEL
100
AcDbLine
 10
446.1500482250297
 20
352.5367271198262
 30
0.0
 11
446.1500482250297
 21
356.5097271199406
 31
0.0
  0
LINE
  5
60A0
330
A
100
AcDbEntity
  8
MODEL
100
AcDbLine
 10
446.1500482250296
 20
350.0397271198231
 30
0.0
 11
446.1500482250297
 21
352.5367271198262
 31
0.0
  0
LINE
  5
60A1
330
A
100
AcDbEntity
  8
MODEL
100
AcDbLine
 10
446.1500482250296
 20
349.1877271199551
 30
0.0
 11
446.1500482250296
 21
350.0397271198231
 31
0.0
  0
LINE
  5
60A2
330
A
100
AcDbEntity
  8
MODEL
100
AcDbLine
 10
446.3950482249522
 20
347.6427271199132
 30
0.0
 11
446.1500482250296
 21
349.1877271199551
 31
0.0
  0
LINE
  5
60A3
330
A
100
AcDbEntity
  8
MODEL
100
AcDbLine
 10
448.2110482249147
 20
345.1427271197676
 30
0.0
 11
447.1050482249877
 21
346.2487271197674
 31
0.0
  0
LINE
  5
60A4
330
A
100
AcDbEntity
  8
MODEL
100
AcDbLine
 10
447.1050482249879
 20
402.1267271198518
 30
0.0
 11
448.2110482249149
 21
403.2327271198515
 31
0.0
  0
LINE
  5
60A5
330
A
100
AcDbEntity
  8
MODEL
100
AcDbLine
 10
448.2110482249149
 20
403.2327271198515
 30
0.0
 11
449.6050482249152
 21
403.9427271198142
 31
0.0
  0
LINE
  5
60A6
330
A
100
AcDbEntity
  8
MODEL
100
AcDbLine
 10
449.6050482249149
 20
344.4327271198049
 30
0.0
 11
448.2110482249147
 21
345.1427271197676
 31
0.0
  0
LINE
  5
60A7
330
A
100
AcDbEntity
  8
MODEL
100
AcDbLine
 10
446.3950482249524
 20
400.7327271197059
 30
0.0
 11
447.1050482249879
 21
402.1267271198518
 31
0.0
  0
LINE
  5
60A8
330
A
100
AcDbEntity
  8
MODEL
100
AcDbLine
 10
447.1050482249877
 20
346.2487271197674
 30
0.0
 11
446.3950482249522
 21
347.6427271199132
 31
0.0
  0
LINE
  5
60A9
330
A
100
AcDbEntity
  8
MODEL
100
AcDbLine
 10
444.436048225038
 20
395.687727119898
 30
0.0
 11
446.1500482250297
 21
395.6877271198979
 31
0.0
  0
LINE
  5
60AA
330
A
100
AcDbEntity
  8
MODEL
100
AcDbLine
 10
444.4360482250381
 20
352.6877271197234
 30
0.0
 11
446.1500482250297
 21
352.6877271197234
 31
0.0
  0
LINE
  5
60AB
330
A
100
AcDbEntity
  8
MODEL
100
AcDbLine
 10
391.0500482250103
 20
385.1877271197234
 30
0.0
 11
391.0500482250103
 21
624.1877271198107
 31
0.0
  0
LINE
  5
60AC
330
A
100
AcDbEntity
  8
MODEL
100
AcDbLine
 10
411.0500482249374
 20
624.1877271198107
 30
0.0
 11
411.0500482249377
 21
385.1877271197234
 31
0.0
  0
LINE
  5
60AD
330
A
100
AcDbEntity
  8
MODEL
100
AcDbLine
 10
451.1500482250296
 20
344.1877271198096
 30
0.0
 11
449.6050482249149
 21
344.4327271198049
 31
0.0
  0
LINE
  5
60AE
330
A
100
AcDbEntity
  8
MODEL
100
AcDbLine
 10
453.1500482250005
 20
344.1877271198096
 30
0.0
 11
451.1500482250296
 21
344.1877271198096
 31
0.0
  0
LINE
  5
60AF
330
A
100
AcDbEntity
  8
MODEL
100
AcDbLine
 10
449.6050482249152
 20
403.9427271198142
 30
0.0
 11
451.1500482250298
 21
404.1877271198096
 31
0.0
  0
LINE
  5
60B0
330
A
100
AcDbEntity
  8
MODEL
100
AcDbLine
 10
451.1500482250298
 20
404.1877271198096
 30
0.0
 11
453.1500482250007
 21
404.1877271198096
 31
0.0
  0
LINE
  5
60B2
102
{ACAD_REACTORS
330
61D5
102
}
330
A
100
AcDbEntity
  8
MODEL
100
AcDbLine
 10
505.8071199128483
 20
863.1877271198982
 30
0.0
 11
505.4461199128002
 21
863.2257271198114
 31
0.0
  0
LINE
  5
60B3
102
{ACAD_REACTORS
330
61D5
102
}
330
A
100
AcDbEntity
  8
MODEL
100
AcDbLine
 10
506.9671199128663
 20
863.1877271198982
 30
0.0
 11
505.8071199128483
 21
863.1877271198982
 31
0.0
  0
LINE
  5
60B4
102
{ACAD_REACTORS
330
61D5
102
}
330
A
100
AcDbEntity
  8
MODEL
100
AcDbLine
 10
505.4211199129224
 20
863.1877271198982
 30
0.0
 11
505.2551199128231
 21
863.1877271198982
 31
0.0
  0
LINE
  5
60B5
102
{ACAD_REACTORS
330
61D5
102
}
330
A
100
AcDbEntity
  8
MODEL
100
AcDbLine
 10
505.4461199128002
 20
863.2257271198114
 30
0.0
 11
505.4211199129224
 21
863.1877271198982
 31
0.0
  0
LINE
  5
60B6
102
{ACAD_REACTORS
330
61D5
102
}
330
A
100
AcDbEntity
  8
MODEL
100
AcDbLine
 10
508.9141199127937
 20
863.1877271198982
 30
0.0
 11
509.8431199128991
 21
863.3047271199257
 31
0.0
  0
LINE
  5
60B7
102
{ACAD_REACTORS
330
61D5
102
}
330
A
100
AcDbEntity
  8
MODEL
100
AcDbLine
 10
503.7431199128207
 20
884.1877271198109
 30
0.0
 11
503.7431199128207
 21
883.8467271199124
 31
0.0
  0
LINE
  5
60B8
102
{ACAD_REACTORS
330
61D5
102
}
330
A
100
AcDbEntity
  8
MODEL
100
AcDbLine
 10
496.7431199128498
 20
881.1877271199273
 30
0.0
 11
503.7431199128207
 21
884.1877271198109
 31
0.0
  0
LINE
  5
60B9
102
{ACAD_REACTORS
330
61D5
102
}
330
A
100
AcDbEntity
  8
MODEL
100
AcDbLine
 10
503.7431199128207
 20
864.1877271198109
 30
0.0
 11
496.7431199128498
 21
867.1877271196945
 31
0.0
  0
LINE
  5
60BA
102
{ACAD_REACTORS
330
61D5
102
}
330
A
100
AcDbEntity
  8
MODEL
100
AcDbLine
 10
503.7431199128207
 20
864.5287271197094
 30
0.0
 11
503.7431199128207
 21
864.1877271198109
 31
0.0
  0
LINE
  5
60BB
102
{ACAD_REACTORS
330
61D5
102
}
330
A
100
AcDbEntity
  8
MODEL
100
AcDbLine
 10
496.7431199128498
 20
867.1877271196945
 30
0.0
 11
496.7431199128498
 21
881.1877271199273
 31
0.0
  0
LINE
  5
60BC
102
{ACAD_REACTORS
330
61D5
102
}
330
A
100
AcDbEntity
  8
MODEL
100
AcDbLine
 10
503.7431199128207
 20
865.5277271198656
 30
0.0
 11
503.7431199128207
 21
864.5287271197094
 31
0.0
  0
LINE
  5
60BD
102
{ACAD_REACTORS
330
61D5
102
}
330
A
100
AcDbEntity
  8
MODEL
100
AcDbLine
 10
503.7431199128207
 20
867.1167271198146
 30
0.0
 11
503.7431199128207
 21
865.5277271198656
 31
0.0
  0
LINE
  5
60BE
102
{ACAD_REACTORS
330
61D5
102
}
330
A
100
AcDbEntity
  8
MODEL
100
AcDbLine
 10
503.7431199128207
 20
869.1877271196654
 30
0.0
 11
503.7431199128207
 21
867.1167271198146
 31
0.0
  0
LINE
  5
60BF
102
{ACAD_REACTORS
330
61D5
102
}
330
A
100
AcDbEntity
  8
MODEL
100
AcDbLine
 10
503.7431199128207
 20
871.5997271197057
 30
0.0
 11
503.7431199128207
 21
869.1877271196654
 31
0.0
  0
LINE
  5
60C0
102
{ACAD_REACTORS
330
61D5
102
}
330
A
100
AcDbEntity
  8
MODEL
100
AcDbLine
 10
503.7431199128207
 20
874.1877271198109
 30
0.0
 11
503.7431199128207
 21
871.5997271197057
 31
0.0
  0
LINE
  5
60C1
102
{ACAD_REACTORS
330
61D5
102
}
330
A
100
AcDbEntity
  8
MODEL
100
AcDbLine
 10
503.7431199128207
 20
876.7757271199162
 30
0.0
 11
503.7431199128207
 21
874.1877271198109
 31
0.0
  0
LINE
  5
60C2
102
{ACAD_REACTORS
330
61D5
102
}
330
A
100
AcDbEntity
  8
MODEL
100
AcDbLine
 10
503.7431199128207
 20
879.1877271196654
 30
0.0
 11
503.7431199128207
 21
876.7757271199162
 31
0.0
  0
LINE
  5
60C3
102
{ACAD_REACTORS
330
61D5
102
}
330
A
100
AcDbEntity
  8
MODEL
100
AcDbLine
 10
503.7431199128207
 20
881.2587271198072
 30
0.0
 11
503.7431199128207
 21
879.1877271196654
 31
0.0
  0
LINE
  5
60C4
102
{ACAD_REACTORS
330
61D5
102
}
330
A
100
AcDbEntity
  8
MODEL
100
AcDbLine
 10
503.7431199128207
 20
882.8477271197562
 30
0.0
 11
503.7431199128207
 21
881.2587271198072
 31
0.0
  0
LINE
  5
60C5
102
{ACAD_REACTORS
330
61D5
102
}
330
A
100
AcDbEntity
  8
MODEL
100
AcDbLine
 10
496.3151199128208
 20
882.6157271196507
 30
0.0
 11
496.6941199128507
 21
881.1877271199273
 31
0.0
  0
LINE
  5
60C6
102
{ACAD_REACTORS
330
61D5
102
}
330
A
100
AcDbEntity
  8
MODEL
100
AcDbLine
 10
496.6941199128507
 20
867.1877271196945
 30
0.0
 11
496.3151199128208
 21
865.7597271196801
 31
0.0
  0
LINE
  5
60C7
102
{ACAD_REACTORS
330
61D5
102
}
330
A
100
AcDbEntity
  8
MODEL
100
AcDbLine
 10
495.2281199128504
 20
864.6637271197187
 30
0.0
 11
493.7431199128207
 21
864.2617271198333
 31
0.0
  0
LINE
  5
60C8
102
{ACAD_REACTORS
330
61D5
102
}
330
A
100
AcDbEntity
  8
MODEL
100
AcDbLine
 10
493.7431199128207
 20
884.1137271197886
 30
0.0
 11
495.2281199128504
 21
883.7117271199031
 31
0.0
  0
LINE
  5
60C9
102
{ACAD_REACTORS
330
61D5
102
}
330
A
100
AcDbEntity
  8
MODEL
100
AcDbLine
 10
492.258119912791
 20
864.6637271197187
 30
0.0
 11
491.1711199128206
 21
865.7597271196801
 31
0.0
  0
LINE
  5
60CA
102
{ACAD_REACTORS
330
61D5
102
}
330
A
100
AcDbEntity
  8
MODEL
100
AcDbLine
 10
491.1711199128206
 20
882.6157271196507
 30
0.0
 11
492.258119912791
 21
883.7117271199031
 31
0.0
  0
LINE
  5
60CB
102
{ACAD_REACTORS
330
61D5
102
}
330
A
100
AcDbEntity
  8
MODEL
100
AcDbLine
 10
490.7921199128634
 20
867.1877271196945
 30
0.0
 11
490.7431199128644
 21
867.1877271196945
 31
0.0
  0
LINE
  5
60CC
102
{ACAD_REACTORS
330
61D5
102
}
330
A
100
AcDbEntity
  8
MODEL
100
AcDbLine
 10
490.7731199128341
 20
867.3257271198463
 30
0.0
 11
490.7921199128634
 21
867.1877271196945
 31
0.0
  0
LINE
  5
60CD
102
{ACAD_REACTORS
330
61D5
102
}
330
A
100
AcDbEntity
  8
MODEL
100
AcDbLine
 10
475.7431199129371
 20
884.1877271198109
 30
0.0
 11
483.7431199128208
 21
884.1877271198109
 31
0.0
  0
LINE
  5
60CE
102
{ACAD_REACTORS
330
61D5
102
}
330
A
100
AcDbEntity
  8
MODEL
100
AcDbLine
 10
483.7431199128208
 20
864.1877271198109
 30
0.0
 11
475.7431199129371
 21
864.1877271198109
 31
0.0
  0
LINE
  5
60CF
102
{ACAD_REACTORS
330
61D5
102
}
330
A
100
AcDbEntity
  8
MODEL
100
AcDbLine
 10
475.7431199129371
 20
856.2707271196496
 30
0.0
 11
475.5331199128579
 21
855.1637271198933
 31
0.0
  0
LINE
  5
60D0
102
{ACAD_REACTORS
330
61D5
102
}
330
A
100
AcDbEntity
  8
MODEL
100
AcDbLine
 10
475.7431199129371
 20
856.8817271198577
 30
0.0
 11
475.7431199129371
 21
856.2707271196496
 31
0.0
  0
LINE
  5
60D1
102
{ACAD_REACTORS
330
61D5
102
}
330
A
100
AcDbEntity
  8
MODEL
100
AcDbLine
 10
475.7431199129371
 20
858.671727119895
 30
0.0
 11
475.7431199129371
 21
856.8817271198577
 31
0.0
  0
LINE
  5
60D2
102
{ACAD_REACTORS
330
61D5
102
}
330
A
100
AcDbEntity
  8
MODEL
100
AcDbLine
 10
475.7431199129371
 20
861.5187271197874
 30
0.0
 11
475.7431199129371
 21
858.671727119895
 31
0.0
  0
LINE
  5
60D3
102
{ACAD_REACTORS
330
61D5
102
}
330
A
100
AcDbEntity
  8
MODEL
100
AcDbLine
 10
475.7431199129371
 20
865.2297271196812
 30
0.0
 11
475.7431199129371
 21
861.5187271197874
 31
0.0
  0
LINE
  5
60D4
102
{ACAD_REACTORS
330
61D5
102
}
330
A
100
AcDbEntity
  8
MODEL
100
AcDbLine
 10
475.7431199129371
 20
869.5507271197357
 30
0.0
 11
475.7431199129371
 21
865.2297271196812
 31
0.0
  0
LINE
  5
60D5
102
{ACAD_REACTORS
330
61D5
102
}
330
A
100
AcDbEntity
  8
MODEL
100
AcDbLine
 10
475.7431199129371
 20
874.1877271198109
 30
0.0
 11
475.7431199129371
 21
869.5507271197357
 31
0.0
  0
LINE
  5
60D6
102
{ACAD_REACTORS
330
61D5
102
}
330
A
100
AcDbEntity
  8
MODEL
100
AcDbLine
 10
475.7431199129371
 20
878.8247271197406
 30
0.0
 11
475.7431199129371
 21
874.1877271198109
 31
0.0
  0
LINE
  5
60D7
102
{ACAD_REACTORS
330
61D5
102
}
330
A
100
AcDbEntity
  8
MODEL
100
AcDbLine
 10
475.7431199129371
 20
883.1457271196496
 30
0.0
 11
475.7431199129371
 21
878.8247271197406
 31
0.0
  0
LINE
  5
60D8
102
{ACAD_REACTORS
330
61D5
102
}
330
A
100
AcDbEntity
  8
MODEL
100
AcDbLine
 10
474.9251199127924
 20
854.1647271197371
 30
0.0
 11
473.9761199128281
 21
853.3717271197611
 31
0.0
  0
LINE
  5
60D9
102
{ACAD_REACTORS
330
61D5
102
}
330
A
100
AcDbEntity
  8
MODEL
100
AcDbLine
 10
472.7821199128685
 20
852.8627271198866
 30
0.0
 11
471.4571199127988
 21
852.6877271197236
 31
0.0
  0
LINE
  5
60DA
102
{ACAD_REACTORS
330
61D5
102
}
330
A
100
AcDbEntity
  8
MODEL
100
AcDbLine
 10
473.9761199128281
 20
853.3717271197611
 30
0.0
 11
472.7821199128685
 21
852.8627271198866
 31
0.0
  0
LINE
  5
60DB
102
{ACAD_REACTORS
330
61D5
102
}
330
A
100
AcDbEntity
  8
MODEL
100
AcDbLine
 10
475.5331199128579
 20
855.1637271198933
 30
0.0
 11
474.9251199127924
 21
854.1647271197371
 31
0.0
  0
LINE
  5
60DC
102
{ACAD_REACTORS
330
61D5
102
}
330
A
100
AcDbEntity
  8
MODEL
100
AcDbLine
 10
490.7431199128644
 20
867.1877271196945
 30
0.0
 11
483.7431199128208
 21
864.1877271198109
 31
0.0
  0
LINE
  5
60DD
102
{ACAD_REACTORS
330
61D5
102
}
330
A
100
AcDbEntity
  8
MODEL
100
AcDbLine
 10
490.7431199128644
 20
880.9487271196349
 30
0.0
 11
490.7431199128644
 21
867.1877271196945
 31
0.0
  0
LINE
  5
60DE
102
{ACAD_REACTORS
330
61D5
102
}
330
A
100
AcDbEntity
  8
MODEL
100
AcDbLine
 10
490.7431199128644
 20
881.1877271199273
 30
0.0
 11
490.7431199128644
 21
880.9487271196349
 31
0.0
  0
LINE
  5
60DF
102
{ACAD_REACTORS
330
61D5
102
}
330
A
100
AcDbEntity
  8
MODEL
100
AcDbLine
 10
483.7431199128208
 20
884.1877271198109
 30
0.0
 11
490.7431199128644
 21
881.1877271199273
 31
0.0
  0
LINE
  5
60E0
102
{ACAD_REACTORS
330
61D5
102
}
330
A
100
AcDbEntity
  8
MODEL
100
AcDbLine
 10
490.7431199128644
 20
881.1877271199273
 30
0.0
 11
490.7921199128634
 21
881.1877271199273
 31
0.0
  0
LINE
  5
60E1
102
{ACAD_REACTORS
330
61D5
102
}
330
A
100
AcDbEntity
  8
MODEL
100
AcDbLine
 10
490.7921199128634
 20
881.1877271199273
 30
0.0
 11
491.1711199128206
 21
882.6157271196507
 31
0.0
  0
LINE
  5
60E2
102
{ACAD_REACTORS
330
61D5
102
}
330
A
100
AcDbEntity
  8
MODEL
100
AcDbLine
 10
491.1711199128206
 20
865.7597271196801
 30
0.0
 11
490.7921199128634
 21
867.1877271196945
 31
0.0
  0
LINE
  5
60E3
102
{ACAD_REACTORS
330
61D5
102
}
330
A
100
AcDbEntity
  8
MODEL
100
AcDbLine
 10
490.7921199128634
 20
867.1877271196945
 30
0.0
 11
490.7731199128341
 21
867.3257271198463
 31
0.0
  0
LINE
  5
60E4
102
{ACAD_REACTORS
330
61D5
102
}
330
A
100
AcDbEntity
  8
MODEL
100
AcDbLine
 10
492.258119912791
 20
883.7117271199031
 30
0.0
 11
493.7431199128207
 21
884.1137271197886
 31
0.0
  0
LINE
  5
60E5
102
{ACAD_REACTORS
330
61D5
102
}
330
A
100
AcDbEntity
  8
MODEL
100
AcDbLine
 10
493.7431199128207
 20
864.2617271198333
 30
0.0
 11
492.258119912791
 21
864.6637271197187
 31
0.0
  0
LINE
  5
60E6
102
{ACAD_REACTORS
330
61D5
102
}
330
A
100
AcDbEntity
  8
MODEL
100
AcDbLine
 10
495.2281199128504
 20
883.7117271199031
 30
0.0
 11
496.3151199128208
 21
882.6157271196507
 31
0.0
  0
LINE
  5
60E7
102
{ACAD_REACTORS
330
61D5
102
}
330
A
100
AcDbEntity
  8
MODEL
100
AcDbLine
 10
496.3151199128208
 20
865.7597271196801
 30
0.0
 11
495.2281199128504
 21
864.6637271197187
 31
0.0
  0
LINE
  5
60E8
102
{ACAD_REACTORS
330
61D5
102
}
330
A
100
AcDbEntity
  8
MODEL
100
AcDbLine
 10
496.7431199128498
 20
867.1877271196945
 30
0.0
 11
496.6941199128507
 21
867.1877271196945
 31
0.0
  0
LINE
  5
60E9
102
{ACAD_REACTORS
330
61D5
102
}
330
A
100
AcDbEntity
  8
MODEL
100
AcDbLine
 10
496.6941199128507
 20
881.1877271199273
 30
0.0
 11
496.7431199128498
 21
881.1877271199273
 31
0.0
  0
LINE
  5
60EA
102
{ACAD_REACTORS
330
61D5
102
}
330
A
100
AcDbEntity
  8
MODEL
100
AcDbLine
 10
503.7431199128207
 20
883.8467271199124
 30
0.0
 11
503.7431199128207
 21
882.8477271197562
 31
0.0
  0
LINE
  5
60EB
102
{ACAD_REACTORS
330
61D5
102
}
330
A
100
AcDbEntity
  8
MODEL
100
AcDbLine
 10
509.8431199128991
 20
863.3047271199257
 30
0.0
 11
510.3351199129122
 21
863.1877271198982
 31
0.0
  0
LINE
  5
60EC
102
{ACAD_REACTORS
330
61D5
102
}
330
A
100
AcDbEntity
  8
MODEL
100
AcDbLine
 10
512.2611199129335
 20
863.1877271198982
 30
0.0
 11
513.1071199128075
 21
863.2847271197033
 31
0.0
  0
LINE
  5
60ED
102
{ACAD_REACTORS
330
61D5
102
}
330
A
100
AcDbEntity
  8
MODEL
100
AcDbLine
 10
513.1071199128075
 20
863.2847271197033
 30
0.0
 11
513.6961199127711
 21
863.1877271198982
 31
0.0
  0
LINE
  5
60EE
102
{ACAD_REACTORS
330
61D5
102
}
330
A
100
AcDbEntity
  8
MODEL
100
AcDbLine
 10
515.990119912809
 20
863.1877271198982
 30
0.0
 11
516.5791199127727
 21
863.2847271197033
 31
0.0
  0
LINE
  5
60EF
102
{ACAD_REACTORS
330
61D5
102
}
330
A
100
AcDbEntity
  8
MODEL
100
AcDbLine
 10
516.5791199127727
 20
863.2847271197033
 30
0.0
 11
517.4251199127923
 21
863.1877271198982
 31
0.0
  0
LINE
  5
60F0
102
{ACAD_REACTORS
330
61D5
102
}
330
A
100
AcDbEntity
  8
MODEL
100
AcDbLine
 10
519.3511199128864
 20
863.1877271198982
 30
0.0
 11
519.8431199128265
 21
863.3047271199257
 31
0.0
  0
LINE
  5
60F1
102
{ACAD_REACTORS
330
61D5
102
}
330
A
100
AcDbEntity
  8
MODEL
100
AcDbLine
 10
519.8431199128265
 20
863.3047271199257
 30
0.0
 11
520.7721199129321
 21
863.1877271198982
 31
0.0
  0
LINE
  5
60F2
102
{ACAD_REACTORS
330
61D5
102
}
330
A
100
AcDbEntity
  8
MODEL
100
AcDbLine
 10
522.7191199128592
 20
863.1877271198982
 30
0.0
 11
522.3431199128265
 21
863.1877271198982
 31
0.0
  0
LINE
  5
60F3
102
{ACAD_REACTORS
330
61D5
102
}
330
A
100
AcDbEntity
  8
MODEL
100
AcDbLine
 10
523.8791199128775
 20
863.1877271198982
 30
0.0
 11
524.2401199129256
 21
863.2257271198114
 31
0.0
  0
LINE
  5
60F4
102
{ACAD_REACTORS
330
61D5
102
}
330
A
100
AcDbEntity
  8
MODEL
100
AcDbLine
 10
524.2401199129256
 20
863.2257271198114
 30
0.0
 11
524.2651199128034
 21
863.1877271198982
 31
0.0
  0
LINE
  5
60F5
102
{ACAD_REACTORS
330
61D5
102
}
330
A
100
AcDbEntity
  8
MODEL
100
AcDbLine
 10
525.4501199127719
 20
863.5807271197928
 30
0.0
 11
524.937119912853
 21
863.1877271198982
 31
0.0
  0
LINE
  5
60F6
102
{ACAD_REACTORS
330
61D5
102
}
330
A
100
AcDbEntity
  8
MODEL
100
AcDbLine
 10
524.937119912853
 20
863.1877271198982
 30
0.0
 11
524.4311199129027
 21
863.1877271198982
 31
0.0
  0
LINE
  5
60F7
102
{ACAD_REACTORS
330
61D5
102
}
330
A
100
AcDbEntity
  8
MODEL
100
AcDbLine
 10
529.8431199128265
 20
874.1877271198109
 30
0.0
 11
529.332119912857
 21
870.3057271197986
 31
0.0
  0
LINE
  5
60F8
102
{ACAD_REACTORS
330
61D5
102
}
330
A
100
AcDbEntity
  8
MODEL
100
AcDbLine
 10
527.8331199128172
 20
881.6877271198109
 30
0.0
 11
529.332119912857
 21
878.0697271198233
 31
0.0
  0
LINE
  5
60F9
102
{ACAD_REACTORS
330
61D5
102
}
330
A
100
AcDbEntity
  8
MODEL
100
AcDbLine
 10
525.4501199127719
 20
884.7947271196836
 30
0.0
 11
527.8331199128172
 21
881.6877271198109
 31
0.0
  0
LINE
  5
60FA
102
{ACAD_REACTORS
330
61D5
102
}
330
A
100
AcDbEntity
  8
MODEL
100
AcDbLine
 10
529.332119912857
 20
878.0697271198233
 30
0.0
 11
529.8431199128265
 21
874.1877271198109
 31
0.0
  0
LINE
  5
60FB
102
{ACAD_REACTORS
330
61D5
102
}
330
A
100
AcDbEntity
  8
MODEL
100
AcDbLine
 10
527.8331199128172
 20
866.6877271198109
 30
0.0
 11
525.4501199127719
 21
863.5807271197928
 31
0.0
  0
LINE
  5
60FC
102
{ACAD_REACTORS
330
61D5
102
}
330
A
100
AcDbEntity
  8
MODEL
100
AcDbLine
 10
529.332119912857
 20
870.3057271197986
 30
0.0
 11
527.8331199128172
 21
866.6877271198109
 31
0.0
  0
LINE
  5
60FD
102
{ACAD_REACTORS
330
61D5
102
}
330
A
100
AcDbEntity
  8
MODEL
100
AcDbLine
 10
503.7431199128207
 20
884.1517271198472
 30
0.0
 11
504.2361199128084
 21
884.7947271196836
 31
0.0
  0
LINE
  5
60FE
102
{ACAD_REACTORS
330
61D5
102
}
330
A
100
AcDbEntity
  8
MODEL
100
AcDbLine
 10
524.2651199128034
 20
863.1877271198982
 30
0.0
 11
524.2401199129256
 21
863.2257271198114
 31
0.0
  0
LINE
  5
60FF
102
{ACAD_REACTORS
330
61D5
102
}
330
A
100
AcDbEntity
  8
MODEL
100
AcDbLine
 10
524.4311199129027
 20
863.1877271198982
 30
0.0
 11
524.2651199128034
 21
863.1877271198982
 31
0.0
  0
LINE
  5
6100
102
{ACAD_REACTORS
330
61D5
102
}
330
A
100
AcDbEntity
  8
MODEL
100
AcDbLine
 10
523.8791199128775
 20
863.1877271198982
 30
0.0
 11
522.7191199128592
 21
863.1877271198982
 31
0.0
  0
LINE
  5
6101
102
{ACAD_REACTORS
330
61D5
102
}
330
A
100
AcDbEntity
  8
MODEL
100
AcDbLine
 10
524.2401199129256
 20
863.2257271198114
 30
0.0
 11
523.8791199128775
 21
863.1877271198982
 31
0.0
  0
LINE
  5
6102
102
{ACAD_REACTORS
330
61D5
102
}
330
A
100
AcDbEntity
  8
MODEL
100
AcDbLine
 10
520.7721199129321
 20
863.1877271198982
 30
0.0
 11
519.8431199128265
 21
863.3047271199257
 31
0.0
  0
LINE
  5
6103
102
{ACAD_REACTORS
330
61D5
102
}
330
A
100
AcDbEntity
  8
MODEL
100
AcDbLine
 10
522.3431199128265
 20
863.1877271198982
 30
0.0
 11
520.7721199129321
 21
863.1877271198982
 31
0.0
  0
LINE
  5
6104
102
{ACAD_REACTORS
330
61D5
102
}
330
A
100
AcDbEntity
  8
MODEL
100
AcDbLine
 10
519.3511199128864
 20
863.1877271198982
 30
0.0
 11
518.7251199128386
 21
863.1877271198982
 31
0.0
  0
LINE
  5
6105
102
{ACAD_REACTORS
330
61D5
102
}
330
A
100
AcDbEntity
  8
MODEL
100
AcDbLine
 10
519.8431199128265
 20
863.3047271199257
 30
0.0
 11
519.3511199128864
 21
863.1877271198982
 31
0.0
  0
LINE
  5
6106
102
{ACAD_REACTORS
330
61D5
102
}
330
A
100
AcDbEntity
  8
MODEL
100
AcDbLine
 10
517.4251199127923
 20
863.1877271198982
 30
0.0
 11
516.5791199127727
 21
863.2847271197033
 31
0.0
  0
LINE
  5
6107
102
{ACAD_REACTORS
330
61D5
102
}
330
A
100
AcDbEntity
  8
MODEL
100
AcDbLine
 10
518.7251199128386
 20
863.1877271198982
 30
0.0
 11
517.4251199127923
 21
863.1877271198982
 31
0.0
  0
LINE
  5
6108
102
{ACAD_REACTORS
330
61D5
102
}
330
A
100
AcDbEntity
  8
MODEL
100
AcDbLine
 10
515.990119912809
 20
863.1877271198982
 30
0.0
 11
514.8431199128265
 21
863.1877271198982
 31
0.0
  0
LINE
  5
6109
102
{ACAD_REACTORS
330
61D5
102
}
330
A
100
AcDbEntity
  8
MODEL
100
AcDbLine
 10
516.5791199127727
 20
863.2847271197033
 30
0.0
 11
515.990119912809
 21
863.1877271198982
 31
0.0
  0
LINE
  5
610A
102
{ACAD_REACTORS
330
61D5
102
}
330
A
100
AcDbEntity
  8
MODEL
100
AcDbLine
 10
513.6961199127711
 20
863.1877271198982
 30
0.0
 11
513.1071199128075
 21
863.2847271197033
 31
0.0
  0
LINE
  5
610B
102
{ACAD_REACTORS
330
61D5
102
}
330
A
100
AcDbEntity
  8
MODEL
100
AcDbLine
 10
514.8431199128265
 20
863.1877271198982
 30
0.0
 11
513.6961199127711
 21
863.1877271198982
 31
0.0
  0
LINE
  5
610C
102
{ACAD_REACTORS
330
61D5
102
}
330
A
100
AcDbEntity
  8
MODEL
100
AcDbLine
 10
512.2611199129335
 20
863.1877271198982
 30
0.0
 11
510.9611199128869
 21
863.1877271198982
 31
0.0
  0
LINE
  5
610D
102
{ACAD_REACTORS
330
61D5
102
}
330
A
100
AcDbEntity
  8
MODEL
100
AcDbLine
 10
513.1071199128075
 20
863.2847271197033
 30
0.0
 11
512.2611199129335
 21
863.1877271198982
 31
0.0
  0
LINE
  5
610E
102
{ACAD_REACTORS
330
61D5
102
}
330
A
100
AcDbEntity
  8
MODEL
100
AcDbLine
 10
510.3351199129122
 20
863.1877271198982
 30
0.0
 11
509.8431199128991
 21
863.3047271199257
 31
0.0
  0
LINE
  5
610F
102
{ACAD_REACTORS
330
61D5
102
}
330
A
100
AcDbEntity
  8
MODEL
100
AcDbLine
 10
510.9611199128869
 20
863.1877271198982
 30
0.0
 11
510.3351199129122
 21
863.1877271198982
 31
0.0
  0
LINE
  5
6110
102
{ACAD_REACTORS
330
61D5
102
}
330
A
100
AcDbEntity
  8
MODEL
100
AcDbLine
 10
508.9141199127937
 20
863.1877271198982
 30
0.0
 11
507.3431199128265
 21
863.1877271198982
 31
0.0
  0
LINE
  5
6111
102
{ACAD_REACTORS
330
61D5
102
}
330
A
100
AcDbEntity
  8
MODEL
100
AcDbLine
 10
509.8431199128991
 20
863.3047271199257
 30
0.0
 11
508.9141199127937
 21
863.1877271198982
 31
0.0
  0
LINE
  5
6112
102
{ACAD_REACTORS
330
61D5
102
}
330
A
100
AcDbEntity
  8
MODEL
100
AcDbLine
 10
507.3431199128265
 20
863.1877271198982
 30
0.0
 11
506.9671199128663
 21
863.1877271198982
 31
0.0
  0
LINE
  5
6113
102
{ACAD_REACTORS
330
61D5
102
}
330
A
100
AcDbEntity
  8
MODEL
100
AcDbLine
 10
504.2361199128084
 20
863.5807271197928
 30
0.0
 11
503.7431199128207
 21
864.2237271197746
 31
0.0
  0
LINE
  5
6114
102
{ACAD_REACTORS
330
61D5
102
}
330
A
100
AcDbEntity
  8
MODEL
100
AcDbLine
 10
504.7491199128729
 20
863.1877271198982
 30
0.0
 11
504.2361199128084
 21
863.5807271197928
 31
0.0
  0
LINE
  5
6115
102
{ACAD_REACTORS
330
61D5
102
}
330
A
100
AcDbEntity
  8
MODEL
100
AcDbLine
 10
505.2551199128231
 20
863.1877271198982
 30
0.0
 11
504.7491199128729
 21
863.1877271198982
 31
0.0
  0
LINE
  5
6116
102
{ACAD_REACTORS
330
61D5
102
}
330
A
100
AcDbEntity
  8
MODEL
100
AcDbLine
 10
505.4461199128002
 20
863.2257271198114
 30
0.0
 11
505.8071199128483
 21
863.1877271198982
 31
0.0
  0
LINE
  5
6117
102
{ACAD_REACTORS
330
61D5
102
}
330
A
100
AcDbEntity
  8
MODEL
100
AcDbLine
 10
505.4211199129224
 20
863.1877271198982
 30
0.0
 11
505.4461199128002
 21
863.2257271198114
 31
0.0
  0
LINE
  5
6118
102
{ACAD_REACTORS
330
61D5
102
}
330
A
100
AcDbEntity
  8
MODEL
100
AcDbLine
 10
524.8431199128265
 20
863.1877271198982
 30
0.0
 11
524.8431199128263
 21
624.1877271198109
 31
0.0
  0
LINE
  5
6119
102
{ACAD_REACTORS
330
61D5
102
}
330
A
100
AcDbEntity
  8
MODEL
100
AcDbLine
 10
504.8431199128991
 20
624.1877271198108
 30
0.0
 11
504.8431199128991
 21
863.1877271198982
 31
0.0
  0
LINE
  5
611A
102
{ACAD_REACTORS
330
61D5
102
}
330
A
100
AcDbEntity
  8
MODEL
100
AcDbLine
 10
475.7431199129371
 20
886.8567271196889
 30
0.0
 11
475.7431199129371
 21
883.1457271196496
 31
0.0
  0
LINE
  5
611B
102
{ACAD_REACTORS
330
61D5
102
}
330
A
100
AcDbEntity
  8
MODEL
100
AcDbLine
 10
475.7431199129371
 20
889.7037271197269
 30
0.0
 11
475.7431199129371
 21
886.8567271196889
 31
0.0
  0
LINE
  5
611C
102
{ACAD_REACTORS
330
61D5
102
}
330
A
100
AcDbEntity
  8
MODEL
100
AcDbLine
 10
475.7431199129371
 20
891.4937271197641
 30
0.0
 11
475.7431199129371
 21
889.7037271197269
 31
0.0
  0
LINE
  5
611D
102
{ACAD_REACTORS
330
61D5
102
}
330
A
100
AcDbEntity
  8
MODEL
100
AcDbLine
 10
475.7431199129371
 20
892.1047271196812
 30
0.0
 11
475.7431199129371
 21
891.4937271197641
 31
0.0
  0
LINE
  5
611E
102
{ACAD_REACTORS
330
61D5
102
}
330
A
100
AcDbEntity
  8
MODEL
100
AcDbLine
 10
475.5331199128579
 20
893.2117271197285
 30
0.0
 11
475.7431199129371
 21
892.1047271196812
 31
0.0
  0
LINE
  5
611F
102
{ACAD_REACTORS
330
61D5
102
}
330
A
100
AcDbEntity
  8
MODEL
100
AcDbLine
 10
473.9761199128281
 20
895.0037271197152
 30
0.0
 11
474.9251199127924
 21
894.2107271198847
 31
0.0
  0
LINE
  5
6120
102
{ACAD_REACTORS
330
61D5
102
}
330
A
100
AcDbEntity
  8
MODEL
100
AcDbLine
 10
471.4571199127988
 20
895.6877271198982
 30
0.0
 11
472.7821199128685
 21
895.5127271197352
 31
0.0
  0
LINE
  5
6121
102
{ACAD_REACTORS
330
61D5
102
}
330
A
100
AcDbEntity
  8
MODEL
100
AcDbLine
 10
472.7821199128685
 20
895.5127271197352
 30
0.0
 11
473.9761199128281
 21
895.0037271197152
 31
0.0
  0
LINE
  5
6122
102
{ACAD_REACTORS
330
61D5
102
}
330
A
100
AcDbEntity
  8
MODEL
100
AcDbLine
 10
474.9251199127924
 20
894.2107271198847
 30
0.0
 11
475.5331199128579
 21
893.2117271197285
 31
0.0
  0
LINE
  5
6123
102
{ACAD_REACTORS
330
61D5
102
}
330
A
100
AcDbEntity
  8
MODEL
100
AcDbLine
 10
504.2361199128084
 20
884.7947271196836
 30
0.0
 11
507.3431199128265
 21
887.1777271198016
 31
0.0
  0
LINE
  5
6124
102
{ACAD_REACTORS
330
61D5
102
}
330
A
100
AcDbEntity
  8
MODEL
100
AcDbLine
 10
510.9611199128869
 20
888.6767271196959
 30
0.0
 11
514.8431199128265
 21
889.1877271196654
 31
0.0
  0
LINE
  5
6125
102
{ACAD_REACTORS
330
61D5
102
}
330
A
100
AcDbEntity
  8
MODEL
100
AcDbLine
 10
518.7251199128386
 20
888.6767271196959
 30
0.0
 11
522.3431199128265
 21
887.1777271198016
 31
0.0
  0
LINE
  5
6126
102
{ACAD_REACTORS
330
61D5
102
}
330
A
100
AcDbEntity
  8
MODEL
100
AcDbLine
 10
522.3431199128265
 20
887.1777271198016
 30
0.0
 11
525.4501199127719
 21
884.7947271196836
 31
0.0
  0
LINE
  5
6127
102
{ACAD_REACTORS
330
61D5
102
}
330
A
100
AcDbEntity
  8
MODEL
100
AcDbLine
 10
514.8431199128265
 20
889.1877271196654
 30
0.0
 11
518.7251199128386
 21
888.6767271196959
 31
0.0
  0
LINE
  5
6128
102
{ACAD_REACTORS
330
61D5
102
}
330
A
100
AcDbEntity
  8
MODEL
100
AcDbLine
 10
507.3431199128265
 20
887.1777271198016
 30
0.0
 11
510.9611199128869
 21
888.6767271196959
 31
0.0
  0
LINE
  5
6129
102
{ACAD_REACTORS
330
61D5
102
}
330
A
100
AcDbEntity
  8
MODEL
100
AcDbLine
 10
469.7431199128069
 20
849.1877271196665
 30
0.0
 11
469.4981199128843
 21
847.6427271199157
 31
0.0
  0
LINE
  5
612A
102
{ACAD_REACTORS
330
61D5
102
}
330
A
100
AcDbEntity
  8
MODEL
100
AcDbLine
 10
469.7431199128069
 20
850.0397271198256
 30
0.0
 11
469.7431199128069
 21
849.1877271196665
 31
0.0
  0
LINE
  5
612B
102
{ACAD_REACTORS
330
61D5
102
}
330
A
100
AcDbEntity
  8
MODEL
100
AcDbLine
 10
469.743119912807
 20
852.5367271198286
 30
0.0
 11
469.7431199128069
 21
850.0397271198256
 31
0.0
  0
LINE
  5
612C
102
{ACAD_REACTORS
330
61D5
102
}
330
A
100
AcDbEntity
  8
MODEL
100
AcDbLine
 10
469.743119912807
 20
856.5097271197975
 30
0.0
 11
469.743119912807
 21
852.5367271198286
 31
0.0
  0
LINE
  5
612D
102
{ACAD_REACTORS
330
61D5
102
}
330
A
100
AcDbEntity
  8
MODEL
100
AcDbLine
 10
469.743119912807
 20
861.687727119812
 30
0.0
 11
469.743119912807
 21
856.5097271197975
 31
0.0
  0
LINE
  5
612E
102
{ACAD_REACTORS
330
61D5
102
}
330
A
100
AcDbEntity
  8
MODEL
100
AcDbLine
 10
469.743119912807
 20
867.71772711984
 30
0.0
 11
469.743119912807
 21
861.687727119812
 31
0.0
  0
LINE
  5
612F
102
{ACAD_REACTORS
330
61D5
102
}
330
A
100
AcDbEntity
  8
MODEL
100
AcDbLine
 10
469.743119912807
 20
874.187727119812
 30
0.0
 11
469.743119912807
 21
867.71772711984
 31
0.0
  0
LINE
  5
6130
102
{ACAD_REACTORS
330
61D5
102
}
330
A
100
AcDbEntity
  8
MODEL
100
AcDbLine
 10
469.7431199128071
 20
880.657727119784
 30
0.0
 11
469.743119912807
 21
874.187727119812
 31
0.0
  0
LINE
  5
6131
102
{ACAD_REACTORS
330
61D5
102
}
330
A
100
AcDbEntity
  8
MODEL
100
AcDbLine
 10
469.7431199128071
 20
886.687727119812
 30
0.0
 11
469.7431199128071
 21
880.657727119784
 31
0.0
  0
LINE
  5
6132
102
{ACAD_REACTORS
330
61D5
102
}
330
A
100
AcDbEntity
  8
MODEL
100
AcDbLine
 10
469.7431199128071
 20
891.865727119681
 30
0.0
 11
469.7431199128071
 21
886.687727119812
 31
0.0
  0
LINE
  5
6133
102
{ACAD_REACTORS
330
61D5
102
}
330
A
100
AcDbEntity
  8
MODEL
100
AcDbLine
 10
469.7431199128071
 20
895.8387271197954
 30
0.0
 11
469.7431199128071
 21
891.865727119681
 31
0.0
  0
LINE
  5
6134
102
{ACAD_REACTORS
330
61D5
102
}
330
A
100
AcDbEntity
  8
MODEL
100
AcDbLine
 10
469.7431199128072
 20
898.3357271197985
 30
0.0
 11
469.7431199128071
 21
895.8387271197954
 31
0.0
  0
LINE
  5
6135
102
{ACAD_REACTORS
330
61D5
102
}
330
A
100
AcDbEntity
  8
MODEL
100
AcDbLine
 10
469.7431199128072
 20
899.1877271196665
 30
0.0
 11
469.7431199128072
 21
898.3357271197985
 31
0.0
  0
LINE
  5
6136
102
{ACAD_REACTORS
330
61D5
102
}
330
A
100
AcDbEntity
  8
MODEL
100
AcDbLine
 10
469.4981199128846
 20
900.7327271197084
 30
0.0
 11
469.7431199128072
 21
899.1877271196665
 31
0.0
  0
LINE
  5
6137
102
{ACAD_REACTORS
330
61D5
102
}
330
A
100
AcDbEntity
  8
MODEL
100
AcDbLine
 10
467.6821199129221
 20
903.232727119854
 30
0.0
 11
468.7881199128491
 21
902.1267271198542
 31
0.0
  0
LINE
  5
6138
102
{ACAD_REACTORS
330
61D5
102
}
330
A
100
AcDbEntity
  8
MODEL
100
AcDbLine
 10
468.7881199128488
 20
846.2487271197698
 30
0.0
 11
467.6821199129218
 21
845.1427271197701
 31
0.0
  0
LINE
  5
6139
102
{ACAD_REACTORS
330
61D5
102
}
330
A
100
AcDbEntity
  8
MODEL
100
AcDbLine
 10
464.7431199128072
 20
904.187727119812
 30
0.0
 11
466.2881199129219
 21
903.9427271198167
 31
0.0
  0
LINE
  5
613A
102
{ACAD_REACTORS
330
61D5
102
}
330
A
100
AcDbEntity
  8
MODEL
100
AcDbLine
 10
466.2881199129216
 20
844.4327271198074
 30
0.0
 11
464.7431199128069
 21
844.187727119812
 31
0.0
  0
LINE
  5
613B
102
{ACAD_REACTORS
330
61D5
102
}
330
A
100
AcDbEntity
  8
MODEL
100
AcDbLine
 10
462.7431199128363
 20
904.187727119812
 30
0.0
 11
464.7431199128072
 21
904.187727119812
 31
0.0
  0
LINE
  5
613C
102
{ACAD_REACTORS
330
61D5
102
}
330
A
100
AcDbEntity
  8
MODEL
100
AcDbLine
 10
464.7431199128069
 20
844.187727119812
 30
0.0
 11
462.743119912836
 21
844.187727119812
 31
0.0
  0
LINE
  5
613D
102
{ACAD_REACTORS
330
61D5
102
}
330
A
100
AcDbEntity
  8
MODEL
100
AcDbLine
 10
467.6821199129218
 20
845.1427271197701
 30
0.0
 11
466.2881199129216
 21
844.4327271198074
 31
0.0
  0
LINE
  5
613E
102
{ACAD_REACTORS
330
61D5
102
}
330
A
100
AcDbEntity
  8
MODEL
100
AcDbLine
 10
466.2881199129219
 20
903.9427271198167
 30
0.0
 11
467.6821199129221
 21
903.232727119854
 31
0.0
  0
LINE
  5
613F
102
{ACAD_REACTORS
330
61D5
102
}
330
A
100
AcDbEntity
  8
MODEL
100
AcDbLine
 10
469.4981199128843
 20
847.6427271199157
 30
0.0
 11
468.7881199128488
 21
846.2487271197698
 31
0.0
  0
LINE
  5
6140
102
{ACAD_REACTORS
330
61D5
102
}
330
A
100
AcDbEntity
  8
MODEL
100
AcDbLine
 10
468.7881199128491
 20
902.1267271198542
 30
0.0
 11
469.4981199128846
 21
900.7327271197084
 31
0.0
  0
LINE
  5
6141
102
{ACAD_REACTORS
330
61D5
102
}
330
A
100
AcDbEntity
  8
MODEL
100
AcDbLine
 10
462.743119912836
 20
844.187727119812
 30
0.0
 11
462.7431199128363
 21
904.187727119812
 31
0.0
  0
LINE
  5
6142
102
{ACAD_REACTORS
330
61D5
102
}
330
A
100
AcDbEntity
  8
MODEL
100
AcDbLine
 10
471.4571199127988
 20
852.6877271197236
 30
0.0
 11
469.743119912807
 21
852.6877271197237
 31
0.0
  0
LINE
  5
6143
102
{ACAD_REACTORS
330
61D5
102
}
330
A
100
AcDbEntity
  8
MODEL
100
AcDbLine
 10
471.4571199127988
 20
895.6877271198982
 30
0.0
 11
469.7431199128071
 21
895.6877271198982
 31
0.0
  0
LINE
  5
6144
102
{ACAD_REACTORS
330
61D5
102
}
330
A
100
AcDbEntity
  8
MODEL
100
AcDbLine
 10
505.8071199128483
 20
385.1877271197234
 30
0.0
 11
505.4461199128
 21
385.1497271198102
 31
0.0
  0
LINE
  5
6145
102
{ACAD_REACTORS
330
61D5
102
}
330
A
100
AcDbEntity
  8
MODEL
100
AcDbLine
 10
506.9671199128661
 20
385.1877271197234
 30
0.0
 11
505.8071199128483
 21
385.1877271197234
 31
0.0
  0
LINE
  5
6146
102
{ACAD_REACTORS
330
61D5
102
}
330
A
100
AcDbEntity
  8
MODEL
100
AcDbLine
 10
505.4211199129222
 20
385.1877271197234
 30
0.0
 11
505.2551199128229
 21
385.1877271197234
 31
0.0
  0
LINE
  5
6147
102
{ACAD_REACTORS
330
61D5
102
}
330
A
100
AcDbEntity
  8
MODEL
100
AcDbLine
 10
505.4461199128
 20
385.1497271198102
 30
0.0
 11
505.4211199129222
 21
385.1877271197234
 31
0.0
  0
LINE
  5
6148
102
{ACAD_REACTORS
330
61D5
102
}
330
A
100
AcDbEntity
  8
MODEL
100
AcDbLine
 10
508.9141199127937
 20
385.1877271197234
 30
0.0
 11
509.8431199128991
 21
385.0707271196959
 31
0.0
  0
LINE
  5
6149
102
{ACAD_REACTORS
330
61D5
102
}
330
A
100
AcDbEntity
  8
MODEL
100
AcDbLine
 10
503.7431199128207
 20
364.1877271198107
 30
0.0
 11
503.7431199128207
 21
364.5287271197092
 31
0.0
  0
LINE
  5
614A
102
{ACAD_REACTORS
330
61D5
102
}
330
A
100
AcDbEntity
  8
MODEL
100
AcDbLine
 10
496.7431199128496
 20
367.1877271196943
 30
0.0
 11
503.7431199128207
 21
364.1877271198107
 31
0.0
  0
LINE
  5
614B
102
{ACAD_REACTORS
330
61D5
102
}
330
A
100
AcDbEntity
  8
MODEL
100
AcDbLine
 10
503.7431199128207
 20
384.1877271198107
 30
0.0
 11
496.7431199128496
 21
381.1877271199271
 31
0.0
  0
LINE
  5
614C
102
{ACAD_REACTORS
330
61D5
102
}
330
A
100
AcDbEntity
  8
MODEL
100
AcDbLine
 10
503.7431199128207
 20
383.8467271199122
 30
0.0
 11
503.7431199128207
 21
384.1877271198107
 31
0.0
  0
LINE
  5
614D
102
{ACAD_REACTORS
330
61D5
102
}
330
A
100
AcDbEntity
  8
MODEL
100
AcDbLine
 10
496.7431199128496
 20
381.1877271199271
 30
0.0
 11
496.7431199128496
 21
367.1877271196943
 31
0.0
  0
LINE
  5
614E
102
{ACAD_REACTORS
330
61D5
102
}
330
A
100
AcDbEntity
  8
MODEL
100
AcDbLine
 10
503.7431199128207
 20
382.847727119756
 30
0.0
 11
503.7431199128207
 21
383.8467271199122
 31
0.0
  0
LINE
  5
614F
102
{ACAD_REACTORS
330
61D5
102
}
330
A
100
AcDbEntity
  8
MODEL
100
AcDbLine
 10
503.7431199128207
 20
381.258727119807
 30
0.0
 11
503.7431199128207
 21
382.847727119756
 31
0.0
  0
LINE
  5
6150
102
{ACAD_REACTORS
330
61D5
102
}
330
A
100
AcDbEntity
  8
MODEL
100
AcDbLine
 10
503.7431199128207
 20
379.1877271199562
 30
0.0
 11
503.7431199128207
 21
381.258727119807
 31
0.0
  0
LINE
  5
6151
102
{ACAD_REACTORS
330
61D5
102
}
330
A
100
AcDbEntity
  8
MODEL
100
AcDbLine
 10
503.7431199128207
 20
376.7757271199159
 30
0.0
 11
503.7431199128207
 21
379.1877271199562
 31
0.0
  0
LINE
  5
6152
102
{ACAD_REACTORS
330
61D5
102
}
330
A
100
AcDbEntity
  8
MODEL
100
AcDbLine
 10
503.7431199128207
 20
374.1877271198107
 30
0.0
 11
503.7431199128207
 21
376.7757271199159
 31
0.0
  0
LINE
  5
6153
102
{ACAD_REACTORS
330
61D5
102
}
330
A
100
AcDbEntity
  8
MODEL
100
AcDbLine
 10
503.7431199128207
 20
371.5997271197054
 30
0.0
 11
503.7431199128207
 21
374.1877271198107
 31
0.0
  0
LINE
  5
6154
102
{ACAD_REACTORS
330
61D5
102
}
330
A
100
AcDbEntity
  8
MODEL
100
AcDbLine
 10
503.7431199128207
 20
369.1877271199562
 30
0.0
 11
503.7431199128207
 21
371.5997271197054
 31
0.0
  0
LINE
  5
6155
102
{ACAD_REACTORS
330
61D5
102
}
330
A
100
AcDbEntity
  8
MODEL
100
AcDbLine
 10
503.7431199128207
 20
367.1167271198144
 30
0.0
 11
503.7431199128207
 21
369.1877271199562
 31
0.0
  0
LINE
  5
6156
102
{ACAD_REACTORS
330
61D5
102
}
330
A
100
AcDbEntity
  8
MODEL
100
AcDbLine
 10
503.7431199128207
 20
365.5277271198654
 30
0.0
 11
503.7431199128207
 21
367.1167271198144
 31
0.0
  0
LINE
  5
6157
102
{ACAD_REACTORS
330
61D5
102
}
330
A
100
AcDbEntity
  8
MODEL
100
AcDbLine
 10
496.3151199128206
 20
365.7597271199709
 30
0.0
 11
496.6941199128505
 21
367.1877271196943
 31
0.0
  0
LINE
  5
6158
102
{ACAD_REACTORS
330
61D5
102
}
330
A
100
AcDbEntity
  8
MODEL
100
AcDbLine
 10
496.6941199128505
 20
381.1877271199271
 30
0.0
 11
496.3151199128206
 21
382.6157271199415
 31
0.0
  0
LINE
  5
6159
102
{ACAD_REACTORS
330
61D5
102
}
330
A
100
AcDbEntity
  8
MODEL
100
AcDbLine
 10
495.2281199128504
 20
383.7117271199029
 30
0.0
 11
493.7431199128207
 21
384.1137271197883
 31
0.0
  0
LINE
  5
615A
102
{ACAD_REACTORS
330
61D5
102
}
330
A
100
AcDbEntity
  8
MODEL
100
AcDbLine
 10
493.7431199128205
 20
364.261727119833
 30
0.0
 11
495.2281199128502
 21
364.6637271197185
 31
0.0
  0
LINE
  5
615B
102
{ACAD_REACTORS
330
61D5
102
}
330
A
100
AcDbEntity
  8
MODEL
100
AcDbLine
 10
492.2581199127908
 20
383.7117271199029
 30
0.0
 11
491.1711199128206
 21
382.6157271199415
 31
0.0
  0
LINE
  5
615C
102
{ACAD_REACTORS
330
61D5
102
}
330
A
100
AcDbEntity
  8
MODEL
100
AcDbLine
 10
491.1711199128204
 20
365.7597271199709
 30
0.0
 11
492.2581199127908
 21
364.6637271197185
 31
0.0
  0
LINE
  5
615D
102
{ACAD_REACTORS
330
61D5
102
}
330
A
100
AcDbEntity
  8
MODEL
100
AcDbLine
 10
490.7921199128632
 20
381.1877271199271
 30
0.0
 11
490.7431199128641
 21
381.1877271199271
 31
0.0
  0
LINE
  5
615E
102
{ACAD_REACTORS
330
61D5
102
}
330
A
100
AcDbEntity
  8
MODEL
100
AcDbLine
 10
490.7731199128341
 20
381.0497271197753
 30
0.0
 11
490.7921199128632
 21
381.1877271199271
 31
0.0
  0
LINE
  5
615F
102
{ACAD_REACTORS
330
61D5
102
}
330
A
100
AcDbEntity
  8
MODEL
100
AcDbLine
 10
475.7431199129368
 20
364.1877271198107
 30
0.0
 11
483.7431199128205
 21
364.1877271198107
 31
0.0
  0
LINE
  5
6160
102
{ACAD_REACTORS
330
61D5
102
}
330
A
100
AcDbEntity
  8
MODEL
100
AcDbLine
 10
483.7431199128206
 20
384.1877271198107
 30
0.0
 11
475.7431199129369
 21
384.1877271198107
 31
0.0
  0
LINE
  5
6161
102
{ACAD_REACTORS
330
61D5
102
}
330
A
100
AcDbEntity
  8
MODEL
100
AcDbLine
 10
475.7431199129369
 20
392.104727119972
 30
0.0
 11
475.5331199128578
 21
393.2117271197283
 31
0.0
  0
LINE
  5
6162
102
{ACAD_REACTORS
330
61D5
102
}
330
A
100
AcDbEntity
  8
MODEL
100
AcDbLine
 10
475.7431199129369
 20
391.4937271197639
 30
0.0
 11
475.7431199129369
 21
392.104727119972
 31
0.0
  0
LINE
  5
6163
102
{ACAD_REACTORS
330
61D5
102
}
330
A
100
AcDbEntity
  8
MODEL
100
AcDbLine
 10
475.7431199129369
 20
389.7037271197266
 30
0.0
 11
475.7431199129369
 21
391.4937271197639
 31
0.0
  0
LINE
  5
6164
102
{ACAD_REACTORS
330
61D5
102
}
330
A
100
AcDbEntity
  8
MODEL
100
AcDbLine
 10
475.7431199129369
 20
386.8567271198342
 30
0.0
 11
475.7431199129369
 21
389.7037271197266
 31
0.0
  0
LINE
  5
6165
102
{ACAD_REACTORS
330
61D5
102
}
330
A
100
AcDbEntity
  8
MODEL
100
AcDbLine
 10
475.7431199129369
 20
383.1457271199404
 30
0.0
 11
475.7431199129369
 21
386.8567271198342
 31
0.0
  0
LINE
  5
6166
102
{ACAD_REACTORS
330
61D5
102
}
330
A
100
AcDbEntity
  8
MODEL
100
AcDbLine
 10
475.7431199129369
 20
378.8247271198859
 30
0.0
 11
475.7431199129369
 21
383.1457271199404
 31
0.0
  0
LINE
  5
6167
102
{ACAD_REACTORS
330
61D5
102
}
330
A
100
AcDbEntity
  8
MODEL
100
AcDbLine
 10
475.7431199129368
 20
374.1877271198107
 30
0.0
 11
475.7431199129369
 21
378.8247271198859
 31
0.0
  0
LINE
  5
6168
102
{ACAD_REACTORS
330
61D5
102
}
330
A
100
AcDbEntity
  8
MODEL
100
AcDbLine
 10
475.7431199129368
 20
369.550727119881
 30
0.0
 11
475.7431199129368
 21
374.1877271198107
 31
0.0
  0
LINE
  5
6169
102
{ACAD_REACTORS
330
61D5
102
}
330
A
100
AcDbEntity
  8
MODEL
100
AcDbLine
 10
475.7431199129368
 20
365.229727119972
 30
0.0
 11
475.7431199129368
 21
369.550727119881
 31
0.0
  0
LINE
  5
616A
102
{ACAD_REACTORS
330
61D5
102
}
330
A
100
AcDbEntity
  8
MODEL
100
AcDbLine
 10
474.9251199127922
 20
394.2107271198845
 30
0.0
 11
473.976119912828
 21
395.0037271198605
 31
0.0
  0
LINE
  5
616B
102
{ACAD_REACTORS
330
61D5
102
}
330
A
100
AcDbEntity
  8
MODEL
100
AcDbLine
 10
472.7821199128684
 20
395.512727119735
 30
0.0
 11
471.4571199127986
 21
395.687727119898
 31
0.0
  0
LINE
  5
616C
102
{ACAD_REACTORS
330
61D5
102
}
330
A
100
AcDbEntity
  8
MODEL
100
AcDbLine
 10
473.976119912828
 20
395.0037271198605
 30
0.0
 11
472.7821199128684
 21
395.512727119735
 31
0.0
  0
LINE
  5
616D
102
{ACAD_REACTORS
330
61D5
102
}
330
A
100
AcDbEntity
  8
MODEL
100
AcDbLine
 10
475.5331199128578
 20
393.2117271197283
 30
0.0
 11
474.9251199127922
 21
394.2107271198845
 31
0.0
  0
LINE
  5
616E
102
{ACAD_REACTORS
330
61D5
102
}
330
A
100
AcDbEntity
  8
MODEL
100
AcDbLine
 10
490.7431199128641
 20
381.1877271199271
 30
0.0
 11
483.7431199128206
 21
384.1877271198107
 31
0.0
  0
LINE
  5
616F
102
{ACAD_REACTORS
330
61D5
102
}
330
A
100
AcDbEntity
  8
MODEL
100
AcDbLine
 10
490.7431199128641
 20
367.4267271199867
 30
0.0
 11
490.7431199128641
 21
381.1877271199271
 31
0.0
  0
LINE
  5
6170
102
{ACAD_REACTORS
330
61D5
102
}
330
A
100
AcDbEntity
  8
MODEL
100
AcDbLine
 10
490.7431199128641
 20
367.1877271196943
 30
0.0
 11
490.7431199128641
 21
367.4267271199867
 31
0.0
  0
LINE
  5
6171
102
{ACAD_REACTORS
330
61D5
102
}
330
A
100
AcDbEntity
  8
MODEL
100
AcDbLine
 10
483.7431199128205
 20
364.1877271198107
 30
0.0
 11
490.7431199128641
 21
367.1877271196943
 31
0.0
  0
LINE
  5
6172
102
{ACAD_REACTORS
330
61D5
102
}
330
A
100
AcDbEntity
  8
MODEL
100
AcDbLine
 10
490.7431199128641
 20
367.1877271196943
 30
0.0
 11
490.7921199128632
 21
367.1877271196943
 31
0.0
  0
LINE
  5
6173
102
{ACAD_REACTORS
330
61D5
102
}
330
A
100
AcDbEntity
  8
MODEL
100
AcDbLine
 10
490.7921199128632
 20
367.1877271196943
 30
0.0
 11
491.1711199128204
 21
365.7597271199709
 31
0.0
  0
LINE
  5
6174
102
{ACAD_REACTORS
330
61D5
102
}
330
A
100
AcDbEntity
  8
MODEL
100
AcDbLine
 10
491.1711199128206
 20
382.6157271199415
 30
0.0
 11
490.7921199128632
 21
381.1877271199271
 31
0.0
  0
LINE
  5
6175
102
{ACAD_REACTORS
330
61D5
102
}
330
A
100
AcDbEntity
  8
MODEL
100
AcDbLine
 10
490.7921199128632
 20
381.1877271199271
 30
0.0
 11
490.7731199128341
 21
381.0497271197753
 31
0.0
  0
LINE
  5
6176
102
{ACAD_REACTORS
330
61D5
102
}
330
A
100
AcDbEntity
  8
MODEL
100
AcDbLine
 10
492.2581199127908
 20
364.6637271197185
 30
0.0
 11
493.7431199128205
 21
364.261727119833
 31
0.0
  0
LINE
  5
6177
102
{ACAD_REACTORS
330
61D5
102
}
330
A
100
AcDbEntity
  8
MODEL
100
AcDbLine
 10
493.7431199128207
 20
384.1137271197883
 30
0.0
 11
492.2581199127908
 21
383.7117271199029
 31
0.0
  0
LINE
  5
6178
102
{ACAD_REACTORS
330
61D5
102
}
330
A
100
AcDbEntity
  8
MODEL
100
AcDbLine
 10
495.2281199128502
 20
364.6637271197185
 30
0.0
 11
496.3151199128206
 21
365.7597271199709
 31
0.0
  0
LINE
  5
6179
102
{ACAD_REACTORS
330
61D5
102
}
330
A
100
AcDbEntity
  8
MODEL
100
AcDbLine
 10
496.3151199128206
 20
382.6157271199415
 30
0.0
 11
495.2281199128504
 21
383.7117271199029
 31
0.0
  0
LINE
  5
617A
102
{ACAD_REACTORS
330
61D5
102
}
330
A
100
AcDbEntity
  8
MODEL
100
AcDbLine
 10
496.7431199128496
 20
381.1877271199271
 30
0.0
 11
496.6941199128505
 21
381.1877271199271
 31
0.0
  0
LINE
  5
617B
102
{ACAD_REACTORS
330
61D5
102
}
330
A
100
AcDbEntity
  8
MODEL
100
AcDbLine
 10
496.6941199128505
 20
367.1877271196943
 30
0.0
 11
496.7431199128496
 21
367.1877271196943
 31
0.0
  0
LINE
  5
617C
102
{ACAD_REACTORS
330
61D5
102
}
330
A
100
AcDbEntity
  8
MODEL
100
AcDbLine
 10
503.7431199128207
 20
364.5287271197092
 30
0.0
 11
503.7431199128207
 21
365.5277271198654
 31
0.0
  0
LINE
  5
617D
102
{ACAD_REACTORS
330
61D5
102
}
330
A
100
AcDbEntity
  8
MODEL
100
AcDbLine
 10
509.8431199128991
 20
385.0707271196959
 30
0.0
 11
510.3351199129122
 21
385.1877271197234
 31
0.0
  0
LINE
  5
617E
102
{ACAD_REACTORS
330
61D5
102
}
330
A
100
AcDbEntity
  8
MODEL
100
AcDbLine
 10
512.2611199129333
 20
385.1877271197234
 30
0.0
 11
513.1071199128073
 21
385.0907271199183
 31
0.0
  0
LINE
  5
617F
102
{ACAD_REACTORS
330
61D5
102
}
330
A
100
AcDbEntity
  8
MODEL
100
AcDbLine
 10
513.1071199128073
 20
385.0907271199183
 30
0.0
 11
513.6961199127709
 21
385.1877271197234
 31
0.0
  0
LINE
  5
6180
102
{ACAD_REACTORS
330
61D5
102
}
330
A
100
AcDbEntity
  8
MODEL
100
AcDbLine
 10
515.990119912809
 20
385.1877271197234
 30
0.0
 11
516.5791199127725
 21
385.0907271199183
 31
0.0
  0
LINE
  5
6181
102
{ACAD_REACTORS
330
61D5
102
}
330
A
100
AcDbEntity
  8
MODEL
100
AcDbLine
 10
516.5791199127725
 20
385.0907271199183
 30
0.0
 11
517.4251199127923
 21
385.1877271197234
 31
0.0
  0
LINE
  5
6182
102
{ACAD_REACTORS
330
61D5
102
}
330
A
100
AcDbEntity
  8
MODEL
100
AcDbLine
 10
519.3511199128861
 20
385.1877271197234
 30
0.0
 11
519.8431199128263
 21
385.0707271196959
 31
0.0
  0
LINE
  5
6183
102
{ACAD_REACTORS
330
61D5
102
}
330
A
100
AcDbEntity
  8
MODEL
100
AcDbLine
 10
519.8431199128263
 20
385.0707271196959
 30
0.0
 11
520.7721199129319
 21
385.1877271197234
 31
0.0
  0
LINE
  5
6184
102
{ACAD_REACTORS
330
61D5
102
}
330
A
100
AcDbEntity
  8
MODEL
100
AcDbLine
 10
522.7191199128592
 20
385.1877271197234
 30
0.0
 11
522.3431199128263
 21
385.1877271197234
 31
0.0
  0
LINE
  5
6185
102
{ACAD_REACTORS
330
61D5
102
}
330
A
100
AcDbEntity
  8
MODEL
100
AcDbLine
 10
523.8791199128773
 20
385.1877271197234
 30
0.0
 11
524.2401199129256
 21
385.1497271198102
 31
0.0
  0
LINE
  5
6186
102
{ACAD_REACTORS
330
61D5
102
}
330
A
100
AcDbEntity
  8
MODEL
100
AcDbLine
 10
524.2401199129256
 20
385.1497271198102
 30
0.0
 11
524.2651199128031
 21
385.1877271197234
 31
0.0
  0
LINE
  5
6187
102
{ACAD_REACTORS
330
61D5
102
}
330
A
100
AcDbEntity
  8
MODEL
100
AcDbLine
 10
525.4501199127717
 20
384.7947271198288
 30
0.0
 11
524.9371199128527
 21
385.1877271197234
 31
0.0
  0
LINE
  5
6188
102
{ACAD_REACTORS
330
61D5
102
}
330
A
100
AcDbEntity
  8
MODEL
100
AcDbLine
 10
524.9371199128527
 20
385.1877271197234
 30
0.0
 11
524.4311199129024
 21
385.1877271197234
 31
0.0
  0
LINE
  5
6189
102
{ACAD_REACTORS
330
61D5
102
}
330
A
100
AcDbEntity
  8
MODEL
100
AcDbLine
 10
529.8431199128263
 20
374.1877271198107
 30
0.0
 11
529.3321199128568
 21
378.069727119823
 31
0.0
  0
LINE
  5
618A
102
{ACAD_REACTORS
330
61D5
102
}
330
A
100
AcDbEntity
  8
MODEL
100
AcDbLine
 10
527.833119912817
 20
366.6877271198107
 30
0.0
 11
529.3321199128568
 21
370.3057271197983
 31
0.0
  0
LINE
  5
618B
102
{ACAD_REACTORS
330
61D5
102
}
330
A
100
AcDbEntity
  8
MODEL
100
AcDbLine
 10
525.4501199127717
 20
363.580727119938
 30
0.0
 11
527.833119912817
 21
366.6877271198107
 31
0.0
  0
LINE
  5
618C
102
{ACAD_REACTORS
330
61D5
102
}
330
A
100
AcDbEntity
  8
MODEL
100
AcDbLine
 10
529.3321199128568
 20
370.3057271197983
 30
0.0
 11
529.8431199128263
 21
374.1877271198107
 31
0.0
  0
LINE
  5
618D
102
{ACAD_REACTORS
330
61D5
102
}
330
A
100
AcDbEntity
  8
MODEL
100
AcDbLine
 10
527.833119912817
 20
381.6877271198107
 30
0.0
 11
525.4501199127717
 21
384.7947271198288
 31
0.0
  0
LINE
  5
618E
102
{ACAD_REACTORS
330
61D5
102
}
330
A
100
AcDbEntity
  8
MODEL
100
AcDbLine
 10
529.3321199128568
 20
378.069727119823
 30
0.0
 11
527.833119912817
 21
381.6877271198107
 31
0.0
  0
LINE
  5
618F
102
{ACAD_REACTORS
330
61D5
102
}
330
A
100
AcDbEntity
  8
MODEL
100
AcDbLine
 10
503.7431199128207
 20
364.2237271197744
 30
0.0
 11
504.2361199128081
 21
363.580727119938
 31
0.0
  0
LINE
  5
6190
102
{ACAD_REACTORS
330
61D5
102
}
330
A
100
AcDbEntity
  8
MODEL
100
AcDbLine
 10
524.2651199128031
 20
385.1877271197234
 30
0.0
 11
524.2401199129256
 21
385.1497271198102
 31
0.0
  0
LINE
  5
6191
102
{ACAD_REACTORS
330
61D5
102
}
330
A
100
AcDbEntity
  8
MODEL
100
AcDbLine
 10
524.4311199129024
 20
385.1877271197234
 30
0.0
 11
524.2651199128031
 21
385.1877271197234
 31
0.0
  0
LINE
  5
6192
102
{ACAD_REACTORS
330
61D5
102
}
330
A
100
AcDbEntity
  8
MODEL
100
AcDbLine
 10
523.8791199128773
 20
385.1877271197234
 30
0.0
 11
522.7191199128592
 21
385.1877271197234
 31
0.0
  0
LINE
  5
6193
102
{ACAD_REACTORS
330
61D5
102
}
330
A
100
AcDbEntity
  8
MODEL
100
AcDbLine
 10
524.2401199129256
 20
385.1497271198102
 30
0.0
 11
523.8791199128773
 21
385.1877271197234
 31
0.0
  0
LINE
  5
6194
102
{ACAD_REACTORS
330
61D5
102
}
330
A
100
AcDbEntity
  8
MODEL
100
AcDbLine
 10
520.7721199129319
 20
385.1877271197234
 30
0.0
 11
519.8431199128263
 21
385.0707271196959
 31
0.0
  0
LINE
  5
6195
102
{ACAD_REACTORS
330
61D5
102
}
330
A
100
AcDbEntity
  8
MODEL
100
AcDbLine
 10
522.3431199128263
 20
385.1877271197234
 30
0.0
 11
520.7721199129319
 21
385.1877271197234
 31
0.0
  0
LINE
  5
6196
102
{ACAD_REACTORS
330
61D5
102
}
330
A
100
AcDbEntity
  8
MODEL
100
AcDbLine
 10
519.3511199128861
 20
385.1877271197234
 30
0.0
 11
518.7251199128386
 21
385.1877271197234
 31
0.0
  0
LINE
  5
6197
102
{ACAD_REACTORS
330
61D5
102
}
330
A
100
AcDbEntity
  8
MODEL
100
AcDbLine
 10
519.8431199128263
 20
385.0707271196959
 30
0.0
 11
519.3511199128861
 21
385.1877271197234
 31
0.0
  0
LINE
  5
6198
102
{ACAD_REACTORS
330
61D5
102
}
330
A
100
AcDbEntity
  8
MODEL
100
AcDbLine
 10
517.4251199127923
 20
385.1877271197234
 30
0.0
 11
516.5791199127725
 21
385.0907271199183
 31
0.0
  0
LINE
  5
6199
102
{ACAD_REACTORS
330
61D5
102
}
330
A
100
AcDbEntity
  8
MODEL
100
AcDbLine
 10
518.7251199128386
 20
385.1877271197234
 30
0.0
 11
517.4251199127923
 21
385.1877271197234
 31
0.0
  0
LINE
  5
619A
102
{ACAD_REACTORS
330
61D5
102
}
330
A
100
AcDbEntity
  8
MODEL
100
AcDbLine
 10
515.990119912809
 20
385.1877271197234
 30
0.0
 11
514.8431199128263
 21
385.1877271197234
 31
0.0
  0
LINE
  5
619B
102
{ACAD_REACTORS
330
61D5
102
}
330
A
100
AcDbEntity
  8
MODEL
100
AcDbLine
 10
516.5791199127725
 20
385.0907271199183
 30
0.0
 11
515.990119912809
 21
385.1877271197234
 31
0.0
  0
LINE
  5
619C
102
{ACAD_REACTORS
330
61D5
102
}
330
A
100
AcDbEntity
  8
MODEL
100
AcDbLine
 10
513.6961199127709
 20
385.1877271197234
 30
0.0
 11
513.1071199128073
 21
385.0907271199183
 31
0.0
  0
LINE
  5
619D
102
{ACAD_REACTORS
330
61D5
102
}
330
A
100
AcDbEntity
  8
MODEL
100
AcDbLine
 10
514.8431199128263
 20
385.1877271197234
 30
0.0
 11
513.6961199127709
 21
385.1877271197234
 31
0.0
  0
LINE
  5
619E
102
{ACAD_REACTORS
330
61D5
102
}
330
A
100
AcDbEntity
  8
MODEL
100
AcDbLine
 10
512.2611199129333
 20
385.1877271197234
 30
0.0
 11
510.9611199128867
 21
385.1877271197234
 31
0.0
  0
LINE
  5
619F
102
{ACAD_REACTORS
330
61D5
102
}
330
A
100
AcDbEntity
  8
MODEL
100
AcDbLine
 10
513.1071199128073
 20
385.0907271199183
 30
0.0
 11
512.2611199129333
 21
385.1877271197234
 31
0.0
  0
LINE
  5
61A0
102
{ACAD_REACTORS
330
61D5
102
}
330
A
100
AcDbEntity
  8
MODEL
100
AcDbLine
 10
510.3351199129122
 20
385.1877271197234
 30
0.0
 11
509.8431199128991
 21
385.0707271196959
 31
0.0
  0
LINE
  5
61A1
102
{ACAD_REACTORS
330
61D5
102
}
330
A
100
AcDbEntity
  8
MODEL
100
AcDbLine
 10
510.9611199128867
 20
385.1877271197234
 30
0.0
 11
510.3351199129122
 21
385.1877271197234
 31
0.0
  0
LINE
  5
61A2
102
{ACAD_REACTORS
330
61D5
102
}
330
A
100
AcDbEntity
  8
MODEL
100
AcDbLine
 10
508.9141199127937
 20
385.1877271197234
 30
0.0
 11
507.3431199128263
 21
385.1877271197234
 31
0.0
  0
LINE
  5
61A3
102
{ACAD_REACTORS
330
61D5
102
}
330
A
100
AcDbEntity
  8
MODEL
100
AcDbLine
 10
509.8431199128991
 20
385.0707271196959
 30
0.0
 11
508.9141199127937
 21
385.1877271197234
 31
0.0
  0
LINE
  5
61A4
102
{ACAD_REACTORS
330
61D5
102
}
330
A
100
AcDbEntity
  8
MODEL
100
AcDbLine
 10
507.3431199128263
 20
385.1877271197234
 30
0.0
 11
506.9671199128661
 21
385.1877271197234
 31
0.0
  0
LINE
  5
61A5
102
{ACAD_REACTORS
330
61D5
102
}
330
A
100
AcDbEntity
  8
MODEL
100
AcDbLine
 10
504.2361199128081
 20
384.7947271198288
 30
0.0
 11
503.7431199128207
 21
384.151727119847
 31
0.0
  0
LINE
  5
61A6
102
{ACAD_REACTORS
330
61D5
102
}
330
A
100
AcDbEntity
  8
MODEL
100
AcDbLine
 10
504.7491199128726
 20
385.1877271197234
 30
0.0
 11
504.2361199128081
 21
384.7947271198288
 31
0.0
  0
LINE
  5
61A7
102
{ACAD_REACTORS
330
61D5
102
}
330
A
100
AcDbEntity
  8
MODEL
100
AcDbLine
 10
505.2551199128229
 20
385.1877271197234
 30
0.0
 11
504.7491199128726
 21
385.1877271197234
 31
0.0
  0
LINE
  5
61A8
102
{ACAD_REACTORS
330
61D5
102
}
330
A
100
AcDbEntity
  8
MODEL
100
AcDbLine
 10
505.4461199128
 20
385.1497271198102
 30
0.0
 11
505.8071199128483
 21
385.1877271197234
 31
0.0
  0
LINE
  5
61A9
102
{ACAD_REACTORS
330
61D5
102
}
330
A
100
AcDbEntity
  8
MODEL
100
AcDbLine
 10
505.4211199129222
 20
385.1877271197234
 30
0.0
 11
505.4461199128
 21
385.1497271198102
 31
0.0
  0
LINE
  5
61AA
102
{ACAD_REACTORS
330
61D5
102
}
330
A
100
AcDbEntity
  8
MODEL
100
AcDbLine
 10
475.7431199129368
 20
361.5187271199327
 30
0.0
 11
475.7431199129368
 21
365.229727119972
 31
0.0
  0
LINE
  5
61AB
102
{ACAD_REACTORS
330
61D5
102
}
330
A
100
AcDbEntity
  8
MODEL
100
AcDbLine
 10
475.7431199129368
 20
358.6717271198947
 30
0.0
 11
475.7431199129368
 21
361.5187271199327
 31
0.0
  0
LINE
  5
61AC
102
{ACAD_REACTORS
330
61D5
102
}
330
A
100
AcDbEntity
  8
MODEL
100
AcDbLine
 10
475.7431199129368
 20
356.8817271198575
 30
0.0
 11
475.7431199129368
 21
358.6717271198947
 31
0.0
  0
LINE
  5
61AD
102
{ACAD_REACTORS
330
61D5
102
}
330
A
100
AcDbEntity
  8
MODEL
100
AcDbLine
 10
475.7431199129368
 20
356.2707271199404
 30
0.0
 11
475.7431199129368
 21
356.8817271198575
 31
0.0
  0
LINE
  5
61AE
102
{ACAD_REACTORS
330
61D5
102
}
330
A
100
AcDbEntity
  8
MODEL
100
AcDbLine
 10
475.5331199128577
 20
355.1637271198931
 30
0.0
 11
475.7431199129368
 21
356.2707271199404
 31
0.0
  0
LINE
  5
61AF
102
{ACAD_REACTORS
330
61D5
102
}
330
A
100
AcDbEntity
  8
MODEL
100
AcDbLine
 10
473.9761199128279
 20
353.3717271199064
 30
0.0
 11
474.9251199127921
 21
354.1647271197369
 31
0.0
  0
LINE
  5
61B0
102
{ACAD_REACTORS
330
61D5
102
}
330
A
100
AcDbEntity
  8
MODEL
100
AcDbLine
 10
471.4571199127985
 20
352.6877271197234
 30
0.0
 11
472.7821199128683
 21
352.8627271198864
 31
0.0
  0
LINE
  5
61B1
102
{ACAD_REACTORS
330
61D5
102
}
330
A
100
AcDbEntity
  8
MODEL
100
AcDbLine
 10
472.7821199128683
 20
352.8627271198864
 30
0.0
 11
473.9761199128279
 21
353.3717271199064
 31
0.0
  0
LINE
  5
61B2
102
{ACAD_REACTORS
330
61D5
102
}
330
A
100
AcDbEntity
  8
MODEL
100
AcDbLine
 10
474.9251199127921
 20
354.1647271197369
 30
0.0
 11
475.5331199128577
 21
355.1637271198931
 31
0.0
  0
LINE
  5
61B3
102
{ACAD_REACTORS
330
61D5
102
}
330
A
100
AcDbEntity
  8
MODEL
100
AcDbLine
 10
504.2361199128081
 20
363.580727119938
 30
0.0
 11
507.3431199128263
 21
361.19772711982
 31
0.0
  0
LINE
  5
61B4
102
{ACAD_REACTORS
330
61D5
102
}
330
A
100
AcDbEntity
  8
MODEL
100
AcDbLine
 10
510.9611199128867
 20
359.6987271199257
 30
0.0
 11
514.8431199128263
 21
359.1877271199562
 31
0.0
  0
LINE
  5
61B5
102
{ACAD_REACTORS
330
61D5
102
}
330
A
100
AcDbEntity
  8
MODEL
100
AcDbLine
 10
518.7251199128386
 20
359.6987271199257
 30
0.0
 11
522.3431199128263
 21
361.19772711982
 31
0.0
  0
LINE
  5
61B6
102
{ACAD_REACTORS
330
61D5
102
}
330
A
100
AcDbEntity
  8
MODEL
100
AcDbLine
 10
522.3431199128263
 20
361.19772711982
 30
0.0
 11
525.4501199127717
 21
363.580727119938
 31
0.0
  0
LINE
  5
61B7
102
{ACAD_REACTORS
330
61D5
102
}
330
A
100
AcDbEntity
  8
MODEL
100
AcDbLine
 10
514.8431199128263
 20
359.1877271199562
 30
0.0
 11
518.7251199128386
 21
359.6987271199257
 31
0.0
  0
LINE
  5
61B8
102
{ACAD_REACTORS
330
61D5
102
}
330
A
100
AcDbEntity
  8
MODEL
100
AcDbLine
 10
507.3431199128263
 20
361.19772711982
 30
0.0
 11
510.9611199128867
 21
359.6987271199257
 31
0.0
  0
LINE
  5
61B9
102
{ACAD_REACTORS
330
61D5
102
}
330
A
100
AcDbEntity
  8
MODEL
100
AcDbLine
 10
469.7431199128068
 20
399.1877271199551
 30
0.0
 11
469.4981199128842
 21
400.7327271197059
 31
0.0
  0
LINE
  5
61BA
102
{ACAD_REACTORS
330
61D5
102
}
330
A
100
AcDbEntity
  8
MODEL
100
AcDbLine
 10
469.7431199128068
 20
398.335727119796
 30
0.0
 11
469.7431199128068
 21
399.1877271199551
 31
0.0
  0
LINE
  5
61BB
102
{ACAD_REACTORS
330
61D5
102
}
330
A
100
AcDbEntity
  8
MODEL
100
AcDbLine
 10
469.7431199128069
 20
395.838727119793
 30
0.0
 11
469.7431199128068
 21
398.335727119796
 31
0.0
  0
LINE
  5
61BC
102
{ACAD_REACTORS
330
61D5
102
}
330
A
100
AcDbEntity
  8
MODEL
100
AcDbLine
 10
469.7431199128069
 20
391.8657271198241
 30
0.0
 11
469.7431199128069
 21
395.838727119793
 31
0.0
  0
LINE
  5
61BD
102
{ACAD_REACTORS
330
61D5
102
}
330
A
100
AcDbEntity
  8
MODEL
100
AcDbLine
 10
469.7431199128069
 20
386.6877271198096
 30
0.0
 11
469.7431199128069
 21
391.8657271198241
 31
0.0
  0
LINE
  5
61BE
102
{ACAD_REACTORS
330
61D5
102
}
330
A
100
AcDbEntity
  8
MODEL
100
AcDbLine
 10
469.7431199128069
 20
380.6577271197816
 30
0.0
 11
469.7431199128069
 21
386.6877271198096
 31
0.0
  0
LINE
  5
61BF
102
{ACAD_REACTORS
330
61D5
102
}
330
A
100
AcDbEntity
  8
MODEL
100
AcDbLine
 10
469.7431199128068
 20
374.1877271198096
 30
0.0
 11
469.7431199128069
 21
380.6577271197816
 31
0.0
  0
LINE
  5
61C0
102
{ACAD_REACTORS
330
61D5
102
}
330
A
100
AcDbEntity
  8
MODEL
100
AcDbLine
 10
469.7431199128069
 20
367.7177271198376
 30
0.0
 11
469.7431199128068
 21
374.1877271198096
 31
0.0
  0
LINE
  5
61C1
102
{ACAD_REACTORS
330
61D5
102
}
330
A
100
AcDbEntity
  8
MODEL
100
AcDbLine
 10
469.7431199128069
 20
361.6877271198096
 30
0.0
 11
469.7431199128069
 21
367.7177271198376
 31
0.0
  0
LINE
  5
61C2
102
{ACAD_REACTORS
330
61D5
102
}
330
A
100
AcDbEntity
  8
MODEL
100
AcDbLine
 10
469.7431199128069
 20
356.5097271199406
 30
0.0
 11
469.7431199128069
 21
361.6877271198096
 31
0.0
  0
LINE
  5
61C3
102
{ACAD_REACTORS
330
61D5
102
}
330
A
100
AcDbEntity
  8
MODEL
100
AcDbLine
 10
469.7431199128069
 20
352.5367271198262
 30
0.0
 11
469.7431199128069
 21
356.5097271199406
 31
0.0
  0
LINE
  5
61C4
102
{ACAD_REACTORS
330
61D5
102
}
330
A
100
AcDbEntity
  8
MODEL
100
AcDbLine
 10
469.743119912807
 20
350.0397271198231
 30
0.0
 11
469.7431199128069
 21
352.5367271198262
 31
0.0
  0
LINE
  5
61C5
102
{ACAD_REACTORS
330
61D5
102
}
330
A
100
AcDbEntity
  8
MODEL
100
AcDbLine
 10
469.743119912807
 20
349.1877271199551
 30
0.0
 11
469.743119912807
 21
350.0397271198231
 31
0.0
  0
LINE
  5
61C6
102
{ACAD_REACTORS
330
61D5
102
}
330
A
100
AcDbEntity
  8
MODEL
100
AcDbLine
 10
469.4981199128844
 20
347.6427271199132
 30
0.0
 11
469.743119912807
 21
349.1877271199551
 31
0.0
  0
LINE
  5
61C7
102
{ACAD_REACTORS
330
61D5
102
}
330
A
100
AcDbEntity
  8
MODEL
100
AcDbLine
 10
467.6821199129219
 20
345.1427271197676
 30
0.0
 11
468.7881199128489
 21
346.2487271197674
 31
0.0
  0
LINE
  5
61C8
102
{ACAD_REACTORS
330
61D5
102
}
330
A
100
AcDbEntity
  8
MODEL
100
AcDbLine
 10
468.7881199128487
 20
402.1267271198518
 30
0.0
 11
467.6821199129217
 21
403.2327271198515
 31
0.0
  0
LINE
  5
61C9
102
{ACAD_REACTORS
330
61D5
102
}
330
A
100
AcDbEntity
  8
MODEL
100
AcDbLine
 10
467.6821199129217
 20
403.2327271198515
 30
0.0
 11
466.2881199129214
 21
403.9427271198142
 31
0.0
  0
LINE
  5
61CA
102
{ACAD_REACTORS
330
61D5
102
}
330
A
100
AcDbEntity
  8
MODEL
100
AcDbLine
 10
466.2881199129217
 20
344.4327271198049
 30
0.0
 11
467.6821199129219
 21
345.1427271197676
 31
0.0
  0
LINE
  5
61CB
102
{ACAD_REACTORS
330
61D5
102
}
330
A
100
AcDbEntity
  8
MODEL
100
AcDbLine
 10
469.4981199128842
 20
400.7327271197059
 30
0.0
 11
468.7881199128487
 21
402.1267271198518
 31
0.0
  0
LINE
  5
61CC
102
{ACAD_REACTORS
330
61D5
102
}
330
A
100
AcDbEntity
  8
MODEL
100
AcDbLine
 10
468.7881199128489
 20
346.2487271197674
 30
0.0
 11
469.4981199128844
 21
347.6427271199132
 31
0.0
  0
LINE
  5
61CD
102
{ACAD_REACTORS
330
61D5
102
}
330
A
100
AcDbEntity
  8
MODEL
100
AcDbLine
 10
471.4571199127986
 20
395.687727119898
 30
0.0
 11
469.7431199128069
 21
395.6877271198979
 31
0.0
  0
LINE
  5
61CE
102
{ACAD_REACTORS
330
61D5
102
}
330
A
100
AcDbEntity
  8
MODEL
100
AcDbLine
 10
471.4571199127985
 20
352.6877271197234
 30
0.0
 11
469.7431199128069
 21
352.6877271197234
 31
0.0
  0
LINE
  5
61CF
102
{ACAD_REACTORS
330
61D5
102
}
330
A
100
AcDbEntity
  8
MODEL
100
AcDbLine
 10
524.8431199128263
 20
385.1877271197234
 30
0.0
 11
524.8431199128263
 21
624.1877271198107
 31
0.0
  0
LINE
  5
61D0
102
{ACAD_REACTORS
330
61D5
102
}
330
A
100
AcDbEntity
  8
MODEL
100
AcDbLine
 10
504.8431199128993
 20
624.1877271198107
 30
0.0
 11
504.8431199128991
 21
385.1877271197234
 31
0.0
  0
LINE
  5
61D1
102
{ACAD_REACTORS
330
61D5
102
}
330
A
100
AcDbEntity
  8
MODEL
100
AcDbLine
 10
464.743119912807
 20
344.1877271198096
 30
0.0
 11
466.2881199129217
 21
344.4327271198049
 31
0.0
  0
LINE
  5
61D2
102
{ACAD_REACTORS
330
61D5
102
}
330
A
100
AcDbEntity
  8
MODEL
100
AcDbLine
 10
462.7431199128361
 20
344.1877271198096
 30
0.0
 11
464.743119912807
 21
344.1877271198096
 31
0.0
  0
LINE
  5
61D3
102
{ACAD_REACTORS
330
61D5
102
}
330
A
100
AcDbEntity
  8
MODEL
100
AcDbLine
 10
466.2881199129214
 20
403.9427271198142
 30
0.0
 11
464.7431199128068
 21
404.1877271198096
 31
0.0
  0
LINE
  5
61D4
102
{ACAD_REACTORS
330
61D5
102
}
330
A
100
AcDbEntity
  8
MODEL
100
AcDbLine
 10
464.7431199128068
 20
404.1877271198096
 30
0.0
 11
462.7431199128359
 21
404.1877271198096
 31
0.0
  0
CIRCLE
  5
6234
102
{ACAD_REACTORS
330
6237
102
}
330
A
100
AcDbEntity
  8
モデル
100
AcDbCircle
 10
649.3703552083416
 20
374.1877271198109
 30
0.0
 40
6.5
  0
LINE
  5
6235
102
{ACAD_REACTORS
330
63E7
102
}
330
A
100
AcDbEntity
  8
CENTER
 48
0.1
100
AcDbLine
 10
640.4206113929096
 20
374.1877271198109
 30
0.0
 11
658.3200990237727
 21
374.1877271198109
 31
0.0
  0
LINE
  5
6236
330
A
100
AcDbEntity
  8
CENTER
 48
0.1
100
AcDbLine
 10
649.3703552083415
 20
383.1374709352424
 30
0.0
 11
649.3703552083415
 21
365.2379833043793
 31
0.0
  0
HATCH
  5
6237
330
A
100
AcDbEntity
  8
モデル
100
AcDbHatch
 10
0.0
 20
0.0
 30
0.0
210
0.0
220
0.0
230
1.0
  2
ANSI31
 70
     0
 71
     1
 91
        1
 92
        1
 93
        1
 72
     2
 10
649.3703552083416
 20
374.1877271198109
 40
6.5
 50
0.0
 51
360.0
 73
     1
 97
        1
330
6234
 75
     0
 76
     1
 52
0.0
 41
1.0
 77
     0
 78
     1
 53
45.0
 43
148.2417251804543
 44
-790.6917086717609
 45
-2.245064030267288
 46
2.245064030267288
 79
     0
 98
        1
 10
148.2417251804543
 20
-790.6917086717609
1001
ACAD
1010
0.0
1020
0.0
1030
0.0
  0
DIMENSION
  5
6238
330
A
100
AcDbEntity
  8
寸法
100
AcDbDimension
  2
*D19
 10
712.8398855818346
 20
874.1877271198107
 30
0.0
 11
703.8398855818346
 21
624.1877271198108
 31
0.0
 70
    32
 71
     5
 42
499.9999999999998
 73
     0
 74
     0
 75
     0
  3
tfrom線あり
100
AcDbAlignedDimension
 13
665.6858658247027
 23
374.1877271198109
 33
0.0
 14
665.0988257246595
 24
874.1877271198107
 34
0.0
 50
90.0
100
AcDbRotatedDimension
1001
ACAD
1000
DSTYLE
1002
{
1070
   144
1040
1.0
1002
}
  0
TEXT
  5
623C
330
A
100
AcDbEntity
  8
モデル
100
AcDbText
 10
624.1795513356527
 20
915.3396973239151
 30
0.0
 40
10.0
  1
<切欠図>
  7
ＭＳ ゴシック
100
AcDbText
  0
TEXT
  5
623F
330
A
100
AcDbEntity
  8
TEMPLATE
100
AcDbText
 10
603.0026339632755
 20
327.0495909433352
 30
0.0
 40
10.0
  1
ガラス用下穴 ∅13
 50
360.0
  7
ＭＳ ゴシック
100
AcDbText
  0
MTEXT
  5
63BE
330
A
100
AcDbEntity
  8
TEMPLATE
390
1D
100
AcDbMText
 10
52.8808578190923
 20
92.05971627757152
 30
0.0
 40
9.773046875
 41
0.0
 46
10.867628125
 71
     1
 72
     1
  1
{水平にも取付できます。}
  7
ＭＳ ゴシック
 73
     1
 44
0.7828267384257843
1001
ACAD
1000
ACAD_MTEXT_DEFINED_HEIGHT_BEGIN
1070
    46
1040
10.867628125
1000
ACAD_MTEXT_DEFINED_HEIGHT_END
  0
DIMENSION
  5
63C8
102
{ACAD_REACTORS
330
63CA
102
}
102
{ACAD_XDICTIONARY
360
63C9
102
}
330
A
100
AcDbEntity
  8
DIM
100
AcDbDimension
  2
*D21
 10
160.7171179703831
 20
633.3050494832828
 30
0.0
 11
182.0871179703831
 21
633.3050494832828
 31
0.0
 70
   160
 71
     5
 42
19.69599999996728
 73
     0
 74
     1
 75
     1
  3
tfrom線あり
100
AcDbAlignedDimension
 13
141.0211179704158
 23
624.187727119811
 33
0.0
 14
160.7171179703831
 24
624.1877271198109
 34
0.0
100
AcDbRotatedDimension
1001
ACAD
1000
DSTYLE
1002
{
1070
     3
1000
%%c<>
1070
   172
1070
     1
1070
   144
1040
1.0
1002
}
  0
CIRCLE
  5
6401
102
{ACAD_REACTORS
330
6404
102
}
330
A
100
AcDbEntity
  8
モデル
100
AcDbCircle
 10
649.3703552083415
 20
874.1877271198107
 30
0.0
 40
6.5
  0
LINE
  5
6402
102
{ACAD_REACTORS
330
63E7
102
}
330
A
100
AcDbEntity
  8
CENTER
 48
0.1
100
AcDbLine
 10
640.4206113929094
 20
874.1877271198107
 30
0.0
 11
658.3200990237726
 21
874.1877271198107
 31
0.0
  0
LINE
  5
6403
330
A
100
AcDbEntity
  8
CENTER
 48
0.1
100
AcDbLine
 10
649.3703552083414
 20
883.1374709352422
 30
0.0
 11
649.3703552083414
 21
865.2379833043792
 31
0.0
  0
HATCH
  5
6404
330
A
100
AcDbEntity
  8
モデル
100
AcDbHatch
 10
0.0
 20
0.0
 30
0.0
210
0.0
220
0.0
230
1.0
  2
ANSI31
 70
     0
 71
     1
 91
        1
 92
        1
 93
        1
 72
     2
 10
649.3703552083415
 20
874.1877271198107
 40
6.5
 50
0.0
 51
360.0
 73
     1
 97
        1
330
6401
 75
     0
 76
     1
 52
0.0
 41
1.0
 77
     0
 78
     1
 53
45.0
 43
148.2417251804542
 44
-290.6917086717611
 45
-2.245064030267288
 46
2.245064030267288
 79
     0
 98
        1
 10
148.2417251804542
 20
-290.6917086717611
1001
ACAD
1010
0.0
1020
0.0
1030
0.0
  0
VIEWPORT
  5
349
330
B
100
AcDbEntity
 67
     1
  8
0
100
AcDbViewport
 10
202.5
 20
128.5
 30
0.0
 40
486.0
 41
308.4
 68
     1
 69
     1
 12
202.5
 22
128.5
 13
0.0
 23
0.0
 14
0.5
 24
0.5
 15
0.0
 25
0.0
 16
0.0
 26
0.0
 36
1.0
 17
0.0
 27
0.0
 37
0.0
 42
50.0
 43
0.0
 44
0.0
 45
308.4
 50
0.0
 51
0.0
 72
   100
 90
   557152
  1

281
     0
 71
     1
 74
     0
110
0.0
120
0.0
130
0.0
111
1.0
121
0.0
131
0.0
112
0.0
122
1.0
132
0.0
 79
     0
146
0.0
170
     0
 61
     5
348
26C
292
     1
282
     1
141
0.0
142
0.0
 63
   256
  0
VIEWPORT
  5
34A
330
B
100
AcDbEntity
 67
     1
  8
0
100
AcDbViewport
 10
202.5
 20
128.5
 30
0.0
 40
324.0
 41
205.6
 68
     2
 69
     2
 12
986.6781359294573
 22
1427.077061889956
 13
0.0
 23
0.0
 14
0.5
 24
0.5
 15
0.0
 25
0.0
 16
0.0
 26
0.0
 36
1.0
 17
0.0
 27
0.0
 37
0.0
 42
50.0
 43
0.0
 44
0.0
 45
2890.021615685494
 50
0.0
 51
0.0
 72
   100
 90
   557152
  1

281
     0
 71
     1
 74
     0
110
0.0
120
0.0
130
0.0
111
1.0
121
0.0
131
0.0
112
0.0
122
1.0
132
0.0
 79
     0
146
0.0
170
     0
 61
     5
348
26C
292
     1
282
     1
141
0.0
142
0.0
 63
   256
  0
ENDSEC
  0
SECTION
  2
OBJECTS
  0
DICTIONARY
  5
19
330
0
100
AcDbDictionary
281
     1
  3
ACAD_COLOR
350
674
  3
ACAD_DETAILVIEWSTYLE
350
BBF
  3
ACAD_FIELDLIST
350
3BE4
  3
ACAD_GROUP
350
1A
  3
ACAD_IMAGE_VARS
350
27B
  3
ACAD_LAYOUT
350
1E
  3
ACAD_MATERIAL
350
263
  3
ACAD_MLEADERSTYLE
350
336
  3
ACAD_MLINESTYLE
350
1B
  3
ACAD_PLOTSETTINGS
350
22
  3
ACAD_PLOTSTYLENAME
350
1F
  3
ACAD_SCALELIST
350
241
  3
ACAD_SECTIONVIEWSTYLE
350
BC0
  3
ACAD_TABLESTYLE
350
278
  3
ACAD_VISUALSTYLE
350
267
  3
ACDB_RECOMPOSE_DATA
350
640D
  3
AcDbVariableDictionary
350
330
  3
APPDATA
350
27A
  3
DimOffsetDictionary
350
E38
  0
SUN
  5
904
330
15
100
AcDbSun
 90
        1
290
     0
 63
     7
421
 16777215
 40
1.0
291
     1
 91
  2455826
 92
 54000000
292
     0
 70
     2
 71
   256
280
     1
  0
DICTIONARY
  5
2E1
330
2
100
AcDbDictionary
280
     1
281
     1
  3
ACAD_LAYERSTATES
360
2E2
  3
ACLYDICTIONARY
360
DDE
  0
DICTIONARY
  5
3E3E
330
A
100
AcDbDictionary
280
     1
281
     1
  3
ACAD_SORTENTS
360
3E3F
  0
DICTIONARY
  5
3DB8
330
3DB7
100
AcDbDictionary
280
     1
281
     1
  3
ACAD_FIELD
360
5DA0
  0
DICTIONARY
  5
5F3F
330
5F3E
100
AcDbDictionary
280
     1
281
     1
  3
ACAD_DIMASSOC
360
5F40
  0
DICTIONARY
  5
63C9
330
63C8
100
AcDbDictionary
280
     1
281
     1
  3
ACAD_DIMASSOC
360
63CA
  0
DICTIONARY
  5
674
102
{ACAD_REACTORS
330
19
102
}
330
19
100
AcDbDictionary
281
     1
  0
DICTIONARY
  5
BBF
102
{ACAD_REACTORS
330
19
102
}
330
19
100
AcDbDictionary
281
     1
  0
FIELDLIST
  5
3BE4
102
{ACAD_REACTORS
330
19
102
}
330
19
100
AcDbIdSet
 90
        2
330
3DBB
330
3DBA
100
AcDbFieldList
  0
DICTIONARY
  5
1A
102
{ACAD_REACTORS
330
19
102
}
330
19
100
AcDbDictionary
281
     1
  3
*A1
350
3CF4
  3
*A3
350
5EF1
  3
*A5
350
61D5
  0
RASTERVARIABLES
  5
27B
102
{ACAD_REACTORS
330
19
102
}
330
19
100
AcDbRasterVariables
 90
        0
 70
     1
 71
     1
 72
     1
  0
DICTIONARY
  5
1E
102
{ACAD_REACTORS
330
19
102
}
330
19
100
AcDbDictionary
281
     1
  3
Layout1
350
21
  3
Model
350
20
  0
DICTIONARY
  5
263
102
{ACAD_REACTORS
330
19
102
}
330
19
100
AcDbDictionary
281
     1
  3
ByBlock
350
265
  3
ByLayer
350
264
  3
Global
350
266
  0
DICTIONARY
  5
336
102
{ACAD_REACTORS
330
19
102
}
330
19
100
AcDbDictionary
281
     1
  3
Standard
350
D59
  0
DICTIONARY
  5
1B
102
{ACAD_REACTORS
330
19
102
}
330
19
100
AcDbDictionary
281
     1
  3
Standard
350
1C
  0
DICTIONARY
  5
22
102
{ACAD_REACTORS
330
19
102
}
330
19
100
AcDbDictionary
281
     1
  0
ACDBDICTIONARYWDFLT
  5
1F
102
{ACAD_REACTORS
330
19
102
}
330
19
100
AcDbDictionary
281
     1
  3
Normal
350
1D
100
AcDbDictionaryWithDefault
340
1D
  0
DICTIONARY
  5
241
102
{ACAD_REACTORS
330
19
102
}
330
19
100
AcDbDictionary
281
     1
  3
A0
350
242
  3
A1
350
243
  3
A2
350
244
  3
A3
350
245
  3
A4
350
246
  3
A5
350
247
  3
A6
350
248
  3
A7
350
249
  3
A8
350
24A
  3
A9
350
24B
  3
B0
350
24C
  3
B1
350
24D
  3
B2
350
24E
  3
B3
350
24F
  3
B4
350
250
  3
B5
350
251
  3
B6
350
252
  3
B7
350
253
  3
B8
350
254
  3
B9
350
255
  3
C0
350
256
  3
C1
350
257
  3
C2
350
258
  3
C3
350
259
  3
C4
350
25A
  3
C5
350
25B
  3
C6
350
25C
  3
C7
350
25D
  3
C8
350
25E
  3
C9
350
25F
  3
D0
350
260
  3
D1
350
261
  3
D2
350
262
  0
DICTIONARY
  5
BC0
102
{ACAD_REACTORS
330
19
102
}
330
19
100
AcDbDictionary
281
     1
  0
DICTIONARY
  5
278
102
{ACAD_REACTORS
330
19
102
}
330
19
100
AcDbDictionary
281
     1
  3
Standard
350
279
  0
DICTIONARY
  5
267
102
{ACAD_REACTORS
330
19
102
}
330
19
100
AcDbDictionary
281
     1
  3
2dWireframe
350
26C
  3
3D Hidden
350
26E
  3
3dWireframe
350
26D
  3
Basic
350
26F
  3
Brighten
350
273
  3
ColorChange
350
277
  3
Conceptual
350
271
  3
Dim
350
272
  3
EdgeColorOff
350
8FE
  3
Facepattern
350
276
  3
Flat
350
268
  3
FlatWithEdges
350
269
  3
Gouraud
350
26A
  3
GouraudWithEdges
350
26B
  3
Hidden
350
8FB
  3
JitterOff
350
8FC
  3
Linepattern
350
275
  3
OverhangOff
350
8FD
  3
Realistic
350
270
  3
Shaded
350
903
  3
Shaded with edges
350
902
  3
Shades of Gray
350
8FF
  3
Sketchy
350
900
  3
Thicken
350
274
  3
Wireframe
350
8FA
  3
X-Ray
350
901
  0
XRECORD
  5
640D
102
{ACAD_REACTORS
330
19
102
}
330
19
100
AcDbXrecord
280
     1
 90
        1
330
279
  0
DICTIONARY
  5
330
102
{ACAD_REACTORS
330
19
102
}
330
19
100
AcDbDictionary
281
     1
  3
CANNOSCALE
350
331
  3
CMLEADERSTYLE
350
D5E
  3
CTABLESTYLE
350
335
  3
HPTRANSPARENCY
350
D52
  3
XCLIPFRAME
350
896
  0
DICTIONARY
  5
27A
102
{ACAD_REACTORS
330
19
102
}
330
19
100
AcDbDictionary
281
     1
  0
DICTIONARY
  5
E38
102
{ACAD_REACTORS
330
19
102
}
330
19
100
AcDbDictionary
281
     1
  3
DIMRAILANGLE
350
246C
  3
DIMRAILFIRSTOFFSET
350
246A
  3
DIMRAILOFFSET
350
246B
  3
DIMRAILSENABLED
350
246D
  0
DICTIONARY
  5
2E2
102
{ACAD_REACTORS
330
2E1
102
}
330
2E1
100
AcDbDictionary
281
     1
  0
DICTIONARY
  5
DDE
102
{ACAD_REACTORS
330
2E1
102
}
330
2E1
100
AcDbDictionary
281
     1
1001
ACAD
1000
<All
  0
SORTENTSTABLE
  5
3E3F
102
{ACAD_REACTORS
330
3E3E
102
}
330
3E3E
100
AcDbSortentsTable
330
A
331
0
  5
5EF6
331
3CE3
  5
3C4B
331
3CE4
  5
3CE2
331
3CEF
  5
3CE3
331
3CF0
  5
3CE4
331
3CF1
  5
3CEF
331
3CF2
  5
3CF0
331
3CF3
  5
3CF1
331
3D12
  5
3CF3
331
3DB7
  5
3D2F
331
5EF2
  5
5EF5
331
5EF5
  5
5EF8
331
5EFA
  5
5EF4
  0
DICTIONARY
  5
5DA0
102
{ACAD_REACTORS
330
3DB8
102
}
330
3DB8
100
AcDbDictionary
280
     1
281
     1
  3
TEXT
360
3DBA
  0
DIMASSOC
  5
5F40
102
{ACAD_REACTORS
330
5F3F
102
}
330
5F3F
100
AcDbDimAssoc
330
5F3E
 90
        3
 70
     0
 71
     1
  1
AcDbOsnapPointRef
 72
    13
331
5EF2
 73
     0
 91
        0
 40
0.0
 10
0.0
 20
0.0
 30
0.0
 75
     0
  1
AcDbOsnapPointRef
 72
    13
331
5EF5
 73
     0
 91
        0
 40
0.0
 10
0.0
 20
0.0
 30
0.0
 75
     0
  0
DIMASSOC
  5
63CA
102
{ACAD_REACTORS
330
63C9
102
}
330
63C9
100
AcDbDimAssoc
330
63C8
 90
        3
 70
     0
 71
     1
  1
AcDbOsnapPointRef
 72
    13
331
601F
 73
     0
 91
        0
 40
0.0
 10
0.0
 20
0.0
 30
0.0
 75
     0
  1
AcDbOsnapPointRef
 72
     1
331
5FF3
 73
     0
 91
        0
 40
0.0
 10
0.0
 20
0.0
 30
0.0
 75
     0
  0
GROUP
  5
3CF4
102
{ACAD_REACTORS
330
1A
102
}
330
1A
100
AcDbGroup
300

 70
     1
 71
     1
340
3CE3
340
3CE4
340
3CEF
340
3CF0
340
3CF1
340
3CF2
340
3CF3
  0
GROUP
  5
5EF1
102
{ACAD_REACTORS
330
1A
102
}
330
1A
100
AcDbGroup
300

 70
     1
 71
     1
  0
GROUP
  5
61D5
102
{ACAD_REACTORS
330
1A
102
}
330
1A
100
AcDbGroup
300

 70
     1
 71
     1
340
60B2
340
60B3
340
60B4
340
60B5
340
60B6
340
60B7
340
60B8
340
60B9
340
60BA
340
60BB
340
60BC
340
60BD
340
60BE
340
60BF
340
60C0
340
60C1
340
60C2
340
60C3
340
60C4
340
60C5
340
60C6
340
60C7
340
60C8
340
60C9
340
60CA
340
60CB
340
60CC
340
60CD
340
60CE
340
60CF
340
60D0
340
60D1
340
60D2
340
60D3
340
60D4
340
60D5
340
60D6
340
60D7
340
60D8
340
60D9
340
60DA
340
60DB
340
60DC
340
60DD
340
60DE
340
60DF
340
60E0
340
60E1
340
60E2
340
60E3
340
60E4
340
60E5
340
60E6
340
60E7
340
60E8
340
60E9
340
60EA
340
60EB
340
60EC
340
60ED
340
60EE
340
60EF
340
60F0
340
60F1
340
60F2
340
60F3
340
60F4
340
60F5
340
60F6
340
60F7
340
60F8
340
60F9
340
60FA
340
60FB
340
60FC
340
60FD
340
60FE
340
60FF
340
6100
340
6101
340
6102
340
6103
340
6104
340
6105
340
6106
340
6107
340
6108
340
6109
340
610A
340
610B
340
610C
340
610D
340
610E
340
610F
340
6110
340
6111
340
6112
340
6113
340
6114
340
6115
340
6116
340
6117
340
6118
340
6119
340
611A
340
611B
340
611C
340
611D
340
611E
340
611F
340
6120
340
6121
340
6122
340
6123
340
6124
340
6125
340
6126
340
6127
340
6128
340
6129
340
612A
340
612B
340
612C
340
612D
340
612E
340
612F
340
6130
340
6131
340
6132
340
6133
340
6134
340
6135
340
6136
340
6137
340
6138
340
6139
340
613A
340
613B
340
613C
340
613D
340
613E
340
613F
340
6140
340
6141
340
6142
340
6143
340
6144
340
6145
340
6146
340
6147
340
6148
340
6149
340
614A
340
614B
340
614C
340
614D
340
614E
340
614F
340
6150
340
6151
340
6152
340
6153
340
6154
340
6155
340
6156
340
6157
340
6158
340
6159
340
615A
340
615B
340
615C
340
615D
340
615E
340
615F
340
6160
340
6161
340
6162
340
6163
340
6164
340
6165
340
6166
340
6167
340
6168
340
6169
340
616A
340
616B
340
616C
340
616D
340
616E
340
616F
340
6170
340
6171
340
6172
340
6173
340
6174
340
6175
340
6176
340
6177
340
6178
340
6179
340
617A
340
617B
340
617C
340
617D
340
617E
340
617F
340
6180
340
6181
340
6182
340
6183
340
6184
340
6185
340
6186
340
6187
340
6188
340
6189
340
618A
340
618B
340
618C
340
618D
340
618E
340
618F
340
6190
340
6191
340
6192
340
6193
340
6194
340
6195
340
6196
340
6197
340
6198
340
6199
340
619A
340
619B
340
619C
340
619D
340
619E
340
619F
340
61A0
340
61A1
340
61A2
340
61A3
340
61A4
340
61A5
340
61A6
340
61A7
340
61A8
340
61A9
340
61AA
340
61AB
340
61AC
340
61AD
340
61AE
340
61AF
340
61B0
340
61B1
340
61B2
340
61B3
340
61B4
340
61B5
340
61B6
340
61B7
340
61B8
340
61B9
340
61BA
340
61BB
340
61BC
340
61BD
340
61BE
340
61BF
340
61C0
340
61C1
340
61C2
340
61C3
340
61C4
340
61C5
340
61C6
340
61C7
340
61C8
340
61C9
340
61CA
340
61CB
340
61CC
340
61CD
340
61CE
340
61CF
340
61D0
340
61D1
340
61D2
340
61D3
340
61D4
  0
LAYOUT
  5
21
102
{ACAD_REACTORS
330
1E
102
}
330
1E
100
AcDbPlotSettings
  1

  2
none_device
  4
ISO_A3_(420.00_x_297.00_MM)
  6

 40
7.5
 41
20.0
 42
7.5
 43
20.0
 44
420.0
 45
297.0
 46
0.0
 47
0.0
 48
0.0
 49
0.0
140
0.0
141
0.0
142
1.0
143
1.0
 70
     0
 72
     1
 73
     0
 74
     0
  7

 75
     0
 76
     0
 77
     2
 78
   300
147
1.0
148
0.0
149
0.0
100
AcDbLayout
  1
Layout1
 70
     0
 71
     0
 10
-7.5
 20
-20.0
 11
412.5
 21
277.0
 12
0.0
 22
0.0
 32
0.0
 14
0.0
 24
0.0
 34
0.0
 15
0.0
 25
0.0
 35
0.0
146
0.0
 13
0.0
 23
0.0
 33
0.0
 16
0.0
 26
0.0
 36
0.0
 17
0.0
 27
0.0
 37
0.0
 76
     0
330
B
331
349
  0
LAYOUT
  5
20
102
{ACAD_REACTORS
330
1E
102
}
330
1E
100
AcDbPlotSettings
  1

  2
none_device
  4
ISO_A3_(420.00_x_297.00_MM)
  6

 40
7.5
 41
20.0
 42
7.5
 43
20.0
 44
420.0
 45
297.0
 46
0.0
 47
0.0
 48
0.0
 49
0.0
140
0.0
141
0.0
142
1.0
143
1.0
 70
  1024
 72
     1
 73
     0
 74
     0
  7

 75
     0
 76
     0
 77
     2
 78
   300
147
1.0
148
0.0
149
0.0
100
AcDbLayout
  1
Model
 70
     0
 71
     1
 10
0.0
 20
0.0
 11
840.0
 21
1188.0
 12
0.0
 22
0.0
 32
0.0
 14
0.0
 24
0.0
 34
-0.0000000000000071
 15
840.0
 25
1188.0
 35
0.0000000000000071
146
0.0
 13
0.0
 23
0.0
 33
0.0
 16
0.0
 26
0.0
 36
0.0
 17
0.0
 27
0.0
 37
0.0
 76
     0
330
A
331
15
  0
MATERIAL
  5
265
102
{ACAD_REACTORS
330
263
102
}
330
263
100
AcDbMaterial
  1
ByBlock
 72
     1
 94
      127
  0
MATERIAL
  5
264
102
{ACAD_REACTORS
330
263
102
}
330
263
100
AcDbMaterial
  1
ByLayer
 72
     1
 94
      127
  0
MATERIAL
  5
266
102
{ACAD_REACTORS
330
263
102
}
330
263
100
AcDbMaterial
  1
Global
 72
     1
 94
      127
  0
MLEADERSTYLE
  5
D59
102
{ACAD_REACTORS
330
336
102
}
330
336
100
AcDbMLeaderStyle
170
     2
171
     1
172
     0
 90
        2
 40
0.0
 41
0.0
173
     1
 91
-1056964608
340
11
 92
       -2
290
     1
 42
2.0
291
     1
 43
8.0
  3
Standard
341
0
 44
4.0
300

342
17
174
     1
178
     6
175
     1
176
     0
 93
-1056964608
 45
4.0
292
     0
297
     0
 46
4.0
343
0
 94
-1056964608
 47
1.0
 49
1.0
140
1.0
293
     1
141
0.0
294
     1
177
     0
142
1.0
295
     0
296
     0
143
3.75
1001
ACAD_MLEADERVER
1070
     2
  0
MLINESTYLE
  5
1C
102
{ACAD_REACTORS
330
1B
102
}
330
1B
100
AcDbMlineStyle
  2
Standard
 70
     0
  3

 62
     0
 51
90.0
 52
90.0
 71
     2
 49
0.5
 62
   256
  6
BYLAYER
 49
-0.5
 62
   256
  6
BYLAYER
  0
ACDBPLACEHOLDER
  5
1D
102
{ACAD_REACTORS
330
1F
102
}
330
1F
  0
SCALE
  5
242
102
{ACAD_REACTORS
330
241
102
}
330
241
100
AcDbScale
 70
     0
300
1:1
140
1.0
141
1.0
290
     1
  0
SCALE
  5
243
102
{ACAD_REACTORS
330
241
102
}
330
241
100
AcDbScale
 70
     0
300
1:2
140
1.0
141
2.0
290
     0
  0
SCALE
  5
244
102
{ACAD_REACTORS
330
241
102
}
330
241
100
AcDbScale
 70
     0
300
1:4
140
1.0
141
4.0
290
     0
  0
SCALE
  5
245
102
{ACAD_REACTORS
330
241
102
}
330
241
100
AcDbScale
 70
     0
300
1:5
140
1.0
141
5.0
290
     0
  0
SCALE
  5
246
102
{ACAD_REACTORS
330
241
102
}
330
241
100
AcDbScale
 70
     0
300
1:8
140
1.0
141
8.0
290
     0
  0
SCALE
  5
247
102
{ACAD_REACTORS
330
241
102
}
330
241
100
AcDbScale
 70
     0
300
1:10
140
1.0
141
10.0
290
     0
  0
SCALE
  5
248
102
{ACAD_REACTORS
330
241
102
}
330
241
100
AcDbScale
 70
     0
300
1:16
140
1.0
141
16.0
290
     0
  0
SCALE
  5
249
102
{ACAD_REACTORS
330
241
102
}
330
241
100
AcDbScale
 70
     0
300
1:20
140
1.0
141
20.0
290
     0
  0
SCALE
  5
24A
102
{ACAD_REACTORS
330
241
102
}
330
241
100
AcDbScale
 70
     0
300
1:30
140
1.0
141
30.0
290
     0
  0
SCALE
  5
24B
102
{ACAD_REACTORS
330
241
102
}
330
241
100
AcDbScale
 70
     0
300
1:40
140
1.0
141
40.0
290
     0
  0
SCALE
  5
24C
102
{ACAD_REACTORS
330
241
102
}
330
241
100
AcDbScale
 70
     0
300
1:50
140
1.0
141
50.0
290
     0
  0
SCALE
  5
24D
102
{ACAD_REACTORS
330
241
102
}
330
241
100
AcDbScale
 70
     0
300
1:100
140
1.0
141
100.0
290
     0
  0
SCALE
  5
24E
102
{ACAD_REACTORS
330
241
102
}
330
241
100
AcDbScale
 70
     0
300
2:1
140
2.0
141
1.0
290
     0
  0
SCALE
  5
24F
102
{ACAD_REACTORS
330
241
102
}
330
241
100
AcDbScale
 70
     0
300
4:1
140
4.0
141
1.0
290
     0
  0
SCALE
  5
250
102
{ACAD_REACTORS
330
241
102
}
330
241
100
AcDbScale
 70
     0
300
8:1
140
8.0
141
1.0
290
     0
  0
SCALE
  5
251
102
{ACAD_REACTORS
330
241
102
}
330
241
100
AcDbScale
 70
     0
300
10:1
140
10.0
141
1.0
290
     0
  0
SCALE
  5
252
102
{ACAD_REACTORS
330
241
102
}
330
241
100
AcDbScale
 70
     0
300
100:1
140
100.0
141
1.0
290
     0
  0
SCALE
  5
253
102
{ACAD_REACTORS
330
241
102
}
330
241
100
AcDbScale
 70
     0
300
1/128" = 1'-0"
140
0.0078125
141
12.0
290
     0
  0
SCALE
  5
254
102
{ACAD_REACTORS
330
241
102
}
330
241
100
AcDbScale
 70
     0
300
1/64" = 1'-0"
140
0.015625
141
12.0
290
     0
  0
SCALE
  5
255
102
{ACAD_REACTORS
330
241
102
}
330
241
100
AcDbScale
 70
     0
300
1/32" = 1'-0"
140
0.03125
141
12.0
290
     0
  0
SCALE
  5
256
102
{ACAD_REACTORS
330
241
102
}
330
241
100
AcDbScale
 70
     0
300
1/16" = 1'-0"
140
0.0625
141
12.0
290
     0
  0
SCALE
  5
257
102
{ACAD_REACTORS
330
241
102
}
330
241
100
AcDbScale
 70
     0
300
3/32" = 1'-0"
140
0.09375
141
12.0
290
     0
  0
SCALE
  5
258
102
{ACAD_REACTORS
330
241
102
}
330
241
100
AcDbScale
 70
     0
300
1/8" = 1'-0"
140
0.125
141
12.0
290
     0
  0
SCALE
  5
259
102
{ACAD_REACTORS
330
241
102
}
330
241
100
AcDbScale
 70
     0
300
3/16" = 1'-0"
140
0.1875
141
12.0
290
     0
  0
SCALE
  5
25A
102
{ACAD_REACTORS
330
241
102
}
330
241
100
AcDbScale
 70
     0
300
1/4" = 1'-0"
140
0.25
141
12.0
290
     0
  0
SCALE
  5
25B
102
{ACAD_REACTORS
330
241
102
}
330
241
100
AcDbScale
 70
     0
300
3/8" = 1'-0"
140
0.375
141
12.0
290
     0
  0
SCALE
  5
25C
102
{ACAD_REACTORS
330
241
102
}
330
241
100
AcDbScale
 70
     0
300
1/2" = 1'-0"
140
0.5
141
12.0
290
     0
  0
SCALE
  5
25D
102
{ACAD_REACTORS
330
241
102
}
330
241
100
AcDbScale
 70
     0
300
3/4" = 1'-0"
140
0.75
141
12.0
290
     0
  0
SCALE
  5
25E
102
{ACAD_REACTORS
330
241
102
}
330
241
100
AcDbScale
 70
     0
300
1" = 1'-0"
140
1.0
141
12.0
290
     0
  0
SCALE
  5
25F
102
{ACAD_REACTORS
330
241
102
}
330
241
100
AcDbScale
 70
     0
300
1-1/2" = 1'-0"
140
1.5
141
12.0
290
     0
  0
SCALE
  5
260
102
{ACAD_REACTORS
330
241
102
}
330
241
100
AcDbScale
 70
     0
300
3" = 1'-0"
140
3.0
141
12.0
290
     0
  0
SCALE
  5
261
102
{ACAD_REACTORS
330
241
102
}
330
241
100
AcDbScale
 70
     0
300
6" = 1'-0"
140
6.0
141
12.0
290
     0
  0
SCALE
  5
262
102
{ACAD_REACTORS
330
241
102
}
330
241
100
AcDbScale
 70
     0
300
1'-0" = 1'-0"
140
12.0
141
12.0
290
     0
  0
TABLESTYLE
  5
279
102
{ACAD_REACTORS
330
278
102
}
102
{ACAD_XDICTIONARY
360
640B
102
}
330
278
100
AcDbTableStyle
  3
Standard
 70
     0
 71
     0
 40
0.06
 41
0.06
280
     0
281
     0
  7
Standard
140
4.5
170
     2
 62
     0
 63
   257
283
     0
 90
        4
 91
        0
  1

274
    -2
284
     1
 64
     0
275
    -2
285
     1
 65
     0
276
    -2
286
     1
 66
     0
277
    -2
287
     1
 67
     0
278
    -2
288
     1
 68
     0
279
    -2
289
     1
 69
     0
  7
Standard
140
6.0
170
     5
 62
     0
 63
   257
283
     0
 90
        4
 91
        0
  1

274
    -2
284
     1
 64
     0
275
    -2
285
     1
 65
     0
276
    -2
286
     1
 66
     0
277
    -2
287
     1
 67
     0
278
    -2
288
     1
 68
     0
279
    -2
289
     1
 69
     0
  7
Standard
140
4.5
170
     5
 62
     0
 63
   257
283
     0
 90
        4
 91
        0
  1

274
    -2
284
     1
 64
     0
275
    -2
285
     1
 65
     0
276
    -2
286
     1
 66
     0
277
    -2
287
     1
 67
     0
278
    -2
288
     1
 68
     0
279
    -2
289
     1
 69
     0
  0
VISUALSTYLE
  5
26C
102
{ACAD_REACTORS
330
267
102
}
330
267
100
AcDbVisualStyle
  2
2dWireframe
 70
     4
 71
     0
 72
     2
 73
     0
 90
        0
 40
-0.6
 41
-30.0
 62
     5
 63
     7
421
 16777215
 74
     1
 91
        4
 64
     7
 65
   257
 75
     1
175
     1
 42
1.0
 92
        0
 66
   257
 43
1.0
 76
     1
 77
     6
 78
     2
 67
     7
 79
     5
170
     0
171
     0
290
     0
174
     0
 93
        1
 44
0.0
173
     0
291
     0
 45
0.0
  0
VISUALSTYLE
  5
26E
102
{ACAD_REACTORS
330
267
102
}
330
267
100
AcDbVisualStyle
  2
3D Hidden
 70
     6
 71
     1
 72
     2
 73
     2
 90
        0
 40
-0.6
 41
-30.0
 62
     5
 63
     7
421
 16777215
 74
     2
 91
        2
 64
     7
 65
   257
 75
     2
175
     1
 42
40.0
 92
        0
 66
   257
 43
1.0
 76
     1
 77
     6
 78
     2
 67
     7
 79
     3
170
     0
171
     0
290
     0
174
     0
 93
        1
 44
0.0
173
     0
291
     0
 45
0.0
  0
VISUALSTYLE
  5
26D
102
{ACAD_REACTORS
330
267
102
}
330
267
100
AcDbVisualStyle
  2
3dWireframe
 70
     5
 71
     0
 72
     2
 73
     0
 90
        0
 40
-0.6
 41
-30.0
 62
     5
 63
     7
421
 16777215
 74
     1
 91
        4
 64
     7
 65
   257
 75
     1
175
     1
 42
1.0
 92
        0
 66
   257
 43
1.0
 76
     1
 77
     6
 78
     2
 67
     7
 79
     5
170
     0
171
     0
290
     0
174
     0
 93
        1
 44
0.0
173
     0
291
     0
 45
0.0
  0
VISUALSTYLE
  5
26F
102
{ACAD_REACTORS
330
267
102
}
330
267
100
AcDbVisualStyle
  2
Basic
 70
     7
 71
     1
 72
     0
 73
     1
 90
        0
 40
-0.6
 41
-30.0
 62
     5
 63
     7
421
 16777215
 74
     0
 91
        4
 64
     7
 65
   257
 75
     1
175
     1
 42
1.0
 92
        8
 66
     7
 43
1.0
 76
     1
 77
     6
 78
     2
 67
     7
 79
     5
170
     0
171
     0
290
     0
174
     0
 93
        1
 44
0.0
173
     0
291
     1
 45
0.0
  0
VISUALSTYLE
  5
273
102
{ACAD_REACTORS
330
267
102
}
330
267
100
AcDbVisualStyle
  2
Brighten
 70
    12
 71
     2
 72
     2
 73
     0
 90
        0
 40
-0.6
 41
-30.0
 62
     5
 63
     7
421
 16777215
 74
     1
 91
        4
 64
     7
 65
   257
 75
     1
175
     1
 42
1.0
 92
        8
 66
     7
 43
1.0
 76
     1
 77
     6
 78
     2
 67
     7
 79
     5
170
     0
171
     0
290
     0
174
     0
 93
        1
 44
50.0
173
     0
291
     1
 45
0.0
  0
VISUALSTYLE
  5
277
102
{ACAD_REACTORS
330
267
102
}
330
267
100
AcDbVisualStyle
  2
ColorChange
 70
    16
 71
     2
 72
     2
 73
     3
 90
        0
 40
-0.6
 41
-30.0
 62
     5
 63
     8
421
  8421504
 74
     1
 91
        4
 64
     7
 65
   257
 75
     1
175
     1
 42
1.0
 92
        8
 66
     8
424
  8421504
 43
1.0
 76
     1
 77
     6
 78
     2
 67
     7
 79
     5
170
     0
171
     0
290
     0
174
     0
 93
        1
 44
0.0
173
     0
291
     1
 45
0.0
  0
VISUALSTYLE
  5
271
102
{ACAD_REACTORS
330
267
102
}
330
267
100
AcDbVisualStyle
  2
Conceptual
 70
     9
 71
     3
 72
     2
 73
     0
 90
        0
 40
-0.6
 41
-30.0
 62
     5
 63
     7
421
 16777215
 74
     2
 91
        2
 64
     7
 65
   257
 75
     1
175
     1
 42
40.0
 92
        8
 66
     7
 43
1.0
 76
     1
 77
     6
 78
     2
 67
     7
 79
     3
170
     0
171
     0
290
     0
174
     0
 93
        1
 44
0.0
173
     0
291
     0
 45
0.0
  0
VISUALSTYLE
  5
272
102
{ACAD_REACTORS
330
267
102
}
330
267
100
AcDbVisualStyle
  2
Dim
 70
    11
 71
     2
 72
     2
 73
     0
 90
        0
 40
-0.6
 41
-30.0
 62
     5
 63
     7
421
 16777215
 74
     1
 91
        4
 64
     7
 65
   257
 75
     1
175
     1
 42
1.0
 92
        8
 66
     7
 43
1.0
 76
     1
 77
     6
 78
     2
 67
     7
 79
     5
170
     0
171
     0
290
     0
174
     0
 93
        1
 44
-50.0
173
     0
291
     1
 45
0.0
  0
VISUALSTYLE
  5
8FE
102
{ACAD_REACTORS
330
267
102
}
330
267
100
AcDbVisualStyle
  2
EdgeColorOff
 70
    22
 71
     2
 72
     2
 73
     0
 90
        0
 40
0.6
 41
30.0
 62
     5
 63
     7
421
 16777215
 74
     1
 91
        4
 64
     7
 65
   257
 75
     1
175
     1
 42
1.0
 92
        8
 66
     7
 43
1.0
 76
     1
 77
     6
 78
     2
 67
     7
 79
     5
170
     0
171
     0
290
     0
174
     0
 93
        1
 44
0.0
173
     0
291
     1
 45
0.0
  0
VISUALSTYLE
  5
276
102
{ACAD_REACTORS
330
267
102
}
330
267
100
AcDbVisualStyle
  2
Facepattern
 70
    15
 71
     2
 72
     2
 73
     0
 90
        0
 40
-0.6
 41
-30.0
 62
     5
 63
     7
421
 16777215
 74
     1
 91
        4
 64
     7
 65
   257
 75
     1
175
     1
 42
1.0
 92
        8
 66
     7
 43
1.0
 76
     1
 77
     6
 78
     2
 67
     7
 79
     5
170
     0
171
     0
290
     0
174
     0
 93
        1
 44
0.0
173
     0
291
     1
 45
0.0
  0
VISUALSTYLE
  5
268
102
{ACAD_REACTORS
330
267
102
}
330
267
100
AcDbVisualStyle
  2
Flat
 70
     0
 71
     2
 72
     1
 73
     1
 90
        2
 40
-0.6
 41
30.0
 62
     5
 63
     7
421
 16777215
 74
     0
 91
        4
 64
     7
 65
   257
 75
     1
175
     1
 42
1.0
 92
        8
 66
     7
 43
1.0
 76
     1
 77
     6
 78
     2
 67
     7
 79
     5
170
     0
171
     0
290
     0
174
     0
 93
       13
 44
0.0
173
     0
291
     1
 45
0.0
  0
VISUALSTYLE
  5
269
102
{ACAD_REACTORS
330
267
102
}
330
267
100
AcDbVisualStyle
  2
FlatWithEdges
 70
     1
 71
     2
 72
     1
 73
     1
 90
        2
 40
-0.6
 41
30.0
 62
     5
 63
     7
421
 16777215
 74
     1
 91
        4
 64
     7
 65
   257
 75
     1
175
     1
 42
1.0
 92
        0
 66
   257
 43
1.0
 76
     1
 77
     6
 78
     2
 67
     7
 79
     5
170
     0
171
     0
290
     0
174
     0
 93
       13
 44
0.0
173
     0
291
     1
 45
0.0
  0
VISUALSTYLE
  5
26A
102
{ACAD_REACTORS
330
267
102
}
330
267
100
AcDbVisualStyle
  2
Gouraud
 70
     2
 71
     2
 72
     2
 73
     1
 90
        2
 40
-0.6
 41
30.0
 62
     5
 63
     7
421
 16777215
 74
     0
 91
        4
 64
     7
 65
   257
 75
     1
175
     1
 42
1.0
 92
        0
 66
     7
 43
1.0
 76
     1
 77
     6
 78
     2
 67
     7
 79
     5
170
     0
171
     0
290
     0
174
     0
 93
       13
 44
0.0
173
     0
291
     1
 45
0.0
  0
VISUALSTYLE
  5
26B
102
{ACAD_REACTORS
330
267
102
}
330
267
100
AcDbVisualStyle
  2
GouraudWithEdges
 70
     3
 71
     2
 72
     2
 73
     1
 90
        2
 40
-0.6
 41
30.0
 62
     5
 63
     7
421
 16777215
 74
     1
 91
        4
 64
     7
 65
   257
 75
     1
175
     1
 42
1.0
 92
        0
 66
   257
 43
1.0
 76
     1
 77
     6
 78
     2
 67
     7
 79
     5
170
     0
171
     0
290
     0
174
     0
 93
       13
 44
0.0
173
     0
291
     1
 45
0.0
  0
VISUALSTYLE
  5
8FB
102
{ACAD_REACTORS
330
267
102
}
330
267
100
AcDbVisualStyle
  2
Hidden
 70
     6
 71
     1
 72
     2
 73
     2
 90
        0
 40
0.6
 41
30.0
 62
     5
 63
     7
421
 16777215
 74
     2
 91
        2
 64
     7
 65
   257
 75
     2
175
     1
 42
40.0
 92
        0
 66
   257
 43
1.0
 76
     1
 77
     6
 78
     2
 67
     7
 79
     3
170
     0
171
     0
290
     0
174
     0
 93
        1
 44
0.0
173
     0
291
     0
 45
0.0
  0
VISUALSTYLE
  5
8FC
102
{ACAD_REACTORS
330
267
102
}
330
267
100
AcDbVisualStyle
  2
JitterOff
 70
    20
 71
     2
 72
     2
 73
     0
 90
        0
 40
0.6
 41
30.0
 62
     5
 63
     7
421
 16777215
 74
     1
 91
        4
 64
     7
 65
   257
 75
     1
175
     1
 42
1.0
 92
       10
 66
     7
 43
1.0
 76
     1
 77
     6
 78
     2
 67
     7
 79
     5
170
     0
171
     0
290
     0
174
     0
 93
        1
 44
0.0
173
     0
291
     1
 45
0.0
  0
VISUALSTYLE
  5
275
102
{ACAD_REACTORS
330
267
102
}
330
267
100
AcDbVisualStyle
  2
Linepattern
 70
    14
 71
     2
 72
     2
 73
     0
 90
        0
 40
-0.6
 41
-30.0
 62
     5
 63
     7
421
 16777215
 74
     1
 91
        4
 64
     7
 65
   257
 75
     7
175
     7
 42
1.0
 92
        8
 66
     7
 43
1.0
 76
     1
 77
     6
 78
     2
 67
     7
 79
     5
170
     0
171
     0
290
     0
174
     0
 93
        1
 44
0.0
173
     0
291
     1
 45
0.0
  0
VISUALSTYLE
  5
8FD
102
{ACAD_REACTORS
330
267
102
}
330
267
100
AcDbVisualStyle
  2
OverhangOff
 70
    21
 71
     2
 72
     2
 73
     0
 90
        0
 40
0.6
 41
30.0
 62
     5
 63
     7
421
 16777215
 74
     1
 91
        4
 64
     7
 65
   257
 75
     1
175
     1
 42
1.0
 92
        9
 66
     7
 43
1.0
 76
     1
 77
     6
 78
     2
 67
     7
 79
     5
170
     0
171
     0
290
     0
174
     0
 93
        1
 44
0.0
173
     0
291
     1
 45
0.0
  0
VISUALSTYLE
  5
270
102
{ACAD_REACTORS
330
267
102
}
330
267
100
AcDbVisualStyle
  2
Realistic
 70
     8
 71
     2
 72
     2
 73
     0
 90
        0
 40
-0.6
 41
-30.0
 62
     5
 63
     7
421
 16777215
 74
     1
 91
        0
 64
     7
 65
   257
 75
     1
175
     1
 42
1.0
 92
        8
 66
     8
424
  7895160
 43
1.0
 76
     1
 77
     6
 78
     2
 67
     7
 79
     5
170
     0
171
     0
290
     0
174
     0
 93
       13
 44
0.0
173
     0
291
     0
 45
0.0
  0
VISUALSTYLE
  5
903
102
{ACAD_REACTORS
330
267
102
}
330
267
100
AcDbVisualStyle
  2
Shaded
 70
    27
 71
     2
 72
     2
 73
     1
 90
        2
 40
0.6
 41
30.0
 62
     5
 63
     7
421
 16777215
 74
     0
 91
        4
 64
     7
 65
   257
 75
     1
175
     1
 42
1.0
 92
        8
 66
   257
 43
1.0
 76
     1
 77
     6
 78
     2
 67
     8
425
  7895160
 79
     3
170
     0
171
     0
290
     0
174
     0
 93
        5
 44
0.0
173
     0
291
     0
 45
0.0
  0
VISUALSTYLE
  5
902
102
{ACAD_REACTORS
330
267
102
}
330
267
100
AcDbVisualStyle
  2
Shaded with edges
 70
    26
 71
     2
 72
     2
 73
     1
 90
        2
 40
0.6
 41
30.0
 62
     5
 63
     7
421
 16777215
 74
     1
 91
       10
 64
     7
 65
   257
 75
     2
175
     1
 42
1.0
 92
        8
 66
   257
 43
1.0
 76
     1
 77
     6
 78
     2
 67
     7
 79
     3
170
     0
171
     0
290
     0
174
     0
 93
        5
 44
0.0
173
     0
291
     0
 45
0.0
  0
VISUALSTYLE
  5
8FF
102
{ACAD_REACTORS
330
267
102
}
330
267
100
AcDbVisualStyle
  2
Shades of Gray
 70
    23
 71
     2
 72
     2
 73
     3
 90
        0
 40
0.6
 41
30.0
 62
     5
 63
     7
421
 16777215
 74
     2
 91
        2
 64
     7
 65
     7
 75
     1
175
     1
 42
40.0
 92
        8
 66
     7
 43
1.0
 76
     1
 77
     6
 78
     2
 67
     7
 79
     3
170
     0
171
     0
290
     0
174
     0
 93
        1
 44
0.0
173
     0
291
     0
 45
0.0
  0
VISUALSTYLE
  5
900
102
{ACAD_REACTORS
330
267
102
}
330
267
100
AcDbVisualStyle
  2
Sketchy
 70
    24
 71
     1
 72
     2
 73
     2
 90
        0
 40
0.6
 41
30.0
 62
     5
 63
     7
421
 16777215
 74
     2
 91
        2
 64
     7
 65
     7
 75
     1
175
     1
 42
40.0
 92
       11
 66
     7
 43
1.0
 76
     1
 77
     6
 78
     2
 67
     7
 79
     6
170
     0
171
     0
290
     0
174
     0
 93
        1
 44
0.0
173
     0
291
     0
 45
0.0
  0
VISUALSTYLE
  5
274
102
{ACAD_REACTORS
330
267
102
}
330
267
100
AcDbVisualStyle
  2
Thicken
 70
    13
 71
     2
 72
     2
 73
     0
 90
        0
 40
-0.6
 41
-30.0
 62
     5
 63
     7
421
 16777215
 74
     1
 91
        4
 64
     7
 65
   257
 75
     1
175
     1
 42
1.0
 92
       12
 66
     7
 43
1.0
 76
     1
 77
     6
 78
     2
 67
     7
 79
     5
170
     0
171
     0
290
     0
174
     0
 93
        1
 44
0.0
173
     0
291
     1
 45
0.0
  0
VISUALSTYLE
  5
8FA
102
{ACAD_REACTORS
330
267
102
}
330
267
100
AcDbVisualStyle
  2
Wireframe
 70
     5
 71
     0
 72
     2
 73
     0
 90
        0
 40
0.6
 41
30.0
 62
     5
 63
     7
421
 16777215
 74
     1
 91
        4
 64
     7
 65
   257
 75
     1
175
     1
 42
1.0
 92
        0
 66
   257
 43
1.0
 76
     1
 77
     6
 78
     2
 67
     7
 79
     3
170
     0
171
     0
290
     0
174
     0
 93
        1
 44
0.0
173
     0
291
     0
 45
0.0
  0
VISUALSTYLE
  5
901
102
{ACAD_REACTORS
330
267
102
}
330
267
100
AcDbVisualStyle
  2
X-Ray
 70
    25
 71
     2
 72
     2
 73
     1
 90
        1
 40
0.5
 41
30.0
 62
     5
 63
     7
421
 16777215
 74
     1
 91
        0
 64
     7
 65
   257
 75
     1
175
     1
 42
1.0
 92
        8
 66
     7
 43
1.0
 76
     1
 77
     6
 78
     2
 67
     7
 79
     3
170
     0
171
     0
290
     0
174
     0
 93
       13
 44
0.0
173
     0
291
     0
 45
0.0
  0
DICTIONARYVAR
  5
331
102
{ACAD_REACTORS
330
330
102
}
330
330
100
DictionaryVariables
280
     0
  1
1:1
  0
DICTIONARYVAR
  5
D5E
102
{ACAD_REACTORS
330
330
102
}
330
330
100
DictionaryVariables
280
     0
  1
Standard
  0
DICTIONARYVAR
  5
335
102
{ACAD_REACTORS
330
330
102
}
330
330
100
DictionaryVariables
280
     0
  1
Standard
  0
DICTIONARYVAR
  5
D52
102
{ACAD_REACTORS
330
330
102
}
330
330
100
DictionaryVariables
280
     0
  1
ByLayer
  0
DICTIONARYVAR
  5
896
102
{ACAD_REACTORS
330
330
102
}
330
330
100
DictionaryVariables
280
     0
  1
0
  0
DICTIONARYVAR
  5
246C
102
{ACAD_REACTORS
330
E38
102
}
330
E38
100
DictionaryVariables
280
     0
  1
0.261799
  0
DICTIONARYVAR
  5
246A
102
{ACAD_REACTORS
330
E38
102
}
330
E38
100
DictionaryVariables
280
     0
  1
0.400000
  0
DICTIONARYVAR
  5
246B
102
{ACAD_REACTORS
330
E38
102
}
330
E38
100
DictionaryVariables
280
     0
  1
0.250000
  0
DICTIONARYVAR
  5
246D
102
{ACAD_REACTORS
330
E38
102
}
330
E38
100
DictionaryVariables
280
     0
  1
1
  0
FIELD
  5
3DBA
102
{ACAD_REACTORS
330
5DA0
102
}
330
5DA0
100
AcDbField
  1
_text
  2
{%<\_FldIdx 0>%N}
 90
        1
360
3DBB
 97
        0
 91
       63
 92
        0
 94
       11
 95
        2
 96
        0
300

 93
        1
  6
ACFD_FIELDTEXT_CHECKSUM
 93
        2
 90
        2
140
4484.0
 94
        0
300

302

304
ACVALUE_END
  7
ACFD_FIELD_VALUE
 93
        6
 90
        4
  1
{20181212N}
 94
        0
300

302

304
ACVALUE_END
301
{20181212N}
 98
       11
  0
DICTIONARY
  5
640B
330
279
100
AcDbDictionary
280
     1
281
     1
  3
ACAD_ROUNDTRIP_2008_TABLESTYLE_CELLSTYLEMAP
360
640C
  0
FIELD
  5
3DBB
330
3DBA
100
AcDbField
  1
AcVar
  2
\AcVar CreateDate \f "yyyyMMdd"
 90
        0
 97
        0
 91
       63
 92
        0
 94
       11
 95
        2
 96
        0
300

 93
        1
  6
Variable
 93
        2
 90
        4
  1
CreateDate
 94
        0
300

302

304
ACVALUE_END
  7
ACFD_FIELD_VALUE
 93
        6
 90
        8
 92
       16
310
E2070C0000000C000900030019000000
 94
        0
300
yyyyMMdd
302

304
ACVALUE_END
301
20181212
 98
        8
  0
CELLSTYLEMAP
  5
640C
102
{ACAD_REACTORS
330
640B
102
}
330
640B
100
AcDbCellStyleMap
 90
        3
300
CELLSTYLE
  1
TABLEFORMAT_BEGIN
 90
        5
170
     1
 91
        0
 92
    32768
 62
   257
 93
        1
300
CONTENTFORMAT
  1
CONTENTFORMAT_BEGIN
 90
        0
 91
        0
 92
        4
 93
        0
300

 40
0.0
140
1.0
 94
        5
 62
     0
340
17
144
6.0
309
CONTENTFORMAT_END
171
     1
301
MARGIN
  1
CELLMARGIN_BEGIN
 40
0.06
 40
0.06
 40
0.06
 40
0.06
 40
0.18
 40
0.18
309
CELLMARGIN_END
 94
        6
 95
        1
302
GRIDFORMAT
  1
GRIDFORMAT_BEGIN
 90
        0
 91
        1
 62
     0
 92
       -2
340
0
 93
        0
 40
0.045
309
GRIDFORMAT_END
 95
        2
302
GRIDFORMAT
  1
GRIDFORMAT_BEGIN
 90
        0
 91
        1
 62
     0
 92
       -2
340
0
 93
        0
 40
0.045
309
GRIDFORMAT_END
 95
        4
302
GRIDFORMAT
  1
GRIDFORMAT_BEGIN
 90
        0
 91
        1
 62
     0
 92
       -2
340
0
 93
        0
 40
0.045
309
GRIDFORMAT_END
 95
        8
302
GRIDFORMAT
  1
GRIDFORMAT_BEGIN
 90
        0
 91
        1
 62
     0
 92
       -2
340
0
 93
        0
 40
0.045
309
GRIDFORMAT_END
 95
       16
302
GRIDFORMAT
  1
GRIDFORMAT_BEGIN
 90
        0
 91
        1
 62
     0
 92
       -2
340
0
 93
        0
 40
0.045
309
GRIDFORMAT_END
 95
       32
302
GRIDFORMAT
  1
GRIDFORMAT_BEGIN
 90
        0
 91
        1
 62
     0
 92
       -2
340
0
 93
        0
 40
0.045
309
GRIDFORMAT_END
309
TABLEFORMAT_END
  1
CELLSTYLE_BEGIN
 90
        1
 91
        1
300
_TITLE
309
CELLSTYLE_END
300
CELLSTYLE
  1
TABLEFORMAT_BEGIN
 90
        5
170
     1
 91
        0
 92
        0
 62
   257
 93
        1
300
CONTENTFORMAT
  1
CONTENTFORMAT_BEGIN
 90
        0
 91
        0
 92
        4
 93
        0
300

 40
0.0
140
1.0
 94
        5
 62
     0
340
17
144
4.5
309
CONTENTFORMAT_END
171
     1
301
MARGIN
  1
CELLMARGIN_BEGIN
 40
0.06
 40
0.06
 40
0.06
 40
0.06
 40
0.18
 40
0.18
309
CELLMARGIN_END
 94
        6
 95
        1
302
GRIDFORMAT
  1
GRIDFORMAT_BEGIN
 90
        0
 91
        1
 62
     0
 92
       -2
340
0
 93
        0
 40
0.045
309
GRIDFORMAT_END
 95
        2
302
GRIDFORMAT
  1
GRIDFORMAT_BEGIN
 90
        0
 91
        1
 62
     0
 92
       -2
340
0
 93
        0
 40
0.045
309
GRIDFORMAT_END
 95
        4
302
GRIDFORMAT
  1
GRIDFORMAT_BEGIN
 90
        0
 91
        1
 62
     0
 92
       -2
340
0
 93
        0
 40
0.045
309
GRIDFORMAT_END
 95
        8
302
GRIDFORMAT
  1
GRIDFORMAT_BEGIN
 90
        0
 91
        1
 62
     0
 92
       -2
340
0
 93
        0
 40
0.045
309
GRIDFORMAT_END
 95
       16
302
GRIDFORMAT
  1
GRIDFORMAT_BEGIN
 90
        0
 91
        1
 62
     0
 92
       -2
340
0
 93
        0
 40
0.045
309
GRIDFORMAT_END
 95
       32
302
GRIDFORMAT
  1
GRIDFORMAT_BEGIN
 90
        0
 91
        1
 62
     0
 92
       -2
340
0
 93
        0
 40
0.045
309
GRIDFORMAT_END
309
TABLEFORMAT_END
  1
CELLSTYLE_BEGIN
 90
        2
 91
        1
300
_HEADER
309
CELLSTYLE_END
300
CELLSTYLE
  1
TABLEFORMAT_BEGIN
 90
        5
170
     1
 91
        0
 92
        0
 62
   257
 93
        1
300
CONTENTFORMAT
  1
CONTENTFORMAT_BEGIN
 90
        0
 91
        0
 92
        4
 93
        0
300

 40
0.0
140
1.0
 94
        2
 62
     0
340
17
144
4.5
309
CONTENTFORMAT_END
171
     1
301
MARGIN
  1
CELLMARGIN_BEGIN
 40
0.06
 40
0.06
 40
0.06
 40
0.06
 40
0.18
 40
0.18
309
CELLMARGIN_END
 94
        6
 95
        1
302
GRIDFORMAT
  1
GRIDFORMAT_BEGIN
 90
        0
 91
        1
 62
     0
 92
       -2
340
0
 93
        0
 40
0.045
309
GRIDFORMAT_END
 95
        2
302
GRIDFORMAT
  1
GRIDFORMAT_BEGIN
 90
        0
 91
        1
 62
     0
 92
       -2
340
0
 93
        0
 40
0.045
309
GRIDFORMAT_END
 95
        4
302
GRIDFORMAT
  1
GRIDFORMAT_BEGIN
 90
        0
 91
        1
 62
     0
 92
       -2
340
0
 93
        0
 40
0.045
309
GRIDFORMAT_END
 95
        8
302
GRIDFORMAT
  1
GRIDFORMAT_BEGIN
 90
        0
 91
        1
 62
     0
 92
       -2
340
0
 93
        0
 40
0.045
309
GRIDFORMAT_END
 95
       16
302
GRIDFORMAT
  1
GRIDFORMAT_BEGIN
 90
        0
 91
        1
 62
     0
 92
       -2
340
0
 93
        0
 40
0.045
309
GRIDFORMAT_END
 95
       32
302
GRIDFORMAT
  1
GRIDFORMAT_BEGIN
 90
        0
 91
        1
 62
     0
 92
       -2
340
0
 93
        0
 40
0.045
309
GRIDFORMAT_END
309
TABLEFORMAT_END
  1
CELLSTYLE_BEGIN
 90
        3
 91
        2
300
_DATA
309
CELLSTYLE_END
  0
ENDSEC
  0
EOF
