  0
SECTION
  2
HEADER
  9
$ACADVER
  1
AC1021
  9
$ACADMAINTVER
 70
    25
  9
$DWGCODEPAGE
  3
ANSI_932
  9
$LASTSAVEDBY
  1
howeNelson
  9
$INSBASE
 10
0.0
 20
0.0
 30
0.0
  9
$EXTMIN
 10
0.0
 20
0.0
 30
0.0
  9
$EXTMAX
 10
593.9999999999999
 20
420.0
 30
0.0
  9
$LIMMIN
 10
0.0
 20
0.0
  9
$LIMMAX
 10
593.9999999999999
 20
420.0
  9
$ORTHOMODE
 70
     0
  9
$REGENMODE
 70
     1
  9
$FILLMODE
 70
     1
  9
$QTEXTMODE
 70
     0
  9
$MIRRTEXT
 70
     1
  9
$LTSCALE
 40
0.5
  9
$ATTMODE
 70
     1
  9
$TEXTSIZE
 40
2.5
  9
$TRACEWID
 40
1.0
  9
$TEXTSTYLE
  7
ＭＳ ゴシック
  9
$CLAYER
  8
DIM
  9
$CELTYPE
  6
ByLayer
  9
$CECOLOR
 62
   256
  9
$CELTSCALE
 40
1.0
  9
$DISPSILH
 70
     0
  9
$DIMSCALE
 40
1.0
  9
$DIMASZ
 40
2.0
  9
$DIMEXO
 40
5.0
  9
$DIMDLI
 40
0.9999999999999999
  9
$DIMRND
 40
0.0
  9
$DIMDLE
 40
0.0
  9
$DIMEXE
 40
0.0
  9
$DIMTP
 40
0.0
  9
$DIMTM
 40
0.0
  9
$DIMTXT
 40
5.0
  9
$DIMCEN
 40
0.0
  9
$DIMTSZ
 40
0.0
  9
$DIMTOL
 70
     0
  9
$DIMLIM
 70
     0
  9
$DIMTIH
 70
     0
  9
$DIMTOH
 70
     0
  9
$DIMSE1
 70
     0
  9
$DIMSE2
 70
     0
  9
$DIMTAD
 70
     1
  9
$DIMZIN
 70
    11
  9
$DIMBLK
  1
DOT
  9
$DIMASO
 70
     1
  9
$DIMSHO
 70
     1
  9
$DIMPOST
  1
<>
  9
$DIMAPOST
  1
[]
  9
$DIMALT
 70
     0
  9
$DIMALTD
 70
     1
  9
$DIMALTF
 40
1.0
  9
$DIMLFAC
 40
1.0
  9
$DIMTOFL
 70
     0
  9
$DIMTVP
 40
0.0
  9
$DIMTIX
 70
     1
  9
$DIMSOXD
 70
     0
  9
$DIMSAH
 70
     0
  9
$DIMBLK1
  1

  9
$DIMBLK2
  1

  9
$DIMSTYLE
  2
tfrom線あり
  9
$DIMCLRD
 70
     0
  9
$DIMCLRE
 70
     0
  9
$DIMCLRT
 70
     0
  9
$DIMTFAC
 40
1.0
  9
$DIMGAP
 40
2.0
  9
$DIMJUST
 70
     0
  9
$DIMSD1
 70
     0
  9
$DIMSD2
 70
     0
  9
$DIMTOLJ
 70
     1
  9
$DIMTZIN
 70
    11
  9
$DIMALTZ
 70
    11
  9
$DIMALTTZ
 70
    11
  9
$DIMUPT
 70
     0
  9
$DIMDEC
 70
     0
  9
$DIMTDEC
 70
     1
  9
$DIMALTU
 70
     2
  9
$DIMALTTD
 70
     2
  9
$DIMTXSTY
  7
ＭＳ ゴシック
  9
$DIMAUNIT
 70
     0
  9
$DIMADEC
 70
     2
  9
$DIMALTRND
 40
0.0
  9
$DIMAZIN
 70
     0
  9
$DIMDSEP
 70
    46
  9
$DIMATFIT
 70
     0
  9
$DIMFRAC
 70
     2
  9
$DIMLDRBLK
  1
DOT
  9
$DIMLUNIT
 70
     2
  9
$DIMLWD
 70
    -2
  9
$DIMLWE
 70
    -2
  9
$DIMTMOVE
 70
     0
  9
$DIMFXL
 40
1.0
  9
$DIMFXLON
 70
     0
  9
$DIMJOGANG
 40
0.7853981633974483
  9
$DIMTFILL
 70
     0
  9
$DIMTFILLCLR
 70
     0
  9
$DIMARCSYM
 70
     0
  9
$DIMLTYPE
  6

  9
$DIMLTEX1
  6

  9
$DIMLTEX2
  6

  9
$LUNITS
 70
     2
  9
$LUPREC
 70
     0
  9
$SKETCHINC
 40
0.1
  9
$FILLETRAD
 40
1.0
  9
$AUNITS
 70
     0
  9
$AUPREC
 70
     0
  9
$MENU
  1
acad
  9
$ELEVATION
 40
0.0
  9
$PELEVATION
 40
0.0
  9
$THICKNESS
 40
0.0
  9
$LIMCHECK
 70
     0
  9
$CHAMFERA
 40
0.0
  9
$CHAMFERB
 40
0.0
  9
$CHAMFERC
 40
0.0
  9
$CHAMFERD
 40
0.0
  9
$SKPOLY
 70
     0
  9
$TDCREATE
 40
2447893.375
  9
$TDUCREATE
 40
0.0
  9
$TDUPDATE
 40
2458089.597132859
  9
$TDUUPDATE
 40
2458089.222132859
  9
$TDINDWG
 40
0.6592584606
  9
$TDUSRTIMER
 40
2458089.191109004
  9
$USRTIMER
 70
     1
  9
$ANGBASE
 50
0.0
  9
$ANGDIR
 70
     0
  9
$PDMODE
 70
     1
  9
$PDSIZE
 40
-2.0
  9
$PLINEWID
 40
0.0
  9
$SPLFRAME
 70
     0
  9
$SPLINETYPE
 70
     6
  9
$SPLINESEGS
 70
     8
  9
$HANDSEED
  5
4C9E
  9
$SURFTAB1
 70
     6
  9
$SURFTAB2
 70
     6
  9
$SURFTYPE
 70
     6
  9
$SURFU
 70
     6
  9
$SURFV
 70
     6
  9
$UCSBASE
  2

  9
$UCSNAME
  2

  9
$UCSORG
 10
0.0
 20
0.0
 30
0.0
  9
$UCSXDIR
 10
1.0
 20
0.0
 30
0.0
  9
$UCSYDIR
 10
0.0
 20
1.0
 30
0.0
  9
$UCSORTHOREF
  2

  9
$UCSORTHOVIEW
 70
     0
  9
$UCSORGTOP
 10
0.0
 20
0.0
 30
0.0
  9
$UCSORGBOTTOM
 10
0.0
 20
0.0
 30
0.0
  9
$UCSORGLEFT
 10
0.0
 20
0.0
 30
0.0
  9
$UCSORGRIGHT
 10
0.0
 20
0.0
 30
0.0
  9
$UCSORGFRONT
 10
0.0
 20
0.0
 30
0.0
  9
$UCSORGBACK
 10
0.0
 20
0.0
 30
0.0
  9
$PUCSBASE
  2

  9
$PUCSNAME
  2

  9
$PUCSORG
 10
0.0
 20
0.0
 30
0.0
  9
$PUCSXDIR
 10
1.0
 20
0.0
 30
0.0
  9
$PUCSYDIR
 10
0.0
 20
1.0
 30
0.0
  9
$PUCSORTHOREF
  2

  9
$PUCSORTHOVIEW
 70
     0
  9
$PUCSORGTOP
 10
0.0
 20
0.0
 30
0.0
  9
$PUCSORGBOTTOM
 10
0.0
 20
0.0
 30
0.0
  9
$PUCSORGLEFT
 10
0.0
 20
0.0
 30
0.0
  9
$PUCSORGRIGHT
 10
0.0
 20
0.0
 30
0.0
  9
$PUCSORGFRONT
 10
0.0
 20
0.0
 30
0.0
  9
$PUCSORGBACK
 10
0.0
 20
0.0
 30
0.0
  9
$USERI1
 70
     0
  9
$USERI2
 70
     0
  9
$USERI3
 70
     0
  9
$USERI4
 70
     0
  9
$USERI5
 70
     0
  9
$USERR1
 40
0.0
  9
$USERR2
 40
0.0
  9
$USERR3
 40
0.0
  9
$USERR4
 40
0.0
  9
$USERR5
 40
0.0
  9
$WORLDVIEW
 70
     1
  9
$SHADEDGE
 70
     3
  9
$SHADEDIF
 70
    70
  9
$TILEMODE
 70
     1
  9
$MAXACTVP
 70
    64
  9
$PINSBASE
 10
0.0
 20
0.0
 30
0.0
  9
$PLIMCHECK
 70
     0
  9
$PEXTMIN
 10
0.0
 20
0.0
 30
0.0
  9
$PEXTMAX
 10
0.0
 20
0.0
 30
0.0
  9
$PLIMMIN
 10
-7.5
 20
-20.0
  9
$PLIMMAX
 10
412.5
 20
277.0
  9
$UNITMODE
 70
     0
  9
$VISRETAIN
 70
     0
  9
$PLINEGEN
 70
     1
  9
$PSLTSCALE
 70
     0
  9
$TREEDEPTH
 70
  3020
  9
$CMLSTYLE
  2
Standard
  9
$CMLJUST
 70
     0
  9
$CMLSCALE
 40
1.0
  9
$PROXYGRAPHICS
 70
     0
  9
$MEASUREMENT
 70
     1
  9
$CELWEIGHT
370
    -1
  9
$ENDCAPS
280
     0
  9
$JOINSTYLE
280
     0
  9
$LWDISPLAY
290
     1
  9
$INSUNITS
 70
     4
  9
$HYPERLINKBASE
  1

  9
$STYLESHEET
  1

  9
$XEDIT
290
     1
  9
$CEPSNTYPE
380
     0
  9
$PSTYLEMODE
290
     1
  9
$FINGERPRINTGUID
  2

  9
$VERSIONGUID
  2

  9
$EXTNAMES
290
     1
  9
$PSVPSCALE
 40
0.0
  9
$OLESTARTUP
290
     0
  9
$SORTENTS
280
   127
  9
$INDEXCTL
280
     0
  9
$HIDETEXT
280
     1
  9
$XCLIPFRAME
290
     0
  9
$HALOGAP
280
     0
  9
$OBSCOLOR
 70
   257
  9
$OBSLTYPE
280
     0
  9
$INTERSECTIONDISPLAY
280
     0
  9
$INTERSECTIONCOLOR
 70
   257
  9
$DIMASSOC
280
     2
  9
$PROJECTNAME
  1

  9
$CAMERADISPLAY
290
     0
  9
$LENSLENGTH
 40
50.0
  9
$CAMERAHEIGHT
 40
0.0
  9
$STEPSPERSEC
 40
2.0
  9
$STEPSIZE
 40
6.0
  9
$3DDWFPREC
 40
2.0
  9
$PSOLWIDTH
 40
0.25
  9
$PSOLHEIGHT
 40
4.0
  9
$LOFTANG1
 40
1.570796326794897
  9
$LOFTANG2
 40
1.570796326794897
  9
$LOFTMAG1
 40
0.0
  9
$LOFTMAG2
 40
0.0
  9
$LOFTPARAM
 70
     7
  9
$LOFTNORMALS
280
     1
  9
$LATITUDE
 40
37.795
  9
$LONGITUDE
 40
-122.394
  9
$NORTHDIRECTION
 40
0.0
  9
$TIMEZONE
 70
 -8000
  9
$LIGHTGLYPHDISPLAY
280
     1
  9
$TILEMODELIGHTSYNCH
280
     1
  9
$SOLIDHIST
280
     1
  9
$SHOWHIST
280
     1
  9
$DWFFRAME
280
     2
  9
$DGNFRAME
280
     2
  9
$REALWORLDSCALE
290
     1
  9
$INTERFERECOLOR
 62
   256
  9
$CSHADOW
280
     0
  9
$SHADOWPLANELOCATION
 40
0.0
  0
ENDSEC
  0
SECTION
  2
CLASSES
  0
CLASS
  1
LWPOLYLINE
  2
AcDbPolyline
  3
ObjectDBX Classes
 90
        0
 91
        1
280
     0
281
     1
  0
CLASS
  1
IMAGE
  2
AcDbRasterImage
  3
ISM
 90
      127
 91
        5
280
     0
281
     1
  0
CLASS
  1
OLE2FRAME
  2
AcDbOle2Frame
  3
ObjectDBX Classes
 90
        0
 91
        1
280
     0
281
     1
  0
CLASS
  1
HATCH
  2
AcDbHatch
  3
ObjectDBX Classes
 90
        0
 91
        1
280
     0
281
     1
  0
CLASS
  1
DICTIONARYVAR
  2
AcDbDictionaryVar
  3
ObjectDBX Classes
 90
        0
 91
        4
280
     0
281
     0
  0
CLASS
  1
RASTERVARIABLES
  2
AcDbRasterVariables
  3
ISM
 90
        0
 91
        4
280
     0
281
     0
  0
CLASS
  1
IMAGEDEF
  2
AcDbRasterImageDef
  3
ISM
 90
        0
 91
        4
280
     0
281
     0
  0
CLASS
  1
IMAGEDEF_REACTOR
  2
AcDbRasterImageDefReactor
  3
ISM
 90
        1
 91
        4
280
     0
281
     0
  0
CLASS
  1
IDBUFFER
  2
AcDbIdBuffer
  3
ObjectDBX Classes
 90
        0
 91
        4
280
     0
281
     0
  0
CLASS
  1
SPATIAL_FILTER
  2
AcDbSpatialFilter
  3
ObjectDBX Classes
 90
        0
 91
        4
280
     0
281
     0
  0
CLASS
  1
XRECORD
  2
AcDbXrecord
  3
ObjectDBX Classes
 90
        0
 91
        1
280
     0
281
     0
  0
CLASS
  1
SORTENTSTABLE
  2
AcDbSortentsTable
  3
ObjectDBX Classes
 90
        0
 91
        4
280
     0
281
     0
  0
CLASS
  1
LAYER_INDEX
  2
AcDbLayerIndex
  3
ObjectDBX Classes
 90
        0
 91
        4
280
     0
281
     0
  0
CLASS
  1
SPATIAL_INDEX
  2
AcDbSpatialIndex
  3
AutoCAD 2000
 90
        0
 91
        4
280
     0
281
     0
  0
CLASS
  1
OBJECT_PTR
  2
CAseDLPNTableRecord
  3
ASE-LPNTableRecord
 90
        1
 91
        4
280
     0
281
     0
  0
CLASS
  1
LAYOUT
  2
AcDbLayout
  3
ObjectDBX Classes
 90
        0
 91
        1
280
     0
281
     0
  0
CLASS
  1
PLOTSETTINGS
  2
AcDbPlotSettings
  3
ObjectDBX Classes
 90
        0
 91
        4
280
     0
281
     0
  0
CLASS
  1
ACDBDICTIONARYWDFLT
  2
AcDbDictionaryWithDefault
  3
ObjectDBX Classes
 90
        0
 91
        4
280
     0
281
     0
  0
CLASS
  1
ACDBPLACEHOLDER
  2
AcDbPlaceHolder
  3
ObjectDBX Classes
 90
        0
 91
        1
280
     0
281
     0
  0
CLASS
  1
SCALE
  2
AcDbScale
  3
ObjectDBX Classes
 90
     1153
 91
        4
280
     0
281
     0
  0
CLASS
  1
MATERIAL
  2
AcDbMaterial
  3
ObjectDBX Classes
 90
     1153
 91
        4
280
     0
281
     0
  0
CLASS
  1
VISUALSTYLE
  2
AcDbVisualStyle
  3
ObjectDBX Classes
 90
     4095
 91
        4
280
     0
281
     0
  0
CLASS
  1
TABLESTYLE
  2
AcDbTableStyle
  3
ObjectDBX Classes
 90
     4095
 91
        4
280
     0
281
     0
  0
CLASS
  1
DIMASSOC
  2
AcDbDimAssoc
  3
"AcDbDimAssoc|Product Desc:     AcDim ARX App For Dimension|Company:          Autodesk, Inc.|WEB Address:      www.autodesk.com"
 90
        0
 91
        4
280
     0
281
     0
  0
CLASS
  1
CELLSTYLEMAP
  2
AcDbCellStyleMap
  3
ObjectDBX Classes
 90
     1152
 91
        4
280
     0
281
     0
  0
CLASS
  1
SUN
  2
AcDbSun
  3
SCENEOE
 90
     1153
 91
        4
280
     0
281
     0
  0
CLASS
  1
MLEADERSTYLE
  2
AcDbMLeaderStyle
  3
ACDB_MLEADERSTYLE_CLASS
 90
     4095
 91
        4
280
     0
281
     0
  0
ENDSEC
  0
SECTION
  2
TABLES
  0
TABLE
  2
VPORT
  5
7
330
0
100
AcDbSymbolTable
 70
     1
  0
VPORT
  5
15
330
7
100
AcDbSymbolTableRecord
100
AcDbViewportTableRecord
  2
*ACTIVE
 70
     0
 10
0.0
 20
0.0
 11
1.0
 21
1.0
 12
296.9999999999999
 22
210.0
 13
0.0
 23
0.0
 14
1.0
 24
1.0
 15
0.0
 25
0.0
 16
0.0
 26
0.0
 36
1.0
 17
0.0
 27
0.0
 37
0.0
 40
428.4
 41
2.178082191780822
 42
50.0
 43
0.0
 44
0.0
 50
0.0
 51
0.0
 71
    16
 72
  2000
 73
     1
 74
     1
 75
     0
 76
     0
 77
     0
 78
     0
281
     0
 65
     1
110
0.0
120
0.0
130
0.0
111
1.0
121
0.0
131
0.0
112
0.0
122
1.0
132
0.0
 79
     0
146
0.0
348
4BE1
 60
     3
 61
     5
292
     1
282
     1
141
0.0
142
0.0
 63
   256
361
10E8
  0
ENDTAB
  0
TABLE
  2
LTYPE
  5
4
330
0
100
AcDbSymbolTable
 70
     3
  0
LTYPE
  5
11
330
4
100
AcDbSymbolTableRecord
100
AcDbLinetypeTableRecord
  2
ByBlock
 70
     0
  3

 72
    65
 73
     0
 40
0.0
  0
LTYPE
  5
12
330
4
100
AcDbSymbolTableRecord
100
AcDbLinetypeTableRecord
  2
ByLayer
 70
     0
  3
Solid line
 72
    65
 73
     0
 40
0.0
  0
LTYPE
  5
13
330
4
100
AcDbSymbolTableRecord
100
AcDbLinetypeTableRecord
  2
Continuous
 70
     0
  3
Solid line
 72
    65
 73
     0
 40
0.0
  0
LTYPE
  5
12C7
330
4
100
AcDbSymbolTableRecord
100
AcDbLinetypeTableRecord
  2
HIDDEN
 70
     0
  3
Hidden _ _ _ _ _ _ _ _ _ _ _ _ _ _ _ _ _ _ _ _ 
 72
    65
 73
     2
 40
9.524999999999999
 49
6.35
 74
     0
 49
-3.175
 74
     0
  0
LTYPE
  5
4814
330
4
100
AcDbSymbolTableRecord
100
AcDbLinetypeTableRecord
  2
CENTER
 70
     0
  3
 Center _____  _  _____  _  _____  _  _____  _ 
 72
    65
 73
     4
 40
50.8
 49
31.75
 74
     0
 49
-6.35
 74
     0
 49
6.35
 74
     0
 49
-6.35
 74
     0
  0
ENDTAB
  0
TABLE
  2
LAYER
  5
2
102
{ACAD_XDICTIONARY
360
2E1
102
}
330
0
100
AcDbSymbolTable
 70
     9
  0
LAYER
  5
14
330
2
100
AcDbSymbolTableRecord
100
AcDbLayerTableRecord
  2
0
 70
     0
 62
     7
  6
Continuous
370
    -3
390
1D
347
266
  0
LAYER
  5
4A
330
2
100
AcDbSymbolTableRecord
100
AcDbLayerTableRecord
  2
Defpoints
 70
     0
 62
     7
  6
Continuous
290
     0
370
    -3
390
1D
347
266
  0
LAYER
  5
12CF
330
2
100
AcDbSymbolTableRecord
100
AcDbLayerTableRecord
  2
モデル
 70
     0
 62
     7
  6
Continuous
370
    20
390
1D
347
266
1001
AcAecLayerStandard
1000

1000

  0
LAYER
  5
142A
330
2
100
AcDbSymbolTableRecord
100
AcDbLayerTableRecord
  2
テンプレート
 70
     0
 62
     7
  6
Continuous
370
    20
390
1D
347
266
1001
AcAecLayerStandard
1000

1000

  0
LAYER
  5
1D5C
330
2
100
AcDbSymbolTableRecord
100
AcDbLayerTableRecord
  2
TFORMLOGO
 70
     0
 62
     7
  6
Continuous
370
    20
390
1D
347
266
  0
LAYER
  5
3848
330
2
100
AcDbSymbolTableRecord
100
AcDbLayerTableRecord
  2
PRINT BORDER
 70
     0
 62
     4
  6
Continuous
290
     0
370
    -3
390
1D
347
266
1001
AcAecLayerStandard
1000

1000

  0
LAYER
  5
48A4
330
2
100
AcDbSymbolTableRecord
100
AcDbLayerTableRecord
  2
レイヤー 1
 70
     0
 62
     7
  6
Continuous
370
    -3
390
1D
347
266
  0
LAYER
  5
4A9D
330
2
100
AcDbSymbolTableRecord
100
AcDbLayerTableRecord
  2
HIDDEN
 70
     0
 62
     8
  6
HIDDEN
370
    20
390
1D
347
266
1001
AcAecLayerStandard
1000

1000

  0
LAYER
  5
4B5E
330
2
100
AcDbSymbolTableRecord
100
AcDbLayerTableRecord
  2
DIM
 70
     0
 62
     3
  6
Continuous
370
    13
390
1D
347
266
1001
AcAecLayerStandard
1000

1000

  0
ENDTAB
  0
TABLE
  2
STYLE
  5
3
330
0
100
AcDbSymbolTable
 70
     2
  0
STYLE
  5
17
330
3
100
AcDbSymbolTableRecord
100
AcDbTextStyleTableRecord
  2
Standard
 70
     0
 40
0.0
 41
1.0
 50
0.0
 71
     0
 42
2.5
  3
txt
  4
BIGFONT.SHX
  0
STYLE
  5
39
330
3
100
AcDbSymbolTableRecord
100
AcDbTextStyleTableRecord
  2
ＭＳ ゴシック
 70
     0
 40
0.0
 41
1.0
 50
0.0
 71
     0
 42
2.5
  3
msgothic.ttc
  4
ＭＳ ゴシック
1001
ACAD
1000
ＭＳ ゴシック
1071
        0
  0
ENDTAB
  0
TABLE
  2
VIEW
  5
5
330
0
100
AcDbSymbolTable
 70
     0
  0
ENDTAB
  0
TABLE
  2
UCS
  5
6
330
0
100
AcDbSymbolTable
 70
     0
  0
ENDTAB
  0
TABLE
  2
APPID
  5
8
330
0
100
AcDbSymbolTable
 70
     3
  0
APPID
  5
16
330
8
100
AcDbSymbolTableRecord
100
AcDbRegAppTableRecord
  2
ACAD
 70
     0
  0
APPID
  5
7AC
330
8
100
AcDbSymbolTableRecord
100
AcDbRegAppTableRecord
  2
AcAecLayerStandard
 70
     0
  0
APPID
  5
4403
330
8
100
AcDbSymbolTableRecord
100
AcDbRegAppTableRecord
  2
ACAD_MLEADERVER
 70
     0
  0
ENDTAB
  0
TABLE
  2
DIMSTYLE
  5
9
330
0
100
AcDbSymbolTable
 70
     2
100
AcDbDimStyleTable
  0
DIMSTYLE
105
18
330
9
100
AcDbSymbolTableRecord
100
AcDbDimStyleTableRecord
  2
Standard
 70
     0
178
     0
340
17
  0
DIMSTYLE
105
57
102
{ACAD_REACTORS
330
4B79
330
4B95
330
4BA4
330
4BB6
330
4BC5
330
4BFC
330
4C0B
330
4C2D
330
4C4D
330
4C64
330
4C77
102
}
330
9
100
AcDbSymbolTableRecord
100
AcDbDimStyleTableRecord
  2
tfrom線あり
 70
     0
  3
<>
  4
[]
 41
2.0
 42
5.0
 43
0.9999999999999999
 44
0.0
 73
     0
 74
     0
 77
     1
 78
    11
140
5.0
141
0.0
143
1.0
147
2.0
171
     1
174
     1
178
     0
179
     2
271
     0
272
     1
276
     2
284
    11
285
    11
286
    11
289
     0
340
39
341
4E
342
4E
  0
ENDTAB
  0
TABLE
  2
BLOCK_RECORD
  5
1
330
0
100
AcDbSymbolTable
 70
    68
  0
BLOCK_RECORD
  5
A
330
1
100
AcDbSymbolTableRecord
100
AcDbBlockTableRecord
  2
*MODEL_SPACE
340
20
 70
     0
280
     1
281
     0
  0
BLOCK_RECORD
  5
B
330
1
100
AcDbSymbolTableRecord
100
AcDbBlockTableRecord
  2
*PAPER_SPACE
340
21
 70
     0
280
     1
281
     0
  0
BLOCK_RECORD
  5
4E
330
1
100
AcDbSymbolTableRecord
100
AcDbBlockTableRecord
  2
_DOT
340
0
102
{BLKREFS
331
4BF7
331
4BF6
331
4C06
331
4C05
331
4C15
331
4C14
331
4C25
331
4C24
331
0
331
4C37
331
0
331
4C57
331
0
331
4C6E
331
4C81
331
4C80
102
}
 70
     0
280
     1
281
     0
  0
BLOCK_RECORD
  5
12C3
330
1
100
AcDbSymbolTableRecord
100
AcDbBlockTableRecord
  2
*Paper_Space1
340
12C4
 70
     0
280
     1
281
     0
  0
BLOCK_RECORD
  5
1D88
330
1
100
AcDbSymbolTableRecord
100
AcDbBlockTableRecord
  2
名称未設定-1
340
0
102
{BLKREFS
331
36E3
102
}
 70
     1
280
     1
281
     0
  0
BLOCK_RECORD
  5
1D8B
330
1
100
AcDbSymbolTableRecord
100
AcDbBlockTableRecord
  2
block 2
340
0
102
{BLKREFS
331
1D8A
102
}
 70
     0
280
     1
281
     0
  0
BLOCK_RECORD
  5
1D8E
330
1
100
AcDbSymbolTableRecord
100
AcDbBlockTableRecord
  2
block 3
340
0
102
{BLKREFS
331
1D8D
102
}
 70
     0
280
     1
281
     0
  0
BLOCK_RECORD
  5
1D91
330
1
100
AcDbSymbolTableRecord
100
AcDbBlockTableRecord
  2
block 4
340
0
102
{BLKREFS
331
1D90
102
}
 70
     0
280
     1
281
     0
  0
BLOCK_RECORD
  5
1DA0
330
1
100
AcDbSymbolTableRecord
100
AcDbBlockTableRecord
  2
block 5
340
0
102
{BLKREFS
331
1D9F
102
}
 70
     0
280
     1
281
     0
  0
BLOCK_RECORD
  5
468A
330
1
100
AcDbSymbolTableRecord
100
AcDbBlockTableRecord
  2
*D7
340
0
 70
     0
280
     1
281
     0
  0
BLOCK_RECORD
  5
469D
330
1
100
AcDbSymbolTableRecord
100
AcDbBlockTableRecord
  2
*D8
340
0
 70
     0
280
     1
281
     0
  0
BLOCK_RECORD
  5
46AD
330
1
100
AcDbSymbolTableRecord
100
AcDbBlockTableRecord
  2
*D9
340
0
 70
     0
280
     1
281
     0
  0
BLOCK_RECORD
  5
46C0
330
1
100
AcDbSymbolTableRecord
100
AcDbBlockTableRecord
  2
*D10
340
0
 70
     0
280
     1
281
     0
  0
BLOCK_RECORD
  5
46CF
330
1
100
AcDbSymbolTableRecord
100
AcDbBlockTableRecord
  2
*D11
340
0
 70
     0
280
     1
281
     0
  0
BLOCK_RECORD
  5
46DE
330
1
100
AcDbSymbolTableRecord
100
AcDbBlockTableRecord
  2
*D12
340
0
 70
     0
280
     1
281
     0
  0
BLOCK_RECORD
  5
46ED
330
1
100
AcDbSymbolTableRecord
100
AcDbBlockTableRecord
  2
*D13
340
0
 70
     0
280
     1
281
     0
  0
BLOCK_RECORD
  5
4759
330
1
100
AcDbSymbolTableRecord
100
AcDbBlockTableRecord
  2
*D14
340
0
 70
     0
280
     1
281
     0
  0
BLOCK_RECORD
  5
4768
330
1
100
AcDbSymbolTableRecord
100
AcDbBlockTableRecord
  2
*D15
340
0
 70
     0
280
     1
281
     0
  0
BLOCK_RECORD
  5
477B
330
1
100
AcDbSymbolTableRecord
100
AcDbBlockTableRecord
  2
*D16
340
0
 70
     0
280
     1
281
     0
  0
BLOCK_RECORD
  5
478A
330
1
100
AcDbSymbolTableRecord
100
AcDbBlockTableRecord
  2
*D17
340
0
 70
     0
280
     1
281
     0
  0
BLOCK_RECORD
  5
47A1
330
1
100
AcDbSymbolTableRecord
100
AcDbBlockTableRecord
  2
*D18
340
0
 70
     0
280
     1
281
     0
  0
BLOCK_RECORD
  5
47AE
330
1
100
AcDbSymbolTableRecord
100
AcDbBlockTableRecord
  2
*D19
340
0
 70
     0
280
     1
281
     0
  0
BLOCK_RECORD
  5
47BC
330
1
100
AcDbSymbolTableRecord
100
AcDbBlockTableRecord
  2
*D20
340
0
 70
     0
280
     1
281
     0
  0
BLOCK_RECORD
  5
47CC
330
1
100
AcDbSymbolTableRecord
100
AcDbBlockTableRecord
  2
*D21
340
0
 70
     0
280
     1
281
     0
  0
BLOCK_RECORD
  5
47DE
330
1
100
AcDbSymbolTableRecord
100
AcDbBlockTableRecord
  2
*D22
340
0
 70
     0
280
     1
281
     0
  0
BLOCK_RECORD
  5
47EE
330
1
100
AcDbSymbolTableRecord
100
AcDbBlockTableRecord
  2
*D23
340
0
 70
     0
280
     1
281
     0
  0
BLOCK_RECORD
  5
481B
330
1
100
AcDbSymbolTableRecord
100
AcDbBlockTableRecord
  2
*D24
340
0
 70
     0
280
     1
281
     0
  0
BLOCK_RECORD
  5
482A
330
1
100
AcDbSymbolTableRecord
100
AcDbBlockTableRecord
  2
*D25
340
0
 70
     0
280
     1
281
     0
  0
BLOCK_RECORD
  5
483B
330
1
100
AcDbSymbolTableRecord
100
AcDbBlockTableRecord
  2
*D26
340
0
 70
     0
280
     1
281
     0
  0
BLOCK_RECORD
  5
484A
330
1
100
AcDbSymbolTableRecord
100
AcDbBlockTableRecord
  2
*D27
340
0
 70
     0
280
     1
281
     0
  0
BLOCK_RECORD
  5
485D
330
1
100
AcDbSymbolTableRecord
100
AcDbBlockTableRecord
  2
*D28
340
0
 70
     0
280
     1
281
     0
  0
BLOCK_RECORD
  5
486F
330
1
100
AcDbSymbolTableRecord
100
AcDbBlockTableRecord
  2
*D29
340
0
 70
     0
280
     1
281
     0
  0
BLOCK_RECORD
  5
4882
330
1
100
AcDbSymbolTableRecord
100
AcDbBlockTableRecord
  2
*D30
340
0
 70
     0
280
     1
281
     0
  0
BLOCK_RECORD
  5
48F9
330
1
100
AcDbSymbolTableRecord
100
AcDbBlockTableRecord
  2
*D31
340
0
 70
     0
280
     1
281
     0
  0
BLOCK_RECORD
  5
4912
330
1
100
AcDbSymbolTableRecord
100
AcDbBlockTableRecord
  2
*D32
340
0
 70
     0
280
     1
281
     0
  0
BLOCK_RECORD
  5
4928
330
1
100
AcDbSymbolTableRecord
100
AcDbBlockTableRecord
  2
*D33
340
0
 70
     0
280
     1
281
     0
  0
BLOCK_RECORD
  5
493C
330
1
100
AcDbSymbolTableRecord
100
AcDbBlockTableRecord
  2
*D34
340
0
 70
     0
280
     1
281
     0
  0
BLOCK_RECORD
  5
494B
330
1
100
AcDbSymbolTableRecord
100
AcDbBlockTableRecord
  2
*D35
340
0
 70
     0
280
     1
281
     0
  0
BLOCK_RECORD
  5
495C
330
1
100
AcDbSymbolTableRecord
100
AcDbBlockTableRecord
  2
*D36
340
0
 70
     0
280
     1
281
     0
  0
BLOCK_RECORD
  5
496F
330
1
100
AcDbSymbolTableRecord
100
AcDbBlockTableRecord
  2
*D37
340
0
 70
     0
280
     1
281
     0
  0
BLOCK_RECORD
  5
4987
330
1
100
AcDbSymbolTableRecord
100
AcDbBlockTableRecord
  2
*D38
340
0
 70
     0
280
     1
281
     0
  0
BLOCK_RECORD
  5
4996
330
1
100
AcDbSymbolTableRecord
100
AcDbBlockTableRecord
  2
*D39
340
0
 70
     0
280
     1
281
     0
  0
BLOCK_RECORD
  5
49A6
330
1
100
AcDbSymbolTableRecord
100
AcDbBlockTableRecord
  2
*D40
340
0
 70
     0
280
     1
281
     0
  0
BLOCK_RECORD
  5
49BA
330
1
100
AcDbSymbolTableRecord
100
AcDbBlockTableRecord
  2
*D41
340
0
 70
     0
280
     1
281
     0
  0
BLOCK_RECORD
  5
49D0
330
1
100
AcDbSymbolTableRecord
100
AcDbBlockTableRecord
  2
*D42
340
0
 70
     0
280
     1
281
     0
  0
BLOCK_RECORD
  5
49DF
330
1
100
AcDbSymbolTableRecord
100
AcDbBlockTableRecord
  2
*D43
340
0
 70
     0
280
     1
281
     0
  0
BLOCK_RECORD
  5
49F1
330
1
100
AcDbSymbolTableRecord
100
AcDbBlockTableRecord
  2
*D44
340
0
 70
     0
280
     1
281
     0
  0
BLOCK_RECORD
  5
4A01
330
1
100
AcDbSymbolTableRecord
100
AcDbBlockTableRecord
  2
*D45
340
0
 70
     0
280
     1
281
     0
  0
BLOCK_RECORD
  5
4A13
330
1
100
AcDbSymbolTableRecord
100
AcDbBlockTableRecord
  2
*D46
340
0
 70
     0
280
     1
281
     0
  0
BLOCK_RECORD
  5
4A40
330
1
100
AcDbSymbolTableRecord
100
AcDbBlockTableRecord
  2
*D47
340
0
 70
     0
280
     1
281
     0
  0
BLOCK_RECORD
  5
4A7D
330
1
100
AcDbSymbolTableRecord
100
AcDbBlockTableRecord
  2
*D48
340
0
 70
     0
280
     1
281
     0
  0
BLOCK_RECORD
  5
4AAB
330
1
100
AcDbSymbolTableRecord
100
AcDbBlockTableRecord
  2
*D49
340
0
 70
     0
280
     1
281
     0
  0
BLOCK_RECORD
  5
4ABD
330
1
100
AcDbSymbolTableRecord
100
AcDbBlockTableRecord
  2
*D50
340
0
 70
     0
280
     1
281
     0
  0
BLOCK_RECORD
  5
4AD6
330
1
100
AcDbSymbolTableRecord
100
AcDbBlockTableRecord
  2
*D51
340
0
 70
     0
280
     1
281
     0
  0
BLOCK_RECORD
  5
4AF7
330
1
100
AcDbSymbolTableRecord
100
AcDbBlockTableRecord
  2
*D52
340
0
 70
     0
280
     1
281
     0
  0
BLOCK_RECORD
  5
4B09
330
1
100
AcDbSymbolTableRecord
100
AcDbBlockTableRecord
  2
*D53
340
0
 70
     0
280
     1
281
     0
  0
BLOCK_RECORD
  5
4B18
330
1
100
AcDbSymbolTableRecord
100
AcDbBlockTableRecord
  2
*D54
340
0
 70
     0
280
     1
281
     0
  0
BLOCK_RECORD
  5
4B7A
330
1
100
AcDbSymbolTableRecord
100
AcDbBlockTableRecord
  2
*D55
340
0
 70
     0
280
     1
281
     0
  0
BLOCK_RECORD
  5
4B98
330
1
100
AcDbSymbolTableRecord
100
AcDbBlockTableRecord
  2
*D56
340
0
 70
     0
280
     1
281
     0
  0
BLOCK_RECORD
  5
4BA7
330
1
100
AcDbSymbolTableRecord
100
AcDbBlockTableRecord
  2
*D57
340
0
 70
     0
280
     1
281
     0
  0
BLOCK_RECORD
  5
4BB9
330
1
100
AcDbSymbolTableRecord
100
AcDbBlockTableRecord
  2
*D58
340
0
 70
     0
280
     1
281
     0
  0
BLOCK_RECORD
  5
4BC8
330
1
100
AcDbSymbolTableRecord
100
AcDbBlockTableRecord
  2
*D59
340
0
 70
     0
280
     1
281
     0
  0
BLOCK_RECORD
  5
4BF0
330
1
100
AcDbSymbolTableRecord
100
AcDbBlockTableRecord
  2
*D60
340
0
 70
     0
280
     1
281
     0
  0
BLOCK_RECORD
  5
4BFF
330
1
100
AcDbSymbolTableRecord
100
AcDbBlockTableRecord
  2
*D61
340
0
 70
     0
280
     1
281
     0
  0
BLOCK_RECORD
  5
4C0E
330
1
100
AcDbSymbolTableRecord
100
AcDbBlockTableRecord
  2
*D62
340
0
 70
     0
280
     1
281
     0
  0
BLOCK_RECORD
  5
4C1D
330
1
100
AcDbSymbolTableRecord
100
AcDbBlockTableRecord
  2
*D63
340
0
 70
     0
280
     1
281
     0
  0
BLOCK_RECORD
  5
4C30
330
1
100
AcDbSymbolTableRecord
100
AcDbBlockTableRecord
  2
*D64
340
0
 70
     0
280
     1
281
     0
  0
BLOCK_RECORD
  5
4C50
330
1
100
AcDbSymbolTableRecord
100
AcDbBlockTableRecord
  2
*D65
340
0
 70
     0
280
     1
281
     0
  0
BLOCK_RECORD
  5
4C67
330
1
100
AcDbSymbolTableRecord
100
AcDbBlockTableRecord
  2
*D66
340
0
 70
     0
280
     1
281
     0
  0
BLOCK_RECORD
  5
4C7A
330
1
100
AcDbSymbolTableRecord
100
AcDbBlockTableRecord
  2
*D67
340
0
 70
     0
280
     1
281
     0
  0
ENDTAB
  0
ENDSEC
  0
SECTION
  2
BLOCKS
  0
BLOCK
  5
D
330
A
100
AcDbEntity
  8
0
390
1D
100
AcDbBlockBegin
  2
*MODEL_SPACE
 70
     0
 10
0.0
 20
0.0
 30
0.0
  3
*MODEL_SPACE
  1
*MODEL_SPACE
  0
ENDBLK
  5
E
330
A
100
AcDbEntity
  8
0
390
1D
100
AcDbBlockEnd
  0
BLOCK
  5
F
330
B
100
AcDbEntity
 67
     1
  8
0
390
1D
100
AcDbBlockBegin
  2
*PAPER_SPACE
 70
     0
 10
0.0
 20
0.0
 30
0.0
  3
*PAPER_SPACE
  1
*PAPER_SPACE
  0
ENDBLK
  5
10
330
B
100
AcDbEntity
 67
     1
  8
0
390
1D
100
AcDbBlockEnd
  0
BLOCK
  5
4BD8
330
4E
100
AcDbEntity
  8
0
390
1D
100
AcDbBlockBegin
  2
_DOT
 70
     0
 10
0.0
 20
0.0
 30
0.0
  3
_DOT
  1
_DOT
  0
POLYLINE
  5
4BDA
330
4E
100
AcDbEntity
  8
0
  6
ByBlock
 62
     0
370
    -2
390
1D
100
AcDb2dPolyline
 66
     1
 10
0.0
 20
0.0
 30
0.0
 70
     1
 40
0.5
 41
0.5
  0
VERTEX
  5
4BDB
330
4BDA
100
AcDbEntity
  8
0
  6
ByBlock
 62
     0
370
    -2
390
1D
100
AcDbVertex
100
AcDb2dVertex
 10
-0.25
 20
0.0
 30
0.0
 42
1.0
  0
VERTEX
  5
4BDC
330
4BDA
100
AcDbEntity
  8
0
  6
ByBlock
 62
     0
370
    -2
390
1D
100
AcDbVertex
100
AcDb2dVertex
 10
0.25
 20
0.0
 30
0.0
 42
1.0
  0
SEQEND
  5
4BDD
330
4BDA
100
AcDbEntity
  8
0
390
1D
  0
LINE
  5
4BDE
330
4E
100
AcDbEntity
  8
0
  6
ByBlock
 62
     0
370
    -2
390
1D
100
AcDbLine
 10
-0.5
 20
0.0
 30
0.0
 11
-1.0
 21
0.0
 31
0.0
  0
ENDBLK
  5
4BDF
330
4E
100
AcDbEntity
  8
0
390
1D
100
AcDbBlockEnd
  0
BLOCK
  5
12C5
330
12C3
100
AcDbEntity
  8
0
100
AcDbBlockBegin
  2
*Paper_Space1
 70
     0
 10
0.0
 20
0.0
 30
0.0
  3
*Paper_Space1
  1
*Paper_Space83
  0
ENDBLK
  5
12C6
330
12C3
100
AcDbEntity
  8
0
100
AcDbBlockEnd
  0
BLOCK
  5
1D89
330
1D88
100
AcDbEntity
  8
0
100
AcDbBlockBegin
  2
名称未設定-1
 70
     0
 10
0.0
 20
0.0
 30
0.0
  3
名称未設定-1
  1
名称未設定-1
  0
INSERT
  5
1D8A
330
1D88
100
AcDbEntity
  8
TFORMLOGO
100
AcDbBlockReference
  2
block 2
 10
0.0
 20
0.0
 30
0.0
  0
ENDBLK
  5
1DAF
330
1D88
100
AcDbEntity
  8
0
100
AcDbBlockEnd
  0
BLOCK
  5
1D8C
330
1D8B
100
AcDbEntity
  8
0
100
AcDbBlockBegin
  2
block 2
 70
     0
 10
0.0
 20
0.0
 30
0.0
  3
block 2
  1
block 2
  0
INSERT
  5
1D8D
330
1D8B
100
AcDbEntity
  8
TFORMLOGO
100
AcDbBlockReference
  2
block 3
 10
0.0
 20
0.0
 30
0.0
  0
ENDBLK
  5
1DAE
330
1D8B
100
AcDbEntity
  8
0
100
AcDbBlockEnd
  0
BLOCK
  5
1D8F
330
1D8E
100
AcDbEntity
  8
0
100
AcDbBlockBegin
  2
block 3
 70
     0
 10
0.0
 20
0.0
 30
0.0
  3
block 3
  1
block 3
  0
INSERT
  5
1D90
330
1D8E
100
AcDbEntity
  8
TFORMLOGO
100
AcDbBlockReference
  2
block 4
 10
0.0
 20
0.0
 30
0.0
  0
ENDBLK
  5
1DAD
330
1D8E
100
AcDbEntity
  8
0
100
AcDbBlockEnd
  0
BLOCK
  5
1D92
330
1D91
100
AcDbEntity
  8
0
100
AcDbBlockBegin
  2
block 4
 70
     0
 10
0.0
 20
0.0
 30
0.0
  3
block 4
  1
block 4
  0
POLYLINE
  5
1D93
330
1D91
100
AcDbEntity
  8
TFORMLOGO
370
     0
100
AcDb2dPolyline
 66
     1
 10
0.0
 20
0.0
 30
0.0
  0
VERTEX
  5
1D94
330
1D93
100
AcDbEntity
  8
TFORMLOGO
370
     0
100
AcDbVertex
100
AcDb2dVertex
 10
83.79545727667795
 20
167.6444858234922
 30
0.0
  0
VERTEX
  5
1D95
330
1D93
100
AcDbEntity
  8
TFORMLOGO
370
     0
100
AcDbVertex
100
AcDb2dVertex
 10
83.79545727667795
 20
159.7968976406313
 30
0.0
  0
VERTEX
  5
1D96
330
1D93
100
AcDbEntity
  8
TFORMLOGO
370
     0
100
AcDbVertex
100
AcDb2dVertex
 10
71.3631329975216
 20
159.7968976406313
 30
0.0
  0
VERTEX
  5
1D97
330
1D93
100
AcDbEntity
  8
TFORMLOGO
370
     0
100
AcDbVertex
100
AcDb2dVertex
 10
71.3631329975216
 20
127.8027915271048
 30
0.0
  0
VERTEX
  5
1D98
330
1D93
100
AcDbEntity
  8
TFORMLOGO
370
     0
100
AcDbVertex
100
AcDb2dVertex
 10
60.43011526263018
 20
127.8027915271048
 30
0.0
  0
VERTEX
  5
1D99
330
1D93
100
AcDbEntity
  8
TFORMLOGO
370
     0
100
AcDbVertex
100
AcDb2dVertex
 10
60.43011526263018
 20
159.7968976406313
 30
0.0
  0
VERTEX
  5
1D9A
330
1D93
100
AcDbEntity
  8
TFORMLOGO
370
     0
100
AcDbVertex
100
AcDb2dVertex
 10
48.21793273020759
 20
159.7968976406313
 30
0.0
  0
VERTEX
  5
1D9B
330
1D93
100
AcDbEntity
  8
TFORMLOGO
370
     0
100
AcDbVertex
100
AcDb2dVertex
 10
48.21793273020759
 20
167.6444858234922
 30
0.0
  0
VERTEX
  5
1D9C
330
1D93
100
AcDbEntity
  8
TFORMLOGO
370
     0
100
AcDbVertex
100
AcDb2dVertex
 10
83.79545727667795
 20
167.6444858234922
 30
0.0
  0
SEQEND
  5
1D9D
330
1D93
100
AcDbEntity
  8
TFORMLOGO
370
     0
  0
HATCH
  5
1D9E
330
1D91
100
AcDbEntity
  8
TFORMLOGO
 62
   250
420
  2234388
100
AcDbHatch
 10
0.0
 20
0.0
 30
0.0
210
0.0
220
0.0
230
1.0
  2
SOLID
 70
     1
 71
     0
 91
        1
 92
        1
 93
        8
 72
     1
 10
83.79545727667795
 20
167.6444858234922
 11
83.79545727667795
 21
159.7968976406313
 72
     1
 10
83.79545727667795
 20
159.7968976406313
 11
71.3631329975216
 21
159.7968976406313
 72
     1
 10
71.3631329975216
 20
159.7968976406313
 11
71.3631329975216
 21
127.8027915271048
 72
     1
 10
71.3631329975216
 20
127.8027915271048
 11
60.43011526263018
 21
127.8027915271048
 72
     1
 10
60.43011526263018
 20
127.8027915271048
 11
60.43011526263018
 21
159.7968976406313
 72
     1
 10
60.43011526263018
 20
159.7968976406313
 11
48.21793273020759
 21
159.7968976406313
 72
     1
 10
48.21793273020759
 20
159.7968976406313
 11
48.21793273020759
 21
167.6444858234922
 72
     1
 10
48.21793273020759
 20
167.6444858234922
 11
83.79545727667795
 21
167.6444858234922
 97
        0
 75
     2
 76
     1
 98
        0
  0
INSERT
  5
1D9F
330
1D91
100
AcDbEntity
  8
TFORMLOGO
100
AcDbBlockReference
  2
block 5
 10
0.0
 20
0.0
 30
0.0
  0
ENDBLK
  5
1DAC
330
1D91
100
AcDbEntity
  8
0
100
AcDbBlockEnd
  0
BLOCK
  5
1DA1
330
1DA0
100
AcDbEntity
  8
0
100
AcDbBlockBegin
  2
block 5
 70
     0
 10
0.0
 20
0.0
 30
0.0
  3
block 5
  1
block 5
  0
SPLINE
  5
1DA2
330
1DA0
100
AcDbEntity
  8
TFORMLOGO
370
     0
100
AcDbSpline
210
0.0
220
0.0
230
1.0
 70
    11
 71
     3
 72
    56
 73
    52
 74
     0
 42
0.000000001
 43
0.0000000001
 40
0.0
 40
0.0
 40
0.0
 40
0.0
 40
1.0
 40
1.0
 40
1.0
 40
2.0
 40
2.0
 40
2.0
 40
3.0
 40
3.0
 40
3.0
 40
4.0
 40
4.0
 40
4.0
 40
5.0
 40
5.0
 40
5.0
 40
6.0
 40
6.0
 40
6.0
 40
7.0
 40
7.0
 40
7.0
 40
8.0
 40
8.0
 40
8.0
 40
9.0
 40
9.0
 40
9.0
 40
10.0
 40
10.0
 40
10.0
 40
11.0
 40
11.0
 40
11.0
 40
12.0
 40
12.0
 40
12.0
 40
13.0
 40
13.0
 40
13.0
 40
14.0
 40
14.0
 40
14.0
 40
15.0
 40
15.0
 40
15.0
 40
16.0
 40
16.0
 40
16.0
 40
17.0
 40
17.0
 40
17.0
 40
17.0
 10
100.4504378777679
 20
166.69157178364
 30
0.0
 10
101.9848844191641
 20
167.1313385124438
 30
0.0
 10
103.9637485713373
 20
166.7649523658846
 30
0.0
 10
103.9637485713373
 20
166.7649523658846
 30
0.0
 10
103.9637485713373
 20
166.7649523658846
 30
0.0
 10
103.0132460999156
 20
163.911205638077
 30
0.0
 10
103.0132460999156
 20
163.911205638077
 30
0.0
 10
103.0132460999156
 20
163.911205638077
 30
0.0
 10
101.0674548862189
 20
164.3601018759394
 30
0.0
 10
99.57090442016032
 20
163.1805004036133
 30
0.0
 10
98.40508333886608
 20
162.258247733807
 30
0.0
 10
97.65301849830304
 20
159.804132345923
 30
0.0
 10
97.3598406791005
 20
158.8699940888517
 30
0.0
 10
97.3598406791005
 20
158.8699940888517
 30
0.0
 10
96.07137411762282
 20
154.9119212747295
 30
0.0
 10
96.07137411762282
 20
154.9119212747295
 30
0.0
 10
96.07137411762282
 20
154.9119212747295
 30
0.0
 10
100.3012651448482
 20
154.9119212747295
 30
0.0
 10
100.3012651448482
 20
154.9119212747295
 30
0.0
 10
100.3012651448482
 20
154.9119212747295
 30
0.0
 10
99.64152892419852
 20
152.4199098115079
 30
0.0
 10
99.64152892419852
 20
152.4199098115079
 30
0.0
 10
99.64152892419852
 20
152.4199098115079
 30
0.0
 10
95.38097652692731
 20
152.4199098115079
 30
0.0
 10
95.38097652692731
 20
152.4199098115079
 30
0.0
 10
95.38097652692731
 20
152.4199098115079
 30
0.0
 10
87.75353009080013
 20
127.8027915271048
 30
0.0
 10
87.75353009080013
 20
127.8027915271048
 30
0.0
 10
87.75353009080013
 20
127.8027915271048
 30
0.0
 10
85.36538832498108
 20
127.8027915271048
 30
0.0
 10
85.36538832498108
 20
127.8027915271048
 30
0.0
 10
85.36538832498108
 20
127.8027915271048
 30
0.0
 10
93.00006946639998
 20
152.4199098115079
 30
0.0
 10
93.00006946639998
 20
152.4199098115079
 30
0.0
 10
93.00006946639998
 20
152.4199098115079
 30
0.0
 10
89.85297266450198
 20
152.4199098115079
 30
0.0
 10
89.85297266450198
 20
152.4199098115079
 30
0.0
 10
89.85297266450198
 20
152.4199098115079
 30
0.0
 10
90.51270888515164
 20
154.9119212747295
 30
0.0
 10
90.51270888515164
 20
154.9119212747295
 30
0.0
 10
90.51270888515164
 20
154.9119212747295
 30
0.0
 10
93.6904670570955
 20
154.9119212747295
 30
0.0
 10
93.6904670570955
 20
154.9119212747295
 30
0.0
 10
93.6904670570955
 20
154.9119212747295
 30
0.0
 10
94.81598049462158
 20
158.3616699146644
 30
0.0
 10
94.81598049462158
 20
158.3616699146644
 30
0.0
 10
95.7237637538445
 20
161.2605474231013
 30
0.0
 10
96.4968436907311
 20
162.8139420021662
 30
0.0
 10
97.15657991138076
 20
163.9844139654337
 30
0.0
 10
97.81183750494507
 20
165.1523021053827
 30
0.0
 10
99.1047826935081
 20
166.3084769129547
 30
0.0
 10
100.4504378777679
 20
166.69157178364
 30
0.0
  0
HATCH
  5
1DA3
330
1DA0
100
AcDbEntity
  8
TFORMLOGO
 62
   250
420
  2234388
100
AcDbHatch
 10
0.0
 20
0.0
 30
0.0
210
0.0
220
0.0
230
1.0
  2
SOLID
 70
     1
 71
     0
 91
        1
 92
        1
 93
        1
 72
     4
 94
        3
 73
     0
 74
     1
 95
       56
 96
       52
 40
0.0
 40
0.0
 40
0.0
 40
0.0
 40
1.0
 40
1.0
 40
1.0
 40
2.0
 40
2.0
 40
2.0
 40
3.0
 40
3.0
 40
3.0
 40
4.0
 40
4.0
 40
4.0
 40
5.0
 40
5.0
 40
5.0
 40
6.0
 40
6.0
 40
6.0
 40
7.0
 40
7.0
 40
7.0
 40
8.0
 40
8.0
 40
8.0
 40
9.0
 40
9.0
 40
9.0
 40
10.0
 40
10.0
 40
10.0
 40
11.0
 40
11.0
 40
11.0
 40
12.0
 40
12.0
 40
12.0
 40
13.0
 40
13.0
 40
13.0
 40
14.0
 40
14.0
 40
14.0
 40
15.0
 40
15.0
 40
15.0
 40
16.0
 40
16.0
 40
16.0
 40
17.0
 40
17.0
 40
17.0
 40
17.0
 10
100.4504378777679
 20
166.69157178364
 10
101.9848844191641
 20
167.1313385124438
 10
103.9637485713373
 20
166.7649523658846
 10
103.9637485713373
 20
166.7649523658846
 10
103.9637485713373
 20
166.7649523658846
 10
103.0132460999156
 20
163.911205638077
 10
103.0132460999156
 20
163.911205638077
 10
103.0132460999156
 20
163.911205638077
 10
101.0674548862189
 20
164.3601018759394
 10
99.57090442016032
 20
163.1805004036133
 10
98.40508333886608
 20
162.258247733807
 10
97.65301849830304
 20
159.804132345923
 10
97.3598406791005
 20
158.8699940888517
 10
97.3598406791005
 20
158.8699940888517
 10
96.07137411762282
 20
154.9119212747295
 10
96.07137411762282
 20
154.9119212747295
 10
96.07137411762282
 20
154.9119212747295
 10
100.3012651448482
 20
154.9119212747295
 10
100.3012651448482
 20
154.9119212747295
 10
100.3012651448482
 20
154.9119212747295
 10
99.64152892419852
 20
152.4199098115079
 10
99.64152892419852
 20
152.4199098115079
 10
99.64152892419852
 20
152.4199098115079
 10
95.38097652692731
 20
152.4199098115079
 10
95.38097652692731
 20
152.4199098115079
 10
95.38097652692731
 20
152.4199098115079
 10
87.75353009080013
 20
127.8027915271048
 10
87.75353009080013
 20
127.8027915271048
 10
87.75353009080013
 20
127.8027915271048
 10
85.36538832498108
 20
127.8027915271048
 10
85.36538832498108
 20
127.8027915271048
 10
85.36538832498108
 20
127.8027915271048
 10
93.00006946639998
 20
152.4199098115079
 10
93.00006946639998
 20
152.4199098115079
 10
93.00006946639998
 20
152.4199098115079
 10
89.85297266450198
 20
152.4199098115079
 10
89.85297266450198
 20
152.4199098115079
 10
89.85297266450198
 20
152.4199098115079
 10
90.51270888515164
 20
154.9119212747295
 10
90.51270888515164
 20
154.9119212747295
 10
90.51270888515164
 20
154.9119212747295
 10
93.6904670570955
 20
154.9119212747295
 10
93.6904670570955
 20
154.9119212747295
 10
93.6904670570955
 20
154.9119212747295
 10
94.81598049462158
 20
158.3616699146644
 10
94.81598049462158
 20
158.3616699146644
 10
95.7237637538445
 20
161.2605474231013
 10
96.4968436907311
 20
162.8139420021662
 10
97.15657991138076
 20
163.9844139654337
 10
97.81183750494507
 20
165.1523021053827
 10
99.1047826935081
 20
166.3084769129547
 10
100.4504378777679
 20
166.69157178364
 97
        0
 75
     2
 76
     1
 98
        0
  0
SPLINE
  5
1DA4
330
1DA0
100
AcDbEntity
  8
TFORMLOGO
370
     0
100
AcDbSpline
210
0.0
220
0.0
230
1.0
 70
    11
 71
     3
 72
    38
 73
    34
 74
     0
 42
0.000000001
 43
0.0000000001
 40
0.0
 40
0.0
 40
0.0
 40
0.0
 40
1.0
 40
1.0
 40
1.0
 40
2.0
 40
2.0
 40
2.0
 40
3.0
 40
3.0
 40
3.0
 40
4.0
 40
4.0
 40
4.0
 40
5.0
 40
5.0
 40
5.0
 40
6.0
 40
6.0
 40
6.0
 40
7.0
 40
7.0
 40
7.0
 40
8.0
 40
8.0
 40
8.0
 40
9.0
 40
9.0
 40
9.0
 40
10.0
 40
10.0
 40
10.0
 40
11.0
 40
11.0
 40
11.0
 40
11.0
 10
126.377554584636
 20
154.8151140277308
 30
0.0
 10
126.377554584636
 20
154.8151140277308
 30
0.0
 10
128.8311532078563
 20
154.8151140277308
 30
0.0
 10
128.8311532078563
 20
154.8151140277308
 30
0.0
 10
128.8311532078563
 20
154.8151140277308
 30
0.0
 10
127.7345785914971
 20
151.3062819612468
 30
0.0
 10
127.7345785914971
 20
151.3062819612468
 30
0.0
 10
128.571392836906
 20
152.2922689395754
 30
0.0
 10
129.8860421413442
 20
153.604506675583
 30
0.0
 10
131.0163787157314
 20
154.2664822097754
 30
0.0
 10
132.7044766171327
 20
155.2500576196734
 30
0.0
 10
133.6642808525008
 20
155.3847609420097
 30
0.0
 10
134.7284715499351
 20
155.3565111403944
 30
0.0
 10
134.7284715499351
 20
155.3565111403944
 30
0.0
 10
133.6877075172549
 20
152.0345756272799
 30
0.0
 10
133.6877075172549
 20
152.0345756272799
 30
0.0
 10
133.011434827367
 20
152.3184516825359
 30
0.0
 10
130.930940291334
 20
151.7768823149844
 30
0.0
 10
129.739280976855
 20
150.9162968950455
 30
0.0
 10
128.66613302525
 20
150.1454562717016
 30
0.0
 10
127.9192358313239
 20
149.4857200510519
 30
0.0
 10
127.0393578639405
 20
147.8282835196966
 30
0.0
 10
126.164647543194
 20
146.1699857139017
 30
0.0
 10
125.4742499524985
 20
143.5262176944419
 30
0.0
 10
124.2822461282437
 20
139.6959580071401
 30
0.0
 10
124.2822461282437
 20
139.6959580071401
 30
0.0
 10
120.5753209406769
 20
127.8027915271048
 30
0.0
 10
120.5753209406769
 20
127.8027915271048
 30
0.0
 10
120.5753209406769
 20
127.8027915271048
 30
0.0
 10
118.1964809388044
 20
127.8027915271048
 30
0.0
 10
118.1964809388044
 20
127.8027915271048
 30
0.0
 10
118.1964809388044
 20
127.8027915271048
 30
0.0
 10
126.377554584636
 20
154.8151140277308
 30
0.0
 10
126.377554584636
 20
154.8151140277308
 30
0.0
  0
HATCH
  5
1DA5
330
1DA0
100
AcDbEntity
  8
TFORMLOGO
 62
   250
420
  2234388
100
AcDbHatch
 10
0.0
 20
0.0
 30
0.0
210
0.0
220
0.0
230
1.0
  2
SOLID
 70
     1
 71
     0
 91
        1
 92
        1
 93
        1
 72
     4
 94
        3
 73
     0
 74
     1
 95
       38
 96
       34
 40
0.0
 40
0.0
 40
0.0
 40
0.0
 40
1.0
 40
1.0
 40
1.0
 40
2.0
 40
2.0
 40
2.0
 40
3.0
 40
3.0
 40
3.0
 40
4.0
 40
4.0
 40
4.0
 40
5.0
 40
5.0
 40
5.0
 40
6.0
 40
6.0
 40
6.0
 40
7.0
 40
7.0
 40
7.0
 40
8.0
 40
8.0
 40
8.0
 40
9.0
 40
9.0
 40
9.0
 40
10.0
 40
10.0
 40
10.0
 40
11.0
 40
11.0
 40
11.0
 40
11.0
 10
126.377554584636
 20
154.8151140277308
 10
126.377554584636
 20
154.8151140277308
 10
128.8311532078563
 20
154.8151140277308
 10
128.8311532078563
 20
154.8151140277308
 10
128.8311532078563
 20
154.8151140277308
 10
127.7345785914971
 20
151.3062819612468
 10
127.7345785914971
 20
151.3062819612468
 10
128.571392836906
 20
152.2922689395754
 10
129.8860421413442
 20
153.604506675583
 10
131.0163787157314
 20
154.2664822097754
 10
132.7044766171327
 20
155.2500576196734
 10
133.6642808525008
 20
155.3847609420097
 10
134.7284715499351
 20
155.3565111403944
 10
134.7284715499351
 20
155.3565111403944
 10
133.6877075172549
 20
152.0345756272799
 10
133.6877075172549
 20
152.0345756272799
 10
133.011434827367
 20
152.3184516825359
 10
130.930940291334
 20
151.7768823149844
 10
129.739280976855
 20
150.9162968950455
 10
128.66613302525
 20
150.1454562717016
 10
127.9192358313239
 20
149.4857200510519
 10
127.0393578639405
 20
147.8282835196966
 10
126.164647543194
 20
146.1699857139017
 10
125.4742499524985
 20
143.5262176944419
 10
124.2822461282437
 20
139.6959580071401
 10
124.2822461282437
 20
139.6959580071401
 10
120.5753209406769
 20
127.8027915271048
 10
120.5753209406769
 20
127.8027915271048
 10
120.5753209406769
 20
127.8027915271048
 10
118.1964809388044
 20
127.8027915271048
 10
118.1964809388044
 20
127.8027915271048
 10
118.1964809388044
 20
127.8027915271048
 10
126.377554584636
 20
154.8151140277308
 10
126.377554584636
 20
154.8151140277308
 97
        0
 75
     2
 76
     1
 98
        0
  0
SPLINE
  5
1DA6
330
1DA0
100
AcDbEntity
  8
TFORMLOGO
370
     0
100
AcDbSpline
210
0.0
220
0.0
230
1.0
 70
    11
 71
     3
 72
   104
 73
   100
 74
     0
 42
0.000000001
 43
0.0000000001
 40
0.0
 40
0.0
 40
0.0
 40
0.0
 40
1.0
 40
1.0
 40
1.0
 40
2.0
 40
2.0
 40
2.0
 40
3.0
 40
3.0
 40
3.0
 40
4.0
 40
4.0
 40
4.0
 40
5.0
 40
5.0
 40
5.0
 40
6.0
 40
6.0
 40
6.0
 40
7.0
 40
7.0
 40
7.0
 40
8.0
 40
8.0
 40
8.0
 40
9.0
 40
9.0
 40
9.0
 40
10.0
 40
10.0
 40
10.0
 40
11.0
 40
11.0
 40
11.0
 40
12.0
 40
12.0
 40
12.0
 40
13.0
 40
13.0
 40
13.0
 40
14.0
 40
14.0
 40
14.0
 40
15.0
 40
15.0
 40
15.0
 40
16.0
 40
16.0
 40
16.0
 40
17.0
 40
17.0
 40
17.0
 40
18.0
 40
18.0
 40
18.0
 40
19.0
 40
19.0
 40
19.0
 40
20.0
 40
20.0
 40
20.0
 40
21.0
 40
21.0
 40
21.0
 40
22.0
 40
22.0
 40
22.0
 40
23.0
 40
23.0
 40
23.0
 40
24.0
 40
24.0
 40
24.0
 40
25.0
 40
25.0
 40
25.0
 40
26.0
 40
26.0
 40
26.0
 40
27.0
 40
27.0
 40
27.0
 40
28.0
 40
28.0
 40
28.0
 40
29.0
 40
29.0
 40
29.0
 40
30.0
 40
30.0
 40
30.0
 40
31.0
 40
31.0
 40
31.0
 40
32.0
 40
32.0
 40
32.0
 40
33.0
 40
33.0
 40
33.0
 40
33.0
 10
139.8926730891197
 20
154.8294111834263
 30
0.0
 10
139.8926730891197
 20
154.8294111834263
 30
0.0
 10
142.0344903652445
 20
154.8294111834263
 30
0.0
 10
142.0344903652445
 20
154.8294111834263
 30
0.0
 10
142.0344903652445
 20
154.8294111834263
 30
0.0
 10
140.9516961399171
 20
151.3157559800812
 30
0.0
 10
140.9516961399171
 20
151.3157559800812
 30
0.0
 10
141.8928968473923
 20
152.7887075264977
 30
0.0
 10
142.7341897198865
 20
153.4484437471474
 30
0.0
 10
143.8552245303272
 20
154.2926649527359
 30
0.0
 10
144.9803934580775
 20
155.1296514530327
 30
0.0
 10
146.3139908001845
 20
155.3044901642492
 30
0.0
 10
147.241066606852
 20
155.3044901642492
 30
0.0
 10
148.3855280820469
 20
155.3044901642492
 30
0.0
 10
149.4969166187653
 20
155.0752189084569
 30
0.0
 10
150.0784491203092
 20
153.8172414621372
 30
0.0
 10
150.5228667310863
 20
152.833838307127
 30
0.0
 10
150.5414702589793
 20
152.7201500811143
 30
0.0
 10
150.4140016419347
 20
150.7765981809602
 30
0.0
 10
151.5818897818837
 20
152.7699317437168
 30
0.0
 10
152.4424752018226
 20
153.6256940267945
 30
0.0
 10
153.9038856707499
 20
154.4507949398263
 30
0.0
 10
155.4455669174378
 20
155.3044901642492
 30
0.0
 10
156.339225275853
 20
155.3659851592288
 30
0.0
 10
157.3748216618963
 20
155.2147453676543
 30
0.0
 10
158.911679771723
 20
154.9877134254046
 30
0.0
 10
159.8859534176746
 20
154.4390816074493
 30
0.0
 10
160.3965169054045
 20
152.7816450760939
 30
0.0
 10
160.9070803931344
 20
151.1219692311958
 30
0.0
 10
160.6328506116007
 20
150.2303779314354
 30
0.0
 10
159.9992971339115
 20
147.597634224801
 30
0.0
 10
159.7105979417943
 20
146.4014962832367
 30
0.0
 10
159.2947746424084
 20
144.9400858143094
 30
0.0
 10
158.7463150793409
 20
143.2092687007094
 30
0.0
 10
158.7463150793409
 20
143.2092687007094
 30
0.0
 10
153.9038856707499
 20
127.8027915271048
 30
0.0
 10
153.9038856707499
 20
127.8027915271048
 30
0.0
 10
153.9038856707499
 20
127.8027915271048
 30
0.0
 10
151.3882752878863
 20
127.8027915271048
 30
0.0
 10
151.3882752878863
 20
127.8027915271048
 30
0.0
 10
151.3882752878863
 20
127.8027915271048
 30
0.0
 10
155.6250565106276
 20
141.2751908193897
 30
0.0
 10
155.6250565106276
 20
141.2751908193897
 30
0.0
 10
156.5094131050963
 20
144.0936252951782
 30
0.0
 10
157.109893644309
 20
146.1506931664571
 30
0.0
 10
157.4220195011804
 20
147.4415712963654
 30
0.0
 10
157.8095929989511
 20
149.0530157726519
 30
0.0
 10
157.9656559273867
 20
149.5826995529385
 30
0.0
 10
157.7816877071116
 20
150.7529992613181
 30
0.0
 10
157.6111553680925
 20
151.8430281919372
 30
0.0
 10
157.0582171779396
 20
152.5547853887321
 30
0.0
 10
156.1170164704645
 20
152.5547853887321
 30
0.0
 10
155.1096698860365
 20
152.5547853887321
 30
0.0
 10
154.2962823053817
 20
152.4412694176073
 30
0.0
 10
153.156643967048
 20
151.2945686288697
 30
0.0
 10
152.0170056287143
 20
150.1476955852443
 30
0.0
 10
151.076149431015
 20
148.7930831468137
 30
0.0
 10
150.3337308641742
 20
147.2290087646991
 30
0.0
 10
149.5957909244188
 20
145.6683794803425
 30
0.0
 10
148.8530278478023
 20
143.6822806228776
 30
0.0
 10
148.0964843801539
 20
141.2751908193897
 30
0.0
 10
148.0964843801539
 20
141.2751908193897
 30
0.0
 10
143.8552245303272
 20
127.8027915271048
 30
0.0
 10
143.8552245303272
 20
127.8027915271048
 30
0.0
 10
143.8552245303272
 20
127.8027915271048
 30
0.0
 10
141.486030802177
 20
127.8027915271048
 30
0.0
 10
141.486030802177
 20
127.8027915271048
 30
0.0
 10
141.486030802177
 20
127.8027915271048
 30
0.0
 10
146.3329388378533
 20
143.2092687007094
 30
0.0
 10
146.3329388378533
 20
143.2092687007094
 30
0.0
 10
146.8483254624444
 20
144.8408669988801
 30
0.0
 10
147.2314203331297
 20
146.1837661049335
 30
0.0
 10
147.4867020769946
 20
147.224185627838
 30
0.0
 10
147.9169947869641
 20
149.0197705792876
 30
0.0
 10
148.0306830129768
 20
150.2400242051577
 30
0.0
 10
147.709255392159
 20
151.3157559800812
 30
0.0
 10
147.3874832615654
 20
152.3916600098926
 30
0.0
 10
146.8245542879144
 20
152.6683013598569
 30
0.0
 10
145.8840425999909
 20
152.6683013598569
 30
0.0
 10
145.0989048209514
 20
152.6683013598569
 30
0.0
 10
144.3282364524954
 20
152.3275811915945
 30
0.0
 10
143.4531816219731
 20
151.6538923250251
 30
0.0
 10
142.34627171234
 20
150.8074318058939
 30
0.0
 10
141.901854101563
 20
150.1097995099067
 30
0.0
 10
141.3578731655808
 20
149.289521733736
 30
0.0
 10
140.6299240093235
 20
148.192602607601
 30
0.0
 10
140.2850697237515
 20
147.455696197173
 30
0.0
 10
139.6652966370942
 20
145.8385673095858
 30
0.0
 10
139.0506911970739
 20
144.2214384219986
 30
0.0
 10
138.463991048893
 20
142.3252566160164
 30
0.0
 10
138.0571250036777
 20
141.0154304484394
 30
0.0
 10
138.0571250036777
 20
141.0154304484394
 30
0.0
 10
133.9009590684727
 20
127.8027915271048
 30
0.0
 10
133.9009590684727
 20
127.8027915271048
 30
0.0
 10
133.9009590684727
 20
127.8027915271048
 30
0.0
 10
131.4180771143097
 20
127.8027915271048
 30
0.0
 10
131.4180771143097
 20
127.8027915271048
 30
0.0
 10
131.4180771143097
 20
127.8027915271048
 30
0.0
 10
139.8926730891197
 20
154.8294111834263
 30
0.0
 10
139.8926730891197
 20
154.8294111834263
 30
0.0
  0
HATCH
  5
1DA7
330
1DA0
100
AcDbEntity
  8
TFORMLOGO
 62
   250
420
  2234388
100
AcDbHatch
 10
0.0
 20
0.0
 30
0.0
210
0.0
220
0.0
230
1.0
  2
SOLID
 70
     1
 71
     0
 91
        1
 92
        1
 93
        1
 72
     4
 94
        3
 73
     0
 74
     1
 95
      104
 96
      100
 40
0.0
 40
0.0
 40
0.0
 40
0.0
 40
1.0
 40
1.0
 40
1.0
 40
2.0
 40
2.0
 40
2.0
 40
3.0
 40
3.0
 40
3.0
 40
4.0
 40
4.0
 40
4.0
 40
5.0
 40
5.0
 40
5.0
 40
6.0
 40
6.0
 40
6.0
 40
7.0
 40
7.0
 40
7.0
 40
8.0
 40
8.0
 40
8.0
 40
9.0
 40
9.0
 40
9.0
 40
10.0
 40
10.0
 40
10.0
 40
11.0
 40
11.0
 40
11.0
 40
12.0
 40
12.0
 40
12.0
 40
13.0
 40
13.0
 40
13.0
 40
14.0
 40
14.0
 40
14.0
 40
15.0
 40
15.0
 40
15.0
 40
16.0
 40
16.0
 40
16.0
 40
17.0
 40
17.0
 40
17.0
 40
18.0
 40
18.0
 40
18.0
 40
19.0
 40
19.0
 40
19.0
 40
20.0
 40
20.0
 40
20.0
 40
21.0
 40
21.0
 40
21.0
 40
22.0
 40
22.0
 40
22.0
 40
23.0
 40
23.0
 40
23.0
 40
24.0
 40
24.0
 40
24.0
 40
25.0
 40
25.0
 40
25.0
 40
26.0
 40
26.0
 40
26.0
 40
27.0
 40
27.0
 40
27.0
 40
28.0
 40
28.0
 40
28.0
 40
29.0
 40
29.0
 40
29.0
 40
30.0
 40
30.0
 40
30.0
 40
31.0
 40
31.0
 40
31.0
 40
32.0
 40
32.0
 40
32.0
 40
33.0
 40
33.0
 40
33.0
 40
33.0
 10
139.8926730891197
 20
154.8294111834263
 10
139.8926730891197
 20
154.8294111834263
 10
142.0344903652445
 20
154.8294111834263
 10
142.0344903652445
 20
154.8294111834263
 10
142.0344903652445
 20
154.8294111834263
 10
140.9516961399171
 20
151.3157559800812
 10
140.9516961399171
 20
151.3157559800812
 10
141.8928968473923
 20
152.7887075264977
 10
142.7341897198865
 20
153.4484437471474
 10
143.8552245303272
 20
154.2926649527359
 10
144.9803934580775
 20
155.1296514530327
 10
146.3139908001845
 20
155.3044901642492
 10
147.241066606852
 20
155.3044901642492
 10
148.3855280820469
 20
155.3044901642492
 10
149.4969166187653
 20
155.0752189084569
 10
150.0784491203092
 20
153.8172414621372
 10
150.5228667310863
 20
152.833838307127
 10
150.5414702589793
 20
152.7201500811143
 10
150.4140016419347
 20
150.7765981809602
 10
151.5818897818837
 20
152.7699317437168
 10
152.4424752018226
 20
153.6256940267945
 10
153.9038856707499
 20
154.4507949398263
 10
155.4455669174378
 20
155.3044901642492
 10
156.339225275853
 20
155.3659851592288
 10
157.3748216618963
 20
155.2147453676543
 10
158.911679771723
 20
154.9877134254046
 10
159.8859534176746
 20
154.4390816074493
 10
160.3965169054045
 20
152.7816450760939
 10
160.9070803931344
 20
151.1219692311958
 10
160.6328506116007
 20
150.2303779314354
 10
159.9992971339115
 20
147.597634224801
 10
159.7105979417943
 20
146.4014962832367
 10
159.2947746424084
 20
144.9400858143094
 10
158.7463150793409
 20
143.2092687007094
 10
158.7463150793409
 20
143.2092687007094
 10
153.9038856707499
 20
127.8027915271048
 10
153.9038856707499
 20
127.8027915271048
 10
153.9038856707499
 20
127.8027915271048
 10
151.3882752878863
 20
127.8027915271048
 10
151.3882752878863
 20
127.8027915271048
 10
151.3882752878863
 20
127.8027915271048
 10
155.6250565106276
 20
141.2751908193897
 10
155.6250565106276
 20
141.2751908193897
 10
156.5094131050963
 20
144.0936252951782
 10
157.109893644309
 20
146.1506931664571
 10
157.4220195011804
 20
147.4415712963654
 10
157.8095929989511
 20
149.0530157726519
 10
157.9656559273867
 20
149.5826995529385
 10
157.7816877071116
 20
150.7529992613181
 10
157.6111553680925
 20
151.8430281919372
 10
157.0582171779396
 20
152.5547853887321
 10
156.1170164704645
 20
152.5547853887321
 10
155.1096698860365
 20
152.5547853887321
 10
154.2962823053817
 20
152.4412694176073
 10
153.156643967048
 20
151.2945686288697
 10
152.0170056287143
 20
150.1476955852443
 10
151.076149431015
 20
148.7930831468137
 10
150.3337308641742
 20
147.2290087646991
 10
149.5957909244188
 20
145.6683794803425
 10
148.8530278478023
 20
143.6822806228776
 10
148.0964843801539
 20
141.2751908193897
 10
148.0964843801539
 20
141.2751908193897
 10
143.8552245303272
 20
127.8027915271048
 10
143.8552245303272
 20
127.8027915271048
 10
143.8552245303272
 20
127.8027915271048
 10
141.486030802177
 20
127.8027915271048
 10
141.486030802177
 20
127.8027915271048
 10
141.486030802177
 20
127.8027915271048
 10
146.3329388378533
 20
143.2092687007094
 10
146.3329388378533
 20
143.2092687007094
 10
146.8483254624444
 20
144.8408669988801
 10
147.2314203331297
 20
146.1837661049335
 10
147.4867020769946
 20
147.224185627838
 10
147.9169947869641
 20
149.0197705792876
 10
148.0306830129768
 20
150.2400242051577
 10
147.709255392159
 20
151.3157559800812
 10
147.3874832615654
 20
152.3916600098926
 10
146.8245542879144
 20
152.6683013598569
 10
145.8840425999909
 20
152.6683013598569
 10
145.0989048209514
 20
152.6683013598569
 10
144.3282364524954
 20
152.3275811915945
 10
143.4531816219731
 20
151.6538923250251
 10
142.34627171234
 20
150.8074318058939
 10
141.901854101563
 20
150.1097995099067
 10
141.3578731655808
 20
149.289521733736
 10
140.6299240093235
 20
148.192602607601
 10
140.2850697237515
 20
147.455696197173
 10
139.6652966370942
 20
145.8385673095858
 10
139.0506911970739
 20
144.2214384219986
 10
138.463991048893
 20
142.3252566160164
 10
138.0571250036777
 20
141.0154304484394
 10
138.0571250036777
 20
141.0154304484394
 10
133.9009590684727
 20
127.8027915271048
 10
133.9009590684727
 20
127.8027915271048
 10
133.9009590684727
 20
127.8027915271048
 10
131.4180771143097
 20
127.8027915271048
 10
131.4180771143097
 20
127.8027915271048
 10
131.4180771143097
 20
127.8027915271048
 10
139.8926730891197
 20
154.8294111834263
 10
139.8926730891197
 20
154.8294111834263
 97
        0
 75
     2
 76
     1
 98
        0
  0
SPLINE
  5
1DA8
330
1DA0
100
AcDbEntity
  8
TFORMLOGO
370
     0
100
AcDbSpline
210
0.0
220
0.0
230
1.0
 70
    11
 71
     3
 72
    29
 73
    25
 74
     0
 42
0.000000001
 43
0.0000000001
 40
0.0
 40
0.0
 40
0.0
 40
0.0
 40
1.0
 40
1.0
 40
1.0
 40
2.0
 40
2.0
 40
2.0
 40
3.0
 40
3.0
 40
3.0
 40
4.0
 40
4.0
 40
4.0
 40
5.0
 40
5.0
 40
5.0
 40
6.0
 40
6.0
 40
6.0
 40
7.0
 40
7.0
 40
7.0
 40
8.0
 40
8.0
 40
8.0
 40
8.0
 10
101.6420971922469
 20
132.8388354296931
 30
0.0
 10
101.630039350094
 20
134.7164137077823
 30
0.0
 10
102.2236296937908
 20
138.0598810818841
 30
0.0
 10
103.7487744712405
 20
142.5378191476827
 30
0.0
 10
105.819967243327
 20
148.5896501242061
 30
0.0
 10
107.0602024361932
 20
150.8074318058939
 30
0.0
 10
108.1522984254671
 20
151.8833358357054
 30
0.0
 10
109.741177511439
 20
153.4532668840085
 30
0.0
 10
111.8740375333931
 20
153.5290590346837
 30
0.0
 10
112.5075910110823
 20
153.4532668840085
 30
0.0
 10
113.4012493694975
 20
153.3490526768302
 30
0.0
 10
114.6683563248758
 20
152.7580461564518
 30
0.0
 10
114.7493161221879
 20
150.7838328862519
 30
0.0
 10
114.8106388622796
 20
149.0909118479895
 30
0.0
 10
114.3186789024427
 20
145.9191825971221
 30
0.0
 10
112.6164561002338
 20
140.9489400617108
 30
0.0
 10
110.6444821435766
 20
135.1746117095912
 30
0.0
 10
109.4669477299053
 20
132.8960240524753
 30
0.0
 10
108.5212683953448
 20
131.9072809959403
 30
0.0
 10
106.7346406980658
 20
130.0538184021569
 30
0.0
 10
104.8222669326213
 20
130.2336525051225
 30
0.0
 10
104.5408024457958
 20
130.2336525051225
 30
0.0
 10
104.1721769856939
 20
130.2336525051225
 30
0.0
 10
101.6465758193322
 20
130.6305277668397
 30
0.0
 10
101.6420971922469
 20
132.8388354296931
 30
0.0
  0
SPLINE
  5
1DA9
330
1DA0
100
AcDbEntity
  8
TFORMLOGO
370
     0
100
AcDbSpline
210
0.0
220
0.0
230
1.0
 70
    11
 71
     3
 72
    32
 73
    28
 74
     0
 42
0.000000001
 43
0.0000000001
 40
0.0
 40
0.0
 40
0.0
 40
0.0
 40
1.0
 40
1.0
 40
1.0
 40
2.0
 40
2.0
 40
2.0
 40
3.0
 40
3.0
 40
3.0
 40
4.0
 40
4.0
 40
4.0
 40
5.0
 40
5.0
 40
5.0
 40
6.0
 40
6.0
 40
6.0
 40
7.0
 40
7.0
 40
7.0
 40
8.0
 40
8.0
 40
8.0
 40
9.0
 40
9.0
 40
9.0
 40
9.0
 10
106.2595617172429
 20
153.4105476718098
 30
0.0
 10
104.8222669326213
 20
151.5474388043041
 30
0.0
 10
103.7177685914188
 20
149.8758773721411
 30
0.0
 10
101.9232171692965
 20
144.6141795664062
 30
0.0
 10
100.2754269116635
 20
139.7999999594306
 30
0.0
 10
99.22777268346732
 20
136.3052927937542
 30
0.0
 10
99.06964269637689
 20
132.039572749846
 30
0.0
 10
98.94665270641765
 20
128.8673267343149
 30
0.0
 10
100.8807305877373
 20
127.8027915271048
 30
0.0
 10
103.7129454545577
 20
127.8027915271048
 30
0.0
 10
104.9352661390825
 20
127.8027915271048
 30
0.0
 10
108.0151835347002
 20
127.8827177950895
 30
0.0
 10
110.2045431598849
 20
130.5926316915021
 30
0.0
 10
111.7417457794874
 20
132.4984597712065
 30
0.0
 10
113.155269389579
 20
134.475256864725
 30
0.0
 10
115.0562743324223
 20
140.9489400617108
 30
0.0
 10
116.6361961642235
 20
146.3680788349845
 30
0.0
 10
117.7282921534974
 20
149.8639917848761
 30
0.0
 10
117.6480213757369
 20
151.8595646611754
 30
0.0
 10
117.6480213757369
 20
151.8595646611754
 30
0.0
 10
117.6480213757369
 20
151.8595646611754
 30
0.0
 10
117.6480213757369
 20
151.8595646611754
 30
0.0
 10
117.13229024137
 20
155.18150017429
 30
0.0
 10
114.7162431837115
 20
155.886194920681
 30
0.0
 10
113.3351034925446
 20
155.886194920681
 30
0.0
 10
111.9829026225447
 20
155.886194920681
 30
0.0
 10
108.3414342923792
 20
156.1251124501957
 30
0.0
 10
106.2595617172429
 20
153.4105476718098
 30
0.0
  0
HATCH
  5
1DAA
330
1DA0
100
AcDbEntity
  8
TFORMLOGO
 62
   250
420
  2234388
100
AcDbHatch
 10
0.0
 20
0.0
 30
0.0
210
0.0
220
0.0
230
1.0
  2
SOLID
 70
     1
 71
     0
 91
        2
 92
        1
 93
        1
 72
     4
 94
        3
 73
     0
 74
     1
 95
       29
 96
       25
 40
0.0
 40
0.0
 40
0.0
 40
0.0
 40
1.0
 40
1.0
 40
1.0
 40
2.0
 40
2.0
 40
2.0
 40
3.0
 40
3.0
 40
3.0
 40
4.0
 40
4.0
 40
4.0
 40
5.0
 40
5.0
 40
5.0
 40
6.0
 40
6.0
 40
6.0
 40
7.0
 40
7.0
 40
7.0
 40
8.0
 40
8.0
 40
8.0
 40
8.0
 10
101.6420971922469
 20
132.8388354296931
 10
101.630039350094
 20
134.7164137077823
 10
102.2236296937908
 20
138.0598810818841
 10
103.7487744712405
 20
142.5378191476827
 10
105.819967243327
 20
148.5896501242061
 10
107.0602024361932
 20
150.8074318058939
 10
108.1522984254671
 20
151.8833358357054
 10
109.741177511439
 20
153.4532668840085
 10
111.8740375333931
 20
153.5290590346837
 10
112.5075910110823
 20
153.4532668840085
 10
113.4012493694975
 20
153.3490526768302
 10
114.6683563248758
 20
152.7580461564518
 10
114.7493161221879
 20
150.7838328862519
 10
114.8106388622796
 20
149.0909118479895
 10
114.3186789024427
 20
145.9191825971221
 10
112.6164561002338
 20
140.9489400617108
 10
110.6444821435766
 20
135.1746117095912
 10
109.4669477299053
 20
132.8960240524753
 10
108.5212683953448
 20
131.9072809959403
 10
106.7346406980658
 20
130.0538184021569
 10
104.8222669326213
 20
130.2336525051225
 10
104.5408024457958
 20
130.2336525051225
 10
104.1721769856939
 20
130.2336525051225
 10
101.6465758193322
 20
130.6305277668397
 10
101.6420971922469
 20
132.8388354296931
 97
        0
 92
        1
 93
        1
 72
     4
 94
        3
 73
     0
 74
     1
 95
       32
 96
       28
 40
0.0
 40
0.0
 40
0.0
 40
0.0
 40
1.0
 40
1.0
 40
1.0
 40
2.0
 40
2.0
 40
2.0
 40
3.0
 40
3.0
 40
3.0
 40
4.0
 40
4.0
 40
4.0
 40
5.0
 40
5.0
 40
5.0
 40
6.0
 40
6.0
 40
6.0
 40
7.0
 40
7.0
 40
7.0
 40
8.0
 40
8.0
 40
8.0
 40
9.0
 40
9.0
 40
9.0
 40
9.0
 10
106.2595617172429
 20
153.4105476718098
 10
104.8222669326213
 20
151.5474388043041
 10
103.7177685914188
 20
149.8758773721411
 10
101.9232171692965
 20
144.6141795664062
 10
100.2754269116635
 20
139.7999999594306
 10
99.22777268346732
 20
136.3052927937542
 10
99.06964269637689
 20
132.039572749846
 10
98.94665270641765
 20
128.8673267343149
 10
100.8807305877373
 20
127.8027915271048
 10
103.7129454545577
 20
127.8027915271048
 10
104.9352661390825
 20
127.8027915271048
 10
108.0151835347002
 20
127.8827177950895
 10
110.2045431598849
 20
130.5926316915021
 10
111.7417457794874
 20
132.4984597712065
 10
113.155269389579
 20
134.475256864725
 10
115.0562743324223
 20
140.9489400617108
 10
116.6361961642235
 20
146.3680788349845
 10
117.7282921534974
 20
149.8639917848761
 10
117.6480213757369
 20
151.8595646611754
 10
117.6480213757369
 20
151.8595646611754
 10
117.6480213757369
 20
151.8595646611754
 10
117.6480213757369
 20
151.8595646611754
 10
117.13229024137
 20
155.18150017429
 10
114.7162431837115
 20
155.886194920681
 10
113.3351034925446
 20
155.886194920681
 10
111.9829026225447
 20
155.886194920681
 10
108.3414342923792
 20
156.1251124501957
 10
106.2595617172429
 20
153.4105476718098
 97
        0
 75
     2
 76
     1
 98
        0
  0
ENDBLK
  5
1DAB
330
1DA0
100
AcDbEntity
  8
0
100
AcDbBlockEnd
  0
BLOCK
  5
468B
330
468A
100
AcDbEntity
  8
0
100
AcDbBlockBegin
  2
*D7
 70
     1
 10
0.0
 20
0.0
 30
0.0
  3
*D7
  1

  0
LINE
  5
468D
330
468A
100
AcDbEntity
  8
モデル
 62
     0
370
    -2
100
AcDbLine
 10
178.146301369863
 20
312.4307368988053
 30
0.0
 11
171.3834658162588
 21
312.4307368988053
 31
0.0
  0
LINE
  5
468E
330
468A
100
AcDbEntity
  8
モデル
 62
     0
370
    -2
100
AcDbLine
 10
178.146301369863
 20
310.4307368988053
 30
0.0
 11
171.3834658162588
 21
310.4307368988053
 31
0.0
  0
LINE
  5
468F
330
468A
100
AcDbEntity
  8
モデル
 62
     0
370
    -2
100
AcDbLine
 10
171.3834658162588
 20
310.4307368988053
 30
0.0
 11
171.3834658162588
 21
312.4307368988053
 31
0.0
  0
INSERT
  5
4690
330
468A
100
AcDbEntity
  8
モデル
 62
     0
370
    -2
100
AcDbBlockReference
  2
_DOT
 10
171.3834658162588
 20
312.4307368988053
 30
0.0
 41
2.0
 42
2.0
 43
2.0
 50
90.0
  0
INSERT
  5
4691
330
468A
100
AcDbEntity
  8
モデル
 62
     0
370
    -2
100
AcDbBlockReference
  2
_DOT
 10
171.3834658162588
 20
310.4307368988053
 30
0.0
 41
2.0
 42
2.0
 43
2.0
 50
270.0
  0
MTEXT
  5
4692
330
468A
100
AcDbEntity
  8
モデル
 62
     0
100
AcDbMText
 10
163.8834658162588
 20
311.4307368988053
 30
0.0
 40
5.0
 41
0.0
 46
0.0
 71
     5
 72
     1
  1
\A1;2
  7
ＭＳ ゴシック
 11
0.0
 21
1.0
 31
0.0
 73
     1
 44
1.0
  0
POINT
  5
4693
330
468A
100
AcDbEntity
  8
Defpoints
 62
     0
100
AcDbPoint
 10
183.146301369863
 20
312.4307368988053
 30
0.0
  0
POINT
  5
4694
330
468A
100
AcDbEntity
  8
Defpoints
 62
     0
100
AcDbPoint
 10
183.146301369863
 20
310.4307368988053
 30
0.0
  0
POINT
  5
4695
330
468A
100
AcDbEntity
  8
Defpoints
 62
     0
100
AcDbPoint
 10
171.3834658162588
 20
310.4307368988053
 30
0.0
  0
ENDBLK
  5
468C
330
468A
100
AcDbEntity
  8
0
100
AcDbBlockEnd
  0
BLOCK
  5
469E
330
469D
100
AcDbEntity
  8
0
100
AcDbBlockBegin
  2
*D8
 70
     1
 10
0.0
 20
0.0
 30
0.0
  3
*D8
  1

  0
LINE
  5
46A0
330
469D
100
AcDbEntity
  8
モデル
 62
     0
370
    -2
100
AcDbLine
 10
178.146301369863
 20
312.4307368988053
 30
0.0
 11
171.3834658162588
 21
312.4307368988053
 31
0.0
  0
LINE
  5
46A1
330
469D
100
AcDbEntity
  8
モデル
 62
     0
370
    -2
100
AcDbLine
 10
182.146301369863
 20
321.4307368988053
 30
0.0
 11
171.3834658162588
 21
321.4307368988053
 31
0.0
  0
LINE
  5
46A2
330
469D
100
AcDbEntity
  8
モデル
 62
     0
370
    -2
100
AcDbLine
 10
171.3834658162588
 20
314.4307368988053
 30
0.0
 11
171.3834658162588
 21
319.4307368988053
 31
0.0
  0
INSERT
  5
46A3
330
469D
100
AcDbEntity
  8
モデル
 62
     0
370
    -2
100
AcDbBlockReference
  2
_DOT
 10
171.3834658162588
 20
312.4307368988053
 30
0.0
 41
2.0
 42
2.0
 43
2.0
 50
270.0
  0
INSERT
  5
46A4
330
469D
100
AcDbEntity
  8
モデル
 62
     0
370
    -2
100
AcDbBlockReference
  2
_DOT
 10
171.3834658162588
 20
321.4307368988053
 30
0.0
 41
2.0
 42
2.0
 43
2.0
 50
90.0
  0
MTEXT
  5
46A5
330
469D
100
AcDbEntity
  8
モデル
 62
     0
100
AcDbMText
 10
163.8834658162588
 20
316.9307368988053
 30
0.0
 40
5.0
 41
0.0
 46
0.0
 71
     5
 72
     1
  1
\A1;9
  7
ＭＳ ゴシック
 11
0.0
 21
1.0
 31
0.0
 73
     1
 44
1.0
  0
POINT
  5
46A6
330
469D
100
AcDbEntity
  8
Defpoints
 62
     0
100
AcDbPoint
 10
183.146301369863
 20
312.4307368988053
 30
0.0
  0
POINT
  5
46A7
330
469D
100
AcDbEntity
  8
Defpoints
 62
     0
100
AcDbPoint
 10
187.146301369863
 20
321.4307368988053
 30
0.0
  0
POINT
  5
46A8
330
469D
100
AcDbEntity
  8
Defpoints
 62
     0
100
AcDbPoint
 10
171.3834658162588
 20
321.4307368988053
 30
0.0
  0
ENDBLK
  5
469F
330
469D
100
AcDbEntity
  8
0
100
AcDbBlockEnd
  0
BLOCK
  5
46AE
330
46AD
100
AcDbEntity
  8
0
100
AcDbBlockBegin
  2
*D9
 70
     1
 10
0.0
 20
0.0
 30
0.0
  3
*D9
  1

  0
LINE
  5
46B0
330
46AD
100
AcDbEntity
  8
モデル
 62
     0
370
    -2
100
AcDbLine
 10
242.146301369863
 20
310.4307368988053
 30
0.0
 11
257.2028545642372
 21
310.4307368988053
 31
0.0
  0
LINE
  5
46B1
330
46AD
100
AcDbEntity
  8
モデル
 62
     0
370
    -2
100
AcDbLine
 10
236.0021453039633
 20
321.4307368988053
 30
0.0
 11
257.2028545642372
 21
321.4307368988053
 31
0.0
  0
LINE
  5
46B2
330
46AD
100
AcDbEntity
  8
モデル
 62
     0
370
    -2
100
AcDbLine
 10
257.2028545642372
 20
312.4307368988053
 30
0.0
 11
257.2028545642372
 21
319.4307368988053
 31
0.0
  0
INSERT
  5
46B3
330
46AD
100
AcDbEntity
  8
モデル
 62
     0
370
    -2
100
AcDbBlockReference
  2
_DOT
 10
257.2028545642372
 20
310.4307368988053
 30
0.0
 41
2.0
 42
2.0
 43
2.0
 50
270.0
  0
INSERT
  5
46B4
330
46AD
100
AcDbEntity
  8
モデル
 62
     0
370
    -2
100
AcDbBlockReference
  2
_DOT
 10
257.2028545642372
 20
321.4307368988053
 30
0.0
 41
2.0
 42
2.0
 43
2.0
 50
90.0
  0
MTEXT
  5
46B5
330
46AD
100
AcDbEntity
  8
モデル
 62
     0
100
AcDbMText
 10
249.7028545642372
 20
315.9307368988053
 30
0.0
 40
5.0
 41
0.0
 46
0.0
 71
     5
 72
     1
  1
\A1;11
  7
ＭＳ ゴシック
 11
0.0
 21
1.0
 31
0.0
 73
     1
 44
1.0
  0
POINT
  5
46B6
330
46AD
100
AcDbEntity
  8
Defpoints
 62
     0
100
AcDbPoint
 10
237.146301369863
 20
310.4307368988053
 30
0.0
  0
POINT
  5
46B7
330
46AD
100
AcDbEntity
  8
Defpoints
 62
     0
100
AcDbPoint
 10
231.0021453039633
 20
321.4307368988053
 30
0.0
  0
POINT
  5
46B8
330
46AD
100
AcDbEntity
  8
Defpoints
 62
     0
100
AcDbPoint
 10
257.2028545642372
 20
321.4307368988053
 30
0.0
  0
ENDBLK
  5
46AF
330
46AD
100
AcDbEntity
  8
0
100
AcDbBlockEnd
  0
BLOCK
  5
46C1
330
46C0
100
AcDbEntity
  8
0
100
AcDbBlockBegin
  2
*D10
 70
     1
 10
0.0
 20
0.0
 30
0.0
  3
*D10
  1

  0
LINE
  5
46C3
330
46C0
100
AcDbEntity
  8
モデル
 62
     0
370
    -2
100
AcDbLine
 10
186.146301369863
 20
325.4307368988053
 30
0.0
 11
186.146301369863
 21
337.8758316485016
 31
0.0
  0
LINE
  5
46C4
330
46C0
100
AcDbEntity
  8
モデル
 62
     0
370
    -2
100
AcDbLine
 10
234.146301369863
 20
325.4307368988053
 30
0.0
 11
234.146301369863
 21
337.8758316485016
 31
0.0
  0
LINE
  5
46C5
330
46C0
100
AcDbEntity
  8
モデル
 62
     0
370
    -2
100
AcDbLine
 10
188.146301369863
 20
337.8758316485016
 30
0.0
 11
232.146301369863
 21
337.8758316485016
 31
0.0
  0
INSERT
  5
46C6
330
46C0
100
AcDbEntity
  8
モデル
 62
     0
370
    -2
100
AcDbBlockReference
  2
_DOT
 10
186.146301369863
 20
337.8758316485016
 30
0.0
 41
2.0
 42
2.0
 43
2.0
 50
180.0
  0
INSERT
  5
46C7
330
46C0
100
AcDbEntity
  8
モデル
 62
     0
370
    -2
100
AcDbBlockReference
  2
_DOT
 10
234.146301369863
 20
337.8758316485016
 30
0.0
 41
2.0
 42
2.0
 43
2.0
  0
MTEXT
  5
46C8
330
46C0
100
AcDbEntity
  8
モデル
 62
     0
100
AcDbMText
 10
210.146301369863
 20
345.3758316485016
 30
0.0
 40
5.0
 41
0.0
 46
0.0
 71
     5
 72
     1
  1
\A1;48
  7
ＭＳ ゴシック
 73
     1
 44
1.0
  0
POINT
  5
46C9
330
46C0
100
AcDbEntity
  8
Defpoints
 62
     0
100
AcDbPoint
 10
186.146301369863
 20
320.4307368988053
 30
0.0
  0
POINT
  5
46CA
330
46C0
100
AcDbEntity
  8
Defpoints
 62
     0
100
AcDbPoint
 10
234.146301369863
 20
320.4307368988053
 30
0.0
  0
POINT
  5
46CB
330
46C0
100
AcDbEntity
  8
Defpoints
 62
     0
100
AcDbPoint
 10
234.146301369863
 20
337.8758316485016
 30
0.0
  0
ENDBLK
  5
46C2
330
46C0
100
AcDbEntity
  8
0
100
AcDbBlockEnd
  0
BLOCK
  5
46D0
330
46CF
100
AcDbEntity
  8
0
100
AcDbBlockBegin
  2
*D11
 70
     1
 10
0.0
 20
0.0
 30
0.0
  3
*D11
  1

  0
LINE
  5
46D2
330
46CF
100
AcDbEntity
  8
モデル
 62
     0
370
    -2
100
AcDbLine
 10
188.146301369863
 20
200.3287671232877
 30
0.0
 11
188.146301369863
 21
223.8627467169948
 31
0.0
  0
LINE
  5
46D3
330
46CF
100
AcDbEntity
  8
モデル
 62
     0
370
    -2
100
AcDbLine
 10
232.146301369863
 20
200.3287671232877
 30
0.0
 11
232.146301369863
 21
223.8627467169948
 31
0.0
  0
LINE
  5
46D4
330
46CF
100
AcDbEntity
  8
モデル
 62
     0
370
    -2
100
AcDbLine
 10
190.146301369863
 20
223.8627467169948
 30
0.0
 11
230.146301369863
 21
223.8627467169948
 31
0.0
  0
INSERT
  5
46D5
330
46CF
100
AcDbEntity
  8
モデル
 62
     0
370
    -2
100
AcDbBlockReference
  2
_DOT
 10
188.146301369863
 20
223.8627467169948
 30
0.0
 41
2.0
 42
2.0
 43
2.0
 50
180.0
  0
INSERT
  5
46D6
330
46CF
100
AcDbEntity
  8
モデル
 62
     0
370
    -2
100
AcDbBlockReference
  2
_DOT
 10
232.146301369863
 20
223.8627467169948
 30
0.0
 41
2.0
 42
2.0
 43
2.0
  0
MTEXT
  5
46D7
330
46CF
100
AcDbEntity
  8
モデル
 62
     0
100
AcDbMText
 10
210.146301369863
 20
231.3627467169948
 30
0.0
 40
5.0
 41
0.0
 46
0.0
 71
     5
 72
     1
  1
\A1;44
  7
ＭＳ ゴシック
 73
     1
 44
1.0
  0
POINT
  5
46D8
330
46CF
100
AcDbEntity
  8
Defpoints
 62
     0
100
AcDbPoint
 10
188.146301369863
 20
195.3287671232877
 30
0.0
  0
POINT
  5
46D9
330
46CF
100
AcDbEntity
  8
Defpoints
 62
     0
100
AcDbPoint
 10
232.146301369863
 20
195.3287671232877
 30
0.0
  0
POINT
  5
46DA
330
46CF
100
AcDbEntity
  8
Defpoints
 62
     0
100
AcDbPoint
 10
232.146301369863
 20
223.8627467169948
 30
0.0
  0
ENDBLK
  5
46D1
330
46CF
100
AcDbEntity
  8
0
100
AcDbBlockEnd
  0
BLOCK
  5
46DF
330
46DE
100
AcDbEntity
  8
0
100
AcDbBlockBegin
  2
*D12
 70
     1
 10
0.0
 20
0.0
 30
0.0
  3
*D12
  1

  0
LINE
  5
46E1
330
46DE
100
AcDbEntity
  8
モデル
 62
     0
370
    -2
100
AcDbLine
 10
242.146301369863
 20
212.9391780821918
 30
0.0
 11
258.6601187834153
 21
212.9391780821918
 31
0.0
  0
LINE
  5
46E2
330
46DE
100
AcDbEntity
  8
モデル
 62
     0
370
    -2
100
AcDbLine
 10
242.146301369863
 20
158.9391780821918
 30
0.0
 11
258.6601187834153
 21
158.9391780821918
 31
0.0
  0
LINE
  5
46E3
330
46DE
100
AcDbEntity
  8
モデル
 62
     0
370
    -2
100
AcDbLine
 10
258.6601187834153
 20
210.9391780821918
 30
0.0
 11
258.6601187834153
 21
160.9391780821918
 31
0.0
  0
INSERT
  5
46E4
330
46DE
100
AcDbEntity
  8
モデル
 62
     0
370
    -2
100
AcDbBlockReference
  2
_DOT
 10
258.6601187834153
 20
212.9391780821918
 30
0.0
 41
2.0
 42
2.0
 43
2.0
 50
90.0
  0
INSERT
  5
46E5
330
46DE
100
AcDbEntity
  8
モデル
 62
     0
370
    -2
100
AcDbBlockReference
  2
_DOT
 10
258.6601187834153
 20
158.9391780821918
 30
0.0
 41
2.0
 42
2.0
 43
2.0
 50
270.0
  0
MTEXT
  5
46E6
330
46DE
100
AcDbEntity
  8
モデル
 62
     0
100
AcDbMText
 10
251.1601187834153
 20
185.9391780821918
 30
0.0
 40
5.0
 41
0.0
 46
0.0
 71
     5
 72
     1
  1
\A1;54
  7
ＭＳ ゴシック
 11
0.0
 21
1.0
 31
0.0
 73
     1
 44
1.0
  0
POINT
  5
46E7
330
46DE
100
AcDbEntity
  8
Defpoints
 62
     0
100
AcDbPoint
 10
237.146301369863
 20
212.9391780821918
 30
0.0
  0
POINT
  5
46E8
330
46DE
100
AcDbEntity
  8
Defpoints
 62
     0
100
AcDbPoint
 10
237.146301369863
 20
158.9391780821918
 30
0.0
  0
POINT
  5
46E9
330
46DE
100
AcDbEntity
  8
Defpoints
 62
     0
100
AcDbPoint
 10
258.6601187834153
 20
158.9391780821918
 30
0.0
  0
ENDBLK
  5
46E0
330
46DE
100
AcDbEntity
  8
0
100
AcDbBlockEnd
  0
BLOCK
  5
46EE
330
46ED
100
AcDbEntity
  8
0
100
AcDbBlockBegin
  2
*D13
 70
     1
 10
0.0
 20
0.0
 30
0.0
  3
*D13
  1

  0
LINE
  5
46F0
330
46ED
100
AcDbEntity
  8
モデル
 62
     0
370
    -2
100
AcDbLine
 10
183.146301369863
 20
217.9391780821918
 30
0.0
 11
183.146301369863
 21
240.0128398676797
 31
0.0
  0
LINE
  5
46F1
330
46ED
100
AcDbEntity
  8
モデル
 62
     0
370
    -2
100
AcDbLine
 10
237.146301369863
 20
217.9391780821918
 30
0.0
 11
237.146301369863
 21
240.0128398676797
 31
0.0
  0
LINE
  5
46F2
330
46ED
100
AcDbEntity
  8
モデル
 62
     0
370
    -2
100
AcDbLine
 10
185.146301369863
 20
240.0128398676797
 30
0.0
 11
235.146301369863
 21
240.0128398676797
 31
0.0
  0
INSERT
  5
46F3
330
46ED
100
AcDbEntity
  8
モデル
 62
     0
370
    -2
100
AcDbBlockReference
  2
_DOT
 10
183.146301369863
 20
240.0128398676797
 30
0.0
 41
2.0
 42
2.0
 43
2.0
 50
180.0
  0
INSERT
  5
46F4
330
46ED
100
AcDbEntity
  8
モデル
 62
     0
370
    -2
100
AcDbBlockReference
  2
_DOT
 10
237.146301369863
 20
240.0128398676797
 30
0.0
 41
2.0
 42
2.0
 43
2.0
  0
MTEXT
  5
46F5
330
46ED
100
AcDbEntity
  8
モデル
 62
     0
100
AcDbMText
 10
210.146301369863
 20
247.5128398676797
 30
0.0
 40
5.0
 41
0.0
 46
0.0
 71
     5
 72
     1
  1
\A1;54
  7
ＭＳ ゴシック
 73
     1
 44
1.0
  0
POINT
  5
46F6
330
46ED
100
AcDbEntity
  8
Defpoints
 62
     0
100
AcDbPoint
 10
183.146301369863
 20
212.9391780821918
 30
0.0
  0
POINT
  5
46F7
330
46ED
100
AcDbEntity
  8
Defpoints
 62
     0
100
AcDbPoint
 10
237.146301369863
 20
212.9391780821918
 30
0.0
  0
POINT
  5
46F8
330
46ED
100
AcDbEntity
  8
Defpoints
 62
     0
100
AcDbPoint
 10
237.146301369863
 20
240.0128398676797
 30
0.0
  0
ENDBLK
  5
46EF
330
46ED
100
AcDbEntity
  8
0
100
AcDbBlockEnd
  0
BLOCK
  5
475A
330
4759
100
AcDbEntity
  8
0
100
AcDbBlockBegin
  2
*D14
 70
     1
 10
0.0
 20
0.0
 30
0.0
  3
*D14
  1

  0
LINE
  5
475C
330
4759
100
AcDbEntity
  8
モデル
 62
     0
370
    -2
100
AcDbLine
 10
390.4897080460273
 20
199.4391780821918
 30
0.0
 11
395.4897080460273
 21
199.4391780821918
 31
0.0
  0
LINE
  5
475D
330
4759
100
AcDbEntity
  8
モデル
 62
     0
370
    -2
100
AcDbLine
 10
390.4897080460273
 20
173.2723069755616
 30
0.0
 11
395.4897080460273
 21
173.2723069755616
 31
0.0
  0
LINE
  5
475E
330
4759
100
AcDbEntity
  8
モデル
 62
     0
370
    -2
100
AcDbLine
 10
395.4897080460273
 20
197.4391780821918
 30
0.0
 11
395.4897080460273
 21
175.2723069755616
 31
0.0
  0
INSERT
  5
475F
330
4759
100
AcDbEntity
  8
モデル
 62
     0
370
    -2
100
AcDbBlockReference
  2
_DOT
 10
395.4897080460273
 20
199.4391780821918
 30
0.0
 41
2.0
 42
2.0
 43
2.0
 50
90.0
  0
INSERT
  5
4760
330
4759
100
AcDbEntity
  8
モデル
 62
     0
370
    -2
100
AcDbBlockReference
  2
_DOT
 10
395.4897080460273
 20
173.2723069755616
 30
0.0
 41
2.0
 42
2.0
 43
2.0
 50
270.0
  0
MTEXT
  5
4761
330
4759
100
AcDbEntity
  8
モデル
 62
     0
100
AcDbMText
 10
387.9897080460273
 20
186.3557425288767
 30
0.0
 40
5.0
 41
0.0
 46
0.0
 71
     5
 72
     1
  1
\A1;26
  7
ＭＳ ゴシック
 11
0.0
 21
1.0
 31
0.0
 73
     1
 44
1.0
  0
POINT
  5
4762
330
4759
100
AcDbEntity
  8
Defpoints
 62
     0
100
AcDbPoint
 10
395.4897080460273
 20
199.4391780821918
 30
0.0
  0
POINT
  5
4763
330
4759
100
AcDbEntity
  8
Defpoints
 62
     0
100
AcDbPoint
 10
395.4897080460273
 20
173.2723069755616
 30
0.0
  0
POINT
  5
4764
330
4759
100
AcDbEntity
  8
Defpoints
 62
     0
100
AcDbPoint
 10
395.4897080460273
 20
173.2723069755616
 30
0.0
  0
ENDBLK
  5
475B
330
4759
100
AcDbEntity
  8
0
100
AcDbBlockEnd
  0
BLOCK
  5
4769
330
4768
100
AcDbEntity
  8
0
100
AcDbBlockBegin
  2
*D15
 70
     1
 10
0.0
 20
0.0
 30
0.0
  3
*D15
  1

  0
LINE
  5
476B
330
4768
100
AcDbEntity
  8
モデル
 62
     0
370
    -2
100
AcDbLine
 10
400.4897080460273
 20
172.4391780821918
 30
0.0
 11
410.5811638356166
 21
172.4391780821918
 31
0.0
  0
LINE
  5
476C
330
4768
100
AcDbEntity
  8
モデル
 62
     0
370
    -2
100
AcDbLine
 10
400.4897080460273
 20
199.4391780821918
 30
0.0
 11
410.5811638356166
 21
199.4391780821918
 31
0.0
  0
LINE
  5
476D
330
4768
100
AcDbEntity
  8
モデル
 62
     0
370
    -2
100
AcDbLine
 10
410.5811638356166
 20
174.4391780821918
 30
0.0
 11
410.5811638356166
 21
197.4391780821918
 31
0.0
  0
INSERT
  5
476E
330
4768
100
AcDbEntity
  8
モデル
 62
     0
370
    -2
100
AcDbBlockReference
  2
_DOT
 10
410.5811638356166
 20
172.4391780821918
 30
0.0
 41
2.0
 42
2.0
 43
2.0
 50
270.0
  0
INSERT
  5
476F
330
4768
100
AcDbEntity
  8
モデル
 62
     0
370
    -2
100
AcDbBlockReference
  2
_DOT
 10
410.5811638356166
 20
199.4391780821918
 30
0.0
 41
2.0
 42
2.0
 43
2.0
 50
90.0
  0
MTEXT
  5
4770
330
4768
100
AcDbEntity
  8
モデル
 62
     0
100
AcDbMText
 10
403.0811638356166
 20
185.9391780821918
 30
0.0
 40
5.0
 41
0.0
 46
0.0
 71
     5
 72
     1
  1
\A1;27
  7
ＭＳ ゴシック
 11
0.0
 21
1.0
 31
0.0
 73
     1
 44
1.0
  0
POINT
  5
4771
330
4768
100
AcDbEntity
  8
Defpoints
 62
     0
100
AcDbPoint
 10
395.4897080460273
 20
172.4391780821918
 30
0.0
  0
POINT
  5
4772
330
4768
100
AcDbEntity
  8
Defpoints
 62
     0
100
AcDbPoint
 10
395.4897080460273
 20
199.4391780821918
 30
0.0
  0
POINT
  5
4773
330
4768
100
AcDbEntity
  8
Defpoints
 62
     0
100
AcDbPoint
 10
410.5811638356166
 20
199.4391780821918
 30
0.0
  0
ENDBLK
  5
476A
330
4768
100
AcDbEntity
  8
0
100
AcDbBlockEnd
  0
BLOCK
  5
477C
330
477B
100
AcDbEntity
  8
0
100
AcDbBlockBegin
  2
*D16
 70
     1
 10
0.0
 20
0.0
 30
0.0
  3
*D16
  1

  0
LINE
  5
477E
330
477B
100
AcDbEntity
  8
モデル
 62
     0
370
    -2
100
AcDbLine
 10
395.4897080460273
 20
167.4391780821918
 30
0.0
 11
395.4897080460273
 21
165.7149647815889
 31
0.0
  0
LINE
  5
477F
330
477B
100
AcDbEntity
  8
モデル
 62
     0
370
    -2
100
AcDbLine
 10
372.4897080460273
 20
169.1891780821918
 30
0.0
 11
372.4897080460273
 21
165.7149647815889
 31
0.0
  0
LINE
  5
4780
330
477B
100
AcDbEntity
  8
モデル
 62
     0
370
    -2
100
AcDbLine
 10
393.4897080460273
 20
165.7149647815889
 30
0.0
 11
374.4897080460273
 21
165.7149647815889
 31
0.0
  0
INSERT
  5
4781
330
477B
100
AcDbEntity
  8
モデル
 62
     0
370
    -2
100
AcDbBlockReference
  2
_DOT
 10
395.4897080460273
 20
165.7149647815889
 30
0.0
 41
2.0
 42
2.0
 43
2.0
  0
INSERT
  5
4782
330
477B
100
AcDbEntity
  8
モデル
 62
     0
370
    -2
100
AcDbBlockReference
  2
_DOT
 10
372.4897080460273
 20
165.7149647815889
 30
0.0
 41
2.0
 42
2.0
 43
2.0
 50
180.0
  0
MTEXT
  5
4783
330
477B
100
AcDbEntity
  8
モデル
 62
     0
100
AcDbMText
 10
383.9897080460273
 20
173.2149647815889
 30
0.0
 40
5.0
 41
0.0
 46
0.0
 71
     5
 72
     1
  1
\A1;23
  7
ＭＳ ゴシック
 73
     1
 44
1.0
  0
POINT
  5
4784
330
477B
100
AcDbEntity
  8
Defpoints
 62
     0
100
AcDbPoint
 10
395.4897080460273
 20
172.4391780821918
 30
0.0
  0
POINT
  5
4785
330
477B
100
AcDbEntity
  8
Defpoints
 62
     0
100
AcDbPoint
 10
372.4897080460273
 20
174.1891780821918
 30
0.0
  0
POINT
  5
4786
330
477B
100
AcDbEntity
  8
Defpoints
 62
     0
100
AcDbPoint
 10
372.4897080460273
 20
165.7149647815889
 30
0.0
  0
ENDBLK
  5
477D
330
477B
100
AcDbEntity
  8
0
100
AcDbBlockEnd
  0
BLOCK
  5
478B
330
478A
100
AcDbEntity
  8
0
100
AcDbBlockBegin
  2
*D17
 70
     1
 10
0.0
 20
0.0
 30
0.0
  3
*D17
  1

  0
LINE
  5
478D
330
478A
100
AcDbEntity
  8
モデル
 62
     0
370
    -2
100
AcDbLine
 10
417.3325424990687
 20
199.4391780821918
 30
0.0
 11
415.2715619252255
 21
199.4391780821918
 31
0.0
  0
LINE
  5
478E
330
478A
100
AcDbEntity
  8
モデル
 62
     0
370
    -2
100
AcDbLine
 10
417.3325424990687
 20
172.4391780821918
 30
0.0
 11
415.2715619252255
 21
172.4391780821918
 31
0.0
  0
LINE
  5
478F
330
478A
100
AcDbEntity
  8
モデル
 62
     0
370
    -2
100
AcDbLine
 10
415.2715619252255
 20
197.4391780821918
 30
0.0
 11
415.2715619252255
 21
174.4391780821918
 31
0.0
  0
INSERT
  5
4790
330
478A
100
AcDbEntity
  8
モデル
 62
     0
370
    -2
100
AcDbBlockReference
  2
_DOT
 10
415.2715619252255
 20
199.4391780821918
 30
0.0
 41
2.0
 42
2.0
 43
2.0
 50
90.0
  0
INSERT
  5
4791
330
478A
100
AcDbEntity
  8
モデル
 62
     0
370
    -2
100
AcDbBlockReference
  2
_DOT
 10
415.2715619252255
 20
172.4391780821918
 30
0.0
 41
2.0
 42
2.0
 43
2.0
 50
270.0
  0
MTEXT
  5
4792
330
478A
100
AcDbEntity
  8
モデル
 62
     0
100
AcDbMText
 10
407.7715619252255
 20
185.9391780821918
 30
0.0
 40
5.0
 41
0.0
 46
0.0
 71
     5
 72
     1
  1
\A1;27
  7
ＭＳ ゴシック
 11
0.0
 21
1.0
 31
0.0
 73
     1
 44
1.0
  0
POINT
  5
4793
330
478A
100
AcDbEntity
  8
Defpoints
 62
     0
100
AcDbPoint
 10
422.3325424990687
 20
199.4391780821918
 30
0.0
  0
POINT
  5
4794
330
478A
100
AcDbEntity
  8
Defpoints
 62
     0
100
AcDbPoint
 10
422.3325424990687
 20
172.4391780821918
 30
0.0
  0
POINT
  5
4795
330
478A
100
AcDbEntity
  8
Defpoints
 62
     0
100
AcDbPoint
 10
415.2715619252255
 20
172.4391780821918
 30
0.0
  0
ENDBLK
  5
478C
330
478A
100
AcDbEntity
  8
0
100
AcDbBlockEnd
  0
BLOCK
  5
47A2
330
47A1
100
AcDbEntity
  8
0
100
AcDbBlockBegin
  2
*D18
 70
     1
 10
0.0
 20
0.0
 30
0.0
  3
*D18
  1

  0
LINE
  5
47A4
330
47A1
100
AcDbEntity
  8
モデル
 62
     0
370
    -2
100
AcDbLine
 10
417.3325424990687
 20
172.4391780821918
 30
0.0
 11
409.1180008512529
 21
172.4391780821918
 31
0.0
  0
LINE
  5
47A5
330
47A1
100
AcDbEntity
  8
モデル
 62
     0
370
    -2
100
AcDbLine
 10
417.3325424990687
 20
199.4391780821918
 30
0.0
 11
409.1180008512529
 21
199.4391780821918
 31
0.0
  0
LINE
  5
47A6
330
47A1
100
AcDbEntity
  8
モデル
 62
     0
370
    -2
100
AcDbLine
 10
409.1180008512529
 20
174.4391780821918
 30
0.0
 11
409.1180008512529
 21
197.4391780821918
 31
0.0
  0
INSERT
  5
47A7
330
47A1
100
AcDbEntity
  8
モデル
 62
     0
370
    -2
100
AcDbBlockReference
  2
_DOT
 10
409.1180008512529
 20
172.4391780821918
 30
0.0
 41
2.0
 42
2.0
 43
2.0
 50
270.0
  0
INSERT
  5
47A8
330
47A1
100
AcDbEntity
  8
モデル
 62
     0
370
    -2
100
AcDbBlockReference
  2
_DOT
 10
409.1180008512529
 20
199.4391780821918
 30
0.0
 41
2.0
 42
2.0
 43
2.0
 50
90.0
  0
MTEXT
  5
47A9
330
47A1
100
AcDbEntity
  8
モデル
 62
     0
100
AcDbMText
 10
401.6180008512529
 20
185.9391780821918
 30
0.0
 40
5.0
 41
0.0
 46
0.0
 71
     5
 72
     1
  1
\A1;27
  7
ＭＳ ゴシック
 11
0.0
 21
1.0
 31
0.0
 73
     1
 44
1.0
  0
POINT
  5
47AA
330
47A1
100
AcDbEntity
  8
Defpoints
 62
     0
100
AcDbPoint
 10
422.3325424990687
 20
172.4391780821918
 30
0.0
  0
POINT
  5
47AB
330
47A1
100
AcDbEntity
  8
Defpoints
 62
     0
100
AcDbPoint
 10
422.3325424990687
 20
199.4391780821918
 30
0.0
  0
POINT
  5
47AC
330
47A1
100
AcDbEntity
  8
Defpoints
 62
     0
100
AcDbPoint
 10
409.1180008512529
 20
199.4391780821918
 30
0.0
  0
ENDBLK
  5
47A3
330
47A1
100
AcDbEntity
  8
0
100
AcDbBlockEnd
  0
BLOCK
  5
47AF
330
47AE
100
AcDbEntity
  8
0
100
AcDbBlockBegin
  2
*D19
 70
     1
 10
0.0
 20
0.0
 30
0.0
  3
*D19
  1

  0
LINE
  5
47B1
330
47AE
100
AcDbEntity
  8
モデル
 62
     0
370
    -2
100
AcDbLine
 10
440.8325424990687
 20
187.9391780821918
 30
0.0
 11
474.8380331212802
 21
187.9391780821918
 31
0.0
  0
LINE
  5
47B2
330
47AE
100
AcDbEntity
  8
モデル
 62
     0
370
    -2
100
AcDbLine
 10
440.8325424990687
 20
200.4391780821918
 30
0.0
 11
474.8380331212802
 21
200.4391780821918
 31
0.0
  0
LINE
  5
47B3
330
47AE
100
AcDbEntity
  8
モデル
 62
     0
370
    -2
100
AcDbLine
 10
474.8380331212802
 20
185.9391780821918
 30
0.0
 11
474.8380331212802
 21
183.9391780821918
 31
0.0
  0
LINE
  5
47B4
330
47AE
100
AcDbEntity
  8
モデル
 62
     0
370
    -2
100
AcDbLine
 10
474.8380331212802
 20
202.4391780821918
 30
0.0
 11
474.8380331212802
 21
204.4391780821918
 31
0.0
  0
INSERT
  5
47B5
330
47AE
100
AcDbEntity
  8
モデル
 62
     0
370
    -2
100
AcDbBlockReference
  2
_DOT
 10
474.8380331212802
 20
187.9391780821918
 30
0.0
 41
2.0
 42
2.0
 43
2.0
 50
90.0
  0
INSERT
  5
47B6
330
47AE
100
AcDbEntity
  8
モデル
 62
     0
370
    -2
100
AcDbBlockReference
  2
_DOT
 10
474.8380331212802
 20
200.4391780821918
 30
0.0
 41
2.0
 42
2.0
 43
2.0
 50
270.0
  0
MTEXT
  5
47B7
330
47AE
100
AcDbEntity
  8
モデル
 62
     0
100
AcDbMText
 10
467.3380331212802
 20
194.1891780821918
 30
0.0
 40
5.0
 41
0.0
 46
0.0
 71
     5
 72
     1
  1
\A1;13
  7
ＭＳ ゴシック
 11
0.0
 21
1.0
 31
0.0
 73
     1
 44
1.0
  0
POINT
  5
47B8
330
47AE
100
AcDbEntity
  8
Defpoints
 62
     0
100
AcDbPoint
 10
435.8325424990687
 20
187.9391780821918
 30
0.0
  0
POINT
  5
47B9
330
47AE
100
AcDbEntity
  8
Defpoints
 62
     0
100
AcDbPoint
 10
435.8325424990687
 20
200.4391780821918
 30
0.0
  0
POINT
  5
47BA
330
47AE
100
AcDbEntity
  8
Defpoints
 62
     0
100
AcDbPoint
 10
474.8380331212802
 20
200.4391780821918
 30
0.0
  0
ENDBLK
  5
47B0
330
47AE
100
AcDbEntity
  8
0
100
AcDbBlockEnd
  0
BLOCK
  5
47BD
330
47BC
100
AcDbEntity
  8
0
100
AcDbBlockBegin
  2
*D20
 70
     1
 10
0.0
 20
0.0
 30
0.0
  3
*D20
  1

  0
LINE
  5
47BF
330
47BC
100
AcDbEntity
  8
モデル
 62
     0
370
    -2
100
AcDbLine
 10
454.3325424990687
 20
172.4391780821918
 30
0.0
 11
487.2682264907049
 21
172.4391780821918
 31
0.0
  0
LINE
  5
47C0
330
47BC
100
AcDbEntity
  8
モデル
 62
     0
370
    -2
100
AcDbLine
 10
450.326033419853
 20
187.7907888570357
 30
0.0
 11
487.2682264907049
 21
187.7907888570357
 31
0.0
  0
LINE
  5
47C1
330
47BC
100
AcDbEntity
  8
モデル
 62
     0
370
    -2
100
AcDbLine
 10
487.2682264907049
 20
170.4391780821918
 30
0.0
 11
487.2682264907049
 21
168.4391780821918
 31
0.0
  0
LINE
  5
47C2
330
47BC
100
AcDbEntity
  8
モデル
 62
     0
370
    -2
100
AcDbLine
 10
487.2682264907049
 20
189.7907888570357
 30
0.0
 11
487.2682264907049
 21
191.7907888570357
 31
0.0
  0
INSERT
  5
47C3
330
47BC
100
AcDbEntity
  8
モデル
 62
     0
370
    -2
100
AcDbBlockReference
  2
_DOT
 10
487.2682264907049
 20
172.4391780821918
 30
0.0
 41
2.0
 42
2.0
 43
2.0
 50
90.0
  0
INSERT
  5
47C4
330
47BC
100
AcDbEntity
  8
モデル
 62
     0
370
    -2
100
AcDbBlockReference
  2
_DOT
 10
487.2682264907049
 20
187.7907888570357
 30
0.0
 41
2.0
 42
2.0
 43
2.0
 50
270.0
  0
MTEXT
  5
47C5
330
47BC
100
AcDbEntity
  8
モデル
 62
     0
100
AcDbMText
 10
479.7682264907049
 20
180.1149834696138
 30
0.0
 40
5.0
 41
0.0
 46
0.0
 71
     5
 72
     1
  1
\A1;15.4
  7
ＭＳ ゴシック
 11
0.0
 21
1.0
 31
0.0
 73
     1
 44
1.0
  0
POINT
  5
47C6
330
47BC
100
AcDbEntity
  8
Defpoints
 62
     0
100
AcDbPoint
 10
449.3325424990687
 20
172.4391780821918
 30
0.0
  0
POINT
  5
47C7
330
47BC
100
AcDbEntity
  8
Defpoints
 62
     0
100
AcDbPoint
 10
445.326033419853
 20
187.7907888570357
 30
0.0
  0
POINT
  5
47C8
330
47BC
100
AcDbEntity
  8
Defpoints
 62
     0
100
AcDbPoint
 10
487.2682264907049
 20
187.7907888570357
 30
0.0
  0
ENDBLK
  5
47BE
330
47BC
100
AcDbEntity
  8
0
100
AcDbBlockEnd
  0
BLOCK
  5
47CD
330
47CC
100
AcDbEntity
  8
0
100
AcDbBlockBegin
  2
*D21
 70
     1
 10
0.0
 20
0.0
 30
0.0
  3
*D21
  1

  0
LINE
  5
47CF
330
47CC
100
AcDbEntity
  8
モデル
 62
     0
370
    -2
100
AcDbLine
 10
459.3325424990687
 20
187.9391780821918
 30
0.0
 11
487.2682264907049
 21
187.9391780821918
 31
0.0
  0
LINE
  5
47D0
330
47CC
100
AcDbEntity
  8
モデル
 62
     0
370
    -2
100
AcDbLine
 10
459.3325424990687
 20
200.4391780821918
 30
0.0
 11
487.2682264907049
 21
200.4391780821918
 31
0.0
  0
LINE
  5
47D1
330
47CC
100
AcDbEntity
  8
モデル
 62
     0
370
    -2
100
AcDbLine
 10
487.2682264907049
 20
185.9391780821918
 30
0.0
 11
487.2682264907049
 21
183.9391780821918
 31
0.0
  0
LINE
  5
47D2
330
47CC
100
AcDbEntity
  8
モデル
 62
     0
370
    -2
100
AcDbLine
 10
487.2682264907049
 20
202.4391780821918
 30
0.0
 11
487.2682264907049
 21
204.4391780821918
 31
0.0
  0
INSERT
  5
47D3
330
47CC
100
AcDbEntity
  8
モデル
 62
     0
370
    -2
100
AcDbBlockReference
  2
_DOT
 10
487.2682264907049
 20
187.9391780821918
 30
0.0
 41
2.0
 42
2.0
 43
2.0
 50
90.0
  0
INSERT
  5
47D4
330
47CC
100
AcDbEntity
  8
モデル
 62
     0
370
    -2
100
AcDbBlockReference
  2
_DOT
 10
487.2682264907049
 20
200.4391780821918
 30
0.0
 41
2.0
 42
2.0
 43
2.0
 50
270.0
  0
MTEXT
  5
47D5
330
47CC
100
AcDbEntity
  8
モデル
 62
     0
100
AcDbMText
 10
479.7682264907049
 20
194.1891780821918
 30
0.0
 40
5.0
 41
0.0
 46
0.0
 71
     5
 72
     1
  1
\A1;12.5
  7
ＭＳ ゴシック
 11
0.0
 21
1.0
 31
0.0
 73
     1
 44
1.0
  0
POINT
  5
47D6
330
47CC
100
AcDbEntity
  8
Defpoints
 62
     0
100
AcDbPoint
 10
454.3325424990687
 20
187.9391780821918
 30
0.0
  0
POINT
  5
47D7
330
47CC
100
AcDbEntity
  8
Defpoints
 62
     0
100
AcDbPoint
 10
454.3325424990687
 20
200.4391780821918
 30
0.0
  0
POINT
  5
47D8
330
47CC
100
AcDbEntity
  8
Defpoints
 62
     0
100
AcDbPoint
 10
487.2682264907049
 20
200.4391780821918
 30
0.0
  0
ENDBLK
  5
47CE
330
47CC
100
AcDbEntity
  8
0
100
AcDbBlockEnd
  0
BLOCK
  5
47DF
330
47DE
100
AcDbEntity
  8
0
100
AcDbBlockBegin
  2
*D22
 70
     1
 10
0.0
 20
0.0
 30
0.0
  3
*D22
  1

  0
LINE
  5
47E1
330
47DE
100
AcDbEntity
  8
モデル
 62
     0
370
    -2
100
AcDbLine
 10
134.4893372387947
 20
172.7678136986303
 30
0.0
 11
148.5144856418842
 21
172.7678136986303
 31
0.0
  0
LINE
  5
47E2
330
47DE
100
AcDbEntity
  8
モデル
 62
     0
370
    -2
100
AcDbLine
 10
134.4893372387947
 20
187.7678136986303
 30
0.0
 11
148.5144856418842
 21
187.7678136986303
 31
0.0
  0
LINE
  5
47E3
330
47DE
100
AcDbEntity
  8
モデル
 62
     0
370
    -2
100
AcDbLine
 10
148.5144856418842
 20
174.7678136986303
 30
0.0
 11
148.5144856418842
 21
185.7678136986303
 31
0.0
  0
INSERT
  5
47E4
330
47DE
100
AcDbEntity
  8
モデル
 62
     0
370
    -2
100
AcDbBlockReference
  2
_DOT
 10
148.5144856418842
 20
172.7678136986303
 30
0.0
 41
2.0
 42
2.0
 43
2.0
 50
270.0
  0
INSERT
  5
47E5
330
47DE
100
AcDbEntity
  8
モデル
 62
     0
370
    -2
100
AcDbBlockReference
  2
_DOT
 10
148.5144856418842
 20
187.7678136986303
 30
0.0
 41
2.0
 42
2.0
 43
2.0
 50
90.0
  0
MTEXT
  5
47E6
330
47DE
100
AcDbEntity
  8
モデル
 62
     0
100
AcDbMText
 10
141.0144856418842
 20
180.2678136986303
 30
0.0
 40
5.0
 41
0.0
 46
0.0
 71
     5
 72
     1
  1
\A1;15
  7
ＭＳ ゴシック
 11
0.0
 21
1.0
 31
0.0
 73
     1
 44
1.0
  0
POINT
  5
47E7
330
47DE
100
AcDbEntity
  8
Defpoints
 62
     0
100
AcDbPoint
 10
129.4893372387947
 20
172.7678136986303
 30
0.0
  0
POINT
  5
47E8
330
47DE
100
AcDbEntity
  8
Defpoints
 62
     0
100
AcDbPoint
 10
129.4893372387947
 20
187.7678136986303
 30
0.0
  0
POINT
  5
47E9
330
47DE
100
AcDbEntity
  8
Defpoints
 62
     0
100
AcDbPoint
 10
148.5144856418842
 20
187.7678136986303
 30
0.0
  0
ENDBLK
  5
47E0
330
47DE
100
AcDbEntity
  8
0
100
AcDbBlockEnd
  0
BLOCK
  5
47EF
330
47EE
100
AcDbEntity
  8
0
100
AcDbBlockBegin
  2
*D23
 70
     1
 10
0.0
 20
0.0
 30
0.0
  3
*D23
  1

  0
LINE
  5
47F1
330
47EE
100
AcDbEntity
  8
モデル
 62
     0
370
    -2
100
AcDbLine
 10
134.4893372387947
 20
187.7678136986303
 30
0.0
 11
148.5144856418842
 21
187.7678136986303
 31
0.0
  0
LINE
  5
47F2
330
47EE
100
AcDbEntity
  8
モデル
 62
     0
370
    -2
100
AcDbLine
 10
134.4893372387947
 20
199.7678136986303
 30
0.0
 11
148.5144856418842
 21
199.7678136986303
 31
0.0
  0
LINE
  5
47F3
330
47EE
100
AcDbEntity
  8
モデル
 62
     0
370
    -2
100
AcDbLine
 10
148.5144856418842
 20
189.7678136986303
 30
0.0
 11
148.5144856418842
 21
197.7678136986303
 31
0.0
  0
INSERT
  5
47F4
330
47EE
100
AcDbEntity
  8
モデル
 62
     0
370
    -2
100
AcDbBlockReference
  2
_DOT
 10
148.5144856418842
 20
187.7678136986303
 30
0.0
 41
2.0
 42
2.0
 43
2.0
 50
270.0
  0
INSERT
  5
47F5
330
47EE
100
AcDbEntity
  8
モデル
 62
     0
370
    -2
100
AcDbBlockReference
  2
_DOT
 10
148.5144856418842
 20
199.7678136986303
 30
0.0
 41
2.0
 42
2.0
 43
2.0
 50
90.0
  0
MTEXT
  5
47F6
330
47EE
100
AcDbEntity
  8
モデル
 62
     0
100
AcDbMText
 10
141.0144856418842
 20
193.7678136986303
 30
0.0
 40
5.0
 41
0.0
 46
0.0
 71
     5
 72
     1
  1
\A1;12
  7
ＭＳ ゴシック
 11
0.0
 21
1.0
 31
0.0
 73
     1
 44
1.0
  0
POINT
  5
47F7
330
47EE
100
AcDbEntity
  8
Defpoints
 62
     0
100
AcDbPoint
 10
129.4893372387947
 20
187.7678136986303
 30
0.0
  0
POINT
  5
47F8
330
47EE
100
AcDbEntity
  8
Defpoints
 62
     0
100
AcDbPoint
 10
129.4893372387947
 20
199.7678136986303
 30
0.0
  0
POINT
  5
47F9
330
47EE
100
AcDbEntity
  8
Defpoints
 62
     0
100
AcDbPoint
 10
148.5144856418842
 20
199.7678136986303
 30
0.0
  0
ENDBLK
  5
47F0
330
47EE
100
AcDbEntity
  8
0
100
AcDbBlockEnd
  0
BLOCK
  5
481C
330
481B
100
AcDbEntity
  8
0
100
AcDbBlockBegin
  2
*D24
 70
     1
 10
0.0
 20
0.0
 30
0.0
  3
*D24
  1

  0
LINE
  5
481E
330
481B
100
AcDbEntity
  8
モデル
 62
     0
370
    -2
100
AcDbLine
 10
103.2393372387947
 20
293.9754558630769
 30
0.0
 11
103.2393372387947
 21
302.436370712392
 31
0.0
  0
LINE
  5
481F
330
481B
100
AcDbEntity
  8
モデル
 62
     0
370
    -2
100
AcDbLine
 10
128.7393372387947
 20
293.9754558630769
 30
0.0
 11
128.7393372387947
 21
302.436370712392
 31
0.0
  0
LINE
  5
4820
330
481B
100
AcDbEntity
  8
モデル
 62
     0
370
    -2
100
AcDbLine
 10
105.2393372387947
 20
302.436370712392
 30
0.0
 11
126.7393372387947
 21
302.436370712392
 31
0.0
  0
INSERT
  5
4821
330
481B
100
AcDbEntity
  8
モデル
 62
     0
370
    -2
100
AcDbBlockReference
  2
_DOT
 10
103.2393372387947
 20
302.436370712392
 30
0.0
 41
2.0
 42
2.0
 43
2.0
 50
180.0
  0
INSERT
  5
4822
330
481B
100
AcDbEntity
  8
モデル
 62
     0
370
    -2
100
AcDbBlockReference
  2
_DOT
 10
128.7393372387947
 20
302.436370712392
 30
0.0
 41
2.0
 42
2.0
 43
2.0
  0
MTEXT
  5
4823
330
481B
100
AcDbEntity
  8
モデル
 62
     0
100
AcDbMText
 10
115.9893372387947
 20
309.936370712392
 30
0.0
 40
5.0
 41
0.0
 46
0.0
 71
     5
 72
     1
  1
\A1;25.5
  7
ＭＳ ゴシック
 73
     1
 44
1.0
  0
POINT
  5
4824
330
481B
100
AcDbEntity
  8
Defpoints
 62
     0
100
AcDbPoint
 10
103.2393372387947
 20
288.9754558630769
 30
0.0
  0
POINT
  5
4825
330
481B
100
AcDbEntity
  8
Defpoints
 62
     0
100
AcDbPoint
 10
128.7393372387947
 20
288.9754558630769
 30
0.0
  0
POINT
  5
4826
330
481B
100
AcDbEntity
  8
Defpoints
 62
     0
100
AcDbPoint
 10
128.7393372387947
 20
302.436370712392
 30
0.0
  0
ENDBLK
  5
481D
330
481B
100
AcDbEntity
  8
0
100
AcDbBlockEnd
  0
BLOCK
  5
482B
330
482A
100
AcDbEntity
  8
0
100
AcDbBlockBegin
  2
*D25
 70
     1
 10
0.0
 20
0.0
 30
0.0
  3
*D25
  1

  0
LINE
  5
482D
330
482A
100
AcDbEntity
  8
モデル
 62
     0
370
    -2
100
AcDbLine
 10
97.48933723879466
 20
265.7194940382334
 30
0.0
 11
88.11228393247058
 21
265.7194940382334
 31
0.0
  0
LINE
  5
482E
330
482A
100
AcDbEntity
  8
モデル
 62
     0
370
    -2
100
AcDbLine
 10
97.48933723879466
 20
267.7194940382334
 30
0.0
 11
88.11228393247058
 21
267.7194940382334
 31
0.0
  0
LINE
  5
482F
330
482A
100
AcDbEntity
  8
モデル
 62
     0
370
    -2
100
AcDbLine
 10
88.11228393247058
 20
267.7194940382334
 30
0.0
 11
88.11228393247058
 21
265.7194940382334
 31
0.0
  0
INSERT
  5
4830
330
482A
100
AcDbEntity
  8
モデル
 62
     0
370
    -2
100
AcDbBlockReference
  2
_DOT
 10
88.11228393247058
 20
265.7194940382334
 30
0.0
 41
2.0
 42
2.0
 43
2.0
 50
270.0
  0
INSERT
  5
4831
330
482A
100
AcDbEntity
  8
モデル
 62
     0
370
    -2
100
AcDbBlockReference
  2
_DOT
 10
88.11228393247058
 20
267.7194940382334
 30
0.0
 41
2.0
 42
2.0
 43
2.0
 50
90.0
  0
MTEXT
  5
4832
330
482A
100
AcDbEntity
  8
モデル
 62
     0
100
AcDbMText
 10
80.61228393247058
 20
266.7194940382334
 30
0.0
 40
5.0
 41
0.0
 46
0.0
 71
     5
 72
     1
  1
\A1;2
  7
ＭＳ ゴシック
 11
0.0
 21
1.0
 31
0.0
 73
     1
 44
1.0
  0
POINT
  5
4833
330
482A
100
AcDbEntity
  8
Defpoints
 62
     0
100
AcDbPoint
 10
102.4893372387947
 20
265.7194940382334
 30
0.0
  0
POINT
  5
4834
330
482A
100
AcDbEntity
  8
Defpoints
 62
     0
100
AcDbPoint
 10
102.4893372387947
 20
267.7194940382334
 30
0.0
  0
POINT
  5
4835
330
482A
100
AcDbEntity
  8
Defpoints
 62
     0
100
AcDbPoint
 10
88.11228393247058
 20
267.7194940382334
 30
0.0
  0
ENDBLK
  5
482C
330
482A
100
AcDbEntity
  8
0
100
AcDbBlockEnd
  0
BLOCK
  5
483C
330
483B
100
AcDbEntity
  8
0
100
AcDbBlockBegin
  2
*D26
 70
     1
 10
0.0
 20
0.0
 30
0.0
  3
*D26
  1

  0
LINE
  5
483E
330
483B
100
AcDbEntity
  8
モデル
 62
     0
370
    -2
100
AcDbLine
 10
97.48933723879466
 20
267.7194940382334
 30
0.0
 11
88.11228393247058
 21
267.7194940382334
 31
0.0
  0
LINE
  5
483F
330
483B
100
AcDbEntity
  8
モデル
 62
     0
370
    -2
100
AcDbLine
 10
99.89804474956637
 20
288.7194940382333
 30
0.0
 11
88.11228393247058
 21
288.7194940382333
 31
0.0
  0
LINE
  5
4840
330
483B
100
AcDbEntity
  8
モデル
 62
     0
370
    -2
100
AcDbLine
 10
88.11228393247058
 20
269.7194940382334
 30
0.0
 11
88.11228393247058
 21
286.7194940382333
 31
0.0
  0
INSERT
  5
4841
330
483B
100
AcDbEntity
  8
モデル
 62
     0
370
    -2
100
AcDbBlockReference
  2
_DOT
 10
88.11228393247058
 20
267.7194940382334
 30
0.0
 41
2.0
 42
2.0
 43
2.0
 50
270.0
  0
INSERT
  5
4842
330
483B
100
AcDbEntity
  8
モデル
 62
     0
370
    -2
100
AcDbBlockReference
  2
_DOT
 10
88.11228393247058
 20
288.7194940382333
 30
0.0
 41
2.0
 42
2.0
 43
2.0
 50
90.0
  0
MTEXT
  5
4843
330
483B
100
AcDbEntity
  8
モデル
 62
     0
100
AcDbMText
 10
80.61228393247058
 20
278.2194940382333
 30
0.0
 40
5.0
 41
0.0
 46
0.0
 71
     5
 72
     1
  1
\A1;21
  7
ＭＳ ゴシック
 11
0.0
 21
1.0
 31
0.0
 73
     1
 44
1.0
  0
POINT
  5
4844
330
483B
100
AcDbEntity
  8
Defpoints
 62
     0
100
AcDbPoint
 10
102.4893372387947
 20
267.7194940382334
 30
0.0
  0
POINT
  5
4845
330
483B
100
AcDbEntity
  8
Defpoints
 62
     0
100
AcDbPoint
 10
104.8980447495664
 20
288.7194940382333
 30
0.0
  0
POINT
  5
4846
330
483B
100
AcDbEntity
  8
Defpoints
 62
     0
100
AcDbPoint
 10
88.11228393247058
 20
288.7194940382333
 30
0.0
  0
ENDBLK
  5
483D
330
483B
100
AcDbEntity
  8
0
100
AcDbBlockEnd
  0
BLOCK
  5
484B
330
484A
100
AcDbEntity
  8
0
100
AcDbBlockBegin
  2
*D27
 70
     1
 10
0.0
 20
0.0
 30
0.0
  3
*D27
  1

  0
LINE
  5
484D
330
484A
100
AcDbEntity
  8
モデル
 62
     0
370
    -2
100
AcDbLine
 10
134.4893372387947
 20
265.7194940382334
 30
0.0
 11
148.5144856418842
 21
265.7194940382334
 31
0.0
  0
LINE
  5
484E
330
484A
100
AcDbEntity
  8
モデル
 62
     0
370
    -2
100
AcDbLine
 10
132.7393372387947
 20
288.7194940382333
 30
0.0
 11
148.5144856418842
 21
288.7194940382333
 31
0.0
  0
LINE
  5
484F
330
484A
100
AcDbEntity
  8
モデル
 62
     0
370
    -2
100
AcDbLine
 10
148.5144856418842
 20
267.7194940382334
 30
0.0
 11
148.5144856418842
 21
286.7194940382333
 31
0.0
  0
INSERT
  5
4850
330
484A
100
AcDbEntity
  8
モデル
 62
     0
370
    -2
100
AcDbBlockReference
  2
_DOT
 10
148.5144856418842
 20
265.7194940382334
 30
0.0
 41
2.0
 42
2.0
 43
2.0
 50
270.0
  0
INSERT
  5
4851
330
484A
100
AcDbEntity
  8
モデル
 62
     0
370
    -2
100
AcDbBlockReference
  2
_DOT
 10
148.5144856418842
 20
288.7194940382333
 30
0.0
 41
2.0
 42
2.0
 43
2.0
 50
90.0
  0
MTEXT
  5
4852
330
484A
100
AcDbEntity
  8
モデル
 62
     0
100
AcDbMText
 10
141.0144856418842
 20
277.2194940382333
 30
0.0
 40
5.0
 41
0.0
 46
0.0
 71
     5
 72
     1
  1
\A1;23
  7
ＭＳ ゴシック
 11
0.0
 21
1.0
 31
0.0
 73
     1
 44
1.0
  0
POINT
  5
4853
330
484A
100
AcDbEntity
  8
Defpoints
 62
     0
100
AcDbPoint
 10
129.4893372387947
 20
265.7194940382334
 30
0.0
  0
POINT
  5
4854
330
484A
100
AcDbEntity
  8
Defpoints
 62
     0
100
AcDbPoint
 10
127.7393372387947
 20
288.7194940382333
 30
0.0
  0
POINT
  5
4855
330
484A
100
AcDbEntity
  8
Defpoints
 62
     0
100
AcDbPoint
 10
148.5144856418842
 20
288.7194940382333
 30
0.0
  0
ENDBLK
  5
484C
330
484A
100
AcDbEntity
  8
0
100
AcDbBlockEnd
  0
BLOCK
  5
485E
330
485D
100
AcDbEntity
  8
0
100
AcDbBlockBegin
  2
*D28
 70
     1
 10
0.0
 20
0.0
 30
0.0
  3
*D28
  1

  0
LINE
  5
4860
330
485D
100
AcDbEntity
  8
モデル
 62
     0
370
    -2
100
AcDbLine
 10
106.4893372387948
 20
192.7678136986303
 30
0.0
 11
106.4893372387948
 21
209.2581874363812
 31
0.0
  0
LINE
  5
4861
330
485D
100
AcDbEntity
  8
モデル
 62
     0
370
    -2
100
AcDbLine
 10
125.4893372387947
 20
192.7678136986303
 30
0.0
 11
125.4893372387947
 21
209.2581874363812
 31
0.0
  0
LINE
  5
4862
330
485D
100
AcDbEntity
  8
モデル
 62
     0
370
    -2
100
AcDbLine
 10
108.4893372387948
 20
209.2581874363812
 30
0.0
 11
123.4893372387947
 21
209.2581874363812
 31
0.0
  0
INSERT
  5
4863
330
485D
100
AcDbEntity
  8
モデル
 62
     0
370
    -2
100
AcDbBlockReference
  2
_DOT
 10
106.4893372387948
 20
209.2581874363812
 30
0.0
 41
2.0
 42
2.0
 43
2.0
 50
180.0
  0
INSERT
  5
4864
330
485D
100
AcDbEntity
  8
モデル
 62
     0
370
    -2
100
AcDbBlockReference
  2
_DOT
 10
125.4893372387947
 20
209.2581874363812
 30
0.0
 41
2.0
 42
2.0
 43
2.0
  0
MTEXT
  5
4865
330
485D
100
AcDbEntity
  8
モデル
 62
     0
100
AcDbMText
 10
115.9893372387948
 20
216.7581874363812
 30
0.0
 40
5.0
 41
0.0
 46
0.0
 71
     5
 72
     1
  1
\A1;19
  7
ＭＳ ゴシック
 73
     1
 44
1.0
  0
POINT
  5
4866
330
485D
100
AcDbEntity
  8
Defpoints
 62
     0
100
AcDbPoint
 10
106.4893372387948
 20
187.7678136986303
 30
0.0
  0
POINT
  5
4867
330
485D
100
AcDbEntity
  8
Defpoints
 62
     0
100
AcDbPoint
 10
125.4893372387947
 20
187.7678136986303
 30
0.0
  0
POINT
  5
4868
330
485D
100
AcDbEntity
  8
Defpoints
 62
     0
100
AcDbPoint
 10
125.4893372387947
 20
209.2581874363812
 30
0.0
  0
ENDBLK
  5
485F
330
485D
100
AcDbEntity
  8
0
100
AcDbBlockEnd
  0
BLOCK
  5
4870
330
486F
100
AcDbEntity
  8
0
100
AcDbBlockBegin
  2
*D29
 70
     1
 10
0.0
 20
0.0
 30
0.0
  3
*D29
  1

  0
LINE
  5
4872
330
486F
100
AcDbEntity
  8
モデル
 62
     0
370
    -2
100
AcDbLine
 10
97.48933723879477
 20
199.7678136986303
 30
0.0
 11
88.11228393247058
 21
199.7678136986303
 31
0.0
  0
LINE
  5
4873
330
486F
100
AcDbEntity
  8
モデル
 62
     0
370
    -2
100
AcDbLine
 10
97.48933723879477
 20
172.7678136986303
 30
0.0
 11
88.11228393247058
 21
172.7678136986303
 31
0.0
  0
LINE
  5
4874
330
486F
100
AcDbEntity
  8
モデル
 62
     0
370
    -2
100
AcDbLine
 10
88.11228393247058
 20
197.7678136986303
 30
0.0
 11
88.11228393247058
 21
174.7678136986303
 31
0.0
  0
INSERT
  5
4875
330
486F
100
AcDbEntity
  8
モデル
 62
     0
370
    -2
100
AcDbBlockReference
  2
_DOT
 10
88.11228393247058
 20
199.7678136986303
 30
0.0
 41
2.0
 42
2.0
 43
2.0
 50
90.0
  0
INSERT
  5
4876
330
486F
100
AcDbEntity
  8
モデル
 62
     0
370
    -2
100
AcDbBlockReference
  2
_DOT
 10
88.11228393247058
 20
172.7678136986303
 30
0.0
 41
2.0
 42
2.0
 43
2.0
 50
270.0
  0
MTEXT
  5
4877
330
486F
100
AcDbEntity
  8
モデル
 62
     0
100
AcDbMText
 10
80.61228393247058
 20
186.2678136986303
 30
0.0
 40
5.0
 41
0.0
 46
0.0
 71
     5
 72
     1
  1
\A1;27
  7
ＭＳ ゴシック
 11
0.0
 21
1.0
 31
0.0
 73
     1
 44
1.0
  0
POINT
  5
4878
330
486F
100
AcDbEntity
  8
Defpoints
 62
     0
100
AcDbPoint
 10
102.4893372387948
 20
199.7678136986303
 30
0.0
  0
POINT
  5
4879
330
486F
100
AcDbEntity
  8
Defpoints
 62
     0
100
AcDbPoint
 10
102.4893372387948
 20
172.7678136986303
 30
0.0
  0
POINT
  5
487A
330
486F
100
AcDbEntity
  8
Defpoints
 62
     0
100
AcDbPoint
 10
88.11228393247058
 20
172.7678136986303
 30
0.0
  0
ENDBLK
  5
4871
330
486F
100
AcDbEntity
  8
0
100
AcDbBlockEnd
  0
BLOCK
  5
4883
330
4882
100
AcDbEntity
  8
0
100
AcDbBlockBegin
  2
*D30
 70
     1
 10
0.0
 20
0.0
 30
0.0
  3
*D30
  1

  0
LINE
  5
4885
330
4882
100
AcDbEntity
  8
モデル
 62
     0
370
    -2
100
AcDbLine
 10
102.4893372387948
 20
167.7678136986303
 30
0.0
 11
102.4893372387948
 21
155.4590056401179
 31
0.0
  0
LINE
  5
4886
330
4882
100
AcDbEntity
  8
モデル
 62
     0
370
    -2
100
AcDbLine
 10
129.4893372387947
 20
167.7678136986303
 30
0.0
 11
129.4893372387947
 21
155.4590056401179
 31
0.0
  0
LINE
  5
4887
330
4882
100
AcDbEntity
  8
モデル
 62
     0
370
    -2
100
AcDbLine
 10
104.4893372387948
 20
155.4590056401179
 30
0.0
 11
127.4893372387947
 21
155.4590056401179
 31
0.0
  0
INSERT
  5
4888
330
4882
100
AcDbEntity
  8
モデル
 62
     0
370
    -2
100
AcDbBlockReference
  2
_DOT
 10
102.4893372387948
 20
155.4590056401179
 30
0.0
 41
2.0
 42
2.0
 43
2.0
 50
180.0
  0
INSERT
  5
4889
330
4882
100
AcDbEntity
  8
モデル
 62
     0
370
    -2
100
AcDbBlockReference
  2
_DOT
 10
129.4893372387947
 20
155.4590056401179
 30
0.0
 41
2.0
 42
2.0
 43
2.0
  0
MTEXT
  5
488A
330
4882
100
AcDbEntity
  8
モデル
 62
     0
100
AcDbMText
 10
115.9893372387948
 20
162.9590056401179
 30
0.0
 40
5.0
 41
0.0
 46
0.0
 71
     5
 72
     1
  1
\A1;27
  7
ＭＳ ゴシック
 73
     1
 44
1.0
  0
POINT
  5
488B
330
4882
100
AcDbEntity
  8
Defpoints
 62
     0
100
AcDbPoint
 10
102.4893372387948
 20
172.7678136986303
 30
0.0
  0
POINT
  5
488C
330
4882
100
AcDbEntity
  8
Defpoints
 62
     0
100
AcDbPoint
 10
129.4893372387947
 20
172.7678136986303
 30
0.0
  0
POINT
  5
488D
330
4882
100
AcDbEntity
  8
Defpoints
 62
     0
100
AcDbPoint
 10
129.4893372387947
 20
155.4590056401179
 30
0.0
  0
ENDBLK
  5
4884
330
4882
100
AcDbEntity
  8
0
100
AcDbBlockEnd
  0
BLOCK
  5
48FA
330
48F9
100
AcDbEntity
  8
0
100
AcDbBlockBegin
  2
*D31
 70
     1
 10
0.0
 20
0.0
 30
0.0
  3
*D31
  1

  0
LINE
  5
48FC
330
48F9
100
AcDbEntity
  8
モデル
 62
     0
370
    -2
100
AcDbLine
 10
429.2392919144789
 20
147.2463675505017
 30
0.0
 11
429.2392919144789
 21
92.92300043318986
 31
0.0
  0
LINE
  5
48FD
330
48F9
100
AcDbEntity
  8
モデル
 62
     0
370
    -2
100
AcDbLine
 10
470.2392919117555
 20
147.2486075388463
 30
0.0
 11
470.2392919117555
 21
92.92300043318986
 31
0.0
  0
LINE
  5
48FE
330
48F9
100
AcDbEntity
  8
モデル
 62
     0
370
    -2
100
AcDbLine
 10
431.2392919144789
 20
92.92300043318986
 30
0.0
 11
468.2392919117555
 21
92.92300043318986
 31
0.0
  0
INSERT
  5
48FF
330
48F9
100
AcDbEntity
  8
モデル
 62
     0
370
    -2
100
AcDbBlockReference
  2
_DOT
 10
429.2392919144789
 20
92.92300043318986
 30
0.0
 41
2.0
 42
2.0
 43
2.0
 50
180.0
  0
INSERT
  5
4900
330
48F9
100
AcDbEntity
  8
モデル
 62
     0
370
    -2
100
AcDbBlockReference
  2
_DOT
 10
470.2392919117555
 20
92.92300043318986
 30
0.0
 41
2.0
 42
2.0
 43
2.0
  0
MTEXT
  5
4901
330
48F9
100
AcDbEntity
  8
モデル
 62
     0
100
AcDbMText
 10
450.4062491894576
 20
100.4230004331899
 30
0.0
 40
5.0
 41
0.0
 46
0.0
 71
     5
 72
     1
  1
\A1;41
  7
ＭＳ ゴシック
 73
     1
 44
1.0
  0
POINT
  5
4902
330
48F9
100
AcDbEntity
  8
Defpoints
 62
     0
100
AcDbPoint
 10
429.2392919144789
 20
152.2463675505017
 30
0.0
  0
POINT
  5
4903
330
48F9
100
AcDbEntity
  8
Defpoints
 62
     0
100
AcDbPoint
 10
470.2392919117555
 20
152.2486075388463
 30
0.0
  0
POINT
  5
4904
330
48F9
100
AcDbEntity
  8
Defpoints
 62
     0
100
AcDbPoint
 10
470.2392919117555
 20
92.92300043318986
 30
0.0
  0
ENDBLK
  5
48FB
330
48F9
100
AcDbEntity
  8
0
100
AcDbBlockEnd
  0
BLOCK
  5
4913
330
4912
100
AcDbEntity
  8
0
100
AcDbBlockBegin
  2
*D32
 70
     1
 10
0.0
 20
0.0
 30
0.0
  3
*D32
  1

  0
LINE
  5
4915
330
4912
100
AcDbEntity
  8
モデル
 62
     0
370
    -2
100
AcDbLine
 10
254.7064190240966
 20
267.3285837945505
 30
0.0
 11
254.7064190240966
 21
308.9009094417534
 31
0.0
  0
LINE
  5
4916
330
4912
100
AcDbEntity
  8
モデル
 62
     0
370
    -2
100
AcDbLine
 10
276.259485108074
 20
267.3285837945505
 30
0.0
 11
276.259485108074
 21
308.9009094417534
 31
0.0
  0
LINE
  5
4917
330
4912
100
AcDbEntity
  8
モデル
 62
     0
370
    -2
100
AcDbLine
 10
256.7064190240966
 20
308.9009094417534
 30
0.0
 11
274.259485108074
 21
308.9009094417534
 31
0.0
  0
INSERT
  5
4918
330
4912
100
AcDbEntity
  8
モデル
 62
     0
370
    -2
100
AcDbBlockReference
  2
_DOT
 10
254.7064190240966
 20
308.9009094417534
 30
0.0
 41
2.0
 42
2.0
 43
2.0
 50
180.0
  0
INSERT
  5
4919
330
4912
100
AcDbEntity
  8
モデル
 62
     0
370
    -2
100
AcDbBlockReference
  2
_DOT
 10
276.259485108074
 20
308.9009094417534
 30
0.0
 41
2.0
 42
2.0
 43
2.0
  0
MTEXT
  5
491A
330
4912
100
AcDbEntity
  8
モデル
 62
     0
100
AcDbMText
 10
265.4829520660853
 20
316.4009094417534
 30
0.0
 40
5.0
 41
0.0
 46
0.0
 71
     5
 72
     1
  1
\A1;22
  7
ＭＳ ゴシック
 73
     1
 44
1.0
  0
POINT
  5
491B
330
4912
100
AcDbEntity
  8
Defpoints
 62
     0
100
AcDbPoint
 10
254.7064190240966
 20
262.3285837945505
 30
0.0
  0
POINT
  5
491C
330
4912
100
AcDbEntity
  8
Defpoints
 62
     0
100
AcDbPoint
 10
276.259485108074
 20
262.3285837945505
 30
0.0
  0
POINT
  5
491D
330
4912
100
AcDbEntity
  8
Defpoints
 62
     0
100
AcDbPoint
 10
276.259485108074
 20
308.9009094417534
 30
0.0
  0
ENDBLK
  5
4914
330
4912
100
AcDbEntity
  8
0
100
AcDbBlockEnd
  0
BLOCK
  5
4929
330
4928
100
AcDbEntity
  8
0
100
AcDbBlockBegin
  2
*D33
 70
     1
 10
0.0
 20
0.0
 30
0.0
  3
*D33
  1

  0
LINE
  5
492B
330
4928
100
AcDbEntity
  8
モデル
 62
     0
370
    -2
100
AcDbLine
 10
251.7461726586453
 20
326.6707505376438
 30
0.0
 11
251.7461726586453
 21
331.8115067020274
 31
0.0
  0
LINE
  5
492C
330
4928
100
AcDbEntity
  8
モデル
 62
     0
370
    -2
100
AcDbLine
 10
279.2158963915913
 20
326.6707505376438
 30
0.0
 11
279.2158963915913
 21
331.8115067020274
 31
0.0
  0
LINE
  5
492D
330
4928
100
AcDbEntity
  8
モデル
 62
     0
370
    -2
100
AcDbLine
 10
253.7461726586453
 20
331.8115067020274
 30
0.0
 11
277.2158963915913
 21
331.8115067020274
 31
0.0
  0
INSERT
  5
492E
330
4928
100
AcDbEntity
  8
モデル
 62
     0
370
    -2
100
AcDbBlockReference
  2
_DOT
 10
251.7461726586453
 20
331.8115067020274
 30
0.0
 41
2.0
 42
2.0
 43
2.0
 50
180.0
  0
INSERT
  5
492F
330
4928
100
AcDbEntity
  8
モデル
 62
     0
370
    -2
100
AcDbBlockReference
  2
_DOT
 10
279.2158963915913
 20
331.8115067020274
 30
0.0
 41
2.0
 42
2.0
 43
2.0
  0
MTEXT
  5
4930
330
4928
100
AcDbEntity
  8
モデル
 62
     0
100
AcDbMText
 10
265.4810345251183
 20
339.3115067020274
 30
0.0
 40
5.0
 41
0.0
 46
0.0
 71
     5
 72
     1
  1
\A1;27
  7
ＭＳ ゴシック
 73
     1
 44
1.0
  0
POINT
  5
4931
330
4928
100
AcDbEntity
  8
Defpoints
 62
     0
100
AcDbPoint
 10
251.7461726586453
 20
321.6707505376438
 30
0.0
  0
POINT
  5
4932
330
4928
100
AcDbEntity
  8
Defpoints
 62
     0
100
AcDbPoint
 10
279.2158963915913
 20
321.6707505376438
 30
0.0
  0
POINT
  5
4933
330
4928
100
AcDbEntity
  8
Defpoints
 62
     0
100
AcDbPoint
 10
279.2158963915913
 20
331.8115067020274
 30
0.0
  0
ENDBLK
  5
492A
330
4928
100
AcDbEntity
  8
0
100
AcDbBlockEnd
  0
BLOCK
  5
493D
330
493C
100
AcDbEntity
  8
0
100
AcDbBlockBegin
  2
*D34
 70
     1
 10
0.0
 20
0.0
 30
0.0
  3
*D34
  1

  0
LINE
  5
493F
330
493C
100
AcDbEntity
  8
モデル
 62
     0
370
    -2
100
AcDbLine
 10
244.9810345251183
 20
349.0235894241775
 30
0.0
 11
244.9810345251183
 21
374.4639496609314
 31
0.0
  0
LINE
  5
4940
330
493C
100
AcDbEntity
  8
モデル
 62
     0
370
    -2
100
AcDbLine
 10
285.9810345251183
 20
349.0235894241775
 30
0.0
 11
285.9810345251183
 21
374.4639496609314
 31
0.0
  0
LINE
  5
4941
330
493C
100
AcDbEntity
  8
モデル
 62
     0
370
    -2
100
AcDbLine
 10
246.9810345251183
 20
374.4639496609314
 30
0.0
 11
283.9810345251183
 21
374.4639496609314
 31
0.0
  0
INSERT
  5
4942
330
493C
100
AcDbEntity
  8
モデル
 62
     0
370
    -2
100
AcDbBlockReference
  2
_DOT
 10
244.9810345251183
 20
374.4639496609314
 30
0.0
 41
2.0
 42
2.0
 43
2.0
 50
180.0
  0
INSERT
  5
4943
330
493C
100
AcDbEntity
  8
モデル
 62
     0
370
    -2
100
AcDbBlockReference
  2
_DOT
 10
285.9810345251183
 20
374.4639496609314
 30
0.0
 41
2.0
 42
2.0
 43
2.0
  0
MTEXT
  5
4944
330
493C
100
AcDbEntity
  8
モデル
 62
     0
100
AcDbMText
 10
265.4810345251183
 20
381.9639496609314
 30
0.0
 40
5.0
 41
0.0
 46
0.0
 71
     5
 72
     1
  1
\A1;41
  7
ＭＳ ゴシック
 73
     1
 44
1.0
  0
POINT
  5
4945
330
493C
100
AcDbEntity
  8
Defpoints
 62
     0
100
AcDbPoint
 10
244.9810345251183
 20
344.0235894241775
 30
0.0
  0
POINT
  5
4946
330
493C
100
AcDbEntity
  8
Defpoints
 62
     0
100
AcDbPoint
 10
285.9810345251183
 20
344.0235894241775
 30
0.0
  0
POINT
  5
4947
330
493C
100
AcDbEntity
  8
Defpoints
 62
     0
100
AcDbPoint
 10
285.9810345251183
 20
374.4639496609314
 30
0.0
  0
ENDBLK
  5
493E
330
493C
100
AcDbEntity
  8
0
100
AcDbBlockEnd
  0
BLOCK
  5
494C
330
494B
100
AcDbEntity
  8
0
100
AcDbBlockBegin
  2
*D35
 70
     1
 10
0.0
 20
0.0
 30
0.0
  3
*D35
  1

  0
LINE
  5
494E
330
494B
100
AcDbEntity
  8
モデル
 62
     0
370
    -2
100
AcDbLine
 10
239.9810345251183
 20
341.4834426413703
 30
0.0
 11
229.3961213352324
 21
341.4834426413703
 31
0.0
  0
LINE
  5
494F
330
494B
100
AcDbEntity
  8
モデル
 62
     0
370
    -2
100
AcDbLine
 10
239.9810345251183
 20
344.0235894241775
 30
0.0
 11
229.3961213352324
 21
344.0235894241775
 31
0.0
  0
LINE
  5
4950
330
494B
100
AcDbEntity
  8
モデル
 62
     0
370
    -2
100
AcDbLine
 10
229.3961213352324
 20
339.4834426413703
 30
0.0
 11
229.3961213352324
 21
337.4834426413703
 31
0.0
  0
LINE
  5
4951
330
494B
100
AcDbEntity
  8
モデル
 62
     0
370
    -2
100
AcDbLine
 10
229.3961213352324
 20
346.0235894241775
 30
0.0
 11
229.3961213352324
 21
348.0235894241775
 31
0.0
  0
INSERT
  5
4952
330
494B
100
AcDbEntity
  8
モデル
 62
     0
370
    -2
100
AcDbBlockReference
  2
_DOT
 10
229.3961213352324
 20
341.4834426413703
 30
0.0
 41
2.0
 42
2.0
 43
2.0
 50
90.0
  0
INSERT
  5
4953
330
494B
100
AcDbEntity
  8
モデル
 62
     0
370
    -2
100
AcDbBlockReference
  2
_DOT
 10
229.3961213352324
 20
344.0235894241775
 30
0.0
 41
2.0
 42
2.0
 43
2.0
 50
270.0
  0
MTEXT
  5
4954
330
494B
100
AcDbEntity
  8
モデル
 62
     0
100
AcDbMText
 10
221.8961213352324
 20
342.7535160327739
 30
0.0
 40
5.0
 41
0.0
 46
0.0
 71
     5
 72
     1
  1
\A1;3
  7
ＭＳ ゴシック
 11
0.0
 21
1.0
 31
0.0
 73
     1
 44
1.0
  0
POINT
  5
4955
330
494B
100
AcDbEntity
  8
Defpoints
 62
     0
100
AcDbPoint
 10
244.9810345251183
 20
341.4834426413703
 30
0.0
  0
POINT
  5
4956
330
494B
100
AcDbEntity
  8
Defpoints
 62
     0
100
AcDbPoint
 10
244.9810345251183
 20
344.0235894241775
 30
0.0
  0
POINT
  5
4957
330
494B
100
AcDbEntity
  8
Defpoints
 62
     0
100
AcDbPoint
 10
229.3961213352324
 20
344.0235894241775
 30
0.0
  0
ENDBLK
  5
494D
330
494B
100
AcDbEntity
  8
0
100
AcDbBlockEnd
  0
BLOCK
  5
495D
330
495C
100
AcDbEntity
  8
0
100
AcDbBlockBegin
  2
*D36
 70
     1
 10
0.0
 20
0.0
 30
0.0
  3
*D36
  1

  0
LINE
  5
495F
330
495C
100
AcDbEntity
  8
モデル
 62
     0
370
    -2
100
AcDbLine
 10
356.3151029227257
 20
286.9775462692098
 30
0.0
 11
356.3151029227257
 21
301.6688932218739
 31
0.0
  0
LINE
  5
4960
330
495C
100
AcDbEntity
  8
モデル
 62
     0
370
    -2
100
AcDbLine
 10
367.7252302188664
 20
286.9775462692098
 30
0.0
 11
367.7252302188664
 21
301.6688932218739
 31
0.0
  0
LINE
  5
4961
330
495C
100
AcDbEntity
  8
モデル
 62
     0
370
    -2
100
AcDbLine
 10
354.3151029227257
 20
301.6688932218739
 30
0.0
 11
352.3151029227257
 21
301.6688932218739
 31
0.0
  0
LINE
  5
4962
330
495C
100
AcDbEntity
  8
モデル
 62
     0
370
    -2
100
AcDbLine
 10
369.7252302188664
 20
301.6688932218739
 30
0.0
 11
371.7252302188664
 21
301.6688932218739
 31
0.0
  0
INSERT
  5
4963
330
495C
100
AcDbEntity
  8
モデル
 62
     0
370
    -2
100
AcDbBlockReference
  2
_DOT
 10
356.3151029227257
 20
301.6688932218739
 30
0.0
 41
2.0
 42
2.0
 43
2.0
  0
INSERT
  5
4964
330
495C
100
AcDbEntity
  8
モデル
 62
     0
370
    -2
100
AcDbBlockReference
  2
_DOT
 10
367.7252302188664
 20
301.6688932218739
 30
0.0
 41
2.0
 42
2.0
 43
2.0
 50
180.0
  0
MTEXT
  5
4965
330
495C
100
AcDbEntity
  8
モデル
 62
     0
100
AcDbMText
 10
362.0201665707961
 20
309.1688932218739
 30
0.0
 40
5.0
 41
0.0
 46
0.0
 71
     5
 72
     1
  1
\A1;11
  7
ＭＳ ゴシック
 73
     1
 44
1.0
  0
POINT
  5
4966
330
495C
100
AcDbEntity
  8
Defpoints
 62
     0
100
AcDbPoint
 10
356.3151029227257
 20
281.9775462692098
 30
0.0
  0
POINT
  5
4967
330
495C
100
AcDbEntity
  8
Defpoints
 62
     0
100
AcDbPoint
 10
367.7252302188664
 20
281.9775462692098
 30
0.0
  0
POINT
  5
4968
330
495C
100
AcDbEntity
  8
Defpoints
 62
     0
100
AcDbPoint
 10
367.7252302188664
 20
301.6688932218739
 30
0.0
  0
ENDBLK
  5
495E
330
495C
100
AcDbEntity
  8
0
100
AcDbBlockEnd
  0
BLOCK
  5
4970
330
496F
100
AcDbEntity
  8
0
100
AcDbBlockBegin
  2
*D37
 70
     1
 10
0.0
 20
0.0
 30
0.0
  3
*D37
  1

  0
LINE
  5
4972
330
496F
100
AcDbEntity
  8
モデル
 62
     0
370
    -2
100
AcDbLine
 10
246.9810345251183
 20
343.4834426413703
 30
0.0
 11
232.1379654659503
 21
343.4834426413703
 31
0.0
  0
LINE
  5
4973
330
496F
100
AcDbEntity
  8
モデル
 62
     0
370
    -2
100
AcDbLine
 10
246.9810345251183
 20
355.435956708663
 30
0.0
 11
232.1379654659503
 21
355.435956708663
 31
0.0
  0
LINE
  5
4974
330
496F
100
AcDbEntity
  8
モデル
 62
     0
370
    -2
100
AcDbLine
 10
232.1379654659503
 20
341.4834426413703
 30
0.0
 11
232.1379654659503
 21
339.4834426413703
 31
0.0
  0
LINE
  5
4975
330
496F
100
AcDbEntity
  8
モデル
 62
     0
370
    -2
100
AcDbLine
 10
232.1379654659503
 20
357.435956708663
 30
0.0
 11
232.1379654659503
 21
359.435956708663
 31
0.0
  0
INSERT
  5
4976
330
496F
100
AcDbEntity
  8
モデル
 62
     0
370
    -2
100
AcDbBlockReference
  2
_DOT
 10
232.1379654659503
 20
343.4834426413703
 30
0.0
 41
2.0
 42
2.0
 43
2.0
 50
90.0
  0
INSERT
  5
4977
330
496F
100
AcDbEntity
  8
モデル
 62
     0
370
    -2
100
AcDbBlockReference
  2
_DOT
 10
232.1379654659503
 20
355.435956708663
 30
0.0
 41
2.0
 42
2.0
 43
2.0
 50
270.0
  0
MTEXT
  5
4978
330
496F
100
AcDbEntity
  8
モデル
 62
     0
100
AcDbMText
 10
224.6379654659503
 20
349.4596996750166
 30
0.0
 40
5.0
 41
0.0
 46
0.0
 71
     5
 72
     1
  1
\A1;12
  7
ＭＳ ゴシック
 11
0.0
 21
1.0
 31
0.0
 73
     1
 44
1.0
  0
POINT
  5
4979
330
496F
100
AcDbEntity
  8
Defpoints
 62
     0
100
AcDbPoint
 10
251.9810345251183
 20
343.4834426413703
 30
0.0
  0
POINT
  5
497A
330
496F
100
AcDbEntity
  8
Defpoints
 62
     0
100
AcDbPoint
 10
251.9810345251183
 20
355.435956708663
 30
0.0
  0
POINT
  5
497B
330
496F
100
AcDbEntity
  8
Defpoints
 62
     0
100
AcDbPoint
 10
232.1379654659503
 20
355.435956708663
 30
0.0
  0
ENDBLK
  5
4971
330
496F
100
AcDbEntity
  8
0
100
AcDbBlockEnd
  0
BLOCK
  5
4988
330
4987
100
AcDbEntity
  8
0
100
AcDbBlockBegin
  2
*D38
 70
     1
 10
0.0
 20
0.0
 30
0.0
  3
*D38
  1

  0
LINE
  5
498A
330
4987
100
AcDbEntity
  8
モデル
 62
     0
370
    -2
100
AcDbLine
 10
251.9810345251183
 20
360.4834426413703
 30
0.0
 11
251.9810345251183
 21
370.48300708214
 31
0.0
  0
LINE
  5
498B
330
4987
100
AcDbEntity
  8
モデル
 62
     0
370
    -2
100
AcDbLine
 10
278.9810345251183
 20
360.4834426413703
 30
0.0
 11
278.9810345251183
 21
370.48300708214
 31
0.0
  0
LINE
  5
498C
330
4987
100
AcDbEntity
  8
モデル
 62
     0
370
    -2
100
AcDbLine
 10
253.9810345251183
 20
370.48300708214
 30
0.0
 11
276.9810345251183
 21
370.48300708214
 31
0.0
  0
INSERT
  5
498D
330
4987
100
AcDbEntity
  8
モデル
 62
     0
370
    -2
100
AcDbBlockReference
  2
_DOT
 10
251.9810345251183
 20
370.48300708214
 30
0.0
 41
2.0
 42
2.0
 43
2.0
 50
180.0
  0
INSERT
  5
498E
330
4987
100
AcDbEntity
  8
モデル
 62
     0
370
    -2
100
AcDbBlockReference
  2
_DOT
 10
278.9810345251183
 20
370.48300708214
 30
0.0
 41
2.0
 42
2.0
 43
2.0
  0
MTEXT
  5
498F
330
4987
100
AcDbEntity
  8
モデル
 62
     0
100
AcDbMText
 10
265.4810345251183
 20
377.98300708214
 30
0.0
 40
5.0
 41
0.0
 46
0.0
 71
     5
 72
     1
  1
\A1;27
  7
ＭＳ ゴシック
 73
     1
 44
1.0
  0
POINT
  5
4990
330
4987
100
AcDbEntity
  8
Defpoints
 62
     0
100
AcDbPoint
 10
251.9810345251183
 20
355.4834426413703
 30
0.0
  0
POINT
  5
4991
330
4987
100
AcDbEntity
  8
Defpoints
 62
     0
100
AcDbPoint
 10
278.9810345251183
 20
355.4834426413703
 30
0.0
  0
POINT
  5
4992
330
4987
100
AcDbEntity
  8
Defpoints
 62
     0
100
AcDbPoint
 10
278.9810345251183
 20
370.48300708214
 30
0.0
  0
ENDBLK
  5
4989
330
4987
100
AcDbEntity
  8
0
100
AcDbBlockEnd
  0
BLOCK
  5
4997
330
4996
100
AcDbEntity
  8
0
100
AcDbBlockBegin
  2
*D39
 70
     1
 10
0.0
 20
0.0
 30
0.0
  3
*D39
  1

  0
LINE
  5
4999
330
4996
100
AcDbEntity
  8
モデル
 62
     0
370
    -2
100
AcDbLine
 10
194.7936372648443
 20
341.4834426413703
 30
0.0
 11
188.1922597496707
 21
341.4834426413703
 31
0.0
  0
LINE
  5
499A
330
4996
100
AcDbEntity
  8
モデル
 62
     0
370
    -2
100
AcDbLine
 10
194.7936372648443
 20
343.4834426413703
 30
0.0
 11
188.1922597496707
 21
343.4834426413703
 31
0.0
  0
LINE
  5
499B
330
4996
100
AcDbEntity
  8
モデル
 62
     0
370
    -2
100
AcDbLine
 10
188.1922597496707
 20
343.4834426413703
 30
0.0
 11
188.1922597496707
 21
341.4834426413703
 31
0.0
  0
INSERT
  5
499C
330
4996
100
AcDbEntity
  8
モデル
 62
     0
370
    -2
100
AcDbBlockReference
  2
_DOT
 10
188.1922597496707
 20
341.4834426413703
 30
0.0
 41
2.0
 42
2.0
 43
2.0
 50
270.0
  0
INSERT
  5
499D
330
4996
100
AcDbEntity
  8
モデル
 62
     0
370
    -2
100
AcDbBlockReference
  2
_DOT
 10
188.1922597496707
 20
343.4834426413703
 30
0.0
 41
2.0
 42
2.0
 43
2.0
 50
90.0
  0
MTEXT
  5
499E
330
4996
100
AcDbEntity
  8
モデル
 62
     0
100
AcDbMText
 10
180.6922597496707
 20
342.4834426413703
 30
0.0
 40
5.0
 41
0.0
 46
0.0
 71
     5
 72
     1
  1
\A1;2
  7
ＭＳ ゴシック
 11
0.0
 21
1.0
 31
0.0
 73
     1
 44
1.0
  0
POINT
  5
499F
330
4996
100
AcDbEntity
  8
Defpoints
 62
     0
100
AcDbPoint
 10
199.7936372648443
 20
341.4834426413703
 30
0.0
  0
POINT
  5
49A0
330
4996
100
AcDbEntity
  8
Defpoints
 62
     0
100
AcDbPoint
 10
199.7936372648443
 20
343.4834426413703
 30
0.0
  0
POINT
  5
49A1
330
4996
100
AcDbEntity
  8
Defpoints
 62
     0
100
AcDbPoint
 10
188.1922597496707
 20
343.4834426413703
 30
0.0
  0
ENDBLK
  5
4998
330
4996
100
AcDbEntity
  8
0
100
AcDbBlockEnd
  0
BLOCK
  5
49A7
330
49A6
100
AcDbEntity
  8
0
100
AcDbBlockBegin
  2
*D40
 70
     1
 10
0.0
 20
0.0
 30
0.0
  3
*D40
  1

  0
LINE
  5
49A9
330
49A6
100
AcDbEntity
  8
モデル
 62
     0
370
    -2
100
AcDbLine
 10
194.7936372648443
 20
343.4834426413703
 30
0.0
 11
188.1922597496707
 21
343.4834426413703
 31
0.0
  0
LINE
  5
49AA
330
49A6
100
AcDbEntity
  8
モデル
 62
     0
370
    -2
100
AcDbLine
 10
201.7936372648443
 20
355.4834426413703
 30
0.0
 11
188.1922597496707
 21
355.4834426413703
 31
0.0
  0
LINE
  5
49AB
330
49A6
100
AcDbEntity
  8
モデル
 62
     0
370
    -2
100
AcDbLine
 10
188.1922597496707
 20
345.4834426413703
 30
0.0
 11
188.1922597496707
 21
353.4834426413703
 31
0.0
  0
INSERT
  5
49AC
330
49A6
100
AcDbEntity
  8
モデル
 62
     0
370
    -2
100
AcDbBlockReference
  2
_DOT
 10
188.1922597496707
 20
343.4834426413703
 30
0.0
 41
2.0
 42
2.0
 43
2.0
 50
270.0
  0
INSERT
  5
49AD
330
49A6
100
AcDbEntity
  8
モデル
 62
     0
370
    -2
100
AcDbBlockReference
  2
_DOT
 10
188.1922597496707
 20
355.4834426413703
 30
0.0
 41
2.0
 42
2.0
 43
2.0
 50
90.0
  0
MTEXT
  5
49AE
330
49A6
100
AcDbEntity
  8
モデル
 62
     0
100
AcDbMText
 10
180.6922597496707
 20
349.4834426413703
 30
0.0
 40
5.0
 41
0.0
 46
0.0
 71
     5
 72
     1
  1
\A1;12
  7
ＭＳ ゴシック
 11
0.0
 21
1.0
 31
0.0
 73
     1
 44
1.0
  0
POINT
  5
49AF
330
49A6
100
AcDbEntity
  8
Defpoints
 62
     0
100
AcDbPoint
 10
199.7936372648443
 20
343.4834426413703
 30
0.0
  0
POINT
  5
49B0
330
49A6
100
AcDbEntity
  8
Defpoints
 62
     0
100
AcDbPoint
 10
206.7936372648443
 20
355.4834426413703
 30
0.0
  0
POINT
  5
49B1
330
49A6
100
AcDbEntity
  8
Defpoints
 62
     0
100
AcDbPoint
 10
188.1922597496707
 20
355.4834426413703
 30
0.0
  0
ENDBLK
  5
49A8
330
49A6
100
AcDbEntity
  8
0
100
AcDbBlockEnd
  0
BLOCK
  5
49BB
330
49BA
100
AcDbEntity
  8
0
100
AcDbBlockBegin
  2
*D41
 70
     1
 10
0.0
 20
0.0
 30
0.0
  3
*D41
  1

  0
LINE
  5
49BD
330
49BA
100
AcDbEntity
  8
モデル
 62
     0
370
    -2
100
AcDbLine
 10
245.7936372648443
 20
341.4834426413703
 30
0.0
 11
260.4309361802381
 21
341.4834426413703
 31
0.0
  0
LINE
  5
49BE
330
49BA
100
AcDbEntity
  8
モデル
 62
     0
370
    -2
100
AcDbLine
 10
238.7936372648443
 20
355.4834426413703
 30
0.0
 11
260.4309361802381
 21
355.4834426413703
 31
0.0
  0
LINE
  5
49BF
330
49BA
100
AcDbEntity
  8
モデル
 62
     0
370
    -2
100
AcDbLine
 10
260.4309361802381
 20
343.4834426413703
 30
0.0
 11
260.4309361802381
 21
353.4834426413703
 31
0.0
  0
INSERT
  5
49C0
330
49BA
100
AcDbEntity
  8
モデル
 62
     0
370
    -2
100
AcDbBlockReference
  2
_DOT
 10
260.4309361802381
 20
341.4834426413703
 30
0.0
 41
2.0
 42
2.0
 43
2.0
 50
270.0
  0
INSERT
  5
49C1
330
49BA
100
AcDbEntity
  8
モデル
 62
     0
370
    -2
100
AcDbBlockReference
  2
_DOT
 10
260.4309361802381
 20
355.4834426413703
 30
0.0
 41
2.0
 42
2.0
 43
2.0
 50
90.0
  0
MTEXT
  5
49C2
330
49BA
100
AcDbEntity
  8
モデル
 62
     0
100
AcDbMText
 10
252.9309361802381
 20
348.4834426413703
 30
0.0
 40
5.0
 41
0.0
 46
0.0
 71
     5
 72
     1
  1
\A1;14
  7
ＭＳ ゴシック
 11
0.0
 21
1.0
 31
0.0
 73
     1
 44
1.0
  0
POINT
  5
49C3
330
49BA
100
AcDbEntity
  8
Defpoints
 62
     0
100
AcDbPoint
 10
240.7936372648443
 20
341.4834426413703
 30
0.0
  0
POINT
  5
49C4
330
49BA
100
AcDbEntity
  8
Defpoints
 62
     0
100
AcDbPoint
 10
233.7936372648443
 20
355.4834426413703
 30
0.0
  0
POINT
  5
49C5
330
49BA
100
AcDbEntity
  8
Defpoints
 62
     0
100
AcDbPoint
 10
260.4309361802381
 20
355.4834426413703
 30
0.0
  0
ENDBLK
  5
49BC
330
49BA
100
AcDbEntity
  8
0
100
AcDbBlockEnd
  0
BLOCK
  5
49D1
330
49D0
100
AcDbEntity
  8
0
100
AcDbBlockBegin
  2
*D42
 70
     1
 10
0.0
 20
0.0
 30
0.0
  3
*D42
  1

  0
LINE
  5
49D3
330
49D0
100
AcDbEntity
  8
モデル
 62
     0
370
    -2
100
AcDbLine
 10
199.9185192141916
 20
249.5644152412774
 30
0.0
 11
199.9185192141916
 21
279.7339815214239
 31
0.0
  0
LINE
  5
49D4
330
49D0
100
AcDbEntity
  8
モデル
 62
     0
370
    -2
100
AcDbLine
 10
240.7857973042764
 20
247.7173902376039
 30
0.0
 11
240.7857973042764
 21
279.7339815214239
 31
0.0
  0
LINE
  5
49D5
330
49D0
100
AcDbEntity
  8
モデル
 62
     0
370
    -2
100
AcDbLine
 10
201.9185192141916
 20
279.7339815214239
 30
0.0
 11
238.7857973042764
 21
279.7339815214239
 31
0.0
  0
INSERT
  5
49D6
330
49D0
100
AcDbEntity
  8
モデル
 62
     0
370
    -2
100
AcDbBlockReference
  2
_DOT
 10
199.9185192141916
 20
279.7339815214239
 30
0.0
 41
2.0
 42
2.0
 43
2.0
 50
180.0
  0
INSERT
  5
49D7
330
49D0
100
AcDbEntity
  8
モデル
 62
     0
370
    -2
100
AcDbBlockReference
  2
_DOT
 10
240.7857973042764
 20
279.7339815214239
 30
0.0
 41
2.0
 42
2.0
 43
2.0
  0
MTEXT
  5
49D8
330
49D0
100
AcDbEntity
  8
モデル
 62
     0
100
AcDbMText
 10
220.352158259234
 20
287.2339815214239
 30
0.0
 40
5.0
 41
0.0
 46
0.0
 71
     5
 72
     1
  1
\A1;41
  7
ＭＳ ゴシック
 73
     1
 44
1.0
  0
POINT
  5
49D9
330
49D0
100
AcDbEntity
  8
Defpoints
 62
     0
100
AcDbPoint
 10
199.9185192141916
 20
244.5644152412774
 30
0.0
  0
POINT
  5
49DA
330
49D0
100
AcDbEntity
  8
Defpoints
 62
     0
100
AcDbPoint
 10
240.7857973042764
 20
242.7173902376039
 30
0.0
  0
POINT
  5
49DB
330
49D0
100
AcDbEntity
  8
Defpoints
 62
     0
100
AcDbPoint
 10
240.7857973042764
 20
279.7339815214239
 30
0.0
  0
ENDBLK
  5
49D2
330
49D0
100
AcDbEntity
  8
0
100
AcDbBlockEnd
  0
BLOCK
  5
49E0
330
49DF
100
AcDbEntity
  8
0
100
AcDbBlockBegin
  2
*D43
 70
     1
 10
0.0
 20
0.0
 30
0.0
  3
*D43
  1

  0
LINE
  5
49E2
330
49DF
100
AcDbEntity
  8
モデル
 62
     0
370
    -2
100
AcDbLine
 10
209.5196666585777
 20
235.6682169010062
 30
0.0
 11
209.5196666585777
 21
265.0111059049855
 31
0.0
  0
LINE
  5
49E3
330
49DF
100
AcDbEntity
  8
モデル
 62
     0
370
    -2
100
AcDbLine
 10
231.0720878478
 20
235.1160597740555
 30
0.0
 11
231.0720878478
 21
265.0111059049855
 31
0.0
  0
LINE
  5
49E4
330
49DF
100
AcDbEntity
  8
モデル
 62
     0
370
    -2
100
AcDbLine
 10
211.5196666585777
 20
265.0111059049855
 30
0.0
 11
229.0720878478
 21
265.0111059049855
 31
0.0
  0
INSERT
  5
49E5
330
49DF
100
AcDbEntity
  8
モデル
 62
     0
370
    -2
100
AcDbBlockReference
  2
_DOT
 10
209.5196666585777
 20
265.0111059049855
 30
0.0
 41
2.0
 42
2.0
 43
2.0
 50
180.0
  0
INSERT
  5
49E6
330
49DF
100
AcDbEntity
  8
モデル
 62
     0
370
    -2
100
AcDbBlockReference
  2
_DOT
 10
231.0720878478
 20
265.0111059049855
 30
0.0
 41
2.0
 42
2.0
 43
2.0
  0
MTEXT
  5
49E7
330
49DF
100
AcDbEntity
  8
モデル
 62
     0
100
AcDbMText
 10
220.2958772531889
 20
272.5111059049855
 30
0.0
 40
5.0
 41
0.0
 46
0.0
 71
     5
 72
     1
  1
\A1;22
  7
ＭＳ ゴシック
 73
     1
 44
1.0
  0
POINT
  5
49E8
330
49DF
100
AcDbEntity
  8
Defpoints
 62
     0
100
AcDbPoint
 10
209.5196666585777
 20
230.6682169010062
 30
0.0
  0
POINT
  5
49E9
330
49DF
100
AcDbEntity
  8
Defpoints
 62
     0
100
AcDbPoint
 10
231.0720878478
 20
230.1160597740555
 30
0.0
  0
POINT
  5
49EA
330
49DF
100
AcDbEntity
  8
Defpoints
 62
     0
100
AcDbPoint
 10
231.0720878478
 20
265.0111059049855
 30
0.0
  0
ENDBLK
  5
49E1
330
49DF
100
AcDbEntity
  8
0
100
AcDbBlockEnd
  0
BLOCK
  5
49F2
330
49F1
100
AcDbEntity
  8
0
100
AcDbBlockBegin
  2
*D44
 70
     1
 10
0.0
 20
0.0
 30
0.0
  3
*D44
  1

  0
LINE
  5
49F4
330
49F1
100
AcDbEntity
  8
モデル
 62
     0
370
    -2
100
AcDbLine
 10
270.4810345251183
 20
194.4865881791936
 30
0.0
 11
304.1640738898272
 21
194.4865881791936
 31
0.0
  0
LINE
  5
49F5
330
49F1
100
AcDbEntity
  8
モデル
 62
     0
370
    -2
100
AcDbLine
 10
270.4780478739921
 20
279.0211349856926
 30
0.0
 11
304.1640738898272
 21
279.0211349856926
 31
0.0
  0
LINE
  5
49F6
330
49F1
100
AcDbEntity
  8
モデル
 62
     0
370
    -2
100
AcDbLine
 10
304.1640738898272
 20
196.4865881791936
 30
0.0
 11
304.1640738898272
 21
277.0211349856926
 31
0.0
  0
INSERT
  5
49F7
330
49F1
100
AcDbEntity
  8
モデル
 62
     0
370
    -2
100
AcDbBlockReference
  2
_DOT
 10
304.1640738898272
 20
194.4865881791936
 30
0.0
 41
2.0
 42
2.0
 43
2.0
 50
270.0
  0
INSERT
  5
49F8
330
49F1
100
AcDbEntity
  8
モデル
 62
     0
370
    -2
100
AcDbBlockReference
  2
_DOT
 10
304.1640738898272
 20
279.0211349856926
 30
0.0
 41
2.0
 42
2.0
 43
2.0
 50
90.0
  0
MTEXT
  5
49F9
330
49F1
100
AcDbEntity
  8
モデル
 62
     0
100
AcDbMText
 10
296.6640738898272
 20
236.7538615824431
 30
0.0
 40
5.0
 41
0.0
 46
0.0
 71
     5
 72
     1
  1
\A1;85
  7
ＭＳ ゴシック
 11
0.0
 21
1.0
 31
0.0
 73
     1
 44
1.0
  0
POINT
  5
49FA
330
49F1
100
AcDbEntity
  8
Defpoints
 62
     0
100
AcDbPoint
 10
265.4810345251183
 20
194.4865881791936
 30
0.0
  0
POINT
  5
49FB
330
49F1
100
AcDbEntity
  8
Defpoints
 62
     0
100
AcDbPoint
 10
265.4780478739921
 20
279.0211349856926
 30
0.0
  0
POINT
  5
49FC
330
49F1
100
AcDbEntity
  8
Defpoints
 62
     0
100
AcDbPoint
 10
304.1640738898272
 20
279.0211349856926
 30
0.0
  0
ENDBLK
  5
49F3
330
49F1
100
AcDbEntity
  8
0
100
AcDbBlockEnd
  0
BLOCK
  5
4A02
330
4A01
100
AcDbEntity
  8
0
100
AcDbBlockBegin
  2
*D45
 70
     1
 10
0.0
 20
0.0
 30
0.0
  3
*D45
  1

  0
LINE
  5
4A04
330
4A01
100
AcDbEntity
  8
モデル
 62
     0
370
    -2
100
AcDbLine
 10
225.2906506137181
 20
241.1106692322679
 30
0.0
 11
256.5729418350329
 21
241.1106692322679
 31
0.0
  0
LINE
  5
4A05
330
4A01
100
AcDbEntity
  8
モデル
 62
     0
370
    -2
100
AcDbLine
 10
225.2936372648443
 20
156.5761224257689
 30
0.0
 11
256.5729418350329
 21
156.5761224257689
 31
0.0
  0
LINE
  5
4A06
330
4A01
100
AcDbEntity
  8
モデル
 62
     0
370
    -2
100
AcDbLine
 10
256.5729418350329
 20
239.1106692322679
 30
0.0
 11
256.5729418350329
 21
158.5761224257689
 31
0.0
  0
INSERT
  5
4A07
330
4A01
100
AcDbEntity
  8
モデル
 62
     0
370
    -2
100
AcDbBlockReference
  2
_DOT
 10
256.5729418350329
 20
241.1106692322679
 30
0.0
 41
2.0
 42
2.0
 43
2.0
 50
90.0
  0
INSERT
  5
4A08
330
4A01
100
AcDbEntity
  8
モデル
 62
     0
370
    -2
100
AcDbBlockReference
  2
_DOT
 10
256.5729418350329
 20
156.5761224257689
 30
0.0
 41
2.0
 42
2.0
 43
2.0
 50
270.0
  0
MTEXT
  5
4A09
330
4A01
100
AcDbEntity
  8
モデル
 62
     0
100
AcDbMText
 10
249.0729418350329
 20
198.8433958290184
 30
0.0
 40
5.0
 41
0.0
 46
0.0
 71
     5
 72
     1
  1
\A1;85
  7
ＭＳ ゴシック
 11
0.0
 21
1.0
 31
0.0
 73
     1
 44
1.0
  0
POINT
  5
4A0A
330
4A01
100
AcDbEntity
  8
Defpoints
 62
     0
100
AcDbPoint
 10
220.2906506137181
 20
241.1106692322679
 30
0.0
  0
POINT
  5
4A0B
330
4A01
100
AcDbEntity
  8
Defpoints
 62
     0
100
AcDbPoint
 10
220.2936372648443
 20
156.5761224257689
 30
0.0
  0
POINT
  5
4A0C
330
4A01
100
AcDbEntity
  8
Defpoints
 62
     0
100
AcDbPoint
 10
256.5729418350329
 20
156.5761224257689
 30
0.0
  0
ENDBLK
  5
4A03
330
4A01
100
AcDbEntity
  8
0
100
AcDbBlockEnd
  0
BLOCK
  5
4A14
330
4A13
100
AcDbEntity
  8
0
100
AcDbBlockBegin
  2
*D46
 70
     1
 10
0.0
 20
0.0
 30
0.0
  3
*D46
  1

  0
LINE
  5
4A16
330
4A13
100
AcDbEntity
  8
モデル
 62
     0
370
    -2
100
AcDbLine
 10
225.2906506137181
 20
138.8227214690344
 30
0.0
 11
271.2958174514712
 21
138.8227214690344
 31
0.0
  0
LINE
  5
4A17
330
4A13
100
AcDbEntity
  8
モデル
 62
     0
370
    -2
100
AcDbLine
 10
225.2936372648443
 20
258.8554835670146
 30
0.0
 11
271.2958174514712
 21
258.8554835670146
 31
0.0
  0
LINE
  5
4A18
330
4A13
100
AcDbEntity
  8
モデル
 62
     0
370
    -2
100
AcDbLine
 10
271.2958174514712
 20
140.8227214690344
 30
0.0
 11
271.2958174514712
 21
256.8554835670146
 31
0.0
  0
INSERT
  5
4A19
330
4A13
100
AcDbEntity
  8
モデル
 62
     0
370
    -2
100
AcDbBlockReference
  2
_DOT
 10
271.2958174514712
 20
138.8227214690344
 30
0.0
 41
2.0
 42
2.0
 43
2.0
 50
270.0
  0
INSERT
  5
4A1A
330
4A13
100
AcDbEntity
  8
モデル
 62
     0
370
    -2
100
AcDbBlockReference
  2
_DOT
 10
271.2958174514712
 20
258.8554835670146
 30
0.0
 41
2.0
 42
2.0
 43
2.0
 50
90.0
  0
MTEXT
  5
4A1B
330
4A13
100
AcDbEntity
  8
モデル
 62
     0
100
AcDbMText
 10
263.7958174514712
 20
198.8391025180245
 30
0.0
 40
5.0
 41
0.0
 46
0.0
 71
     5
 72
     1
  1
\A1;120
  7
ＭＳ ゴシック
 11
0.0
 21
1.0
 31
0.0
 73
     1
 44
1.0
  0
POINT
  5
4A1C
330
4A13
100
AcDbEntity
  8
Defpoints
 62
     0
100
AcDbPoint
 10
220.2906506137181
 20
138.8227214690344
 30
0.0
  0
POINT
  5
4A1D
330
4A13
100
AcDbEntity
  8
Defpoints
 62
     0
100
AcDbPoint
 10
220.2936372648443
 20
258.8554835670146
 30
0.0
  0
POINT
  5
4A1E
330
4A13
100
AcDbEntity
  8
Defpoints
 62
     0
100
AcDbPoint
 10
271.2958174514712
 20
258.8554835670146
 30
0.0
  0
ENDBLK
  5
4A15
330
4A13
100
AcDbEntity
  8
0
100
AcDbBlockEnd
  0
BLOCK
  5
4A41
330
4A40
100
AcDbEntity
  8
0
100
AcDbBlockBegin
  2
*D47
 70
     1
 10
0.0
 20
0.0
 30
0.0
  3
*D47
  1

  0
LINE
  5
4A43
330
4A40
100
AcDbEntity
  8
モデル
 62
     0
370
    -2
100
AcDbLine
 10
240.7936372648443
 20
348.4834426413703
 30
0.0
 11
240.7936372648443
 21
346.1542992657535
 31
0.0
  0
LINE
  5
4A44
330
4A40
100
AcDbEntity
  8
モデル
 62
     0
370
    -2
100
AcDbLine
 10
233.7936372648443
 20
348.4834426413703
 30
0.0
 11
233.7936372648443
 21
346.1542992657535
 31
0.0
  0
LINE
  5
4A45
330
4A40
100
AcDbEntity
  8
モデル
 62
     0
370
    -2
100
AcDbLine
 10
242.7936372648443
 20
346.1542992657535
 30
0.0
 11
244.7936372648443
 21
346.1542992657535
 31
0.0
  0
LINE
  5
4A46
330
4A40
100
AcDbEntity
  8
モデル
 62
     0
370
    -2
100
AcDbLine
 10
231.7936372648443
 20
346.1542992657535
 30
0.0
 11
229.7936372648443
 21
346.1542992657535
 31
0.0
  0
INSERT
  5
4A47
330
4A40
100
AcDbEntity
  8
モデル
 62
     0
370
    -2
100
AcDbBlockReference
  2
_DOT
 10
240.7936372648443
 20
346.1542992657535
 30
0.0
 41
2.0
 42
2.0
 43
2.0
 50
180.0
  0
INSERT
  5
4A48
330
4A40
100
AcDbEntity
  8
モデル
 62
     0
370
    -2
100
AcDbBlockReference
  2
_DOT
 10
233.7936372648443
 20
346.1542992657535
 30
0.0
 41
2.0
 42
2.0
 43
2.0
  0
MTEXT
  5
4A49
330
4A40
100
AcDbEntity
  8
モデル
 62
     0
100
AcDbMText
 10
237.2936372648443
 20
353.6542992657535
 30
0.0
 40
5.0
 41
0.0
 46
0.0
 71
     5
 72
     1
  1
\A1;7
  7
ＭＳ ゴシック
 73
     1
 44
1.0
  0
POINT
  5
4A4A
330
4A40
100
AcDbEntity
  8
Defpoints
 62
     0
100
AcDbPoint
 10
240.7936372648443
 20
343.4834426413703
 30
0.0
  0
POINT
  5
4A4B
330
4A40
100
AcDbEntity
  8
Defpoints
 62
     0
100
AcDbPoint
 10
233.7936372648443
 20
343.4834426413703
 30
0.0
  0
POINT
  5
4A4C
330
4A40
100
AcDbEntity
  8
Defpoints
 62
     0
100
AcDbPoint
 10
233.7936372648443
 20
346.1542992657535
 30
0.0
  0
ENDBLK
  5
4A42
330
4A40
100
AcDbEntity
  8
0
100
AcDbBlockEnd
  0
BLOCK
  5
4A7E
330
4A7D
100
AcDbEntity
  8
0
100
AcDbBlockBegin
  2
*D48
 70
     1
 10
0.0
 20
0.0
 30
0.0
  3
*D48
  1

  0
LINE
  5
4A80
330
4A7D
100
AcDbEntity
  8
モデル
 62
     0
370
    -2
100
AcDbLine
 10
245.1897590671777
 20
164.7557589188383
 30
0.0
 11
259.3687580896435
 21
164.7557589188383
 31
0.0
  0
LINE
  5
4A81
330
4A7D
100
AcDbEntity
  8
モデル
 62
     0
370
    -2
100
AcDbLine
 10
245.1897590671777
 20
192.7557589188383
 30
0.0
 11
259.3687580896435
 21
192.7557589188383
 31
0.0
  0
LINE
  5
4A82
330
4A7D
100
AcDbEntity
  8
モデル
 62
     0
370
    -2
100
AcDbLine
 10
259.3687580896435
 20
166.7557589188383
 30
0.0
 11
259.3687580896435
 21
190.7557589188383
 31
0.0
  0
INSERT
  5
4A83
330
4A7D
100
AcDbEntity
  8
モデル
 62
     0
370
    -2
100
AcDbBlockReference
  2
_DOT
 10
259.3687580896435
 20
164.7557589188383
 30
0.0
 41
2.0
 42
2.0
 43
2.0
 50
270.0
  0
INSERT
  5
4A84
330
4A7D
100
AcDbEntity
  8
モデル
 62
     0
370
    -2
100
AcDbBlockReference
  2
_DOT
 10
259.3687580896435
 20
192.7557589188383
 30
0.0
 41
2.0
 42
2.0
 43
2.0
 50
90.0
  0
MTEXT
  5
4A85
330
4A7D
100
AcDbEntity
  8
モデル
 62
     0
100
AcDbMText
 10
251.8687580896435
 20
178.7557589188383
 30
0.0
 40
5.0
 41
0.0
 46
0.0
 71
     5
 72
     1
  1
\A1;28
  7
ＭＳ ゴシック
 11
0.0
 21
1.0
 31
0.0
 73
     1
 44
1.0
  0
POINT
  5
4A86
330
4A7D
100
AcDbEntity
  8
Defpoints
 62
     0
100
AcDbPoint
 10
240.1897590671777
 20
164.7557589188383
 30
0.0
  0
POINT
  5
4A87
330
4A7D
100
AcDbEntity
  8
Defpoints
 62
     0
100
AcDbPoint
 10
240.1897590671777
 20
192.7557589188383
 30
0.0
  0
POINT
  5
4A88
330
4A7D
100
AcDbEntity
  8
Defpoints
 62
     0
100
AcDbPoint
 10
259.3687580896435
 20
192.7557589188383
 30
0.0
  0
ENDBLK
  5
4A7F
330
4A7D
100
AcDbEntity
  8
0
100
AcDbBlockEnd
  0
BLOCK
  5
4AAC
330
4AAB
100
AcDbEntity
  8
0
100
AcDbBlockBegin
  2
*D49
 70
     1
 10
0.0
 20
0.0
 30
0.0
  3
*D49
  1

  0
LINE
  5
4AAE
330
4AAB
100
AcDbEntity
  8
モデル
 62
     0
370
    -2
100
AcDbLine
 10
245.1897590671777
 20
268.0412383708931
 30
0.0
 11
259.2696040293695
 21
268.0412383708931
 31
0.0
  0
LINE
  5
4AAF
330
4AAB
100
AcDbEntity
  8
モデル
 62
     0
370
    -2
100
AcDbLine
 10
245.1897590671777
 20
305.0412383708931
 30
0.0
 11
259.2696040293695
 21
305.0412383708931
 31
0.0
  0
LINE
  5
4AB0
330
4AAB
100
AcDbEntity
  8
モデル
 62
     0
370
    -2
100
AcDbLine
 10
259.2696040293695
 20
270.0412383708931
 30
0.0
 11
259.2696040293695
 21
303.0412383708931
 31
0.0
  0
INSERT
  5
4AB1
330
4AAB
100
AcDbEntity
  8
モデル
 62
     0
370
    -2
100
AcDbBlockReference
  2
_DOT
 10
259.2696040293695
 20
268.0412383708931
 30
0.0
 41
2.0
 42
2.0
 43
2.0
 50
270.0
  0
INSERT
  5
4AB2
330
4AAB
100
AcDbEntity
  8
モデル
 62
     0
370
    -2
100
AcDbBlockReference
  2
_DOT
 10
259.2696040293695
 20
305.0412383708931
 30
0.0
 41
2.0
 42
2.0
 43
2.0
 50
90.0
  0
MTEXT
  5
4AB3
330
4AAB
100
AcDbEntity
  8
モデル
 62
     0
100
AcDbMText
 10
251.7696040293695
 20
286.5412383708931
 30
0.0
 40
5.0
 41
0.0
 46
0.0
 71
     5
 72
     1
  1
\A1;37
  7
ＭＳ ゴシック
 11
0.0
 21
1.0
 31
0.0
 73
     1
 44
1.0
  0
POINT
  5
4AB4
330
4AAB
100
AcDbEntity
  8
Defpoints
 62
     0
100
AcDbPoint
 10
240.1897590671777
 20
268.0412383708931
 30
0.0
  0
POINT
  5
4AB5
330
4AAB
100
AcDbEntity
  8
Defpoints
 62
     0
100
AcDbPoint
 10
240.1897590671777
 20
305.0412383708931
 30
0.0
  0
POINT
  5
4AB6
330
4AAB
100
AcDbEntity
  8
Defpoints
 62
     0
100
AcDbPoint
 10
259.2696040293695
 20
305.0412383708931
 30
0.0
  0
ENDBLK
  5
4AAD
330
4AAB
100
AcDbEntity
  8
0
100
AcDbBlockEnd
  0
BLOCK
  5
4ABE
330
4ABD
100
AcDbEntity
  8
0
100
AcDbBlockBegin
  2
*D50
 70
     1
 10
0.0
 20
0.0
 30
0.0
  3
*D50
  1

  0
LINE
  5
4AC0
330
4ABD
100
AcDbEntity
  8
モデル
 62
     0
370
    -2
100
AcDbLine
 10
245.1897590671777
 20
268.0412383708931
 30
0.0
 11
277.2976149882736
 21
268.0412383708931
 31
0.0
  0
LINE
  5
4AC1
330
4ABD
100
AcDbEntity
  8
モデル
 62
     0
370
    -2
100
AcDbLine
 10
245.1897590671777
 20
305.0412383708931
 30
0.0
 11
277.2976149882736
 21
305.0412383708931
 31
0.0
  0
LINE
  5
4AC2
330
4ABD
100
AcDbEntity
  8
モデル
 62
     0
370
    -2
100
AcDbLine
 10
277.2976149882736
 20
270.0412383708931
 30
0.0
 11
277.2976149882736
 21
303.0412383708931
 31
0.0
  0
INSERT
  5
4AC3
330
4ABD
100
AcDbEntity
  8
モデル
 62
     0
370
    -2
100
AcDbBlockReference
  2
_DOT
 10
277.2976149882736
 20
268.0412383708931
 30
0.0
 41
2.0
 42
2.0
 43
2.0
 50
270.0
  0
INSERT
  5
4AC4
330
4ABD
100
AcDbEntity
  8
モデル
 62
     0
370
    -2
100
AcDbBlockReference
  2
_DOT
 10
277.2976149882736
 20
305.0412383708931
 30
0.0
 41
2.0
 42
2.0
 43
2.0
 50
90.0
  0
MTEXT
  5
4AC5
330
4ABD
100
AcDbEntity
  8
モデル
 62
     0
100
AcDbMText
 10
269.7976149882736
 20
286.5412383708931
 30
0.0
 40
5.0
 41
0.0
 46
0.0
 71
     5
 72
     1
  1
\A1;37
  7
ＭＳ ゴシック
 11
0.0
 21
1.0
 31
0.0
 73
     1
 44
1.0
  0
POINT
  5
4AC6
330
4ABD
100
AcDbEntity
  8
Defpoints
 62
     0
100
AcDbPoint
 10
240.1897590671777
 20
268.0412383708931
 30
0.0
  0
POINT
  5
4AC7
330
4ABD
100
AcDbEntity
  8
Defpoints
 62
     0
100
AcDbPoint
 10
240.1897590671777
 20
305.0412383708931
 30
0.0
  0
POINT
  5
4AC8
330
4ABD
100
AcDbEntity
  8
Defpoints
 62
     0
100
AcDbPoint
 10
277.2976149882736
 20
305.0412383708931
 30
0.0
  0
ENDBLK
  5
4ABF
330
4ABD
100
AcDbEntity
  8
0
100
AcDbBlockEnd
  0
BLOCK
  5
4AD7
330
4AD6
100
AcDbEntity
  8
0
100
AcDbBlockBegin
  2
*D51
 70
     1
 10
0.0
 20
0.0
 30
0.0
  3
*D51
  1

  0
LINE
  5
4AD9
330
4AD6
100
AcDbEntity
  8
モデル
 62
     0
370
    -2
100
AcDbLine
 10
180.1897590671777
 20
305.0412383708931
 30
0.0
 11
180.1897590671777
 21
317.825200027003
 31
0.0
  0
LINE
  5
4ADA
330
4AD6
100
AcDbEntity
  8
モデル
 62
     0
370
    -2
100
AcDbLine
 10
220.1897590671777
 20
305.0412383708931
 30
0.0
 11
220.1897590671777
 21
317.825200027003
 31
0.0
  0
LINE
  5
4ADB
330
4AD6
100
AcDbEntity
  8
モデル
 62
     0
370
    -2
100
AcDbLine
 10
182.1897590671777
 20
317.825200027003
 30
0.0
 11
218.1897590671777
 21
317.825200027003
 31
0.0
  0
INSERT
  5
4ADC
330
4AD6
100
AcDbEntity
  8
モデル
 62
     0
370
    -2
100
AcDbBlockReference
  2
_DOT
 10
180.1897590671777
 20
317.825200027003
 30
0.0
 41
2.0
 42
2.0
 43
2.0
 50
180.0
  0
INSERT
  5
4ADD
330
4AD6
100
AcDbEntity
  8
モデル
 62
     0
370
    -2
100
AcDbBlockReference
  2
_DOT
 10
220.1897590671777
 20
317.825200027003
 30
0.0
 41
2.0
 42
2.0
 43
2.0
  0
MTEXT
  5
4ADE
330
4AD6
100
AcDbEntity
  8
モデル
 62
     0
100
AcDbMText
 10
200.1897590671777
 20
325.325200027003
 30
0.0
 40
5.0
 41
0.0
 46
0.0
 71
     5
 72
     1
  1
\A1;40
  7
ＭＳ ゴシック
 73
     1
 44
1.0
  0
POINT
  5
4ADF
330
4AD6
100
AcDbEntity
  8
Defpoints
 62
     0
100
AcDbPoint
 10
180.1897590671777
 20
300.0412383708931
 30
0.0
  0
POINT
  5
4AE0
330
4AD6
100
AcDbEntity
  8
Defpoints
 62
     0
100
AcDbPoint
 10
220.1897590671777
 20
300.0412383708931
 30
0.0
  0
POINT
  5
4AE1
330
4AD6
100
AcDbEntity
  8
Defpoints
 62
     0
100
AcDbPoint
 10
220.1897590671777
 20
317.825200027003
 30
0.0
  0
ENDBLK
  5
4AD8
330
4AD6
100
AcDbEntity
  8
0
100
AcDbBlockEnd
  0
BLOCK
  5
4AF8
330
4AF7
100
AcDbEntity
  8
0
100
AcDbBlockBegin
  2
*D52
 70
     1
 10
0.0
 20
0.0
 30
0.0
  3
*D52
  1

  0
LINE
  5
4AFA
330
4AF7
100
AcDbEntity
  8
モデル
 62
     0
370
    -2
100
AcDbLine
 10
314.5546029027942
 20
159.7557589188383
 30
0.0
 11
314.5546029027942
 21
157.533130785666
 31
0.0
  0
LINE
  5
4AFB
330
4AF7
100
AcDbEntity
  8
モデル
 62
     0
370
    -2
100
AcDbLine
 10
333.5546029027942
 20
159.7557589188383
 30
0.0
 11
333.5546029027942
 21
157.533130785666
 31
0.0
  0
LINE
  5
4AFC
330
4AF7
100
AcDbEntity
  8
モデル
 62
     0
370
    -2
100
AcDbLine
 10
316.5546029027942
 20
157.533130785666
 30
0.0
 11
331.5546029027942
 21
157.533130785666
 31
0.0
  0
INSERT
  5
4AFD
330
4AF7
100
AcDbEntity
  8
モデル
 62
     0
370
    -2
100
AcDbBlockReference
  2
_DOT
 10
314.5546029027942
 20
157.533130785666
 30
0.0
 41
2.0
 42
2.0
 43
2.0
 50
180.0
  0
INSERT
  5
4AFE
330
4AF7
100
AcDbEntity
  8
モデル
 62
     0
370
    -2
100
AcDbBlockReference
  2
_DOT
 10
333.5546029027942
 20
157.533130785666
 30
0.0
 41
2.0
 42
2.0
 43
2.0
  0
MTEXT
  5
4AFF
330
4AF7
100
AcDbEntity
  8
モデル
 62
     0
100
AcDbMText
 10
324.0546029027942
 20
165.033130785666
 30
0.0
 40
5.0
 41
0.0
 46
0.0
 71
     5
 72
     1
  1
\A1;19
  7
ＭＳ ゴシック
 73
     1
 44
1.0
  0
POINT
  5
4B00
330
4AF7
100
AcDbEntity
  8
Defpoints
 62
     0
100
AcDbPoint
 10
314.5546029027942
 20
164.7557589188383
 30
0.0
  0
POINT
  5
4B01
330
4AF7
100
AcDbEntity
  8
Defpoints
 62
     0
100
AcDbPoint
 10
333.5546029027942
 20
164.7557589188383
 30
0.0
  0
POINT
  5
4B02
330
4AF7
100
AcDbEntity
  8
Defpoints
 62
     0
100
AcDbPoint
 10
333.5546029027942
 20
157.533130785666
 30
0.0
  0
ENDBLK
  5
4AF9
330
4AF7
100
AcDbEntity
  8
0
100
AcDbBlockEnd
  0
BLOCK
  5
4B0A
330
4B09
100
AcDbEntity
  8
0
100
AcDbBlockBegin
  2
*D53
 70
     1
 10
0.0
 20
0.0
 30
0.0
  3
*D53
  1

  0
LINE
  5
4B0C
330
4B09
100
AcDbEntity
  8
モデル
 62
     0
370
    -2
100
AcDbLine
 10
314.5546029027942
 20
159.7557589188383
 30
0.0
 11
314.5546029027942
 21
147.0966912042085
 31
0.0
  0
LINE
  5
4B0D
330
4B09
100
AcDbEntity
  8
モデル
 62
     0
370
    -2
100
AcDbLine
 10
333.5546029027942
 20
160.409688960351
 30
0.0
 11
333.5546029027942
 21
147.0966912042085
 31
0.0
  0
LINE
  5
4B0E
330
4B09
100
AcDbEntity
  8
モデル
 62
     0
370
    -2
100
AcDbLine
 10
316.5546029027942
 20
147.0966912042085
 30
0.0
 11
331.5546029027942
 21
147.0966912042085
 31
0.0
  0
INSERT
  5
4B0F
330
4B09
100
AcDbEntity
  8
モデル
 62
     0
370
    -2
100
AcDbBlockReference
  2
_DOT
 10
314.5546029027942
 20
147.0966912042085
 30
0.0
 41
2.0
 42
2.0
 43
2.0
 50
180.0
  0
INSERT
  5
4B10
330
4B09
100
AcDbEntity
  8
モデル
 62
     0
370
    -2
100
AcDbBlockReference
  2
_DOT
 10
333.5546029027942
 20
147.0966912042085
 30
0.0
 41
2.0
 42
2.0
 43
2.0
  0
MTEXT
  5
4B11
330
4B09
100
AcDbEntity
  8
モデル
 62
     0
100
AcDbMText
 10
324.0546029027942
 20
154.5966912042085
 30
0.0
 40
5.0
 41
0.0
 46
0.0
 71
     5
 72
     1
  1
\A1;19
  7
ＭＳ ゴシック
 73
     1
 44
1.0
  0
POINT
  5
4B12
330
4B09
100
AcDbEntity
  8
Defpoints
 62
     0
100
AcDbPoint
 10
314.5546029027942
 20
164.7557589188383
 30
0.0
  0
POINT
  5
4B13
330
4B09
100
AcDbEntity
  8
Defpoints
 62
     0
100
AcDbPoint
 10
333.5546029027942
 20
165.409688960351
 30
0.0
  0
POINT
  5
4B14
330
4B09
100
AcDbEntity
  8
Defpoints
 62
     0
100
AcDbPoint
 10
333.5546029027942
 20
147.0966912042085
 30
0.0
  0
ENDBLK
  5
4B0B
330
4B09
100
AcDbEntity
  8
0
100
AcDbBlockEnd
  0
BLOCK
  5
4B19
330
4B18
100
AcDbEntity
  8
0
100
AcDbBlockBegin
  2
*D54
 70
     1
 10
0.0
 20
0.0
 30
0.0
  3
*D54
  1

  0
LINE
  5
4B1B
330
4B18
100
AcDbEntity
  8
モデル
 62
     0
370
    -2
100
AcDbLine
 10
338.5546029027942
 20
187.7557589188383
 30
0.0
 11
349.7032570010297
 21
187.7557589188383
 31
0.0
  0
LINE
  5
4B1C
330
4B18
100
AcDbEntity
  8
モデル
 62
     0
370
    -2
100
AcDbLine
 10
338.5546029027942
 20
164.7557589188383
 30
0.0
 11
349.7032570010297
 21
164.7557589188383
 31
0.0
  0
LINE
  5
4B1D
330
4B18
100
AcDbEntity
  8
モデル
 62
     0
370
    -2
100
AcDbLine
 10
349.7032570010297
 20
185.7557589188383
 30
0.0
 11
349.7032570010297
 21
166.7557589188383
 31
0.0
  0
INSERT
  5
4B1E
330
4B18
100
AcDbEntity
  8
モデル
 62
     0
370
    -2
100
AcDbBlockReference
  2
_DOT
 10
349.7032570010297
 20
187.7557589188383
 30
0.0
 41
2.0
 42
2.0
 43
2.0
 50
90.0
  0
INSERT
  5
4B1F
330
4B18
100
AcDbEntity
  8
モデル
 62
     0
370
    -2
100
AcDbBlockReference
  2
_DOT
 10
349.7032570010297
 20
164.7557589188383
 30
0.0
 41
2.0
 42
2.0
 43
2.0
 50
270.0
  0
MTEXT
  5
4B20
330
4B18
100
AcDbEntity
  8
モデル
 62
     0
100
AcDbMText
 10
342.2032570010297
 20
176.2557589188383
 30
0.0
 40
5.0
 41
0.0
 46
0.0
 71
     5
 72
     1
  1
\A1;23
  7
ＭＳ ゴシック
 11
0.0
 21
1.0
 31
0.0
 73
     1
 44
1.0
  0
POINT
  5
4B21
330
4B18
100
AcDbEntity
  8
Defpoints
 62
     0
100
AcDbPoint
 10
333.5546029027942
 20
187.7557589188383
 30
0.0
  0
POINT
  5
4B22
330
4B18
100
AcDbEntity
  8
Defpoints
 62
     0
100
AcDbPoint
 10
333.5546029027942
 20
164.7557589188383
 30
0.0
  0
POINT
  5
4B23
330
4B18
100
AcDbEntity
  8
Defpoints
 62
     0
100
AcDbPoint
 10
349.7032570010297
 20
164.7557589188383
 30
0.0
  0
ENDBLK
  5
4B1A
330
4B18
100
AcDbEntity
  8
0
100
AcDbBlockEnd
  0
BLOCK
  5
4B7B
330
4B7A
100
AcDbEntity
  8
0
100
AcDbBlockBegin
  2
*D55
 70
     1
 10
0.0
 20
0.0
 30
0.0
  3
*D55
  1

  0
LINE
  5
4B7D
330
4B7A
100
AcDbEntity
  8
DIM
 62
     0
370
    -2
100
AcDbLine
 10
183.6637316699175
 20
275.9519233024
 30
0.0
 11
183.6637316699175
 21
263.2375877155069
 31
0.0
  0
LINE
  5
4B7E
330
4B7A
100
AcDbEntity
  8
DIM
 62
     0
370
    -2
100
AcDbLine
 10
263.6637316699175
 20
275.9519233024
 30
0.0
 11
263.6637316699175
 21
263.2375877155069
 31
0.0
  0
LINE
  5
4B7F
330
4B7A
100
AcDbEntity
  8
DIM
 62
     0
370
    -2
100
AcDbLine
 10
185.6637316699175
 20
263.2375877155069
 30
0.0
 11
261.6637316699175
 21
263.2375877155069
 31
0.0
  0
INSERT
  5
4B80
330
4B7A
100
AcDbEntity
  8
DIM
 62
     0
370
    -2
100
AcDbBlockReference
  2
_DOT
 10
183.6637316699175
 20
263.2375877155069
 30
0.0
 41
2.0
 42
2.0
 43
2.0
 50
180.0
  0
INSERT
  5
4B81
330
4B7A
100
AcDbEntity
  8
DIM
 62
     0
370
    -2
100
AcDbBlockReference
  2
_DOT
 10
263.6637316699175
 20
263.2375877155069
 30
0.0
 41
2.0
 42
2.0
 43
2.0
  0
MTEXT
  5
4B82
330
4B7A
100
AcDbEntity
  8
DIM
 62
     0
100
AcDbMText
 10
223.6637316699175
 20
267.7375877155069
 30
0.0
 40
5.0
 41
0.0
 46
0.0
 71
     5
 72
     1
  1
\A1;80
  7
ＭＳ ゴシック
 73
     1
 44
1.0
  0
POINT
  5
4B83
330
4B7A
100
AcDbEntity
  8
Defpoints
 62
     0
100
AcDbPoint
 10
183.6637316699175
 20
280.9519233024
 30
0.0
  0
POINT
  5
4B84
330
4B7A
100
AcDbEntity
  8
Defpoints
 62
     0
100
AcDbPoint
 10
263.6637316699175
 20
280.9519233024
 30
0.0
  0
POINT
  5
4B85
330
4B7A
100
AcDbEntity
  8
Defpoints
 62
     0
100
AcDbPoint
 10
263.6637316699175
 20
263.2375877155069
 30
0.0
  0
ENDBLK
  5
4B7C
330
4B7A
100
AcDbEntity
  8
0
100
AcDbBlockEnd
  0
BLOCK
  5
4B99
330
4B98
100
AcDbEntity
  8
0
100
AcDbBlockBegin
  2
*D56
 70
     1
 10
0.0
 20
0.0
 30
0.0
  3
*D56
  1

  0
LINE
  5
4B9B
330
4B98
100
AcDbEntity
  8
DIM
 62
     0
370
    -2
100
AcDbLine
 10
268.6637316699175
 20
317.9519233024
 30
0.0
 11
276.77952
 21
317.9519233024
 31
0.0
  0
LINE
  5
4B9C
330
4B98
100
AcDbEntity
  8
DIM
 62
     0
370
    -2
100
AcDbLine
 10
268.6637316699175
 20
280.9519233024
 30
0.0
 11
276.77952
 21
280.9519233024
 31
0.0
  0
LINE
  5
4B9D
330
4B98
100
AcDbEntity
  8
DIM
 62
     0
370
    -2
100
AcDbLine
 10
276.77952
 20
315.9519233024
 30
0.0
 11
276.77952
 21
282.9519233024
 31
0.0
  0
INSERT
  5
4B9E
330
4B98
100
AcDbEntity
  8
DIM
 62
     0
370
    -2
100
AcDbBlockReference
  2
_DOT
 10
276.77952
 20
317.9519233024
 30
0.0
 41
2.0
 42
2.0
 43
2.0
 50
90.0
  0
INSERT
  5
4B9F
330
4B98
100
AcDbEntity
  8
DIM
 62
     0
370
    -2
100
AcDbBlockReference
  2
_DOT
 10
276.77952
 20
280.9519233024
 30
0.0
 41
2.0
 42
2.0
 43
2.0
 50
270.0
  0
MTEXT
  5
4BA0
330
4B98
100
AcDbEntity
  8
DIM
 62
     0
100
AcDbMText
 10
272.27952
 20
299.4519233024
 30
0.0
 40
5.0
 41
0.0
 46
0.0
 71
     5
 72
     1
  1
\A1;37
  7
ＭＳ ゴシック
 11
0.0
 21
1.0
 31
0.0
 73
     1
 44
1.0
  0
POINT
  5
4BA1
330
4B98
100
AcDbEntity
  8
Defpoints
 62
     0
100
AcDbPoint
 10
263.6637316699175
 20
317.9519233024
 30
0.0
  0
POINT
  5
4BA2
330
4B98
100
AcDbEntity
  8
Defpoints
 62
     0
100
AcDbPoint
 10
263.6637316699175
 20
280.9519233024
 30
0.0
  0
POINT
  5
4BA3
330
4B98
100
AcDbEntity
  8
Defpoints
 62
     0
100
AcDbPoint
 10
276.77952
 20
280.9519233024
 30
0.0
  0
ENDBLK
  5
4B9A
330
4B98
100
AcDbEntity
  8
0
100
AcDbBlockEnd
  0
BLOCK
  5
4BA8
330
4BA7
100
AcDbEntity
  8
0
100
AcDbBlockBegin
  2
*D57
 70
     1
 10
0.0
 20
0.0
 30
0.0
  3
*D57
  1

  0
LINE
  5
4BAA
330
4BA7
100
AcDbEntity
  8
DIM
 62
     0
370
    -2
100
AcDbLine
 10
203.6637316699175
 20
316.0289354667835
 30
0.0
 11
203.6637316699175
 21
329.8599820273973
 31
0.0
  0
LINE
  5
4BAB
330
4BA7
100
AcDbEntity
  8
DIM
 62
     0
370
    -2
100
AcDbLine
 10
243.6637316699175
 20
316.0289354667835
 30
0.0
 11
243.6637316699175
 21
329.8599820273973
 31
0.0
  0
LINE
  5
4BAC
330
4BA7
100
AcDbEntity
  8
DIM
 62
     0
370
    -2
100
AcDbLine
 10
205.6637316699175
 20
329.8599820273973
 30
0.0
 11
241.6637316699175
 21
329.8599820273973
 31
0.0
  0
INSERT
  5
4BAD
330
4BA7
100
AcDbEntity
  8
DIM
 62
     0
370
    -2
100
AcDbBlockReference
  2
_DOT
 10
203.6637316699175
 20
329.8599820273973
 30
0.0
 41
2.0
 42
2.0
 43
2.0
 50
180.0
  0
INSERT
  5
4BAE
330
4BA7
100
AcDbEntity
  8
DIM
 62
     0
370
    -2
100
AcDbBlockReference
  2
_DOT
 10
243.6637316699175
 20
329.8599820273973
 30
0.0
 41
2.0
 42
2.0
 43
2.0
  0
MTEXT
  5
4BAF
330
4BA7
100
AcDbEntity
  8
DIM
 62
     0
100
AcDbMText
 10
223.6637316699175
 20
334.3599820273973
 30
0.0
 40
5.0
 41
0.0
 46
0.0
 71
     5
 72
     1
  1
\A1;40
  7
ＭＳ ゴシック
 73
     1
 44
1.0
  0
POINT
  5
4BB0
330
4BA7
100
AcDbEntity
  8
Defpoints
 62
     0
100
AcDbPoint
 10
203.6637316699175
 20
311.0289354667835
 30
0.0
  0
POINT
  5
4BB1
330
4BA7
100
AcDbEntity
  8
Defpoints
 62
     0
100
AcDbPoint
 10
243.6637316699175
 20
311.0289354667835
 30
0.0
  0
POINT
  5
4BB2
330
4BA7
100
AcDbEntity
  8
Defpoints
 62
     0
100
AcDbPoint
 10
243.6637316699175
 20
329.8599820273973
 30
0.0
  0
ENDBLK
  5
4BA9
330
4BA7
100
AcDbEntity
  8
0
100
AcDbBlockEnd
  0
BLOCK
  5
4BBA
330
4BB9
100
AcDbEntity
  8
0
100
AcDbBlockBegin
  2
*D58
 70
     1
 10
0.0
 20
0.0
 30
0.0
  3
*D58
  1

  0
LINE
  5
4BBC
330
4BB9
100
AcDbEntity
  8
DIM
 62
     0
370
    -2
100
AcDbLine
 10
268.6637316699175
 20
155.3661698777424
 30
0.0
 11
288.2381237654794
 21
155.3661698777424
 31
0.0
  0
LINE
  5
4BBD
330
4BB9
100
AcDbEntity
  8
DIM
 62
     0
370
    -2
100
AcDbLine
 10
268.6637316699175
 20
183.3661698777424
 30
0.0
 11
288.2381237654794
 21
183.3661698777424
 31
0.0
  0
LINE
  5
4BBE
330
4BB9
100
AcDbEntity
  8
DIM
 62
     0
370
    -2
100
AcDbLine
 10
288.2381237654794
 20
157.3661698777424
 30
0.0
 11
288.2381237654794
 21
181.3661698777424
 31
0.0
  0
INSERT
  5
4BBF
330
4BB9
100
AcDbEntity
  8
DIM
 62
     0
370
    -2
100
AcDbBlockReference
  2
_DOT
 10
288.2381237654794
 20
155.3661698777424
 30
0.0
 41
2.0
 42
2.0
 43
2.0
 50
270.0
  0
INSERT
  5
4BC0
330
4BB9
100
AcDbEntity
  8
DIM
 62
     0
370
    -2
100
AcDbBlockReference
  2
_DOT
 10
288.2381237654794
 20
183.3661698777424
 30
0.0
 41
2.0
 42
2.0
 43
2.0
 50
90.0
  0
MTEXT
  5
4BC1
330
4BB9
100
AcDbEntity
  8
DIM
 62
     0
100
AcDbMText
 10
283.7381237654794
 20
169.3661698777424
 30
0.0
 40
5.0
 41
0.0
 46
0.0
 71
     5
 72
     1
  1
\A1;28
  7
ＭＳ ゴシック
 11
0.0
 21
1.0
 31
0.0
 73
     1
 44
1.0
  0
POINT
  5
4BC2
330
4BB9
100
AcDbEntity
  8
Defpoints
 62
     0
100
AcDbPoint
 10
263.6637316699175
 20
155.3661698777424
 30
0.0
  0
POINT
  5
4BC3
330
4BB9
100
AcDbEntity
  8
Defpoints
 62
     0
100
AcDbPoint
 10
263.6637316699175
 20
183.3661698777424
 30
0.0
  0
POINT
  5
4BC4
330
4BB9
100
AcDbEntity
  8
Defpoints
 62
     0
100
AcDbPoint
 10
288.2381237654794
 20
183.3661698777424
 30
0.0
  0
ENDBLK
  5
4BBB
330
4BB9
100
AcDbEntity
  8
0
100
AcDbBlockEnd
  0
BLOCK
  5
4BC9
330
4BC8
100
AcDbEntity
  8
0
100
AcDbBlockBegin
  2
*D59
 70
     1
 10
0.0
 20
0.0
 30
0.0
  3
*D59
  1

  0
LINE
  5
4BCB
330
4BC8
100
AcDbEntity
  8
DIM
 62
     0
370
    -2
100
AcDbLine
 10
268.6637316699175
 20
171.3661698777424
 30
0.0
 11
276.77952
 21
171.3661698777424
 31
0.0
  0
LINE
  5
4BCC
330
4BC8
100
AcDbEntity
  8
DIM
 62
     0
370
    -2
100
AcDbLine
 10
268.6637316699175
 20
183.3661698777424
 30
0.0
 11
276.77952
 21
183.3661698777424
 31
0.0
  0
LINE
  5
4BCD
330
4BC8
100
AcDbEntity
  8
DIM
 62
     0
370
    -2
100
AcDbLine
 10
276.77952
 20
173.3661698777424
 30
0.0
 11
276.77952
 21
181.3661698777424
 31
0.0
  0
INSERT
  5
4BCE
330
4BC8
100
AcDbEntity
  8
DIM
 62
     0
370
    -2
100
AcDbBlockReference
  2
_DOT
 10
276.77952
 20
171.3661698777424
 30
0.0
 41
2.0
 42
2.0
 43
2.0
 50
270.0
  0
INSERT
  5
4BCF
330
4BC8
100
AcDbEntity
  8
DIM
 62
     0
370
    -2
100
AcDbBlockReference
  2
_DOT
 10
276.77952
 20
183.3661698777424
 30
0.0
 41
2.0
 42
2.0
 43
2.0
 50
90.0
  0
MTEXT
  5
4BD0
330
4BC8
100
AcDbEntity
  8
DIM
 62
     0
100
AcDbMText
 10
272.27952
 20
177.3661698777424
 30
0.0
 40
5.0
 41
0.0
 46
0.0
 71
     5
 72
     1
  1
\A1;12
  7
ＭＳ ゴシック
 11
0.0
 21
1.0
 31
0.0
 73
     1
 44
1.0
  0
POINT
  5
4BD1
330
4BC8
100
AcDbEntity
  8
Defpoints
 62
     0
100
AcDbPoint
 10
263.6637316699175
 20
171.3661698777424
 30
0.0
  0
POINT
  5
4BD2
330
4BC8
100
AcDbEntity
  8
Defpoints
 62
     0
100
AcDbPoint
 10
263.6637316699175
 20
183.3661698777424
 30
0.0
  0
POINT
  5
4BD3
330
4BC8
100
AcDbEntity
  8
Defpoints
 62
     0
100
AcDbPoint
 10
276.77952
 20
183.3661698777424
 30
0.0
  0
ENDBLK
  5
4BCA
330
4BC8
100
AcDbEntity
  8
0
100
AcDbBlockEnd
  0
BLOCK
  5
4BF1
330
4BF0
100
AcDbEntity
  8
0
100
AcDbBlockBegin
  2
*D60
 70
     1
 10
0.0
 20
0.0
 30
0.0
  3
*D60
  1

  0
LINE
  5
4BF3
330
4BF0
100
AcDbEntity
  8
DIM
 62
     0
370
    -2
100
AcDbLine
 10
372.8735070123831
 20
176.2339498503014
 30
0.0
 11
372.8735070123831
 21
166.8115410831782
 31
0.0
  0
LINE
  5
4BF4
330
4BF0
100
AcDbEntity
  8
DIM
 62
     0
370
    -2
100
AcDbLine
 10
384.8735070123832
 20
175.7557589188383
 30
0.0
 11
384.8735070123832
 21
166.8115410831782
 31
0.0
  0
LINE
  5
4BF5
330
4BF0
100
AcDbEntity
  8
DIM
 62
     0
370
    -2
100
AcDbLine
 10
374.8735070123831
 20
166.8115410831782
 30
0.0
 11
382.8735070123832
 21
166.8115410831782
 31
0.0
  0
INSERT
  5
4BF6
330
4BF0
100
AcDbEntity
  8
DIM
 62
     0
370
    -2
100
AcDbBlockReference
  2
_DOT
 10
372.8735070123831
 20
166.8115410831782
 30
0.0
 41
2.0
 42
2.0
 43
2.0
 50
180.0
  0
INSERT
  5
4BF7
330
4BF0
100
AcDbEntity
  8
DIM
 62
     0
370
    -2
100
AcDbBlockReference
  2
_DOT
 10
384.8735070123832
 20
166.8115410831782
 30
0.0
 41
2.0
 42
2.0
 43
2.0
  0
MTEXT
  5
4BF8
330
4BF0
100
AcDbEntity
  8
DIM
 62
     0
100
AcDbMText
 10
378.8735070123831
 20
171.3115410831782
 30
0.0
 40
5.0
 41
0.0
 46
0.0
 71
     5
 72
     1
  1
\A1;12
  7
ＭＳ ゴシック
 73
     1
 44
1.0
  0
POINT
  5
4BF9
330
4BF0
100
AcDbEntity
  8
Defpoints
 62
     0
100
AcDbPoint
 10
372.8735070123831
 20
181.2339498503014
 30
0.0
  0
POINT
  5
4BFA
330
4BF0
100
AcDbEntity
  8
Defpoints
 62
     0
100
AcDbPoint
 10
384.8735070123832
 20
180.7557589188383
 30
0.0
  0
POINT
  5
4BFB
330
4BF0
100
AcDbEntity
  8
Defpoints
 62
     0
100
AcDbPoint
 10
384.8735070123832
 20
166.8115410831782
 30
0.0
  0
ENDBLK
  5
4BF2
330
4BF0
100
AcDbEntity
  8
0
100
AcDbBlockEnd
  0
BLOCK
  5
4C00
330
4BFF
100
AcDbEntity
  8
0
100
AcDbBlockBegin
  2
*D61
 70
     1
 10
0.0
 20
0.0
 30
0.0
  3
*D61
  1

  0
LINE
  5
4C02
330
4BFF
100
AcDbEntity
  8
DIM
 62
     0
370
    -2
100
AcDbLine
 10
178.6637316699175
 20
317.9519233024
 30
0.0
 11
165.9326120048219
 21
317.9519233024
 31
0.0
  0
LINE
  5
4C03
330
4BFF
100
AcDbEntity
  8
DIM
 62
     0
370
    -2
100
AcDbLine
 10
178.6637316699175
 20
298.9519233024
 30
0.0
 11
165.9326120048219
 21
298.9519233024
 31
0.0
  0
LINE
  5
4C04
330
4BFF
100
AcDbEntity
  8
DIM
 62
     0
370
    -2
100
AcDbLine
 10
165.9326120048219
 20
315.9519233024
 30
0.0
 11
165.9326120048219
 21
300.9519233024
 31
0.0
  0
INSERT
  5
4C05
330
4BFF
100
AcDbEntity
  8
DIM
 62
     0
370
    -2
100
AcDbBlockReference
  2
_DOT
 10
165.9326120048219
 20
317.9519233024
 30
0.0
 41
2.0
 42
2.0
 43
2.0
 50
90.0
  0
INSERT
  5
4C06
330
4BFF
100
AcDbEntity
  8
DIM
 62
     0
370
    -2
100
AcDbBlockReference
  2
_DOT
 10
165.9326120048219
 20
298.9519233024
 30
0.0
 41
2.0
 42
2.0
 43
2.0
 50
270.0
  0
MTEXT
  5
4C07
330
4BFF
100
AcDbEntity
  8
DIM
 62
     0
100
AcDbMText
 10
161.4326120048219
 20
308.4519233024
 30
0.0
 40
5.0
 41
0.0
 46
0.0
 71
     5
 72
     1
  1
\A1;19
  7
ＭＳ ゴシック
 11
0.0
 21
1.0
 31
0.0
 73
     1
 44
1.0
  0
POINT
  5
4C08
330
4BFF
100
AcDbEntity
  8
Defpoints
 62
     0
100
AcDbPoint
 10
183.6637316699175
 20
317.9519233024
 30
0.0
  0
POINT
  5
4C09
330
4BFF
100
AcDbEntity
  8
Defpoints
 62
     0
100
AcDbPoint
 10
183.6637316699175
 20
298.9519233024
 30
0.0
  0
POINT
  5
4C0A
330
4BFF
100
AcDbEntity
  8
Defpoints
 62
     0
100
AcDbPoint
 10
165.9326120048219
 20
298.9519233024
 30
0.0
  0
ENDBLK
  5
4C01
330
4BFF
100
AcDbEntity
  8
0
100
AcDbBlockEnd
  0
BLOCK
  5
4C0F
330
4C0E
100
AcDbEntity
  8
0
100
AcDbBlockBegin
  2
*D62
 70
     1
 10
0.0
 20
0.0
 30
0.0
  3
*D62
  1

  0
LINE
  5
4C11
330
4C0E
100
AcDbEntity
  8
DIM
 62
     0
370
    -2
100
AcDbLine
 10
178.6637316699175
 20
298.9519233024
 30
0.0
 11
165.9326120048219
 21
298.9519233024
 31
0.0
  0
LINE
  5
4C12
330
4C0E
100
AcDbEntity
  8
DIM
 62
     0
370
    -2
100
AcDbLine
 10
178.6637316699175
 20
286.9519233024
 30
0.0
 11
165.9326120048219
 21
286.9519233024
 31
0.0
  0
LINE
  5
4C13
330
4C0E
100
AcDbEntity
  8
DIM
 62
     0
370
    -2
100
AcDbLine
 10
165.9326120048219
 20
296.9519233024
 30
0.0
 11
165.9326120048219
 21
288.9519233024
 31
0.0
  0
INSERT
  5
4C14
330
4C0E
100
AcDbEntity
  8
DIM
 62
     0
370
    -2
100
AcDbBlockReference
  2
_DOT
 10
165.9326120048219
 20
298.9519233024
 30
0.0
 41
2.0
 42
2.0
 43
2.0
 50
90.0
  0
INSERT
  5
4C15
330
4C0E
100
AcDbEntity
  8
DIM
 62
     0
370
    -2
100
AcDbBlockReference
  2
_DOT
 10
165.9326120048219
 20
286.9519233024
 30
0.0
 41
2.0
 42
2.0
 43
2.0
 50
270.0
  0
MTEXT
  5
4C16
330
4C0E
100
AcDbEntity
  8
DIM
 62
     0
100
AcDbMText
 10
161.4326120048219
 20
292.9519233024
 30
0.0
 40
5.0
 41
0.0
 46
0.0
 71
     5
 72
     1
  1
\A1;12
  7
ＭＳ ゴシック
 11
0.0
 21
1.0
 31
0.0
 73
     1
 44
1.0
  0
POINT
  5
4C17
330
4C0E
100
AcDbEntity
  8
Defpoints
 62
     0
100
AcDbPoint
 10
183.6637316699175
 20
298.9519233024
 30
0.0
  0
POINT
  5
4C18
330
4C0E
100
AcDbEntity
  8
Defpoints
 62
     0
100
AcDbPoint
 10
183.6637316699175
 20
286.9519233024
 30
0.0
  0
POINT
  5
4C19
330
4C0E
100
AcDbEntity
  8
Defpoints
 62
     0
100
AcDbPoint
 10
165.9326120048219
 20
286.9519233024
 30
0.0
  0
ENDBLK
  5
4C10
330
4C0E
100
AcDbEntity
  8
0
100
AcDbBlockEnd
  0
BLOCK
  5
4C1E
330
4C1D
100
AcDbEntity
  8
0
100
AcDbBlockBegin
  2
*D63
 70
     1
 10
0.0
 20
0.0
 30
0.0
  3
*D63
  1

  0
LINE
  5
4C20
330
4C1D
100
AcDbEntity
  8
DIM
 62
     0
370
    -2
100
AcDbLine
 10
194.5086631767667
 20
274.0412383708931
 30
0.0
 11
181.7775435116712
 21
274.0412383708931
 31
0.0
  0
LINE
  5
4C21
330
4C1D
100
AcDbEntity
  8
DIM
 62
     0
370
    -2
100
AcDbLine
 10
194.5086631767667
 20
268.0412383708931
 30
0.0
 11
181.7775435116712
 21
268.0412383708931
 31
0.0
  0
LINE
  5
4C22
330
4C1D
100
AcDbEntity
  8
DIM
 62
     0
370
    -2
100
AcDbLine
 10
181.7775435116712
 20
276.0412383708931
 30
0.0
 11
181.7775435116712
 21
278.0412383708931
 31
0.0
  0
LINE
  5
4C23
330
4C1D
100
AcDbEntity
  8
DIM
 62
     0
370
    -2
100
AcDbLine
 10
181.7775435116712
 20
266.0412383708931
 30
0.0
 11
181.7775435116712
 21
264.0412383708931
 31
0.0
  0
INSERT
  5
4C24
330
4C1D
100
AcDbEntity
  8
DIM
 62
     0
370
    -2
100
AcDbBlockReference
  2
_DOT
 10
181.7775435116712
 20
274.0412383708931
 30
0.0
 41
2.0
 42
2.0
 43
2.0
 50
270.0
  0
INSERT
  5
4C25
330
4C1D
100
AcDbEntity
  8
DIM
 62
     0
370
    -2
100
AcDbBlockReference
  2
_DOT
 10
181.7775435116712
 20
268.0412383708931
 30
0.0
 41
2.0
 42
2.0
 43
2.0
 50
90.0
  0
MTEXT
  5
4C26
330
4C1D
100
AcDbEntity
  8
DIM
 62
     0
100
AcDbMText
 10
177.2775435116712
 20
271.0412383708931
 30
0.0
 40
5.0
 41
0.0
 46
0.0
 71
     5
 72
     1
  1
\A1;6
  7
ＭＳ ゴシック
 11
0.0
 21
1.0
 31
0.0
 73
     1
 44
1.0
  0
POINT
  5
4C27
330
4C1D
100
AcDbEntity
  8
Defpoints
 62
     0
100
AcDbPoint
 10
199.5086631767667
 20
274.0412383708931
 30
0.0
  0
POINT
  5
4C28
330
4C1D
100
AcDbEntity
  8
Defpoints
 62
     0
100
AcDbPoint
 10
199.5086631767667
 20
268.0412383708931
 30
0.0
  0
POINT
  5
4C29
330
4C1D
100
AcDbEntity
  8
Defpoints
 62
     0
100
AcDbPoint
 10
181.7775435116712
 20
268.0412383708931
 30
0.0
  0
ENDBLK
  5
4C1F
330
4C1D
100
AcDbEntity
  8
0
100
AcDbBlockEnd
  0
BLOCK
  5
4C31
330
4C30
100
AcDbEntity
  8
0
100
AcDbBlockBegin
  2
*D64
 70
     1
 10
0.0
 20
0.0
 30
0.0
  3
*D64
  1

  0
LINE
  5
4C33
330
4C30
100
AcDbEntity
  8
DIM
 62
     0
370
    -2
100
AcDbLine
 10
178.6637316699175
 20
280.9519233024
 30
0.0
 11
165.9326120048219
 21
280.9519233024
 31
0.0
  0
LINE
  5
4C34
330
4C30
100
AcDbEntity
  8
DIM
 62
     0
370
    -2
100
AcDbLine
 10
178.6637316699175
 20
286.9519233024
 30
0.0
 11
165.9326120048219
 21
286.9519233024
 31
0.0
  0
LINE
  5
4C35
330
4C30
100
AcDbEntity
  8
DIM
 62
     0
370
    -2
100
AcDbLine
 10
165.9326120048219
 20
282.9519233024
 30
0.0
 11
165.9326120048219
 21
284.9519233024
 31
0.0
  0
INSERT
  5
4C36
330
4C30
100
AcDbEntity
  8
DIM
 62
     0
370
    -2
100
AcDbBlockReference
  2
_DOT
 10
165.9326120048219
 20
280.9519233024
 30
0.0
 41
2.0
 42
2.0
 43
2.0
 50
270.0
  0
INSERT
  5
4C37
330
4C30
100
AcDbEntity
  8
DIM
 62
     0
370
    -2
100
AcDbBlockReference
  2
_DOT
 10
165.9326120048219
 20
286.9519233024
 30
0.0
 41
2.0
 42
2.0
 43
2.0
 50
90.0
  0
MTEXT
  5
4C38
330
4C30
100
AcDbEntity
  8
DIM
 62
     0
100
AcDbMText
 10
161.4326120048219
 20
283.9519233024
 30
0.0
 40
5.0
 41
0.0
 46
0.0
 71
     5
 72
     1
  1
\A1;6
  7
ＭＳ ゴシック
 11
0.0
 21
1.0
 31
0.0
 73
     1
 44
1.0
  0
POINT
  5
4C39
330
4C30
100
AcDbEntity
  8
Defpoints
 62
     0
100
AcDbPoint
 10
183.6637316699175
 20
280.9519233024
 30
0.0
  0
POINT
  5
4C3A
330
4C30
100
AcDbEntity
  8
Defpoints
 62
     0
100
AcDbPoint
 10
183.6637316699175
 20
286.9519233024
 30
0.0
  0
POINT
  5
4C3B
330
4C30
100
AcDbEntity
  8
Defpoints
 62
     0
100
AcDbPoint
 10
165.9326120048219
 20
286.9519233024
 30
0.0
  0
ENDBLK
  5
4C32
330
4C30
100
AcDbEntity
  8
0
100
AcDbBlockEnd
  0
BLOCK
  5
4C51
330
4C50
100
AcDbEntity
  8
0
100
AcDbBlockBegin
  2
*D65
 70
     1
 10
0.0
 20
0.0
 30
0.0
  3
*D65
  1

  0
LINE
  5
4C53
330
4C50
100
AcDbEntity
  8
DIM
 62
     0
370
    -2
100
AcDbLine
 10
178.6637316699175
 20
178.3661698777424
 30
0.0
 11
165.9326120048219
 21
178.3661698777424
 31
0.0
  0
LINE
  5
4C54
330
4C50
100
AcDbEntity
  8
DIM
 62
     0
370
    -2
100
AcDbLine
 10
178.6637316699175
 20
183.3661698777424
 30
0.0
 11
165.9326120048219
 21
183.3661698777424
 31
0.0
  0
LINE
  5
4C55
330
4C50
100
AcDbEntity
  8
DIM
 62
     0
370
    -2
100
AcDbLine
 10
165.9326120048219
 20
180.3661698777424
 30
0.0
 11
165.9326120048219
 21
181.3661698777424
 31
0.0
  0
INSERT
  5
4C56
330
4C50
100
AcDbEntity
  8
DIM
 62
     0
370
    -2
100
AcDbBlockReference
  2
_DOT
 10
165.9326120048219
 20
178.3661698777424
 30
0.0
 41
2.0
 42
2.0
 43
2.0
 50
270.0
  0
INSERT
  5
4C57
330
4C50
100
AcDbEntity
  8
DIM
 62
     0
370
    -2
100
AcDbBlockReference
  2
_DOT
 10
165.9326120048219
 20
183.3661698777424
 30
0.0
 41
2.0
 42
2.0
 43
2.0
 50
90.0
  0
MTEXT
  5
4C58
330
4C50
100
AcDbEntity
  8
DIM
 62
     0
100
AcDbMText
 10
161.4326120048219
 20
182.5518619178082
 30
0.0
 40
5.0
 41
0.0
 46
0.0
 71
     5
 72
     1
  1
\A1;5
  7
ＭＳ ゴシック
 11
0.0
 21
1.0
 31
0.0
 73
     1
 44
1.0
  0
POINT
  5
4C59
330
4C50
100
AcDbEntity
  8
Defpoints
 62
     0
100
AcDbPoint
 10
183.6637316699175
 20
178.3661698777424
 30
0.0
  0
POINT
  5
4C5A
330
4C50
100
AcDbEntity
  8
Defpoints
 62
     0
100
AcDbPoint
 10
183.6637316699175
 20
183.3661698777424
 30
0.0
  0
POINT
  5
4C5B
330
4C50
100
AcDbEntity
  8
Defpoints
 62
     0
100
AcDbPoint
 10
165.9326120048219
 20
183.3661698777424
 30
0.0
  0
ENDBLK
  5
4C52
330
4C50
100
AcDbEntity
  8
0
100
AcDbBlockEnd
  0
BLOCK
  5
4C68
330
4C67
100
AcDbEntity
  8
0
100
AcDbBlockBegin
  2
*D66
 70
     1
 10
0.0
 20
0.0
 30
0.0
  3
*D66
  1

  0
LINE
  5
4C6A
330
4C67
100
AcDbEntity
  8
DIM
 62
     0
370
    -2
100
AcDbLine
 10
178.6637316699175
 20
171.3661698777424
 30
0.0
 11
165.9326120048219
 21
171.3661698777424
 31
0.0
  0
LINE
  5
4C6B
330
4C67
100
AcDbEntity
  8
DIM
 62
     0
370
    -2
100
AcDbLine
 10
178.6637316699175
 20
178.3661698777424
 30
0.0
 11
165.9326120048219
 21
178.3661698777424
 31
0.0
  0
LINE
  5
4C6C
330
4C67
100
AcDbEntity
  8
DIM
 62
     0
370
    -2
100
AcDbLine
 10
165.9326120048219
 20
173.3661698777424
 30
0.0
 11
165.9326120048219
 21
176.3661698777424
 31
0.0
  0
INSERT
  5
4C6D
330
4C67
100
AcDbEntity
  8
DIM
 62
     0
370
    -2
100
AcDbBlockReference
  2
_DOT
 10
165.9326120048219
 20
171.3661698777424
 30
0.0
 41
2.0
 42
2.0
 43
2.0
 50
270.0
  0
INSERT
  5
4C6E
330
4C67
100
AcDbEntity
  8
DIM
 62
     0
370
    -2
100
AcDbBlockReference
  2
_DOT
 10
165.9326120048219
 20
178.3661698777424
 30
0.0
 41
2.0
 42
2.0
 43
2.0
 50
90.0
  0
MTEXT
  5
4C6F
330
4C67
100
AcDbEntity
  8
DIM
 62
     0
100
AcDbMText
 10
161.4326120048219
 20
174.8661698777424
 30
0.0
 40
5.0
 41
0.0
 46
0.0
 71
     5
 72
     1
  1
\A1;7
  7
ＭＳ ゴシック
 11
0.0
 21
1.0
 31
0.0
 73
     1
 44
1.0
  0
POINT
  5
4C70
330
4C67
100
AcDbEntity
  8
Defpoints
 62
     0
100
AcDbPoint
 10
183.6637316699175
 20
171.3661698777424
 30
0.0
  0
POINT
  5
4C71
330
4C67
100
AcDbEntity
  8
Defpoints
 62
     0
100
AcDbPoint
 10
183.6637316699175
 20
178.3661698777424
 30
0.0
  0
POINT
  5
4C72
330
4C67
100
AcDbEntity
  8
Defpoints
 62
     0
100
AcDbPoint
 10
165.9326120048219
 20
178.3661698777424
 30
0.0
  0
ENDBLK
  5
4C69
330
4C67
100
AcDbEntity
  8
0
100
AcDbBlockEnd
  0
BLOCK
  5
4C7B
330
4C7A
100
AcDbEntity
  8
0
100
AcDbBlockBegin
  2
*D67
 70
     1
 10
0.0
 20
0.0
 30
0.0
  3
*D67
  1

  0
LINE
  5
4C7D
330
4C7A
100
AcDbEntity
  8
DIM
 62
     0
370
    -2
100
AcDbLine
 10
178.6637316699175
 20
155.3661698777424
 30
0.0
 11
165.9326120048219
 21
155.3661698777424
 31
0.0
  0
LINE
  5
4C7E
330
4C7A
100
AcDbEntity
  8
DIM
 62
     0
370
    -2
100
AcDbLine
 10
178.6637316699175
 20
171.3661698777424
 30
0.0
 11
165.9326120048219
 21
171.3661698777424
 31
0.0
  0
LINE
  5
4C7F
330
4C7A
100
AcDbEntity
  8
DIM
 62
     0
370
    -2
100
AcDbLine
 10
165.9326120048219
 20
157.3661698777424
 30
0.0
 11
165.9326120048219
 21
169.3661698777424
 31
0.0
  0
INSERT
  5
4C80
330
4C7A
100
AcDbEntity
  8
DIM
 62
     0
370
    -2
100
AcDbBlockReference
  2
_DOT
 10
165.9326120048219
 20
155.3661698777424
 30
0.0
 41
2.0
 42
2.0
 43
2.0
 50
270.0
  0
INSERT
  5
4C81
330
4C7A
100
AcDbEntity
  8
DIM
 62
     0
370
    -2
100
AcDbBlockReference
  2
_DOT
 10
165.9326120048219
 20
171.3661698777424
 30
0.0
 41
2.0
 42
2.0
 43
2.0
 50
90.0
  0
MTEXT
  5
4C82
330
4C7A
100
AcDbEntity
  8
DIM
 62
     0
100
AcDbMText
 10
161.4326120048219
 20
163.3661698777424
 30
0.0
 40
5.0
 41
0.0
 46
0.0
 71
     5
 72
     1
  1
\A1;16
  7
ＭＳ ゴシック
 11
0.0
 21
1.0
 31
0.0
 73
     1
 44
1.0
  0
POINT
  5
4C83
330
4C7A
100
AcDbEntity
  8
Defpoints
 62
     0
100
AcDbPoint
 10
183.6637316699175
 20
155.3661698777424
 30
0.0
  0
POINT
  5
4C84
330
4C7A
100
AcDbEntity
  8
Defpoints
 62
     0
100
AcDbPoint
 10
183.6637316699175
 20
171.3661698777424
 30
0.0
  0
POINT
  5
4C85
330
4C7A
100
AcDbEntity
  8
Defpoints
 62
     0
100
AcDbPoint
 10
165.9326120048219
 20
171.3661698777424
 30
0.0
  0
ENDBLK
  5
4C7C
330
4C7A
100
AcDbEntity
  8
0
100
AcDbBlockEnd
  0
ENDSEC
  0
SECTION
  2
ENTITIES
  0
LINE
  5
36CD
330
A
100
AcDbEntity
  8
PRINT BORDER
100
AcDbLine
 10
296.9999999999999
 20
0.0
 30
0.0
 11
296.9999999999999
 21
15.30952622855898
 31
0.0
  0
LINE
  5
36CE
330
A
100
AcDbEntity
  8
テンプレート
100
AcDbLine
 10
437.9999999999999
 20
38.27810890422097
 30
0.0
 11
15.30952622855898
 21
38.27810890422097
 31
0.0
  0
LINE
  5
36CF
330
A
100
AcDbEntity
  8
テンプレート
100
AcDbLine
 10
15.30952622855898
 20
26.22153683920783
 30
0.0
 11
578.6904737714407
 21
26.22153683920783
 31
0.0
  0
TEXT
  5
36D0
330
A
100
AcDbEntity
  8
テンプレート
100
AcDbText
 10
18.06121699514119
 20
32.16825981613692
 30
0.0
 40
3.5
  1
材質
  7
ＭＳ ゴシック
100
AcDbText
  0
TEXT
  5
36D1
330
A
100
AcDbEntity
  8
テンプレート
100
AcDbText
 10
36.7528253083583
 20
41.29280421576505
 30
0.0
 40
5.5
  1
サテン
  7
ＭＳ ゴシック
100
AcDbText
  0
TEXT
  5
36D2
330
A
100
AcDbEntity
  8
テンプレート
100
AcDbText
 10
36.7528253083583
 20
29.19151340726899
 30
0.0
 40
5.5
  1
ステンレス
  7
ＭＳ ゴシック
100
AcDbText
  0
TEXT
  5
36D3
330
A
100
AcDbEntity
  8
テンプレート
100
AcDbText
 10
18.06121699514119
 20
56.50959028673083
 30
0.0
 40
3.5
  1
品名
  7
ＭＳ ゴシック
100
AcDbText
  0
TEXT
  5
36D4
330
A
100
AcDbEntity
  8
テンプレート
100
AcDbText
 10
18.06121699514119
 20
44.65099339080098
 30
0.0
 40
3.5
  1
仕上げ
  7
ＭＳ ゴシック
100
AcDbText
  0
TEXT
  5
36D5
330
A
100
AcDbEntity
  8
テンプレート
100
AcDbText
 10
298.8233485179306
 20
56.58523052309897
 30
0.0
 40
3.5
  1
品番
  7
ＭＳ ゴシック
100
AcDbText
  0
TEXT
  5
36D6
330
A
100
AcDbEntity
  8
テンプレート
100
AcDbText
 10
36.7528253083583
 20
53.09440584367189
 30
0.0
 40
5.5
  1
引手 - FORMANI,Square -
  7
ＭＳ ゴシック
100
AcDbText
  0
TEXT
  5
36D7
330
A
100
AcDbEntity
  8
テンプレート
100
AcDbText
 10
313.0171205424464
 20
52.977080524553
 30
0.0
 40
5.5
  1
FOR01-SQ8040
  7
ＭＳ ゴシック
100
AcDbText
  0
LINE
  5
36D8
330
A
100
AcDbEntity
  8
テンプレート
100
AcDbLine
 10
437.9999999999999
 20
50.16496477419605
 30
0.0
 11
15.30952622855898
 21
50.16496477419605
 31
0.0
  0
LINE
  5
36D9
330
A
100
AcDbEntity
  8
テンプレート
100
AcDbLine
 10
578.6904737714411
 20
62.22153683920783
 30
0.0
 11
15.30952622855898
 21
62.22153683920783
 31
0.0
  0
LINE
  5
36DA
330
A
100
AcDbEntity
  8
PRINT BORDER
100
AcDbLine
 10
593.9999999999999
 20
210.0
 30
0.0
 11
578.6904737714411
 21
210.0
 31
0.0
  0
LINE
  5
36DB
330
A
100
AcDbEntity
  8
PRINT BORDER
100
AcDbLine
 10
0.0
 20
210.0
 30
0.0
 11
15.30952622855898
 21
210.0
 31
0.0
  0
LINE
  5
36DC
330
A
100
AcDbEntity
  8
PRINT BORDER
100
AcDbLine
 10
296.9999999999999
 20
420.0
 30
0.0
 11
296.9999999999999
 21
404.690473771441
 31
0.0
  0
LINE
  5
36DD
330
A
100
AcDbEntity
  8
テンプレート
100
AcDbLine
 10
578.6904737714411
 20
62.22153683920783
 30
0.0
 11
578.6904737714411
 21
26.22153683920783
 31
0.0
  0
LINE
  5
36DE
330
A
100
AcDbEntity
  8
テンプレート
100
AcDbLine
 10
15.30952622855898
 20
62.22153683920783
 30
0.0
 11
15.30952622855898
 21
26.22153683920783
 31
0.0
  0
TEXT
  5
36DF
330
A
100
AcDbEntity
  8
テンプレート
100
AcDbText
 10
440.0887524673468
 20
56.58523052309897
 30
0.0
 40
3.5
  1
備考
  7
ＭＳ ゴシック
100
AcDbText
  0
TEXT
  5
36E0
330
A
100
AcDbEntity
  8
テンプレート
100
AcDbText
 10
494.9733384955217
 20
16.51938390313694
 30
0.0
 40
5.5
  1
大洋金物株式会社  
  7
ＭＳ ゴシック
100
AcDbText
  0
LINE
  5
36E1
330
A
100
AcDbEntity
  8
テンプレート
100
AcDbLine
 10
437.9999999999999
 20
62.22153683920783
 30
0.0
 11
437.9999999999999
 21
26.22153683920783
 31
0.0
  0
LINE
  5
36E2
330
A
100
AcDbEntity
  8
テンプレート
100
AcDbLine
 10
296.9999999999999
 20
62.22153683920783
 30
0.0
 11
296.9999999999999
 21
26.22153683920783
 31
0.0
  0
INSERT
  5
36E3
330
A
100
AcDbEntity
  8
テンプレート
100
AcDbBlockReference
  2
名称未設定-1
 10
548.3945198859805
 20
-7.642344203993161
 30
0.0
 41
0.180975
 42
0.180975
 43
0.180975
  0
TEXT
  5
36E4
330
A
100
AcDbEntity
  8
テンプレート
100
AcDbText
 10
18.42255191974346
 20
18.90483678917599
 30
0.0
 40
4.0
  1
20160404N
  7
ＭＳ ゴシック
100
AcDbText
  0
LINE
  5
36E5
330
A
100
AcDbEntity
  8
テンプレート
100
AcDbLine
 10
15.30952622855898
 20
210.0
 30
0.0
 11
15.30952622855898
 21
26.22153683920783
 31
0.0
  0
LINE
  5
36E6
330
A
100
AcDbEntity
  8
テンプレート
100
AcDbLine
 10
15.30952622855898
 20
210.0
 30
0.0
 11
15.30952622855898
 21
404.690473771441
 31
0.0
  0
LINE
  5
36E7
330
A
100
AcDbEntity
  8
テンプレート
100
AcDbLine
 10
296.9999999999999
 20
404.690473771441
 30
0.0
 11
15.30952622855887
 21
404.690473771441
 31
0.0
  0
LINE
  5
36E8
330
A
100
AcDbEntity
  8
テンプレート
100
AcDbLine
 10
296.9999999999999
 20
404.690473771441
 30
0.0
 11
578.6904737714411
 21
404.690473771441
 31
0.0
  0
LINE
  5
36E9
330
A
100
AcDbEntity
  8
テンプレート
100
AcDbLine
 10
578.6904737714411
 20
210.0
 30
0.0
 11
578.6904737714411
 21
404.690473771441
 31
0.0
  0
LINE
  5
36EA
330
A
100
AcDbEntity
  8
テンプレート
100
AcDbLine
 10
578.6904737714411
 20
210.0
 30
0.0
 11
578.6904737714411
 21
26.22153683920783
 31
0.0
  0
LWPOLYLINE
  5
36EB
330
A
100
AcDbEntity
  8
PRINT BORDER
  6
HIDDEN
 48
3.0
100
AcDbPolyline
 90
        4
 70
     1
 43
0.0
 10
0.0
 20
0.0
 10
0.0
 20
420.0
 10
593.9999999999999
 20
420.0
 10
593.9999999999999
 20
0.0
  0
TEXT
  5
36EC
330
A
100
AcDbEntity
  8
テンプレート
100
AcDbText
 10
298.7989156222221
 20
32.62405342819488
 30
0.0
 40
3.5
  1
縮尺
  7
ＭＳ ゴシック
100
AcDbText
  0
TEXT
  5
36ED
330
A
100
AcDbEntity
  8
テンプレート
100
AcDbText
 10
313.0171205424464
 20
28.29362070227194
 30
0.0
 40
5.5
  1
1/2
  7
ＭＳ ゴシック
100
AcDbText
  0
TEXT
  5
37DE
330
A
100
AcDbEntity
  8
テンプレート
100
AcDbText
 10
298.8233485179306
 20
44.52865845808583
 30
0.0
 40
3.5
  1
扉厚
  7
ＭＳ ゴシック
100
AcDbText
  0
TEXT
  5
428E
330
A
100
AcDbEntity
  8
テンプレート
100
AcDbText
 10
192.6640855805966
 20
77.17630111113886
 30
0.0
 40
5.0
  1
　 加工は現物合わせの上行って下さい。
  7
ＭＳ ゴシック
100
AcDbText
  0
TEXT
  5
428F
330
A
100
AcDbEntity
  8
テンプレート
100
AcDbText
 10
192.8363286628052
 20
85.2800852072787
 30
0.0
 40
5.0
  1
※ 輸入製品の為、国内製品と比べ製品寸法の個体差に幅が有ります。
  7
ＭＳ ゴシック
100
AcDbText
  0
LINE
  5
4A72
102
{ACAD_REACTORS
330
4BB8
102
}
330
A
100
AcDbEntity
  8
モデル
100
AcDbLine
 10
183.6637316699175
 20
155.3661698777424
 30
0.0
 11
263.6637316699175
 21
155.3661698777424
 31
0.0
  0
LINE
  5
4A73
330
A
100
AcDbEntity
  8
モデル
100
AcDbLine
 10
263.6637316699175
 20
155.3661698777424
 30
0.0
 11
263.6637316699175
 21
183.3661698777424
 31
0.0
  0
LINE
  5
4A74
102
{ACAD_REACTORS
330
4BB8
330
4BC7
102
}
330
A
100
AcDbEntity
  8
モデル
100
AcDbLine
 10
263.6637316699175
 20
183.3661698777424
 30
0.0
 11
183.6637316699175
 21
183.3661698777424
 31
0.0
  0
LINE
  5
4A75
102
{ACAD_REACTORS
330
4C4F
330
4C79
102
}
330
A
100
AcDbEntity
  8
モデル
100
AcDbLine
 10
183.6637316699175
 20
183.3661698777424
 30
0.0
 11
183.6637316699175
 21
155.3661698777424
 31
0.0
  0
LINE
  5
4A79
102
{ACAD_REACTORS
330
4BC7
330
4C66
330
4C79
102
}
330
A
100
AcDbEntity
  8
モデル
100
AcDbLine
 10
263.6637316699175
 20
171.3661698777424
 30
0.0
 11
183.6637316699175
 21
171.3661698777424
 31
0.0
  0
LINE
  5
4A89
102
{ACAD_REACTORS
102
}
330
A
100
AcDbEntity
  8
モデル
100
AcDbLine
 10
183.6637316699175
 20
280.9519233024
 30
0.0
 11
263.6637316699175
 21
280.9519233024
 31
0.0
  0
LINE
  5
4A8A
102
{ACAD_REACTORS
330
4B97
102
}
330
A
100
AcDbEntity
  8
モデル
100
AcDbLine
 10
263.6637316699175
 20
280.9519233024
 30
0.0
 11
263.6637316699175
 21
317.9519233024
 31
0.0
  0
LINE
  5
4A8B
102
{ACAD_REACTORS
102
}
330
A
100
AcDbEntity
  8
モデル
100
AcDbLine
 10
263.6637316699175
 20
317.9519233024
 30
0.0
 11
183.6637316699175
 21
317.9519233024
 31
0.0
  0
LINE
  5
4A8C
102
{ACAD_REACTORS
330
4BFE
330
4C2F
102
}
330
A
100
AcDbEntity
  8
モデル
100
AcDbLine
 10
183.6637316699175
 20
317.9519233024
 30
0.0
 11
183.6637316699175
 21
280.9519233024
 31
0.0
  0
LINE
  5
4A8D
102
{ACAD_REACTORS
330
4BFE
330
4C0D
102
}
330
A
100
AcDbEntity
  8
HIDDEN
100
AcDbLine
 10
263.6637316699175
 20
298.9519233024
 30
0.0
 11
183.6637316699175
 21
298.9519233024
 31
0.0
  0
LINE
  5
4A8F
102
{ACAD_REACTORS
102
}
330
A
100
AcDbEntity
  8
モデル
100
AcDbLine
 10
367.3710412589586
 20
155.3661698777424
 30
0.0
 11
386.3710412589586
 21
155.3661698777424
 31
0.0
  0
LINE
  5
4A90
102
{ACAD_REACTORS
102
}
330
A
100
AcDbEntity
  8
モデル
100
AcDbLine
 10
404.3710412589586
 20
183.3661698777424
 30
0.0
 11
367.3710412589586
 21
183.3661698777424
 31
0.0
  0
LINE
  5
4A91
330
A
100
AcDbEntity
  8
モデル
100
AcDbLine
 10
367.3710412589586
 20
183.3661698777424
 30
0.0
 11
367.3710412589586
 21
155.3661698777424
 31
0.0
  0
LINE
  5
4A92
330
A
100
AcDbEntity
  8
モデル
100
AcDbLine
 10
404.3710412589586
 20
171.3661698777424
 30
0.0
 11
398.3710412589586
 21
171.3661698777424
 31
0.0
  0
LINE
  5
4A97
102
{ACAD_REACTORS
330
4C0D
330
4C2F
102
}
330
A
100
AcDbEntity
  8
HIDDEN
100
AcDbLine
 10
263.6637316699175
 20
286.9519233024
 30
0.0
 11
183.6637316699175
 21
286.9519233024
 31
0.0
  0
CIRCLE
  5
4ACF
102
{ACAD_REACTORS
102
}
330
A
100
AcDbEntity
  8
モデル
100
AcDbCircle
 10
203.6637316699175
 20
307.9519233024
 30
0.0
 40
5.0
  0
CIRCLE
  5
4AD0
330
A
100
AcDbEntity
  8
モデル
100
AcDbCircle
 10
203.6637316699175
 20
307.9519233024
 30
0.0
 40
2.5
  0
CIRCLE
  5
4AD1
102
{ACAD_REACTORS
102
}
330
A
100
AcDbEntity
  8
モデル
100
AcDbCircle
 10
243.6637316699175
 20
307.9519233024
 30
0.0
 40
5.0
  0
CIRCLE
  5
4AD2
330
A
100
AcDbEntity
  8
モデル
100
AcDbCircle
 10
243.6637316699175
 20
307.9519233024
 30
0.0
 40
2.5
  0
LINE
  5
4AEB
102
{ACAD_REACTORS
102
}
330
A
100
AcDbEntity
  8
モデル
100
AcDbLine
 10
386.3710412589586
 20
155.3661698777424
 30
0.0
 11
386.3710412589586
 21
178.3661698777424
 31
0.0
  0
LINE
  5
4AED
102
{ACAD_REACTORS
102
}
330
A
100
AcDbEntity
  8
モデル
100
AcDbLine
 10
398.3710412589586
 20
171.3661698777424
 30
0.0
 11
398.3710412589586
 21
178.3661698777424
 31
0.0
  0
LINE
  5
4AEF
330
A
100
AcDbEntity
  8
モデル
100
AcDbLine
 10
404.3710412589586
 20
171.3661698777424
 30
0.0
 11
404.3710412589586
 21
183.3661698777424
 31
0.0
  0
LINE
  5
4B05
330
A
100
AcDbEntity
  8
モデル
100
AcDbLine
 10
386.3710412589586
 20
178.3661698777424
 30
0.0
 11
398.3710412589586
 21
178.3661698777424
 31
0.0
  0
LINE
  5
4B29
330
A
100
AcDbEntity
  8
HIDDEN
100
AcDbLine
 10
377.3710412589586
 20
155.3661698777424
 30
0.0
 11
377.3710412589586
 21
181.6912183296003
 31
0.0
  0
LINE
  5
4B2B
330
A
100
AcDbEntity
  8
HIDDEN
100
AcDbLine
 10
382.3710412589586
 20
181.6912183296003
 30
0.0
 11
382.3710412589586
 21
155.3661698777424
 31
0.0
  0
LINE
  5
4B34
330
A
100
AcDbEntity
  8
HIDDEN
100
AcDbLine
 10
384.8710412589586
 20
183.3661698777424
 30
0.0
 11
382.3710412589586
 21
181.6912183296003
 31
0.0
  0
LINE
  5
4B35
330
A
100
AcDbEntity
  8
HIDDEN
100
AcDbLine
 10
374.8710412589586
 20
183.3661698777424
 30
0.0
 11
377.3710412589586
 21
181.6912183296003
 31
0.0
  0
LINE
  5
4B36
330
A
100
AcDbEntity
  8
HIDDEN
100
AcDbLine
 10
248.6637316699175
 20
183.3661698777425
 30
0.0
 11
246.1637316699175
 21
181.6912183296004
 31
0.0
  0
LINE
  5
4B37
330
A
100
AcDbEntity
  8
HIDDEN
100
AcDbLine
 10
238.6637316699175
 20
183.3661698777425
 30
0.0
 11
241.1637316699175
 21
181.6912183296004
 31
0.0
  0
LINE
  5
4B38
330
A
100
AcDbEntity
  8
HIDDEN
100
AcDbLine
 10
241.1637316699175
 20
155.3661698777425
 30
0.0
 11
241.1637316699175
 21
181.6912183296004
 31
0.0
  0
LINE
  5
4B39
330
A
100
AcDbEntity
  8
HIDDEN
100
AcDbLine
 10
246.1637316699175
 20
181.6912183296004
 30
0.0
 11
246.1637316699175
 21
155.3661698777425
 31
0.0
  0
LINE
  5
4B3A
330
A
100
AcDbEntity
  8
HIDDEN
100
AcDbLine
 10
208.6637316699175
 20
183.3661698777424
 30
0.0
 11
206.1637316699175
 21
181.6912183296003
 31
0.0
  0
LINE
  5
4B3B
330
A
100
AcDbEntity
  8
HIDDEN
100
AcDbLine
 10
198.6637316699175
 20
183.3661698777424
 30
0.0
 11
201.1637316699175
 21
181.6912183296003
 31
0.0
  0
LINE
  5
4B3C
330
A
100
AcDbEntity
  8
HIDDEN
100
AcDbLine
 10
201.1637316699175
 20
155.3661698777424
 30
0.0
 11
201.1637316699175
 21
181.6912183296003
 31
0.0
  0
LINE
  5
4B3D
330
A
100
AcDbEntity
  8
HIDDEN
100
AcDbLine
 10
206.1637316699175
 20
181.6912183296003
 30
0.0
 11
206.1637316699175
 21
155.3661698777424
 31
0.0
  0
LINE
  5
4B41
330
A
100
AcDbEntity
  8
HIDDEN
100
AcDbLine
 10
201.1637316699175
 20
181.6912183296003
 30
0.0
 11
206.1637316699175
 21
181.6912183296003
 31
0.0
  0
LINE
  5
4B45
330
A
100
AcDbEntity
  8
HIDDEN
100
AcDbLine
 10
246.1637316699175
 20
181.6912183296003
 30
0.0
 11
241.1637316699175
 21
181.6912183296003
 31
0.0
  0
LINE
  5
4B46
330
A
100
AcDbEntity
  8
HIDDEN
100
AcDbLine
 10
382.3710412589586
 20
181.6912183296003
 30
0.0
 11
377.3710412589586
 21
181.6912183296003
 31
0.0
  0
DIMENSION
  5
4B79
330
A
100
AcDbEntity
  8
DIM
100
AcDbDimension
  2
*D55
 10
263.6637316699175
 20
263.2375877155069
 30
0.0
 11
223.6637316699175
 21
267.7375877155069
 31
0.0
 70
    32
 71
     5
 42
80.0
 73
     0
 74
     0
 75
     0
  3
tfrom線あり
100
AcDbAlignedDimension
 13
183.6637316699175
 23
280.9519233024
 33
0.0
 14
263.6637316699175
 24
280.9519233024
 34
0.0
100
AcDbRotatedDimension
1001
ACAD
1000
DSTYLE
1002
{
1070
   144
1040
1.0
1002
}
  0
DIMENSION
  5
4B95
102
{ACAD_REACTORS
330
4B97
102
}
102
{ACAD_XDICTIONARY
360
4B96
102
}
330
A
100
AcDbEntity
  8
DIM
100
AcDbDimension
  2
*D56
 10
276.77952
 20
280.9519233024
 30
0.0
 11
272.27952
 21
299.4519233024
 31
0.0
 70
    32
 71
     5
 42
37.0
 73
     0
 74
     0
 75
     0
  3
tfrom線あり
100
AcDbAlignedDimension
 13
263.6637316699175
 23
317.9519233024
 33
0.0
 14
263.6637316699175
 24
280.9519233024
 34
0.0
 50
90.0
100
AcDbRotatedDimension
1001
ACAD
1000
DSTYLE
1002
{
1070
   144
1040
1.0
1002
}
  0
DIMENSION
  5
4BA4
102
{ACAD_XDICTIONARY
360
4BA5
102
}
330
A
100
AcDbEntity
  8
DIM
100
AcDbDimension
  2
*D57
 10
243.6637316699175
 20
329.8599820273973
 30
0.0
 11
223.6637316699175
 21
334.3599820273973
 31
0.0
 70
    32
 71
     5
 42
40.0
 73
     0
 74
     0
 75
     0
  3
tfrom線あり
100
AcDbAlignedDimension
 13
203.6637316699175
 23
311.0289354667835
 33
0.0
 14
243.6637316699175
 24
311.0289354667835
 34
0.0
100
AcDbRotatedDimension
1001
ACAD
1000
DSTYLE
1002
{
1070
   144
1040
1.0
1002
}
  0
DIMENSION
  5
4BB6
102
{ACAD_REACTORS
330
4BB8
102
}
102
{ACAD_XDICTIONARY
360
4BB7
102
}
330
A
100
AcDbEntity
  8
DIM
100
AcDbDimension
  2
*D58
 10
288.2381237654794
 20
183.3661698777424
 30
0.0
 11
283.7381237654794
 21
169.3661698777424
 31
0.0
 70
    32
 71
     5
 42
28.0
 73
     0
 74
     0
 75
     0
  3
tfrom線あり
100
AcDbAlignedDimension
 13
263.6637316699175
 23
155.3661698777424
 33
0.0
 14
263.6637316699175
 24
183.3661698777424
 34
0.0
 50
90.0
100
AcDbRotatedDimension
1001
ACAD
1000
DSTYLE
1002
{
1070
   144
1040
1.0
1002
}
  0
DIMENSION
  5
4BC5
102
{ACAD_REACTORS
330
4BC7
102
}
102
{ACAD_XDICTIONARY
360
4BC6
102
}
330
A
100
AcDbEntity
  8
DIM
100
AcDbDimension
  2
*D59
 10
276.77952
 20
183.3661698777424
 30
0.0
 11
276.77952
 21
177.3661698777424
 31
0.0
 70
   160
 71
     5
 42
12.0
 73
     0
 74
     0
 75
     0
  3
tfrom線あり
100
AcDbAlignedDimension
 13
263.6637316699175
 23
171.3661698777424
 33
0.0
 14
263.6637316699175
 24
183.3661698777424
 34
0.0
 50
90.0
100
AcDbRotatedDimension
1001
ACAD
1000
DSTYLE
1002
{
1070
   144
1040
1.0
1002
}
  0
LINE
  5
4BEC
102
{ACAD_REACTORS
330
4C4F
330
4C66
102
}
330
A
100
AcDbEntity
  8
HIDDEN
100
AcDbLine
 10
263.6637316699175
 20
178.3661698777424
 30
0.0
 11
183.6637316699175
 21
178.3661698777424
 31
0.0
  0
DIMENSION
  5
4BFC
102
{ACAD_REACTORS
330
4BFE
102
}
102
{ACAD_XDICTIONARY
360
4BFD
102
}
330
A
100
AcDbEntity
  8
DIM
100
AcDbDimension
  2
*D61
 10
165.9326120048219
 20
298.9519233024
 30
0.0
 11
161.4326120048219
 21
308.4519233024
 31
0.0
 70
    32
 71
     5
 42
19.0
 73
     0
 74
     0
 75
     0
  3
tfrom線あり
100
AcDbAlignedDimension
 13
183.6637316699175
 23
317.9519233024
 33
0.0
 14
183.6637316699175
 24
298.9519233024
 34
0.0
 50
90.0
100
AcDbRotatedDimension
1001
ACAD
1000
DSTYLE
1002
{
1070
   144
1040
1.0
1002
}
  0
DIMENSION
  5
4C0B
102
{ACAD_REACTORS
330
4C0D
102
}
102
{ACAD_XDICTIONARY
360
4C0C
102
}
330
A
100
AcDbEntity
  8
DIM
100
AcDbDimension
  2
*D62
 10
165.9326120048219
 20
286.9519233024
 30
0.0
 11
161.4326120048219
 21
292.9519233024
 31
0.0
 70
    32
 71
     5
 42
12.0
 73
     0
 74
     0
 75
     0
  3
tfrom線あり
100
AcDbAlignedDimension
 13
183.6637316699175
 23
298.9519233024
 33
0.0
 14
183.6637316699175
 24
286.9519233024
 34
0.0
 50
90.0
100
AcDbRotatedDimension
1001
ACAD
1000
DSTYLE
1002
{
1070
   144
1040
1.0
1002
}
  0
DIMENSION
  5
4C2D
102
{ACAD_REACTORS
330
4C2F
102
}
102
{ACAD_XDICTIONARY
360
4C2E
102
}
330
A
100
AcDbEntity
  8
DIM
100
AcDbDimension
  2
*D64
 10
165.9326120048219
 20
286.9519233024
 30
0.0
 11
165.9326120048219
 21
283.9519233024
 31
0.0
 70
   160
 71
     5
 42
6.0
 73
     0
 74
     0
 75
     0
  3
tfrom線あり
100
AcDbAlignedDimension
 13
183.6637316699175
 23
280.9519233024
 33
0.0
 14
183.6637316699175
 24
286.9519233024
 34
0.0
 50
90.0
100
AcDbRotatedDimension
1001
ACAD
1000
DSTYLE
1002
{
1070
   144
1040
1.0
1002
}
  0
DIMENSION
  5
4C4D
102
{ACAD_REACTORS
330
4C4F
102
}
102
{ACAD_XDICTIONARY
360
4C4E
102
}
330
A
100
AcDbEntity
  8
DIM
100
AcDbDimension
  2
*D65
 10
165.9326120048219
 20
183.3661698777424
 30
0.0
 11
165.9326120048219
 21
182.5518619178082
 31
0.0
 70
   160
 71
     5
 42
5.0
 73
     0
 74
     0
 75
     0
  3
tfrom線あり
100
AcDbAlignedDimension
 13
183.6637316699175
 23
178.3661698777424
 33
0.0
 14
183.6637316699175
 24
183.3661698777424
 34
0.0
 50
90.0
100
AcDbRotatedDimension
1001
ACAD
1000
DSTYLE
1002
{
1070
   144
1040
1.0
1002
}
  0
DIMENSION
  5
4C64
102
{ACAD_REACTORS
330
4C66
102
}
102
{ACAD_XDICTIONARY
360
4C65
102
}
330
A
100
AcDbEntity
  8
DIM
100
AcDbDimension
  2
*D66
 10
165.9326120048219
 20
178.3661698777424
 30
0.0
 11
165.9326120048219
 21
174.8661698777424
 31
0.0
 70
   160
 71
     5
 42
7.0
 73
     0
 74
     0
 75
     0
  3
tfrom線あり
100
AcDbAlignedDimension
 13
183.6637316699175
 23
171.3661698777424
 33
0.0
 14
183.6637316699175
 24
178.3661698777424
 34
0.0
 50
90.0
100
AcDbRotatedDimension
1001
ACAD
1000
DSTYLE
1002
{
1070
   144
1040
1.0
1002
}
  0
DIMENSION
  5
4C77
102
{ACAD_REACTORS
330
4C79
102
}
102
{ACAD_XDICTIONARY
360
4C78
102
}
330
A
100
AcDbEntity
  8
DIM
100
AcDbDimension
  2
*D67
 10
165.9326120048219
 20
171.3661698777424
 30
0.0
 11
161.4326120048219
 21
163.3661698777424
 31
0.0
 70
    32
 71
     5
 42
16.0
 73
     0
 74
     0
 75
     0
  3
tfrom線あり
100
AcDbAlignedDimension
 13
183.6637316699175
 23
155.3661698777424
 33
0.0
 14
183.6637316699175
 24
171.3661698777424
 34
0.0
 50
90.0
100
AcDbRotatedDimension
1001
ACAD
1000
DSTYLE
1002
{
1070
   144
1040
1.0
1002
}
  0
VIEWPORT
  5
349
330
B
100
AcDbEntity
 67
     1
  8
0
100
AcDbViewport
 10
202.5
 20
128.5
 30
0.0
 40
486.0
 41
308.4
 68
     1
 69
     1
 12
202.5
 22
128.5
 13
0.0
 23
0.0
 14
0.5
 24
0.5
 15
0.0
 25
0.0
 16
0.0
 26
0.0
 36
1.0
 17
0.0
 27
0.0
 37
0.0
 42
50.0
 43
0.0
 44
0.0
 45
308.4
 50
0.0
 51
0.0
 72
   100
 90
   557152
  1

281
     0
 71
     1
 74
     0
110
0.0
120
0.0
130
0.0
111
1.0
121
0.0
131
0.0
112
0.0
122
1.0
132
0.0
 79
     0
146
0.0
170
     0
 61
     5
348
26C
292
     1
282
     1
141
0.0
142
0.0
 63
   256
  0
VIEWPORT
  5
34A
330
B
100
AcDbEntity
 67
     1
  8
0
100
AcDbViewport
 10
202.5
 20
128.5
 30
0.0
 40
324.0
 41
205.6
 68
     2
 69
     2
 12
986.6781359294573
 22
1427.077061889956
 13
0.0
 23
0.0
 14
0.5
 24
0.5
 15
0.0
 25
0.0
 16
0.0
 26
0.0
 36
1.0
 17
0.0
 27
0.0
 37
0.0
 42
50.0
 43
0.0
 44
0.0
 45
2890.021615685494
 50
0.0
 51
0.0
 72
   100
 90
   557152
  1

281
     0
 71
     1
 74
     0
110
0.0
120
0.0
130
0.0
111
1.0
121
0.0
131
0.0
112
0.0
122
1.0
132
0.0
 79
     0
146
0.0
170
     0
 61
     5
348
26C
292
     1
282
     1
141
0.0
142
0.0
 63
   256
  0
ENDSEC
  0
SECTION
  2
OBJECTS
  0
DICTIONARY
  5
19
330
0
100
AcDbDictionary
281
     1
  3
ACAD_COLOR
350
674
  3
ACAD_DETAILVIEWSTYLE
350
12F4
  3
ACAD_GROUP
350
1A
  3
ACAD_IMAGE_VARS
350
27B
  3
ACAD_LAYOUT
350
1E
  3
ACAD_MATERIAL
350
263
  3
ACAD_MLEADERSTYLE
350
336
  3
ACAD_MLINESTYLE
350
1B
  3
ACAD_PLOTSETTINGS
350
22
  3
ACAD_PLOTSTYLENAME
350
1F
  3
ACAD_SCALELIST
350
241
  3
ACAD_SECTIONVIEWSTYLE
350
12F5
  3
ACAD_TABLESTYLE
350
278
  3
ACAD_VISUALSTYLE
350
267
  3
ACDB_RECOMPOSE_DATA
350
4C9D
  3
AcDbVariableDictionary
350
330
  3
AcStStandard
350
12B9
  3
APPDATA
350
27A
  3
CENTERLINE
350
4BE7
  3
DimOffsetDictionary
350
4BE2
  0
SUN
  5
10E8
330
15
100
AcDbSun
 90
        1
290
     0
 63
     7
421
 16777215
 40
1.0
291
     1
 91
  2455826
 92
 54000000
292
     0
 70
     2
 71
   256
280
     1
  0
DICTIONARY
  5
2E1
330
2
100
AcDbDictionary
280
     1
281
     1
  3
ACAD_LAYERSTATES
360
2E2
  3
ACLYDICTIONARY
360
4B6B
  0
DICTIONARY
  5
4B96
330
4B95
100
AcDbDictionary
280
     1
281
     1
  3
ACAD_DIMASSOC
360
4B97
  0
DICTIONARY
  5
4BA5
330
4BA4
100
AcDbDictionary
280
     1
281
     1
  0
DICTIONARY
  5
4BB7
330
4BB6
100
AcDbDictionary
280
     1
281
     1
  3
ACAD_DIMASSOC
360
4BB8
  0
DICTIONARY
  5
4BC6
330
4BC5
100
AcDbDictionary
280
     1
281
     1
  3
ACAD_DIMASSOC
360
4BC7
  0
DICTIONARY
  5
4BFD
330
4BFC
100
AcDbDictionary
280
     1
281
     1
  3
ACAD_DIMASSOC
360
4BFE
  0
DICTIONARY
  5
4C0C
330
4C0B
100
AcDbDictionary
280
     1
281
     1
  3
ACAD_DIMASSOC
360
4C0D
  0
DICTIONARY
  5
4C2E
330
4C2D
100
AcDbDictionary
280
     1
281
     1
  3
ACAD_DIMASSOC
360
4C2F
  0
DICTIONARY
  5
4C4E
330
4C4D
100
AcDbDictionary
280
     1
281
     1
  3
ACAD_DIMASSOC
360
4C4F
  0
DICTIONARY
  5
4C65
330
4C64
100
AcDbDictionary
280
     1
281
     1
  3
ACAD_DIMASSOC
360
4C66
  0
DICTIONARY
  5
4C78
330
4C77
100
AcDbDictionary
280
     1
281
     1
  3
ACAD_DIMASSOC
360
4C79
  0
DICTIONARY
  5
674
102
{ACAD_REACTORS
330
19
102
}
330
19
100
AcDbDictionary
281
     1
  0
DICTIONARY
  5
12F4
102
{ACAD_REACTORS
330
19
102
}
330
19
100
AcDbDictionary
281
     1
  0
DICTIONARY
  5
1A
102
{ACAD_REACTORS
330
19
102
}
330
19
100
AcDbDictionary
281
     1
  0
RASTERVARIABLES
  5
27B
102
{ACAD_REACTORS
330
19
102
}
330
19
100
AcDbRasterVariables
 90
        0
 70
     1
 71
     1
 72
     1
  0
DICTIONARY
  5
1E
102
{ACAD_REACTORS
330
19
102
}
330
19
100
AcDbDictionary
281
     1
  3
Layout1
350
21
  3
Layout2
350
12C4
  3
Model
350
20
  0
DICTIONARY
  5
263
102
{ACAD_REACTORS
330
19
102
}
330
19
100
AcDbDictionary
281
     1
  3
ByBlock
350
385B
  3
ByLayer
350
264
  3
Global
350
266
  0
DICTIONARY
  5
336
102
{ACAD_REACTORS
330
19
102
}
330
19
100
AcDbDictionary
281
     1
  3
Standard
350
4251
  0
DICTIONARY
  5
1B
102
{ACAD_REACTORS
330
19
102
}
330
19
100
AcDbDictionary
281
     1
  3
Standard
350
1C
  0
DICTIONARY
  5
22
102
{ACAD_REACTORS
330
19
102
}
330
19
100
AcDbDictionary
281
     1
  0
ACDBDICTIONARYWDFLT
  5
1F
102
{ACAD_REACTORS
330
19
102
}
330
19
100
AcDbDictionary
281
     1
  3
Normal
350
1D
100
AcDbDictionaryWithDefault
340
1D
  0
DICTIONARY
  5
241
102
{ACAD_REACTORS
330
19
102
}
330
19
100
AcDbDictionary
281
     1
  3
A0
350
242
  3
A1
350
243
  3
A2
350
244
  3
A3
350
245
  3
A4
350
246
  3
A5
350
247
  3
A6
350
248
  3
A7
350
249
  3
A8
350
24A
  3
A9
350
24B
  3
B0
350
24C
  3
B1
350
24D
  3
B2
350
24E
  3
B3
350
24F
  3
B4
350
250
  3
B5
350
251
  3
B6
350
252
  3
B7
350
253
  3
B8
350
254
  3
B9
350
255
  3
C0
350
256
  3
C1
350
257
  3
C2
350
258
  3
C3
350
259
  3
C4
350
25A
  3
C5
350
25B
  3
C6
350
25C
  3
C7
350
25D
  3
C8
350
25E
  3
C9
350
25F
  3
D0
350
260
  3
D1
350
261
  3
D2
350
262
  0
DICTIONARY
  5
12F5
102
{ACAD_REACTORS
330
19
102
}
330
19
100
AcDbDictionary
281
     1
  0
DICTIONARY
  5
278
102
{ACAD_REACTORS
330
19
102
}
330
19
100
AcDbDictionary
281
     1
  3
Standard
350
279
  0
DICTIONARY
  5
267
102
{ACAD_REACTORS
330
19
102
}
330
19
100
AcDbDictionary
281
     1
  3
*A1
350
4BE1
  3
2dWireframe
350
26C
  3
3D Hidden
350
26E
  3
3dWireframe
350
26D
  3
Basic
350
26F
  3
Brighten
350
273
  3
ColorChange
350
277
  3
Conceptual
350
271
  3
Dim
350
272
  3
EdgeColorOff
350
10E2
  3
Facepattern
350
276
  3
Flat
350
268
  3
FlatWithEdges
350
269
  3
Gouraud
350
26A
  3
GouraudWithEdges
350
26B
  3
Hidden
350
10DF
  3
JitterOff
350
10E0
  3
Linepattern
350
275
  3
OverhangOff
350
10E1
  3
Realistic
350
270
  3
Shaded
350
10E7
  3
Shaded with edges
350
10E6
  3
Shades of Gray
350
10E3
  3
Sketchy
350
10E4
  3
Thicken
350
274
  3
Wireframe
350
10DE
  3
X-Ray
350
10E5
  0
XRECORD
  5
4C9D
102
{ACAD_REACTORS
330
19
102
}
330
19
100
AcDbXrecord
280
     1
 90
        1
330
279
  0
DICTIONARY
  5
330
102
{ACAD_REACTORS
330
19
102
}
330
19
100
AcDbDictionary
281
     1
  3
CANNOSCALE
350
331
  3
CMLEADERSTYLE
350
4256
  3
CTABLESTYLE
350
335
  3
HPTRANSPARENCY
350
4BE0
  3
XCLIPFRAME
350
109E
  0
DICTIONARY
  5
12B9
102
{ACAD_REACTORS
330
19
102
}
330
19
100
AcDbDictionary
281
     1
  0
DICTIONARY
  5
27A
102
{ACAD_REACTORS
330
19
102
}
330
19
100
AcDbDictionary
281
     1
  0
DICTIONARY
  5
4BE7
102
{ACAD_REACTORS
330
19
102
}
330
19
100
AcDbDictionary
281
     1
  3
CLEXTENSION
350
4BE8
  0
DICTIONARY
  5
4BE2
102
{ACAD_REACTORS
330
19
102
}
330
19
100
AcDbDictionary
281
     1
  3
DIMRAILANGLE
350
4BE5
  3
DIMRAILFIRSTOFFSET
350
4BE3
  3
DIMRAILOFFSET
350
4BE4
  3
DIMRAILSENABLED
350
4BE6
  0
DICTIONARY
  5
2E2
102
{ACAD_REACTORS
330
2E1
102
}
330
2E1
100
AcDbDictionary
281
     1
  0
DICTIONARY
  5
4B6B
102
{ACAD_REACTORS
330
2E1
102
}
330
2E1
100
AcDbDictionary
281
     1
1001
ACAD
1000
<All
  0
DIMASSOC
  5
4B97
102
{ACAD_REACTORS
330
4B96
102
}
330
4B96
100
AcDbDimAssoc
330
4B95
 90
        3
 70
     0
 71
     1
  1
AcDbOsnapPointRef
 72
     1
331
4A8A
 73
     0
 91
        0
 40
0.0
 10
0.0
 20
0.0
 30
0.0
 75
     0
  1
AcDbOsnapPointRef
 72
    13
331
4A8A
 73
     0
 91
        0
 40
0.0
 10
0.0
 20
0.0
 30
0.0
 75
     0
  0
DIMASSOC
  5
4BB8
102
{ACAD_REACTORS
330
4BB7
102
}
330
4BB7
100
AcDbDimAssoc
330
4BB6
 90
        3
 70
     0
 71
     1
  1
AcDbOsnapPointRef
 72
     1
331
4A72
 73
     0
 91
        0
 40
0.0
 10
0.0
 20
0.0
 30
0.0
 75
     0
  1
AcDbOsnapPointRef
 72
    13
331
4A74
 73
     0
 91
        0
 40
0.0
 10
0.0
 20
0.0
 30
0.0
 75
     0
  0
DIMASSOC
  5
4BC7
102
{ACAD_REACTORS
330
4BC6
102
}
330
4BC6
100
AcDbDimAssoc
330
4BC5
 90
        3
 70
     0
 71
     1
  1
AcDbOsnapPointRef
 72
    13
331
4A79
 73
     0
 91
        0
 40
0.0
 10
0.0
 20
0.0
 30
0.0
 75
     0
  1
AcDbOsnapPointRef
 72
    13
331
4A74
 73
     0
 91
        0
 40
0.0
 10
0.0
 20
0.0
 30
0.0
 75
     0
  0
DIMASSOC
  5
4BFE
102
{ACAD_REACTORS
330
4BFD
102
}
330
4BFD
100
AcDbDimAssoc
330
4BFC
 90
        3
 70
     0
 71
     1
  1
AcDbOsnapPointRef
 72
    13
331
4A8C
 73
     0
 91
        0
 40
0.0
 10
0.0
 20
0.0
 30
0.0
 75
     0
  1
AcDbOsnapPointRef
 72
     1
331
4A8D
 73
     0
 91
        0
 40
0.0
 10
0.0
 20
0.0
 30
0.0
 75
     0
  0
DIMASSOC
  5
4C0D
102
{ACAD_REACTORS
330
4C0C
102
}
330
4C0C
100
AcDbDimAssoc
330
4C0B
 90
        3
 70
     0
 71
     1
  1
AcDbOsnapPointRef
 72
     1
331
4A8D
 73
     0
 91
        0
 40
0.0
 10
0.0
 20
0.0
 30
0.0
 75
     0
  1
AcDbOsnapPointRef
 72
     1
331
4A97
 73
     0
 91
        0
 40
0.0
 10
0.0
 20
0.0
 30
0.0
 75
     0
  0
DIMASSOC
  5
4C2F
102
{ACAD_REACTORS
330
4C2E
102
}
330
4C2E
100
AcDbDimAssoc
330
4C2D
 90
        3
 70
     0
 71
     1
  1
AcDbOsnapPointRef
 72
     1
331
4A8C
 73
     0
 91
        0
 40
0.0
 10
0.0
 20
0.0
 30
0.0
 75
     0
  1
AcDbOsnapPointRef
 72
     1
331
4A97
 73
     0
 91
        0
 40
0.0
 10
0.0
 20
0.0
 30
0.0
 75
     0
  0
DIMASSOC
  5
4C4F
102
{ACAD_REACTORS
330
4C4E
102
}
330
4C4E
100
AcDbDimAssoc
330
4C4D
 90
        3
 70
     0
 71
     1
  1
AcDbOsnapPointRef
 72
     1
331
4BEC
 73
     0
 91
        0
 40
0.0
 10
0.0
 20
0.0
 30
0.0
 75
     0
  1
AcDbOsnapPointRef
 72
    13
331
4A75
 73
     0
 91
        0
 40
0.0
 10
0.0
 20
0.0
 30
0.0
 75
     0
  0
DIMASSOC
  5
4C66
102
{ACAD_REACTORS
330
4C65
102
}
330
4C65
100
AcDbDimAssoc
330
4C64
 90
        3
 70
     0
 71
     1
  1
AcDbOsnapPointRef
 72
     1
331
4A79
 73
     0
 91
        0
 40
0.0
 10
0.0
 20
0.0
 30
0.0
 75
     0
  1
AcDbOsnapPointRef
 72
     1
331
4BEC
 73
     0
 91
        0
 40
0.0
 10
0.0
 20
0.0
 30
0.0
 75
     0
  0
DIMASSOC
  5
4C79
102
{ACAD_REACTORS
330
4C78
102
}
330
4C78
100
AcDbDimAssoc
330
4C77
 90
        3
 70
     0
 71
     1
  1
AcDbOsnapPointRef
 72
     1
331
4A75
 73
     0
 91
        0
 40
0.0
 10
0.0
 20
0.0
 30
0.0
 75
     0
  1
AcDbOsnapPointRef
 72
     1
331
4A79
 73
     0
 91
        0
 40
0.0
 10
0.0
 20
0.0
 30
0.0
 75
     0
  0
LAYOUT
  5
21
102
{ACAD_REACTORS
330
1E
102
}
330
1E
100
AcDbPlotSettings
  1

  2
none_device
  4
ISO_A3_(420.00_x_297.00_MM)
  6

 40
7.5
 41
20.0
 42
7.5
 43
20.0
 44
420.0
 45
297.0
 46
0.0
 47
0.0
 48
0.0
 49
0.0
140
0.0
141
0.0
142
1.0
143
1.0
 70
     0
 72
     1
 73
     0
 74
     0
  7

 75
     0
 76
     0
 77
     2
 78
   300
147
1.0
148
0.0
149
0.0
100
AcDbLayout
  1
Layout1
 70
     0
 71
     0
 10
-7.5
 20
-20.0
 11
412.5
 21
277.0
 12
0.0
 22
0.0
 32
0.0
 14
0.0
 24
0.0
 34
0.0
 15
0.0
 25
0.0
 35
0.0
146
0.0
 13
0.0
 23
0.0
 33
0.0
 16
0.0
 26
0.0
 36
0.0
 17
0.0
 27
0.0
 37
0.0
 76
     0
330
B
331
349
  0
LAYOUT
  5
12C4
102
{ACAD_REACTORS
330
1E
102
}
330
1E
100
AcDbPlotSettings
  1

  2
none_device
  4

  6

 40
0.0
 41
0.0
 42
0.0
 43
0.0
 44
0.0
 45
0.0
 46
0.0
 47
0.0
 48
0.0
 49
0.0
140
0.0
141
0.0
142
1.0
143
1.0
 70
   688
 72
     1
 73
     0
 74
     5
  7

 75
    16
 76
     0
 77
     2
 78
   300
147
1.0
148
0.0
149
0.0
100
AcDbLayout
  1
Layout2
 70
     1
 71
     2
 10
0.0
 20
0.0
 11
0.0
 21
0.0
 12
0.0
 22
0.0
 32
0.0
 14
0.0
 24
0.0
 34
0.0
 15
0.0
 25
0.0
 35
0.0
146
0.0
 13
0.0
 23
0.0
 33
0.0
 16
1.0
 26
0.0
 36
0.0
 17
0.0
 27
1.0
 37
0.0
 76
     0
330
12C3
  0
LAYOUT
  5
20
102
{ACAD_REACTORS
330
1E
102
}
330
1E
100
AcDbPlotSettings
  1

  2
none_device
  4
ISO_A3_(420.00_x_297.00_MM)
  6

 40
7.5
 41
20.0
 42
7.5
 43
20.0
 44
420.0
 45
297.0
 46
0.0
 47
0.0
 48
0.0
 49
0.0
140
0.0
141
0.0
142
1.0
143
1.0
 70
  1024
 72
     1
 73
     0
 74
     0
  7

 75
     0
 76
     0
 77
     2
 78
   300
147
1.0
148
0.0
149
0.0
100
AcDbLayout
  1
Model
 70
     0
 71
     1
 10
0.0
 20
0.0
 11
593.9999999999999
 21
420.0
 12
0.0
 22
0.0
 32
0.0
 14
0.0
 24
0.0
 34
0.0
 15
593.9999999999999
 25
420.0
 35
0.0
146
0.0
 13
0.0
 23
0.0
 33
0.0
 16
0.0
 26
0.0
 36
0.0
 17
0.0
 27
0.0
 37
0.0
 76
     0
330
A
331
15
  0
MATERIAL
  5
385B
102
{ACAD_REACTORS
330
263
102
}
330
263
100
AcDbMaterial
  1
ByBlock
 72
     1
 94
      127
  0
MATERIAL
  5
264
102
{ACAD_REACTORS
330
263
102
}
330
263
100
AcDbMaterial
  1
ByLayer
 72
     1
 94
      127
  0
MATERIAL
  5
266
102
{ACAD_REACTORS
330
263
102
}
330
263
100
AcDbMaterial
  1
Global
 72
     1
 94
      127
  0
MLEADERSTYLE
  5
4251
102
{ACAD_REACTORS
330
336
102
}
330
336
100
AcDbMLeaderStyle
170
     2
171
     1
172
     0
 90
        2
 40
0.0
 41
0.0
173
     1
 91
-1056964608
340
11
 92
       -2
290
     1
 42
2.0
291
     1
 43
8.0
  3
Standard
341
0
 44
4.0
300

342
17
174
     1
178
     6
175
     1
176
     0
 93
-1056964608
 45
4.0
292
     0
297
     0
 46
4.0
343
0
 94
-1056964608
 47
1.0
 49
1.0
140
1.0
293
     1
141
0.0
294
     1
177
     0
142
1.0
295
     0
296
     0
143
3.75
1001
ACAD_MLEADERVER
1070
     2
  0
MLINESTYLE
  5
1C
102
{ACAD_REACTORS
330
1B
102
}
330
1B
100
AcDbMlineStyle
  2
Standard
 70
     0
  3

 62
     0
 51
90.0
 52
90.0
 71
     2
 49
0.5
 62
   256
  6
BYLAYER
 49
-0.5
 62
   256
  6
BYLAYER
  0
ACDBPLACEHOLDER
  5
1D
102
{ACAD_REACTORS
330
1F
102
}
330
1F
  0
SCALE
  5
242
102
{ACAD_REACTORS
330
241
102
}
330
241
100
AcDbScale
 70
     0
300
1:1
140
1.0
141
1.0
290
     1
  0
SCALE
  5
243
102
{ACAD_REACTORS
330
241
102
}
330
241
100
AcDbScale
 70
     0
300
1:2
140
1.0
141
2.0
290
     0
  0
SCALE
  5
244
102
{ACAD_REACTORS
330
241
102
}
330
241
100
AcDbScale
 70
     0
300
1:4
140
1.0
141
4.0
290
     0
  0
SCALE
  5
245
102
{ACAD_REACTORS
330
241
102
}
330
241
100
AcDbScale
 70
     0
300
1:5
140
1.0
141
5.0
290
     0
  0
SCALE
  5
246
102
{ACAD_REACTORS
330
241
102
}
330
241
100
AcDbScale
 70
     0
300
1:8
140
1.0
141
8.0
290
     0
  0
SCALE
  5
247
102
{ACAD_REACTORS
330
241
102
}
330
241
100
AcDbScale
 70
     0
300
1:10
140
1.0
141
10.0
290
     0
  0
SCALE
  5
248
102
{ACAD_REACTORS
330
241
102
}
330
241
100
AcDbScale
 70
     0
300
1:16
140
1.0
141
16.0
290
     0
  0
SCALE
  5
249
102
{ACAD_REACTORS
330
241
102
}
330
241
100
AcDbScale
 70
     0
300
1:20
140
1.0
141
20.0
290
     0
  0
SCALE
  5
24A
102
{ACAD_REACTORS
330
241
102
}
330
241
100
AcDbScale
 70
     0
300
1:30
140
1.0
141
30.0
290
     0
  0
SCALE
  5
24B
102
{ACAD_REACTORS
330
241
102
}
330
241
100
AcDbScale
 70
     0
300
1:40
140
1.0
141
40.0
290
     0
  0
SCALE
  5
24C
102
{ACAD_REACTORS
330
241
102
}
330
241
100
AcDbScale
 70
     0
300
1:50
140
1.0
141
50.0
290
     0
  0
SCALE
  5
24D
102
{ACAD_REACTORS
330
241
102
}
330
241
100
AcDbScale
 70
     0
300
1:100
140
1.0
141
100.0
290
     0
  0
SCALE
  5
24E
102
{ACAD_REACTORS
330
241
102
}
330
241
100
AcDbScale
 70
     0
300
2:1
140
2.0
141
1.0
290
     0
  0
SCALE
  5
24F
102
{ACAD_REACTORS
330
241
102
}
330
241
100
AcDbScale
 70
     0
300
4:1
140
4.0
141
1.0
290
     0
  0
SCALE
  5
250
102
{ACAD_REACTORS
330
241
102
}
330
241
100
AcDbScale
 70
     0
300
8:1
140
8.0
141
1.0
290
     0
  0
SCALE
  5
251
102
{ACAD_REACTORS
330
241
102
}
330
241
100
AcDbScale
 70
     0
300
10:1
140
10.0
141
1.0
290
     0
  0
SCALE
  5
252
102
{ACAD_REACTORS
330
241
102
}
330
241
100
AcDbScale
 70
     0
300
100:1
140
100.0
141
1.0
290
     0
  0
SCALE
  5
253
102
{ACAD_REACTORS
330
241
102
}
330
241
100
AcDbScale
 70
     0
300
1/128" = 1'-0"
140
0.0078125
141
12.0
290
     0
  0
SCALE
  5
254
102
{ACAD_REACTORS
330
241
102
}
330
241
100
AcDbScale
 70
     0
300
1/64" = 1'-0"
140
0.015625
141
12.0
290
     0
  0
SCALE
  5
255
102
{ACAD_REACTORS
330
241
102
}
330
241
100
AcDbScale
 70
     0
300
1/32" = 1'-0"
140
0.03125
141
12.0
290
     0
  0
SCALE
  5
256
102
{ACAD_REACTORS
330
241
102
}
330
241
100
AcDbScale
 70
     0
300
1/16" = 1'-0"
140
0.0625
141
12.0
290
     0
  0
SCALE
  5
257
102
{ACAD_REACTORS
330
241
102
}
330
241
100
AcDbScale
 70
     0
300
3/32" = 1'-0"
140
0.09375
141
12.0
290
     0
  0
SCALE
  5
258
102
{ACAD_REACTORS
330
241
102
}
330
241
100
AcDbScale
 70
     0
300
1/8" = 1'-0"
140
0.125
141
12.0
290
     0
  0
SCALE
  5
259
102
{ACAD_REACTORS
330
241
102
}
330
241
100
AcDbScale
 70
     0
300
3/16" = 1'-0"
140
0.1875
141
12.0
290
     0
  0
SCALE
  5
25A
102
{ACAD_REACTORS
330
241
102
}
330
241
100
AcDbScale
 70
     0
300
1/4" = 1'-0"
140
0.25
141
12.0
290
     0
  0
SCALE
  5
25B
102
{ACAD_REACTORS
330
241
102
}
330
241
100
AcDbScale
 70
     0
300
3/8" = 1'-0"
140
0.375
141
12.0
290
     0
  0
SCALE
  5
25C
102
{ACAD_REACTORS
330
241
102
}
330
241
100
AcDbScale
 70
     0
300
1/2" = 1'-0"
140
0.5
141
12.0
290
     0
  0
SCALE
  5
25D
102
{ACAD_REACTORS
330
241
102
}
330
241
100
AcDbScale
 70
     0
300
3/4" = 1'-0"
140
0.75
141
12.0
290
     0
  0
SCALE
  5
25E
102
{ACAD_REACTORS
330
241
102
}
330
241
100
AcDbScale
 70
     0
300
1" = 1'-0"
140
1.0
141
12.0
290
     0
  0
SCALE
  5
25F
102
{ACAD_REACTORS
330
241
102
}
330
241
100
AcDbScale
 70
     0
300
1-1/2" = 1'-0"
140
1.5
141
12.0
290
     0
  0
SCALE
  5
260
102
{ACAD_REACTORS
330
241
102
}
330
241
100
AcDbScale
 70
     0
300
3" = 1'-0"
140
3.0
141
12.0
290
     0
  0
SCALE
  5
261
102
{ACAD_REACTORS
330
241
102
}
330
241
100
AcDbScale
 70
     0
300
6" = 1'-0"
140
6.0
141
12.0
290
     0
  0
SCALE
  5
262
102
{ACAD_REACTORS
330
241
102
}
330
241
100
AcDbScale
 70
     0
300
1'-0" = 1'-0"
140
12.0
141
12.0
290
     0
  0
TABLESTYLE
  5
279
102
{ACAD_REACTORS
330
278
102
}
102
{ACAD_XDICTIONARY
360
4C9B
102
}
330
278
100
AcDbTableStyle
  3
Standard
 70
     0
 71
     0
 40
0.06
 41
0.06
280
     0
281
     0
  7
Standard
140
4.5
170
     2
 62
     0
 63
   257
283
     0
 90
        4
 91
        0
  1

274
    -2
284
     1
 64
     0
275
    -2
285
     1
 65
     0
276
    -2
286
     1
 66
     0
277
    -2
287
     1
 67
     0
278
    -2
288
     1
 68
     0
279
    -2
289
     1
 69
     0
  7
Standard
140
6.0
170
     5
 62
     0
 63
   257
283
     0
 90
        4
 91
        0
  1

274
    -2
284
     1
 64
     0
275
    -2
285
     1
 65
     0
276
    -2
286
     1
 66
     0
277
    -2
287
     1
 67
     0
278
    -2
288
     1
 68
     0
279
    -2
289
     1
 69
     0
  7
Standard
140
4.5
170
     5
 62
     0
 63
   257
283
     0
 90
        4
 91
        0
  1

274
    -2
284
     1
 64
     0
275
    -2
285
     1
 65
     0
276
    -2
286
     1
 66
     0
277
    -2
287
     1
 67
     0
278
    -2
288
     1
 68
     0
279
    -2
289
     1
 69
     0
  0
VISUALSTYLE
  5
4BE1
102
{ACAD_REACTORS
330
267
102
}
330
267
100
AcDbVisualStyle
  2
*
 70
    10
 71
     0
 72
     2
 73
     0
 90
        0
 40
-0.6
 41
-30.0
 62
     5
 63
     7
421
 16777215
 74
     1
 91
        4
 64
     7
 65
   257
 75
     1
175
     1
 42
1.0
 92
        8
 66
     7
 43
1.0
 76
     1
 77
     6
 78
     2
 67
     7
 79
     5
170
     0
171
     0
290
     0
174
     0
 93
        1
 44
0.0
173
     0
291
     0
 45
0.0
  0
VISUALSTYLE
  5
26C
102
{ACAD_REACTORS
330
267
102
}
330
267
100
AcDbVisualStyle
  2
2dWireframe
 70
     4
 71
     0
 72
     2
 73
     0
 90
        0
 40
-0.6
 41
-30.0
 62
     5
 63
     7
421
 16777215
 74
     1
 91
        4
 64
     7
 65
   257
 75
     1
175
     1
 42
1.0
 92
        0
 66
   257
 43
1.0
 76
     1
 77
     6
 78
     2
 67
     7
 79
     5
170
     0
171
     0
290
     0
174
     0
 93
        1
 44
0.0
173
     0
291
     0
 45
0.0
  0
VISUALSTYLE
  5
26E
102
{ACAD_REACTORS
330
267
102
}
330
267
100
AcDbVisualStyle
  2
3D Hidden
 70
     6
 71
     1
 72
     2
 73
     2
 90
        0
 40
-0.6
 41
-30.0
 62
     5
 63
     7
421
 16777215
 74
     2
 91
        2
 64
     7
 65
   257
 75
     2
175
     1
 42
40.0
 92
        0
 66
   257
 43
1.0
 76
     1
 77
     6
 78
     2
 67
     7
 79
     3
170
     0
171
     0
290
     0
174
     0
 93
        1
 44
0.0
173
     0
291
     0
 45
0.0
  0
VISUALSTYLE
  5
26D
102
{ACAD_REACTORS
330
267
102
}
330
267
100
AcDbVisualStyle
  2
3dWireframe
 70
     5
 71
     0
 72
     2
 73
     0
 90
        0
 40
-0.6
 41
-30.0
 62
     5
 63
     7
421
 16777215
 74
     1
 91
        4
 64
     7
 65
   257
 75
     1
175
     1
 42
1.0
 92
        0
 66
   257
 43
1.0
 76
     1
 77
     6
 78
     2
 67
     7
 79
     5
170
     0
171
     0
290
     0
174
     0
 93
        1
 44
0.0
173
     0
291
     0
 45
0.0
  0
VISUALSTYLE
  5
26F
102
{ACAD_REACTORS
330
267
102
}
330
267
100
AcDbVisualStyle
  2
Basic
 70
     7
 71
     1
 72
     0
 73
     1
 90
        0
 40
-0.6
 41
-30.0
 62
     5
 63
     7
421
 16777215
 74
     0
 91
        4
 64
     7
 65
   257
 75
     1
175
     1
 42
1.0
 92
        8
 66
     7
 43
1.0
 76
     1
 77
     6
 78
     2
 67
     7
 79
     5
170
     0
171
     0
290
     0
174
     0
 93
        1
 44
0.0
173
     0
291
     1
 45
0.0
  0
VISUALSTYLE
  5
273
102
{ACAD_REACTORS
330
267
102
}
330
267
100
AcDbVisualStyle
  2
Brighten
 70
    12
 71
     2
 72
     2
 73
     0
 90
        0
 40
-0.6
 41
-30.0
 62
     5
 63
     7
421
 16777215
 74
     1
 91
        4
 64
     7
 65
   257
 75
     1
175
     1
 42
1.0
 92
        8
 66
     7
 43
1.0
 76
     1
 77
     6
 78
     2
 67
     7
 79
     5
170
     0
171
     0
290
     0
174
     0
 93
        1
 44
50.0
173
     0
291
     1
 45
0.0
  0
VISUALSTYLE
  5
277
102
{ACAD_REACTORS
330
267
102
}
330
267
100
AcDbVisualStyle
  2
ColorChange
 70
    16
 71
     2
 72
     2
 73
     3
 90
        0
 40
-0.6
 41
-30.0
 62
     5
 63
     8
421
  8421504
 74
     1
 91
        4
 64
     7
 65
   257
 75
     1
175
     1
 42
1.0
 92
        8
 66
     8
424
  8421504
 43
1.0
 76
     1
 77
     6
 78
     2
 67
     7
 79
     5
170
     0
171
     0
290
     0
174
     0
 93
        1
 44
0.0
173
     0
291
     1
 45
0.0
  0
VISUALSTYLE
  5
271
102
{ACAD_REACTORS
330
267
102
}
330
267
100
AcDbVisualStyle
  2
Conceptual
 70
     9
 71
     3
 72
     2
 73
     0
 90
        0
 40
-0.6
 41
-30.0
 62
     5
 63
     7
421
 16777215
 74
     2
 91
        2
 64
     7
 65
   257
 75
     1
175
     1
 42
40.0
 92
        8
 66
     7
 43
1.0
 76
     1
 77
     6
 78
     2
 67
     7
 79
     3
170
     0
171
     0
290
     0
174
     0
 93
        1
 44
0.0
173
     0
291
     0
 45
0.0
  0
VISUALSTYLE
  5
272
102
{ACAD_REACTORS
330
267
102
}
330
267
100
AcDbVisualStyle
  2
Dim
 70
    11
 71
     2
 72
     2
 73
     0
 90
        0
 40
-0.6
 41
-30.0
 62
     5
 63
     7
421
 16777215
 74
     1
 91
        4
 64
     7
 65
   257
 75
     1
175
     1
 42
1.0
 92
        8
 66
     7
 43
1.0
 76
     1
 77
     6
 78
     2
 67
     7
 79
     5
170
     0
171
     0
290
     0
174
     0
 93
        1
 44
-50.0
173
     0
291
     1
 45
0.0
  0
VISUALSTYLE
  5
10E2
102
{ACAD_REACTORS
330
267
102
}
330
267
100
AcDbVisualStyle
  2
EdgeColorOff
 70
    22
 71
     2
 72
     2
 73
     0
 90
        0
 40
0.6
 41
30.0
 62
     5
 63
     7
421
 16777215
 74
     1
 91
        4
 64
     7
 65
   257
 75
     1
175
     1
 42
1.0
 92
        8
 66
     7
 43
1.0
 76
     1
 77
     6
 78
     2
 67
     7
 79
     5
170
     0
171
     0
290
     0
174
     0
 93
        1
 44
0.0
173
     0
291
     1
 45
0.0
  0
VISUALSTYLE
  5
276
102
{ACAD_REACTORS
330
267
102
}
330
267
100
AcDbVisualStyle
  2
Facepattern
 70
    15
 71
     2
 72
     2
 73
     0
 90
        0
 40
-0.6
 41
-30.0
 62
     5
 63
     7
421
 16777215
 74
     1
 91
        4
 64
     7
 65
   257
 75
     1
175
     1
 42
1.0
 92
        8
 66
     7
 43
1.0
 76
     1
 77
     6
 78
     2
 67
     7
 79
     5
170
     0
171
     0
290
     0
174
     0
 93
        1
 44
0.0
173
     0
291
     1
 45
0.0
  0
VISUALSTYLE
  5
268
102
{ACAD_REACTORS
330
267
102
}
330
267
100
AcDbVisualStyle
  2
Flat
 70
     0
 71
     2
 72
     1
 73
     1
 90
        2
 40
-0.6
 41
30.0
 62
     5
 63
     7
421
 16777215
 74
     0
 91
        4
 64
     7
 65
   257
 75
     1
175
     1
 42
1.0
 92
        8
 66
     7
 43
1.0
 76
     1
 77
     6
 78
     2
 67
     7
 79
     5
170
     0
171
     0
290
     0
174
     0
 93
       13
 44
0.0
173
     0
291
     1
 45
0.0
  0
VISUALSTYLE
  5
269
102
{ACAD_REACTORS
330
267
102
}
330
267
100
AcDbVisualStyle
  2
FlatWithEdges
 70
     1
 71
     2
 72
     1
 73
     1
 90
        2
 40
-0.6
 41
30.0
 62
     5
 63
     7
421
 16777215
 74
     1
 91
        4
 64
     7
 65
   257
 75
     1
175
     1
 42
1.0
 92
        0
 66
   257
 43
1.0
 76
     1
 77
     6
 78
     2
 67
     7
 79
     5
170
     0
171
     0
290
     0
174
     0
 93
       13
 44
0.0
173
     0
291
     1
 45
0.0
  0
VISUALSTYLE
  5
26A
102
{ACAD_REACTORS
330
267
102
}
330
267
100
AcDbVisualStyle
  2
Gouraud
 70
     2
 71
     2
 72
     2
 73
     1
 90
        2
 40
-0.6
 41
30.0
 62
     5
 63
     7
421
 16777215
 74
     0
 91
        4
 64
     7
 65
   257
 75
     1
175
     1
 42
1.0
 92
        0
 66
     7
 43
1.0
 76
     1
 77
     6
 78
     2
 67
     7
 79
     5
170
     0
171
     0
290
     0
174
     0
 93
       13
 44
0.0
173
     0
291
     1
 45
0.0
  0
VISUALSTYLE
  5
26B
102
{ACAD_REACTORS
330
267
102
}
330
267
100
AcDbVisualStyle
  2
GouraudWithEdges
 70
     3
 71
     2
 72
     2
 73
     1
 90
        2
 40
-0.6
 41
30.0
 62
     5
 63
     7
421
 16777215
 74
     1
 91
        4
 64
     7
 65
   257
 75
     1
175
     1
 42
1.0
 92
        0
 66
   257
 43
1.0
 76
     1
 77
     6
 78
     2
 67
     7
 79
     5
170
     0
171
     0
290
     0
174
     0
 93
       13
 44
0.0
173
     0
291
     1
 45
0.0
  0
VISUALSTYLE
  5
10DF
102
{ACAD_REACTORS
330
267
102
}
330
267
100
AcDbVisualStyle
  2
Hidden
 70
     6
 71
     1
 72
     2
 73
     2
 90
        0
 40
0.6
 41
30.0
 62
     5
 63
     7
421
 16777215
 74
     2
 91
        2
 64
     7
 65
   257
 75
     2
175
     1
 42
40.0
 92
        0
 66
   257
 43
1.0
 76
     1
 77
     6
 78
     2
 67
     7
 79
     3
170
     0
171
     0
290
     0
174
     0
 93
        1
 44
0.0
173
     0
291
     0
 45
0.0
  0
VISUALSTYLE
  5
10E0
102
{ACAD_REACTORS
330
267
102
}
330
267
100
AcDbVisualStyle
  2
JitterOff
 70
    20
 71
     2
 72
     2
 73
     0
 90
        0
 40
0.6
 41
30.0
 62
     5
 63
     7
421
 16777215
 74
     1
 91
        4
 64
     7
 65
   257
 75
     1
175
     1
 42
1.0
 92
       10
 66
     7
 43
1.0
 76
     1
 77
     6
 78
     2
 67
     7
 79
     5
170
     0
171
     0
290
     0
174
     0
 93
        1
 44
0.0
173
     0
291
     1
 45
0.0
  0
VISUALSTYLE
  5
275
102
{ACAD_REACTORS
330
267
102
}
330
267
100
AcDbVisualStyle
  2
Linepattern
 70
    14
 71
     2
 72
     2
 73
     0
 90
        0
 40
-0.6
 41
-30.0
 62
     5
 63
     7
421
 16777215
 74
     1
 91
        4
 64
     7
 65
   257
 75
     7
175
     7
 42
1.0
 92
        8
 66
     7
 43
1.0
 76
     1
 77
     6
 78
     2
 67
     7
 79
     5
170
     0
171
     0
290
     0
174
     0
 93
        1
 44
0.0
173
     0
291
     1
 45
0.0
  0
VISUALSTYLE
  5
10E1
102
{ACAD_REACTORS
330
267
102
}
330
267
100
AcDbVisualStyle
  2
OverhangOff
 70
    21
 71
     2
 72
     2
 73
     0
 90
        0
 40
0.6
 41
30.0
 62
     5
 63
     7
421
 16777215
 74
     1
 91
        4
 64
     7
 65
   257
 75
     1
175
     1
 42
1.0
 92
        9
 66
     7
 43
1.0
 76
     1
 77
     6
 78
     2
 67
     7
 79
     5
170
     0
171
     0
290
     0
174
     0
 93
        1
 44
0.0
173
     0
291
     1
 45
0.0
  0
VISUALSTYLE
  5
270
102
{ACAD_REACTORS
330
267
102
}
330
267
100
AcDbVisualStyle
  2
Realistic
 70
     8
 71
     2
 72
     2
 73
     0
 90
        0
 40
-0.6
 41
-30.0
 62
     5
 63
     7
421
 16777215
 74
     1
 91
        0
 64
     7
 65
   257
 75
     1
175
     1
 42
1.0
 92
        8
 66
     8
424
  7895160
 43
1.0
 76
     1
 77
     6
 78
     2
 67
     7
 79
     5
170
     0
171
     0
290
     0
174
     0
 93
       13
 44
0.0
173
     0
291
     0
 45
0.0
  0
VISUALSTYLE
  5
10E7
102
{ACAD_REACTORS
330
267
102
}
330
267
100
AcDbVisualStyle
  2
Shaded
 70
    27
 71
     2
 72
     2
 73
     1
 90
        2
 40
0.6
 41
30.0
 62
     5
 63
     7
421
 16777215
 74
     0
 91
        4
 64
     7
 65
   257
 75
     1
175
     1
 42
1.0
 92
        8
 66
   257
 43
1.0
 76
     1
 77
     6
 78
     2
 67
     8
425
  7895160
 79
     3
170
     0
171
     0
290
     0
174
     0
 93
        5
 44
0.0
173
     0
291
     0
 45
0.0
  0
VISUALSTYLE
  5
10E6
102
{ACAD_REACTORS
330
267
102
}
330
267
100
AcDbVisualStyle
  2
Shaded with edges
 70
    26
 71
     2
 72
     2
 73
     1
 90
        2
 40
0.6
 41
30.0
 62
     5
 63
     7
421
 16777215
 74
     1
 91
       10
 64
     7
 65
   257
 75
     2
175
     1
 42
1.0
 92
        8
 66
   257
 43
1.0
 76
     1
 77
     6
 78
     2
 67
     7
 79
     3
170
     0
171
     0
290
     0
174
     0
 93
        5
 44
0.0
173
     0
291
     0
 45
0.0
  0
VISUALSTYLE
  5
10E3
102
{ACAD_REACTORS
330
267
102
}
330
267
100
AcDbVisualStyle
  2
Shades of Gray
 70
    23
 71
     2
 72
     2
 73
     3
 90
        0
 40
0.6
 41
30.0
 62
     5
 63
     7
421
 16777215
 74
     2
 91
        2
 64
     7
 65
     7
 75
     1
175
     1
 42
40.0
 92
        8
 66
     7
 43
1.0
 76
     1
 77
     6
 78
     2
 67
     7
 79
     3
170
     0
171
     0
290
     0
174
     0
 93
        1
 44
0.0
173
     0
291
     0
 45
0.0
  0
VISUALSTYLE
  5
10E4
102
{ACAD_REACTORS
330
267
102
}
330
267
100
AcDbVisualStyle
  2
Sketchy
 70
    24
 71
     1
 72
     2
 73
     2
 90
        0
 40
0.6
 41
30.0
 62
     5
 63
     7
421
 16777215
 74
     2
 91
        2
 64
     7
 65
     7
 75
     1
175
     1
 42
40.0
 92
       11
 66
     7
 43
1.0
 76
     1
 77
     6
 78
     2
 67
     7
 79
     6
170
     0
171
     0
290
     0
174
     0
 93
        1
 44
0.0
173
     0
291
     0
 45
0.0
  0
VISUALSTYLE
  5
274
102
{ACAD_REACTORS
330
267
102
}
330
267
100
AcDbVisualStyle
  2
Thicken
 70
    13
 71
     2
 72
     2
 73
     0
 90
        0
 40
-0.6
 41
-30.0
 62
     5
 63
     7
421
 16777215
 74
     1
 91
        4
 64
     7
 65
   257
 75
     1
175
     1
 42
1.0
 92
       12
 66
     7
 43
1.0
 76
     1
 77
     6
 78
     2
 67
     7
 79
     5
170
     0
171
     0
290
     0
174
     0
 93
        1
 44
0.0
173
     0
291
     1
 45
0.0
  0
VISUALSTYLE
  5
10DE
102
{ACAD_REACTORS
330
267
102
}
330
267
100
AcDbVisualStyle
  2
Wireframe
 70
     5
 71
     0
 72
     2
 73
     0
 90
        0
 40
0.6
 41
30.0
 62
     5
 63
     7
421
 16777215
 74
     1
 91
        4
 64
     7
 65
   257
 75
     1
175
     1
 42
1.0
 92
        0
 66
   257
 43
1.0
 76
     1
 77
     6
 78
     2
 67
     7
 79
     3
170
     0
171
     0
290
     0
174
     0
 93
        1
 44
0.0
173
     0
291
     0
 45
0.0
  0
VISUALSTYLE
  5
10E5
102
{ACAD_REACTORS
330
267
102
}
330
267
100
AcDbVisualStyle
  2
X-Ray
 70
    25
 71
     2
 72
     2
 73
     1
 90
        1
 40
0.5
 41
30.0
 62
     5
 63
     7
421
 16777215
 74
     1
 91
        0
 64
     7
 65
   257
 75
     1
175
     1
 42
1.0
 92
        8
 66
     7
 43
1.0
 76
     1
 77
     6
 78
     2
 67
     7
 79
     3
170
     0
171
     0
290
     0
174
     0
 93
       13
 44
0.0
173
     0
291
     0
 45
0.0
  0
DICTIONARYVAR
  5
331
102
{ACAD_REACTORS
330
330
102
}
330
330
100
DictionaryVariables
280
     0
  1
1:1
  0
DICTIONARYVAR
  5
4256
102
{ACAD_REACTORS
330
330
102
}
330
330
100
DictionaryVariables
280
     0
  1
Standard
  0
DICTIONARYVAR
  5
335
102
{ACAD_REACTORS
330
330
102
}
330
330
100
DictionaryVariables
280
     0
  1
Standard
  0
DICTIONARYVAR
  5
4BE0
102
{ACAD_REACTORS
330
330
102
}
330
330
100
DictionaryVariables
280
     0
  1
.
  0
DICTIONARYVAR
  5
109E
102
{ACAD_REACTORS
330
330
102
}
330
330
100
DictionaryVariables
280
     0
  1
0
  0
DICTIONARYVAR
  5
4BE8
102
{ACAD_REACTORS
330
4BE7
102
}
330
4BE7
100
DictionaryVariables
280
     0
  1
0.250000
  0
DICTIONARYVAR
  5
4BE5
102
{ACAD_REACTORS
330
4BE2
102
}
330
4BE2
100
DictionaryVariables
280
     0
  1
0.261799
  0
DICTIONARYVAR
  5
4BE3
102
{ACAD_REACTORS
330
4BE2
102
}
330
4BE2
100
DictionaryVariables
280
     0
  1
0.400000
  0
DICTIONARYVAR
  5
4BE4
102
{ACAD_REACTORS
330
4BE2
102
}
330
4BE2
100
DictionaryVariables
280
     0
  1
0.250000
  0
DICTIONARYVAR
  5
4BE6
102
{ACAD_REACTORS
330
4BE2
102
}
330
4BE2
100
DictionaryVariables
280
     0
  1
0
  0
DICTIONARY
  5
4C9B
330
279
100
AcDbDictionary
280
     1
281
     1
  3
ACAD_ROUNDTRIP_2008_TABLESTYLE_CELLSTYLEMAP
360
4C9C
  0
CELLSTYLEMAP
  5
4C9C
102
{ACAD_REACTORS
330
4C9B
102
}
330
4C9B
100
AcDbCellStyleMap
 90
        3
300
CELLSTYLE
  1
TABLEFORMAT_BEGIN
 90
        5
170
     1
 91
        0
 92
    32768
 62
   257
 93
        1
300
CONTENTFORMAT
  1
CONTENTFORMAT_BEGIN
 90
        0
 91
        0
 92
        4
 93
        0
300

 40
0.0
140
1.0
 94
        5
 62
     0
340
17
144
6.0
309
CONTENTFORMAT_END
171
     1
301
MARGIN
  1
CELLMARGIN_BEGIN
 40
0.06
 40
0.06
 40
0.06
 40
0.06
 40
0.18
 40
0.18
309
CELLMARGIN_END
 94
        6
 95
        1
302
GRIDFORMAT
  1
GRIDFORMAT_BEGIN
 90
        0
 91
        1
 62
     0
 92
       -2
340
0
 93
        0
 40
0.045
309
GRIDFORMAT_END
 95
        2
302
GRIDFORMAT
  1
GRIDFORMAT_BEGIN
 90
        0
 91
        1
 62
     0
 92
       -2
340
0
 93
        0
 40
0.045
309
GRIDFORMAT_END
 95
        4
302
GRIDFORMAT
  1
GRIDFORMAT_BEGIN
 90
        0
 91
        1
 62
     0
 92
       -2
340
0
 93
        0
 40
0.045
309
GRIDFORMAT_END
 95
        8
302
GRIDFORMAT
  1
GRIDFORMAT_BEGIN
 90
        0
 91
        1
 62
     0
 92
       -2
340
0
 93
        0
 40
0.045
309
GRIDFORMAT_END
 95
       16
302
GRIDFORMAT
  1
GRIDFORMAT_BEGIN
 90
        0
 91
        1
 62
     0
 92
       -2
340
0
 93
        0
 40
0.045
309
GRIDFORMAT_END
 95
       32
302
GRIDFORMAT
  1
GRIDFORMAT_BEGIN
 90
        0
 91
        1
 62
     0
 92
       -2
340
0
 93
        0
 40
0.045
309
GRIDFORMAT_END
309
TABLEFORMAT_END
  1
CELLSTYLE_BEGIN
 90
        1
 91
        1
300
_TITLE
309
CELLSTYLE_END
300
CELLSTYLE
  1
TABLEFORMAT_BEGIN
 90
        5
170
     1
 91
        0
 92
        0
 62
   257
 93
        1
300
CONTENTFORMAT
  1
CONTENTFORMAT_BEGIN
 90
        0
 91
        0
 92
        4
 93
        0
300

 40
0.0
140
1.0
 94
        5
 62
     0
340
17
144
4.5
309
CONTENTFORMAT_END
171
     1
301
MARGIN
  1
CELLMARGIN_BEGIN
 40
0.06
 40
0.06
 40
0.06
 40
0.06
 40
0.18
 40
0.18
309
CELLMARGIN_END
 94
        6
 95
        1
302
GRIDFORMAT
  1
GRIDFORMAT_BEGIN
 90
        0
 91
        1
 62
     0
 92
       -2
340
0
 93
        0
 40
0.045
309
GRIDFORMAT_END
 95
        2
302
GRIDFORMAT
  1
GRIDFORMAT_BEGIN
 90
        0
 91
        1
 62
     0
 92
       -2
340
0
 93
        0
 40
0.045
309
GRIDFORMAT_END
 95
        4
302
GRIDFORMAT
  1
GRIDFORMAT_BEGIN
 90
        0
 91
        1
 62
     0
 92
       -2
340
0
 93
        0
 40
0.045
309
GRIDFORMAT_END
 95
        8
302
GRIDFORMAT
  1
GRIDFORMAT_BEGIN
 90
        0
 91
        1
 62
     0
 92
       -2
340
0
 93
        0
 40
0.045
309
GRIDFORMAT_END
 95
       16
302
GRIDFORMAT
  1
GRIDFORMAT_BEGIN
 90
        0
 91
        1
 62
     0
 92
       -2
340
0
 93
        0
 40
0.045
309
GRIDFORMAT_END
 95
       32
302
GRIDFORMAT
  1
GRIDFORMAT_BEGIN
 90
        0
 91
        1
 62
     0
 92
       -2
340
0
 93
        0
 40
0.045
309
GRIDFORMAT_END
309
TABLEFORMAT_END
  1
CELLSTYLE_BEGIN
 90
        2
 91
        1
300
_HEADER
309
CELLSTYLE_END
300
CELLSTYLE
  1
TABLEFORMAT_BEGIN
 90
        5
170
     1
 91
        0
 92
        0
 62
   257
 93
        1
300
CONTENTFORMAT
  1
CONTENTFORMAT_BEGIN
 90
        0
 91
        0
 92
        4
 93
        0
300

 40
0.0
140
1.0
 94
        2
 62
     0
340
17
144
4.5
309
CONTENTFORMAT_END
171
     1
301
MARGIN
  1
CELLMARGIN_BEGIN
 40
0.06
 40
0.06
 40
0.06
 40
0.06
 40
0.18
 40
0.18
309
CELLMARGIN_END
 94
        6
 95
        1
302
GRIDFORMAT
  1
GRIDFORMAT_BEGIN
 90
        0
 91
        1
 62
     0
 92
       -2
340
0
 93
        0
 40
0.045
309
GRIDFORMAT_END
 95
        2
302
GRIDFORMAT
  1
GRIDFORMAT_BEGIN
 90
        0
 91
        1
 62
     0
 92
       -2
340
0
 93
        0
 40
0.045
309
GRIDFORMAT_END
 95
        4
302
GRIDFORMAT
  1
GRIDFORMAT_BEGIN
 90
        0
 91
        1
 62
     0
 92
       -2
340
0
 93
        0
 40
0.045
309
GRIDFORMAT_END
 95
        8
302
GRIDFORMAT
  1
GRIDFORMAT_BEGIN
 90
        0
 91
        1
 62
     0
 92
       -2
340
0
 93
        0
 40
0.045
309
GRIDFORMAT_END
 95
       16
302
GRIDFORMAT
  1
GRIDFORMAT_BEGIN
 90
        0
 91
        1
 62
     0
 92
       -2
340
0
 93
        0
 40
0.045
309
GRIDFORMAT_END
 95
       32
302
GRIDFORMAT
  1
GRIDFORMAT_BEGIN
 90
        0
 91
        1
 62
     0
 92
       -2
340
0
 93
        0
 40
0.045
309
GRIDFORMAT_END
309
TABLEFORMAT_END
  1
CELLSTYLE_BEGIN
 90
        3
 91
        2
300
_DATA
309
CELLSTYLE_END
  0
ENDSEC
  0
EOF
