  0
SECTION
  2
HEADER
  9
$ACADVER
  1
AC1021
  9
$ACADMAINTVER
 70
    25
  9
$DWGCODEPAGE
  3
ANSI_932
  9
$LASTSAVEDBY
  1
howeNelson
  9
$INSBASE
 10
0.0
 20
0.0
 30
0.0
  9
$EXTMIN
 10
0.0
 20
0.0
 30
0.0
  9
$EXTMAX
 10
593.9999999999999
 20
420.0
 30
0.0
  9
$LIMMIN
 10
0.0
 20
0.0
  9
$LIMMAX
 10
593.9999999999999
 20
420.0
  9
$ORTHOMODE
 70
     0
  9
$REGENMODE
 70
     1
  9
$FILLMODE
 70
     1
  9
$QTEXTMODE
 70
     0
  9
$MIRRTEXT
 70
     1
  9
$LTSCALE
 40
0.5
  9
$ATTMODE
 70
     1
  9
$TEXTSIZE
 40
136.139079520063
  9
$TRACEWID
 40
1.0
  9
$TEXTSTYLE
  7
ＭＳ ゴシック
  9
$CLAYER
  8
寸法
  9
$CELTYPE
  6
ByLayer
  9
$CECOLOR
 62
   256
  9
$CELTSCALE
 40
1.0
  9
$DISPSILH
 70
     0
  9
$DIMSCALE
 40
1.0
  9
$DIMASZ
 40
2.0
  9
$DIMEXO
 40
5.0
  9
$DIMDLI
 40
0.9999999999999999
  9
$DIMRND
 40
0.0
  9
$DIMDLE
 40
0.0
  9
$DIMEXE
 40
0.0
  9
$DIMTP
 40
0.0
  9
$DIMTM
 40
0.0
  9
$DIMTXT
 40
5.0
  9
$DIMCEN
 40
0.0
  9
$DIMTSZ
 40
0.0
  9
$DIMTOL
 70
     0
  9
$DIMLIM
 70
     0
  9
$DIMTIH
 70
     0
  9
$DIMTOH
 70
     0
  9
$DIMSE1
 70
     0
  9
$DIMSE2
 70
     0
  9
$DIMTAD
 70
     1
  9
$DIMZIN
 70
    11
  9
$DIMBLK
  1
DOT
  9
$DIMASO
 70
     1
  9
$DIMSHO
 70
     1
  9
$DIMPOST
  1
<>
  9
$DIMAPOST
  1
[]
  9
$DIMALT
 70
     0
  9
$DIMALTD
 70
     1
  9
$DIMALTF
 40
1.0
  9
$DIMLFAC
 40
1.0
  9
$DIMTOFL
 70
     0
  9
$DIMTVP
 40
0.0
  9
$DIMTIX
 70
     1
  9
$DIMSOXD
 70
     0
  9
$DIMSAH
 70
     0
  9
$DIMBLK1
  1

  9
$DIMBLK2
  1

  9
$DIMSTYLE
  2
tfrom線あり
  9
$DIMCLRD
 70
     0
  9
$DIMCLRE
 70
     0
  9
$DIMCLRT
 70
     0
  9
$DIMTFAC
 40
1.0
  9
$DIMGAP
 40
5.0
  9
$DIMJUST
 70
     0
  9
$DIMSD1
 70
     0
  9
$DIMSD2
 70
     0
  9
$DIMTOLJ
 70
     1
  9
$DIMTZIN
 70
    11
  9
$DIMALTZ
 70
    11
  9
$DIMALTTZ
 70
    11
  9
$DIMUPT
 70
     0
  9
$DIMDEC
 70
     0
  9
$DIMTDEC
 70
     1
  9
$DIMALTU
 70
     2
  9
$DIMALTTD
 70
     2
  9
$DIMTXSTY
  7
ＭＳ ゴシック
  9
$DIMAUNIT
 70
     0
  9
$DIMADEC
 70
     2
  9
$DIMALTRND
 40
0.0
  9
$DIMAZIN
 70
     0
  9
$DIMDSEP
 70
    46
  9
$DIMATFIT
 70
     0
  9
$DIMFRAC
 70
     2
  9
$DIMLDRBLK
  1
DOT
  9
$DIMLUNIT
 70
     2
  9
$DIMLWD
 70
    -2
  9
$DIMLWE
 70
    -2
  9
$DIMTMOVE
 70
     0
  9
$DIMFXL
 40
1.0
  9
$DIMFXLON
 70
     0
  9
$DIMJOGANG
 40
0.7853981633974483
  9
$DIMTFILL
 70
     0
  9
$DIMTFILLCLR
 70
     0
  9
$DIMARCSYM
 70
     0
  9
$DIMLTYPE
  6

  9
$DIMLTEX1
  6

  9
$DIMLTEX2
  6

  9
$LUNITS
 70
     2
  9
$LUPREC
 70
     0
  9
$SKETCHINC
 40
0.1
  9
$FILLETRAD
 40
0.0
  9
$AUNITS
 70
     0
  9
$AUPREC
 70
     0
  9
$MENU
  1
acad
  9
$ELEVATION
 40
0.0
  9
$PELEVATION
 40
0.0
  9
$THICKNESS
 40
0.0
  9
$LIMCHECK
 70
     0
  9
$CHAMFERA
 40
0.0
  9
$CHAMFERB
 40
0.0
  9
$CHAMFERC
 40
0.0
  9
$CHAMFERD
 40
0.0
  9
$SKPOLY
 70
     0
  9
$TDCREATE
 40
2447893.375
  9
$TDUCREATE
 40
0.0
  9
$TDUPDATE
 40
2458593.479138657
  9
$TDUUPDATE
 40
2458593.104138657
  9
$TDINDWG
 40
0.0004458449
  9
$TDUSRTIMER
 40
0.0003527778
  9
$USRTIMER
 70
     1
  9
$ANGBASE
 50
0.0
  9
$ANGDIR
 70
     0
  9
$PDMODE
 70
     1
  9
$PDSIZE
 40
-2.0
  9
$PLINEWID
 40
0.0
  9
$SPLFRAME
 70
     0
  9
$SPLINETYPE
 70
     6
  9
$SPLINESEGS
 70
     8
  9
$HANDSEED
  5
4372
  9
$SURFTAB1
 70
     6
  9
$SURFTAB2
 70
     6
  9
$SURFTYPE
 70
     6
  9
$SURFU
 70
     6
  9
$SURFV
 70
     6
  9
$UCSBASE
  2

  9
$UCSNAME
  2

  9
$UCSORG
 10
0.0
 20
0.0
 30
0.0
  9
$UCSXDIR
 10
1.0
 20
0.0
 30
0.0
  9
$UCSYDIR
 10
0.0
 20
1.0
 30
0.0
  9
$UCSORTHOREF
  2

  9
$UCSORTHOVIEW
 70
     1
  9
$UCSORGTOP
 10
0.0
 20
0.0
 30
0.0
  9
$UCSORGBOTTOM
 10
0.0
 20
0.0
 30
0.0
  9
$UCSORGLEFT
 10
0.0
 20
0.0
 30
0.0
  9
$UCSORGRIGHT
 10
0.0
 20
0.0
 30
0.0
  9
$UCSORGFRONT
 10
0.0
 20
0.0
 30
0.0
  9
$UCSORGBACK
 10
0.0
 20
0.0
 30
0.0
  9
$PUCSBASE
  2

  9
$PUCSNAME
  2

  9
$PUCSORG
 10
0.0
 20
0.0
 30
0.0
  9
$PUCSXDIR
 10
1.0
 20
0.0
 30
0.0
  9
$PUCSYDIR
 10
0.0
 20
1.0
 30
0.0
  9
$PUCSORTHOREF
  2

  9
$PUCSORTHOVIEW
 70
     0
  9
$PUCSORGTOP
 10
0.0
 20
0.0
 30
0.0
  9
$PUCSORGBOTTOM
 10
0.0
 20
0.0
 30
0.0
  9
$PUCSORGLEFT
 10
0.0
 20
0.0
 30
0.0
  9
$PUCSORGRIGHT
 10
0.0
 20
0.0
 30
0.0
  9
$PUCSORGFRONT
 10
0.0
 20
0.0
 30
0.0
  9
$PUCSORGBACK
 10
0.0
 20
0.0
 30
0.0
  9
$USERI1
 70
     0
  9
$USERI2
 70
     0
  9
$USERI3
 70
     0
  9
$USERI4
 70
     0
  9
$USERI5
 70
     0
  9
$USERR1
 40
0.0
  9
$USERR2
 40
0.0
  9
$USERR3
 40
0.0
  9
$USERR4
 40
0.0
  9
$USERR5
 40
0.0
  9
$WORLDVIEW
 70
     1
  9
$SHADEDGE
 70
     3
  9
$SHADEDIF
 70
    70
  9
$TILEMODE
 70
     1
  9
$MAXACTVP
 70
    64
  9
$PINSBASE
 10
0.0
 20
0.0
 30
0.0
  9
$PLIMCHECK
 70
     0
  9
$PEXTMIN
 10
0.0
 20
0.0
 30
0.0
  9
$PEXTMAX
 10
0.0
 20
0.0
 30
0.0
  9
$PLIMMIN
 10
-7.5
 20
-20.0
  9
$PLIMMAX
 10
412.5
 20
277.0
  9
$UNITMODE
 70
     0
  9
$VISRETAIN
 70
     0
  9
$PLINEGEN
 70
     1
  9
$PSLTSCALE
 70
     0
  9
$TREEDEPTH
 70
  3020
  9
$CMLSTYLE
  2
Standard
  9
$CMLJUST
 70
     0
  9
$CMLSCALE
 40
1.0
  9
$PROXYGRAPHICS
 70
     0
  9
$MEASUREMENT
 70
     1
  9
$CELWEIGHT
370
    -1
  9
$ENDCAPS
280
     0
  9
$JOINSTYLE
280
     0
  9
$LWDISPLAY
290
     1
  9
$INSUNITS
 70
     4
  9
$HYPERLINKBASE
  1

  9
$STYLESHEET
  1

  9
$XEDIT
290
     1
  9
$CEPSNTYPE
380
     0
  9
$PSTYLEMODE
290
     1
  9
$FINGERPRINTGUID
  2

  9
$VERSIONGUID
  2

  9
$EXTNAMES
290
     1
  9
$PSVPSCALE
 40
0.0
  9
$OLESTARTUP
290
     0
  9
$SORTENTS
280
   127
  9
$INDEXCTL
280
     0
  9
$HIDETEXT
280
     1
  9
$XCLIPFRAME
290
     0
  9
$HALOGAP
280
     0
  9
$OBSCOLOR
 70
   257
  9
$OBSLTYPE
280
     0
  9
$INTERSECTIONDISPLAY
280
     0
  9
$INTERSECTIONCOLOR
 70
   257
  9
$DIMASSOC
280
     2
  9
$PROJECTNAME
  1

  9
$CAMERADISPLAY
290
     0
  9
$LENSLENGTH
 40
50.0
  9
$CAMERAHEIGHT
 40
0.0
  9
$STEPSPERSEC
 40
2.0
  9
$STEPSIZE
 40
6.0
  9
$3DDWFPREC
 40
2.0
  9
$PSOLWIDTH
 40
0.25
  9
$PSOLHEIGHT
 40
4.0
  9
$LOFTANG1
 40
1.570796326794897
  9
$LOFTANG2
 40
1.570796326794897
  9
$LOFTMAG1
 40
0.0
  9
$LOFTMAG2
 40
0.0
  9
$LOFTPARAM
 70
     7
  9
$LOFTNORMALS
280
     1
  9
$LATITUDE
 40
37.795
  9
$LONGITUDE
 40
-122.394
  9
$NORTHDIRECTION
 40
0.0
  9
$TIMEZONE
 70
 -8000
  9
$LIGHTGLYPHDISPLAY
280
     1
  9
$TILEMODELIGHTSYNCH
280
     1
  9
$SOLIDHIST
280
     1
  9
$SHOWHIST
280
     1
  9
$DWFFRAME
280
     2
  9
$DGNFRAME
280
     2
  9
$REALWORLDSCALE
290
     1
  9
$INTERFERECOLOR
 62
   256
  9
$CSHADOW
280
     0
  9
$SHADOWPLANELOCATION
 40
0.0
  0
ENDSEC
  0
SECTION
  2
CLASSES
  0
CLASS
  1
LWPOLYLINE
  2
AcDbPolyline
  3
ObjectDBX Classes
 90
        0
 91
        1
280
     0
281
     1
  0
CLASS
  1
IMAGE
  2
AcDbRasterImage
  3
ISM
 90
      127
 91
       15
280
     0
281
     1
  0
CLASS
  1
OLE2FRAME
  2
AcDbOle2Frame
  3
ObjectDBX Classes
 90
        0
 91
        1
280
     0
281
     1
  0
CLASS
  1
HATCH
  2
AcDbHatch
  3
ObjectDBX Classes
 90
        0
 91
        1
280
     0
281
     1
  0
CLASS
  1
DICTIONARYVAR
  2
AcDbDictionaryVar
  3
ObjectDBX Classes
 90
        0
 91
       14
280
     0
281
     0
  0
CLASS
  1
RASTERVARIABLES
  2
AcDbRasterVariables
  3
ISM
 90
        0
 91
       14
280
     0
281
     0
  0
CLASS
  1
IMAGEDEF
  2
AcDbRasterImageDef
  3
ISM
 90
        0
 91
       14
280
     0
281
     0
  0
CLASS
  1
IMAGEDEF_REACTOR
  2
AcDbRasterImageDefReactor
  3
ISM
 90
        1
 91
       14
280
     0
281
     0
  0
CLASS
  1
IDBUFFER
  2
AcDbIdBuffer
  3
ObjectDBX Classes
 90
        0
 91
       14
280
     0
281
     0
  0
CLASS
  1
SPATIAL_FILTER
  2
AcDbSpatialFilter
  3
ObjectDBX Classes
 90
        0
 91
       14
280
     0
281
     0
  0
CLASS
  1
XRECORD
  2
AcDbXrecord
  3
ObjectDBX Classes
 90
        0
 91
        1
280
     0
281
     0
  0
CLASS
  1
SORTENTSTABLE
  2
AcDbSortentsTable
  3
ObjectDBX Classes
 90
        0
 91
       14
280
     0
281
     0
  0
CLASS
  1
LAYER_INDEX
  2
AcDbLayerIndex
  3
ObjectDBX Classes
 90
        0
 91
       14
280
     0
281
     0
  0
CLASS
  1
SPATIAL_INDEX
  2
AcDbSpatialIndex
  3
AutoCAD 2000
 90
        0
 91
       14
280
     0
281
     0
  0
CLASS
  1
OBJECT_PTR
  2
CAseDLPNTableRecord
  3
ASE-LPNTableRecord
 90
        1
 91
       14
280
     0
281
     0
  0
CLASS
  1
LAYOUT
  2
AcDbLayout
  3
ObjectDBX Classes
 90
        0
 91
        1
280
     0
281
     0
  0
CLASS
  1
PLOTSETTINGS
  2
AcDbPlotSettings
  3
ObjectDBX Classes
 90
        0
 91
       14
280
     0
281
     0
  0
CLASS
  1
ACDBDICTIONARYWDFLT
  2
AcDbDictionaryWithDefault
  3
ObjectDBX Classes
 90
        0
 91
       14
280
     0
281
     0
  0
CLASS
  1
ACDBPLACEHOLDER
  2
AcDbPlaceHolder
  3
ObjectDBX Classes
 90
        0
 91
        1
280
     0
281
     0
  0
CLASS
  1
SCALE
  2
AcDbScale
  3
ObjectDBX Classes
 90
     1153
 91
       14
280
     0
281
     0
  0
CLASS
  1
MATERIAL
  2
AcDbMaterial
  3
ObjectDBX Classes
 90
     1153
 91
       14
280
     0
281
     0
  0
CLASS
  1
VISUALSTYLE
  2
AcDbVisualStyle
  3
ObjectDBX Classes
 90
     4095
 91
       14
280
     0
281
     0
  0
CLASS
  1
TABLESTYLE
  2
AcDbTableStyle
  3
ObjectDBX Classes
 90
     4095
 91
       14
280
     0
281
     0
  0
CLASS
  1
DIMASSOC
  2
AcDbDimAssoc
  3
"AcDbDimAssoc|Product Desc:     AcDim ARX App For Dimension|Company:          Autodesk, Inc.|WEB Address:      www.autodesk.com"
 90
        0
 91
       14
280
     0
281
     0
  0
CLASS
  1
CELLSTYLEMAP
  2
AcDbCellStyleMap
  3
ObjectDBX Classes
 90
     1152
 91
       14
280
     0
281
     0
  0
CLASS
  1
SUN
  2
AcDbSun
  3
SCENEOE
 90
     1153
 91
       14
280
     0
281
     0
  0
CLASS
  1
MLEADERSTYLE
  2
AcDbMLeaderStyle
  3
ACDB_MLEADERSTYLE_CLASS
 90
     4095
 91
       14
280
     0
281
     0
  0
CLASS
  1
FIELD
  2
AcDbField
  3
ObjectDBX Classes
 90
     1152
 91
       14
280
     0
281
     0
  0
CLASS
  1
FIELDLIST
  2
AcDbFieldList
  3
ObjectDBX Classes
 90
     1152
 91
       14
280
     0
281
     0
  0
ENDSEC
  0
SECTION
  2
TABLES
  0
TABLE
  2
VPORT
  5
7
330
0
100
AcDbSymbolTable
 70
     1
  0
VPORT
  5
15
330
7
100
AcDbSymbolTableRecord
100
AcDbViewportTableRecord
  2
*ACTIVE
 70
     0
 10
0.0
 20
0.0
 11
1.0
 21
1.0
 12
297.0
 22
210.0
 13
0.0
 23
0.0
 14
1.0
 24
1.0
 15
0.0
 25
0.0
 16
0.0
 26
0.0
 36
1.0
 17
0.0
 27
0.0
 37
0.0
 40
428.4
 41
2.341176470588235
 42
50.0
 43
0.0
 44
0.0
 50
0.0
 51
0.0
 71
    16
 72
  2000
 73
     1
 74
     1
 75
     0
 76
     0
 77
     0
 78
     0
281
     0
 65
     0
110
0.0
120
0.0
130
0.0
111
1.0
121
0.0
131
0.0
112
0.0
122
1.0
132
0.0
 79
     0
146
0.0
348
26C
 60
     3
 61
     5
292
     1
282
     1
141
0.0
142
0.0
 63
   256
361
10E8
  0
ENDTAB
  0
TABLE
  2
LTYPE
  5
4
330
0
100
AcDbSymbolTable
 70
     3
  0
LTYPE
  5
11
330
4
100
AcDbSymbolTableRecord
100
AcDbLinetypeTableRecord
  2
ByBlock
 70
     0
  3

 72
    65
 73
     0
 40
0.0
  0
LTYPE
  5
12
330
4
100
AcDbSymbolTableRecord
100
AcDbLinetypeTableRecord
  2
ByLayer
 70
     0
  3
Solid line
 72
    65
 73
     0
 40
0.0
  0
LTYPE
  5
13
330
4
100
AcDbSymbolTableRecord
100
AcDbLinetypeTableRecord
  2
Continuous
 70
     0
  3
Solid line
 72
    65
 73
     0
 40
0.0
  0
LTYPE
  5
88D
330
4
100
AcDbSymbolTableRecord
100
AcDbLinetypeTableRecord
  2
CENTER
 70
     0
  3
----------  --  ----------  --  
 72
    65
 73
     4
 40
20.0
 49
12.5
 74
     0
 49
-2.5
 74
     0
 49
2.5
 74
     0
 49
-2.5
 74
     0
  0
LTYPE
  5
12C7
330
4
100
AcDbSymbolTableRecord
100
AcDbLinetypeTableRecord
  2
HIDDEN
 70
     0
  3
Hidden _ _ _ _ _ _ _ _ _ _ _ _ _ _ _ _ _ _ _ _ 
 72
    65
 73
     2
 40
9.524999999999999
 49
6.35
 74
     0
 49
-3.175
 74
     0
  0
ENDTAB
  0
TABLE
  2
LAYER
  5
2
102
{ACAD_XDICTIONARY
360
2E1
102
}
330
0
100
AcDbSymbolTable
 70
     9
  0
LAYER
  5
14
330
2
100
AcDbSymbolTableRecord
100
AcDbLayerTableRecord
  2
0
 70
     0
 62
     7
  6
Continuous
370
    -3
390
1D
347
266
  0
LAYER
  5
4A
330
2
100
AcDbSymbolTableRecord
100
AcDbLayerTableRecord
  2
Defpoints
 70
     0
 62
     7
  6
Continuous
290
     0
370
    -3
390
1D
347
266
  0
LAYER
  5
12CE
330
2
100
AcDbSymbolTableRecord
100
AcDbLayerTableRecord
  2
寸法
 70
     0
 62
     7
  6
Continuous
370
    13
390
1D
347
266
1001
AcAecLayerStandard
1000

1000

  0
LAYER
  5
12CF
330
2
100
AcDbSymbolTableRecord
100
AcDbLayerTableRecord
  2
モデル
 70
     0
 62
     7
  6
Continuous
370
    20
390
1D
347
266
1001
AcAecLayerStandard
1000

1000

  0
LAYER
  5
142A
330
2
100
AcDbSymbolTableRecord
100
AcDbLayerTableRecord
  2
テンプレート
 70
     0
 62
     7
  6
Continuous
370
    20
390
1D
347
266
1001
AcAecLayerStandard
1000

1000

  0
LAYER
  5
1D5C
330
2
100
AcDbSymbolTableRecord
100
AcDbLayerTableRecord
  2
TFORMLOGO
 70
     0
 62
     7
  6
Continuous
370
    20
390
1D
347
266
  0
LAYER
  5
3848
330
2
100
AcDbSymbolTableRecord
100
AcDbLayerTableRecord
  2
PRINT BORDER
 70
     0
 62
    -4
  6
Continuous
370
    -3
390
1D
347
266
1001
AcAecLayerStandard
1000

1000

  0
LAYER
  5
387B
330
2
100
AcDbSymbolTableRecord
100
AcDbLayerTableRecord
  2
レイヤー 2
 70
     0
 62
     7
  6
Continuous
370
    -3
390
1D
347
266
  0
LAYER
  5
3B70
330
2
100
AcDbSymbolTableRecord
100
AcDbLayerTableRecord
  2
Laag 1
 70
     0
 62
     7
  6
Continuous
370
    -3
390
1D
347
266
  0
ENDTAB
  0
TABLE
  2
STYLE
  5
3
330
0
100
AcDbSymbolTable
 70
     2
  0
STYLE
  5
17
330
3
100
AcDbSymbolTableRecord
100
AcDbTextStyleTableRecord
  2
Standard
 70
     0
 40
0.0
 41
1.0
 50
0.0
 71
     0
 42
2.5
  3
txt
  4
BIGFONT.SHX
  0
STYLE
  5
39
330
3
100
AcDbSymbolTableRecord
100
AcDbTextStyleTableRecord
  2
ＭＳ ゴシック
 70
     0
 40
0.0
 41
1.0
 50
0.0
 71
     0
 42
136.139079520063
  3
msgothic.ttc
  4
ＭＳ ゴシック
1001
ACAD
1000
ＭＳ ゴシック
1071
        0
  0
ENDTAB
  0
TABLE
  2
VIEW
  5
5
330
0
100
AcDbSymbolTable
 70
     0
  0
ENDTAB
  0
TABLE
  2
UCS
  5
6
330
0
100
AcDbSymbolTable
 70
     0
  0
ENDTAB
  0
TABLE
  2
APPID
  5
8
330
0
100
AcDbSymbolTable
 70
     3
  0
APPID
  5
16
330
8
100
AcDbSymbolTableRecord
100
AcDbRegAppTableRecord
  2
ACAD
 70
     0
  0
APPID
  5
7AC
330
8
100
AcDbSymbolTableRecord
100
AcDbRegAppTableRecord
  2
AcAecLayerStandard
 70
     0
  0
APPID
  5
42EF
330
8
100
AcDbSymbolTableRecord
100
AcDbRegAppTableRecord
  2
ACAD_MLEADERVER
 70
     0
  0
ENDTAB
  0
TABLE
  2
DIMSTYLE
  5
9
330
0
100
AcDbSymbolTable
 70
     2
100
AcDbDimStyleTable
  0
DIMSTYLE
105
18
330
9
100
AcDbSymbolTableRecord
100
AcDbDimStyleTableRecord
  2
Standard
 70
     0
178
     0
340
17
  0
DIMSTYLE
105
57
102
{ACAD_REACTORS
330
414E
330
4151
330
4154
330
4157
330
415B
330
424C
102
}
330
9
100
AcDbSymbolTableRecord
100
AcDbDimStyleTableRecord
  2
tfrom線あり
 70
     0
  3
<>
  4
[]
 41
2.0
 42
5.0
 43
0.9999999999999999
 44
0.0
 73
     0
 74
     0
 77
     1
 78
    11
140
5.0
141
0.0
143
1.0
147
5.0
171
     1
174
     1
178
     0
179
     2
271
     0
272
     1
276
     2
284
    11
285
    11
286
    11
289
     0
340
39
341
4E
342
4E
  0
ENDTAB
  0
TABLE
  2
BLOCK_RECORD
  5
1
330
0
100
AcDbSymbolTable
 70
    90
  0
BLOCK_RECORD
  5
A
330
1
100
AcDbSymbolTableRecord
100
AcDbBlockTableRecord
  2
*MODEL_SPACE
340
20
 70
     0
280
     1
281
     0
  0
BLOCK_RECORD
  5
B
330
1
100
AcDbSymbolTableRecord
100
AcDbBlockTableRecord
  2
*PAPER_SPACE
340
21
 70
     0
280
     1
281
     0
  0
BLOCK_RECORD
  5
4E
330
1
100
AcDbSymbolTableRecord
100
AcDbBlockTableRecord
  2
_DOT
340
0
102
{BLKREFS
331
37E4
331
37E5
331
37F0
331
37F1
331
37FC
331
37FD
331
3808
331
3809
331
3814
331
3815
331
3820
331
3821
331
382C
331
382D
331
3838
331
3839
331
3964
331
3965
331
3973
331
3974
331
3982
331
3983
331
3991
331
3992
331
399E
331
399F
331
39AD
331
39AE
331
39BC
331
39BD
331
39CB
331
39CC
331
39E7
331
39E8
331
39F6
331
39F7
331
3AE6
331
3AE7
331
3AF2
331
3AF3
331
3AFE
331
3AFF
331
3B0A
331
3B0B
331
3B16
331
3B17
331
3B22
331
3B23
331
3B2E
331
3B2F
331
3B3A
331
3B3B
331
3B46
331
3B47
331
3B52
331
3B53
331
3BD0
331
3BD1
331
3BDF
331
3BE0
331
3BEE
331
3BEF
331
3BFD
331
3BFE
331
3C0C
331
3C0D
331
3C19
331
3C1A
331
3C26
331
3C27
331
3C46
331
3C47
331
3CA9
331
3CAA
331
3CB5
331
3CB6
331
3CC1
331
3CC2
331
3CCD
331
3CCE
331
3CD9
331
3CDA
331
3CE5
331
3CE6
331
3CF1
331
3CF2
331
3CFD
331
3CFE
331
3DAD
331
3DAE
331
3DBC
331
3DBD
331
3DCB
331
3DCC
331
3DDA
331
3DDB
331
3DE9
331
3DEA
331
3DF6
331
3DF7
331
3E94
331
3E95
331
3EA0
331
3EA1
331
3EAC
331
3EAD
331
3EB8
331
3EB9
331
3EC4
331
3EC5
331
3ED0
331
3ED1
331
3F6B
331
3F6C
331
3F78
331
3F79
331
3F85
331
3F86
331
3F93
331
3F94
331
3F9F
331
3FA0
331
3FAC
331
3FAD
331
3FD2
331
3FD3
331
4049
331
404A
331
4055
331
4056
331
4061
331
4062
331
406C
331
406D
331
4077
331
4078
331
4083
331
4084
331
408F
331
4090
331
40F5
331
40F6
331
4104
331
4105
331
4113
331
4114
331
4120
331
4121
331
4132
331
4133
331
4165
331
4166
331
4171
331
4172
331
417D
331
417E
331
4189
331
418A
331
4195
331
4196
331
4255
331
4256
102
}
 70
     0
280
     1
281
     0
  0
BLOCK_RECORD
  5
12C3
330
1
100
AcDbSymbolTableRecord
100
AcDbBlockTableRecord
  2
*Paper_Space1
340
12C4
 70
     0
280
     1
281
     0
  0
BLOCK_RECORD
  5
1D88
330
1
100
AcDbSymbolTableRecord
100
AcDbBlockTableRecord
  2
名称未設定-1
340
0
102
{BLKREFS
331
36E3
102
}
 70
     1
280
     1
281
     0
  0
BLOCK_RECORD
  5
1D8B
330
1
100
AcDbSymbolTableRecord
100
AcDbBlockTableRecord
  2
block 2
340
0
102
{BLKREFS
331
1D8A
102
}
 70
     0
280
     1
281
     0
  0
BLOCK_RECORD
  5
1D8E
330
1
100
AcDbSymbolTableRecord
100
AcDbBlockTableRecord
  2
block 3
340
0
102
{BLKREFS
331
1D8D
102
}
 70
     0
280
     1
281
     0
  0
BLOCK_RECORD
  5
1D91
330
1
100
AcDbSymbolTableRecord
100
AcDbBlockTableRecord
  2
block 4
340
0
102
{BLKREFS
331
1D90
102
}
 70
     0
280
     1
281
     0
  0
BLOCK_RECORD
  5
1DA0
330
1
100
AcDbSymbolTableRecord
100
AcDbBlockTableRecord
  2
block 5
340
0
102
{BLKREFS
331
1D9F
102
}
 70
     0
280
     1
281
     0
  0
BLOCK_RECORD
  5
37DF
330
1
100
AcDbSymbolTableRecord
100
AcDbBlockTableRecord
  2
*D7
340
0
 70
     0
280
     1
281
     0
  0
BLOCK_RECORD
  5
37EA
330
1
100
AcDbSymbolTableRecord
100
AcDbBlockTableRecord
  2
*D8
340
0
 70
     0
280
     1
281
     0
  0
BLOCK_RECORD
  5
37F6
330
1
100
AcDbSymbolTableRecord
100
AcDbBlockTableRecord
  2
*D9
340
0
 70
     0
280
     1
281
     0
  0
BLOCK_RECORD
  5
3802
330
1
100
AcDbSymbolTableRecord
100
AcDbBlockTableRecord
  2
*D10
340
0
 70
     0
280
     1
281
     0
  0
BLOCK_RECORD
  5
380E
330
1
100
AcDbSymbolTableRecord
100
AcDbBlockTableRecord
  2
*D11
340
0
 70
     0
280
     1
281
     0
  0
BLOCK_RECORD
  5
381A
330
1
100
AcDbSymbolTableRecord
100
AcDbBlockTableRecord
  2
*D12
340
0
 70
     0
280
     1
281
     0
  0
BLOCK_RECORD
  5
3826
330
1
100
AcDbSymbolTableRecord
100
AcDbBlockTableRecord
  2
*D13
340
0
 70
     0
280
     1
281
     0
  0
BLOCK_RECORD
  5
3832
330
1
100
AcDbSymbolTableRecord
100
AcDbBlockTableRecord
  2
*D14
340
0
 70
     0
280
     1
281
     0
  0
BLOCK_RECORD
  5
395F
330
1
100
AcDbSymbolTableRecord
100
AcDbBlockTableRecord
  2
*D15
340
0
 70
     0
280
     1
281
     0
  0
BLOCK_RECORD
  5
396E
330
1
100
AcDbSymbolTableRecord
100
AcDbBlockTableRecord
  2
*D16
340
0
 70
     0
280
     1
281
     0
  0
BLOCK_RECORD
  5
397D
330
1
100
AcDbSymbolTableRecord
100
AcDbBlockTableRecord
  2
*D17
340
0
 70
     0
280
     1
281
     0
  0
BLOCK_RECORD
  5
398C
330
1
100
AcDbSymbolTableRecord
100
AcDbBlockTableRecord
  2
*D18
340
0
 70
     0
280
     1
281
     0
  0
BLOCK_RECORD
  5
3999
330
1
100
AcDbSymbolTableRecord
100
AcDbBlockTableRecord
  2
*D19
340
0
 70
     0
280
     1
281
     0
  0
BLOCK_RECORD
  5
39A8
330
1
100
AcDbSymbolTableRecord
100
AcDbBlockTableRecord
  2
*D20
340
0
 70
     0
280
     1
281
     0
  0
BLOCK_RECORD
  5
39B7
330
1
100
AcDbSymbolTableRecord
100
AcDbBlockTableRecord
  2
*D21
340
0
 70
     0
280
     1
281
     0
  0
BLOCK_RECORD
  5
39C6
330
1
100
AcDbSymbolTableRecord
100
AcDbBlockTableRecord
  2
*D22
340
0
 70
     0
280
     1
281
     0
  0
BLOCK_RECORD
  5
39E2
330
1
100
AcDbSymbolTableRecord
100
AcDbBlockTableRecord
  2
*D23
340
0
 70
     0
280
     1
281
     0
  0
BLOCK_RECORD
  5
39F1
330
1
100
AcDbSymbolTableRecord
100
AcDbBlockTableRecord
  2
*D24
340
0
 70
     0
280
     1
281
     0
  0
BLOCK_RECORD
  5
3AE0
330
1
100
AcDbSymbolTableRecord
100
AcDbBlockTableRecord
  2
*D25
340
0
 70
     0
280
     1
281
     0
  0
BLOCK_RECORD
  5
3AEC
330
1
100
AcDbSymbolTableRecord
100
AcDbBlockTableRecord
  2
*D26
340
0
 70
     0
280
     1
281
     0
  0
BLOCK_RECORD
  5
3AF8
330
1
100
AcDbSymbolTableRecord
100
AcDbBlockTableRecord
  2
*D27
340
0
 70
     0
280
     1
281
     0
  0
BLOCK_RECORD
  5
3B04
330
1
100
AcDbSymbolTableRecord
100
AcDbBlockTableRecord
  2
*D28
340
0
 70
     0
280
     1
281
     0
  0
BLOCK_RECORD
  5
3B10
330
1
100
AcDbSymbolTableRecord
100
AcDbBlockTableRecord
  2
*D29
340
0
 70
     0
280
     1
281
     0
  0
BLOCK_RECORD
  5
3B1C
330
1
100
AcDbSymbolTableRecord
100
AcDbBlockTableRecord
  2
*D30
340
0
 70
     0
280
     1
281
     0
  0
BLOCK_RECORD
  5
3B28
330
1
100
AcDbSymbolTableRecord
100
AcDbBlockTableRecord
  2
*D31
340
0
 70
     0
280
     1
281
     0
  0
BLOCK_RECORD
  5
3B34
330
1
100
AcDbSymbolTableRecord
100
AcDbBlockTableRecord
  2
*D32
340
0
 70
     0
280
     1
281
     0
  0
BLOCK_RECORD
  5
3B40
330
1
100
AcDbSymbolTableRecord
100
AcDbBlockTableRecord
  2
*D33
340
0
 70
     0
280
     1
281
     0
  0
BLOCK_RECORD
  5
3B4C
330
1
100
AcDbSymbolTableRecord
100
AcDbBlockTableRecord
  2
*D34
340
0
 70
     0
280
     1
281
     0
  0
BLOCK_RECORD
  5
3BCB
330
1
100
AcDbSymbolTableRecord
100
AcDbBlockTableRecord
  2
*D35
340
0
 70
     0
280
     1
281
     0
  0
BLOCK_RECORD
  5
3BDA
330
1
100
AcDbSymbolTableRecord
100
AcDbBlockTableRecord
  2
*D36
340
0
 70
     0
280
     1
281
     0
  0
BLOCK_RECORD
  5
3BE9
330
1
100
AcDbSymbolTableRecord
100
AcDbBlockTableRecord
  2
*D37
340
0
 70
     0
280
     1
281
     0
  0
BLOCK_RECORD
  5
3BF8
330
1
100
AcDbSymbolTableRecord
100
AcDbBlockTableRecord
  2
*D38
340
0
 70
     0
280
     1
281
     0
  0
BLOCK_RECORD
  5
3C07
330
1
100
AcDbSymbolTableRecord
100
AcDbBlockTableRecord
  2
*D39
340
0
 70
     0
280
     1
281
     0
  0
BLOCK_RECORD
  5
3C14
330
1
100
AcDbSymbolTableRecord
100
AcDbBlockTableRecord
  2
*D40
340
0
 70
     0
280
     1
281
     0
  0
BLOCK_RECORD
  5
3C21
330
1
100
AcDbSymbolTableRecord
100
AcDbBlockTableRecord
  2
*D41
340
0
 70
     0
280
     1
281
     0
  0
BLOCK_RECORD
  5
3C41
330
1
100
AcDbSymbolTableRecord
100
AcDbBlockTableRecord
  2
*D42
340
0
 70
     0
280
     1
281
     0
  0
BLOCK_RECORD
  5
3CA3
330
1
100
AcDbSymbolTableRecord
100
AcDbBlockTableRecord
  2
*D43
340
0
 70
     0
280
     1
281
     0
  0
BLOCK_RECORD
  5
3CAF
330
1
100
AcDbSymbolTableRecord
100
AcDbBlockTableRecord
  2
*D44
340
0
 70
     0
280
     1
281
     0
  0
BLOCK_RECORD
  5
3CBB
330
1
100
AcDbSymbolTableRecord
100
AcDbBlockTableRecord
  2
*D45
340
0
 70
     0
280
     1
281
     0
  0
BLOCK_RECORD
  5
3CC7
330
1
100
AcDbSymbolTableRecord
100
AcDbBlockTableRecord
  2
*D46
340
0
 70
     0
280
     1
281
     0
  0
BLOCK_RECORD
  5
3CD3
330
1
100
AcDbSymbolTableRecord
100
AcDbBlockTableRecord
  2
*D47
340
0
 70
     0
280
     1
281
     0
  0
BLOCK_RECORD
  5
3CDF
330
1
100
AcDbSymbolTableRecord
100
AcDbBlockTableRecord
  2
*D48
340
0
 70
     0
280
     1
281
     0
  0
BLOCK_RECORD
  5
3CEB
330
1
100
AcDbSymbolTableRecord
100
AcDbBlockTableRecord
  2
*D49
340
0
 70
     0
280
     1
281
     0
  0
BLOCK_RECORD
  5
3CF7
330
1
100
AcDbSymbolTableRecord
100
AcDbBlockTableRecord
  2
*D50
340
0
 70
     0
280
     1
281
     0
  0
BLOCK_RECORD
  5
3DA8
330
1
100
AcDbSymbolTableRecord
100
AcDbBlockTableRecord
  2
*D51
340
0
 70
     0
280
     1
281
     0
  0
BLOCK_RECORD
  5
3DB7
330
1
100
AcDbSymbolTableRecord
100
AcDbBlockTableRecord
  2
*D52
340
0
 70
     0
280
     1
281
     0
  0
BLOCK_RECORD
  5
3DC6
330
1
100
AcDbSymbolTableRecord
100
AcDbBlockTableRecord
  2
*D53
340
0
 70
     0
280
     1
281
     0
  0
BLOCK_RECORD
  5
3DD5
330
1
100
AcDbSymbolTableRecord
100
AcDbBlockTableRecord
  2
*D54
340
0
 70
     0
280
     1
281
     0
  0
BLOCK_RECORD
  5
3DE4
330
1
100
AcDbSymbolTableRecord
100
AcDbBlockTableRecord
  2
*D55
340
0
 70
     0
280
     1
281
     0
  0
BLOCK_RECORD
  5
3DF1
330
1
100
AcDbSymbolTableRecord
100
AcDbBlockTableRecord
  2
*D56
340
0
 70
     0
280
     1
281
     0
  0
BLOCK_RECORD
  5
3E8E
330
1
100
AcDbSymbolTableRecord
100
AcDbBlockTableRecord
  2
*D57
340
0
 70
     0
280
     1
281
     0
  0
BLOCK_RECORD
  5
3E9A
330
1
100
AcDbSymbolTableRecord
100
AcDbBlockTableRecord
  2
*D58
340
0
 70
     0
280
     1
281
     0
  0
BLOCK_RECORD
  5
3EA6
330
1
100
AcDbSymbolTableRecord
100
AcDbBlockTableRecord
  2
*D59
340
0
 70
     0
280
     1
281
     0
  0
BLOCK_RECORD
  5
3EB2
330
1
100
AcDbSymbolTableRecord
100
AcDbBlockTableRecord
  2
*D60
340
0
 70
     0
280
     1
281
     0
  0
BLOCK_RECORD
  5
3EBE
330
1
100
AcDbSymbolTableRecord
100
AcDbBlockTableRecord
  2
*D61
340
0
 70
     0
280
     1
281
     0
  0
BLOCK_RECORD
  5
3ECA
330
1
100
AcDbSymbolTableRecord
100
AcDbBlockTableRecord
  2
*D62
340
0
 70
     0
280
     1
281
     0
  0
BLOCK_RECORD
  5
3F66
330
1
100
AcDbSymbolTableRecord
100
AcDbBlockTableRecord
  2
*D63
340
0
 70
     0
280
     1
281
     0
  0
BLOCK_RECORD
  5
3F73
330
1
100
AcDbSymbolTableRecord
100
AcDbBlockTableRecord
  2
*D64
340
0
 70
     0
280
     1
281
     0
  0
BLOCK_RECORD
  5
3F80
330
1
100
AcDbSymbolTableRecord
100
AcDbBlockTableRecord
  2
*D65
340
0
 70
     0
280
     1
281
     0
  0
BLOCK_RECORD
  5
3F8F
330
1
100
AcDbSymbolTableRecord
100
AcDbBlockTableRecord
  2
*D66
340
0
 70
     0
280
     1
281
     0
  0
BLOCK_RECORD
  5
3F9B
330
1
100
AcDbSymbolTableRecord
100
AcDbBlockTableRecord
  2
*D67
340
0
 70
     0
280
     1
281
     0
  0
BLOCK_RECORD
  5
3FA7
330
1
100
AcDbSymbolTableRecord
100
AcDbBlockTableRecord
  2
*D68
340
0
 70
     0
280
     1
281
     0
  0
BLOCK_RECORD
  5
3FCD
330
1
100
AcDbSymbolTableRecord
100
AcDbBlockTableRecord
  2
*D69
340
0
 70
     0
280
     1
281
     0
  0
BLOCK_RECORD
  5
4043
330
1
100
AcDbSymbolTableRecord
100
AcDbBlockTableRecord
  2
*D70
340
0
 70
     0
280
     1
281
     0
  0
BLOCK_RECORD
  5
404F
330
1
100
AcDbSymbolTableRecord
100
AcDbBlockTableRecord
  2
*D71
340
0
 70
     0
280
     1
281
     0
  0
BLOCK_RECORD
  5
405B
330
1
100
AcDbSymbolTableRecord
100
AcDbBlockTableRecord
  2
*D72
340
0
 70
     0
280
     1
281
     0
  0
BLOCK_RECORD
  5
4067
330
1
100
AcDbSymbolTableRecord
100
AcDbBlockTableRecord
  2
*D73
340
0
 70
     0
280
     1
281
     0
  0
BLOCK_RECORD
  5
4072
330
1
100
AcDbSymbolTableRecord
100
AcDbBlockTableRecord
  2
*D74
340
0
 70
     0
280
     1
281
     0
  0
BLOCK_RECORD
  5
407D
330
1
100
AcDbSymbolTableRecord
100
AcDbBlockTableRecord
  2
*D75
340
0
 70
     0
280
     1
281
     0
  0
BLOCK_RECORD
  5
4089
330
1
100
AcDbSymbolTableRecord
100
AcDbBlockTableRecord
  2
*D76
340
0
 70
     0
280
     1
281
     0
  0
BLOCK_RECORD
  5
40F0
330
1
100
AcDbSymbolTableRecord
100
AcDbBlockTableRecord
  2
*D77
340
0
 70
     0
280
     1
281
     0
  0
BLOCK_RECORD
  5
40FF
330
1
100
AcDbSymbolTableRecord
100
AcDbBlockTableRecord
  2
*D78
340
0
 70
     0
280
     1
281
     0
  0
BLOCK_RECORD
  5
410E
330
1
100
AcDbSymbolTableRecord
100
AcDbBlockTableRecord
  2
*D79
340
0
 70
     0
280
     1
281
     0
  0
BLOCK_RECORD
  5
411B
330
1
100
AcDbSymbolTableRecord
100
AcDbBlockTableRecord
  2
*D80
340
0
 70
     0
280
     1
281
     0
  0
BLOCK_RECORD
  5
412D
330
1
100
AcDbSymbolTableRecord
100
AcDbBlockTableRecord
  2
*D81
340
0
 70
     0
280
     1
281
     0
  0
BLOCK_RECORD
  5
415F
330
1
100
AcDbSymbolTableRecord
100
AcDbBlockTableRecord
  2
*D82
340
0
 70
     0
280
     1
281
     0
  0
BLOCK_RECORD
  5
416B
330
1
100
AcDbSymbolTableRecord
100
AcDbBlockTableRecord
  2
*D83
340
0
 70
     0
280
     1
281
     0
  0
BLOCK_RECORD
  5
4177
330
1
100
AcDbSymbolTableRecord
100
AcDbBlockTableRecord
  2
*D84
340
0
 70
     0
280
     1
281
     0
  0
BLOCK_RECORD
  5
4183
330
1
100
AcDbSymbolTableRecord
100
AcDbBlockTableRecord
  2
*D85
340
0
 70
     0
280
     1
281
     0
  0
BLOCK_RECORD
  5
418F
330
1
100
AcDbSymbolTableRecord
100
AcDbBlockTableRecord
  2
*D86
340
0
 70
     0
280
     1
281
     0
  0
BLOCK_RECORD
  5
424F
330
1
100
AcDbSymbolTableRecord
100
AcDbBlockTableRecord
  2
*D87
340
0
 70
     0
280
     1
281
     0
  0
ENDTAB
  0
ENDSEC
  0
SECTION
  2
BLOCKS
  0
BLOCK
  5
D
330
A
100
AcDbEntity
  8
0
390
1D
100
AcDbBlockBegin
  2
*MODEL_SPACE
 70
     0
 10
0.0
 20
0.0
 30
0.0
  3
*MODEL_SPACE
  1
*MODEL_SPACE
  0
ENDBLK
  5
E
330
A
100
AcDbEntity
  8
0
390
1D
100
AcDbBlockEnd
  0
BLOCK
  5
F
330
B
100
AcDbEntity
 67
     1
  8
0
390
1D
100
AcDbBlockBegin
  2
*PAPER_SPACE
 70
     0
 10
0.0
 20
0.0
 30
0.0
  3
*PAPER_SPACE
  1
*PAPER_SPACE
  0
ENDBLK
  5
10
330
B
100
AcDbEntity
 67
     1
  8
0
390
1D
100
AcDbBlockEnd
  0
BLOCK
  5
1066
330
4E
100
AcDbEntity
  8
0
390
1D
100
AcDbBlockBegin
  2
_DOT
 70
     0
 10
0.0
 20
0.0
 30
0.0
  3
_DOT
  1
_DOT
  0
POLYLINE
  5
1068
330
4E
100
AcDbEntity
  8
0
  6
ByBlock
 62
     0
370
    -2
390
1D
100
AcDb2dPolyline
 66
     1
 10
0.0
 20
0.0
 30
0.0
 70
     1
 40
0.5
 41
0.5
  0
VERTEX
  5
1069
330
1068
100
AcDbEntity
  8
0
  6
ByBlock
 62
     0
370
    -2
390
1D
100
AcDbVertex
100
AcDb2dVertex
 10
-0.25
 20
0.0
 30
0.0
 42
1.0
  0
VERTEX
  5
106A
330
1068
100
AcDbEntity
  8
0
  6
ByBlock
 62
     0
370
    -2
390
1D
100
AcDbVertex
100
AcDb2dVertex
 10
0.25
 20
0.0
 30
0.0
 42
1.0
  0
SEQEND
  5
106B
330
1068
100
AcDbEntity
  8
0
390
1D
  0
LINE
  5
106C
330
4E
100
AcDbEntity
  8
0
  6
ByBlock
 62
     0
370
    -2
390
1D
100
AcDbLine
 10
-0.5
 20
0.0
 30
0.0
 11
-1.0
 21
0.0
 31
0.0
  0
ENDBLK
  5
106D
330
4E
100
AcDbEntity
  8
0
390
1D
100
AcDbBlockEnd
  0
BLOCK
  5
12C5
330
12C3
100
AcDbEntity
  8
0
100
AcDbBlockBegin
  2
*Paper_Space1
 70
     0
 10
0.0
 20
0.0
 30
0.0
  3
*Paper_Space1
  1
*Paper_Space83
  0
ENDBLK
  5
12C6
330
12C3
100
AcDbEntity
  8
0
100
AcDbBlockEnd
  0
BLOCK
  5
1D89
330
1D88
100
AcDbEntity
  8
0
100
AcDbBlockBegin
  2
名称未設定-1
 70
     0
 10
0.0
 20
0.0
 30
0.0
  3
名称未設定-1
  1
名称未設定-1
  0
INSERT
  5
1D8A
330
1D88
100
AcDbEntity
  8
TFORMLOGO
100
AcDbBlockReference
  2
block 2
 10
0.0
 20
0.0
 30
0.0
  0
ENDBLK
  5
1DAF
330
1D88
100
AcDbEntity
  8
0
100
AcDbBlockEnd
  0
BLOCK
  5
1D8C
330
1D8B
100
AcDbEntity
  8
0
100
AcDbBlockBegin
  2
block 2
 70
     0
 10
0.0
 20
0.0
 30
0.0
  3
block 2
  1
block 2
  0
INSERT
  5
1D8D
330
1D8B
100
AcDbEntity
  8
TFORMLOGO
100
AcDbBlockReference
  2
block 3
 10
0.0
 20
0.0
 30
0.0
  0
ENDBLK
  5
1DAE
330
1D8B
100
AcDbEntity
  8
0
100
AcDbBlockEnd
  0
BLOCK
  5
1D8F
330
1D8E
100
AcDbEntity
  8
0
100
AcDbBlockBegin
  2
block 3
 70
     0
 10
0.0
 20
0.0
 30
0.0
  3
block 3
  1
block 3
  0
INSERT
  5
1D90
330
1D8E
100
AcDbEntity
  8
TFORMLOGO
100
AcDbBlockReference
  2
block 4
 10
0.0
 20
0.0
 30
0.0
  0
ENDBLK
  5
1DAD
330
1D8E
100
AcDbEntity
  8
0
100
AcDbBlockEnd
  0
BLOCK
  5
1D92
330
1D91
100
AcDbEntity
  8
0
100
AcDbBlockBegin
  2
block 4
 70
     0
 10
0.0
 20
0.0
 30
0.0
  3
block 4
  1
block 4
  0
POLYLINE
  5
1D93
330
1D91
100
AcDbEntity
  8
TFORMLOGO
370
     0
100
AcDb2dPolyline
 66
     1
 10
0.0
 20
0.0
 30
0.0
  0
VERTEX
  5
1D94
330
1D93
100
AcDbEntity
  8
TFORMLOGO
370
     0
100
AcDbVertex
100
AcDb2dVertex
 10
83.79545727667795
 20
167.6444858234922
 30
0.0
  0
VERTEX
  5
1D95
330
1D93
100
AcDbEntity
  8
TFORMLOGO
370
     0
100
AcDbVertex
100
AcDb2dVertex
 10
83.79545727667795
 20
159.7968976406313
 30
0.0
  0
VERTEX
  5
1D96
330
1D93
100
AcDbEntity
  8
TFORMLOGO
370
     0
100
AcDbVertex
100
AcDb2dVertex
 10
71.3631329975216
 20
159.7968976406313
 30
0.0
  0
VERTEX
  5
1D97
330
1D93
100
AcDbEntity
  8
TFORMLOGO
370
     0
100
AcDbVertex
100
AcDb2dVertex
 10
71.3631329975216
 20
127.8027915271048
 30
0.0
  0
VERTEX
  5
1D98
330
1D93
100
AcDbEntity
  8
TFORMLOGO
370
     0
100
AcDbVertex
100
AcDb2dVertex
 10
60.43011526263018
 20
127.8027915271048
 30
0.0
  0
VERTEX
  5
1D99
330
1D93
100
AcDbEntity
  8
TFORMLOGO
370
     0
100
AcDbVertex
100
AcDb2dVertex
 10
60.43011526263018
 20
159.7968976406313
 30
0.0
  0
VERTEX
  5
1D9A
330
1D93
100
AcDbEntity
  8
TFORMLOGO
370
     0
100
AcDbVertex
100
AcDb2dVertex
 10
48.21793273020759
 20
159.7968976406313
 30
0.0
  0
VERTEX
  5
1D9B
330
1D93
100
AcDbEntity
  8
TFORMLOGO
370
     0
100
AcDbVertex
100
AcDb2dVertex
 10
48.21793273020759
 20
167.6444858234922
 30
0.0
  0
VERTEX
  5
1D9C
330
1D93
100
AcDbEntity
  8
TFORMLOGO
370
     0
100
AcDbVertex
100
AcDb2dVertex
 10
83.79545727667795
 20
167.6444858234922
 30
0.0
  0
SEQEND
  5
1D9D
330
1D93
100
AcDbEntity
  8
TFORMLOGO
370
     0
  0
HATCH
  5
1D9E
330
1D91
100
AcDbEntity
  8
TFORMLOGO
 62
   250
420
  2234388
100
AcDbHatch
 10
0.0
 20
0.0
 30
0.0
210
0.0
220
0.0
230
1.0
  2
SOLID
 70
     1
 71
     0
 91
        1
 92
        1
 93
        8
 72
     1
 10
83.79545727667795
 20
167.6444858234922
 11
83.79545727667795
 21
159.7968976406313
 72
     1
 10
83.79545727667795
 20
159.7968976406313
 11
71.3631329975216
 21
159.7968976406313
 72
     1
 10
71.3631329975216
 20
159.7968976406313
 11
71.3631329975216
 21
127.8027915271048
 72
     1
 10
71.3631329975216
 20
127.8027915271048
 11
60.43011526263018
 21
127.8027915271048
 72
     1
 10
60.43011526263018
 20
127.8027915271048
 11
60.43011526263018
 21
159.7968976406313
 72
     1
 10
60.43011526263018
 20
159.7968976406313
 11
48.21793273020759
 21
159.7968976406313
 72
     1
 10
48.21793273020759
 20
159.7968976406313
 11
48.21793273020759
 21
167.6444858234922
 72
     1
 10
48.21793273020759
 20
167.6444858234922
 11
83.79545727667795
 21
167.6444858234922
 97
        0
 75
     2
 76
     1
 98
        0
  0
INSERT
  5
1D9F
330
1D91
100
AcDbEntity
  8
TFORMLOGO
100
AcDbBlockReference
  2
block 5
 10
0.0
 20
0.0
 30
0.0
  0
ENDBLK
  5
1DAC
330
1D91
100
AcDbEntity
  8
0
100
AcDbBlockEnd
  0
BLOCK
  5
1DA1
330
1DA0
100
AcDbEntity
  8
0
100
AcDbBlockBegin
  2
block 5
 70
     0
 10
0.0
 20
0.0
 30
0.0
  3
block 5
  1
block 5
  0
SPLINE
  5
1DA2
330
1DA0
100
AcDbEntity
  8
TFORMLOGO
370
     0
100
AcDbSpline
210
0.0
220
0.0
230
1.0
 70
    11
 71
     3
 72
    56
 73
    52
 74
     0
 42
0.000000001
 43
0.0000000001
 40
0.0
 40
0.0
 40
0.0
 40
0.0
 40
1.0
 40
1.0
 40
1.0
 40
2.0
 40
2.0
 40
2.0
 40
3.0
 40
3.0
 40
3.0
 40
4.0
 40
4.0
 40
4.0
 40
5.0
 40
5.0
 40
5.0
 40
6.0
 40
6.0
 40
6.0
 40
7.0
 40
7.0
 40
7.0
 40
8.0
 40
8.0
 40
8.0
 40
9.0
 40
9.0
 40
9.0
 40
10.0
 40
10.0
 40
10.0
 40
11.0
 40
11.0
 40
11.0
 40
12.0
 40
12.0
 40
12.0
 40
13.0
 40
13.0
 40
13.0
 40
14.0
 40
14.0
 40
14.0
 40
15.0
 40
15.0
 40
15.0
 40
16.0
 40
16.0
 40
16.0
 40
17.0
 40
17.0
 40
17.0
 40
17.0
 10
100.4504378777679
 20
166.69157178364
 30
0.0
 10
101.9848844191641
 20
167.1313385124438
 30
0.0
 10
103.9637485713373
 20
166.7649523658846
 30
0.0
 10
103.9637485713373
 20
166.7649523658846
 30
0.0
 10
103.9637485713373
 20
166.7649523658846
 30
0.0
 10
103.0132460999156
 20
163.911205638077
 30
0.0
 10
103.0132460999156
 20
163.911205638077
 30
0.0
 10
103.0132460999156
 20
163.911205638077
 30
0.0
 10
101.0674548862189
 20
164.3601018759394
 30
0.0
 10
99.57090442016032
 20
163.1805004036133
 30
0.0
 10
98.40508333886608
 20
162.258247733807
 30
0.0
 10
97.65301849830304
 20
159.804132345923
 30
0.0
 10
97.3598406791005
 20
158.8699940888517
 30
0.0
 10
97.3598406791005
 20
158.8699940888517
 30
0.0
 10
96.07137411762282
 20
154.9119212747295
 30
0.0
 10
96.07137411762282
 20
154.9119212747295
 30
0.0
 10
96.07137411762282
 20
154.9119212747295
 30
0.0
 10
100.3012651448482
 20
154.9119212747295
 30
0.0
 10
100.3012651448482
 20
154.9119212747295
 30
0.0
 10
100.3012651448482
 20
154.9119212747295
 30
0.0
 10
99.64152892419852
 20
152.4199098115079
 30
0.0
 10
99.64152892419852
 20
152.4199098115079
 30
0.0
 10
99.64152892419852
 20
152.4199098115079
 30
0.0
 10
95.38097652692731
 20
152.4199098115079
 30
0.0
 10
95.38097652692731
 20
152.4199098115079
 30
0.0
 10
95.38097652692731
 20
152.4199098115079
 30
0.0
 10
87.75353009080013
 20
127.8027915271048
 30
0.0
 10
87.75353009080013
 20
127.8027915271048
 30
0.0
 10
87.75353009080013
 20
127.8027915271048
 30
0.0
 10
85.36538832498108
 20
127.8027915271048
 30
0.0
 10
85.36538832498108
 20
127.8027915271048
 30
0.0
 10
85.36538832498108
 20
127.8027915271048
 30
0.0
 10
93.00006946639998
 20
152.4199098115079
 30
0.0
 10
93.00006946639998
 20
152.4199098115079
 30
0.0
 10
93.00006946639998
 20
152.4199098115079
 30
0.0
 10
89.85297266450198
 20
152.4199098115079
 30
0.0
 10
89.85297266450198
 20
152.4199098115079
 30
0.0
 10
89.85297266450198
 20
152.4199098115079
 30
0.0
 10
90.51270888515164
 20
154.9119212747295
 30
0.0
 10
90.51270888515164
 20
154.9119212747295
 30
0.0
 10
90.51270888515164
 20
154.9119212747295
 30
0.0
 10
93.6904670570955
 20
154.9119212747295
 30
0.0
 10
93.6904670570955
 20
154.9119212747295
 30
0.0
 10
93.6904670570955
 20
154.9119212747295
 30
0.0
 10
94.81598049462158
 20
158.3616699146644
 30
0.0
 10
94.81598049462158
 20
158.3616699146644
 30
0.0
 10
95.7237637538445
 20
161.2605474231013
 30
0.0
 10
96.4968436907311
 20
162.8139420021662
 30
0.0
 10
97.15657991138076
 20
163.9844139654337
 30
0.0
 10
97.81183750494507
 20
165.1523021053827
 30
0.0
 10
99.1047826935081
 20
166.3084769129547
 30
0.0
 10
100.4504378777679
 20
166.69157178364
 30
0.0
  0
HATCH
  5
1DA3
330
1DA0
100
AcDbEntity
  8
TFORMLOGO
 62
   250
420
  2234388
100
AcDbHatch
 10
0.0
 20
0.0
 30
0.0
210
0.0
220
0.0
230
1.0
  2
SOLID
 70
     1
 71
     0
 91
        1
 92
        1
 93
        1
 72
     4
 94
        3
 73
     0
 74
     1
 95
       56
 96
       52
 40
0.0
 40
0.0
 40
0.0
 40
0.0
 40
1.0
 40
1.0
 40
1.0
 40
2.0
 40
2.0
 40
2.0
 40
3.0
 40
3.0
 40
3.0
 40
4.0
 40
4.0
 40
4.0
 40
5.0
 40
5.0
 40
5.0
 40
6.0
 40
6.0
 40
6.0
 40
7.0
 40
7.0
 40
7.0
 40
8.0
 40
8.0
 40
8.0
 40
9.0
 40
9.0
 40
9.0
 40
10.0
 40
10.0
 40
10.0
 40
11.0
 40
11.0
 40
11.0
 40
12.0
 40
12.0
 40
12.0
 40
13.0
 40
13.0
 40
13.0
 40
14.0
 40
14.0
 40
14.0
 40
15.0
 40
15.0
 40
15.0
 40
16.0
 40
16.0
 40
16.0
 40
17.0
 40
17.0
 40
17.0
 40
17.0
 10
100.4504378777679
 20
166.69157178364
 10
101.9848844191641
 20
167.1313385124438
 10
103.9637485713373
 20
166.7649523658846
 10
103.9637485713373
 20
166.7649523658846
 10
103.9637485713373
 20
166.7649523658846
 10
103.0132460999156
 20
163.911205638077
 10
103.0132460999156
 20
163.911205638077
 10
103.0132460999156
 20
163.911205638077
 10
101.0674548862189
 20
164.3601018759394
 10
99.57090442016032
 20
163.1805004036133
 10
98.40508333886608
 20
162.258247733807
 10
97.65301849830304
 20
159.804132345923
 10
97.3598406791005
 20
158.8699940888517
 10
97.3598406791005
 20
158.8699940888517
 10
96.07137411762282
 20
154.9119212747295
 10
96.07137411762282
 20
154.9119212747295
 10
96.07137411762282
 20
154.9119212747295
 10
100.3012651448482
 20
154.9119212747295
 10
100.3012651448482
 20
154.9119212747295
 10
100.3012651448482
 20
154.9119212747295
 10
99.64152892419852
 20
152.4199098115079
 10
99.64152892419852
 20
152.4199098115079
 10
99.64152892419852
 20
152.4199098115079
 10
95.38097652692731
 20
152.4199098115079
 10
95.38097652692731
 20
152.4199098115079
 10
95.38097652692731
 20
152.4199098115079
 10
87.75353009080013
 20
127.8027915271048
 10
87.75353009080013
 20
127.8027915271048
 10
87.75353009080013
 20
127.8027915271048
 10
85.36538832498108
 20
127.8027915271048
 10
85.36538832498108
 20
127.8027915271048
 10
85.36538832498108
 20
127.8027915271048
 10
93.00006946639998
 20
152.4199098115079
 10
93.00006946639998
 20
152.4199098115079
 10
93.00006946639998
 20
152.4199098115079
 10
89.85297266450198
 20
152.4199098115079
 10
89.85297266450198
 20
152.4199098115079
 10
89.85297266450198
 20
152.4199098115079
 10
90.51270888515164
 20
154.9119212747295
 10
90.51270888515164
 20
154.9119212747295
 10
90.51270888515164
 20
154.9119212747295
 10
93.6904670570955
 20
154.9119212747295
 10
93.6904670570955
 20
154.9119212747295
 10
93.6904670570955
 20
154.9119212747295
 10
94.81598049462158
 20
158.3616699146644
 10
94.81598049462158
 20
158.3616699146644
 10
95.7237637538445
 20
161.2605474231013
 10
96.4968436907311
 20
162.8139420021662
 10
97.15657991138076
 20
163.9844139654337
 10
97.81183750494507
 20
165.1523021053827
 10
99.1047826935081
 20
166.3084769129547
 10
100.4504378777679
 20
166.69157178364
 97
        0
 75
     2
 76
     1
 98
        0
  0
SPLINE
  5
1DA4
330
1DA0
100
AcDbEntity
  8
TFORMLOGO
370
     0
100
AcDbSpline
210
0.0
220
0.0
230
1.0
 70
    11
 71
     3
 72
    38
 73
    34
 74
     0
 42
0.000000001
 43
0.0000000001
 40
0.0
 40
0.0
 40
0.0
 40
0.0
 40
1.0
 40
1.0
 40
1.0
 40
2.0
 40
2.0
 40
2.0
 40
3.0
 40
3.0
 40
3.0
 40
4.0
 40
4.0
 40
4.0
 40
5.0
 40
5.0
 40
5.0
 40
6.0
 40
6.0
 40
6.0
 40
7.0
 40
7.0
 40
7.0
 40
8.0
 40
8.0
 40
8.0
 40
9.0
 40
9.0
 40
9.0
 40
10.0
 40
10.0
 40
10.0
 40
11.0
 40
11.0
 40
11.0
 40
11.0
 10
126.377554584636
 20
154.8151140277308
 30
0.0
 10
126.377554584636
 20
154.8151140277308
 30
0.0
 10
128.8311532078563
 20
154.8151140277308
 30
0.0
 10
128.8311532078563
 20
154.8151140277308
 30
0.0
 10
128.8311532078563
 20
154.8151140277308
 30
0.0
 10
127.7345785914971
 20
151.3062819612468
 30
0.0
 10
127.7345785914971
 20
151.3062819612468
 30
0.0
 10
128.571392836906
 20
152.2922689395754
 30
0.0
 10
129.8860421413442
 20
153.604506675583
 30
0.0
 10
131.0163787157314
 20
154.2664822097754
 30
0.0
 10
132.7044766171327
 20
155.2500576196734
 30
0.0
 10
133.6642808525008
 20
155.3847609420097
 30
0.0
 10
134.7284715499351
 20
155.3565111403944
 30
0.0
 10
134.7284715499351
 20
155.3565111403944
 30
0.0
 10
133.6877075172549
 20
152.0345756272799
 30
0.0
 10
133.6877075172549
 20
152.0345756272799
 30
0.0
 10
133.011434827367
 20
152.3184516825359
 30
0.0
 10
130.930940291334
 20
151.7768823149844
 30
0.0
 10
129.739280976855
 20
150.9162968950455
 30
0.0
 10
128.66613302525
 20
150.1454562717016
 30
0.0
 10
127.9192358313239
 20
149.4857200510519
 30
0.0
 10
127.0393578639405
 20
147.8282835196966
 30
0.0
 10
126.164647543194
 20
146.1699857139017
 30
0.0
 10
125.4742499524985
 20
143.5262176944419
 30
0.0
 10
124.2822461282437
 20
139.6959580071401
 30
0.0
 10
124.2822461282437
 20
139.6959580071401
 30
0.0
 10
120.5753209406769
 20
127.8027915271048
 30
0.0
 10
120.5753209406769
 20
127.8027915271048
 30
0.0
 10
120.5753209406769
 20
127.8027915271048
 30
0.0
 10
118.1964809388044
 20
127.8027915271048
 30
0.0
 10
118.1964809388044
 20
127.8027915271048
 30
0.0
 10
118.1964809388044
 20
127.8027915271048
 30
0.0
 10
126.377554584636
 20
154.8151140277308
 30
0.0
 10
126.377554584636
 20
154.8151140277308
 30
0.0
  0
HATCH
  5
1DA5
330
1DA0
100
AcDbEntity
  8
TFORMLOGO
 62
   250
420
  2234388
100
AcDbHatch
 10
0.0
 20
0.0
 30
0.0
210
0.0
220
0.0
230
1.0
  2
SOLID
 70
     1
 71
     0
 91
        1
 92
        1
 93
        1
 72
     4
 94
        3
 73
     0
 74
     1
 95
       38
 96
       34
 40
0.0
 40
0.0
 40
0.0
 40
0.0
 40
1.0
 40
1.0
 40
1.0
 40
2.0
 40
2.0
 40
2.0
 40
3.0
 40
3.0
 40
3.0
 40
4.0
 40
4.0
 40
4.0
 40
5.0
 40
5.0
 40
5.0
 40
6.0
 40
6.0
 40
6.0
 40
7.0
 40
7.0
 40
7.0
 40
8.0
 40
8.0
 40
8.0
 40
9.0
 40
9.0
 40
9.0
 40
10.0
 40
10.0
 40
10.0
 40
11.0
 40
11.0
 40
11.0
 40
11.0
 10
126.377554584636
 20
154.8151140277308
 10
126.377554584636
 20
154.8151140277308
 10
128.8311532078563
 20
154.8151140277308
 10
128.8311532078563
 20
154.8151140277308
 10
128.8311532078563
 20
154.8151140277308
 10
127.7345785914971
 20
151.3062819612468
 10
127.7345785914971
 20
151.3062819612468
 10
128.571392836906
 20
152.2922689395754
 10
129.8860421413442
 20
153.604506675583
 10
131.0163787157314
 20
154.2664822097754
 10
132.7044766171327
 20
155.2500576196734
 10
133.6642808525008
 20
155.3847609420097
 10
134.7284715499351
 20
155.3565111403944
 10
134.7284715499351
 20
155.3565111403944
 10
133.6877075172549
 20
152.0345756272799
 10
133.6877075172549
 20
152.0345756272799
 10
133.011434827367
 20
152.3184516825359
 10
130.930940291334
 20
151.7768823149844
 10
129.739280976855
 20
150.9162968950455
 10
128.66613302525
 20
150.1454562717016
 10
127.9192358313239
 20
149.4857200510519
 10
127.0393578639405
 20
147.8282835196966
 10
126.164647543194
 20
146.1699857139017
 10
125.4742499524985
 20
143.5262176944419
 10
124.2822461282437
 20
139.6959580071401
 10
124.2822461282437
 20
139.6959580071401
 10
120.5753209406769
 20
127.8027915271048
 10
120.5753209406769
 20
127.8027915271048
 10
120.5753209406769
 20
127.8027915271048
 10
118.1964809388044
 20
127.8027915271048
 10
118.1964809388044
 20
127.8027915271048
 10
118.1964809388044
 20
127.8027915271048
 10
126.377554584636
 20
154.8151140277308
 10
126.377554584636
 20
154.8151140277308
 97
        0
 75
     2
 76
     1
 98
        0
  0
SPLINE
  5
1DA6
330
1DA0
100
AcDbEntity
  8
TFORMLOGO
370
     0
100
AcDbSpline
210
0.0
220
0.0
230
1.0
 70
    11
 71
     3
 72
   104
 73
   100
 74
     0
 42
0.000000001
 43
0.0000000001
 40
0.0
 40
0.0
 40
0.0
 40
0.0
 40
1.0
 40
1.0
 40
1.0
 40
2.0
 40
2.0
 40
2.0
 40
3.0
 40
3.0
 40
3.0
 40
4.0
 40
4.0
 40
4.0
 40
5.0
 40
5.0
 40
5.0
 40
6.0
 40
6.0
 40
6.0
 40
7.0
 40
7.0
 40
7.0
 40
8.0
 40
8.0
 40
8.0
 40
9.0
 40
9.0
 40
9.0
 40
10.0
 40
10.0
 40
10.0
 40
11.0
 40
11.0
 40
11.0
 40
12.0
 40
12.0
 40
12.0
 40
13.0
 40
13.0
 40
13.0
 40
14.0
 40
14.0
 40
14.0
 40
15.0
 40
15.0
 40
15.0
 40
16.0
 40
16.0
 40
16.0
 40
17.0
 40
17.0
 40
17.0
 40
18.0
 40
18.0
 40
18.0
 40
19.0
 40
19.0
 40
19.0
 40
20.0
 40
20.0
 40
20.0
 40
21.0
 40
21.0
 40
21.0
 40
22.0
 40
22.0
 40
22.0
 40
23.0
 40
23.0
 40
23.0
 40
24.0
 40
24.0
 40
24.0
 40
25.0
 40
25.0
 40
25.0
 40
26.0
 40
26.0
 40
26.0
 40
27.0
 40
27.0
 40
27.0
 40
28.0
 40
28.0
 40
28.0
 40
29.0
 40
29.0
 40
29.0
 40
30.0
 40
30.0
 40
30.0
 40
31.0
 40
31.0
 40
31.0
 40
32.0
 40
32.0
 40
32.0
 40
33.0
 40
33.0
 40
33.0
 40
33.0
 10
139.8926730891197
 20
154.8294111834263
 30
0.0
 10
139.8926730891197
 20
154.8294111834263
 30
0.0
 10
142.0344903652445
 20
154.8294111834263
 30
0.0
 10
142.0344903652445
 20
154.8294111834263
 30
0.0
 10
142.0344903652445
 20
154.8294111834263
 30
0.0
 10
140.9516961399171
 20
151.3157559800812
 30
0.0
 10
140.9516961399171
 20
151.3157559800812
 30
0.0
 10
141.8928968473923
 20
152.7887075264977
 30
0.0
 10
142.7341897198865
 20
153.4484437471474
 30
0.0
 10
143.8552245303272
 20
154.2926649527359
 30
0.0
 10
144.9803934580775
 20
155.1296514530327
 30
0.0
 10
146.3139908001845
 20
155.3044901642492
 30
0.0
 10
147.241066606852
 20
155.3044901642492
 30
0.0
 10
148.3855280820469
 20
155.3044901642492
 30
0.0
 10
149.4969166187653
 20
155.0752189084569
 30
0.0
 10
150.0784491203092
 20
153.8172414621372
 30
0.0
 10
150.5228667310863
 20
152.833838307127
 30
0.0
 10
150.5414702589793
 20
152.7201500811143
 30
0.0
 10
150.4140016419347
 20
150.7765981809602
 30
0.0
 10
151.5818897818837
 20
152.7699317437168
 30
0.0
 10
152.4424752018226
 20
153.6256940267945
 30
0.0
 10
153.9038856707499
 20
154.4507949398263
 30
0.0
 10
155.4455669174378
 20
155.3044901642492
 30
0.0
 10
156.339225275853
 20
155.3659851592288
 30
0.0
 10
157.3748216618963
 20
155.2147453676543
 30
0.0
 10
158.911679771723
 20
154.9877134254046
 30
0.0
 10
159.8859534176746
 20
154.4390816074493
 30
0.0
 10
160.3965169054045
 20
152.7816450760939
 30
0.0
 10
160.9070803931344
 20
151.1219692311958
 30
0.0
 10
160.6328506116007
 20
150.2303779314354
 30
0.0
 10
159.9992971339115
 20
147.597634224801
 30
0.0
 10
159.7105979417943
 20
146.4014962832367
 30
0.0
 10
159.2947746424084
 20
144.9400858143094
 30
0.0
 10
158.7463150793409
 20
143.2092687007094
 30
0.0
 10
158.7463150793409
 20
143.2092687007094
 30
0.0
 10
153.9038856707499
 20
127.8027915271048
 30
0.0
 10
153.9038856707499
 20
127.8027915271048
 30
0.0
 10
153.9038856707499
 20
127.8027915271048
 30
0.0
 10
151.3882752878863
 20
127.8027915271048
 30
0.0
 10
151.3882752878863
 20
127.8027915271048
 30
0.0
 10
151.3882752878863
 20
127.8027915271048
 30
0.0
 10
155.6250565106276
 20
141.2751908193897
 30
0.0
 10
155.6250565106276
 20
141.2751908193897
 30
0.0
 10
156.5094131050963
 20
144.0936252951782
 30
0.0
 10
157.109893644309
 20
146.1506931664571
 30
0.0
 10
157.4220195011804
 20
147.4415712963654
 30
0.0
 10
157.8095929989511
 20
149.0530157726519
 30
0.0
 10
157.9656559273867
 20
149.5826995529385
 30
0.0
 10
157.7816877071116
 20
150.7529992613181
 30
0.0
 10
157.6111553680925
 20
151.8430281919372
 30
0.0
 10
157.0582171779396
 20
152.5547853887321
 30
0.0
 10
156.1170164704645
 20
152.5547853887321
 30
0.0
 10
155.1096698860365
 20
152.5547853887321
 30
0.0
 10
154.2962823053817
 20
152.4412694176073
 30
0.0
 10
153.156643967048
 20
151.2945686288697
 30
0.0
 10
152.0170056287143
 20
150.1476955852443
 30
0.0
 10
151.076149431015
 20
148.7930831468137
 30
0.0
 10
150.3337308641742
 20
147.2290087646991
 30
0.0
 10
149.5957909244188
 20
145.6683794803425
 30
0.0
 10
148.8530278478023
 20
143.6822806228776
 30
0.0
 10
148.0964843801539
 20
141.2751908193897
 30
0.0
 10
148.0964843801539
 20
141.2751908193897
 30
0.0
 10
143.8552245303272
 20
127.8027915271048
 30
0.0
 10
143.8552245303272
 20
127.8027915271048
 30
0.0
 10
143.8552245303272
 20
127.8027915271048
 30
0.0
 10
141.486030802177
 20
127.8027915271048
 30
0.0
 10
141.486030802177
 20
127.8027915271048
 30
0.0
 10
141.486030802177
 20
127.8027915271048
 30
0.0
 10
146.3329388378533
 20
143.2092687007094
 30
0.0
 10
146.3329388378533
 20
143.2092687007094
 30
0.0
 10
146.8483254624444
 20
144.8408669988801
 30
0.0
 10
147.2314203331297
 20
146.1837661049335
 30
0.0
 10
147.4867020769946
 20
147.224185627838
 30
0.0
 10
147.9169947869641
 20
149.0197705792876
 30
0.0
 10
148.0306830129768
 20
150.2400242051577
 30
0.0
 10
147.709255392159
 20
151.3157559800812
 30
0.0
 10
147.3874832615654
 20
152.3916600098926
 30
0.0
 10
146.8245542879144
 20
152.6683013598569
 30
0.0
 10
145.8840425999909
 20
152.6683013598569
 30
0.0
 10
145.0989048209514
 20
152.6683013598569
 30
0.0
 10
144.3282364524954
 20
152.3275811915945
 30
0.0
 10
143.4531816219731
 20
151.6538923250251
 30
0.0
 10
142.34627171234
 20
150.8074318058939
 30
0.0
 10
141.901854101563
 20
150.1097995099067
 30
0.0
 10
141.3578731655808
 20
149.289521733736
 30
0.0
 10
140.6299240093235
 20
148.192602607601
 30
0.0
 10
140.2850697237515
 20
147.455696197173
 30
0.0
 10
139.6652966370942
 20
145.8385673095858
 30
0.0
 10
139.0506911970739
 20
144.2214384219986
 30
0.0
 10
138.463991048893
 20
142.3252566160164
 30
0.0
 10
138.0571250036777
 20
141.0154304484394
 30
0.0
 10
138.0571250036777
 20
141.0154304484394
 30
0.0
 10
133.9009590684727
 20
127.8027915271048
 30
0.0
 10
133.9009590684727
 20
127.8027915271048
 30
0.0
 10
133.9009590684727
 20
127.8027915271048
 30
0.0
 10
131.4180771143097
 20
127.8027915271048
 30
0.0
 10
131.4180771143097
 20
127.8027915271048
 30
0.0
 10
131.4180771143097
 20
127.8027915271048
 30
0.0
 10
139.8926730891197
 20
154.8294111834263
 30
0.0
 10
139.8926730891197
 20
154.8294111834263
 30
0.0
  0
HATCH
  5
1DA7
330
1DA0
100
AcDbEntity
  8
TFORMLOGO
 62
   250
420
  2234388
100
AcDbHatch
 10
0.0
 20
0.0
 30
0.0
210
0.0
220
0.0
230
1.0
  2
SOLID
 70
     1
 71
     0
 91
        1
 92
        1
 93
        1
 72
     4
 94
        3
 73
     0
 74
     1
 95
      104
 96
      100
 40
0.0
 40
0.0
 40
0.0
 40
0.0
 40
1.0
 40
1.0
 40
1.0
 40
2.0
 40
2.0
 40
2.0
 40
3.0
 40
3.0
 40
3.0
 40
4.0
 40
4.0
 40
4.0
 40
5.0
 40
5.0
 40
5.0
 40
6.0
 40
6.0
 40
6.0
 40
7.0
 40
7.0
 40
7.0
 40
8.0
 40
8.0
 40
8.0
 40
9.0
 40
9.0
 40
9.0
 40
10.0
 40
10.0
 40
10.0
 40
11.0
 40
11.0
 40
11.0
 40
12.0
 40
12.0
 40
12.0
 40
13.0
 40
13.0
 40
13.0
 40
14.0
 40
14.0
 40
14.0
 40
15.0
 40
15.0
 40
15.0
 40
16.0
 40
16.0
 40
16.0
 40
17.0
 40
17.0
 40
17.0
 40
18.0
 40
18.0
 40
18.0
 40
19.0
 40
19.0
 40
19.0
 40
20.0
 40
20.0
 40
20.0
 40
21.0
 40
21.0
 40
21.0
 40
22.0
 40
22.0
 40
22.0
 40
23.0
 40
23.0
 40
23.0
 40
24.0
 40
24.0
 40
24.0
 40
25.0
 40
25.0
 40
25.0
 40
26.0
 40
26.0
 40
26.0
 40
27.0
 40
27.0
 40
27.0
 40
28.0
 40
28.0
 40
28.0
 40
29.0
 40
29.0
 40
29.0
 40
30.0
 40
30.0
 40
30.0
 40
31.0
 40
31.0
 40
31.0
 40
32.0
 40
32.0
 40
32.0
 40
33.0
 40
33.0
 40
33.0
 40
33.0
 10
139.8926730891197
 20
154.8294111834263
 10
139.8926730891197
 20
154.8294111834263
 10
142.0344903652445
 20
154.8294111834263
 10
142.0344903652445
 20
154.8294111834263
 10
142.0344903652445
 20
154.8294111834263
 10
140.9516961399171
 20
151.3157559800812
 10
140.9516961399171
 20
151.3157559800812
 10
141.8928968473923
 20
152.7887075264977
 10
142.7341897198865
 20
153.4484437471474
 10
143.8552245303272
 20
154.2926649527359
 10
144.9803934580775
 20
155.1296514530327
 10
146.3139908001845
 20
155.3044901642492
 10
147.241066606852
 20
155.3044901642492
 10
148.3855280820469
 20
155.3044901642492
 10
149.4969166187653
 20
155.0752189084569
 10
150.0784491203092
 20
153.8172414621372
 10
150.5228667310863
 20
152.833838307127
 10
150.5414702589793
 20
152.7201500811143
 10
150.4140016419347
 20
150.7765981809602
 10
151.5818897818837
 20
152.7699317437168
 10
152.4424752018226
 20
153.6256940267945
 10
153.9038856707499
 20
154.4507949398263
 10
155.4455669174378
 20
155.3044901642492
 10
156.339225275853
 20
155.3659851592288
 10
157.3748216618963
 20
155.2147453676543
 10
158.911679771723
 20
154.9877134254046
 10
159.8859534176746
 20
154.4390816074493
 10
160.3965169054045
 20
152.7816450760939
 10
160.9070803931344
 20
151.1219692311958
 10
160.6328506116007
 20
150.2303779314354
 10
159.9992971339115
 20
147.597634224801
 10
159.7105979417943
 20
146.4014962832367
 10
159.2947746424084
 20
144.9400858143094
 10
158.7463150793409
 20
143.2092687007094
 10
158.7463150793409
 20
143.2092687007094
 10
153.9038856707499
 20
127.8027915271048
 10
153.9038856707499
 20
127.8027915271048
 10
153.9038856707499
 20
127.8027915271048
 10
151.3882752878863
 20
127.8027915271048
 10
151.3882752878863
 20
127.8027915271048
 10
151.3882752878863
 20
127.8027915271048
 10
155.6250565106276
 20
141.2751908193897
 10
155.6250565106276
 20
141.2751908193897
 10
156.5094131050963
 20
144.0936252951782
 10
157.109893644309
 20
146.1506931664571
 10
157.4220195011804
 20
147.4415712963654
 10
157.8095929989511
 20
149.0530157726519
 10
157.9656559273867
 20
149.5826995529385
 10
157.7816877071116
 20
150.7529992613181
 10
157.6111553680925
 20
151.8430281919372
 10
157.0582171779396
 20
152.5547853887321
 10
156.1170164704645
 20
152.5547853887321
 10
155.1096698860365
 20
152.5547853887321
 10
154.2962823053817
 20
152.4412694176073
 10
153.156643967048
 20
151.2945686288697
 10
152.0170056287143
 20
150.1476955852443
 10
151.076149431015
 20
148.7930831468137
 10
150.3337308641742
 20
147.2290087646991
 10
149.5957909244188
 20
145.6683794803425
 10
148.8530278478023
 20
143.6822806228776
 10
148.0964843801539
 20
141.2751908193897
 10
148.0964843801539
 20
141.2751908193897
 10
143.8552245303272
 20
127.8027915271048
 10
143.8552245303272
 20
127.8027915271048
 10
143.8552245303272
 20
127.8027915271048
 10
141.486030802177
 20
127.8027915271048
 10
141.486030802177
 20
127.8027915271048
 10
141.486030802177
 20
127.8027915271048
 10
146.3329388378533
 20
143.2092687007094
 10
146.3329388378533
 20
143.2092687007094
 10
146.8483254624444
 20
144.8408669988801
 10
147.2314203331297
 20
146.1837661049335
 10
147.4867020769946
 20
147.224185627838
 10
147.9169947869641
 20
149.0197705792876
 10
148.0306830129768
 20
150.2400242051577
 10
147.709255392159
 20
151.3157559800812
 10
147.3874832615654
 20
152.3916600098926
 10
146.8245542879144
 20
152.6683013598569
 10
145.8840425999909
 20
152.6683013598569
 10
145.0989048209514
 20
152.6683013598569
 10
144.3282364524954
 20
152.3275811915945
 10
143.4531816219731
 20
151.6538923250251
 10
142.34627171234
 20
150.8074318058939
 10
141.901854101563
 20
150.1097995099067
 10
141.3578731655808
 20
149.289521733736
 10
140.6299240093235
 20
148.192602607601
 10
140.2850697237515
 20
147.455696197173
 10
139.6652966370942
 20
145.8385673095858
 10
139.0506911970739
 20
144.2214384219986
 10
138.463991048893
 20
142.3252566160164
 10
138.0571250036777
 20
141.0154304484394
 10
138.0571250036777
 20
141.0154304484394
 10
133.9009590684727
 20
127.8027915271048
 10
133.9009590684727
 20
127.8027915271048
 10
133.9009590684727
 20
127.8027915271048
 10
131.4180771143097
 20
127.8027915271048
 10
131.4180771143097
 20
127.8027915271048
 10
131.4180771143097
 20
127.8027915271048
 10
139.8926730891197
 20
154.8294111834263
 10
139.8926730891197
 20
154.8294111834263
 97
        0
 75
     2
 76
     1
 98
        0
  0
SPLINE
  5
1DA8
330
1DA0
100
AcDbEntity
  8
TFORMLOGO
370
     0
100
AcDbSpline
210
0.0
220
0.0
230
1.0
 70
    11
 71
     3
 72
    29
 73
    25
 74
     0
 42
0.000000001
 43
0.0000000001
 40
0.0
 40
0.0
 40
0.0
 40
0.0
 40
1.0
 40
1.0
 40
1.0
 40
2.0
 40
2.0
 40
2.0
 40
3.0
 40
3.0
 40
3.0
 40
4.0
 40
4.0
 40
4.0
 40
5.0
 40
5.0
 40
5.0
 40
6.0
 40
6.0
 40
6.0
 40
7.0
 40
7.0
 40
7.0
 40
8.0
 40
8.0
 40
8.0
 40
8.0
 10
101.6420971922469
 20
132.8388354296931
 30
0.0
 10
101.630039350094
 20
134.7164137077823
 30
0.0
 10
102.2236296937908
 20
138.0598810818841
 30
0.0
 10
103.7487744712405
 20
142.5378191476827
 30
0.0
 10
105.819967243327
 20
148.5896501242061
 30
0.0
 10
107.0602024361932
 20
150.8074318058939
 30
0.0
 10
108.1522984254671
 20
151.8833358357054
 30
0.0
 10
109.741177511439
 20
153.4532668840085
 30
0.0
 10
111.8740375333931
 20
153.5290590346837
 30
0.0
 10
112.5075910110823
 20
153.4532668840085
 30
0.0
 10
113.4012493694975
 20
153.3490526768302
 30
0.0
 10
114.6683563248758
 20
152.7580461564518
 30
0.0
 10
114.7493161221879
 20
150.7838328862519
 30
0.0
 10
114.8106388622796
 20
149.0909118479895
 30
0.0
 10
114.3186789024427
 20
145.9191825971221
 30
0.0
 10
112.6164561002338
 20
140.9489400617108
 30
0.0
 10
110.6444821435766
 20
135.1746117095912
 30
0.0
 10
109.4669477299053
 20
132.8960240524753
 30
0.0
 10
108.5212683953448
 20
131.9072809959403
 30
0.0
 10
106.7346406980658
 20
130.0538184021569
 30
0.0
 10
104.8222669326213
 20
130.2336525051225
 30
0.0
 10
104.5408024457958
 20
130.2336525051225
 30
0.0
 10
104.1721769856939
 20
130.2336525051225
 30
0.0
 10
101.6465758193322
 20
130.6305277668397
 30
0.0
 10
101.6420971922469
 20
132.8388354296931
 30
0.0
  0
SPLINE
  5
1DA9
330
1DA0
100
AcDbEntity
  8
TFORMLOGO
370
     0
100
AcDbSpline
210
0.0
220
0.0
230
1.0
 70
    11
 71
     3
 72
    32
 73
    28
 74
     0
 42
0.000000001
 43
0.0000000001
 40
0.0
 40
0.0
 40
0.0
 40
0.0
 40
1.0
 40
1.0
 40
1.0
 40
2.0
 40
2.0
 40
2.0
 40
3.0
 40
3.0
 40
3.0
 40
4.0
 40
4.0
 40
4.0
 40
5.0
 40
5.0
 40
5.0
 40
6.0
 40
6.0
 40
6.0
 40
7.0
 40
7.0
 40
7.0
 40
8.0
 40
8.0
 40
8.0
 40
9.0
 40
9.0
 40
9.0
 40
9.0
 10
106.2595617172429
 20
153.4105476718098
 30
0.0
 10
104.8222669326213
 20
151.5474388043041
 30
0.0
 10
103.7177685914188
 20
149.8758773721411
 30
0.0
 10
101.9232171692965
 20
144.6141795664062
 30
0.0
 10
100.2754269116635
 20
139.7999999594306
 30
0.0
 10
99.22777268346732
 20
136.3052927937542
 30
0.0
 10
99.06964269637689
 20
132.039572749846
 30
0.0
 10
98.94665270641765
 20
128.8673267343149
 30
0.0
 10
100.8807305877373
 20
127.8027915271048
 30
0.0
 10
103.7129454545577
 20
127.8027915271048
 30
0.0
 10
104.9352661390825
 20
127.8027915271048
 30
0.0
 10
108.0151835347002
 20
127.8827177950895
 30
0.0
 10
110.2045431598849
 20
130.5926316915021
 30
0.0
 10
111.7417457794874
 20
132.4984597712065
 30
0.0
 10
113.155269389579
 20
134.475256864725
 30
0.0
 10
115.0562743324223
 20
140.9489400617108
 30
0.0
 10
116.6361961642235
 20
146.3680788349845
 30
0.0
 10
117.7282921534974
 20
149.8639917848761
 30
0.0
 10
117.6480213757369
 20
151.8595646611754
 30
0.0
 10
117.6480213757369
 20
151.8595646611754
 30
0.0
 10
117.6480213757369
 20
151.8595646611754
 30
0.0
 10
117.6480213757369
 20
151.8595646611754
 30
0.0
 10
117.13229024137
 20
155.18150017429
 30
0.0
 10
114.7162431837115
 20
155.886194920681
 30
0.0
 10
113.3351034925446
 20
155.886194920681
 30
0.0
 10
111.9829026225447
 20
155.886194920681
 30
0.0
 10
108.3414342923792
 20
156.1251124501957
 30
0.0
 10
106.2595617172429
 20
153.4105476718098
 30
0.0
  0
HATCH
  5
1DAA
330
1DA0
100
AcDbEntity
  8
TFORMLOGO
 62
   250
420
  2234388
100
AcDbHatch
 10
0.0
 20
0.0
 30
0.0
210
0.0
220
0.0
230
1.0
  2
SOLID
 70
     1
 71
     0
 91
        2
 92
        1
 93
        1
 72
     4
 94
        3
 73
     0
 74
     1
 95
       29
 96
       25
 40
0.0
 40
0.0
 40
0.0
 40
0.0
 40
1.0
 40
1.0
 40
1.0
 40
2.0
 40
2.0
 40
2.0
 40
3.0
 40
3.0
 40
3.0
 40
4.0
 40
4.0
 40
4.0
 40
5.0
 40
5.0
 40
5.0
 40
6.0
 40
6.0
 40
6.0
 40
7.0
 40
7.0
 40
7.0
 40
8.0
 40
8.0
 40
8.0
 40
8.0
 10
101.6420971922469
 20
132.8388354296931
 10
101.630039350094
 20
134.7164137077823
 10
102.2236296937908
 20
138.0598810818841
 10
103.7487744712405
 20
142.5378191476827
 10
105.819967243327
 20
148.5896501242061
 10
107.0602024361932
 20
150.8074318058939
 10
108.1522984254671
 20
151.8833358357054
 10
109.741177511439
 20
153.4532668840085
 10
111.8740375333931
 20
153.5290590346837
 10
112.5075910110823
 20
153.4532668840085
 10
113.4012493694975
 20
153.3490526768302
 10
114.6683563248758
 20
152.7580461564518
 10
114.7493161221879
 20
150.7838328862519
 10
114.8106388622796
 20
149.0909118479895
 10
114.3186789024427
 20
145.9191825971221
 10
112.6164561002338
 20
140.9489400617108
 10
110.6444821435766
 20
135.1746117095912
 10
109.4669477299053
 20
132.8960240524753
 10
108.5212683953448
 20
131.9072809959403
 10
106.7346406980658
 20
130.0538184021569
 10
104.8222669326213
 20
130.2336525051225
 10
104.5408024457958
 20
130.2336525051225
 10
104.1721769856939
 20
130.2336525051225
 10
101.6465758193322
 20
130.6305277668397
 10
101.6420971922469
 20
132.8388354296931
 97
        0
 92
        1
 93
        1
 72
     4
 94
        3
 73
     0
 74
     1
 95
       32
 96
       28
 40
0.0
 40
0.0
 40
0.0
 40
0.0
 40
1.0
 40
1.0
 40
1.0
 40
2.0
 40
2.0
 40
2.0
 40
3.0
 40
3.0
 40
3.0
 40
4.0
 40
4.0
 40
4.0
 40
5.0
 40
5.0
 40
5.0
 40
6.0
 40
6.0
 40
6.0
 40
7.0
 40
7.0
 40
7.0
 40
8.0
 40
8.0
 40
8.0
 40
9.0
 40
9.0
 40
9.0
 40
9.0
 10
106.2595617172429
 20
153.4105476718098
 10
104.8222669326213
 20
151.5474388043041
 10
103.7177685914188
 20
149.8758773721411
 10
101.9232171692965
 20
144.6141795664062
 10
100.2754269116635
 20
139.7999999594306
 10
99.22777268346732
 20
136.3052927937542
 10
99.06964269637689
 20
132.039572749846
 10
98.94665270641765
 20
128.8673267343149
 10
100.8807305877373
 20
127.8027915271048
 10
103.7129454545577
 20
127.8027915271048
 10
104.9352661390825
 20
127.8027915271048
 10
108.0151835347002
 20
127.8827177950895
 10
110.2045431598849
 20
130.5926316915021
 10
111.7417457794874
 20
132.4984597712065
 10
113.155269389579
 20
134.475256864725
 10
115.0562743324223
 20
140.9489400617108
 10
116.6361961642235
 20
146.3680788349845
 10
117.7282921534974
 20
149.8639917848761
 10
117.6480213757369
 20
151.8595646611754
 10
117.6480213757369
 20
151.8595646611754
 10
117.6480213757369
 20
151.8595646611754
 10
117.6480213757369
 20
151.8595646611754
 10
117.13229024137
 20
155.18150017429
 10
114.7162431837115
 20
155.886194920681
 10
113.3351034925446
 20
155.886194920681
 10
111.9829026225447
 20
155.886194920681
 10
108.3414342923792
 20
156.1251124501957
 10
106.2595617172429
 20
153.4105476718098
 97
        0
 75
     2
 76
     1
 98
        0
  0
ENDBLK
  5
1DAB
330
1DA0
100
AcDbEntity
  8
0
100
AcDbBlockEnd
  0
BLOCK
  5
37E0
330
37DF
100
AcDbEntity
  8
0
100
AcDbBlockBegin
  2
*D7
 70
     1
 10
0.0
 20
0.0
 30
0.0
  3
*D7
  1
*D156
  0
LINE
  5
37E2
330
37DF
100
AcDbEntity
  8
寸法
 62
     0
370
    -2
100
AcDbLine
 10
202.2957663671774
 20
349.3799946242279
 30
0.0
 11
200.389510035032
 21
349.3799946242279
 31
0.0
  0
LINE
  5
37E3
330
37DF
100
AcDbEntity
  8
寸法
 62
     0
370
    -2
100
AcDbLine
 10
202.2957663671774
 20
347.4048052429969
 30
0.0
 11
200.389510035032
 21
347.4048052429969
 31
0.0
  0
INSERT
  5
37E4
330
37DF
100
AcDbEntity
  8
寸法
 62
     0
370
    -2
100
AcDbBlockReference
  2
_DOT
 10
200.389510035032
 20
349.3799946242279
 30
0.0
 41
2.0
 42
2.0
 43
2.0
 50
90.0
  0
INSERT
  5
37E5
330
37DF
100
AcDbEntity
  8
寸法
 62
     0
370
    -2
100
AcDbBlockReference
  2
_DOT
 10
200.389510035032
 20
347.4048052429969
 30
0.0
 41
2.0
 42
2.0
 43
2.0
 50
270.0
  0
MTEXT
  5
37E6
330
37DF
100
AcDbEntity
  8
寸法
 62
     0
100
AcDbMText
 10
192.889510035032
 20
348.3923999336124
 30
0.0
 40
5.0
 41
0.0
 46
0.0
 71
     5
 72
     1
  1
\A1;2
  7
ＭＳ ゴシック
 11
0.0
 21
1.0
 31
0.0
 73
     1
 44
1.0
  0
POINT
  5
37E7
330
37DF
100
AcDbEntity
  8
Defpoints
 62
     0
100
AcDbPoint
 10
207.2957663671774
 20
349.3799946242279
 30
0.0
  0
POINT
  5
37E8
330
37DF
100
AcDbEntity
  8
Defpoints
 62
     0
100
AcDbPoint
 10
207.2957663671774
 20
347.4048052429969
 30
0.0
  0
POINT
  5
37E9
330
37DF
100
AcDbEntity
  8
Defpoints
 62
     0
100
AcDbPoint
 10
200.389510035032
 20
347.4048052429969
 30
0.0
  0
ENDBLK
  5
37E1
330
37DF
100
AcDbEntity
  8
0
100
AcDbBlockEnd
  0
BLOCK
  5
37EB
330
37EA
100
AcDbEntity
  8
0
100
AcDbBlockBegin
  2
*D8
 70
     1
 10
0.0
 20
0.0
 30
0.0
  3
*D8
  1
*D157
  0
LINE
  5
37ED
330
37EA
100
AcDbEntity
  8
寸法
 62
     0
370
    -2
100
AcDbLine
 10
315.5889840782232
 20
306.1991393259359
 30
0.0
 11
328.2278845989873
 21
306.1991393259359
 31
0.0
  0
LINE
  5
37EE
330
37EA
100
AcDbEntity
  8
寸法
 62
     0
370
    -2
100
AcDbLine
 10
315.7302330862998
 20
322.8504451560839
 30
0.0
 11
328.2278845989873
 21
322.8504451560839
 31
0.0
  0
LINE
  5
37EF
330
37EA
100
AcDbEntity
  8
寸法
 62
     0
370
    -2
100
AcDbLine
 10
328.2278845989873
 20
308.1991393259359
 30
0.0
 11
328.2278845989873
 21
320.8504451560839
 31
0.0
  0
INSERT
  5
37F0
330
37EA
100
AcDbEntity
  8
寸法
 62
     0
370
    -2
100
AcDbBlockReference
  2
_DOT
 10
328.2278845989873
 20
306.1991393259359
 30
0.0
 41
2.0
 42
2.0
 43
2.0
 50
270.0
  0
INSERT
  5
37F1
330
37EA
100
AcDbEntity
  8
寸法
 62
     0
370
    -2
100
AcDbBlockReference
  2
_DOT
 10
328.2278845989873
 20
322.8504451560839
 30
0.0
 41
2.0
 42
2.0
 43
2.0
 50
90.0
  0
MTEXT
  5
37F2
330
37EA
100
AcDbEntity
  8
寸法
 62
     0
100
AcDbMText
 10
320.7278845989873
 20
314.5247922410099
 30
0.0
 40
5.0
 41
0.0
 46
0.0
 71
     5
 72
     1
  1
\A1;17
  7
ＭＳ ゴシック
 11
0.0
 21
1.0
 31
0.0
 73
     1
 44
1.0
  0
POINT
  5
37F3
330
37EA
100
AcDbEntity
  8
Defpoints
 62
     0
100
AcDbPoint
 10
310.5889840782232
 20
306.1991393259359
 30
0.0
  0
POINT
  5
37F4
330
37EA
100
AcDbEntity
  8
Defpoints
 62
     0
100
AcDbPoint
 10
310.7302330862998
 20
322.8504451560839
 30
0.0
  0
POINT
  5
37F5
330
37EA
100
AcDbEntity
  8
Defpoints
 62
     0
100
AcDbPoint
 10
328.2278845989873
 20
322.8504451560839
 30
0.0
  0
ENDBLK
  5
37EC
330
37EA
100
AcDbEntity
  8
0
100
AcDbBlockEnd
  0
BLOCK
  5
37F7
330
37F6
100
AcDbEntity
  8
0
100
AcDbBlockBegin
  2
*D9
 70
     1
 10
0.0
 20
0.0
 30
0.0
  3
*D9
  1
*D158
  0
LINE
  5
37F9
330
37F6
100
AcDbEntity
  8
寸法
 62
     0
370
    -2
100
AcDbLine
 10
315.5889840782232
 20
306.1991393259359
 30
0.0
 11
349.1700500172429
 21
306.1991393259359
 31
0.0
  0
LINE
  5
37FA
330
37F6
100
AcDbEntity
  8
寸法
 62
     0
370
    -2
100
AcDbLine
 10
239.1066654855546
 20
349.3799946242279
 30
0.0
 11
349.1700500172429
 21
349.3799946242279
 31
0.0
  0
LINE
  5
37FB
330
37F6
100
AcDbEntity
  8
寸法
 62
     0
370
    -2
100
AcDbLine
 10
349.1700500172429
 20
308.1991393259359
 30
0.0
 11
349.1700500172429
 21
347.3799946242279
 31
0.0
  0
INSERT
  5
37FC
330
37F6
100
AcDbEntity
  8
寸法
 62
     0
370
    -2
100
AcDbBlockReference
  2
_DOT
 10
349.1700500172429
 20
306.1991393259359
 30
0.0
 41
2.0
 42
2.0
 43
2.0
 50
270.0
  0
INSERT
  5
37FD
330
37F6
100
AcDbEntity
  8
寸法
 62
     0
370
    -2
100
AcDbBlockReference
  2
_DOT
 10
349.1700500172429
 20
349.3799946242279
 30
0.0
 41
2.0
 42
2.0
 43
2.0
 50
90.0
  0
MTEXT
  5
37FE
330
37F6
100
AcDbEntity
  8
寸法
 62
     0
100
AcDbMText
 10
341.6700500172429
 20
327.7895669750819
 30
0.0
 40
5.0
 41
0.0
 46
0.0
 71
     5
 72
     1
  1
\A1;43
  7
ＭＳ ゴシック
 11
0.0
 21
1.0
 31
0.0
 73
     1
 44
1.0
  0
POINT
  5
37FF
330
37F6
100
AcDbEntity
  8
Defpoints
 62
     0
100
AcDbPoint
 10
310.5889840782232
 20
306.1991393259359
 30
0.0
  0
POINT
  5
3800
330
37F6
100
AcDbEntity
  8
Defpoints
 62
     0
100
AcDbPoint
 10
234.1066654855546
 20
349.3799946242279
 30
0.0
  0
POINT
  5
3801
330
37F6
100
AcDbEntity
  8
Defpoints
 62
     0
100
AcDbPoint
 10
349.1700500172429
 20
349.3799946242279
 30
0.0
  0
ENDBLK
  5
37F8
330
37F6
100
AcDbEntity
  8
0
100
AcDbBlockEnd
  0
BLOCK
  5
3803
330
3802
100
AcDbEntity
  8
0
100
AcDbBlockBegin
  2
*D10
 70
     1
 10
0.0
 20
0.0
 30
0.0
  3
*D10
  1
*D159
  0
LINE
  5
3805
330
3802
100
AcDbEntity
  8
寸法
 62
     0
370
    -2
100
AcDbLine
 10
311.4353297607628
 20
301.7641353582419
 30
0.0
 11
311.4353297607628
 21
289.5478334957879
 31
0.0
  0
LINE
  5
3806
330
3802
100
AcDbEntity
  8
寸法
 62
     0
370
    -2
100
AcDbLine
 10
214.633824591636
 20
301.1991393259359
 30
0.0
 11
214.633824591636
 21
289.5478334957879
 31
0.0
  0
LINE
  5
3807
330
3802
100
AcDbEntity
  8
寸法
 62
     0
370
    -2
100
AcDbLine
 10
309.4353297607628
 20
289.5478334957879
 30
0.0
 11
216.633824591636
 21
289.5478334957879
 31
0.0
  0
INSERT
  5
3808
330
3802
100
AcDbEntity
  8
寸法
 62
     0
370
    -2
100
AcDbBlockReference
  2
_DOT
 10
311.4353297607628
 20
289.5478334957879
 30
0.0
 41
2.0
 42
2.0
 43
2.0
  0
INSERT
  5
3809
330
3802
100
AcDbEntity
  8
寸法
 62
     0
370
    -2
100
AcDbBlockReference
  2
_DOT
 10
214.633824591636
 20
289.5478334957879
 30
0.0
 41
2.0
 42
2.0
 43
2.0
 50
180.0
  0
MTEXT
  5
380A
330
3802
100
AcDbEntity
  8
寸法
 62
     0
100
AcDbMText
 10
263.0345771761994
 20
297.0478334957879
 30
0.0
 40
5.0
 41
0.0
 46
0.0
 71
     5
 72
     1
  1
\A1;97
  7
ＭＳ ゴシック
 73
     1
 44
1.0
  0
POINT
  5
380B
330
3802
100
AcDbEntity
  8
Defpoints
 62
     0
100
AcDbPoint
 10
311.4353297607628
 20
306.7641353582419
 30
0.0
  0
POINT
  5
380C
330
3802
100
AcDbEntity
  8
Defpoints
 62
     0
100
AcDbPoint
 10
214.633824591636
 20
306.1991393259359
 30
0.0
  0
POINT
  5
380D
330
3802
100
AcDbEntity
  8
Defpoints
 62
     0
100
AcDbPoint
 10
214.633824591636
 20
289.5478334957879
 30
0.0
  0
ENDBLK
  5
3804
330
3802
100
AcDbEntity
  8
0
100
AcDbBlockEnd
  0
BLOCK
  5
380F
330
380E
100
AcDbEntity
  8
0
100
AcDbBlockBegin
  2
*D11
 70
     1
 10
0.0
 20
0.0
 30
0.0
  3
*D11
  1
*D160
  0
LINE
  5
3811
330
380E
100
AcDbEntity
  8
寸法
 62
     0
370
    -2
100
AcDbLine
 10
209.633824591636
 20
306.1991393259359
 30
0.0
 11
200.389510035032
 21
306.1991393259359
 31
0.0
  0
LINE
  5
3812
330
380E
100
AcDbEntity
  8
寸法
 62
     0
370
    -2
100
AcDbLine
 10
202.2957663671774
 20
347.4048052429969
 30
0.0
 11
200.389510035032
 21
347.4048052429969
 31
0.0
  0
LINE
  5
3813
330
380E
100
AcDbEntity
  8
寸法
 62
     0
370
    -2
100
AcDbLine
 10
200.389510035032
 20
308.1991393259359
 30
0.0
 11
200.389510035032
 21
345.4048052429969
 31
0.0
  0
INSERT
  5
3814
330
380E
100
AcDbEntity
  8
寸法
 62
     0
370
    -2
100
AcDbBlockReference
  2
_DOT
 10
200.389510035032
 20
306.1991393259359
 30
0.0
 41
2.0
 42
2.0
 43
2.0
 50
270.0
  0
INSERT
  5
3815
330
380E
100
AcDbEntity
  8
寸法
 62
     0
370
    -2
100
AcDbBlockReference
  2
_DOT
 10
200.389510035032
 20
347.4048052429969
 30
0.0
 41
2.0
 42
2.0
 43
2.0
 50
90.0
  0
MTEXT
  5
3816
330
380E
100
AcDbEntity
  8
寸法
 62
     0
100
AcDbMText
 10
192.889510035032
 20
326.8019722844664
 30
0.0
 40
5.0
 41
0.0
 46
0.0
 71
     5
 72
     1
  1
\A1;41
  7
ＭＳ ゴシック
 11
0.0
 21
1.0
 31
0.0
 73
     1
 44
1.0
  0
POINT
  5
3817
330
380E
100
AcDbEntity
  8
Defpoints
 62
     0
100
AcDbPoint
 10
214.633824591636
 20
306.1991393259359
 30
0.0
  0
POINT
  5
3818
330
380E
100
AcDbEntity
  8
Defpoints
 62
     0
100
AcDbPoint
 10
207.2957663671774
 20
347.4048052429969
 30
0.0
  0
POINT
  5
3819
330
380E
100
AcDbEntity
  8
Defpoints
 62
     0
100
AcDbPoint
 10
200.389510035032
 20
347.4048052429969
 30
0.0
  0
ENDBLK
  5
3810
330
380E
100
AcDbEntity
  8
0
100
AcDbBlockEnd
  0
BLOCK
  5
381B
330
381A
100
AcDbEntity
  8
0
100
AcDbBlockBegin
  2
*D12
 70
     1
 10
0.0
 20
0.0
 30
0.0
  3
*D12
  1
*D161
  0
LINE
  5
381D
330
381A
100
AcDbEntity
  8
寸法
 62
     0
370
    -2
100
AcDbLine
 10
202.2957663671774
 20
256.24751856733
 30
0.0
 11
190.6444605370293
 21
256.24751856733
 31
0.0
  0
LINE
  5
381E
330
381A
100
AcDbEntity
  8
寸法
 62
     0
370
    -2
100
AcDbLine
 10
202.2957663671774
 20
109.490947541839
 30
0.0
 11
190.6444605370293
 21
109.490947541839
 31
0.0
  0
LINE
  5
381F
330
381A
100
AcDbEntity
  8
寸法
 62
     0
370
    -2
100
AcDbLine
 10
190.6444605370293
 20
254.24751856733
 30
0.0
 11
190.6444605370293
 21
111.490947541839
 31
0.0
  0
INSERT
  5
3820
330
381A
100
AcDbEntity
  8
寸法
 62
     0
370
    -2
100
AcDbBlockReference
  2
_DOT
 10
190.6444605370293
 20
256.24751856733
 30
0.0
 41
2.0
 42
2.0
 43
2.0
 50
90.0
  0
INSERT
  5
3821
330
381A
100
AcDbEntity
  8
寸法
 62
     0
370
    -2
100
AcDbBlockReference
  2
_DOT
 10
190.6444605370293
 20
109.490947541839
 30
0.0
 41
2.0
 42
2.0
 43
2.0
 50
270.0
  0
MTEXT
  5
3822
330
381A
100
AcDbEntity
  8
寸法
 62
     0
100
AcDbMText
 10
183.1444605370293
 20
182.8692330545845
 30
0.0
 40
5.0
 41
0.0
 46
0.0
 71
     5
 72
     1
  1
\A1;147
  7
ＭＳ ゴシック
 11
0.0
 21
1.0
 31
0.0
 73
     1
 44
1.0
  0
POINT
  5
3823
330
381A
100
AcDbEntity
  8
Defpoints
 62
     0
100
AcDbPoint
 10
207.2957663671774
 20
256.24751856733
 30
0.0
  0
POINT
  5
3824
330
381A
100
AcDbEntity
  8
Defpoints
 62
     0
100
AcDbPoint
 10
207.2957663671774
 20
109.490947541839
 30
0.0
  0
POINT
  5
3825
330
381A
100
AcDbEntity
  8
Defpoints
 62
     0
100
AcDbPoint
 10
190.6444605370293
 20
109.490947541839
 30
0.0
  0
ENDBLK
  5
381C
330
381A
100
AcDbEntity
  8
0
100
AcDbBlockEnd
  0
BLOCK
  5
3827
330
3826
100
AcDbEntity
  8
0
100
AcDbBlockBegin
  2
*D13
 70
     1
 10
0.0
 20
0.0
 30
0.0
  3
*D13
  1
*D162
  0
LINE
  5
3829
330
3826
100
AcDbEntity
  8
寸法
 62
     0
370
    -2
100
AcDbLine
 10
207.2957663671774
 20
104.490947541839
 30
0.0
 11
207.2957663671774
 21
94.18180669859589
 31
0.0
  0
LINE
  5
382A
330
3826
100
AcDbEntity
  8
寸法
 62
     0
370
    -2
100
AcDbLine
 10
234.1066654855546
 20
104.490947541839
 30
0.0
 11
234.1066654855546
 21
94.18180669859589
 31
0.0
  0
LINE
  5
382B
330
3826
100
AcDbEntity
  8
寸法
 62
     0
370
    -2
100
AcDbLine
 10
209.2957663671774
 20
94.18180669859589
 30
0.0
 11
232.1066654855546
 21
94.18180669859589
 31
0.0
  0
INSERT
  5
382C
330
3826
100
AcDbEntity
  8
寸法
 62
     0
370
    -2
100
AcDbBlockReference
  2
_DOT
 10
207.2957663671774
 20
94.18180669859589
 30
0.0
 41
2.0
 42
2.0
 43
2.0
 50
180.0
  0
INSERT
  5
382D
330
3826
100
AcDbEntity
  8
寸法
 62
     0
370
    -2
100
AcDbBlockReference
  2
_DOT
 10
234.1066654855546
 20
94.18180669859589
 30
0.0
 41
2.0
 42
2.0
 43
2.0
  0
MTEXT
  5
382E
330
3826
100
AcDbEntity
  8
寸法
 62
     0
100
AcDbMText
 10
220.701215926366
 20
101.6818066985959
 30
0.0
 40
5.0
 41
0.0
 46
0.0
 71
     5
 72
     1
  1
\A1;27
  7
ＭＳ ゴシック
 73
     1
 44
1.0
  0
POINT
  5
382F
330
3826
100
AcDbEntity
  8
Defpoints
 62
     0
100
AcDbPoint
 10
207.2957663671774
 20
109.490947541839
 30
0.0
  0
POINT
  5
3830
330
3826
100
AcDbEntity
  8
Defpoints
 62
     0
100
AcDbPoint
 10
234.1066654855546
 20
109.490947541839
 30
0.0
  0
POINT
  5
3831
330
3826
100
AcDbEntity
  8
Defpoints
 62
     0
100
AcDbPoint
 10
234.1066654855546
 20
94.18180669859589
 30
0.0
  0
ENDBLK
  5
3828
330
3826
100
AcDbEntity
  8
0
100
AcDbBlockEnd
  0
BLOCK
  5
3833
330
3832
100
AcDbEntity
  8
0
100
AcDbBlockBegin
  2
*D14
 70
     1
 10
0.0
 20
0.0
 30
0.0
  3
*D14
  1
*D163
  0
LINE
  5
3835
330
3832
100
AcDbEntity
  8
寸法
 62
     0
370
    -2
100
AcDbLine
 10
316.4353297607628
 20
204.1760143216588
 30
0.0
 11
328.086635590911
 21
204.1760143216588
 31
0.0
  0
LINE
  5
3836
330
3832
100
AcDbEntity
  8
寸法
 62
     0
370
    -2
100
AcDbLine
 10
239.1066654855546
 20
256.24751856733
 30
0.0
 11
328.086635590911
 21
256.24751856733
 31
0.0
  0
LINE
  5
3837
330
3832
100
AcDbEntity
  8
寸法
 62
     0
370
    -2
100
AcDbLine
 10
328.086635590911
 20
206.1760143216588
 30
0.0
 11
328.086635590911
 21
254.24751856733
 31
0.0
  0
INSERT
  5
3838
330
3832
100
AcDbEntity
  8
寸法
 62
     0
370
    -2
100
AcDbBlockReference
  2
_DOT
 10
328.086635590911
 20
204.1760143216588
 30
0.0
 41
2.0
 42
2.0
 43
2.0
 50
270.0
  0
INSERT
  5
3839
330
3832
100
AcDbEntity
  8
寸法
 62
     0
370
    -2
100
AcDbBlockReference
  2
_DOT
 10
328.086635590911
 20
256.24751856733
 30
0.0
 41
2.0
 42
2.0
 43
2.0
 50
90.0
  0
MTEXT
  5
383A
330
3832
100
AcDbEntity
  8
寸法
 62
     0
100
AcDbMText
 10
320.586635590911
 20
230.2117664444944
 30
0.0
 40
5.0
 41
0.0
 46
0.0
 71
     5
 72
     1
  1
\A1;52
  7
ＭＳ ゴシック
 11
0.0
 21
1.0
 31
0.0
 73
     1
 44
1.0
  0
POINT
  5
383B
330
3832
100
AcDbEntity
  8
Defpoints
 62
     0
100
AcDbPoint
 10
311.4353297607628
 20
204.1760143216588
 30
0.0
  0
POINT
  5
383C
330
3832
100
AcDbEntity
  8
Defpoints
 62
     0
100
AcDbPoint
 10
234.1066654855546
 20
256.24751856733
 30
0.0
  0
POINT
  5
383D
330
3832
100
AcDbEntity
  8
Defpoints
 62
     0
100
AcDbPoint
 10
328.086635590911
 20
256.24751856733
 30
0.0
  0
ENDBLK
  5
3834
330
3832
100
AcDbEntity
  8
0
100
AcDbBlockEnd
  0
BLOCK
  5
3960
330
395F
100
AcDbEntity
  8
0
100
AcDbBlockBegin
  2
*D15
 70
     1
 10
0.0
 20
0.0
 30
0.0
  3
*D15
  1
*D40
  0
LINE
  5
3961
330
395F
100
AcDbEntity
  8
寸法
 62
     0
370
    -2
100
AcDbLine
 10
14.74478791698148
 20
224.0104347839655
 30
0.0
 11
9.999999999999986
 21
224.0104347839655
 31
0.0
  0
LINE
  5
3962
330
395F
100
AcDbEntity
  8
寸法
 62
     0
370
    -2
100
AcDbLine
 10
14.74478791698148
 20
219.3526626152015
 30
0.0
 11
9.999999999999986
 21
219.3526626152015
 31
0.0
  0
LINE
  5
3963
330
395F
100
AcDbEntity
  8
寸法
 62
     0
370
    -2
100
AcDbLine
 10
9.999999999999986
 20
222.0104347839655
 30
0.0
 11
9.999999999999986
 21
221.3526626152015
 31
0.0
  0
INSERT
  5
3964
330
395F
100
AcDbEntity
  8
寸法
 62
     0
370
    -2
100
AcDbBlockReference
  2
_DOT
 10
9.999999999999986
 20
224.0104347839655
 30
0.0
 41
2.0
 42
2.0
 43
2.0
 50
90.0
  0
INSERT
  5
3965
330
395F
100
AcDbEntity
  8
寸法
 62
     0
370
    -2
100
AcDbBlockReference
  2
_DOT
 10
9.999999999999986
 20
219.3526626152015
 30
0.0
 41
2.0
 42
2.0
 43
2.0
 50
270.0
  0
MTEXT
  5
3966
330
395F
100
AcDbEntity
  8
寸法
 62
     0
100
AcDbMText
 10
2.499999999999986
 20
221.6357466385695
 30
0.0
 40
5.0
 41
0.0
 46
0.0
 71
     5
 72
     1
  1
\A1;5
  7
ＭＳ ゴシック
 11
0.0
 21
1.0
 31
0.0
 73
     1
 44
1.0
  0
POINT
  5
3967
330
395F
100
AcDbEntity
  8
Defpoints
 62
     0
100
AcDbPoint
 10
19.74478791698148
 20
224.0104347839655
 30
0.0
  0
POINT
  5
3968
330
395F
100
AcDbEntity
  8
Defpoints
 62
     0
100
AcDbPoint
 10
19.74478791698148
 20
219.3526626152015
 30
0.0
  0
POINT
  5
3969
330
395F
100
AcDbEntity
  8
Defpoints
 62
     0
100
AcDbPoint
 10
9.999999999999986
 20
219.3526626152015
 30
0.0
  0
ENDBLK
  5
396A
330
395F
100
AcDbEntity
  8
0
100
AcDbBlockEnd
  0
BLOCK
  5
396F
330
396E
100
AcDbEntity
  8
0
100
AcDbBlockBegin
  2
*D16
 70
     1
 10
0.0
 20
0.0
 30
0.0
  3
*D16
  1
*D41
  0
LINE
  5
3970
330
396E
100
AcDbEntity
  8
寸法
 62
     0
370
    -2
100
AcDbLine
 10
29.98417784932528
 20
164.3206710295212
 30
0.0
 11
9.999999999999984
 21
164.3206710295212
 31
0.0
  0
LINE
  5
3971
330
396E
100
AcDbEntity
  8
寸法
 62
     0
370
    -2
100
AcDbLine
 10
29.98417784932528
 20
184.2161105817494
 30
0.0
 11
9.999999999999986
 21
184.2161105817494
 31
0.0
  0
LINE
  5
3972
330
396E
100
AcDbEntity
  8
寸法
 62
     0
370
    -2
100
AcDbLine
 10
9.999999999999984
 20
166.3206710295212
 30
0.0
 11
9.999999999999986
 21
182.2161105817494
 31
0.0
  0
INSERT
  5
3973
330
396E
100
AcDbEntity
  8
寸法
 62
     0
370
    -2
100
AcDbBlockReference
  2
_DOT
 10
9.999999999999984
 20
164.3206710295212
 30
0.0
 41
2.0
 42
2.0
 43
2.0
 50
270.0
  0
INSERT
  5
3974
330
396E
100
AcDbEntity
  8
寸法
 62
     0
370
    -2
100
AcDbBlockReference
  2
_DOT
 10
9.999999999999986
 20
184.2161105817494
 30
0.0
 41
2.0
 42
2.0
 43
2.0
 50
90.0
  0
MTEXT
  5
3975
330
396E
100
AcDbEntity
  8
寸法
 62
     0
100
AcDbMText
 10
2.499999999999986
 20
174.2683908056353
 30
0.0
 40
5.0
 41
0.0
 46
0.0
 71
     5
 72
     1
  1
\A1;20
  7
ＭＳ ゴシック
 11
8.928462398315330E-17
 21
1.0
 31
0.0
 73
     1
 44
1.0
  0
POINT
  5
3976
330
396E
100
AcDbEntity
  8
Defpoints
 62
     0
100
AcDbPoint
 10
34.98417784932528
 20
164.3206710295212
 30
0.0
  0
POINT
  5
3977
330
396E
100
AcDbEntity
  8
Defpoints
 62
     0
100
AcDbPoint
 10
34.98417784932528
 20
184.2161105817494
 30
0.0
  0
POINT
  5
3978
330
396E
100
AcDbEntity
  8
Defpoints
 62
     0
100
AcDbPoint
 10
9.999999999999986
 20
184.2161105817494
 30
0.0
  0
ENDBLK
  5
3979
330
396E
100
AcDbEntity
  8
0
100
AcDbBlockEnd
  0
BLOCK
  5
397E
330
397D
100
AcDbEntity
  8
0
100
AcDbBlockBegin
  2
*D17
 70
     1
 10
0.0
 20
0.0
 30
0.0
  3
*D17
  1
*D42
  0
LINE
  5
397F
330
397D
100
AcDbEntity
  8
寸法
 62
     0
370
    -2
100
AcDbLine
 10
134.4682658059849
 20
161.8597080771391
 30
0.0
 11
134.4682658059849
 21
145.2942155193206
 31
0.0
  0
LINE
  5
3980
330
397D
100
AcDbEntity
  8
寸法
 62
     0
370
    -2
100
AcDbLine
 10
34.56215337397478
 20
159.7426955048717
 30
0.0
 11
34.56215337397478
 21
145.2942155193206
 31
0.0
  0
LINE
  5
3981
330
397D
100
AcDbEntity
  8
寸法
 62
     0
370
    -2
100
AcDbLine
 10
132.4682658059849
 20
145.2942155193206
 30
0.0
 11
36.56215337397478
 21
145.2942155193206
 31
0.0
  0
INSERT
  5
3982
330
397D
100
AcDbEntity
  8
寸法
 62
     0
370
    -2
100
AcDbBlockReference
  2
_DOT
 10
134.4682658059849
 20
145.2942155193206
 30
0.0
 41
2.0
 42
2.0
 43
2.0
  0
INSERT
  5
3983
330
397D
100
AcDbEntity
  8
寸法
 62
     0
370
    -2
100
AcDbBlockReference
  2
_DOT
 10
34.56215337397478
 20
145.2942155193206
 30
0.0
 41
2.0
 42
2.0
 43
2.0
 50
180.0
  0
MTEXT
  5
3984
330
397D
100
AcDbEntity
  8
寸法
 62
     0
100
AcDbMText
 10
84.51520958997983
 20
152.7942155193206
 30
0.0
 40
5.0
 41
0.0
 46
0.0
 71
     5
 72
     1
  1
\A1;100
  7
ＭＳ ゴシック
 73
     1
 44
1.0
  0
POINT
  5
3985
330
397D
100
AcDbEntity
  8
Defpoints
 62
     0
100
AcDbPoint
 10
134.4682658059849
 20
166.8597080771391
 30
0.0
  0
POINT
  5
3986
330
397D
100
AcDbEntity
  8
Defpoints
 62
     0
100
AcDbPoint
 10
34.56215337397478
 20
164.7426955048717
 30
0.0
  0
POINT
  5
3987
330
397D
100
AcDbEntity
  8
Defpoints
 62
     0
100
AcDbPoint
 10
34.56215337397478
 20
145.2942155193206
 30
0.0
  0
ENDBLK
  5
3988
330
397D
100
AcDbEntity
  8
0
100
AcDbBlockEnd
  0
BLOCK
  5
398D
330
398C
100
AcDbEntity
  8
0
100
AcDbBlockBegin
  2
*D18
 70
     1
 10
0.0
 20
0.0
 30
0.0
  3
*D18
  1
*D43
  0
LINE
  5
398E
330
398C
100
AcDbEntity
  8
寸法
 62
     0
370
    -2
100
AcDbLine
 10
29.98417784932528
 20
184.2161105817494
 30
0.0
 11
9.999999999999984
 21
184.2161105817494
 31
0.0
  0
LINE
  5
398F
330
398C
100
AcDbEntity
  8
寸法
 62
     0
370
    -2
100
AcDbLine
 10
14.74478791698148
 20
219.3526626152015
 30
0.0
 11
9.999999999999986
 21
219.3526626152015
 31
0.0
  0
LINE
  5
3990
330
398C
100
AcDbEntity
  8
寸法
 62
     0
370
    -2
100
AcDbLine
 10
9.999999999999984
 20
186.2161105817494
 30
0.0
 11
9.999999999999986
 21
217.3526626152015
 31
0.0
  0
INSERT
  5
3991
330
398C
100
AcDbEntity
  8
寸法
 62
     0
370
    -2
100
AcDbBlockReference
  2
_DOT
 10
9.999999999999984
 20
184.2161105817494
 30
0.0
 41
2.0
 42
2.0
 43
2.0
 50
270.0
  0
INSERT
  5
3992
330
398C
100
AcDbEntity
  8
寸法
 62
     0
370
    -2
100
AcDbBlockReference
  2
_DOT
 10
9.999999999999986
 20
219.3526626152015
 30
0.0
 41
2.0
 42
2.0
 43
2.0
 50
90.0
  0
MTEXT
  5
3993
330
398C
100
AcDbEntity
  8
寸法
 62
     0
100
AcDbMText
 10
2.499999999999986
 20
201.7843865984755
 30
0.0
 40
5.0
 41
0.0
 46
0.0
 71
     5
 72
     1
  1
\A1;35
  7
ＭＳ ゴシック
 11
5.055580973651175E-17
 21
1.0
 31
0.0
 73
     1
 44
1.0
  0
POINT
  5
3994
330
398C
100
AcDbEntity
  8
Defpoints
 62
     0
100
AcDbPoint
 10
34.98417784932528
 20
184.2161105817494
 30
0.0
  0
POINT
  5
3995
330
398C
100
AcDbEntity
  8
Defpoints
 62
     0
100
AcDbPoint
 10
19.74478791698148
 20
219.3526626152015
 30
0.0
  0
POINT
  5
3996
330
398C
100
AcDbEntity
  8
Defpoints
 62
     0
100
AcDbPoint
 10
9.999999999999986
 20
219.3526626152015
 30
0.0
  0
ENDBLK
  5
3997
330
398C
100
AcDbEntity
  8
0
100
AcDbBlockEnd
  0
BLOCK
  5
399A
330
3999
100
AcDbEntity
  8
0
100
AcDbBlockBegin
  2
*D19
 70
     1
 10
0.0
 20
0.0
 30
0.0
  3
*D19
  1
*D44
  0
LINE
  5
399B
330
3999
100
AcDbEntity
  8
寸法
 62
     0
370
    -2
100
AcDbLine
 10
39.72088538776438
 20
17.8237685643322
 30
0.0
 11
9.999999999999982
 21
17.8237685643322
 31
0.0
  0
LINE
  5
399C
330
3999
100
AcDbEntity
  8
寸法
 62
     0
370
    -2
100
AcDbLine
 10
39.72088538776438
 20
68.20192514080222
 30
0.0
 11
9.999999999999986
 21
68.20192514080222
 31
0.0
  0
LINE
  5
399D
330
3999
100
AcDbEntity
  8
寸法
 62
     0
370
    -2
100
AcDbLine
 10
9.999999999999982
 20
19.8237685643322
 30
0.0
 11
9.999999999999986
 21
66.20192514080222
 31
0.0
  0
INSERT
  5
399E
330
3999
100
AcDbEntity
  8
寸法
 62
     0
370
    -2
100
AcDbBlockReference
  2
_DOT
 10
9.999999999999982
 20
17.8237685643322
 30
0.0
 41
2.0
 42
2.0
 43
2.0
 50
270.0
  0
INSERT
  5
399F
330
3999
100
AcDbEntity
  8
寸法
 62
     0
370
    -2
100
AcDbBlockReference
  2
_DOT
 10
9.999999999999986
 20
68.20192514080222
 30
0.0
 41
2.0
 42
2.0
 43
2.0
 50
90.0
  0
MTEXT
  5
39A0
330
3999
100
AcDbEntity
  8
寸法
 62
     0
100
AcDbMText
 10
2.499999999999984
 20
43.01284685256721
 30
0.0
 40
5.0
 41
0.0
 46
0.0
 71
     5
 72
     1
  1
\A1;50
  7
ＭＳ ゴシック
 11
7.052091462314159E-17
 21
1.0
 31
0.0
 73
     1
 44
1.0
  0
POINT
  5
39A1
330
3999
100
AcDbEntity
  8
Defpoints
 62
     0
100
AcDbPoint
 10
44.72088538776438
 20
17.8237685643322
 30
0.0
  0
POINT
  5
39A2
330
3999
100
AcDbEntity
  8
Defpoints
 62
     0
100
AcDbPoint
 10
44.72088538776438
 20
68.20192514080222
 30
0.0
  0
POINT
  5
39A3
330
3999
100
AcDbEntity
  8
Defpoints
 62
     0
100
AcDbPoint
 10
9.999999999999986
 20
68.20192514080222
 30
0.0
  0
ENDBLK
  5
39A4
330
3999
100
AcDbEntity
  8
0
100
AcDbBlockEnd
  0
BLOCK
  5
39A9
330
39A8
100
AcDbEntity
  8
0
100
AcDbBlockBegin
  2
*D20
 70
     1
 10
0.0
 20
0.0
 30
0.0
  3
*D20
  1
*D45
  0
LINE
  5
39AA
330
39A8
100
AcDbEntity
  8
寸法
 62
     0
370
    -2
100
AcDbLine
 10
139.4682658059849
 20
50.4215216741176
 30
0.0
 11
156.8315585182279
 21
50.4215216741176
 31
0.0
  0
LINE
  5
39AB
330
39A8
100
AcDbEntity
  8
寸法
 62
     0
370
    -2
100
AcDbLine
 10
139.4682658059849
 20
35.6041562171234
 30
0.0
 11
156.8315585182279
 21
35.6041562171234
 31
0.0
  0
LINE
  5
39AC
330
39A8
100
AcDbEntity
  8
寸法
 62
     0
370
    -2
100
AcDbLine
 10
156.8315585182279
 20
48.4215216741176
 30
0.0
 11
156.8315585182279
 21
37.6041562171234
 31
0.0
  0
INSERT
  5
39AD
330
39A8
100
AcDbEntity
  8
寸法
 62
     0
370
    -2
100
AcDbBlockReference
  2
_DOT
 10
156.8315585182279
 20
50.4215216741176
 30
0.0
 41
2.0
 42
2.0
 43
2.0
 50
90.0
  0
INSERT
  5
39AE
330
39A8
100
AcDbEntity
  8
寸法
 62
     0
370
    -2
100
AcDbBlockReference
  2
_DOT
 10
156.8315585182279
 20
35.6041562171234
 30
0.0
 41
2.0
 42
2.0
 43
2.0
 50
270.0
  0
MTEXT
  5
39AF
330
39A8
100
AcDbEntity
  8
寸法
 62
     0
100
AcDbMText
 10
149.3315585182279
 20
43.26831551848721
 30
0.0
 40
5.0
 41
0.0
 46
0.0
 71
     5
 72
     1
  1
\A1;15
  7
ＭＳ ゴシック
 11
0.0
 21
1.0
 31
0.0
 73
     1
 44
1.0
  0
POINT
  5
39B0
330
39A8
100
AcDbEntity
  8
Defpoints
 62
     0
100
AcDbPoint
 10
134.4682658059849
 20
50.4215216741176
 30
0.0
  0
POINT
  5
39B1
330
39A8
100
AcDbEntity
  8
Defpoints
 62
     0
100
AcDbPoint
 10
134.4682658059849
 20
35.6041562171234
 30
0.0
  0
POINT
  5
39B2
330
39A8
100
AcDbEntity
  8
Defpoints
 62
     0
100
AcDbPoint
 10
156.8315585182279
 20
35.6041562171234
 30
0.0
  0
ENDBLK
  5
39B3
330
39A8
100
AcDbEntity
  8
0
100
AcDbBlockEnd
  0
BLOCK
  5
39B8
330
39B7
100
AcDbEntity
  8
0
100
AcDbBlockBegin
  2
*D21
 70
     1
 10
0.0
 20
0.0
 30
0.0
  3
*D21
  1
*D46
  0
LINE
  5
39B9
330
39B7
100
AcDbEntity
  8
寸法
 62
     0
370
    -2
100
AcDbLine
 10
139.4682658059849
 20
166.8597080771391
 30
0.0
 11
173.677299873684
 21
166.8597080771391
 31
0.0
  0
LINE
  5
39BA
330
39B7
100
AcDbEntity
  8
寸法
 62
     0
370
    -2
100
AcDbLine
 10
74.69870540742588
 20
224.0104347839655
 30
0.0
 11
173.677299873684
 21
224.0104347839655
 31
0.0
  0
LINE
  5
39BB
330
39B7
100
AcDbEntity
  8
寸法
 62
     0
370
    -2
100
AcDbLine
 10
173.677299873684
 20
168.8597080771391
 30
0.0
 11
173.677299873684
 21
222.0104347839655
 31
0.0
  0
INSERT
  5
39BC
330
39B7
100
AcDbEntity
  8
寸法
 62
     0
370
    -2
100
AcDbBlockReference
  2
_DOT
 10
173.677299873684
 20
166.8597080771391
 30
0.0
 41
2.0
 42
2.0
 43
2.0
 50
270.0
  0
INSERT
  5
39BD
330
39B7
100
AcDbEntity
  8
寸法
 62
     0
370
    -2
100
AcDbBlockReference
  2
_DOT
 10
173.677299873684
 20
224.0104347839655
 30
0.0
 41
2.0
 42
2.0
 43
2.0
 50
90.0
  0
MTEXT
  5
39BE
330
39B7
100
AcDbEntity
  8
寸法
 62
     0
100
AcDbMText
 10
166.177299873684
 20
195.4350714305523
 30
0.0
 40
5.0
 41
0.0
 46
0.0
 71
     5
 72
     1
  1
\A1;57
  7
ＭＳ ゴシック
 11
0.0
 21
1.0
 31
0.0
 73
     1
 44
1.0
  0
POINT
  5
39BF
330
39B7
100
AcDbEntity
  8
Defpoints
 62
     0
100
AcDbPoint
 10
134.4682658059849
 20
166.8597080771391
 30
0.0
  0
POINT
  5
39C0
330
39B7
100
AcDbEntity
  8
Defpoints
 62
     0
100
AcDbPoint
 10
69.69870540742588
 20
224.0104347839655
 30
0.0
  0
POINT
  5
39C1
330
39B7
100
AcDbEntity
  8
Defpoints
 62
     0
100
AcDbPoint
 10
173.677299873684
 20
224.0104347839655
 30
0.0
  0
ENDBLK
  5
39C2
330
39B7
100
AcDbEntity
  8
0
100
AcDbBlockEnd
  0
BLOCK
  5
39C7
330
39C6
100
AcDbEntity
  8
0
100
AcDbBlockBegin
  2
*D22
 70
     1
 10
0.0
 20
0.0
 30
0.0
  3
*D22
  1
*D47
  0
LINE
  5
39C8
330
39C6
100
AcDbEntity
  8
寸法
 62
     0
370
    -2
100
AcDbLine
 10
74.69870540742588
 20
224.0104347839655
 30
0.0
 11
153.1098097798007
 21
224.0104347839655
 31
0.0
  0
LINE
  5
39C9
330
39C6
100
AcDbEntity
  8
寸法
 62
     0
370
    -2
100
AcDbLine
 10
139.4682658059849
 20
181.6770735341324
 30
0.0
 11
153.1098097798007
 21
181.6770735341324
 31
0.0
  0
LINE
  5
39CA
330
39C6
100
AcDbEntity
  8
寸法
 62
     0
370
    -2
100
AcDbLine
 10
153.1098097798007
 20
222.0104347839655
 30
0.0
 11
153.1098097798007
 21
183.6770735341324
 31
0.0
  0
INSERT
  5
39CB
330
39C6
100
AcDbEntity
  8
寸法
 62
     0
370
    -2
100
AcDbBlockReference
  2
_DOT
 10
153.1098097798007
 20
224.0104347839655
 30
0.0
 41
2.0
 42
2.0
 43
2.0
 50
90.0
  0
INSERT
  5
39CC
330
39C6
100
AcDbEntity
  8
寸法
 62
     0
370
    -2
100
AcDbBlockReference
  2
_DOT
 10
153.1098097798007
 20
181.6770735341324
 30
0.0
 41
2.0
 42
2.0
 43
2.0
 50
270.0
  0
MTEXT
  5
39CD
330
39C6
100
AcDbEntity
  8
寸法
 62
     0
100
AcDbMText
 10
145.6098097798007
 20
202.843754159049
 30
0.0
 40
5.0
 41
0.0
 46
0.0
 71
     5
 72
     1
  1
\A1;42
  7
ＭＳ ゴシック
 11
0.0
 21
1.0
 31
0.0
 73
     1
 44
1.0
  0
POINT
  5
39CE
330
39C6
100
AcDbEntity
  8
Defpoints
 62
     0
100
AcDbPoint
 10
69.69870540742588
 20
224.0104347839655
 30
0.0
  0
POINT
  5
39CF
330
39C6
100
AcDbEntity
  8
Defpoints
 62
     0
100
AcDbPoint
 10
134.4682658059849
 20
181.6770735341324
 30
0.0
  0
POINT
  5
39D0
330
39C6
100
AcDbEntity
  8
Defpoints
 62
     0
100
AcDbPoint
 10
153.1098097798007
 20
181.6770735341324
 30
0.0
  0
ENDBLK
  5
39D1
330
39C6
100
AcDbEntity
  8
0
100
AcDbBlockEnd
  0
BLOCK
  5
39E3
330
39E2
100
AcDbEntity
  8
0
100
AcDbBlockBegin
  2
*D23
 70
     1
 10
0.0
 20
0.0
 30
0.0
  3
*D23
  1
*D51
  0
LINE
  5
39E4
330
39E2
100
AcDbEntity
  8
寸法
 62
     0
370
    -2
100
AcDbLine
 10
63.72088538776438
 20
37.80096543350609
 30
0.0
 11
63.72088538776438
 21
0.5108464693973076
 31
0.0
  0
LINE
  5
39E5
330
39E2
100
AcDbEntity
  8
寸法
 62
     0
370
    -2
100
AcDbLine
 10
25.88395212166938
 20
37.80096543350609
 30
0.0
 11
25.88395212166938
 21
0.5108464693973076
 31
0.0
  0
LINE
  5
39E6
330
39E2
100
AcDbEntity
  8
寸法
 62
     0
370
    -2
100
AcDbLine
 10
61.72088538776438
 20
0.5108464693973076
 30
0.0
 11
27.88395212166938
 21
0.5108464693973076
 31
0.0
  0
INSERT
  5
39E7
330
39E2
100
AcDbEntity
  8
寸法
 62
     0
370
    -2
100
AcDbBlockReference
  2
_DOT
 10
63.72088538776438
 20
0.5108464693973076
 30
0.0
 41
2.0
 42
2.0
 43
2.0
  0
INSERT
  5
39E8
330
39E2
100
AcDbEntity
  8
寸法
 62
     0
370
    -2
100
AcDbBlockReference
  2
_DOT
 10
25.88395212166938
 20
0.5108464693973076
 30
0.0
 41
2.0
 42
2.0
 43
2.0
 50
180.0
  0
MTEXT
  5
39E9
330
39E2
100
AcDbEntity
  8
寸法
 62
     0
100
AcDbMText
 10
44.80241875471688
 20
8.010846469397308
 30
0.0
 40
5.0
 41
0.0
 46
0.0
 71
     5
 72
     1
  1
\A1;38
  7
ＭＳ ゴシック
 73
     1
 44
1.0
  0
POINT
  5
39EA
330
39E2
100
AcDbEntity
  8
Defpoints
 62
     0
100
AcDbPoint
 10
63.72088538776438
 20
42.80096543350609
 30
0.0
  0
POINT
  5
39EB
330
39E2
100
AcDbEntity
  8
Defpoints
 62
     0
100
AcDbPoint
 10
25.88395212166938
 20
42.80096543350609
 30
0.0
  0
POINT
  5
39EC
330
39E2
100
AcDbEntity
  8
Defpoints
 62
     0
100
AcDbPoint
 10
25.88395212166938
 20
0.5108464693973076
 30
0.0
  0
ENDBLK
  5
39ED
330
39E2
100
AcDbEntity
  8
0
100
AcDbBlockEnd
  0
BLOCK
  5
39F2
330
39F1
100
AcDbEntity
  8
0
100
AcDbBlockBegin
  2
*D24
 70
     1
 10
0.0
 20
0.0
 30
0.0
  3
*D24
  1
*D52
  0
LINE
  5
39F3
330
39F1
100
AcDbEntity
  8
寸法
 62
     0
370
    -2
100
AcDbLine
 10
314.8282422312282
 20
12.8237527504389
 30
0.0
 11
314.8282422312282
 21
0.5
 31
0.0
  0
LINE
  5
39F4
330
39F1
100
AcDbEntity
  8
寸法
 62
     0
370
    -2
100
AcDbLine
 10
310.1704700624643
 20
12.8237527504389
 30
0.0
 11
310.1704700624643
 21
0.5
 31
0.0
  0
LINE
  5
39F5
330
39F1
100
AcDbEntity
  8
寸法
 62
     0
370
    -2
100
AcDbLine
 10
312.8282422312282
 20
0.5
 30
0.0
 11
312.1704700624643
 21
0.5
 31
0.0
  0
INSERT
  5
39F6
330
39F1
100
AcDbEntity
  8
寸法
 62
     0
370
    -2
100
AcDbBlockReference
  2
_DOT
 10
314.8282422312282
 20
0.5
 30
0.0
 41
2.0
 42
2.0
 43
2.0
  0
INSERT
  5
39F7
330
39F1
100
AcDbEntity
  8
寸法
 62
     0
370
    -2
100
AcDbBlockReference
  2
_DOT
 10
310.1704700624643
 20
0.5
 30
0.0
 41
2.0
 42
2.0
 43
2.0
 50
180.0
  0
MTEXT
  5
39F8
330
39F1
100
AcDbEntity
  8
寸法
 62
     0
100
AcDbMText
 10
312.4993561468462
 20
8.0
 30
0.0
 40
5.0
 41
0.0
 46
0.0
 71
     5
 72
     1
  1
\A1;5
  7
ＭＳ ゴシック
 73
     1
 44
1.0
  0
POINT
  5
39F9
330
39F1
100
AcDbEntity
  8
Defpoints
 62
     0
100
AcDbPoint
 10
314.8282422312282
 20
17.8237527504389
 30
0.0
  0
POINT
  5
39FA
330
39F1
100
AcDbEntity
  8
Defpoints
 62
     0
100
AcDbPoint
 10
310.1704700624643
 20
17.8237527504389
 30
0.0
  0
POINT
  5
39FB
330
39F1
100
AcDbEntity
  8
Defpoints
 62
     0
100
AcDbPoint
 10
310.1704700624643
 20
0.5
 30
0.0
  0
ENDBLK
  5
39FC
330
39F1
100
AcDbEntity
  8
0
100
AcDbBlockEnd
  0
BLOCK
  5
3AE1
330
3AE0
100
AcDbEntity
  8
0
100
AcDbBlockBegin
  2
*D25
 70
     1
 10
0.0
 20
0.0
 30
0.0
  3
*D25
  1
*D26
  0
LINE
  5
3AE3
330
3AE0
100
AcDbEntity
  8
寸法
 62
     0
370
    -2
100
AcDbLine
 10
141.8419307741243
 20
350.9532919268227
 30
0.0
 11
137.0971428571428
 21
350.9532919268227
 31
0.0
  0
LINE
  5
3AE4
330
3AE0
100
AcDbEntity
  8
寸法
 62
     0
370
    -2
100
AcDbLine
 10
141.8419307741243
 20
346.2955197580586
 30
0.0
 11
137.0971428571428
 21
346.2955197580586
 31
0.0
  0
LINE
  5
3AE5
330
3AE0
100
AcDbEntity
  8
寸法
 62
     0
370
    -2
100
AcDbLine
 10
137.0971428571428
 20
348.9532919268227
 30
0.0
 11
137.0971428571428
 21
348.2955197580586
 31
0.0
  0
INSERT
  5
3AE6
330
3AE0
100
AcDbEntity
  8
寸法
 62
     0
370
    -2
100
AcDbBlockReference
  2
_DOT
 10
137.0971428571428
 20
350.9532919268227
 30
0.0
 41
2.0
 42
2.0
 43
2.0
 50
90.0
  0
INSERT
  5
3AE7
330
3AE0
100
AcDbEntity
  8
寸法
 62
     0
370
    -2
100
AcDbBlockReference
  2
_DOT
 10
137.0971428571428
 20
346.2955197580586
 30
0.0
 41
2.0
 42
2.0
 43
2.0
 50
270.0
  0
MTEXT
  5
3AE8
330
3AE0
100
AcDbEntity
  8
寸法
 62
     0
100
AcDbMText
 10
129.5971428571428
 20
348.5786037814266
 30
0.0
 40
5.0
 41
0.0
 46
0.0
 71
     5
 72
     1
  1
\A1;5
  7
ＭＳ ゴシック
 11
0.0
 21
1.0
 31
0.0
 73
     1
 44
1.0
  0
POINT
  5
3AE9
330
3AE0
100
AcDbEntity
  8
Defpoints
 62
     0
100
AcDbPoint
 10
146.8419307741243
 20
350.9532919268227
 30
0.0
  0
POINT
  5
3AEA
330
3AE0
100
AcDbEntity
  8
Defpoints
 62
     0
100
AcDbPoint
 10
146.8419307741243
 20
346.2955197580586
 30
0.0
  0
POINT
  5
3AEB
330
3AE0
100
AcDbEntity
  8
Defpoints
 62
     0
100
AcDbPoint
 10
137.0971428571428
 20
346.2955197580586
 30
0.0
  0
ENDBLK
  5
3AE2
330
3AE0
100
AcDbEntity
  8
0
100
AcDbBlockEnd
  0
BLOCK
  5
3AED
330
3AEC
100
AcDbEntity
  8
0
100
AcDbBlockBegin
  2
*D26
 70
     1
 10
0.0
 20
0.0
 30
0.0
  3
*D26
  1
*D27
  0
LINE
  5
3AEF
330
3AEC
100
AcDbEntity
  8
寸法
 62
     0
370
    -2
100
AcDbLine
 10
157.0813207064681
 20
291.2635281723783
 30
0.0
 11
137.0971428571428
 21
291.2635281723783
 31
0.0
  0
LINE
  5
3AF0
330
3AEC
100
AcDbEntity
  8
寸法
 62
     0
370
    -2
100
AcDbLine
 10
157.0813207064681
 20
311.1589677246066
 30
0.0
 11
137.0971428571428
 21
311.1589677246066
 31
0.0
  0
LINE
  5
3AF1
330
3AEC
100
AcDbEntity
  8
寸法
 62
     0
370
    -2
100
AcDbLine
 10
137.0971428571428
 20
293.2635281723783
 30
0.0
 11
137.0971428571428
 21
309.1589677246066
 31
0.0
  0
INSERT
  5
3AF2
330
3AEC
100
AcDbEntity
  8
寸法
 62
     0
370
    -2
100
AcDbBlockReference
  2
_DOT
 10
137.0971428571428
 20
291.2635281723783
 30
0.0
 41
2.0
 42
2.0
 43
2.0
 50
270.0
  0
INSERT
  5
3AF3
330
3AEC
100
AcDbEntity
  8
寸法
 62
     0
370
    -2
100
AcDbBlockReference
  2
_DOT
 10
137.0971428571428
 20
311.1589677246066
 30
0.0
 41
2.0
 42
2.0
 43
2.0
 50
90.0
  0
MTEXT
  5
3AF4
330
3AEC
100
AcDbEntity
  8
寸法
 62
     0
100
AcDbMText
 10
129.5971428571428
 20
301.2112479484924
 30
0.0
 40
5.0
 41
0.0
 46
0.0
 71
     5
 72
     1
  1
\A1;20
  7
ＭＳ ゴシック
 11
0.0
 21
1.0
 31
0.0
 73
     1
 44
1.0
  0
POINT
  5
3AF5
330
3AEC
100
AcDbEntity
  8
Defpoints
 62
     0
100
AcDbPoint
 10
162.0813207064681
 20
291.2635281723783
 30
0.0
  0
POINT
  5
3AF6
330
3AEC
100
AcDbEntity
  8
Defpoints
 62
     0
100
AcDbPoint
 10
162.0813207064681
 20
311.1589677246066
 30
0.0
  0
POINT
  5
3AF7
330
3AEC
100
AcDbEntity
  8
Defpoints
 62
     0
100
AcDbPoint
 10
137.0971428571428
 20
311.1589677246066
 30
0.0
  0
ENDBLK
  5
3AEE
330
3AEC
100
AcDbEntity
  8
0
100
AcDbBlockEnd
  0
BLOCK
  5
3AF9
330
3AF8
100
AcDbEntity
  8
0
100
AcDbBlockBegin
  2
*D27
 70
     1
 10
0.0
 20
0.0
 30
0.0
  3
*D27
  1
*D28
  0
LINE
  5
3AFB
330
3AF8
100
AcDbEntity
  8
寸法
 62
     0
370
    -2
100
AcDbLine
 10
261.5654086631278
 20
288.8025652199963
 30
0.0
 11
261.5654086631278
 21
272.2370726621778
 31
0.0
  0
LINE
  5
3AFC
330
3AF8
100
AcDbEntity
  8
寸法
 62
     0
370
    -2
100
AcDbLine
 10
161.6592962311176
 20
286.6855526477289
 30
0.0
 11
161.6592962311176
 21
272.2370726621778
 31
0.0
  0
LINE
  5
3AFD
330
3AF8
100
AcDbEntity
  8
寸法
 62
     0
370
    -2
100
AcDbLine
 10
259.5654086631278
 20
272.2370726621778
 30
0.0
 11
163.6592962311176
 21
272.2370726621778
 31
0.0
  0
INSERT
  5
3AFE
330
3AF8
100
AcDbEntity
  8
寸法
 62
     0
370
    -2
100
AcDbBlockReference
  2
_DOT
 10
261.5654086631278
 20
272.2370726621778
 30
0.0
 41
2.0
 42
2.0
 43
2.0
  0
INSERT
  5
3AFF
330
3AF8
100
AcDbEntity
  8
寸法
 62
     0
370
    -2
100
AcDbBlockReference
  2
_DOT
 10
161.6592962311176
 20
272.2370726621778
 30
0.0
 41
2.0
 42
2.0
 43
2.0
 50
180.0
  0
MTEXT
  5
3B00
330
3AF8
100
AcDbEntity
  8
寸法
 62
     0
100
AcDbMText
 10
211.6123524471227
 20
279.7370726621778
 30
0.0
 40
5.0
 41
0.0
 46
0.0
 71
     5
 72
     1
  1
\A1;100
  7
ＭＳ ゴシック
 73
     1
 44
1.0
  0
POINT
  5
3B01
330
3AF8
100
AcDbEntity
  8
Defpoints
 62
     0
100
AcDbPoint
 10
261.5654086631278
 20
293.8025652199963
 30
0.0
  0
POINT
  5
3B02
330
3AF8
100
AcDbEntity
  8
Defpoints
 62
     0
100
AcDbPoint
 10
161.6592962311176
 20
291.6855526477289
 30
0.0
  0
POINT
  5
3B03
330
3AF8
100
AcDbEntity
  8
Defpoints
 62
     0
100
AcDbPoint
 10
161.6592962311176
 20
272.2370726621778
 30
0.0
  0
ENDBLK
  5
3AFA
330
3AF8
100
AcDbEntity
  8
0
100
AcDbBlockEnd
  0
BLOCK
  5
3B05
330
3B04
100
AcDbEntity
  8
0
100
AcDbBlockBegin
  2
*D28
 70
     1
 10
0.0
 20
0.0
 30
0.0
  3
*D28
  1
*D29
  0
LINE
  5
3B07
330
3B04
100
AcDbEntity
  8
寸法
 62
     0
370
    -2
100
AcDbLine
 10
157.0813207064681
 20
311.1589677246066
 30
0.0
 11
137.0971428571428
 21
311.1589677246066
 31
0.0
  0
LINE
  5
3B08
330
3B04
100
AcDbEntity
  8
寸法
 62
     0
370
    -2
100
AcDbLine
 10
141.8419307741243
 20
346.2955197580586
 30
0.0
 11
137.0971428571428
 21
346.2955197580586
 31
0.0
  0
LINE
  5
3B09
330
3B04
100
AcDbEntity
  8
寸法
 62
     0
370
    -2
100
AcDbLine
 10
137.0971428571428
 20
313.1589677246066
 30
0.0
 11
137.0971428571428
 21
344.2955197580586
 31
0.0
  0
INSERT
  5
3B0A
330
3B04
100
AcDbEntity
  8
寸法
 62
     0
370
    -2
100
AcDbBlockReference
  2
_DOT
 10
137.0971428571428
 20
311.1589677246066
 30
0.0
 41
2.0
 42
2.0
 43
2.0
 50
270.0
  0
INSERT
  5
3B0B
330
3B04
100
AcDbEntity
  8
寸法
 62
     0
370
    -2
100
AcDbBlockReference
  2
_DOT
 10
137.0971428571428
 20
346.2955197580586
 30
0.0
 41
2.0
 42
2.0
 43
2.0
 50
90.0
  0
MTEXT
  5
3B0C
330
3B04
100
AcDbEntity
  8
寸法
 62
     0
100
AcDbMText
 10
129.5971428571428
 20
328.7272437413326
 30
0.0
 40
5.0
 41
0.0
 46
0.0
 71
     5
 72
     1
  1
\A1;35
  7
ＭＳ ゴシック
 11
0.0
 21
1.0
 31
0.0
 73
     1
 44
1.0
  0
POINT
  5
3B0D
330
3B04
100
AcDbEntity
  8
Defpoints
 62
     0
100
AcDbPoint
 10
162.0813207064681
 20
311.1589677246066
 30
0.0
  0
POINT
  5
3B0E
330
3B04
100
AcDbEntity
  8
Defpoints
 62
     0
100
AcDbPoint
 10
146.8419307741243
 20
346.2955197580586
 30
0.0
  0
POINT
  5
3B0F
330
3B04
100
AcDbEntity
  8
Defpoints
 62
     0
100
AcDbPoint
 10
137.0971428571428
 20
346.2955197580586
 30
0.0
  0
ENDBLK
  5
3B06
330
3B04
100
AcDbEntity
  8
0
100
AcDbBlockEnd
  0
BLOCK
  5
3B11
330
3B10
100
AcDbEntity
  8
0
100
AcDbBlockBegin
  2
*D29
 70
     1
 10
0.0
 20
0.0
 30
0.0
  3
*D29
  1
*D30
  0
LINE
  5
3B13
330
3B10
100
AcDbEntity
  8
寸法
 62
     0
370
    -2
100
AcDbLine
 10
166.8180282449072
 20
144.7666257071893
 30
0.0
 11
137.0971428571428
 21
144.7666257071893
 31
0.0
  0
LINE
  5
3B14
330
3B10
100
AcDbEntity
  8
寸法
 62
     0
370
    -2
100
AcDbLine
 10
166.8180282449072
 20
195.1447822836593
 30
0.0
 11
137.0971428571428
 21
195.1447822836593
 31
0.0
  0
LINE
  5
3B15
330
3B10
100
AcDbEntity
  8
寸法
 62
     0
370
    -2
100
AcDbLine
 10
137.0971428571428
 20
146.7666257071893
 30
0.0
 11
137.0971428571428
 21
193.1447822836593
 31
0.0
  0
INSERT
  5
3B16
330
3B10
100
AcDbEntity
  8
寸法
 62
     0
370
    -2
100
AcDbBlockReference
  2
_DOT
 10
137.0971428571428
 20
144.7666257071893
 30
0.0
 41
2.0
 42
2.0
 43
2.0
 50
270.0
  0
INSERT
  5
3B17
330
3B10
100
AcDbEntity
  8
寸法
 62
     0
370
    -2
100
AcDbBlockReference
  2
_DOT
 10
137.0971428571428
 20
195.1447822836593
 30
0.0
 41
2.0
 42
2.0
 43
2.0
 50
90.0
  0
MTEXT
  5
3B18
330
3B10
100
AcDbEntity
  8
寸法
 62
     0
100
AcDbMText
 10
129.5971428571428
 20
169.9557039954243
 30
0.0
 40
5.0
 41
0.0
 46
0.0
 71
     5
 72
     1
  1
\A1;50
  7
ＭＳ ゴシック
 11
0.0
 21
1.0
 31
0.0
 73
     1
 44
1.0
  0
POINT
  5
3B19
330
3B10
100
AcDbEntity
  8
Defpoints
 62
     0
100
AcDbPoint
 10
171.8180282449072
 20
144.7666257071893
 30
0.0
  0
POINT
  5
3B1A
330
3B10
100
AcDbEntity
  8
Defpoints
 62
     0
100
AcDbPoint
 10
171.8180282449072
 20
195.1447822836593
 30
0.0
  0
POINT
  5
3B1B
330
3B10
100
AcDbEntity
  8
Defpoints
 62
     0
100
AcDbPoint
 10
137.0971428571428
 20
195.1447822836593
 30
0.0
  0
ENDBLK
  5
3B12
330
3B10
100
AcDbEntity
  8
0
100
AcDbBlockEnd
  0
BLOCK
  5
3B1D
330
3B1C
100
AcDbEntity
  8
0
100
AcDbBlockBegin
  2
*D30
 70
     1
 10
0.0
 20
0.0
 30
0.0
  3
*D30
  1
*D31
  0
LINE
  5
3B1F
330
3B1C
100
AcDbEntity
  8
寸法
 62
     0
370
    -2
100
AcDbLine
 10
266.5654086631278
 20
177.3643788169747
 30
0.0
 11
283.9287013753707
 21
177.3643788169747
 31
0.0
  0
LINE
  5
3B20
330
3B1C
100
AcDbEntity
  8
寸法
 62
     0
370
    -2
100
AcDbLine
 10
266.5654086631278
 20
162.5470133599805
 30
0.0
 11
283.9287013753707
 21
162.5470133599805
 31
0.0
  0
LINE
  5
3B21
330
3B1C
100
AcDbEntity
  8
寸法
 62
     0
370
    -2
100
AcDbLine
 10
283.9287013753707
 20
175.3643788169747
 30
0.0
 11
283.9287013753707
 21
164.5470133599805
 31
0.0
  0
INSERT
  5
3B22
330
3B1C
100
AcDbEntity
  8
寸法
 62
     0
370
    -2
100
AcDbBlockReference
  2
_DOT
 10
283.9287013753707
 20
177.3643788169747
 30
0.0
 41
2.0
 42
2.0
 43
2.0
 50
90.0
  0
INSERT
  5
3B23
330
3B1C
100
AcDbEntity
  8
寸法
 62
     0
370
    -2
100
AcDbBlockReference
  2
_DOT
 10
283.9287013753707
 20
162.5470133599805
 30
0.0
 41
2.0
 42
2.0
 43
2.0
 50
270.0
  0
MTEXT
  5
3B24
330
3B1C
100
AcDbEntity
  8
寸法
 62
     0
100
AcDbMText
 10
276.4287013753707
 20
170.2111726613443
 30
0.0
 40
5.0
 41
0.0
 46
0.0
 71
     5
 72
     1
  1
\A1;15
  7
ＭＳ ゴシック
 11
0.0
 21
1.0
 31
0.0
 73
     1
 44
1.0
  0
POINT
  5
3B25
330
3B1C
100
AcDbEntity
  8
Defpoints
 62
     0
100
AcDbPoint
 10
261.5654086631278
 20
177.3643788169747
 30
0.0
  0
POINT
  5
3B26
330
3B1C
100
AcDbEntity
  8
Defpoints
 62
     0
100
AcDbPoint
 10
261.5654086631278
 20
162.5470133599805
 30
0.0
  0
POINT
  5
3B27
330
3B1C
100
AcDbEntity
  8
Defpoints
 62
     0
100
AcDbPoint
 10
283.9287013753707
 20
162.5470133599805
 30
0.0
  0
ENDBLK
  5
3B1E
330
3B1C
100
AcDbEntity
  8
0
100
AcDbBlockEnd
  0
BLOCK
  5
3B29
330
3B28
100
AcDbEntity
  8
0
100
AcDbBlockBegin
  2
*D31
 70
     1
 10
0.0
 20
0.0
 30
0.0
  3
*D31
  1
*D32
  0
LINE
  5
3B2B
330
3B28
100
AcDbEntity
  8
寸法
 62
     0
370
    -2
100
AcDbLine
 10
266.5654086631278
 20
293.8025652199963
 30
0.0
 11
300.7744427308268
 21
293.8025652199963
 31
0.0
  0
LINE
  5
3B2C
330
3B28
100
AcDbEntity
  8
寸法
 62
     0
370
    -2
100
AcDbLine
 10
201.7958482645687
 20
350.9532919268227
 30
0.0
 11
300.7744427308268
 21
350.9532919268227
 31
0.0
  0
LINE
  5
3B2D
330
3B28
100
AcDbEntity
  8
寸法
 62
     0
370
    -2
100
AcDbLine
 10
300.7744427308268
 20
295.8025652199963
 30
0.0
 11
300.7744427308268
 21
348.9532919268227
 31
0.0
  0
INSERT
  5
3B2E
330
3B28
100
AcDbEntity
  8
寸法
 62
     0
370
    -2
100
AcDbBlockReference
  2
_DOT
 10
300.7744427308268
 20
293.8025652199963
 30
0.0
 41
2.0
 42
2.0
 43
2.0
 50
270.0
  0
INSERT
  5
3B2F
330
3B28
100
AcDbEntity
  8
寸法
 62
     0
370
    -2
100
AcDbBlockReference
  2
_DOT
 10
300.7744427308268
 20
350.9532919268227
 30
0.0
 41
2.0
 42
2.0
 43
2.0
 50
90.0
  0
MTEXT
  5
3B30
330
3B28
100
AcDbEntity
  8
寸法
 62
     0
100
AcDbMText
 10
293.2744427308268
 20
322.3779285734095
 30
0.0
 40
5.0
 41
0.0
 46
0.0
 71
     5
 72
     1
  1
\A1;57
  7
ＭＳ ゴシック
 11
0.0
 21
1.0
 31
0.0
 73
     1
 44
1.0
  0
POINT
  5
3B31
330
3B28
100
AcDbEntity
  8
Defpoints
 62
     0
100
AcDbPoint
 10
261.5654086631278
 20
293.8025652199963
 30
0.0
  0
POINT
  5
3B32
330
3B28
100
AcDbEntity
  8
Defpoints
 62
     0
100
AcDbPoint
 10
196.7958482645687
 20
350.9532919268227
 30
0.0
  0
POINT
  5
3B33
330
3B28
100
AcDbEntity
  8
Defpoints
 62
     0
100
AcDbPoint
 10
300.7744427308268
 20
350.9532919268227
 30
0.0
  0
ENDBLK
  5
3B2A
330
3B28
100
AcDbEntity
  8
0
100
AcDbBlockEnd
  0
BLOCK
  5
3B35
330
3B34
100
AcDbEntity
  8
0
100
AcDbBlockBegin
  2
*D32
 70
     1
 10
0.0
 20
0.0
 30
0.0
  3
*D32
  1
*D33
  0
LINE
  5
3B37
330
3B34
100
AcDbEntity
  8
寸法
 62
     0
370
    -2
100
AcDbLine
 10
201.7958482645687
 20
350.9532919268227
 30
0.0
 11
280.2069526369435
 21
350.9532919268227
 31
0.0
  0
LINE
  5
3B38
330
3B34
100
AcDbEntity
  8
寸法
 62
     0
370
    -2
100
AcDbLine
 10
266.5654086631278
 20
308.6199306769895
 30
0.0
 11
280.2069526369435
 21
308.6199306769895
 31
0.0
  0
LINE
  5
3B39
330
3B34
100
AcDbEntity
  8
寸法
 62
     0
370
    -2
100
AcDbLine
 10
280.2069526369435
 20
348.9532919268227
 30
0.0
 11
280.2069526369435
 21
310.6199306769895
 31
0.0
  0
INSERT
  5
3B3A
330
3B34
100
AcDbEntity
  8
寸法
 62
     0
370
    -2
100
AcDbBlockReference
  2
_DOT
 10
280.2069526369435
 20
350.9532919268227
 30
0.0
 41
2.0
 42
2.0
 43
2.0
 50
90.0
  0
INSERT
  5
3B3B
330
3B34
100
AcDbEntity
  8
寸法
 62
     0
370
    -2
100
AcDbBlockReference
  2
_DOT
 10
280.2069526369435
 20
308.6199306769895
 30
0.0
 41
2.0
 42
2.0
 43
2.0
 50
270.0
  0
MTEXT
  5
3B3C
330
3B34
100
AcDbEntity
  8
寸法
 62
     0
100
AcDbMText
 10
272.7069526369435
 20
329.7866113019061
 30
0.0
 40
5.0
 41
0.0
 46
0.0
 71
     5
 72
     1
  1
\A1;42
  7
ＭＳ ゴシック
 11
0.0
 21
1.0
 31
0.0
 73
     1
 44
1.0
  0
POINT
  5
3B3D
330
3B34
100
AcDbEntity
  8
Defpoints
 62
     0
100
AcDbPoint
 10
196.7958482645687
 20
350.9532919268227
 30
0.0
  0
POINT
  5
3B3E
330
3B34
100
AcDbEntity
  8
Defpoints
 62
     0
100
AcDbPoint
 10
261.5654086631278
 20
308.6199306769895
 30
0.0
  0
POINT
  5
3B3F
330
3B34
100
AcDbEntity
  8
Defpoints
 62
     0
100
AcDbPoint
 10
280.2069526369435
 20
308.6199306769895
 30
0.0
  0
ENDBLK
  5
3B36
330
3B34
100
AcDbEntity
  8
0
100
AcDbBlockEnd
  0
BLOCK
  5
3B41
330
3B40
100
AcDbEntity
  8
0
100
AcDbBlockBegin
  2
*D33
 70
     1
 10
0.0
 20
0.0
 30
0.0
  3
*D33
  1
*D34
  0
LINE
  5
3B43
330
3B40
100
AcDbEntity
  8
寸法
 62
     0
370
    -2
100
AcDbLine
 10
190.8180282449072
 20
164.7438225763632
 30
0.0
 11
190.8180282449072
 21
127.4537036122544
 31
0.0
  0
LINE
  5
3B44
330
3B40
100
AcDbEntity
  8
寸法
 62
     0
370
    -2
100
AcDbLine
 10
152.9810949788122
 20
164.7438225763632
 30
0.0
 11
152.9810949788122
 21
127.4537036122544
 31
0.0
  0
LINE
  5
3B45
330
3B40
100
AcDbEntity
  8
寸法
 62
     0
370
    -2
100
AcDbLine
 10
188.8180282449072
 20
127.4537036122544
 30
0.0
 11
154.9810949788122
 21
127.4537036122544
 31
0.0
  0
INSERT
  5
3B46
330
3B40
100
AcDbEntity
  8
寸法
 62
     0
370
    -2
100
AcDbBlockReference
  2
_DOT
 10
190.8180282449072
 20
127.4537036122544
 30
0.0
 41
2.0
 42
2.0
 43
2.0
  0
INSERT
  5
3B47
330
3B40
100
AcDbEntity
  8
寸法
 62
     0
370
    -2
100
AcDbBlockReference
  2
_DOT
 10
152.9810949788122
 20
127.4537036122544
 30
0.0
 41
2.0
 42
2.0
 43
2.0
 50
180.0
  0
MTEXT
  5
3B48
330
3B40
100
AcDbEntity
  8
寸法
 62
     0
100
AcDbMText
 10
171.8995616118597
 20
134.9537036122544
 30
0.0
 40
5.0
 41
0.0
 46
0.0
 71
     5
 72
     1
  1
\A1;38
  7
ＭＳ ゴシック
 73
     1
 44
1.0
  0
POINT
  5
3B49
330
3B40
100
AcDbEntity
  8
Defpoints
 62
     0
100
AcDbPoint
 10
190.8180282449072
 20
169.7438225763632
 30
0.0
  0
POINT
  5
3B4A
330
3B40
100
AcDbEntity
  8
Defpoints
 62
     0
100
AcDbPoint
 10
152.9810949788122
 20
169.7438225763632
 30
0.0
  0
POINT
  5
3B4B
330
3B40
100
AcDbEntity
  8
Defpoints
 62
     0
100
AcDbPoint
 10
152.9810949788122
 20
127.4537036122544
 30
0.0
  0
ENDBLK
  5
3B42
330
3B40
100
AcDbEntity
  8
0
100
AcDbBlockEnd
  0
BLOCK
  5
3B4D
330
3B4C
100
AcDbEntity
  8
0
100
AcDbBlockBegin
  2
*D34
 70
     1
 10
0.0
 20
0.0
 30
0.0
  3
*D34
  1
*D35
  0
LINE
  5
3B4F
330
3B4C
100
AcDbEntity
  8
寸法
 62
     0
370
    -2
100
AcDbLine
 10
431.4339565169425
 20
139.766609893296
 30
0.0
 11
431.4339565169425
 21
127.4428571428571
 31
0.0
  0
LINE
  5
3B50
330
3B4C
100
AcDbEntity
  8
寸法
 62
     0
370
    -2
100
AcDbLine
 10
426.7761843481786
 20
139.766609893296
 30
0.0
 11
426.7761843481786
 21
127.4428571428571
 31
0.0
  0
LINE
  5
3B51
330
3B4C
100
AcDbEntity
  8
寸法
 62
     0
370
    -2
100
AcDbLine
 10
429.4339565169425
 20
127.4428571428571
 30
0.0
 11
428.7761843481786
 21
127.4428571428571
 31
0.0
  0
INSERT
  5
3B52
330
3B4C
100
AcDbEntity
  8
寸法
 62
     0
370
    -2
100
AcDbBlockReference
  2
_DOT
 10
431.4339565169425
 20
127.4428571428571
 30
0.0
 41
2.0
 42
2.0
 43
2.0
  0
INSERT
  5
3B53
330
3B4C
100
AcDbEntity
  8
寸法
 62
     0
370
    -2
100
AcDbBlockReference
  2
_DOT
 10
426.7761843481786
 20
127.4428571428571
 30
0.0
 41
2.0
 42
2.0
 43
2.0
 50
180.0
  0
MTEXT
  5
3B54
330
3B4C
100
AcDbEntity
  8
寸法
 62
     0
100
AcDbMText
 10
429.1050704325605
 20
134.9428571428571
 30
0.0
 40
5.0
 41
0.0
 46
0.0
 71
     5
 72
     1
  1
\A1;5
  7
ＭＳ ゴシック
 73
     1
 44
1.0
  0
POINT
  5
3B55
330
3B4C
100
AcDbEntity
  8
Defpoints
 62
     0
100
AcDbPoint
 10
431.4339565169425
 20
144.766609893296
 30
0.0
  0
POINT
  5
3B56
330
3B4C
100
AcDbEntity
  8
Defpoints
 62
     0
100
AcDbPoint
 10
426.7761843481786
 20
144.766609893296
 30
0.0
  0
POINT
  5
3B57
330
3B4C
100
AcDbEntity
  8
Defpoints
 62
     0
100
AcDbPoint
 10
426.7761843481786
 20
127.4428571428571
 30
0.0
  0
ENDBLK
  5
3B4E
330
3B4C
100
AcDbEntity
  8
0
100
AcDbBlockEnd
  0
BLOCK
  5
3BCC
330
3BCB
100
AcDbEntity
  8
0
100
AcDbBlockBegin
  2
*D35
 70
     1
 10
0.0
 20
0.0
 30
0.0
  3
*D35
  1
*D44
  0
LINE
  5
3BCD
330
3BCB
100
AcDbEntity
  8
寸法
 62
     0
370
    -2
100
AcDbLine
 10
22.93847330152644
 20
241.9253528490611
 30
0.0
 11
10.00000000000001
 21
241.9253528490611
 31
0.0
  0
LINE
  5
3BCE
330
3BCB
100
AcDbEntity
  8
寸法
 62
     0
370
    -2
100
AcDbLine
 10
22.93847330152644
 20
236.9253528490611
 30
0.0
 11
10.00000000000001
 21
236.9253528490611
 31
0.0
  0
LINE
  5
3BCF
330
3BCB
100
AcDbEntity
  8
寸法
 62
     0
370
    -2
100
AcDbLine
 10
10.00000000000001
 20
239.9253528490611
 30
0.0
 11
10.00000000000001
 21
238.9253528490611
 31
0.0
  0
INSERT
  5
3BD0
330
3BCB
100
AcDbEntity
  8
寸法
 62
     0
370
    -2
100
AcDbBlockReference
  2
_DOT
 10
10.00000000000001
 20
241.9253528490611
 30
0.0
 41
2.0
 42
2.0
 43
2.0
 50
90.0
  0
INSERT
  5
3BD1
330
3BCB
100
AcDbEntity
  8
寸法
 62
     0
370
    -2
100
AcDbBlockReference
  2
_DOT
 10
10.00000000000001
 20
236.9253528490611
 30
0.0
 41
2.0
 42
2.0
 43
2.0
 50
270.0
  0
MTEXT
  5
3BD2
330
3BCB
100
AcDbEntity
  8
寸法
 62
     0
100
AcDbMText
 10
2.500000000000014
 20
239.4112023034917
 30
0.0
 40
5.0
 41
0.0
 46
0.0
 71
     5
 72
     1
  1
\A1;5
  7
ＭＳ ゴシック
 11
0.0
 21
1.0
 31
0.0
 73
     1
 44
1.0
  0
POINT
  5
3BD3
330
3BCB
100
AcDbEntity
  8
Defpoints
 62
     0
100
AcDbPoint
 10
27.93847330152644
 20
241.9253528490611
 30
0.0
  0
POINT
  5
3BD4
330
3BCB
100
AcDbEntity
  8
Defpoints
 62
     0
100
AcDbPoint
 10
27.93847330152644
 20
236.9253528490611
 30
0.0
  0
POINT
  5
3BD5
330
3BCB
100
AcDbEntity
  8
Defpoints
 62
     0
100
AcDbPoint
 10
10.00000000000001
 20
236.9253528490611
 30
0.0
  0
ENDBLK
  5
3BD6
330
3BCB
100
AcDbEntity
  8
0
100
AcDbBlockEnd
  0
BLOCK
  5
3BDB
330
3BDA
100
AcDbEntity
  8
0
100
AcDbBlockBegin
  2
*D36
 70
     1
 10
0.0
 20
0.0
 30
0.0
  3
*D36
  1
*D45
  0
LINE
  5
3BDC
330
3BDA
100
AcDbEntity
  8
寸法
 62
     0
370
    -2
100
AcDbLine
 10
22.93847330152644
 20
236.9253528490611
 30
0.0
 11
10.00000000000002
 21
236.9253528490611
 31
0.0
  0
LINE
  5
3BDD
330
3BDA
100
AcDbEntity
  8
寸法
 62
     0
370
    -2
100
AcDbLine
 10
36.91868000333498
 20
181.4265505171773
 30
0.0
 11
10.00000000000001
 21
181.4265505171773
 31
0.0
  0
LINE
  5
3BDE
330
3BDA
100
AcDbEntity
  8
寸法
 62
     0
370
    -2
100
AcDbLine
 10
10.00000000000002
 20
234.9253528490611
 30
0.0
 11
10.00000000000001
 21
183.4265505171773
 31
0.0
  0
INSERT
  5
3BDF
330
3BDA
100
AcDbEntity
  8
寸法
 62
     0
370
    -2
100
AcDbBlockReference
  2
_DOT
 10
10.00000000000002
 20
236.9253528490611
 30
0.0
 41
2.0
 42
2.0
 43
2.0
 50
90.0
  0
INSERT
  5
3BE0
330
3BDA
100
AcDbEntity
  8
寸法
 62
     0
370
    -2
100
AcDbBlockReference
  2
_DOT
 10
10.00000000000001
 20
181.4265505171773
 30
0.0
 41
2.0
 42
2.0
 43
2.0
 50
270.0
  0
MTEXT
  5
3BE1
330
3BDA
100
AcDbEntity
  8
寸法
 62
     0
100
AcDbMText
 10
2.500000000000016
 20
209.1759516831192
 30
0.0
 40
5.0
 41
0.0
 46
0.0
 71
     5
 72
     1
  1
\A1;55
  7
ＭＳ ゴシック
 11
6.401424047955502E-17
 21
1.0
 31
0.0
 73
     1
 44
1.0
  0
POINT
  5
3BE2
330
3BDA
100
AcDbEntity
  8
Defpoints
 62
     0
100
AcDbPoint
 10
27.93847330152644
 20
236.9253528490611
 30
0.0
  0
POINT
  5
3BE3
330
3BDA
100
AcDbEntity
  8
Defpoints
 62
     0
100
AcDbPoint
 10
41.91868000333498
 20
181.4265505171773
 30
0.0
  0
POINT
  5
3BE4
330
3BDA
100
AcDbEntity
  8
Defpoints
 62
     0
100
AcDbPoint
 10
10.00000000000001
 20
181.4265505171773
 30
0.0
  0
ENDBLK
  5
3BE5
330
3BDA
100
AcDbEntity
  8
0
100
AcDbBlockEnd
  0
BLOCK
  5
3BEA
330
3BE9
100
AcDbEntity
  8
0
100
AcDbBlockBegin
  2
*D37
 70
     1
 10
0.0
 20
0.0
 30
0.0
  3
*D37
  1
*D46
  0
LINE
  5
3BEB
330
3BE9
100
AcDbEntity
  8
寸法
 62
     0
370
    -2
100
AcDbLine
 10
166.8098045292807
 20
181.4265505171773
 30
0.0
 11
206.3798484796207
 21
181.4265505171773
 31
0.0
  0
LINE
  5
3BEC
330
3BE9
100
AcDbEntity
  8
寸法
 62
     0
370
    -2
100
AcDbLine
 10
82.9285643184295
 20
241.9253528490611
 30
0.0
 11
206.3798484796207
 21
241.9253528490611
 31
0.0
  0
LINE
  5
3BED
330
3BE9
100
AcDbEntity
  8
寸法
 62
     0
370
    -2
100
AcDbLine
 10
206.3798484796207
 20
183.4265505171773
 30
0.0
 11
206.3798484796207
 21
239.9253528490611
 31
0.0
  0
INSERT
  5
3BEE
330
3BE9
100
AcDbEntity
  8
寸法
 62
     0
370
    -2
100
AcDbBlockReference
  2
_DOT
 10
206.3798484796207
 20
181.4265505171773
 30
0.0
 41
2.0
 42
2.0
 43
2.0
 50
270.0
  0
INSERT
  5
3BEF
330
3BE9
100
AcDbEntity
  8
寸法
 62
     0
370
    -2
100
AcDbBlockReference
  2
_DOT
 10
206.3798484796207
 20
241.9253528490611
 30
0.0
 41
2.0
 42
2.0
 43
2.0
 50
90.0
  0
MTEXT
  5
3BF0
330
3BE9
100
AcDbEntity
  8
寸法
 62
     0
100
AcDbMText
 10
198.8798484796207
 20
211.6759516831192
 30
0.0
 40
5.0
 41
0.0
 46
0.0
 71
     5
 72
     1
  1
\A1;60
  7
ＭＳ ゴシック
 11
0.0
 21
1.0
 31
0.0
 73
     1
 44
1.0
  0
POINT
  5
3BF1
330
3BE9
100
AcDbEntity
  8
Defpoints
 62
     0
100
AcDbPoint
 10
161.8098045292807
 20
181.4265505171773
 30
0.0
  0
POINT
  5
3BF2
330
3BE9
100
AcDbEntity
  8
Defpoints
 62
     0
100
AcDbPoint
 10
77.9285643184295
 20
241.9253528490611
 30
0.0
  0
POINT
  5
3BF3
330
3BE9
100
AcDbEntity
  8
Defpoints
 62
     0
100
AcDbPoint
 10
206.3798484796207
 20
241.9253528490611
 30
0.0
  0
ENDBLK
  5
3BF4
330
3BE9
100
AcDbEntity
  8
0
100
AcDbBlockEnd
  0
BLOCK
  5
3BF9
330
3BF8
100
AcDbEntity
  8
0
100
AcDbBlockBegin
  2
*D38
 70
     1
 10
0.0
 20
0.0
 30
0.0
  3
*D38
  1
*D47
  0
LINE
  5
3BFA
330
3BF8
100
AcDbEntity
  8
寸法
 62
     0
370
    -2
100
AcDbLine
 10
166.8098045292807
 20
181.4265505171773
 30
0.0
 11
185.0136209063633
 21
181.4265505171773
 31
0.0
  0
LINE
  5
3BFB
330
3BF8
100
AcDbEntity
  8
寸法
 62
     0
370
    -2
100
AcDbLine
 10
166.8098045292807
 20
203.4579506793423
 30
0.0
 11
185.0136209063633
 21
203.4579506793423
 31
0.0
  0
LINE
  5
3BFC
330
3BF8
100
AcDbEntity
  8
寸法
 62
     0
370
    -2
100
AcDbLine
 10
185.0136209063633
 20
183.4265505171773
 30
0.0
 11
185.0136209063633
 21
201.4579506793423
 31
0.0
  0
INSERT
  5
3BFD
330
3BF8
100
AcDbEntity
  8
寸法
 62
     0
370
    -2
100
AcDbBlockReference
  2
_DOT
 10
185.0136209063633
 20
181.4265505171773
 30
0.0
 41
2.0
 42
2.0
 43
2.0
 50
270.0
  0
INSERT
  5
3BFE
330
3BF8
100
AcDbEntity
  8
寸法
 62
     0
370
    -2
100
AcDbBlockReference
  2
_DOT
 10
185.0136209063633
 20
203.4579506793423
 30
0.0
 41
2.0
 42
2.0
 43
2.0
 50
90.0
  0
MTEXT
  5
3BFF
330
3BF8
100
AcDbEntity
  8
寸法
 62
     0
100
AcDbMText
 10
177.5136209063633
 20
192.4422505982598
 30
0.0
 40
5.0
 41
0.0
 46
0.0
 71
     5
 72
     1
  1
\A1;22
  7
ＭＳ ゴシック
 11
0.0
 21
1.0
 31
0.0
 73
     1
 44
1.0
  0
POINT
  5
3C00
330
3BF8
100
AcDbEntity
  8
Defpoints
 62
     0
100
AcDbPoint
 10
161.8098045292807
 20
181.4265505171773
 30
0.0
  0
POINT
  5
3C01
330
3BF8
100
AcDbEntity
  8
Defpoints
 62
     0
100
AcDbPoint
 10
161.8098045292807
 20
203.4579506793423
 30
0.0
  0
POINT
  5
3C02
330
3BF8
100
AcDbEntity
  8
Defpoints
 62
     0
100
AcDbPoint
 10
185.0136209063633
 20
203.4579506793423
 30
0.0
  0
ENDBLK
  5
3C03
330
3BF8
100
AcDbEntity
  8
0
100
AcDbBlockEnd
  0
BLOCK
  5
3C08
330
3C07
100
AcDbEntity
  8
0
100
AcDbBlockBegin
  2
*D39
 70
     1
 10
0.0
 20
0.0
 30
0.0
  3
*D39
  1
*D48
  0
LINE
  5
3C09
330
3C07
100
AcDbEntity
  8
寸法
 62
     0
370
    -2
100
AcDbLine
 10
41.91868000333498
 20
176.4265505171773
 30
0.0
 11
41.91868000333498
 21
157.4303310324905
 31
0.0
  0
LINE
  5
3C0A
330
3C07
100
AcDbEntity
  8
寸法
 62
     0
370
    -2
100
AcDbLine
 10
161.8098045292807
 20
176.4265505171773
 30
0.0
 11
161.8098045292807
 21
157.4303310324905
 31
0.0
  0
LINE
  5
3C0B
330
3C07
100
AcDbEntity
  8
寸法
 62
     0
370
    -2
100
AcDbLine
 10
43.91868000333498
 20
157.4303310324905
 30
0.0
 11
159.8098045292807
 21
157.4303310324905
 31
0.0
  0
INSERT
  5
3C0C
330
3C07
100
AcDbEntity
  8
寸法
 62
     0
370
    -2
100
AcDbBlockReference
  2
_DOT
 10
41.91868000333498
 20
157.4303310324905
 30
0.0
 41
2.0
 42
2.0
 43
2.0
 50
180.0
  0
INSERT
  5
3C0D
330
3C07
100
AcDbEntity
  8
寸法
 62
     0
370
    -2
100
AcDbBlockReference
  2
_DOT
 10
161.8098045292807
 20
157.4303310324905
 30
0.0
 41
2.0
 42
2.0
 43
2.0
  0
MTEXT
  5
3C0E
330
3C07
100
AcDbEntity
  8
寸法
 62
     0
100
AcDbMText
 10
101.8642422663078
 20
164.9303310324905
 30
0.0
 40
5.0
 41
0.0
 46
0.0
 71
     5
 72
     1
  1
\A1;120
  7
ＭＳ ゴシック
 73
     1
 44
1.0
  0
POINT
  5
3C0F
330
3C07
100
AcDbEntity
  8
Defpoints
 62
     0
100
AcDbPoint
 10
41.91868000333498
 20
181.4265505171773
 30
0.0
  0
POINT
  5
3C10
330
3C07
100
AcDbEntity
  8
Defpoints
 62
     0
100
AcDbPoint
 10
161.8098045292807
 20
181.4265505171773
 30
0.0
  0
POINT
  5
3C11
330
3C07
100
AcDbEntity
  8
Defpoints
 62
     0
100
AcDbPoint
 10
161.8098045292807
 20
157.4303310324905
 30
0.0
  0
ENDBLK
  5
3C12
330
3C07
100
AcDbEntity
  8
0
100
AcDbBlockEnd
  0
BLOCK
  5
3C15
330
3C14
100
AcDbEntity
  8
0
100
AcDbBlockBegin
  2
*D40
 70
     1
 10
0.0
 20
0.0
 30
0.0
  3
*D40
  1
*D49
  0
LINE
  5
3C16
330
3C14
100
AcDbEntity
  8
寸法
 62
     0
370
    -2
100
AcDbLine
 10
33.89540957955188
 20
37.4754226453085
 30
0.0
 11
33.89540957955188
 21
0.5642696624614985
 31
0.0
  0
LINE
  5
3C17
330
3C14
100
AcDbEntity
  8
寸法
 62
     0
370
    -2
100
AcDbLine
 10
71.89540957955188
 20
37.4754226453085
 30
0.0
 11
71.89540957955188
 21
0.5642696624614985
 31
0.0
  0
LINE
  5
3C18
330
3C14
100
AcDbEntity
  8
寸法
 62
     0
370
    -2
100
AcDbLine
 10
35.89540957955188
 20
0.5642696624614985
 30
0.0
 11
69.89540957955188
 21
0.5642696624614985
 31
0.0
  0
INSERT
  5
3C19
330
3C14
100
AcDbEntity
  8
寸法
 62
     0
370
    -2
100
AcDbBlockReference
  2
_DOT
 10
33.89540957955188
 20
0.5642696624614985
 30
0.0
 41
2.0
 42
2.0
 43
2.0
 50
180.0
  0
INSERT
  5
3C1A
330
3C14
100
AcDbEntity
  8
寸法
 62
     0
370
    -2
100
AcDbBlockReference
  2
_DOT
 10
71.89540957955188
 20
0.5642696624614985
 30
0.0
 41
2.0
 42
2.0
 43
2.0
  0
MTEXT
  5
3C1B
330
3C14
100
AcDbEntity
  8
寸法
 62
     0
100
AcDbMText
 10
52.89540957955188
 20
8.064269662461498
 30
0.0
 40
5.0
 41
0.0
 46
0.0
 71
     5
 72
     1
  1
\A1;38
  7
ＭＳ ゴシック
 73
     1
 44
1.0
  0
POINT
  5
3C1C
330
3C14
100
AcDbEntity
  8
Defpoints
 62
     0
100
AcDbPoint
 10
33.89540957955188
 20
42.4754226453085
 30
0.0
  0
POINT
  5
3C1D
330
3C14
100
AcDbEntity
  8
Defpoints
 62
     0
100
AcDbPoint
 10
71.89540957955188
 20
42.4754226453085
 30
0.0
  0
POINT
  5
3C1E
330
3C14
100
AcDbEntity
  8
Defpoints
 62
     0
100
AcDbPoint
 10
71.89540957955188
 20
0.5642696624614985
 30
0.0
  0
ENDBLK
  5
3C1F
330
3C14
100
AcDbEntity
  8
0
100
AcDbBlockEnd
  0
BLOCK
  5
3C22
330
3C21
100
AcDbEntity
  8
0
100
AcDbBlockBegin
  2
*D41
 70
     1
 10
0.0
 20
0.0
 30
0.0
  3
*D41
  1
*D50
  0
LINE
  5
3C23
330
3C21
100
AcDbEntity
  8
寸法
 62
     0
370
    -2
100
AcDbLine
 10
47.89540957955188
 20
67.68537784939011
 30
0.0
 11
10.00000000000002
 21
67.68537784939011
 31
0.0
  0
LINE
  5
3C24
330
3C21
100
AcDbEntity
  8
寸法
 62
     0
370
    -2
100
AcDbLine
 10
47.89540957955188
 20
17.2691645482831
 30
0.0
 11
10.00000000000001
 21
17.2691645482831
 31
0.0
  0
LINE
  5
3C25
330
3C21
100
AcDbEntity
  8
寸法
 62
     0
370
    -2
100
AcDbLine
 10
10.00000000000002
 20
65.68537784939011
 30
0.0
 11
10.00000000000001
 21
19.2691645482831
 31
0.0
  0
INSERT
  5
3C26
330
3C21
100
AcDbEntity
  8
寸法
 62
     0
370
    -2
100
AcDbBlockReference
  2
_DOT
 10
10.00000000000002
 20
67.68537784939011
 30
0.0
 41
2.0
 42
2.0
 43
2.0
 50
90.0
  0
INSERT
  5
3C27
330
3C21
100
AcDbEntity
  8
寸法
 62
     0
370
    -2
100
AcDbBlockReference
  2
_DOT
 10
10.00000000000001
 20
17.2691645482831
 30
0.0
 41
2.0
 42
2.0
 43
2.0
 50
270.0
  0
MTEXT
  5
3C28
330
3C21
100
AcDbEntity
  8
寸法
 62
     0
100
AcDbMText
 10
2.500000000000016
 20
42.4772711988366
 30
0.0
 40
5.0
 41
0.0
 46
0.0
 71
     5
 72
     1
  1
\A1;50
  7
ＭＳ ゴシック
 11
7.046768184635741E-17
 21
1.0
 31
0.0
 73
     1
 44
1.0
  0
POINT
  5
3C29
330
3C21
100
AcDbEntity
  8
Defpoints
 62
     0
100
AcDbPoint
 10
52.89540957955188
 20
67.68537784939011
 30
0.0
  0
POINT
  5
3C2A
330
3C21
100
AcDbEntity
  8
Defpoints
 62
     0
100
AcDbPoint
 10
52.89540957955188
 20
17.2691645482831
 30
0.0
  0
POINT
  5
3C2B
330
3C21
100
AcDbEntity
  8
Defpoints
 62
     0
100
AcDbPoint
 10
10.00000000000001
 20
17.2691645482831
 30
0.0
  0
ENDBLK
  5
3C2C
330
3C21
100
AcDbEntity
  8
0
100
AcDbBlockEnd
  0
BLOCK
  5
3C42
330
3C41
100
AcDbEntity
  8
0
100
AcDbBlockBegin
  2
*D42
 70
     1
 10
0.0
 20
0.0
 30
0.0
  3
*D42
  1
*D52
  0
LINE
  5
3C43
330
3C41
100
AcDbEntity
  8
寸法
 62
     0
370
    -2
100
AcDbLine
 10
333.2296505576523
 20
12.2691645482831
 30
0.0
 11
333.2296505576523
 21
0.5
 31
0.0
  0
LINE
  5
3C44
330
3C41
100
AcDbEntity
  8
寸法
 62
     0
370
    -2
100
AcDbLine
 10
328.2296505576523
 20
12.269164548283
 30
0.0
 11
328.2296505576523
 21
0.5
 31
0.0
  0
LINE
  5
3C45
330
3C41
100
AcDbEntity
  8
寸法
 62
     0
370
    -2
100
AcDbLine
 10
331.2296505576523
 20
0.5
 30
0.0
 11
330.2296505576523
 21
0.5
 31
0.0
  0
INSERT
  5
3C46
330
3C41
100
AcDbEntity
  8
寸法
 62
     0
370
    -2
100
AcDbBlockReference
  2
_DOT
 10
333.2296505576523
 20
0.5
 30
0.0
 41
2.0
 42
2.0
 43
2.0
  0
INSERT
  5
3C47
330
3C41
100
AcDbEntity
  8
寸法
 62
     0
370
    -2
100
AcDbBlockReference
  2
_DOT
 10
328.2296505576523
 20
0.5
 30
0.0
 41
2.0
 42
2.0
 43
2.0
 50
180.0
  0
MTEXT
  5
3C48
330
3C41
100
AcDbEntity
  8
寸法
 62
     0
100
AcDbMText
 10
330.7296505576523
 20
8.0
 30
0.0
 40
5.0
 41
0.0
 46
0.0
 71
     5
 72
     1
  1
\A1;5
  7
ＭＳ ゴシック
 73
     1
 44
1.0
  0
POINT
  5
3C49
330
3C41
100
AcDbEntity
  8
Defpoints
 62
     0
100
AcDbPoint
 10
333.2296505576523
 20
17.2691645482831
 30
0.0
  0
POINT
  5
3C4A
330
3C41
100
AcDbEntity
  8
Defpoints
 62
     0
100
AcDbPoint
 10
328.2296505576523
 20
17.269164548283
 30
0.0
  0
POINT
  5
3C4B
330
3C41
100
AcDbEntity
  8
Defpoints
 62
     0
100
AcDbPoint
 10
328.2296505576523
 20
0.5
 30
0.0
  0
ENDBLK
  5
3C4C
330
3C41
100
AcDbEntity
  8
0
100
AcDbBlockEnd
  0
BLOCK
  5
3CA4
330
3CA3
100
AcDbEntity
  8
0
100
AcDbBlockBegin
  2
*D43
 70
     1
 10
0.0
 20
0.0
 30
0.0
  3
*D43
  1
*D44
  0
LINE
  5
3CA6
330
3CA3
100
AcDbEntity
  8
寸法
 62
     0
370
    -2
100
AcDbLine
 10
132.549901872955
 20
365.9539242776325
 30
0.0
 11
119.6114285714285
 21
365.9539242776325
 31
0.0
  0
LINE
  5
3CA7
330
3CA3
100
AcDbEntity
  8
寸法
 62
     0
370
    -2
100
AcDbLine
 10
132.549901872955
 20
360.9539242776325
 30
0.0
 11
119.6114285714285
 21
360.9539242776325
 31
0.0
  0
LINE
  5
3CA8
330
3CA3
100
AcDbEntity
  8
寸法
 62
     0
370
    -2
100
AcDbLine
 10
119.6114285714285
 20
363.9539242776325
 30
0.0
 11
119.6114285714285
 21
362.9539242776325
 31
0.0
  0
INSERT
  5
3CA9
330
3CA3
100
AcDbEntity
  8
寸法
 62
     0
370
    -2
100
AcDbBlockReference
  2
_DOT
 10
119.6114285714285
 20
365.9539242776325
 30
0.0
 41
2.0
 42
2.0
 43
2.0
 50
90.0
  0
INSERT
  5
3CAA
330
3CA3
100
AcDbEntity
  8
寸法
 62
     0
370
    -2
100
AcDbBlockReference
  2
_DOT
 10
119.6114285714285
 20
360.9539242776325
 30
0.0
 41
2.0
 42
2.0
 43
2.0
 50
270.0
  0
MTEXT
  5
3CAB
330
3CA3
100
AcDbEntity
  8
寸法
 62
     0
100
AcDbMText
 10
112.1114285714285
 20
363.4397737320631
 30
0.0
 40
5.0
 41
0.0
 46
0.0
 71
     5
 72
     1
  1
\A1;5
  7
ＭＳ ゴシック
 11
0.0
 21
1.0
 31
0.0
 73
     1
 44
1.0
  0
POINT
  5
3CAC
330
3CA3
100
AcDbEntity
  8
Defpoints
 62
     0
100
AcDbPoint
 10
137.549901872955
 20
365.9539242776325
 30
0.0
  0
POINT
  5
3CAD
330
3CA3
100
AcDbEntity
  8
Defpoints
 62
     0
100
AcDbPoint
 10
137.549901872955
 20
360.9539242776325
 30
0.0
  0
POINT
  5
3CAE
330
3CA3
100
AcDbEntity
  8
Defpoints
 62
     0
100
AcDbPoint
 10
119.6114285714285
 20
360.9539242776325
 30
0.0
  0
ENDBLK
  5
3CA5
330
3CA3
100
AcDbEntity
  8
0
100
AcDbBlockEnd
  0
BLOCK
  5
3CB0
330
3CAF
100
AcDbEntity
  8
0
100
AcDbBlockBegin
  2
*D44
 70
     1
 10
0.0
 20
0.0
 30
0.0
  3
*D44
  1
*D45
  0
LINE
  5
3CB2
330
3CAF
100
AcDbEntity
  8
寸法
 62
     0
370
    -2
100
AcDbLine
 10
132.549901872955
 20
360.9539242776325
 30
0.0
 11
119.6114285714285
 21
360.9539242776325
 31
0.0
  0
LINE
  5
3CB3
330
3CAF
100
AcDbEntity
  8
寸法
 62
     0
370
    -2
100
AcDbLine
 10
146.5301085747635
 20
305.4551219457487
 30
0.0
 11
119.6114285714285
 21
305.4551219457487
 31
0.0
  0
LINE
  5
3CB4
330
3CAF
100
AcDbEntity
  8
寸法
 62
     0
370
    -2
100
AcDbLine
 10
119.6114285714285
 20
358.9539242776325
 30
0.0
 11
119.6114285714285
 21
307.4551219457487
 31
0.0
  0
INSERT
  5
3CB5
330
3CAF
100
AcDbEntity
  8
寸法
 62
     0
370
    -2
100
AcDbBlockReference
  2
_DOT
 10
119.6114285714285
 20
360.9539242776325
 30
0.0
 41
2.0
 42
2.0
 43
2.0
 50
90.0
  0
INSERT
  5
3CB6
330
3CAF
100
AcDbEntity
  8
寸法
 62
     0
370
    -2
100
AcDbBlockReference
  2
_DOT
 10
119.6114285714285
 20
305.4551219457487
 30
0.0
 41
2.0
 42
2.0
 43
2.0
 50
270.0
  0
MTEXT
  5
3CB7
330
3CAF
100
AcDbEntity
  8
寸法
 62
     0
100
AcDbMText
 10
112.1114285714285
 20
333.2045231116906
 30
0.0
 40
5.0
 41
0.0
 46
0.0
 71
     5
 72
     1
  1
\A1;55
  7
ＭＳ ゴシック
 11
0.0
 21
1.0
 31
0.0
 73
     1
 44
1.0
  0
POINT
  5
3CB8
330
3CAF
100
AcDbEntity
  8
Defpoints
 62
     0
100
AcDbPoint
 10
137.549901872955
 20
360.9539242776325
 30
0.0
  0
POINT
  5
3CB9
330
3CAF
100
AcDbEntity
  8
Defpoints
 62
     0
100
AcDbPoint
 10
151.5301085747635
 20
305.4551219457487
 30
0.0
  0
POINT
  5
3CBA
330
3CAF
100
AcDbEntity
  8
Defpoints
 62
     0
100
AcDbPoint
 10
119.6114285714285
 20
305.4551219457487
 30
0.0
  0
ENDBLK
  5
3CB1
330
3CAF
100
AcDbEntity
  8
0
100
AcDbBlockEnd
  0
BLOCK
  5
3CBC
330
3CBB
100
AcDbEntity
  8
0
100
AcDbBlockBegin
  2
*D45
 70
     1
 10
0.0
 20
0.0
 30
0.0
  3
*D45
  1
*D46
  0
LINE
  5
3CBE
330
3CBB
100
AcDbEntity
  8
寸法
 62
     0
370
    -2
100
AcDbLine
 10
276.4212331007092
 20
305.4551219457487
 30
0.0
 11
315.9912770510492
 21
305.4551219457487
 31
0.0
  0
LINE
  5
3CBF
330
3CBB
100
AcDbEntity
  8
寸法
 62
     0
370
    -2
100
AcDbLine
 10
192.539992889858
 20
365.9539242776325
 30
0.0
 11
315.9912770510492
 21
365.9539242776325
 31
0.0
  0
LINE
  5
3CC0
330
3CBB
100
AcDbEntity
  8
寸法
 62
     0
370
    -2
100
AcDbLine
 10
315.9912770510492
 20
307.4551219457487
 30
0.0
 11
315.9912770510492
 21
363.9539242776325
 31
0.0
  0
INSERT
  5
3CC1
330
3CBB
100
AcDbEntity
  8
寸法
 62
     0
370
    -2
100
AcDbBlockReference
  2
_DOT
 10
315.9912770510492
 20
305.4551219457487
 30
0.0
 41
2.0
 42
2.0
 43
2.0
 50
270.0
  0
INSERT
  5
3CC2
330
3CBB
100
AcDbEntity
  8
寸法
 62
     0
370
    -2
100
AcDbBlockReference
  2
_DOT
 10
315.9912770510492
 20
365.9539242776325
 30
0.0
 41
2.0
 42
2.0
 43
2.0
 50
90.0
  0
MTEXT
  5
3CC3
330
3CBB
100
AcDbEntity
  8
寸法
 62
     0
100
AcDbMText
 10
308.4912770510492
 20
335.7045231116906
 30
0.0
 40
5.0
 41
0.0
 46
0.0
 71
     5
 72
     1
  1
\A1;60
  7
ＭＳ ゴシック
 11
0.0
 21
1.0
 31
0.0
 73
     1
 44
1.0
  0
POINT
  5
3CC4
330
3CBB
100
AcDbEntity
  8
Defpoints
 62
     0
100
AcDbPoint
 10
271.4212331007092
 20
305.4551219457487
 30
0.0
  0
POINT
  5
3CC5
330
3CBB
100
AcDbEntity
  8
Defpoints
 62
     0
100
AcDbPoint
 10
187.539992889858
 20
365.9539242776325
 30
0.0
  0
POINT
  5
3CC6
330
3CBB
100
AcDbEntity
  8
Defpoints
 62
     0
100
AcDbPoint
 10
315.9912770510492
 20
365.9539242776325
 30
0.0
  0
ENDBLK
  5
3CBD
330
3CBB
100
AcDbEntity
  8
0
100
AcDbBlockEnd
  0
BLOCK
  5
3CC8
330
3CC7
100
AcDbEntity
  8
0
100
AcDbBlockBegin
  2
*D46
 70
     1
 10
0.0
 20
0.0
 30
0.0
  3
*D46
  1
*D47
  0
LINE
  5
3CCA
330
3CC7
100
AcDbEntity
  8
寸法
 62
     0
370
    -2
100
AcDbLine
 10
276.4212331007092
 20
305.4551219457487
 30
0.0
 11
294.6250494777918
 21
305.4551219457487
 31
0.0
  0
LINE
  5
3CCB
330
3CC7
100
AcDbEntity
  8
寸法
 62
     0
370
    -2
100
AcDbLine
 10
276.4212331007092
 20
327.4865221079137
 30
0.0
 11
294.6250494777918
 21
327.4865221079137
 31
0.0
  0
LINE
  5
3CCC
330
3CC7
100
AcDbEntity
  8
寸法
 62
     0
370
    -2
100
AcDbLine
 10
294.6250494777918
 20
307.4551219457487
 30
0.0
 11
294.6250494777918
 21
325.4865221079137
 31
0.0
  0
INSERT
  5
3CCD
330
3CC7
100
AcDbEntity
  8
寸法
 62
     0
370
    -2
100
AcDbBlockReference
  2
_DOT
 10
294.6250494777918
 20
305.4551219457487
 30
0.0
 41
2.0
 42
2.0
 43
2.0
 50
270.0
  0
INSERT
  5
3CCE
330
3CC7
100
AcDbEntity
  8
寸法
 62
     0
370
    -2
100
AcDbBlockReference
  2
_DOT
 10
294.6250494777918
 20
327.4865221079137
 30
0.0
 41
2.0
 42
2.0
 43
2.0
 50
90.0
  0
MTEXT
  5
3CCF
330
3CC7
100
AcDbEntity
  8
寸法
 62
     0
100
AcDbMText
 10
287.1250494777918
 20
316.4708220268312
 30
0.0
 40
5.0
 41
0.0
 46
0.0
 71
     5
 72
     1
  1
\A1;22
  7
ＭＳ ゴシック
 11
0.0
 21
1.0
 31
0.0
 73
     1
 44
1.0
  0
POINT
  5
3CD0
330
3CC7
100
AcDbEntity
  8
Defpoints
 62
     0
100
AcDbPoint
 10
271.4212331007092
 20
305.4551219457487
 30
0.0
  0
POINT
  5
3CD1
330
3CC7
100
AcDbEntity
  8
Defpoints
 62
     0
100
AcDbPoint
 10
271.4212331007092
 20
327.4865221079137
 30
0.0
  0
POINT
  5
3CD2
330
3CC7
100
AcDbEntity
  8
Defpoints
 62
     0
100
AcDbPoint
 10
294.6250494777918
 20
327.4865221079137
 30
0.0
  0
ENDBLK
  5
3CC9
330
3CC7
100
AcDbEntity
  8
0
100
AcDbBlockEnd
  0
BLOCK
  5
3CD4
330
3CD3
100
AcDbEntity
  8
0
100
AcDbBlockBegin
  2
*D47
 70
     1
 10
0.0
 20
0.0
 30
0.0
  3
*D47
  1
*D48
  0
LINE
  5
3CD6
330
3CD3
100
AcDbEntity
  8
寸法
 62
     0
370
    -2
100
AcDbLine
 10
151.5301085747635
 20
300.4551219457487
 30
0.0
 11
151.5301085747635
 21
281.4589024610619
 31
0.0
  0
LINE
  5
3CD7
330
3CD3
100
AcDbEntity
  8
寸法
 62
     0
370
    -2
100
AcDbLine
 10
271.4212331007092
 20
300.4551219457487
 30
0.0
 11
271.4212331007092
 21
281.4589024610619
 31
0.0
  0
LINE
  5
3CD8
330
3CD3
100
AcDbEntity
  8
寸法
 62
     0
370
    -2
100
AcDbLine
 10
153.5301085747635
 20
281.4589024610619
 30
0.0
 11
269.4212331007092
 21
281.4589024610619
 31
0.0
  0
INSERT
  5
3CD9
330
3CD3
100
AcDbEntity
  8
寸法
 62
     0
370
    -2
100
AcDbBlockReference
  2
_DOT
 10
151.5301085747635
 20
281.4589024610619
 30
0.0
 41
2.0
 42
2.0
 43
2.0
 50
180.0
  0
INSERT
  5
3CDA
330
3CD3
100
AcDbEntity
  8
寸法
 62
     0
370
    -2
100
AcDbBlockReference
  2
_DOT
 10
271.4212331007092
 20
281.4589024610619
 30
0.0
 41
2.0
 42
2.0
 43
2.0
  0
MTEXT
  5
3CDB
330
3CD3
100
AcDbEntity
  8
寸法
 62
     0
100
AcDbMText
 10
211.4756708377363
 20
288.9589024610619
 30
0.0
 40
5.0
 41
0.0
 46
0.0
 71
     5
 72
     1
  1
\A1;120
  7
ＭＳ ゴシック
 73
     1
 44
1.0
  0
POINT
  5
3CDC
330
3CD3
100
AcDbEntity
  8
Defpoints
 62
     0
100
AcDbPoint
 10
151.5301085747635
 20
305.4551219457487
 30
0.0
  0
POINT
  5
3CDD
330
3CD3
100
AcDbEntity
  8
Defpoints
 62
     0
100
AcDbPoint
 10
271.4212331007092
 20
305.4551219457487
 30
0.0
  0
POINT
  5
3CDE
330
3CD3
100
AcDbEntity
  8
Defpoints
 62
     0
100
AcDbPoint
 10
271.4212331007092
 20
281.4589024610619
 30
0.0
  0
ENDBLK
  5
3CD5
330
3CD3
100
AcDbEntity
  8
0
100
AcDbBlockEnd
  0
BLOCK
  5
3CE0
330
3CDF
100
AcDbEntity
  8
0
100
AcDbBlockBegin
  2
*D48
 70
     1
 10
0.0
 20
0.0
 30
0.0
  3
*D48
  1
*D49
  0
LINE
  5
3CE2
330
3CDF
100
AcDbEntity
  8
寸法
 62
     0
370
    -2
100
AcDbLine
 10
143.5068381509804
 20
161.5039940738799
 30
0.0
 11
143.5068381509804
 21
124.5928410910329
 31
0.0
  0
LINE
  5
3CE3
330
3CDF
100
AcDbEntity
  8
寸法
 62
     0
370
    -2
100
AcDbLine
 10
181.5068381509804
 20
161.5039940738799
 30
0.0
 11
181.5068381509804
 21
124.5928410910329
 31
0.0
  0
LINE
  5
3CE4
330
3CDF
100
AcDbEntity
  8
寸法
 62
     0
370
    -2
100
AcDbLine
 10
145.5068381509804
 20
124.5928410910329
 30
0.0
 11
179.5068381509804
 21
124.5928410910329
 31
0.0
  0
INSERT
  5
3CE5
330
3CDF
100
AcDbEntity
  8
寸法
 62
     0
370
    -2
100
AcDbBlockReference
  2
_DOT
 10
143.5068381509804
 20
124.5928410910329
 30
0.0
 41
2.0
 42
2.0
 43
2.0
 50
180.0
  0
INSERT
  5
3CE6
330
3CDF
100
AcDbEntity
  8
寸法
 62
     0
370
    -2
100
AcDbBlockReference
  2
_DOT
 10
181.5068381509804
 20
124.5928410910329
 30
0.0
 41
2.0
 42
2.0
 43
2.0
  0
MTEXT
  5
3CE7
330
3CDF
100
AcDbEntity
  8
寸法
 62
     0
100
AcDbMText
 10
162.5068381509804
 20
132.0928410910329
 30
0.0
 40
5.0
 41
0.0
 46
0.0
 71
     5
 72
     1
  1
\A1;38
  7
ＭＳ ゴシック
 73
     1
 44
1.0
  0
POINT
  5
3CE8
330
3CDF
100
AcDbEntity
  8
Defpoints
 62
     0
100
AcDbPoint
 10
143.5068381509804
 20
166.5039940738799
 30
0.0
  0
POINT
  5
3CE9
330
3CDF
100
AcDbEntity
  8
Defpoints
 62
     0
100
AcDbPoint
 10
181.5068381509804
 20
166.5039940738799
 30
0.0
  0
POINT
  5
3CEA
330
3CDF
100
AcDbEntity
  8
Defpoints
 62
     0
100
AcDbPoint
 10
181.5068381509804
 20
124.5928410910329
 30
0.0
  0
ENDBLK
  5
3CE1
330
3CDF
100
AcDbEntity
  8
0
100
AcDbBlockEnd
  0
BLOCK
  5
3CEC
330
3CEB
100
AcDbEntity
  8
0
100
AcDbBlockBegin
  2
*D49
 70
     1
 10
0.0
 20
0.0
 30
0.0
  3
*D49
  1
*D50
  0
LINE
  5
3CEE
330
3CEB
100
AcDbEntity
  8
寸法
 62
     0
370
    -2
100
AcDbLine
 10
157.5068381509804
 20
191.7139492779615
 30
0.0
 11
119.6114285714285
 21
191.7139492779615
 31
0.0
  0
LINE
  5
3CEF
330
3CEB
100
AcDbEntity
  8
寸法
 62
     0
370
    -2
100
AcDbLine
 10
157.5068381509804
 20
141.2977359768545
 30
0.0
 11
119.6114285714285
 21
141.2977359768545
 31
0.0
  0
LINE
  5
3CF0
330
3CEB
100
AcDbEntity
  8
寸法
 62
     0
370
    -2
100
AcDbLine
 10
119.6114285714285
 20
189.7139492779615
 30
0.0
 11
119.6114285714285
 21
143.2977359768545
 31
0.0
  0
INSERT
  5
3CF1
330
3CEB
100
AcDbEntity
  8
寸法
 62
     0
370
    -2
100
AcDbBlockReference
  2
_DOT
 10
119.6114285714285
 20
191.7139492779615
 30
0.0
 41
2.0
 42
2.0
 43
2.0
 50
90.0
  0
INSERT
  5
3CF2
330
3CEB
100
AcDbEntity
  8
寸法
 62
     0
370
    -2
100
AcDbBlockReference
  2
_DOT
 10
119.6114285714285
 20
141.2977359768545
 30
0.0
 41
2.0
 42
2.0
 43
2.0
 50
270.0
  0
MTEXT
  5
3CF3
330
3CEB
100
AcDbEntity
  8
寸法
 62
     0
100
AcDbMText
 10
112.1114285714285
 20
166.505842627408
 30
0.0
 40
5.0
 41
0.0
 46
0.0
 71
     5
 72
     1
  1
\A1;50
  7
ＭＳ ゴシック
 11
0.0
 21
1.0
 31
0.0
 73
     1
 44
1.0
  0
POINT
  5
3CF4
330
3CEB
100
AcDbEntity
  8
Defpoints
 62
     0
100
AcDbPoint
 10
162.5068381509804
 20
191.7139492779615
 30
0.0
  0
POINT
  5
3CF5
330
3CEB
100
AcDbEntity
  8
Defpoints
 62
     0
100
AcDbPoint
 10
162.5068381509804
 20
141.2977359768545
 30
0.0
  0
POINT
  5
3CF6
330
3CEB
100
AcDbEntity
  8
Defpoints
 62
     0
100
AcDbPoint
 10
119.6114285714285
 20
141.2977359768545
 30
0.0
  0
ENDBLK
  5
3CED
330
3CEB
100
AcDbEntity
  8
0
100
AcDbBlockEnd
  0
BLOCK
  5
3CF8
330
3CF7
100
AcDbEntity
  8
0
100
AcDbBlockBegin
  2
*D50
 70
     1
 10
0.0
 20
0.0
 30
0.0
  3
*D50
  1
*D51
  0
LINE
  5
3CFA
330
3CF7
100
AcDbEntity
  8
寸法
 62
     0
370
    -2
100
AcDbLine
 10
442.8410791290809
 20
136.2977359768545
 30
0.0
 11
442.8410791290809
 21
124.5285714285714
 31
0.0
  0
LINE
  5
3CFB
330
3CF7
100
AcDbEntity
  8
寸法
 62
     0
370
    -2
100
AcDbLine
 10
437.8410791290809
 20
136.2977359768544
 30
0.0
 11
437.8410791290809
 21
124.5285714285714
 31
0.0
  0
LINE
  5
3CFC
330
3CF7
100
AcDbEntity
  8
寸法
 62
     0
370
    -2
100
AcDbLine
 10
440.8410791290809
 20
124.5285714285714
 30
0.0
 11
439.8410791290809
 21
124.5285714285714
 31
0.0
  0
INSERT
  5
3CFD
330
3CF7
100
AcDbEntity
  8
寸法
 62
     0
370
    -2
100
AcDbBlockReference
  2
_DOT
 10
442.8410791290809
 20
124.5285714285714
 30
0.0
 41
2.0
 42
2.0
 43
2.0
  0
INSERT
  5
3CFE
330
3CF7
100
AcDbEntity
  8
寸法
 62
     0
370
    -2
100
AcDbBlockReference
  2
_DOT
 10
437.8410791290809
 20
124.5285714285714
 30
0.0
 41
2.0
 42
2.0
 43
2.0
 50
180.0
  0
MTEXT
  5
3CFF
330
3CF7
100
AcDbEntity
  8
寸法
 62
     0
100
AcDbMText
 10
440.3410791290809
 20
132.0285714285714
 30
0.0
 40
5.0
 41
0.0
 46
0.0
 71
     5
 72
     1
  1
\A1;5
  7
ＭＳ ゴシック
 73
     1
 44
1.0
  0
POINT
  5
3D00
330
3CF7
100
AcDbEntity
  8
Defpoints
 62
     0
100
AcDbPoint
 10
442.8410791290809
 20
141.2977359768545
 30
0.0
  0
POINT
  5
3D01
330
3CF7
100
AcDbEntity
  8
Defpoints
 62
     0
100
AcDbPoint
 10
437.8410791290809
 20
141.2977359768544
 30
0.0
  0
POINT
  5
3D02
330
3CF7
100
AcDbEntity
  8
Defpoints
 62
     0
100
AcDbPoint
 10
437.8410791290809
 20
124.5285714285714
 30
0.0
  0
ENDBLK
  5
3CF9
330
3CF7
100
AcDbEntity
  8
0
100
AcDbBlockEnd
  0
BLOCK
  5
3DA9
330
3DA8
100
AcDbEntity
  8
0
100
AcDbBlockBegin
  2
*D51
 70
     1
 10
0.0
 20
0.0
 30
0.0
  3
*D51
  1
*D15
  0
LINE
  5
3DAA
330
3DA8
100
AcDbEntity
  8
寸法
 62
     0
370
    -2
100
AcDbLine
 10
45.67089981348482
 20
182.4540012399441
 30
0.0
 11
45.67089981348482
 21
197.349440792173
 31
0.0
  0
LINE
  5
3DAB
330
3DA8
100
AcDbEntity
  8
寸法
 62
     0
370
    -2
100
AcDbLine
 10
23.65844768898845
 20
182.4540012399441
 30
0.0
 11
23.65844768898845
 21
197.349440792173
 31
0.0
  0
LINE
  5
3DAC
330
3DA8
100
AcDbEntity
  8
寸法
 62
     0
370
    -2
100
AcDbLine
 10
43.67089981348482
 20
197.349440792173
 30
0.0
 11
25.65844768898845
 21
197.349440792173
 31
0.0
  0
INSERT
  5
3DAD
330
3DA8
100
AcDbEntity
  8
寸法
 62
     0
370
    -2
100
AcDbBlockReference
  2
_DOT
 10
45.67089981348482
 20
197.349440792173
 30
0.0
 41
2.0
 42
2.0
 43
2.0
  0
INSERT
  5
3DAE
330
3DA8
100
AcDbEntity
  8
寸法
 62
     0
370
    -2
100
AcDbBlockReference
  2
_DOT
 10
23.65844768898845
 20
197.349440792173
 30
0.0
 41
2.0
 42
2.0
 43
2.0
 50
180.0
  0
MTEXT
  5
3DAF
330
3DA8
100
AcDbEntity
  8
寸法
 62
     0
100
AcDbMText
 10
34.66467375123663
 20
204.849440792173
 30
0.0
 40
5.0
 41
0.0
 46
0.0
 71
     5
 72
     1
  1
\A1;22
  7
ＭＳ ゴシック
 73
     1
 44
1.0
  0
POINT
  5
3DB0
330
3DA8
100
AcDbEntity
  8
Defpoints
 62
     0
100
AcDbPoint
 10
45.67089981348482
 20
177.4540012399441
 30
0.0
  0
POINT
  5
3DB1
330
3DA8
100
AcDbEntity
  8
Defpoints
 62
     0
100
AcDbPoint
 10
23.65844768898845
 20
177.4540012399441
 30
0.0
  0
POINT
  5
3DB2
330
3DA8
100
AcDbEntity
  8
Defpoints
 62
     0
100
AcDbPoint
 10
23.65844768898845
 20
197.349440792173
 30
0.0
  0
ENDBLK
  5
3DB3
330
3DA8
100
AcDbEntity
  8
0
100
AcDbBlockEnd
  0
BLOCK
  5
3DB8
330
3DB7
100
AcDbEntity
  8
0
100
AcDbBlockBegin
  2
*D52
 70
     1
 10
0.0
 20
0.0
 30
0.0
  3
*D52
  1
*D16
  0
LINE
  5
3DB9
330
3DB7
100
AcDbEntity
  8
寸法
 62
     0
370
    -2
100
AcDbLine
 10
18.65844768898845
 20
177.4540012399441
 30
0.0
 11
10.0
 21
177.4540012399441
 31
0.0
  0
LINE
  5
3DBA
330
3DB7
100
AcDbEntity
  8
寸法
 62
     0
370
    -2
100
AcDbLine
 10
18.65844768898845
 20
122.4185645565063
 30
0.0
 11
10.0
 21
122.4185645565063
 31
0.0
  0
LINE
  5
3DBB
330
3DB7
100
AcDbEntity
  8
寸法
 62
     0
370
    -2
100
AcDbLine
 10
10.0
 20
175.4540012399441
 30
0.0
 11
10.0
 21
124.4185645565063
 31
0.0
  0
INSERT
  5
3DBC
330
3DB7
100
AcDbEntity
  8
寸法
 62
     0
370
    -2
100
AcDbBlockReference
  2
_DOT
 10
10.0
 20
177.4540012399441
 30
0.0
 41
2.0
 42
2.0
 43
2.0
 50
90.0
  0
INSERT
  5
3DBD
330
3DB7
100
AcDbEntity
  8
寸法
 62
     0
370
    -2
100
AcDbBlockReference
  2
_DOT
 10
10.0
 20
122.4185645565063
 30
0.0
 41
2.0
 42
2.0
 43
2.0
 50
270.0
  0
MTEXT
  5
3DBE
330
3DB7
100
AcDbEntity
  8
寸法
 62
     0
100
AcDbMText
 10
2.500000000000002
 20
149.9362828982252
 30
0.0
 40
5.0
 41
0.0
 46
0.0
 71
     5
 72
     1
  1
\A1;55
  7
ＭＳ ゴシック
 11
6.455320231645666E-17
 21
1.0
 31
0.0
 73
     1
 44
1.0
  0
POINT
  5
3DBF
330
3DB7
100
AcDbEntity
  8
Defpoints
 62
     0
100
AcDbPoint
 10
23.65844768898845
 20
177.4540012399441
 30
0.0
  0
POINT
  5
3DC0
330
3DB7
100
AcDbEntity
  8
Defpoints
 62
     0
100
AcDbPoint
 10
23.65844768898845
 20
122.4185645565063
 30
0.0
  0
POINT
  5
3DC1
330
3DB7
100
AcDbEntity
  8
Defpoints
 62
     0
100
AcDbPoint
 10
10.0
 20
122.4185645565063
 30
0.0
  0
ENDBLK
  5
3DC2
330
3DB7
100
AcDbEntity
  8
0
100
AcDbBlockEnd
  0
BLOCK
  5
3DC7
330
3DC6
100
AcDbEntity
  8
0
100
AcDbBlockBegin
  2
*D53
 70
     1
 10
0.0
 20
0.0
 30
0.0
  3
*D53
  1
*D17
  0
LINE
  5
3DC8
330
3DC6
100
AcDbEntity
  8
寸法
 62
     0
370
    -2
100
AcDbLine
 10
23.65844768898845
 20
117.4185645565063
 30
0.0
 11
23.65844768898845
 21
97.44160581128403
 31
0.0
  0
LINE
  5
3DC9
330
3DC6
100
AcDbEntity
  8
寸法
 62
     0
370
    -2
100
AcDbLine
 10
205.6922455730471
 20
117.4185645565063
 30
0.0
 11
205.6922455730471
 21
97.44160581128403
 31
0.0
  0
LINE
  5
3DCA
330
3DC6
100
AcDbEntity
  8
寸法
 62
     0
370
    -2
100
AcDbLine
 10
25.65844768898845
 20
97.44160581128403
 30
0.0
 11
203.6922455730471
 21
97.44160581128403
 31
0.0
  0
INSERT
  5
3DCB
330
3DC6
100
AcDbEntity
  8
寸法
 62
     0
370
    -2
100
AcDbBlockReference
  2
_DOT
 10
23.65844768898845
 20
97.44160581128403
 30
0.0
 41
2.0
 42
2.0
 43
2.0
 50
180.0
  0
INSERT
  5
3DCC
330
3DC6
100
AcDbEntity
  8
寸法
 62
     0
370
    -2
100
AcDbBlockReference
  2
_DOT
 10
205.6922455730471
 20
97.44160581128403
 30
0.0
 41
2.0
 42
2.0
 43
2.0
  0
MTEXT
  5
3DCD
330
3DC6
100
AcDbEntity
  8
寸法
 62
     0
100
AcDbMText
 10
114.6753466310178
 20
104.941605811284
 30
0.0
 40
5.0
 41
0.0
 46
0.0
 71
     5
 72
     1
  1
\A1;182
  7
ＭＳ ゴシック
 73
     1
 44
1.0
  0
POINT
  5
3DCE
330
3DC6
100
AcDbEntity
  8
Defpoints
 62
     0
100
AcDbPoint
 10
23.65844768898845
 20
122.4185645565063
 30
0.0
  0
POINT
  5
3DCF
330
3DC6
100
AcDbEntity
  8
Defpoints
 62
     0
100
AcDbPoint
 10
205.6922455730471
 20
122.4185645565063
 30
0.0
  0
POINT
  5
3DD0
330
3DC6
100
AcDbEntity
  8
Defpoints
 62
     0
100
AcDbPoint
 10
205.6922455730471
 20
97.44160581128403
 30
0.0
  0
ENDBLK
  5
3DD1
330
3DC6
100
AcDbEntity
  8
0
100
AcDbBlockEnd
  0
BLOCK
  5
3DD6
330
3DD5
100
AcDbEntity
  8
0
100
AcDbBlockBegin
  2
*D54
 70
     1
 10
0.0
 20
0.0
 30
0.0
  3
*D54
  1
*D18
  0
LINE
  5
3DD7
330
3DD5
100
AcDbEntity
  8
寸法
 62
     0
370
    -2
100
AcDbLine
 10
188.6780708996721
 20
144.4327392298814
 30
0.0
 11
230.6692043182695
 21
144.4327392298814
 31
0.0
  0
LINE
  5
3DD8
330
3DD5
100
AcDbEntity
  8
寸法
 62
     0
370
    -2
100
AcDbLine
 10
210.6922455730471
 20
122.4185645565063
 30
0.0
 11
230.6692043182695
 21
122.4185645565063
 31
0.0
  0
LINE
  5
3DD9
330
3DD5
100
AcDbEntity
  8
寸法
 62
     0
370
    -2
100
AcDbLine
 10
230.6692043182695
 20
142.4327392298814
 30
0.0
 11
230.6692043182695
 21
124.4185645565063
 31
0.0
  0
INSERT
  5
3DDA
330
3DD5
100
AcDbEntity
  8
寸法
 62
     0
370
    -2
100
AcDbBlockReference
  2
_DOT
 10
230.6692043182695
 20
144.4327392298814
 30
0.0
 41
2.0
 42
2.0
 43
2.0
 50
90.0
  0
INSERT
  5
3DDB
330
3DD5
100
AcDbEntity
  8
寸法
 62
     0
370
    -2
100
AcDbBlockReference
  2
_DOT
 10
230.6692043182695
 20
122.4185645565063
 30
0.0
 41
2.0
 42
2.0
 43
2.0
 50
270.0
  0
MTEXT
  5
3DDC
330
3DD5
100
AcDbEntity
  8
寸法
 62
     0
100
AcDbMText
 10
223.1692043182695
 20
133.4256518931939
 30
0.0
 40
5.0
 41
0.0
 46
0.0
 71
     5
 72
     1
  1
\A1;22
  7
ＭＳ ゴシック
 11
0.0
 21
1.0
 31
0.0
 73
     1
 44
1.0
  0
POINT
  5
3DDD
330
3DD5
100
AcDbEntity
  8
Defpoints
 62
     0
100
AcDbPoint
 10
183.6780708996721
 20
144.4327392298814
 30
0.0
  0
POINT
  5
3DDE
330
3DD5
100
AcDbEntity
  8
Defpoints
 62
     0
100
AcDbPoint
 10
205.6922455730471
 20
122.4185645565063
 30
0.0
  0
POINT
  5
3DDF
330
3DD5
100
AcDbEntity
  8
Defpoints
 62
     0
100
AcDbPoint
 10
230.6692043182695
 20
122.4185645565063
 30
0.0
  0
ENDBLK
  5
3DE0
330
3DD5
100
AcDbEntity
  8
0
100
AcDbBlockEnd
  0
BLOCK
  5
3DE5
330
3DE4
100
AcDbEntity
  8
0
100
AcDbBlockBegin
  2
*D55
 70
     1
 10
0.0
 20
0.0
 30
0.0
  3
*D55
  1
*D19
  0
LINE
  5
3DE6
330
3DE4
100
AcDbEntity
  8
寸法
 62
     0
370
    -2
100
AcDbLine
 10
210.6922455730471
 20
47.49113341859751
 30
0.0
 11
230.6692043182695
 21
47.49113341859751
 31
0.0
  0
LINE
  5
3DE7
330
3DE4
100
AcDbEntity
  8
寸法
 62
     0
370
    -2
100
AcDbLine
 10
201.8021708086272
 20
25.47695874522252
 30
0.0
 11
230.6692043182695
 21
25.47695874522251
 31
0.0
  0
LINE
  5
3DE8
330
3DE4
100
AcDbEntity
  8
寸法
 62
     0
370
    -2
100
AcDbLine
 10
230.6692043182695
 20
45.49113341859751
 30
0.0
 11
230.6692043182695
 21
27.47695874522251
 31
0.0
  0
INSERT
  5
3DE9
330
3DE4
100
AcDbEntity
  8
寸法
 62
     0
370
    -2
100
AcDbBlockReference
  2
_DOT
 10
230.6692043182695
 20
47.49113341859751
 30
0.0
 41
2.0
 42
2.0
 43
2.0
 50
90.0
  0
INSERT
  5
3DEA
330
3DE4
100
AcDbEntity
  8
寸法
 62
     0
370
    -2
100
AcDbBlockReference
  2
_DOT
 10
230.6692043182695
 20
25.47695874522251
 30
0.0
 41
2.0
 42
2.0
 43
2.0
 50
270.0
  0
MTEXT
  5
3DEB
330
3DE4
100
AcDbEntity
  8
寸法
 62
     0
100
AcDbMText
 10
223.1692043182695
 20
36.48404608191002
 30
0.0
 40
5.0
 41
0.0
 46
0.0
 71
     5
 72
     1
  1
\A1;22
  7
ＭＳ ゴシック
 11
0.0
 21
1.0
 31
0.0
 73
     1
 44
1.0
  0
POINT
  5
3DEC
330
3DE4
100
AcDbEntity
  8
Defpoints
 62
     0
100
AcDbPoint
 10
205.6922455730471
 20
47.49113341859751
 30
0.0
  0
POINT
  5
3DED
330
3DE4
100
AcDbEntity
  8
Defpoints
 62
     0
100
AcDbPoint
 10
196.8021708086272
 20
25.47695874522252
 30
0.0
  0
POINT
  5
3DEE
330
3DE4
100
AcDbEntity
  8
Defpoints
 62
     0
100
AcDbPoint
 10
230.6692043182695
 20
25.47695874522251
 30
0.0
  0
ENDBLK
  5
3DEF
330
3DE4
100
AcDbEntity
  8
0
100
AcDbBlockEnd
  0
BLOCK
  5
3DF2
330
3DF1
100
AcDbEntity
  8
0
100
AcDbBlockBegin
  2
*D56
 70
     1
 10
0.0
 20
0.0
 30
0.0
  3
*D56
  1
*D20
  0
LINE
  5
3DF3
330
3DF1
100
AcDbEntity
  8
寸法
 62
     0
370
    -2
100
AcDbLine
 10
34.66467375123662
 20
20.47695874522252
 30
0.0
 11
34.66467375123662
 21
0.5
 31
0.0
  0
LINE
  5
3DF4
330
3DF1
100
AcDbEntity
  8
寸法
 62
     0
370
    -2
100
AcDbLine
 10
194.6646737512367
 20
20.47695874522252
 30
0.0
 11
194.6646737512367
 21
0.5
 31
0.0
  0
LINE
  5
3DF5
330
3DF1
100
AcDbEntity
  8
寸法
 62
     0
370
    -2
100
AcDbLine
 10
36.66467375123662
 20
0.5
 30
0.0
 11
192.6646737512367
 21
0.5
 31
0.0
  0
INSERT
  5
3DF6
330
3DF1
100
AcDbEntity
  8
寸法
 62
     0
370
    -2
100
AcDbBlockReference
  2
_DOT
 10
34.66467375123662
 20
0.5
 30
0.0
 41
2.0
 42
2.0
 43
2.0
 50
180.0
  0
INSERT
  5
3DF7
330
3DF1
100
AcDbEntity
  8
寸法
 62
     0
370
    -2
100
AcDbBlockReference
  2
_DOT
 10
194.6646737512367
 20
0.5
 30
0.0
 41
2.0
 42
2.0
 43
2.0
  0
MTEXT
  5
3DF8
330
3DF1
100
AcDbEntity
  8
寸法
 62
     0
100
AcDbMText
 10
114.6646737512367
 20
8.0
 30
0.0
 40
5.0
 41
0.0
 46
0.0
 71
     5
 72
     1
  1
\A1;160
  7
ＭＳ ゴシック
 73
     1
 44
1.0
  0
POINT
  5
3DF9
330
3DF1
100
AcDbEntity
  8
Defpoints
 62
     0
100
AcDbPoint
 10
34.66467375123662
 20
25.47695874522252
 30
0.0
  0
POINT
  5
3DFA
330
3DF1
100
AcDbEntity
  8
Defpoints
 62
     0
100
AcDbPoint
 10
194.6646737512367
 20
25.47695874522252
 30
0.0
  0
POINT
  5
3DFB
330
3DF1
100
AcDbEntity
  8
Defpoints
 62
     0
100
AcDbPoint
 10
194.6646737512367
 20
0.5
 30
0.0
  0
ENDBLK
  5
3DFC
330
3DF1
100
AcDbEntity
  8
0
100
AcDbBlockEnd
  0
BLOCK
  5
3E8F
330
3E8E
100
AcDbEntity
  8
0
100
AcDbBlockBegin
  2
*D57
 70
     1
 10
0.0
 20
0.0
 30
0.0
  3
*D57
  1
*D58
  0
LINE
  5
3E91
330
3E8E
100
AcDbEntity
  8
寸法
 62
     0
370
    -2
100
AcDbLine
 10
162.8594712420563
 20
327.4654298113726
 30
0.0
 11
162.8594712420563
 21
342.3608693636015
 31
0.0
  0
LINE
  5
3E92
330
3E8E
100
AcDbEntity
  8
寸法
 62
     0
370
    -2
100
AcDbLine
 10
140.8470191175599
 20
327.4654298113726
 30
0.0
 11
140.8470191175599
 21
342.3608693636015
 31
0.0
  0
LINE
  5
3E93
330
3E8E
100
AcDbEntity
  8
寸法
 62
     0
370
    -2
100
AcDbLine
 10
160.8594712420563
 20
342.3608693636015
 30
0.0
 11
142.8470191175599
 21
342.3608693636015
 31
0.0
  0
INSERT
  5
3E94
330
3E8E
100
AcDbEntity
  8
寸法
 62
     0
370
    -2
100
AcDbBlockReference
  2
_DOT
 10
162.8594712420563
 20
342.3608693636015
 30
0.0
 41
2.0
 42
2.0
 43
2.0
  0
INSERT
  5
3E95
330
3E8E
100
AcDbEntity
  8
寸法
 62
     0
370
    -2
100
AcDbBlockReference
  2
_DOT
 10
140.8470191175599
 20
342.3608693636015
 30
0.0
 41
2.0
 42
2.0
 43
2.0
 50
180.0
  0
MTEXT
  5
3E96
330
3E8E
100
AcDbEntity
  8
寸法
 62
     0
100
AcDbMText
 10
151.8532451798081
 20
349.8608693636015
 30
0.0
 40
5.0
 41
0.0
 46
0.0
 71
     5
 72
     1
  1
\A1;22
  7
ＭＳ ゴシック
 73
     1
 44
1.0
  0
POINT
  5
3E97
330
3E8E
100
AcDbEntity
  8
Defpoints
 62
     0
100
AcDbPoint
 10
162.8594712420563
 20
322.4654298113726
 30
0.0
  0
POINT
  5
3E98
330
3E8E
100
AcDbEntity
  8
Defpoints
 62
     0
100
AcDbPoint
 10
140.8470191175599
 20
322.4654298113726
 30
0.0
  0
POINT
  5
3E99
330
3E8E
100
AcDbEntity
  8
Defpoints
 62
     0
100
AcDbPoint
 10
140.8470191175599
 20
342.3608693636015
 30
0.0
  0
ENDBLK
  5
3E90
330
3E8E
100
AcDbEntity
  8
0
100
AcDbBlockEnd
  0
BLOCK
  5
3E9B
330
3E9A
100
AcDbEntity
  8
0
100
AcDbBlockBegin
  2
*D58
 70
     1
 10
0.0
 20
0.0
 30
0.0
  3
*D58
  1
*D59
  0
LINE
  5
3E9D
330
3E9A
100
AcDbEntity
  8
寸法
 62
     0
370
    -2
100
AcDbLine
 10
135.8470191175599
 20
322.4654298113726
 30
0.0
 11
127.1885714285714
 21
322.4654298113726
 31
0.0
  0
LINE
  5
3E9E
330
3E9A
100
AcDbEntity
  8
寸法
 62
     0
370
    -2
100
AcDbLine
 10
135.8470191175599
 20
267.4299931279348
 30
0.0
 11
127.1885714285714
 21
267.4299931279348
 31
0.0
  0
LINE
  5
3E9F
330
3E9A
100
AcDbEntity
  8
寸法
 62
     0
370
    -2
100
AcDbLine
 10
127.1885714285714
 20
320.4654298113726
 30
0.0
 11
127.1885714285714
 21
269.4299931279348
 31
0.0
  0
INSERT
  5
3EA0
330
3E9A
100
AcDbEntity
  8
寸法
 62
     0
370
    -2
100
AcDbBlockReference
  2
_DOT
 10
127.1885714285714
 20
322.4654298113726
 30
0.0
 41
2.0
 42
2.0
 43
2.0
 50
90.0
  0
INSERT
  5
3EA1
330
3E9A
100
AcDbEntity
  8
寸法
 62
     0
370
    -2
100
AcDbBlockReference
  2
_DOT
 10
127.1885714285714
 20
267.4299931279348
 30
0.0
 41
2.0
 42
2.0
 43
2.0
 50
270.0
  0
MTEXT
  5
3EA2
330
3E9A
100
AcDbEntity
  8
寸法
 62
     0
100
AcDbMText
 10
119.6885714285714
 20
294.9477114696537
 30
0.0
 40
5.0
 41
0.0
 46
0.0
 71
     5
 72
     1
  1
\A1;55
  7
ＭＳ ゴシック
 11
0.0
 21
1.0
 31
0.0
 73
     1
 44
1.0
  0
POINT
  5
3EA3
330
3E9A
100
AcDbEntity
  8
Defpoints
 62
     0
100
AcDbPoint
 10
140.8470191175599
 20
322.4654298113726
 30
0.0
  0
POINT
  5
3EA4
330
3E9A
100
AcDbEntity
  8
Defpoints
 62
     0
100
AcDbPoint
 10
140.8470191175599
 20
267.4299931279348
 30
0.0
  0
POINT
  5
3EA5
330
3E9A
100
AcDbEntity
  8
Defpoints
 62
     0
100
AcDbPoint
 10
127.1885714285714
 20
267.4299931279348
 30
0.0
  0
ENDBLK
  5
3E9C
330
3E9A
100
AcDbEntity
  8
0
100
AcDbBlockEnd
  0
BLOCK
  5
3EA7
330
3EA6
100
AcDbEntity
  8
0
100
AcDbBlockBegin
  2
*D59
 70
     1
 10
0.0
 20
0.0
 30
0.0
  3
*D59
  1
*D60
  0
LINE
  5
3EA9
330
3EA6
100
AcDbEntity
  8
寸法
 62
     0
370
    -2
100
AcDbLine
 10
140.8470191175599
 20
262.4299931279348
 30
0.0
 11
140.8470191175599
 21
242.4530343827126
 31
0.0
  0
LINE
  5
3EAA
330
3EA6
100
AcDbEntity
  8
寸法
 62
     0
370
    -2
100
AcDbLine
 10
322.8808170016185
 20
262.4299931279348
 30
0.0
 11
322.8808170016185
 21
242.4530343827126
 31
0.0
  0
LINE
  5
3EAB
330
3EA6
100
AcDbEntity
  8
寸法
 62
     0
370
    -2
100
AcDbLine
 10
142.8470191175599
 20
242.4530343827126
 30
0.0
 11
320.8808170016185
 21
242.4530343827126
 31
0.0
  0
INSERT
  5
3EAC
330
3EA6
100
AcDbEntity
  8
寸法
 62
     0
370
    -2
100
AcDbBlockReference
  2
_DOT
 10
140.8470191175599
 20
242.4530343827126
 30
0.0
 41
2.0
 42
2.0
 43
2.0
 50
180.0
  0
INSERT
  5
3EAD
330
3EA6
100
AcDbEntity
  8
寸法
 62
     0
370
    -2
100
AcDbBlockReference
  2
_DOT
 10
322.8808170016185
 20
242.4530343827126
 30
0.0
 41
2.0
 42
2.0
 43
2.0
  0
MTEXT
  5
3EAE
330
3EA6
100
AcDbEntity
  8
寸法
 62
     0
100
AcDbMText
 10
231.8639180595892
 20
249.9530343827126
 30
0.0
 40
5.0
 41
0.0
 46
0.0
 71
     5
 72
     1
  1
\A1;182
  7
ＭＳ ゴシック
 73
     1
 44
1.0
  0
POINT
  5
3EAF
330
3EA6
100
AcDbEntity
  8
Defpoints
 62
     0
100
AcDbPoint
 10
140.8470191175599
 20
267.4299931279348
 30
0.0
  0
POINT
  5
3EB0
330
3EA6
100
AcDbEntity
  8
Defpoints
 62
     0
100
AcDbPoint
 10
322.8808170016185
 20
267.4299931279348
 30
0.0
  0
POINT
  5
3EB1
330
3EA6
100
AcDbEntity
  8
Defpoints
 62
     0
100
AcDbPoint
 10
322.8808170016185
 20
242.4530343827126
 30
0.0
  0
ENDBLK
  5
3EA8
330
3EA6
100
AcDbEntity
  8
0
100
AcDbBlockEnd
  0
BLOCK
  5
3EB3
330
3EB2
100
AcDbEntity
  8
0
100
AcDbBlockBegin
  2
*D60
 70
     1
 10
0.0
 20
0.0
 30
0.0
  3
*D60
  1
*D61
  0
LINE
  5
3EB5
330
3EB2
100
AcDbEntity
  8
寸法
 62
     0
370
    -2
100
AcDbLine
 10
305.8666423282435
 20
289.44416780131
 30
0.0
 11
347.857775746841
 21
289.44416780131
 31
0.0
  0
LINE
  5
3EB6
330
3EB2
100
AcDbEntity
  8
寸法
 62
     0
370
    -2
100
AcDbLine
 10
327.8808170016185
 20
267.4299931279348
 30
0.0
 11
347.857775746841
 21
267.4299931279348
 31
0.0
  0
LINE
  5
3EB7
330
3EB2
100
AcDbEntity
  8
寸法
 62
     0
370
    -2
100
AcDbLine
 10
347.857775746841
 20
287.44416780131
 30
0.0
 11
347.857775746841
 21
269.4299931279348
 31
0.0
  0
INSERT
  5
3EB8
330
3EB2
100
AcDbEntity
  8
寸法
 62
     0
370
    -2
100
AcDbBlockReference
  2
_DOT
 10
347.857775746841
 20
289.44416780131
 30
0.0
 41
2.0
 42
2.0
 43
2.0
 50
90.0
  0
INSERT
  5
3EB9
330
3EB2
100
AcDbEntity
  8
寸法
 62
     0
370
    -2
100
AcDbBlockReference
  2
_DOT
 10
347.857775746841
 20
267.4299931279348
 30
0.0
 41
2.0
 42
2.0
 43
2.0
 50
270.0
  0
MTEXT
  5
3EBA
330
3EB2
100
AcDbEntity
  8
寸法
 62
     0
100
AcDbMText
 10
340.357775746841
 20
278.4370804646224
 30
0.0
 40
5.0
 41
0.0
 46
0.0
 71
     5
 72
     1
  1
\A1;22
  7
ＭＳ ゴシック
 11
0.0
 21
1.0
 31
0.0
 73
     1
 44
1.0
  0
POINT
  5
3EBB
330
3EB2
100
AcDbEntity
  8
Defpoints
 62
     0
100
AcDbPoint
 10
300.8666423282435
 20
289.44416780131
 30
0.0
  0
POINT
  5
3EBC
330
3EB2
100
AcDbEntity
  8
Defpoints
 62
     0
100
AcDbPoint
 10
322.8808170016185
 20
267.4299931279348
 30
0.0
  0
POINT
  5
3EBD
330
3EB2
100
AcDbEntity
  8
Defpoints
 62
     0
100
AcDbPoint
 10
347.857775746841
 20
267.4299931279348
 30
0.0
  0
ENDBLK
  5
3EB4
330
3EB2
100
AcDbEntity
  8
0
100
AcDbBlockEnd
  0
BLOCK
  5
3EBF
330
3EBE
100
AcDbEntity
  8
0
100
AcDbBlockBegin
  2
*D61
 70
     1
 10
0.0
 20
0.0
 30
0.0
  3
*D61
  1
*D62
  0
LINE
  5
3EC1
330
3EBE
100
AcDbEntity
  8
寸法
 62
     0
370
    -2
100
AcDbLine
 10
327.8808170016185
 20
192.502561990026
 30
0.0
 11
347.857775746841
 21
192.502561990026
 31
0.0
  0
LINE
  5
3EC2
330
3EBE
100
AcDbEntity
  8
寸法
 62
     0
370
    -2
100
AcDbLine
 10
318.9907422371986
 20
170.488387316651
 30
0.0
 11
347.857775746841
 21
170.488387316651
 31
0.0
  0
LINE
  5
3EC3
330
3EBE
100
AcDbEntity
  8
寸法
 62
     0
370
    -2
100
AcDbLine
 10
347.857775746841
 20
190.502561990026
 30
0.0
 11
347.857775746841
 21
172.488387316651
 31
0.0
  0
INSERT
  5
3EC4
330
3EBE
100
AcDbEntity
  8
寸法
 62
     0
370
    -2
100
AcDbBlockReference
  2
_DOT
 10
347.857775746841
 20
192.502561990026
 30
0.0
 41
2.0
 42
2.0
 43
2.0
 50
90.0
  0
INSERT
  5
3EC5
330
3EBE
100
AcDbEntity
  8
寸法
 62
     0
370
    -2
100
AcDbBlockReference
  2
_DOT
 10
347.857775746841
 20
170.488387316651
 30
0.0
 41
2.0
 42
2.0
 43
2.0
 50
270.0
  0
MTEXT
  5
3EC6
330
3EBE
100
AcDbEntity
  8
寸法
 62
     0
100
AcDbMText
 10
340.357775746841
 20
181.4954746533385
 30
0.0
 40
5.0
 41
0.0
 46
0.0
 71
     5
 72
     1
  1
\A1;22
  7
ＭＳ ゴシック
 11
0.0
 21
1.0
 31
0.0
 73
     1
 44
1.0
  0
POINT
  5
3EC7
330
3EBE
100
AcDbEntity
  8
Defpoints
 62
     0
100
AcDbPoint
 10
322.8808170016185
 20
192.502561990026
 30
0.0
  0
POINT
  5
3EC8
330
3EBE
100
AcDbEntity
  8
Defpoints
 62
     0
100
AcDbPoint
 10
313.9907422371986
 20
170.488387316651
 30
0.0
  0
POINT
  5
3EC9
330
3EBE
100
AcDbEntity
  8
Defpoints
 62
     0
100
AcDbPoint
 10
347.857775746841
 20
170.488387316651
 30
0.0
  0
ENDBLK
  5
3EC0
330
3EBE
100
AcDbEntity
  8
0
100
AcDbBlockEnd
  0
BLOCK
  5
3ECB
330
3ECA
100
AcDbEntity
  8
0
100
AcDbBlockBegin
  2
*D62
 70
     1
 10
0.0
 20
0.0
 30
0.0
  3
*D62
  1
*D63
  0
LINE
  5
3ECD
330
3ECA
100
AcDbEntity
  8
寸法
 62
     0
370
    -2
100
AcDbLine
 10
151.8532451798081
 20
165.488387316651
 30
0.0
 11
151.8532451798081
 21
145.5114285714285
 31
0.0
  0
LINE
  5
3ECE
330
3ECA
100
AcDbEntity
  8
寸法
 62
     0
370
    -2
100
AcDbLine
 10
311.8532451798081
 20
165.488387316651
 30
0.0
 11
311.8532451798081
 21
145.5114285714285
 31
0.0
  0
LINE
  5
3ECF
330
3ECA
100
AcDbEntity
  8
寸法
 62
     0
370
    -2
100
AcDbLine
 10
153.8532451798081
 20
145.5114285714285
 30
0.0
 11
309.8532451798081
 21
145.5114285714285
 31
0.0
  0
INSERT
  5
3ED0
330
3ECA
100
AcDbEntity
  8
寸法
 62
     0
370
    -2
100
AcDbBlockReference
  2
_DOT
 10
151.8532451798081
 20
145.5114285714285
 30
0.0
 41
2.0
 42
2.0
 43
2.0
 50
180.0
  0
INSERT
  5
3ED1
330
3ECA
100
AcDbEntity
  8
寸法
 62
     0
370
    -2
100
AcDbBlockReference
  2
_DOT
 10
311.8532451798081
 20
145.5114285714285
 30
0.0
 41
2.0
 42
2.0
 43
2.0
  0
MTEXT
  5
3ED2
330
3ECA
100
AcDbEntity
  8
寸法
 62
     0
100
AcDbMText
 10
231.8532451798081
 20
153.0114285714285
 30
0.0
 40
5.0
 41
0.0
 46
0.0
 71
     5
 72
     1
  1
\A1;160
  7
ＭＳ ゴシック
 73
     1
 44
1.0
  0
POINT
  5
3ED3
330
3ECA
100
AcDbEntity
  8
Defpoints
 62
     0
100
AcDbPoint
 10
151.8532451798081
 20
170.488387316651
 30
0.0
  0
POINT
  5
3ED4
330
3ECA
100
AcDbEntity
  8
Defpoints
 62
     0
100
AcDbPoint
 10
311.8532451798081
 20
170.488387316651
 30
0.0
  0
POINT
  5
3ED5
330
3ECA
100
AcDbEntity
  8
Defpoints
 62
     0
100
AcDbPoint
 10
311.8532451798081
 20
145.5114285714285
 30
0.0
  0
ENDBLK
  5
3ECC
330
3ECA
100
AcDbEntity
  8
0
100
AcDbBlockEnd
  0
BLOCK
  5
3F67
330
3F66
100
AcDbEntity
  8
0
100
AcDbBlockBegin
  2
*D63
 70
     1
 10
0.0
 20
0.0
 30
0.0
  3
*D63
  1
*D15
  0
LINE
  5
3F68
330
3F66
100
AcDbEntity
  8
寸法
 62
     0
370
    -2
100
AcDbLine
 10
44.22961224124271
 20
49.3879446859242
 30
0.0
 11
61.4846518517258
 21
49.3879446859242
 31
0.0
  0
LINE
  5
3F69
330
3F66
100
AcDbEntity
  8
寸法
 62
     0
370
    -2
100
AcDbLine
 10
44.22961224124271
 20
19.3329118454665
 30
0.0
 11
61.4846518517258
 21
19.3329118454665
 31
0.0
  0
LINE
  5
3F6A
330
3F66
100
AcDbEntity
  8
寸法
 62
     0
370
    -2
100
AcDbLine
 10
61.4846518517258
 20
47.3879446859242
 30
0.0
 11
61.4846518517258
 21
21.3329118454665
 31
0.0
  0
INSERT
  5
3F6B
330
3F66
100
AcDbEntity
  8
寸法
 62
     0
370
    -2
100
AcDbBlockReference
  2
_DOT
 10
61.4846518517258
 20
49.3879446859242
 30
0.0
 41
2.0
 42
2.0
 43
2.0
 50
90.0
  0
INSERT
  5
3F6C
330
3F66
100
AcDbEntity
  8
寸法
 62
     0
370
    -2
100
AcDbBlockReference
  2
_DOT
 10
61.4846518517258
 20
19.3329118454665
 30
0.0
 41
2.0
 42
2.0
 43
2.0
 50
270.0
  0
MTEXT
  5
3F6D
330
3F66
100
AcDbEntity
  8
寸法
 62
     0
100
AcDbMText
 10
53.9846518517258
 20
34.36042826569535
 30
0.0
 40
5.0
 41
0.0
 46
0.0
 71
     5
 72
     1
  1
\A1;30
  7
ＭＳ ゴシック
 11
0.0
 21
1.0
 31
0.0
 73
     1
 44
1.0
  0
POINT
  5
3F6E
330
3F66
100
AcDbEntity
  8
Defpoints
 62
     0
100
AcDbPoint
 10
39.22961224124271
 20
49.3879446859242
 30
0.0
  0
POINT
  5
3F6F
330
3F66
100
AcDbEntity
  8
Defpoints
 62
     0
100
AcDbPoint
 10
39.22961224124271
 20
19.3329118454665
 30
0.0
  0
POINT
  5
3F70
330
3F66
100
AcDbEntity
  8
Defpoints
 62
     0
100
AcDbPoint
 10
61.4846518517258
 20
19.3329118454665
 30
0.0
  0
ENDBLK
  5
3F71
330
3F66
100
AcDbEntity
  8
0
100
AcDbBlockEnd
  0
BLOCK
  5
3F74
330
3F73
100
AcDbEntity
  8
0
100
AcDbBlockBegin
  2
*D64
 70
     1
 10
0.0
 20
0.0
 30
0.0
  3
*D64
  1
*D17
  0
LINE
  5
3F75
330
3F73
100
AcDbEntity
  8
寸法
 62
     0
370
    -2
100
AcDbLine
 10
42.2351830448975
 20
56.80413543114662
 30
0.0
 11
42.2351830448975
 21
71.5397110857142
 31
0.0
  0
LINE
  5
3F76
330
3F73
100
AcDbEntity
  8
寸法
 62
     0
370
    -2
100
AcDbLine
 10
25.2351830448975
 20
56.80413543114662
 30
0.0
 11
25.2351830448975
 21
71.5397110857142
 31
0.0
  0
LINE
  5
3F77
330
3F73
100
AcDbEntity
  8
寸法
 62
     0
370
    -2
100
AcDbLine
 10
40.2351830448975
 20
71.5397110857142
 30
0.0
 11
27.2351830448975
 21
71.5397110857142
 31
0.0
  0
INSERT
  5
3F78
330
3F73
100
AcDbEntity
  8
寸法
 62
     0
370
    -2
100
AcDbBlockReference
  2
_DOT
 10
42.2351830448975
 20
71.5397110857142
 30
0.0
 41
2.0
 42
2.0
 43
2.0
  0
INSERT
  5
3F79
330
3F73
100
AcDbEntity
  8
寸法
 62
     0
370
    -2
100
AcDbBlockReference
  2
_DOT
 10
25.2351830448975
 20
71.5397110857142
 30
0.0
 41
2.0
 42
2.0
 43
2.0
 50
180.0
  0
MTEXT
  5
3F7A
330
3F73
100
AcDbEntity
  8
寸法
 62
     0
100
AcDbMText
 10
33.7351830448975
 20
79.0397110857142
 30
0.0
 40
5.0
 41
0.0
 46
0.0
 71
     5
 72
     1
  1
\A1;17
  7
ＭＳ ゴシック
 73
     1
 44
1.0
  0
POINT
  5
3F7B
330
3F73
100
AcDbEntity
  8
Defpoints
 62
     0
100
AcDbPoint
 10
42.2351830448975
 20
51.80413543114662
 30
0.0
  0
POINT
  5
3F7C
330
3F73
100
AcDbEntity
  8
Defpoints
 62
     0
100
AcDbPoint
 10
25.2351830448975
 20
51.80413543114662
 30
0.0
  0
POINT
  5
3F7D
330
3F73
100
AcDbEntity
  8
Defpoints
 62
     0
100
AcDbPoint
 10
25.2351830448975
 20
71.5397110857142
 30
0.0
  0
ENDBLK
  5
3F7E
330
3F73
100
AcDbEntity
  8
0
100
AcDbBlockEnd
  0
BLOCK
  5
3F81
330
3F80
100
AcDbEntity
  8
0
100
AcDbBlockBegin
  2
*D65
 70
     1
 10
0.0
 20
0.0
 30
0.0
  3
*D65
  1
*D19
  0
LINE
  5
3F82
330
3F80
100
AcDbEntity
  8
寸法
 62
     0
370
    -2
100
AcDbLine
 10
131.755290278929
 20
49.3879446859242
 30
0.0
 11
164.2207283967622
 21
49.3879446859242
 31
0.0
  0
LINE
  5
3F83
330
3F80
100
AcDbEntity
  8
寸法
 62
     0
370
    -2
100
AcDbLine
 10
152.9880093378457
 20
23.3879446859242
 30
0.0
 11
164.2207283967622
 21
23.3879446859242
 31
0.0
  0
LINE
  5
3F84
330
3F80
100
AcDbEntity
  8
寸法
 62
     0
370
    -2
100
AcDbLine
 10
164.2207283967622
 20
47.3879446859242
 30
0.0
 11
164.2207283967622
 21
25.3879446859242
 31
0.0
  0
INSERT
  5
3F85
330
3F80
100
AcDbEntity
  8
寸法
 62
     0
370
    -2
100
AcDbBlockReference
  2
_DOT
 10
164.2207283967622
 20
49.3879446859242
 30
0.0
 41
2.0
 42
2.0
 43
2.0
 50
90.0
  0
INSERT
  5
3F86
330
3F80
100
AcDbEntity
  8
寸法
 62
     0
370
    -2
100
AcDbBlockReference
  2
_DOT
 10
164.2207283967622
 20
23.3879446859242
 30
0.0
 41
2.0
 42
2.0
 43
2.0
 50
270.0
  0
MTEXT
  5
3F87
330
3F80
100
AcDbEntity
  8
寸法
 62
     0
100
AcDbMText
 10
156.7207283967622
 20
36.3879446859242
 30
0.0
 40
5.0
 41
0.0
 46
0.0
 71
     5
 72
     1
  1
\A1;26
  7
ＭＳ ゴシック
 11
0.0
 21
1.0
 31
0.0
 73
     1
 44
1.0
  0
POINT
  5
3F88
330
3F80
100
AcDbEntity
  8
Defpoints
 62
     0
100
AcDbPoint
 10
126.755290278929
 20
49.3879446859242
 30
0.0
  0
POINT
  5
3F89
330
3F80
100
AcDbEntity
  8
Defpoints
 62
     0
100
AcDbPoint
 10
147.9880093378457
 20
23.3879446859242
 30
0.0
  0
POINT
  5
3F8A
330
3F80
100
AcDbEntity
  8
Defpoints
 62
     0
100
AcDbPoint
 10
164.2207283967622
 20
23.3879446859242
 30
0.0
  0
ENDBLK
  5
3F8B
330
3F80
100
AcDbEntity
  8
0
100
AcDbBlockEnd
  0
BLOCK
  5
3F90
330
3F8F
100
AcDbEntity
  8
0
100
AcDbBlockBegin
  2
*D66
 70
     1
 10
0.0
 20
0.0
 30
0.0
  3
*D66
  1
*D21
  0
LINE
  5
3F91
330
3F8F
100
AcDbEntity
  8
寸法
 62
     0
370
    -2
100
AcDbLine
 10
139.2437696515399
 20
18.14318996577219
 30
0.0
 11
139.2437696515399
 21
0.5
 31
0.0
  0
LINE
  5
3F92
330
3F8F
100
AcDbEntity
  8
寸法
 62
     0
370
    -2
100
AcDbLine
 10
135.4352140801133
 20
18.14318996577219
 30
0.0
 11
135.4352140801133
 21
0.5
 31
0.0
  0
INSERT
  5
3F93
330
3F8F
100
AcDbEntity
  8
寸法
 62
     0
370
    -2
100
AcDbBlockReference
  2
_DOT
 10
139.2437696515399
 20
0.5
 30
0.0
 41
2.0
 42
2.0
 43
2.0
  0
INSERT
  5
3F94
330
3F8F
100
AcDbEntity
  8
寸法
 62
     0
370
    -2
100
AcDbBlockReference
  2
_DOT
 10
135.4352140801133
 20
0.5
 30
0.0
 41
2.0
 42
2.0
 43
2.0
 50
180.0
  0
MTEXT
  5
3F95
330
3F8F
100
AcDbEntity
  8
寸法
 62
     0
100
AcDbMText
 10
137.3394918658266
 20
8.0
 30
0.0
 40
5.0
 41
0.0
 46
0.0
 71
     5
 72
     1
  1
\A1;4
  7
ＭＳ ゴシック
 73
     1
 44
1.0
  0
POINT
  5
3F96
330
3F8F
100
AcDbEntity
  8
Defpoints
 62
     0
100
AcDbPoint
 10
139.2437696515399
 20
23.14318996577219
 30
0.0
  0
POINT
  5
3F97
330
3F8F
100
AcDbEntity
  8
Defpoints
 62
     0
100
AcDbPoint
 10
135.4352140801133
 20
23.14318996577219
 30
0.0
  0
POINT
  5
3F98
330
3F8F
100
AcDbEntity
  8
Defpoints
 62
     0
100
AcDbPoint
 10
135.4352140801133
 20
0.5
 30
0.0
  0
ENDBLK
  5
3F99
330
3F8F
100
AcDbEntity
  8
0
100
AcDbBlockEnd
  0
BLOCK
  5
3F9C
330
3F9B
100
AcDbEntity
  8
0
100
AcDbBlockBegin
  2
*D67
 70
     1
 10
0.0
 20
0.0
 30
0.0
  3
*D67
  1
*D22
  0
LINE
  5
3F9D
330
3F9B
100
AcDbEntity
  8
寸法
 62
     0
370
    -2
100
AcDbLine
 10
118.0770890266235
 20
14.1021074697656
 30
0.0
 11
118.0770890266235
 21
0.5
 31
0.0
  0
LINE
  5
3F9E
330
3F9B
100
AcDbEntity
  8
寸法
 62
     0
370
    -2
100
AcDbLine
 10
114.2685334551969
 20
14.1021074697656
 30
0.0
 11
114.2685334551969
 21
0.5
 31
0.0
  0
INSERT
  5
3F9F
330
3F9B
100
AcDbEntity
  8
寸法
 62
     0
370
    -2
100
AcDbBlockReference
  2
_DOT
 10
118.0770890266235
 20
0.5
 30
0.0
 41
2.0
 42
2.0
 43
2.0
  0
INSERT
  5
3FA0
330
3F9B
100
AcDbEntity
  8
寸法
 62
     0
370
    -2
100
AcDbBlockReference
  2
_DOT
 10
114.2685334551969
 20
0.5
 30
0.0
 41
2.0
 42
2.0
 43
2.0
 50
180.0
  0
MTEXT
  5
3FA1
330
3F9B
100
AcDbEntity
  8
寸法
 62
     0
100
AcDbMText
 10
116.1728112409102
 20
8.0
 30
0.0
 40
5.0
 41
0.0
 46
0.0
 71
     5
 72
     1
  1
\A1;4
  7
ＭＳ ゴシック
 73
     1
 44
1.0
  0
POINT
  5
3FA2
330
3F9B
100
AcDbEntity
  8
Defpoints
 62
     0
100
AcDbPoint
 10
118.0770890266235
 20
19.1021074697656
 30
0.0
  0
POINT
  5
3FA3
330
3F9B
100
AcDbEntity
  8
Defpoints
 62
     0
100
AcDbPoint
 10
114.2685334551969
 20
19.1021074697656
 30
0.0
  0
POINT
  5
3FA4
330
3F9B
100
AcDbEntity
  8
Defpoints
 62
     0
100
AcDbPoint
 10
114.2685334551969
 20
0.5
 30
0.0
  0
ENDBLK
  5
3FA5
330
3F9B
100
AcDbEntity
  8
0
100
AcDbBlockEnd
  0
BLOCK
  5
3FA8
330
3FA7
100
AcDbEntity
  8
0
100
AcDbBlockBegin
  2
*D68
 70
     1
 10
0.0
 20
0.0
 30
0.0
  3
*D68
  1
*D23
  0
LINE
  5
3FA9
330
3FA7
100
AcDbEntity
  8
寸法
 62
     0
370
    -2
100
AcDbLine
 10
23.1855149922483
 20
22.9035677669084
 30
0.0
 11
23.1855149922483
 21
0.5
 31
0.0
  0
LINE
  5
3FAA
330
3FA7
100
AcDbEntity
  8
寸法
 62
     0
370
    -2
100
AcDbLine
 10
43.08267709335598
 20
22.9035677669084
 30
0.0
 11
43.08267709335598
 21
0.5
 31
0.0
  0
LINE
  5
3FAB
330
3FA7
100
AcDbEntity
  8
寸法
 62
     0
370
    -2
100
AcDbLine
 10
25.1855149922483
 20
0.5
 30
0.0
 11
41.08267709335598
 21
0.5
 31
0.0
  0
INSERT
  5
3FAC
330
3FA7
100
AcDbEntity
  8
寸法
 62
     0
370
    -2
100
AcDbBlockReference
  2
_DOT
 10
23.1855149922483
 20
0.5
 30
0.0
 41
2.0
 42
2.0
 43
2.0
 50
180.0
  0
INSERT
  5
3FAD
330
3FA7
100
AcDbEntity
  8
寸法
 62
     0
370
    -2
100
AcDbBlockReference
  2
_DOT
 10
43.08267709335598
 20
0.5
 30
0.0
 41
2.0
 42
2.0
 43
2.0
  0
MTEXT
  5
3FAE
330
3FA7
100
AcDbEntity
  8
寸法
 62
     0
100
AcDbMText
 10
33.13409604280214
 20
8.0
 30
0.0
 40
5.0
 41
0.0
 46
0.0
 71
     5
 72
     1
  1
\A1;20
  7
ＭＳ ゴシック
 73
     1
 44
1.0
  0
POINT
  5
3FAF
330
3FA7
100
AcDbEntity
  8
Defpoints
 62
     0
100
AcDbPoint
 10
23.1855149922483
 20
27.9035677669084
 30
0.0
  0
POINT
  5
3FB0
330
3FA7
100
AcDbEntity
  8
Defpoints
 62
     0
100
AcDbPoint
 10
43.08267709335598
 20
27.9035677669084
 30
0.0
  0
POINT
  5
3FB1
330
3FA7
100
AcDbEntity
  8
Defpoints
 62
     0
100
AcDbPoint
 10
43.08267709335598
 20
0.5
 30
0.0
  0
ENDBLK
  5
3FB2
330
3FA7
100
AcDbEntity
  8
0
100
AcDbBlockEnd
  0
BLOCK
  5
3FCE
330
3FCD
100
AcDbEntity
  8
0
100
AcDbBlockBegin
  2
*D69
 70
     1
 10
0.0
 20
0.0
 30
0.0
  3
*D69
  1
*D26
  0
LINE
  5
3FCF
330
3FCD
100
AcDbEntity
  8
寸法
 62
     0
370
    -2
100
AcDbLine
 10
19.94337612324819
 20
96.30768261203352
 30
0.0
 11
9.999999999999998
 21
96.30768261203352
 31
0.0
  0
LINE
  5
3FD0
330
3FCD
100
AcDbEntity
  8
寸法
 62
     0
370
    -2
100
AcDbLine
 10
19.94337612324819
 20
122.3076826120335
 30
0.0
 11
10.0
 21
122.3076826120335
 31
0.0
  0
LINE
  5
3FD1
330
3FCD
100
AcDbEntity
  8
寸法
 62
     0
370
    -2
100
AcDbLine
 10
9.999999999999998
 20
98.30768261203352
 30
0.0
 11
10.0
 21
120.3076826120335
 31
0.0
  0
INSERT
  5
3FD2
330
3FCD
100
AcDbEntity
  8
寸法
 62
     0
370
    -2
100
AcDbBlockReference
  2
_DOT
 10
9.999999999999998
 20
96.30768261203352
 30
0.0
 41
2.0
 42
2.0
 43
2.0
 50
270.0
  0
INSERT
  5
3FD3
330
3FCD
100
AcDbEntity
  8
寸法
 62
     0
370
    -2
100
AcDbBlockReference
  2
_DOT
 10
10.0
 20
122.3076826120335
 30
0.0
 41
2.0
 42
2.0
 43
2.0
 50
90.0
  0
MTEXT
  5
3FD4
330
3FCD
100
AcDbEntity
  8
寸法
 62
     0
100
AcDbMText
 10
2.5
 20
109.3076826120335
 30
0.0
 40
5.0
 41
0.0
 46
0.0
 71
     5
 72
     1
  1
\A1;26
  7
ＭＳ ゴシック
 11
6.832141690000964E-17
 21
1.0
 31
0.0
 73
     1
 44
1.0
  0
POINT
  5
3FD5
330
3FCD
100
AcDbEntity
  8
Defpoints
 62
     0
100
AcDbPoint
 10
24.94337612324819
 20
96.30768261203352
 30
0.0
  0
POINT
  5
3FD6
330
3FCD
100
AcDbEntity
  8
Defpoints
 62
     0
100
AcDbPoint
 10
24.94337612324819
 20
122.3076826120335
 30
0.0
  0
POINT
  5
3FD7
330
3FCD
100
AcDbEntity
  8
Defpoints
 62
     0
100
AcDbPoint
 10
10.0
 20
122.3076826120335
 30
0.0
  0
ENDBLK
  5
3FD8
330
3FCD
100
AcDbEntity
  8
0
100
AcDbBlockEnd
  0
BLOCK
  5
4044
330
4043
100
AcDbEntity
  8
0
100
AcDbBlockBegin
  2
*D70
 70
     1
 10
0.0
 20
0.0
 30
0.0
  3
*D70
  1
*D71
  0
LINE
  5
4046
330
4043
100
AcDbEntity
  8
寸法
 62
     0
370
    -2
100
AcDbLine
 10
239.5210408126713
 20
220.045087543067
 30
0.0
 11
256.7760804231544
 21
220.045087543067
 31
0.0
  0
LINE
  5
4047
330
4043
100
AcDbEntity
  8
寸法
 62
     0
370
    -2
100
AcDbLine
 10
239.5210408126713
 20
189.9900547026093
 30
0.0
 11
256.7760804231544
 21
189.9900547026093
 31
0.0
  0
LINE
  5
4048
330
4043
100
AcDbEntity
  8
寸法
 62
     0
370
    -2
100
AcDbLine
 10
256.7760804231544
 20
218.045087543067
 30
0.0
 11
256.7760804231544
 21
191.9900547026093
 31
0.0
  0
INSERT
  5
4049
330
4043
100
AcDbEntity
  8
寸法
 62
     0
370
    -2
100
AcDbBlockReference
  2
_DOT
 10
256.7760804231544
 20
220.045087543067
 30
0.0
 41
2.0
 42
2.0
 43
2.0
 50
90.0
  0
INSERT
  5
404A
330
4043
100
AcDbEntity
  8
寸法
 62
     0
370
    -2
100
AcDbBlockReference
  2
_DOT
 10
256.7760804231544
 20
189.9900547026093
 30
0.0
 41
2.0
 42
2.0
 43
2.0
 50
270.0
  0
MTEXT
  5
404B
330
4043
100
AcDbEntity
  8
寸法
 62
     0
100
AcDbMText
 10
249.2760804231544
 20
205.0175711228381
 30
0.0
 40
5.0
 41
0.0
 46
0.0
 71
     5
 72
     1
  1
\A1;30
  7
ＭＳ ゴシック
 11
0.0
 21
1.0
 31
0.0
 73
     1
 44
1.0
  0
POINT
  5
404C
330
4043
100
AcDbEntity
  8
Defpoints
 62
     0
100
AcDbPoint
 10
234.5210408126713
 20
220.045087543067
 30
0.0
  0
POINT
  5
404D
330
4043
100
AcDbEntity
  8
Defpoints
 62
     0
100
AcDbPoint
 10
234.5210408126713
 20
189.9900547026093
 30
0.0
  0
POINT
  5
404E
330
4043
100
AcDbEntity
  8
Defpoints
 62
     0
100
AcDbPoint
 10
256.7760804231544
 20
189.9900547026093
 30
0.0
  0
ENDBLK
  5
4045
330
4043
100
AcDbEntity
  8
0
100
AcDbBlockEnd
  0
BLOCK
  5
4050
330
404F
100
AcDbEntity
  8
0
100
AcDbBlockBegin
  2
*D71
 70
     1
 10
0.0
 20
0.0
 30
0.0
  3
*D71
  1
*D72
  0
LINE
  5
4052
330
404F
100
AcDbEntity
  8
寸法
 62
     0
370
    -2
100
AcDbLine
 10
237.5266116163261
 20
227.4612782882894
 30
0.0
 11
237.5266116163261
 21
242.196853942857
 31
0.0
  0
LINE
  5
4053
330
404F
100
AcDbEntity
  8
寸法
 62
     0
370
    -2
100
AcDbLine
 10
220.5266116163261
 20
227.4612782882894
 30
0.0
 11
220.5266116163261
 21
242.196853942857
 31
0.0
  0
LINE
  5
4054
330
404F
100
AcDbEntity
  8
寸法
 62
     0
370
    -2
100
AcDbLine
 10
235.5266116163261
 20
242.196853942857
 30
0.0
 11
222.5266116163261
 21
242.196853942857
 31
0.0
  0
INSERT
  5
4055
330
404F
100
AcDbEntity
  8
寸法
 62
     0
370
    -2
100
AcDbBlockReference
  2
_DOT
 10
237.5266116163261
 20
242.196853942857
 30
0.0
 41
2.0
 42
2.0
 43
2.0
  0
INSERT
  5
4056
330
404F
100
AcDbEntity
  8
寸法
 62
     0
370
    -2
100
AcDbBlockReference
  2
_DOT
 10
220.5266116163261
 20
242.196853942857
 30
0.0
 41
2.0
 42
2.0
 43
2.0
 50
180.0
  0
MTEXT
  5
4057
330
404F
100
AcDbEntity
  8
寸法
 62
     0
100
AcDbMText
 10
229.0266116163261
 20
249.696853942857
 30
0.0
 40
5.0
 41
0.0
 46
0.0
 71
     5
 72
     1
  1
\A1;17
  7
ＭＳ ゴシック
 73
     1
 44
1.0
  0
POINT
  5
4058
330
404F
100
AcDbEntity
  8
Defpoints
 62
     0
100
AcDbPoint
 10
237.5266116163261
 20
222.4612782882894
 30
0.0
  0
POINT
  5
4059
330
404F
100
AcDbEntity
  8
Defpoints
 62
     0
100
AcDbPoint
 10
220.5266116163261
 20
222.4612782882894
 30
0.0
  0
POINT
  5
405A
330
404F
100
AcDbEntity
  8
Defpoints
 62
     0
100
AcDbPoint
 10
220.5266116163261
 20
242.196853942857
 30
0.0
  0
ENDBLK
  5
4051
330
404F
100
AcDbEntity
  8
0
100
AcDbBlockEnd
  0
BLOCK
  5
405C
330
405B
100
AcDbEntity
  8
0
100
AcDbBlockBegin
  2
*D72
 70
     1
 10
0.0
 20
0.0
 30
0.0
  3
*D72
  1
*D73
  0
LINE
  5
405E
330
405B
100
AcDbEntity
  8
寸法
 62
     0
370
    -2
100
AcDbLine
 10
327.0467188503576
 20
220.045087543067
 30
0.0
 11
359.5121569681908
 21
220.045087543067
 31
0.0
  0
LINE
  5
405F
330
405B
100
AcDbEntity
  8
寸法
 62
     0
370
    -2
100
AcDbLine
 10
348.2794379092743
 20
194.045087543067
 30
0.0
 11
359.5121569681908
 21
194.045087543067
 31
0.0
  0
LINE
  5
4060
330
405B
100
AcDbEntity
  8
寸法
 62
     0
370
    -2
100
AcDbLine
 10
359.5121569681908
 20
218.045087543067
 30
0.0
 11
359.5121569681908
 21
196.045087543067
 31
0.0
  0
INSERT
  5
4061
330
405B
100
AcDbEntity
  8
寸法
 62
     0
370
    -2
100
AcDbBlockReference
  2
_DOT
 10
359.5121569681908
 20
220.045087543067
 30
0.0
 41
2.0
 42
2.0
 43
2.0
 50
90.0
  0
INSERT
  5
4062
330
405B
100
AcDbEntity
  8
寸法
 62
     0
370
    -2
100
AcDbBlockReference
  2
_DOT
 10
359.5121569681908
 20
194.045087543067
 30
0.0
 41
2.0
 42
2.0
 43
2.0
 50
270.0
  0
MTEXT
  5
4063
330
405B
100
AcDbEntity
  8
寸法
 62
     0
100
AcDbMText
 10
352.0121569681908
 20
207.045087543067
 30
0.0
 40
5.0
 41
0.0
 46
0.0
 71
     5
 72
     1
  1
\A1;26
  7
ＭＳ ゴシック
 11
0.0
 21
1.0
 31
0.0
 73
     1
 44
1.0
  0
POINT
  5
4064
330
405B
100
AcDbEntity
  8
Defpoints
 62
     0
100
AcDbPoint
 10
322.0467188503576
 20
220.045087543067
 30
0.0
  0
POINT
  5
4065
330
405B
100
AcDbEntity
  8
Defpoints
 62
     0
100
AcDbPoint
 10
343.2794379092743
 20
194.045087543067
 30
0.0
  0
POINT
  5
4066
330
405B
100
AcDbEntity
  8
Defpoints
 62
     0
100
AcDbPoint
 10
359.5121569681908
 20
194.045087543067
 30
0.0
  0
ENDBLK
  5
405D
330
405B
100
AcDbEntity
  8
0
100
AcDbBlockEnd
  0
BLOCK
  5
4068
330
4067
100
AcDbEntity
  8
0
100
AcDbBlockBegin
  2
*D73
 70
     1
 10
0.0
 20
0.0
 30
0.0
  3
*D73
  1
*D74
  0
LINE
  5
406A
330
4067
100
AcDbEntity
  8
寸法
 62
     0
370
    -2
100
AcDbLine
 10
334.5351982229685
 20
188.800332822915
 30
0.0
 11
334.5351982229685
 21
171.1571428571428
 31
0.0
  0
LINE
  5
406B
330
4067
100
AcDbEntity
  8
寸法
 62
     0
370
    -2
100
AcDbLine
 10
330.7266426515419
 20
188.800332822915
 30
0.0
 11
330.7266426515419
 21
171.1571428571428
 31
0.0
  0
INSERT
  5
406C
330
4067
100
AcDbEntity
  8
寸法
 62
     0
370
    -2
100
AcDbBlockReference
  2
_DOT
 10
334.5351982229685
 20
171.1571428571428
 30
0.0
 41
2.0
 42
2.0
 43
2.0
  0
INSERT
  5
406D
330
4067
100
AcDbEntity
  8
寸法
 62
     0
370
    -2
100
AcDbBlockReference
  2
_DOT
 10
330.7266426515419
 20
171.1571428571428
 30
0.0
 41
2.0
 42
2.0
 43
2.0
 50
180.0
  0
MTEXT
  5
406E
330
4067
100
AcDbEntity
  8
寸法
 62
     0
100
AcDbMText
 10
332.6309204372552
 20
178.6571428571428
 30
0.0
 40
5.0
 41
0.0
 46
0.0
 71
     5
 72
     1
  1
\A1;4
  7
ＭＳ ゴシック
 73
     1
 44
1.0
  0
POINT
  5
406F
330
4067
100
AcDbEntity
  8
Defpoints
 62
     0
100
AcDbPoint
 10
334.5351982229685
 20
193.800332822915
 30
0.0
  0
POINT
  5
4070
330
4067
100
AcDbEntity
  8
Defpoints
 62
     0
100
AcDbPoint
 10
330.7266426515419
 20
193.800332822915
 30
0.0
  0
POINT
  5
4071
330
4067
100
AcDbEntity
  8
Defpoints
 62
     0
100
AcDbPoint
 10
330.7266426515419
 20
171.1571428571428
 30
0.0
  0
ENDBLK
  5
4069
330
4067
100
AcDbEntity
  8
0
100
AcDbBlockEnd
  0
BLOCK
  5
4073
330
4072
100
AcDbEntity
  8
0
100
AcDbBlockBegin
  2
*D74
 70
     1
 10
0.0
 20
0.0
 30
0.0
  3
*D74
  1
*D75
  0
LINE
  5
4075
330
4072
100
AcDbEntity
  8
寸法
 62
     0
370
    -2
100
AcDbLine
 10
313.3685175980521
 20
184.7592503269084
 30
0.0
 11
313.3685175980521
 21
171.1571428571428
 31
0.0
  0
LINE
  5
4076
330
4072
100
AcDbEntity
  8
寸法
 62
     0
370
    -2
100
AcDbLine
 10
309.5599620266255
 20
184.7592503269084
 30
0.0
 11
309.5599620266255
 21
171.1571428571428
 31
0.0
  0
INSERT
  5
4077
330
4072
100
AcDbEntity
  8
寸法
 62
     0
370
    -2
100
AcDbBlockReference
  2
_DOT
 10
313.3685175980521
 20
171.1571428571428
 30
0.0
 41
2.0
 42
2.0
 43
2.0
  0
INSERT
  5
4078
330
4072
100
AcDbEntity
  8
寸法
 62
     0
370
    -2
100
AcDbBlockReference
  2
_DOT
 10
309.5599620266255
 20
171.1571428571428
 30
0.0
 41
2.0
 42
2.0
 43
2.0
 50
180.0
  0
MTEXT
  5
4079
330
4072
100
AcDbEntity
  8
寸法
 62
     0
100
AcDbMText
 10
311.4642398123387
 20
178.6571428571428
 30
0.0
 40
5.0
 41
0.0
 46
0.0
 71
     5
 72
     1
  1
\A1;4
  7
ＭＳ ゴシック
 73
     1
 44
1.0
  0
POINT
  5
407A
330
4072
100
AcDbEntity
  8
Defpoints
 62
     0
100
AcDbPoint
 10
313.3685175980521
 20
189.7592503269084
 30
0.0
  0
POINT
  5
407B
330
4072
100
AcDbEntity
  8
Defpoints
 62
     0
100
AcDbPoint
 10
309.5599620266255
 20
189.7592503269084
 30
0.0
  0
POINT
  5
407C
330
4072
100
AcDbEntity
  8
Defpoints
 62
     0
100
AcDbPoint
 10
309.5599620266255
 20
171.1571428571428
 30
0.0
  0
ENDBLK
  5
4074
330
4072
100
AcDbEntity
  8
0
100
AcDbBlockEnd
  0
BLOCK
  5
407E
330
407D
100
AcDbEntity
  8
0
100
AcDbBlockBegin
  2
*D75
 70
     1
 10
0.0
 20
0.0
 30
0.0
  3
*D75
  1
*D76
  0
LINE
  5
4080
330
407D
100
AcDbEntity
  8
寸法
 62
     0
370
    -2
100
AcDbLine
 10
218.4769435636769
 20
193.5607106240512
 30
0.0
 11
218.4769435636769
 21
171.1571428571428
 31
0.0
  0
LINE
  5
4081
330
407D
100
AcDbEntity
  8
寸法
 62
     0
370
    -2
100
AcDbLine
 10
238.3741056647846
 20
193.5607106240512
 30
0.0
 11
238.3741056647846
 21
171.1571428571428
 31
0.0
  0
LINE
  5
4082
330
407D
100
AcDbEntity
  8
寸法
 62
     0
370
    -2
100
AcDbLine
 10
220.4769435636769
 20
171.1571428571428
 30
0.0
 11
236.3741056647846
 21
171.1571428571428
 31
0.0
  0
INSERT
  5
4083
330
407D
100
AcDbEntity
  8
寸法
 62
     0
370
    -2
100
AcDbBlockReference
  2
_DOT
 10
218.4769435636769
 20
171.1571428571428
 30
0.0
 41
2.0
 42
2.0
 43
2.0
 50
180.0
  0
INSERT
  5
4084
330
407D
100
AcDbEntity
  8
寸法
 62
     0
370
    -2
100
AcDbBlockReference
  2
_DOT
 10
238.3741056647846
 20
171.1571428571428
 30
0.0
 41
2.0
 42
2.0
 43
2.0
  0
MTEXT
  5
4085
330
407D
100
AcDbEntity
  8
寸法
 62
     0
100
AcDbMText
 10
228.4255246142307
 20
178.6571428571428
 30
0.0
 40
5.0
 41
0.0
 46
0.0
 71
     5
 72
     1
  1
\A1;20
  7
ＭＳ ゴシック
 73
     1
 44
1.0
  0
POINT
  5
4086
330
407D
100
AcDbEntity
  8
Defpoints
 62
     0
100
AcDbPoint
 10
218.4769435636769
 20
198.5607106240512
 30
0.0
  0
POINT
  5
4087
330
407D
100
AcDbEntity
  8
Defpoints
 62
     0
100
AcDbPoint
 10
238.3741056647846
 20
198.5607106240512
 30
0.0
  0
POINT
  5
4088
330
407D
100
AcDbEntity
  8
Defpoints
 62
     0
100
AcDbPoint
 10
238.3741056647846
 20
171.1571428571428
 30
0.0
  0
ENDBLK
  5
407F
330
407D
100
AcDbEntity
  8
0
100
AcDbBlockEnd
  0
BLOCK
  5
408A
330
4089
100
AcDbEntity
  8
0
100
AcDbBlockBegin
  2
*D76
 70
     1
 10
0.0
 20
0.0
 30
0.0
  3
*D76
  1
*D77
  0
LINE
  5
408C
330
4089
100
AcDbEntity
  8
寸法
 62
     0
370
    -2
100
AcDbLine
 10
215.2348046946768
 20
266.9648254691763
 30
0.0
 11
205.2914285714286
 21
266.9648254691763
 31
0.0
  0
LINE
  5
408D
330
4089
100
AcDbEntity
  8
寸法
 62
     0
370
    -2
100
AcDbLine
 10
215.2348046946768
 20
292.9648254691763
 30
0.0
 11
205.2914285714286
 21
292.9648254691763
 31
0.0
  0
LINE
  5
408E
330
4089
100
AcDbEntity
  8
寸法
 62
     0
370
    -2
100
AcDbLine
 10
205.2914285714286
 20
268.9648254691763
 30
0.0
 11
205.2914285714286
 21
290.9648254691763
 31
0.0
  0
INSERT
  5
408F
330
4089
100
AcDbEntity
  8
寸法
 62
     0
370
    -2
100
AcDbBlockReference
  2
_DOT
 10
205.2914285714286
 20
266.9648254691763
 30
0.0
 41
2.0
 42
2.0
 43
2.0
 50
270.0
  0
INSERT
  5
4090
330
4089
100
AcDbEntity
  8
寸法
 62
     0
370
    -2
100
AcDbBlockReference
  2
_DOT
 10
205.2914285714286
 20
292.9648254691763
 30
0.0
 41
2.0
 42
2.0
 43
2.0
 50
90.0
  0
MTEXT
  5
4091
330
4089
100
AcDbEntity
  8
寸法
 62
     0
100
AcDbMText
 10
197.7914285714286
 20
279.9648254691763
 30
0.0
 40
5.0
 41
0.0
 46
0.0
 71
     5
 72
     1
  1
\A1;26
  7
ＭＳ ゴシック
 11
0.0
 21
1.0
 31
0.0
 73
     1
 44
1.0
  0
POINT
  5
4092
330
4089
100
AcDbEntity
  8
Defpoints
 62
     0
100
AcDbPoint
 10
220.2348046946768
 20
266.9648254691763
 30
0.0
  0
POINT
  5
4093
330
4089
100
AcDbEntity
  8
Defpoints
 62
     0
100
AcDbPoint
 10
220.2348046946768
 20
292.9648254691763
 30
0.0
  0
POINT
  5
4094
330
4089
100
AcDbEntity
  8
Defpoints
 62
     0
100
AcDbPoint
 10
205.2914285714286
 20
292.9648254691763
 30
0.0
  0
ENDBLK
  5
408B
330
4089
100
AcDbEntity
  8
0
100
AcDbBlockEnd
  0
BLOCK
  5
40F1
330
40F0
100
AcDbEntity
  8
0
100
AcDbBlockBegin
  2
*D77
 70
     1
 10
0.0
 20
0.0
 30
0.0
  3
*D77
  1
*D15
  0
LINE
  5
40F2
330
40F0
100
AcDbEntity
  8
寸法
 62
     0
370
    -2
100
AcDbLine
 10
29.9769587452223
 20
48.3351823692982
 30
0.0
 11
10.0
 21
48.3351823692982
 31
0.0
  0
LINE
  5
40F3
330
40F0
100
AcDbEntity
  8
寸法
 62
     0
370
    -2
100
AcDbLine
 10
29.9769587452223
 20
25.4769587452223
 30
0.0
 11
10.0
 21
25.4769587452223
 31
0.0
  0
LINE
  5
40F4
330
40F0
100
AcDbEntity
  8
寸法
 62
     0
370
    -2
100
AcDbLine
 10
10.0
 20
46.3351823692982
 30
0.0
 11
10.0
 21
27.4769587452223
 31
0.0
  0
INSERT
  5
40F5
330
40F0
100
AcDbEntity
  8
寸法
 62
     0
370
    -2
100
AcDbBlockReference
  2
_DOT
 10
10.0
 20
48.3351823692982
 30
0.0
 41
2.0
 42
2.0
 43
2.0
 50
90.0
  0
INSERT
  5
40F6
330
40F0
100
AcDbEntity
  8
寸法
 62
     0
370
    -2
100
AcDbBlockReference
  2
_DOT
 10
10.0
 20
25.4769587452223
 30
0.0
 41
2.0
 42
2.0
 43
2.0
 50
270.0
  0
MTEXT
  5
40F7
330
40F0
100
AcDbEntity
  8
寸法
 62
     0
100
AcDbMText
 10
2.5
 20
36.90607055726025
 30
0.0
 40
5.0
 41
0.0
 46
0.0
 71
     5
 72
     1
  1
\A1;23
  7
ＭＳ ゴシック
 11
7.771193722723346E-17
 21
1.0
 31
0.0
 73
     1
 44
1.0
  0
POINT
  5
40F8
330
40F0
100
AcDbEntity
  8
Defpoints
 62
     0
100
AcDbPoint
 10
34.9769587452223
 20
48.3351823692982
 30
0.0
  0
POINT
  5
40F9
330
40F0
100
AcDbEntity
  8
Defpoints
 62
     0
100
AcDbPoint
 10
34.9769587452223
 20
25.4769587452223
 30
0.0
  0
POINT
  5
40FA
330
40F0
100
AcDbEntity
  8
Defpoints
 62
     0
100
AcDbPoint
 10
10.0
 20
25.4769587452223
 30
0.0
  0
ENDBLK
  5
40FB
330
40F0
100
AcDbEntity
  8
0
100
AcDbBlockEnd
  0
BLOCK
  5
4100
330
40FF
100
AcDbEntity
  8
0
100
AcDbBlockBegin
  2
*D78
 70
     1
 10
0.0
 20
0.0
 30
0.0
  3
*D78
  1
*D16
  0
LINE
  5
4101
330
40FF
100
AcDbEntity
  8
寸法
 62
     0
370
    -2
100
AcDbLine
 10
34.9769587452223
 20
20.4769587452223
 30
0.0
 11
34.9769587452223
 21
0.5
 31
0.0
  0
LINE
  5
4102
330
40FF
100
AcDbEntity
  8
寸法
 62
     0
370
    -2
100
AcDbLine
 10
59.95391749044452
 20
20.4769587452223
 30
0.0
 11
59.95391749044452
 21
0.5
 31
0.0
  0
LINE
  5
4103
330
40FF
100
AcDbEntity
  8
寸法
 62
     0
370
    -2
100
AcDbLine
 10
36.9769587452223
 20
0.5
 30
0.0
 11
57.95391749044452
 21
0.5
 31
0.0
  0
INSERT
  5
4104
330
40FF
100
AcDbEntity
  8
寸法
 62
     0
370
    -2
100
AcDbBlockReference
  2
_DOT
 10
34.9769587452223
 20
0.5
 30
0.0
 41
2.0
 42
2.0
 43
2.0
 50
180.0
  0
INSERT
  5
4105
330
40FF
100
AcDbEntity
  8
寸法
 62
     0
370
    -2
100
AcDbBlockReference
  2
_DOT
 10
59.95391749044452
 20
0.5
 30
0.0
 41
2.0
 42
2.0
 43
2.0
  0
MTEXT
  5
4106
330
40FF
100
AcDbEntity
  8
寸法
 62
     0
100
AcDbMText
 10
47.46543811783341
 20
8.0
 30
0.0
 40
5.0
 41
0.0
 46
0.0
 71
     5
 72
     1
  1
\A1;25
  7
ＭＳ ゴシック
 73
     1
 44
1.0
  0
POINT
  5
4107
330
40FF
100
AcDbEntity
  8
Defpoints
 62
     0
100
AcDbPoint
 10
34.9769587452223
 20
25.4769587452223
 30
0.0
  0
POINT
  5
4108
330
40FF
100
AcDbEntity
  8
Defpoints
 62
     0
100
AcDbPoint
 10
59.95391749044452
 20
25.4769587452223
 30
0.0
  0
POINT
  5
4109
330
40FF
100
AcDbEntity
  8
Defpoints
 62
     0
100
AcDbPoint
 10
59.95391749044452
 20
0.5
 30
0.0
  0
ENDBLK
  5
410A
330
40FF
100
AcDbEntity
  8
0
100
AcDbBlockEnd
  0
BLOCK
  5
410F
330
410E
100
AcDbEntity
  8
0
100
AcDbBlockBegin
  2
*D79
 70
     1
 10
0.0
 20
0.0
 30
0.0
  3
*D79
  1
*D17
  0
LINE
  5
4110
330
410E
100
AcDbEntity
  8
寸法
 62
     0
370
    -2
100
AcDbLine
 10
154.8600299224545
 20
48.3351823692982
 30
0.0
 11
143.0886723737219
 21
48.3351823692982
 31
0.0
  0
LINE
  5
4111
330
410E
100
AcDbEntity
  8
寸法
 62
     0
370
    -2
100
AcDbLine
 10
154.8600299224545
 20
43.25710827406252
 30
0.0
 11
143.0886723737219
 21
43.25710827406252
 31
0.0
  0
LINE
  5
4112
330
410E
100
AcDbEntity
  8
寸法
 62
     0
370
    -2
100
AcDbLine
 10
143.0886723737219
 20
46.3351823692982
 30
0.0
 11
143.0886723737219
 21
45.25710827406252
 31
0.0
  0
INSERT
  5
4113
330
410E
100
AcDbEntity
  8
寸法
 62
     0
370
    -2
100
AcDbBlockReference
  2
_DOT
 10
143.0886723737219
 20
48.3351823692982
 30
0.0
 41
2.0
 42
2.0
 43
2.0
 50
90.0
  0
INSERT
  5
4114
330
410E
100
AcDbEntity
  8
寸法
 62
     0
370
    -2
100
AcDbBlockReference
  2
_DOT
 10
143.0886723737219
 20
43.25710827406252
 30
0.0
 41
2.0
 42
2.0
 43
2.0
 50
270.0
  0
MTEXT
  5
4115
330
410E
100
AcDbEntity
  8
寸法
 62
     0
100
AcDbMText
 10
135.5886723737219
 20
45.79614532168031
 30
0.0
 40
5.0
 41
0.0
 46
0.0
 71
     5
 72
     1
  1
\A1;5
  7
ＭＳ ゴシック
 11
0.0
 21
1.0
 31
0.0
 73
     1
 44
1.0
  0
POINT
  5
4116
330
410E
100
AcDbEntity
  8
Defpoints
 62
     0
100
AcDbPoint
 10
159.8600299224545
 20
48.3351823692982
 30
0.0
  0
POINT
  5
4117
330
410E
100
AcDbEntity
  8
Defpoints
 62
     0
100
AcDbPoint
 10
159.8600299224545
 20
43.25710827406252
 30
0.0
  0
POINT
  5
4118
330
410E
100
AcDbEntity
  8
Defpoints
 62
     0
100
AcDbPoint
 10
143.0886723737219
 20
43.25710827406252
 30
0.0
  0
ENDBLK
  5
4119
330
410E
100
AcDbEntity
  8
0
100
AcDbBlockEnd
  0
BLOCK
  5
411C
330
411B
100
AcDbEntity
  8
0
100
AcDbBlockBegin
  2
*D80
 70
     1
 10
0.0
 20
0.0
 30
0.0
  3
*D80
  1
*D19
  0
LINE
  5
411D
330
411B
100
AcDbEntity
  8
寸法
 62
     0
370
    -2
100
AcDbLine
 10
159.8600299224545
 20
38.25710827406252
 30
0.0
 11
159.8600299224545
 21
0.500000000000003
 31
0.0
  0
LINE
  5
411E
330
411B
100
AcDbEntity
  8
寸法
 62
     0
370
    -2
100
AcDbLine
 10
183.9912171680972
 20
20.4769587452223
 30
0.0
 11
183.9912171680972
 21
0.5
 31
0.0
  0
LINE
  5
411F
330
411B
100
AcDbEntity
  8
寸法
 62
     0
370
    -2
100
AcDbLine
 10
161.8600299224545
 20
0.5000000000000028
 30
0.0
 11
181.9912171680972
 21
0.5000000000000002
 31
0.0
  0
INSERT
  5
4120
330
411B
100
AcDbEntity
  8
寸法
 62
     0
370
    -2
100
AcDbBlockReference
  2
_DOT
 10
159.8600299224545
 20
0.500000000000003
 30
0.0
 41
2.0
 42
2.0
 43
2.0
 50
180.0
  0
INSERT
  5
4121
330
411B
100
AcDbEntity
  8
寸法
 62
     0
370
    -2
100
AcDbBlockReference
  2
_DOT
 10
183.9912171680972
 20
0.5
 30
0.0
 41
2.0
 42
2.0
 43
2.0
 50
360.0
  0
MTEXT
  5
4122
330
411B
100
AcDbEntity
  8
寸法
 62
     0
100
AcDbMText
 10
171.9256235452758
 20
8.000000000000002
 30
0.0
 40
5.0
 41
0.0
 46
0.0
 71
     5
 72
     1
  1
\A1;24
  7
ＭＳ ゴシック
 73
     1
 44
1.0
  0
POINT
  5
4123
330
411B
100
AcDbEntity
  8
Defpoints
 62
     0
100
AcDbPoint
 10
159.8600299224545
 20
43.25710827406252
 30
0.0
  0
POINT
  5
4124
330
411B
100
AcDbEntity
  8
Defpoints
 62
     0
100
AcDbPoint
 10
183.9912171680972
 20
25.4769587452223
 30
0.0
  0
POINT
  5
4125
330
411B
100
AcDbEntity
  8
Defpoints
 62
     0
100
AcDbPoint
 10
183.9912171680972
 20
0.5
 30
0.0
  0
ENDBLK
  5
4126
330
411B
100
AcDbEntity
  8
0
100
AcDbBlockEnd
  0
BLOCK
  5
412E
330
412D
100
AcDbEntity
  8
0
100
AcDbBlockBegin
  2
*D81
 70
     1
 10
0.0
 20
0.0
 30
0.0
  3
*D81
  1
*D20
  0
LINE
  5
412F
330
412D
100
AcDbEntity
  8
寸法
 62
     0
370
    -2
100
AcDbLine
 10
29.9769587452223
 20
118.3899480835838
 30
0.0
 11
10.0
 21
118.3899480835838
 31
0.0
  0
LINE
  5
4130
330
412D
100
AcDbEntity
  8
寸法
 62
     0
370
    -2
100
AcDbLine
 10
29.9769587452223
 20
94.53172445950793
 30
0.0
 11
10.0
 21
94.53172445950793
 31
0.0
  0
LINE
  5
4131
330
412D
100
AcDbEntity
  8
寸法
 62
     0
370
    -2
100
AcDbLine
 10
10.0
 20
116.3899480835838
 30
0.0
 11
10.0
 21
96.53172445950793
 31
0.0
  0
INSERT
  5
4132
330
412D
100
AcDbEntity
  8
寸法
 62
     0
370
    -2
100
AcDbBlockReference
  2
_DOT
 10
10.0
 20
118.3899480835838
 30
0.0
 41
2.0
 42
2.0
 43
2.0
 50
90.0
  0
INSERT
  5
4133
330
412D
100
AcDbEntity
  8
寸法
 62
     0
370
    -2
100
AcDbBlockReference
  2
_DOT
 10
10.0
 20
94.53172445950793
 30
0.0
 41
2.0
 42
2.0
 43
2.0
 50
270.0
  0
MTEXT
  5
4134
330
412D
100
AcDbEntity
  8
寸法
 62
     0
100
AcDbMText
 10
2.5
 20
106.4608362715459
 30
0.0
 40
5.0
 41
0.0
 46
0.0
 71
     5
 72
     1
  1
\A1;24
  7
ＭＳ ゴシック
 11
7.445469819503608E-17
 21
1.0
 31
0.0
 73
     1
 44
1.0
  0
POINT
  5
4135
330
412D
100
AcDbEntity
  8
Defpoints
 62
     0
100
AcDbPoint
 10
34.9769587452223
 20
118.3899480835838
 30
0.0
  0
POINT
  5
4136
330
412D
100
AcDbEntity
  8
Defpoints
 62
     0
100
AcDbPoint
 10
34.9769587452223
 20
94.53172445950793
 30
0.0
  0
POINT
  5
4137
330
412D
100
AcDbEntity
  8
Defpoints
 62
     0
100
AcDbPoint
 10
10.0
 20
94.53172445950793
 30
0.0
  0
ENDBLK
  5
4138
330
412D
100
AcDbEntity
  8
0
100
AcDbBlockEnd
  0
BLOCK
  5
4160
330
415F
100
AcDbEntity
  8
0
100
AcDbBlockBegin
  2
*D82
 70
     1
 10
0.0
 20
0.0
 30
0.0
  3
*D82
  1
*D83
  0
LINE
  5
4162
330
415F
100
AcDbEntity
  8
寸法
 62
     0
370
    -2
100
AcDbLine
 10
227.5998158880794
 20
210.1120257878883
 30
0.0
 11
207.6228571428571
 21
210.1120257878883
 31
0.0
  0
LINE
  5
4163
330
415F
100
AcDbEntity
  8
寸法
 62
     0
370
    -2
100
AcDbLine
 10
227.5998158880794
 20
187.2538021638125
 30
0.0
 11
207.6228571428571
 21
187.2538021638125
 31
0.0
  0
LINE
  5
4164
330
415F
100
AcDbEntity
  8
寸法
 62
     0
370
    -2
100
AcDbLine
 10
207.6228571428571
 20
208.1120257878883
 30
0.0
 11
207.6228571428571
 21
189.2538021638125
 31
0.0
  0
INSERT
  5
4165
330
415F
100
AcDbEntity
  8
寸法
 62
     0
370
    -2
100
AcDbBlockReference
  2
_DOT
 10
207.6228571428571
 20
210.1120257878883
 30
0.0
 41
2.0
 42
2.0
 43
2.0
 50
90.0
  0
INSERT
  5
4166
330
415F
100
AcDbEntity
  8
寸法
 62
     0
370
    -2
100
AcDbBlockReference
  2
_DOT
 10
207.6228571428571
 20
187.2538021638125
 30
0.0
 41
2.0
 42
2.0
 43
2.0
 50
270.0
  0
MTEXT
  5
4167
330
415F
100
AcDbEntity
  8
寸法
 62
     0
100
AcDbMText
 10
200.1228571428571
 20
198.6829139758504
 30
0.0
 40
5.0
 41
0.0
 46
0.0
 71
     5
 72
     1
  1
\A1;23
  7
ＭＳ ゴシック
 11
0.0
 21
1.0
 31
0.0
 73
     1
 44
1.0
  0
POINT
  5
4168
330
415F
100
AcDbEntity
  8
Defpoints
 62
     0
100
AcDbPoint
 10
232.5998158880794
 20
210.1120257878883
 30
0.0
  0
POINT
  5
4169
330
415F
100
AcDbEntity
  8
Defpoints
 62
     0
100
AcDbPoint
 10
232.5998158880794
 20
187.2538021638125
 30
0.0
  0
POINT
  5
416A
330
415F
100
AcDbEntity
  8
Defpoints
 62
     0
100
AcDbPoint
 10
207.6228571428571
 20
187.2538021638125
 30
0.0
  0
ENDBLK
  5
4161
330
415F
100
AcDbEntity
  8
0
100
AcDbBlockEnd
  0
BLOCK
  5
416C
330
416B
100
AcDbEntity
  8
0
100
AcDbBlockBegin
  2
*D83
 70
     1
 10
0.0
 20
0.0
 30
0.0
  3
*D83
  1
*D84
  0
LINE
  5
416E
330
416B
100
AcDbEntity
  8
寸法
 62
     0
370
    -2
100
AcDbLine
 10
232.5998158880794
 20
182.2538021638125
 30
0.0
 11
232.5998158880794
 21
162.2768434185902
 31
0.0
  0
LINE
  5
416F
330
416B
100
AcDbEntity
  8
寸法
 62
     0
370
    -2
100
AcDbLine
 10
257.5767746333016
 20
182.2538021638125
 30
0.0
 11
257.5767746333016
 21
162.2768434185902
 31
0.0
  0
LINE
  5
4170
330
416B
100
AcDbEntity
  8
寸法
 62
     0
370
    -2
100
AcDbLine
 10
234.5998158880794
 20
162.2768434185902
 30
0.0
 11
255.5767746333016
 21
162.2768434185902
 31
0.0
  0
INSERT
  5
4171
330
416B
100
AcDbEntity
  8
寸法
 62
     0
370
    -2
100
AcDbBlockReference
  2
_DOT
 10
232.5998158880794
 20
162.2768434185902
 30
0.0
 41
2.0
 42
2.0
 43
2.0
 50
180.0
  0
INSERT
  5
4172
330
416B
100
AcDbEntity
  8
寸法
 62
     0
370
    -2
100
AcDbBlockReference
  2
_DOT
 10
257.5767746333016
 20
162.2768434185902
 30
0.0
 41
2.0
 42
2.0
 43
2.0
  0
MTEXT
  5
4173
330
416B
100
AcDbEntity
  8
寸法
 62
     0
100
AcDbMText
 10
245.0882952606905
 20
169.7768434185902
 30
0.0
 40
5.0
 41
0.0
 46
0.0
 71
     5
 72
     1
  1
\A1;25
  7
ＭＳ ゴシック
 73
     1
 44
1.0
  0
POINT
  5
4174
330
416B
100
AcDbEntity
  8
Defpoints
 62
     0
100
AcDbPoint
 10
232.5998158880794
 20
187.2538021638125
 30
0.0
  0
POINT
  5
4175
330
416B
100
AcDbEntity
  8
Defpoints
 62
     0
100
AcDbPoint
 10
257.5767746333016
 20
187.2538021638125
 30
0.0
  0
POINT
  5
4176
330
416B
100
AcDbEntity
  8
Defpoints
 62
     0
100
AcDbPoint
 10
257.5767746333016
 20
162.2768434185902
 30
0.0
  0
ENDBLK
  5
416D
330
416B
100
AcDbEntity
  8
0
100
AcDbBlockEnd
  0
BLOCK
  5
4178
330
4177
100
AcDbEntity
  8
0
100
AcDbBlockBegin
  2
*D84
 70
     1
 10
0.0
 20
0.0
 30
0.0
  3
*D84
  1
*D85
  0
LINE
  5
417A
330
4177
100
AcDbEntity
  8
寸法
 62
     0
370
    -2
100
AcDbLine
 10
352.4828870653116
 20
210.1120257878883
 30
0.0
 11
340.711529516579
 21
210.1120257878883
 31
0.0
  0
LINE
  5
417B
330
4177
100
AcDbEntity
  8
寸法
 62
     0
370
    -2
100
AcDbLine
 10
352.4828870653116
 20
205.0339516926527
 30
0.0
 11
340.711529516579
 21
205.0339516926527
 31
0.0
  0
LINE
  5
417C
330
4177
100
AcDbEntity
  8
寸法
 62
     0
370
    -2
100
AcDbLine
 10
340.711529516579
 20
208.1120257878883
 30
0.0
 11
340.711529516579
 21
207.0339516926527
 31
0.0
  0
INSERT
  5
417D
330
4177
100
AcDbEntity
  8
寸法
 62
     0
370
    -2
100
AcDbBlockReference
  2
_DOT
 10
340.711529516579
 20
210.1120257878883
 30
0.0
 41
2.0
 42
2.0
 43
2.0
 50
90.0
  0
INSERT
  5
417E
330
4177
100
AcDbEntity
  8
寸法
 62
     0
370
    -2
100
AcDbBlockReference
  2
_DOT
 10
340.711529516579
 20
205.0339516926527
 30
0.0
 41
2.0
 42
2.0
 43
2.0
 50
270.0
  0
MTEXT
  5
417F
330
4177
100
AcDbEntity
  8
寸法
 62
     0
100
AcDbMText
 10
333.211529516579
 20
207.5729887402705
 30
0.0
 40
5.0
 41
0.0
 46
0.0
 71
     5
 72
     1
  1
\A1;5
  7
ＭＳ ゴシック
 11
0.0
 21
1.0
 31
0.0
 73
     1
 44
1.0
  0
POINT
  5
4180
330
4177
100
AcDbEntity
  8
Defpoints
 62
     0
100
AcDbPoint
 10
357.4828870653116
 20
210.1120257878883
 30
0.0
  0
POINT
  5
4181
330
4177
100
AcDbEntity
  8
Defpoints
 62
     0
100
AcDbPoint
 10
357.4828870653116
 20
205.0339516926527
 30
0.0
  0
POINT
  5
4182
330
4177
100
AcDbEntity
  8
Defpoints
 62
     0
100
AcDbPoint
 10
340.711529516579
 20
205.0339516926527
 30
0.0
  0
ENDBLK
  5
4179
330
4177
100
AcDbEntity
  8
0
100
AcDbBlockEnd
  0
BLOCK
  5
4184
330
4183
100
AcDbEntity
  8
0
100
AcDbBlockBegin
  2
*D85
 70
     1
 10
0.0
 20
0.0
 30
0.0
  3
*D85
  1
*D86
  0
LINE
  5
4186
330
4183
100
AcDbEntity
  8
寸法
 62
     0
370
    -2
100
AcDbLine
 10
357.4828870653116
 20
200.0339516926527
 30
0.0
 11
357.4828870653116
 21
162.2768434185902
 31
0.0
  0
LINE
  5
4187
330
4183
100
AcDbEntity
  8
寸法
 62
     0
370
    -2
100
AcDbLine
 10
381.6140743109543
 20
182.2538021638125
 30
0.0
 11
381.6140743109543
 21
162.2768434185902
 31
0.0
  0
LINE
  5
4188
330
4183
100
AcDbEntity
  8
寸法
 62
     0
370
    -2
100
AcDbLine
 10
359.4828870653116
 20
162.2768434185902
 30
0.0
 11
379.6140743109543
 21
162.2768434185902
 31
0.0
  0
INSERT
  5
4189
330
4183
100
AcDbEntity
  8
寸法
 62
     0
370
    -2
100
AcDbBlockReference
  2
_DOT
 10
357.4828870653116
 20
162.2768434185902
 30
0.0
 41
2.0
 42
2.0
 43
2.0
 50
180.0
  0
INSERT
  5
418A
330
4183
100
AcDbEntity
  8
寸法
 62
     0
370
    -2
100
AcDbBlockReference
  2
_DOT
 10
381.6140743109543
 20
162.2768434185902
 30
0.0
 41
2.0
 42
2.0
 43
2.0
  0
MTEXT
  5
418B
330
4183
100
AcDbEntity
  8
寸法
 62
     0
100
AcDbMText
 10
369.5484806881329
 20
169.7768434185902
 30
0.0
 40
5.0
 41
0.0
 46
0.0
 71
     5
 72
     1
  1
\A1;24
  7
ＭＳ ゴシック
 73
     1
 44
1.0
  0
POINT
  5
418C
330
4183
100
AcDbEntity
  8
Defpoints
 62
     0
100
AcDbPoint
 10
357.4828870653116
 20
205.0339516926527
 30
0.0
  0
POINT
  5
418D
330
4183
100
AcDbEntity
  8
Defpoints
 62
     0
100
AcDbPoint
 10
381.6140743109543
 20
187.2538021638125
 30
0.0
  0
POINT
  5
418E
330
4183
100
AcDbEntity
  8
Defpoints
 62
     0
100
AcDbPoint
 10
381.6140743109543
 20
162.2768434185902
 30
0.0
  0
ENDBLK
  5
4185
330
4183
100
AcDbEntity
  8
0
100
AcDbBlockEnd
  0
BLOCK
  5
4190
330
418F
100
AcDbEntity
  8
0
100
AcDbBlockBegin
  2
*D86
 70
     1
 10
0.0
 20
0.0
 30
0.0
  3
*D86
  1
*D87
  0
LINE
  5
4192
330
418F
100
AcDbEntity
  8
寸法
 62
     0
370
    -2
100
AcDbLine
 10
227.5998158880794
 20
300.1213766550124
 30
0.0
 11
207.6228571428571
 21
300.1213766550124
 31
0.0
  0
LINE
  5
4193
330
418F
100
AcDbEntity
  8
寸法
 62
     0
370
    -2
100
AcDbLine
 10
227.5998158880794
 20
276.2631530309365
 30
0.0
 11
207.6228571428571
 21
276.2631530309365
 31
0.0
  0
LINE
  5
4194
330
418F
100
AcDbEntity
  8
寸法
 62
     0
370
    -2
100
AcDbLine
 10
207.6228571428571
 20
298.1213766550124
 30
0.0
 11
207.6228571428571
 21
278.2631530309365
 31
0.0
  0
INSERT
  5
4195
330
418F
100
AcDbEntity
  8
寸法
 62
     0
370
    -2
100
AcDbBlockReference
  2
_DOT
 10
207.6228571428571
 20
300.1213766550124
 30
0.0
 41
2.0
 42
2.0
 43
2.0
 50
90.0
  0
INSERT
  5
4196
330
418F
100
AcDbEntity
  8
寸法
 62
     0
370
    -2
100
AcDbBlockReference
  2
_DOT
 10
207.6228571428571
 20
276.2631530309365
 30
0.0
 41
2.0
 42
2.0
 43
2.0
 50
270.0
  0
MTEXT
  5
4197
330
418F
100
AcDbEntity
  8
寸法
 62
     0
100
AcDbMText
 10
200.1228571428571
 20
288.1922648429745
 30
0.0
 40
5.0
 41
0.0
 46
0.0
 71
     5
 72
     1
  1
\A1;24
  7
ＭＳ ゴシック
 11
0.0
 21
1.0
 31
0.0
 73
     1
 44
1.0
  0
POINT
  5
4198
330
418F
100
AcDbEntity
  8
Defpoints
 62
     0
100
AcDbPoint
 10
232.5998158880794
 20
300.1213766550124
 30
0.0
  0
POINT
  5
4199
330
418F
100
AcDbEntity
  8
Defpoints
 62
     0
100
AcDbPoint
 10
232.5998158880794
 20
276.2631530309365
 30
0.0
  0
POINT
  5
419A
330
418F
100
AcDbEntity
  8
Defpoints
 62
     0
100
AcDbPoint
 10
207.6228571428571
 20
276.2631530309365
 30
0.0
  0
ENDBLK
  5
4191
330
418F
100
AcDbEntity
  8
0
100
AcDbBlockEnd
  0
BLOCK
  5
4250
330
424F
100
AcDbEntity
  8
0
100
AcDbBlockBegin
  2
*D87
 70
     1
 10
0.0
 20
0.0
 30
0.0
  3
*D87
  1
*D87
  0
LINE
  5
4252
330
424F
100
AcDbEntity
  8
寸法
 62
     0
370
    -2
100
AcDbLine
 10
237.0882952606906
 20
302.5823396073946
 30
0.0
 11
237.0882952606906
 21
310.7513630543846
 31
0.0
  0
LINE
  5
4253
330
424F
100
AcDbEntity
  8
寸法
 62
     0
370
    -2
100
AcDbLine
 10
253.0882952606905
 20
302.5823396073946
 30
0.0
 11
253.0882952606905
 21
310.7513630543846
 31
0.0
  0
LINE
  5
4254
330
424F
100
AcDbEntity
  8
寸法
 62
     0
370
    -2
100
AcDbLine
 10
239.0882952606906
 20
310.7513630543846
 30
0.0
 11
251.0882952606905
 21
310.7513630543846
 31
0.0
  0
INSERT
  5
4255
330
424F
100
AcDbEntity
  8
寸法
 62
     0
370
    -2
100
AcDbBlockReference
  2
_DOT
 10
237.0882952606906
 20
310.7513630543846
 30
0.0
 41
2.0
 42
2.0
 43
2.0
 50
180.0
  0
INSERT
  5
4256
330
424F
100
AcDbEntity
  8
寸法
 62
     0
370
    -2
100
AcDbBlockReference
  2
_DOT
 10
253.0882952606905
 20
310.7513630543846
 30
0.0
 41
2.0
 42
2.0
 43
2.0
  0
MTEXT
  5
4257
330
424F
100
AcDbEntity
  8
寸法
 62
     0
100
AcDbMText
 10
245.0882952606905
 20
318.2513630543846
 30
0.0
 40
5.0
 41
0.0
 46
0.0
 71
     5
 72
     1
  1
\A1;16
  7
ＭＳ ゴシック
 73
     1
 44
1.0
  0
POINT
  5
4258
330
424F
100
AcDbEntity
  8
Defpoints
 62
     0
100
AcDbPoint
 10
237.0882952606906
 20
297.5823396073946
 30
0.0
  0
POINT
  5
4259
330
424F
100
AcDbEntity
  8
Defpoints
 62
     0
100
AcDbPoint
 10
253.0882952606905
 20
297.5823396073946
 30
0.0
  0
POINT
  5
425A
330
424F
100
AcDbEntity
  8
Defpoints
 62
     0
100
AcDbPoint
 10
253.0882952606905
 20
310.7513630543846
 30
0.0
  0
ENDBLK
  5
4251
330
424F
100
AcDbEntity
  8
0
100
AcDbBlockEnd
  0
ENDSEC
  0
SECTION
  2
ENTITIES
  0
LINE
  5
36CD
330
A
100
AcDbEntity
  8
PRINT BORDER
100
AcDbLine
 10
296.9999999999999
 20
0.0
 30
0.0
 11
296.9999999999999
 21
15.30952622855898
 31
0.0
  0
LINE
  5
36CE
330
A
100
AcDbEntity
  8
テンプレート
100
AcDbLine
 10
437.9999999999999
 20
38.27810890422097
 30
0.0
 11
15.30952622855898
 21
38.27810890422097
 31
0.0
  0
LINE
  5
36CF
330
A
100
AcDbEntity
  8
テンプレート
100
AcDbLine
 10
15.30952622855898
 20
26.22153683920783
 30
0.0
 11
578.6904737714407
 21
26.22153683920783
 31
0.0
  0
TEXT
  5
36D0
330
A
100
AcDbEntity
  8
テンプレート
100
AcDbText
 10
18.06121699514119
 20
32.16825981613692
 30
0.0
 40
3.5
  1
材質
  7
ＭＳ ゴシック
100
AcDbText
  0
TEXT
  5
36D1
330
A
100
AcDbEntity
  8
テンプレート
100
AcDbText
 10
36.7528253083583
 20
41.29280421576505
 30
0.0
 40
5.5
  1
サテン・ポリッシュ
  7
ＭＳ ゴシック
100
AcDbText
  0
TEXT
  5
36D2
330
A
100
AcDbEntity
  8
テンプレート
100
AcDbText
 10
36.7528253083583
 20
29.19151340726899
 30
0.0
 40
5.5
  1
ステンレス
  7
ＭＳ ゴシック
100
AcDbText
  0
TEXT
  5
36D3
330
A
100
AcDbEntity
  8
テンプレート
100
AcDbText
 10
18.06121699514119
 20
56.50959028673083
 30
0.0
 40
3.5
  1
品名
  7
ＭＳ ゴシック
100
AcDbText
  0
TEXT
  5
36D4
330
A
100
AcDbEntity
  8
テンプレート
100
AcDbText
 10
18.06121699514119
 20
44.65099339080098
 30
0.0
 40
3.5
  1
仕上げ
  7
ＭＳ ゴシック
100
AcDbText
  0
TEXT
  5
36D5
330
A
100
AcDbEntity
  8
テンプレート
100
AcDbText
 10
298.8233485179306
 20
56.58523052309897
 30
0.0
 40
3.5
  1
品番
  7
ＭＳ ゴシック
100
AcDbText
  0
TEXT
  5
36D6
330
A
100
AcDbEntity
  8
テンプレート
100
AcDbText
 10
36.7528253083583
 20
53.09440584367189
 30
0.0
 40
5.5
  1
家具用ツマミ - FORMANI,Square -
  7
ＭＳ ゴシック
100
AcDbText
  0
TEXT
  5
36D7
330
A
100
AcDbEntity
  8
テンプレート
100
AcDbText
 10
313.0171205424464
 20
52.977080524553
 30
0.0
 40
5.5
  1
FOR02-SQ09
  7
ＭＳ ゴシック
100
AcDbText
  0
LINE
  5
36D8
330
A
100
AcDbEntity
  8
テンプレート
100
AcDbLine
 10
437.9999999999999
 20
50.16496477419605
 30
0.0
 11
15.30952622855898
 21
50.16496477419605
 31
0.0
  0
LINE
  5
36D9
330
A
100
AcDbEntity
  8
テンプレート
100
AcDbLine
 10
578.6904737714411
 20
62.22153683920783
 30
0.0
 11
15.30952622855898
 21
62.22153683920783
 31
0.0
  0
LINE
  5
36DA
330
A
100
AcDbEntity
  8
PRINT BORDER
100
AcDbLine
 10
593.9999999999999
 20
210.0
 30
0.0
 11
578.6904737714411
 21
210.0
 31
0.0
  0
LINE
  5
36DB
330
A
100
AcDbEntity
  8
PRINT BORDER
100
AcDbLine
 10
0.0
 20
210.0
 30
0.0
 11
15.30952622855898
 21
210.0
 31
0.0
  0
LINE
  5
36DC
330
A
100
AcDbEntity
  8
PRINT BORDER
100
AcDbLine
 10
296.9999999999999
 20
420.0
 30
0.0
 11
296.9999999999999
 21
404.690473771441
 31
0.0
  0
LINE
  5
36DD
330
A
100
AcDbEntity
  8
テンプレート
100
AcDbLine
 10
578.6904737714411
 20
62.22153683920783
 30
0.0
 11
578.6904737714411
 21
26.22153683920783
 31
0.0
  0
LINE
  5
36DE
330
A
100
AcDbEntity
  8
テンプレート
100
AcDbLine
 10
15.30952622855898
 20
62.22153683920783
 30
0.0
 11
15.30952622855898
 21
26.22153683920783
 31
0.0
  0
TEXT
  5
36DF
330
A
100
AcDbEntity
  8
テンプレート
100
AcDbText
 10
440.0887524673468
 20
56.58523052309897
 30
0.0
 40
3.5
  1
備考
  7
ＭＳ ゴシック
100
AcDbText
  0
TEXT
  5
36E0
330
A
100
AcDbEntity
  8
テンプレート
100
AcDbText
 10
494.9733384955217
 20
16.51938390313694
 30
0.0
 40
5.5
  1
大洋金物株式会社  
  7
ＭＳ ゴシック
100
AcDbText
  0
LINE
  5
36E1
330
A
100
AcDbEntity
  8
テンプレート
100
AcDbLine
 10
437.9999999999999
 20
62.22153683920783
 30
0.0
 11
437.9999999999999
 21
26.22153683920783
 31
0.0
  0
LINE
  5
36E2
330
A
100
AcDbEntity
  8
テンプレート
100
AcDbLine
 10
296.9999999999999
 20
62.22153683920783
 30
0.0
 11
296.9999999999999
 21
26.22153683920783
 31
0.0
  0
INSERT
  5
36E3
330
A
100
AcDbEntity
  8
テンプレート
100
AcDbBlockReference
  2
名称未設定-1
 10
548.3945198859805
 20
-7.642344203993161
 30
0.0
 41
0.180975
 42
0.180975
 43
0.180975
  0
LINE
  5
36E5
330
A
100
AcDbEntity
  8
テンプレート
100
AcDbLine
 10
15.30952622855898
 20
210.0
 30
0.0
 11
15.30952622855898
 21
26.22153683920783
 31
0.0
  0
LINE
  5
36E6
330
A
100
AcDbEntity
  8
テンプレート
100
AcDbLine
 10
15.30952622855898
 20
210.0
 30
0.0
 11
15.30952622855898
 21
404.690473771441
 31
0.0
  0
LINE
  5
36E7
330
A
100
AcDbEntity
  8
テンプレート
100
AcDbLine
 10
296.9999999999999
 20
404.690473771441
 30
0.0
 11
15.30952622855887
 21
404.690473771441
 31
0.0
  0
LINE
  5
36E8
330
A
100
AcDbEntity
  8
テンプレート
100
AcDbLine
 10
296.9999999999999
 20
404.690473771441
 30
0.0
 11
578.6904737714411
 21
404.690473771441
 31
0.0
  0
LINE
  5
36E9
330
A
100
AcDbEntity
  8
テンプレート
100
AcDbLine
 10
578.6904737714411
 20
210.0
 30
0.0
 11
578.6904737714411
 21
404.690473771441
 31
0.0
  0
LINE
  5
36EA
330
A
100
AcDbEntity
  8
テンプレート
100
AcDbLine
 10
578.6904737714411
 20
210.0
 30
0.0
 11
578.6904737714411
 21
26.22153683920783
 31
0.0
  0
LWPOLYLINE
  5
36EB
330
A
100
AcDbEntity
  8
PRINT BORDER
  6
HIDDEN
 48
3.0
100
AcDbPolyline
 90
        4
 70
     1
 43
0.0
 10
0.0
 20
0.0
 10
0.0
 20
420.0
 10
593.9999999999999
 20
420.0
 10
593.9999999999999
 20
0.0
  0
TEXT
  5
36EC
330
A
100
AcDbEntity
  8
テンプレート
100
AcDbText
 10
298.7989156222221
 20
32.62405342819488
 30
0.0
 40
3.5
  1
縮尺
  7
ＭＳ ゴシック
100
AcDbText
  0
TEXT
  5
36ED
330
A
100
AcDbEntity
  8
テンプレート
100
AcDbText
 10
313.0171205424464
 20
28.29362070227194
 30
0.0
 40
5.5
  1
1/2
  7
ＭＳ ゴシック
100
AcDbText
  0
TEXT
  5
37DE
330
A
100
AcDbEntity
  8
テンプレート
100
AcDbText
 10
298.8233485179306
 20
44.52865845808583
 30
0.0
 40
3.5
  1
扉厚
  7
ＭＳ ゴシック
100
AcDbText
  0
LINE
  5
413D
102
{ACAD_REACTORS
330
4153
102
}
330
A
100
AcDbEntity
  8
Laag 1
100
AcDbLine
 10
257.5767746333016
 20
187.2538021638125
 30
0.0
 11
232.5998158880794
 21
187.2538021638125
 31
0.0
  0
LINE
  5
413E
102
{ACAD_REACTORS
330
4153
102
}
330
A
100
AcDbEntity
  8
Laag 1
100
AcDbLine
 10
257.5767746333016
 20
187.2538021638125
 30
0.0
 11
257.5767746333016
 21
210.1120257878883
 31
0.0
  0
LINE
  5
413F
330
A
100
AcDbEntity
  8
Laag 1
100
AcDbLine
 10
257.5767746333016
 20
210.1120257878883
 30
0.0
 11
232.5998158880794
 21
210.1120257878883
 31
0.0
  0
LINE
  5
4140
102
{ACAD_REACTORS
330
4150
102
}
330
A
100
AcDbEntity
  8
Laag 1
100
AcDbLine
 10
232.5998158880794
 20
210.1120257878883
 30
0.0
 11
232.5998158880794
 21
187.2538021638125
 31
0.0
  0
SPLINE
  5
4141
330
A
100
AcDbEntity
  8
Laag 1
100
AcDbSpline
210
0.0
220
0.0
230
1.0
 70
     8
 71
     3
 72
     8
 73
     4
 74
     0
 42
0.000000001
 43
0.0000000001
 40
0.0
 40
0.0
 40
0.0
 40
0.0
 40
1.0
 40
1.0
 40
1.0
 40
1.0
 10
376.5342776668398
 20
202.0711676208057
 30
0.0
 10
376.5342776668398
 20
203.8247223796082
 30
0.0
 10
375.3233258049163
 20
205.0339516926527
 30
0.0
 10
373.5697710461138
 20
205.0339516926527
 30
0.0
  0
POLYLINE
  5
4142
330
A
100
AcDbEntity
  8
Laag 1
100
AcDb2dPolyline
 66
     1
 10
0.0
 20
0.0
 30
0.0
  0
VERTEX
  5
4143
330
4142
100
AcDbEntity
  8
Laag 1
100
AcDbVertex
100
AcDb2dVertex
 10
381.6140743109543
 20
187.2538021638125
 30
0.0
  0
VERTEX
  5
4144
330
4142
100
AcDbEntity
  8
Laag 1
100
AcDbVertex
100
AcDb2dVertex
 10
376.5342776668398
 20
187.2538021638125
 30
0.0
  0
VERTEX
  5
4145
330
4142
100
AcDbEntity
  8
Laag 1
100
AcDbVertex
100
AcDb2dVertex
 10
376.5342776668398
 20
202.0711676208057
 30
0.0
  0
SEQEND
  5
4146
330
4142
100
AcDbEntity
  8
Laag 1
  0
POLYLINE
  5
4147
102
{ACAD_REACTORS
330
4156
102
}
330
A
100
AcDbEntity
  8
Laag 1
100
AcDb2dPolyline
 66
     1
 10
0.0
 20
0.0
 30
0.0
  0
VERTEX
  5
4148
330
4147
100
AcDbEntity
  8
Laag 1
100
AcDbVertex
100
AcDb2dVertex
 10
373.5697710461138
 20
205.0339516926527
 30
0.0
  0
VERTEX
  5
4149
330
4147
100
AcDbEntity
  8
Laag 1
100
AcDbVertex
100
AcDb2dVertex
 10
357.4828870653116
 20
205.0339516926527
 30
0.0
  0
VERTEX
  5
414A
330
4147
100
AcDbEntity
  8
Laag 1
100
AcDbVertex
100
AcDb2dVertex
 10
357.4828870653116
 20
210.1120257878883
 30
0.0
  0
VERTEX
  5
414B
330
4147
100
AcDbEntity
  8
Laag 1
100
AcDbVertex
100
AcDb2dVertex
 10
381.6123517620753
 20
210.1120257878883
 30
0.0
  0
VERTEX
  5
414C
330
4147
100
AcDbEntity
  8
Laag 1
100
AcDbVertex
100
AcDb2dVertex
 10
381.6123517620753
 20
187.2538021638125
 30
0.0
  0
SEQEND
  5
414D
330
4147
100
AcDbEntity
  8
Laag 1
  0
DIMENSION
  5
414E
102
{ACAD_REACTORS
330
4150
102
}
102
{ACAD_XDICTIONARY
360
414F
102
}
330
A
100
AcDbEntity
  8
寸法
100
AcDbDimension
  2
*D82
 10
207.6228571428571
 20
187.2538021638125
 30
0.0
 11
200.1228571428571
 21
198.6829139758504
 31
0.0
 70
    32
 71
     5
 42
22.85822362407578
 73
     0
 74
     0
 75
     0
  3
tfrom線あり
100
AcDbAlignedDimension
 13
232.5998158880794
 23
210.1120257878883
 33
0.0
 14
232.5998158880794
 24
187.2538021638125
 34
0.0
 50
90.0
100
AcDbRotatedDimension
  0
DIMENSION
  5
4151
102
{ACAD_REACTORS
330
4153
102
}
102
{ACAD_XDICTIONARY
360
4152
102
}
330
A
100
AcDbEntity
  8
寸法
100
AcDbDimension
  2
*D83
 10
257.5767746333016
 20
162.2768434185902
 30
0.0
 11
245.0882952606905
 21
169.7768434185902
 31
0.0
 70
    32
 71
     5
 42
24.97695874522222
 73
     0
 74
     0
 75
     0
  3
tfrom線あり
100
AcDbAlignedDimension
 13
232.5998158880794
 23
187.2538021638125
 33
0.0
 14
257.5767746333016
 24
187.2538021638125
 34
0.0
100
AcDbRotatedDimension
  0
DIMENSION
  5
4154
102
{ACAD_REACTORS
330
4156
102
}
102
{ACAD_XDICTIONARY
360
4155
102
}
330
A
100
AcDbEntity
  8
寸法
100
AcDbDimension
  2
*D84
 10
340.711529516579
 20
205.0339516926527
 30
0.0
 11
340.711529516579
 21
207.5729887402705
 31
0.0
 70
   160
 71
     5
 42
5.078074095235593
 73
     0
 74
     0
 75
     0
  3
tfrom線あり
100
AcDbAlignedDimension
 13
357.4828870653116
 23
210.1120257878883
 33
0.0
 14
357.4828870653116
 24
205.0339516926527
 34
0.0
 50
90.0
100
AcDbRotatedDimension
  0
DIMENSION
  5
4157
330
A
100
AcDbEntity
  8
寸法
100
AcDbDimension
  2
*D85
 10
381.6140743109543
 20
162.2768434185902
 30
0.0
 11
369.5484806881329
 21
169.7768434185902
 31
0.0
 70
    32
 71
     5
 42
24.13118724564271
 73
     0
 74
     0
 75
     0
 52
-270.0
  3
tfrom線あり
100
AcDbAlignedDimension
 13
357.4828870653116
 23
205.0339516926527
 33
0.0
 14
381.6140743109543
 24
187.2538021638125
 34
0.0
 50
180.0
100
AcDbRotatedDimension
  0
LINE
  5
4158
330
A
100
AcDbEntity
  8
Laag 1
100
AcDbLine
 10
257.5767746333016
 20
276.2631530309365
 30
0.0
 11
257.5767746333016
 21
300.1213766550124
 31
0.0
  0
LINE
  5
4159
330
A
100
AcDbEntity
  8
Laag 1
100
AcDbLine
 10
257.5767746333016
 20
300.1213766550124
 30
0.0
 11
232.5998158880794
 21
300.1213766550124
 31
0.0
  0
LINE
  5
415A
330
A
100
AcDbEntity
  8
Laag 1
100
AcDbLine
 10
232.5998158880794
 20
300.1213766550124
 30
0.0
 11
232.5998158880794
 21
276.2631530309365
 31
0.0
  0
DIMENSION
  5
415B
102
{ACAD_REACTORS
330
415D
102
}
102
{ACAD_XDICTIONARY
360
415C
102
}
330
A
100
AcDbEntity
  8
寸法
100
AcDbDimension
  2
*D86
 10
207.6228571428571
 20
276.2631530309365
 30
0.0
 11
200.1228571428571
 21
288.1922648429745
 31
0.0
 70
    32
 71
     5
 42
23.85822362407589
 73
     0
 74
     0
 75
     0
  3
tfrom線あり
100
AcDbAlignedDimension
 13
232.5998158880794
 23
300.1213766550124
 33
0.0
 14
232.5998158880794
 24
276.2631530309365
 34
0.0
 50
90.0
100
AcDbRotatedDimension
  0
LINE
  5
415E
330
A
100
AcDbEntity
  8
モデル
100
AcDbLine
 10
232.5998158880794
 20
276.2631530309365
 30
0.0
 11
257.5767746333016
 21
276.2631530309365
 31
0.0
  0
LINE
  5
41A6
330
A
100
AcDbEntity
  8
寸法
  6
HIDDEN
100
AcDbLine
 10
257.5767746333016
 20
295.0433025597769
 30
0.0
 11
232.5998158880794
 21
295.0433025597769
 31
0.0
  0
CIRCLE
  5
41DB
102
{ACAD_REACTORS
330
424E
102
}
330
A
100
AcDbEntity
  8
寸法
  6
HIDDEN
 48
0.5
100
AcDbCircle
 10
237.0882952606906
 20
297.5823396073946
 30
0.0
 40
1.789362233779481
  0
CIRCLE
  5
41DE
102
{ACAD_REACTORS
330
424E
102
}
330
A
100
AcDbEntity
  8
寸法
  6
HIDDEN
 48
0.5
100
AcDbCircle
 10
253.0882952606905
 20
297.5823396073946
 30
0.0
 40
1.789362233779481
  0
LINE
  5
41EA
330
A
100
AcDbEntity
  8
TFORMLOGO
100
AcDbLine
 10
257.5767746333016
 20
205.0339516926527
 30
0.0
 11
232.5998158880794
 21
205.0339516926527
 31
0.0
  0
TEXT
  5
4237
330
A
100
AcDbEntity
  8
テンプレート
100
AcDbText
 10
445.9783832856965
 20
42.65830887913174
 30
0.0
 40
5.0
  1
   トラス小ネジM4 2本付き
  7
ＭＳ ゴシック
100
AcDbText
  0
DIMENSION
  5
424C
102
{ACAD_REACTORS
330
424E
102
}
102
{ACAD_XDICTIONARY
360
424D
102
}
330
A
100
AcDbEntity
  8
寸法
100
AcDbDimension
  2
*D87
 10
253.0882952606905
 20
310.7513630543846
 30
0.0
 11
245.0882952606905
 21
318.2513630543846
 31
0.0
 70
    32
 71
     5
 42
15.99999999999991
 73
     0
 74
     0
 75
     0
  3
tfrom線あり
100
AcDbAlignedDimension
 13
237.0882952606906
 23
297.5823396073946
 33
0.0
 14
253.0882952606905
 24
297.5823396073946
 34
0.0
100
AcDbRotatedDimension
  0
TEXT
  5
42AC
330
A
100
AcDbEntity
  8
テンプレート
100
AcDbText
 10
199.0993131877729
 20
77.13801337991265
 30
0.0
 40
5.0
  1
　 加工は現物合わせの上行って下さい。
  7
ＭＳ ゴシック
100
AcDbText
  0
TEXT
  5
42AD
330
A
100
AcDbEntity
  8
テンプレート
100
AcDbText
 10
199.2715562699815
 20
85.24179747605251
 30
0.0
 40
5.0
  1
※ 輸入製品の為、国内製品と比べ製品寸法の個体差に幅が有ります。
  7
ＭＳ ゴシック
100
AcDbText
  0
TEXT
  5
4327
330
A
100
AcDbEntity
  8
テンプレート
100
AcDbText
 10
457.4533465911716
 20
51.7258362774572
 30
0.0
 40
5.0
  1
付属品
  7
ＭＳ ゴシック
100
AcDbText
  0
TEXT
  5
4328
330
A
100
AcDbEntity
  8
テンプレート
100
AcDbText
 10
199.1221474864979
 20
68.48581502298899
 30
0.0
 40
5.0
  1
※ ご注文の際は、正確な扉厚の指示をしてください。
  7
ＭＳ ゴシック
100
AcDbText
  0
MTEXT
  5
4361
102
{ACAD_XDICTIONARY
360
4362
102
}
330
A
100
AcDbEntity
  8
TFORMLOGO
100
AcDbMText
 10
16.88830187619309
 20
22.8601973110641
 30
0.0
 40
4.0
 41
0.0
 46
4.0
 71
     1
 72
     1
  1
{20190419N}
  7
ＭＳ ゴシック
 73
     1
 44
1.0
1001
ACAD
1000
ACAD_MTEXT_DEFINED_HEIGHT_BEGIN
1070
    46
1040
4.0
1000
ACAD_MTEXT_DEFINED_HEIGHT_END
  0
VIEWPORT
  5
349
330
B
100
AcDbEntity
 67
     1
  8
0
100
AcDbViewport
 10
202.5
 20
128.5
 30
0.0
 40
486.0
 41
308.4
 68
     1
 69
     1
 12
202.5
 22
128.5
 13
0.0
 23
0.0
 14
0.5
 24
0.5
 15
0.0
 25
0.0
 16
0.0
 26
0.0
 36
1.0
 17
0.0
 27
0.0
 37
0.0
 42
50.0
 43
0.0
 44
0.0
 45
308.4
 50
0.0
 51
0.0
 72
   100
 90
   557152
  1

281
     0
 71
     1
 74
     0
110
0.0
120
0.0
130
0.0
111
1.0
121
0.0
131
0.0
112
0.0
122
1.0
132
0.0
 79
     0
146
0.0
170
     0
 61
     5
348
26C
292
     1
282
     1
141
0.0
142
0.0
 63
   256
  0
VIEWPORT
  5
34A
330
B
100
AcDbEntity
 67
     1
  8
0
100
AcDbViewport
 10
202.5
 20
128.5
 30
0.0
 40
324.0
 41
205.6
 68
     2
 69
     2
 12
986.6781359294573
 22
1427.077061889956
 13
0.0
 23
0.0
 14
0.5
 24
0.5
 15
0.0
 25
0.0
 16
0.0
 26
0.0
 36
1.0
 17
0.0
 27
0.0
 37
0.0
 42
50.0
 43
0.0
 44
0.0
 45
2890.021615685494
 50
0.0
 51
0.0
 72
   100
 90
   557152
  1

281
     0
 71
     1
 74
     0
110
0.0
120
0.0
130
0.0
111
1.0
121
0.0
131
0.0
112
0.0
122
1.0
132
0.0
 79
     0
146
0.0
170
     0
 61
     5
348
26C
292
     1
282
     1
141
0.0
142
0.0
 63
   256
  0
ENDSEC
  0
SECTION
  2
OBJECTS
  0
DICTIONARY
  5
19
330
0
100
AcDbDictionary
281
     1
  3
ACAD_COLOR
350
674
  3
ACAD_DETAILVIEWSTYLE
350
12F4
  3
ACAD_FIELDLIST
350
435F
  3
ACAD_GROUP
350
1A
  3
ACAD_IMAGE_VARS
350
27B
  3
ACAD_LAYOUT
350
1E
  3
ACAD_MATERIAL
350
263
  3
ACAD_MLEADERSTYLE
350
336
  3
ACAD_MLINESTYLE
350
1B
  3
ACAD_PLOTSETTINGS
350
22
  3
ACAD_PLOTSTYLENAME
350
1F
  3
ACAD_SCALELIST
350
241
  3
ACAD_SECTIONVIEWSTYLE
350
12F5
  3
ACAD_TABLESTYLE
350
278
  3
ACAD_VISUALSTYLE
350
267
  3
ACDB_RECOMPOSE_DATA
350
4371
  3
AcDbVariableDictionary
350
330
  3
AcStStandard
350
12B9
  3
APPDATA
350
27A
  0
SUN
  5
10E8
330
15
100
AcDbSun
 90
        1
290
     0
 63
     7
421
 16777215
 40
1.0
291
     1
 91
  2455826
 92
 54000000
292
     0
 70
     2
 71
   256
280
     1
  0
DICTIONARY
  5
2E1
330
2
100
AcDbDictionary
280
     1
281
     1
  3
ACAD_LAYERSTATES
360
2E2
  3
ACLYDICTIONARY
360
3863
  0
DICTIONARY
  5
414F
330
414E
100
AcDbDictionary
280
     1
281
     1
  3
ACAD_DIMASSOC
360
4150
  0
DICTIONARY
  5
4152
330
4151
100
AcDbDictionary
280
     1
281
     1
  3
ACAD_DIMASSOC
360
4153
  0
DICTIONARY
  5
4155
330
4154
100
AcDbDictionary
280
     1
281
     1
  3
ACAD_DIMASSOC
360
4156
  0
DICTIONARY
  5
415C
330
415B
100
AcDbDictionary
280
     1
281
     1
  3
ACAD_DIMASSOC
360
415D
  0
DICTIONARY
  5
424D
330
424C
100
AcDbDictionary
280
     1
281
     1
  3
ACAD_DIMASSOC
360
424E
  0
DICTIONARY
  5
4362
330
4361
100
AcDbDictionary
280
     1
281
     1
  3
ACAD_FIELD
360
4363
  0
DICTIONARY
  5
674
102
{ACAD_REACTORS
330
19
102
}
330
19
100
AcDbDictionary
281
     1
  0
DICTIONARY
  5
12F4
102
{ACAD_REACTORS
330
19
102
}
330
19
100
AcDbDictionary
281
     1
  0
FIELDLIST
  5
435F
102
{ACAD_REACTORS
330
19
102
}
330
19
100
AcDbIdSet
 90
        2
330
435B
330
4364
100
AcDbFieldList
  0
DICTIONARY
  5
1A
102
{ACAD_REACTORS
330
19
102
}
330
19
100
AcDbDictionary
281
     1
  0
RASTERVARIABLES
  5
27B
102
{ACAD_REACTORS
330
19
102
}
330
19
100
AcDbRasterVariables
 90
        0
 70
     1
 71
     1
 72
     1
  0
DICTIONARY
  5
1E
102
{ACAD_REACTORS
330
19
102
}
330
19
100
AcDbDictionary
281
     1
  3
Layout1
350
21
  3
Layout2
350
12C4
  3
Model
350
20
  0
DICTIONARY
  5
263
102
{ACAD_REACTORS
330
19
102
}
330
19
100
AcDbDictionary
281
     1
  3
ByBlock
350
385B
  3
ByLayer
350
264
  3
Global
350
266
  0
DICTIONARY
  5
336
102
{ACAD_REACTORS
330
19
102
}
330
19
100
AcDbDictionary
281
     1
  3
Standard
350
4279
  0
DICTIONARY
  5
1B
102
{ACAD_REACTORS
330
19
102
}
330
19
100
AcDbDictionary
281
     1
  3
Standard
350
1C
  0
DICTIONARY
  5
22
102
{ACAD_REACTORS
330
19
102
}
330
19
100
AcDbDictionary
281
     1
  0
ACDBDICTIONARYWDFLT
  5
1F
102
{ACAD_REACTORS
330
19
102
}
330
19
100
AcDbDictionary
281
     1
  3
Normal
350
1D
100
AcDbDictionaryWithDefault
340
1D
  0
DICTIONARY
  5
241
102
{ACAD_REACTORS
330
19
102
}
330
19
100
AcDbDictionary
281
     1
  3
A0
350
242
  3
A1
350
243
  3
A2
350
244
  3
A3
350
245
  3
A4
350
246
  3
A5
350
247
  3
A6
350
248
  3
A7
350
249
  3
A8
350
24A
  3
A9
350
24B
  3
B0
350
24C
  3
B1
350
24D
  3
B2
350
24E
  3
B3
350
24F
  3
B4
350
250
  3
B5
350
251
  3
B6
350
252
  3
B7
350
253
  3
B8
350
254
  3
B9
350
255
  3
C0
350
256
  3
C1
350
257
  3
C2
350
258
  3
C3
350
259
  3
C4
350
25A
  3
C5
350
25B
  3
C6
350
25C
  3
C7
350
25D
  3
C8
350
25E
  3
C9
350
25F
  3
D0
350
260
  3
D1
350
261
  3
D2
350
262
  0
DICTIONARY
  5
12F5
102
{ACAD_REACTORS
330
19
102
}
330
19
100
AcDbDictionary
281
     1
  0
DICTIONARY
  5
278
102
{ACAD_REACTORS
330
19
102
}
330
19
100
AcDbDictionary
281
     1
  3
Standard
350
279
  0
DICTIONARY
  5
267
102
{ACAD_REACTORS
330
19
102
}
330
19
100
AcDbDictionary
281
     1
  3
2dWireframe
350
26C
  3
3D Hidden
350
26E
  3
3dWireframe
350
26D
  3
Basic
350
26F
  3
Brighten
350
273
  3
ColorChange
350
277
  3
Conceptual
350
271
  3
Dim
350
272
  3
EdgeColorOff
350
10E2
  3
Facepattern
350
276
  3
Flat
350
268
  3
FlatWithEdges
350
269
  3
Gouraud
350
26A
  3
GouraudWithEdges
350
26B
  3
Hidden
350
10DF
  3
JitterOff
350
10E0
  3
Linepattern
350
275
  3
OverhangOff
350
10E1
  3
Realistic
350
270
  3
Shaded
350
10E7
  3
Shaded with edges
350
10E6
  3
Shades of Gray
350
10E3
  3
Sketchy
350
10E4
  3
Thicken
350
274
  3
Wireframe
350
10DE
  3
X-Ray
350
10E5
  0
XRECORD
  5
4371
102
{ACAD_REACTORS
330
19
102
}
330
19
100
AcDbXrecord
280
     1
 90
        1
330
279
  0
DICTIONARY
  5
330
102
{ACAD_REACTORS
330
19
102
}
330
19
100
AcDbDictionary
281
     1
  3
CANNOSCALE
350
331
  3
CMLEADERSTYLE
350
42B2
  3
CTABLESTYLE
350
335
  3
XCLIPFRAME
350
109E
  0
DICTIONARY
  5
12B9
102
{ACAD_REACTORS
330
19
102
}
330
19
100
AcDbDictionary
281
     1
  0
DICTIONARY
  5
27A
102
{ACAD_REACTORS
330
19
102
}
330
19
100
AcDbDictionary
281
     1
  0
DICTIONARY
  5
2E2
102
{ACAD_REACTORS
330
2E1
102
}
330
2E1
100
AcDbDictionary
281
     1
  0
DICTIONARY
  5
3863
102
{ACAD_REACTORS
330
2E1
102
}
330
2E1
100
AcDbDictionary
281
     1
1001
ACAD
1000
<All
  0
DIMASSOC
  5
4150
102
{ACAD_REACTORS
330
414F
102
}
330
414F
100
AcDbDimAssoc
330
414E
 90
        3
 70
     0
 71
     1
  1
AcDbOsnapPointRef
 72
    13
331
4140
 73
     0
 91
        0
 40
0.0
 10
0.0
 20
0.0
 30
0.0
 75
     0
  1
AcDbOsnapPointRef
 72
     1
331
4140
 73
     0
 91
        0
 40
0.0
 10
0.0
 20
0.0
 30
0.0
 75
     0
  0
DIMASSOC
  5
4153
102
{ACAD_REACTORS
330
4152
102
}
330
4152
100
AcDbDimAssoc
330
4151
 90
        3
 70
     0
 71
     1
  1
AcDbOsnapPointRef
 72
     1
331
413D
 73
     0
 91
        0
 40
0.0
 10
0.0
 20
0.0
 30
0.0
 75
     0
  1
AcDbOsnapPointRef
 72
    13
331
413E
 73
     0
 91
        0
 40
0.0
 10
0.0
 20
0.0
 30
0.0
 75
     0
  0
DIMASSOC
  5
4156
102
{ACAD_REACTORS
330
4155
102
}
330
4155
100
AcDbDimAssoc
330
4154
 90
        3
 70
     0
 71
     1
  1
AcDbOsnapPointRef
 72
     1
331
4147
 73
     2
 91
        2
 40
1.0
 10
0.0
 20
0.0
 30
0.0
 75
     0
  1
AcDbOsnapPointRef
 72
     1
331
4147
 73
     2
 91
        1
 40
1.0
 10
0.0
 20
0.0
 30
0.0
 75
     0
  0
DIMASSOC
  5
415D
102
{ACAD_REACTORS
330
415C
102
}
330
415C
100
AcDbDimAssoc
330
415B
 90
        1
 70
     0
 71
     1
  1
AcDbOsnapPointRef
 72
    13
331
415A
 73
     0
 91
        0
 40
0.0
 10
0.0
 20
0.0
 30
0.0
 75
     0
  0
DIMASSOC
  5
424E
102
{ACAD_REACTORS
330
424D
102
}
330
424D
100
AcDbDimAssoc
330
424C
 90
        3
 70
     0
 71
     1
  1
AcDbOsnapPointRef
 72
     3
331
41DB
 73
     0
 91
        0
 40
0.0
 10
0.0
 20
0.0
 30
0.0
 75
     0
  1
AcDbOsnapPointRef
 72
     3
331
41DE
 73
     0
 91
        0
 40
0.0
 10
0.0
 20
0.0
 30
0.0
 75
     0
  0
DICTIONARY
  5
4363
102
{ACAD_REACTORS
330
4362
102
}
330
4362
100
AcDbDictionary
280
     1
281
     1
  3
TEXT
360
4364
  0
LAYOUT
  5
21
102
{ACAD_REACTORS
330
1E
102
}
330
1E
100
AcDbPlotSettings
  1

  2
none_device
  4
ISO_A3_(420.00_x_297.00_MM)
  6

 40
7.5
 41
20.0
 42
7.5
 43
20.0
 44
420.0
 45
297.0
 46
0.0
 47
0.0
 48
0.0
 49
0.0
140
0.0
141
0.0
142
1.0
143
1.0
 70
     0
 72
     1
 73
     0
 74
     0
  7

 75
     0
 76
     0
 77
     2
 78
   300
147
1.0
148
0.0
149
0.0
100
AcDbLayout
  1
Layout1
 70
     0
 71
     0
 10
-7.5
 20
-20.0
 11
412.5
 21
277.0
 12
0.0
 22
0.0
 32
0.0
 14
0.0
 24
0.0
 34
0.0
 15
0.0
 25
0.0
 35
0.0
146
0.0
 13
0.0
 23
0.0
 33
0.0
 16
0.0
 26
0.0
 36
0.0
 17
0.0
 27
0.0
 37
0.0
 76
     0
330
B
331
349
  0
LAYOUT
  5
12C4
102
{ACAD_REACTORS
330
1E
102
}
330
1E
100
AcDbPlotSettings
  1

  2
none_device
  4

  6

 40
0.0
 41
0.0
 42
0.0
 43
0.0
 44
0.0
 45
0.0
 46
0.0
 47
0.0
 48
0.0
 49
0.0
140
0.0
141
0.0
142
1.0
143
1.0
 70
   688
 72
     1
 73
     0
 74
     5
  7

 75
    16
 76
     0
 77
     2
 78
   300
147
1.0
148
0.0
149
0.0
100
AcDbLayout
  1
Layout2
 70
     1
 71
     2
 10
0.0
 20
0.0
 11
0.0
 21
0.0
 12
0.0
 22
0.0
 32
0.0
 14
0.0
 24
0.0
 34
0.0
 15
0.0
 25
0.0
 35
0.0
146
0.0
 13
0.0
 23
0.0
 33
0.0
 16
1.0
 26
0.0
 36
0.0
 17
0.0
 27
1.0
 37
0.0
 76
     0
330
12C3
  0
LAYOUT
  5
20
102
{ACAD_REACTORS
330
1E
102
}
330
1E
100
AcDbPlotSettings
  1

  2
none_device
  4
ISO_A3_(420.00_x_297.00_MM)
  6

 40
7.5
 41
20.0
 42
7.5
 43
20.0
 44
420.0
 45
297.0
 46
0.0
 47
0.0
 48
0.0
 49
0.0
140
0.0
141
0.0
142
1.0
143
1.0
 70
  1024
 72
     1
 73
     0
 74
     0
  7

 75
     0
 76
     0
 77
     2
 78
   300
147
1.0
148
0.0
149
0.0
100
AcDbLayout
  1
Model
 70
     0
 71
     1
 10
0.0
 20
0.0
 11
593.9999999999999
 21
420.0
 12
0.0
 22
0.0
 32
0.0
 14
0.0
 24
0.0
 34
0.0
 15
593.9999999999999
 25
420.0
 35
0.0
146
0.0
 13
0.0
 23
0.0
 33
0.0
 16
0.0
 26
0.0
 36
0.0
 17
0.0
 27
0.0
 37
0.0
 76
     0
330
A
331
15
  0
MATERIAL
  5
385B
102
{ACAD_REACTORS
330
263
102
}
330
263
100
AcDbMaterial
  1
ByBlock
 72
     1
 94
      127
  0
MATERIAL
  5
264
102
{ACAD_REACTORS
330
263
102
}
330
263
100
AcDbMaterial
  1
ByLayer
 72
     1
 94
      127
  0
MATERIAL
  5
266
102
{ACAD_REACTORS
330
263
102
}
330
263
100
AcDbMaterial
  1
Global
 72
     1
 94
      127
  0
MLEADERSTYLE
  5
4279
102
{ACAD_REACTORS
330
336
102
}
330
336
100
AcDbMLeaderStyle
170
     2
171
     1
172
     0
 90
        2
 40
0.0
 41
0.0
173
     1
 91
-1056964608
340
11
 92
       -2
290
     1
 42
2.0
291
     1
 43
8.0
  3
Standard
341
0
 44
4.0
300

342
17
174
     1
178
     6
175
     1
176
     0
 93
-1056964608
 45
4.0
292
     0
297
     0
 46
4.0
343
0
 94
-1056964608
 47
1.0
 49
1.0
140
1.0
293
     1
141
0.0
294
     1
177
     0
142
1.0
295
     0
296
     0
143
3.75
1001
ACAD_MLEADERVER
1070
     2
  0
MLINESTYLE
  5
1C
102
{ACAD_REACTORS
330
1B
102
}
330
1B
100
AcDbMlineStyle
  2
Standard
 70
     0
  3

 62
     0
 51
90.0
 52
90.0
 71
     2
 49
0.5
 62
   256
  6
BYLAYER
 49
-0.5
 62
   256
  6
BYLAYER
  0
ACDBPLACEHOLDER
  5
1D
102
{ACAD_REACTORS
330
1F
102
}
330
1F
  0
SCALE
  5
242
102
{ACAD_REACTORS
330
241
102
}
330
241
100
AcDbScale
 70
     0
300
1:1
140
1.0
141
1.0
290
     1
  0
SCALE
  5
243
102
{ACAD_REACTORS
330
241
102
}
330
241
100
AcDbScale
 70
     0
300
1:2
140
1.0
141
2.0
290
     0
  0
SCALE
  5
244
102
{ACAD_REACTORS
330
241
102
}
330
241
100
AcDbScale
 70
     0
300
1:4
140
1.0
141
4.0
290
     0
  0
SCALE
  5
245
102
{ACAD_REACTORS
330
241
102
}
330
241
100
AcDbScale
 70
     0
300
1:5
140
1.0
141
5.0
290
     0
  0
SCALE
  5
246
102
{ACAD_REACTORS
330
241
102
}
330
241
100
AcDbScale
 70
     0
300
1:8
140
1.0
141
8.0
290
     0
  0
SCALE
  5
247
102
{ACAD_REACTORS
330
241
102
}
330
241
100
AcDbScale
 70
     0
300
1:10
140
1.0
141
10.0
290
     0
  0
SCALE
  5
248
102
{ACAD_REACTORS
330
241
102
}
330
241
100
AcDbScale
 70
     0
300
1:16
140
1.0
141
16.0
290
     0
  0
SCALE
  5
249
102
{ACAD_REACTORS
330
241
102
}
330
241
100
AcDbScale
 70
     0
300
1:20
140
1.0
141
20.0
290
     0
  0
SCALE
  5
24A
102
{ACAD_REACTORS
330
241
102
}
330
241
100
AcDbScale
 70
     0
300
1:30
140
1.0
141
30.0
290
     0
  0
SCALE
  5
24B
102
{ACAD_REACTORS
330
241
102
}
330
241
100
AcDbScale
 70
     0
300
1:40
140
1.0
141
40.0
290
     0
  0
SCALE
  5
24C
102
{ACAD_REACTORS
330
241
102
}
330
241
100
AcDbScale
 70
     0
300
1:50
140
1.0
141
50.0
290
     0
  0
SCALE
  5
24D
102
{ACAD_REACTORS
330
241
102
}
330
241
100
AcDbScale
 70
     0
300
1:100
140
1.0
141
100.0
290
     0
  0
SCALE
  5
24E
102
{ACAD_REACTORS
330
241
102
}
330
241
100
AcDbScale
 70
     0
300
2:1
140
2.0
141
1.0
290
     0
  0
SCALE
  5
24F
102
{ACAD_REACTORS
330
241
102
}
330
241
100
AcDbScale
 70
     0
300
4:1
140
4.0
141
1.0
290
     0
  0
SCALE
  5
250
102
{ACAD_REACTORS
330
241
102
}
330
241
100
AcDbScale
 70
     0
300
8:1
140
8.0
141
1.0
290
     0
  0
SCALE
  5
251
102
{ACAD_REACTORS
330
241
102
}
330
241
100
AcDbScale
 70
     0
300
10:1
140
10.0
141
1.0
290
     0
  0
SCALE
  5
252
102
{ACAD_REACTORS
330
241
102
}
330
241
100
AcDbScale
 70
     0
300
100:1
140
100.0
141
1.0
290
     0
  0
SCALE
  5
253
102
{ACAD_REACTORS
330
241
102
}
330
241
100
AcDbScale
 70
     0
300
1/128" = 1'-0"
140
0.0078125
141
12.0
290
     0
  0
SCALE
  5
254
102
{ACAD_REACTORS
330
241
102
}
330
241
100
AcDbScale
 70
     0
300
1/64" = 1'-0"
140
0.015625
141
12.0
290
     0
  0
SCALE
  5
255
102
{ACAD_REACTORS
330
241
102
}
330
241
100
AcDbScale
 70
     0
300
1/32" = 1'-0"
140
0.03125
141
12.0
290
     0
  0
SCALE
  5
256
102
{ACAD_REACTORS
330
241
102
}
330
241
100
AcDbScale
 70
     0
300
1/16" = 1'-0"
140
0.0625
141
12.0
290
     0
  0
SCALE
  5
257
102
{ACAD_REACTORS
330
241
102
}
330
241
100
AcDbScale
 70
     0
300
3/32" = 1'-0"
140
0.09375
141
12.0
290
     0
  0
SCALE
  5
258
102
{ACAD_REACTORS
330
241
102
}
330
241
100
AcDbScale
 70
     0
300
1/8" = 1'-0"
140
0.125
141
12.0
290
     0
  0
SCALE
  5
259
102
{ACAD_REACTORS
330
241
102
}
330
241
100
AcDbScale
 70
     0
300
3/16" = 1'-0"
140
0.1875
141
12.0
290
     0
  0
SCALE
  5
25A
102
{ACAD_REACTORS
330
241
102
}
330
241
100
AcDbScale
 70
     0
300
1/4" = 1'-0"
140
0.25
141
12.0
290
     0
  0
SCALE
  5
25B
102
{ACAD_REACTORS
330
241
102
}
330
241
100
AcDbScale
 70
     0
300
3/8" = 1'-0"
140
0.375
141
12.0
290
     0
  0
SCALE
  5
25C
102
{ACAD_REACTORS
330
241
102
}
330
241
100
AcDbScale
 70
     0
300
1/2" = 1'-0"
140
0.5
141
12.0
290
     0
  0
SCALE
  5
25D
102
{ACAD_REACTORS
330
241
102
}
330
241
100
AcDbScale
 70
     0
300
3/4" = 1'-0"
140
0.75
141
12.0
290
     0
  0
SCALE
  5
25E
102
{ACAD_REACTORS
330
241
102
}
330
241
100
AcDbScale
 70
     0
300
1" = 1'-0"
140
1.0
141
12.0
290
     0
  0
SCALE
  5
25F
102
{ACAD_REACTORS
330
241
102
}
330
241
100
AcDbScale
 70
     0
300
1-1/2" = 1'-0"
140
1.5
141
12.0
290
     0
  0
SCALE
  5
260
102
{ACAD_REACTORS
330
241
102
}
330
241
100
AcDbScale
 70
     0
300
3" = 1'-0"
140
3.0
141
12.0
290
     0
  0
SCALE
  5
261
102
{ACAD_REACTORS
330
241
102
}
330
241
100
AcDbScale
 70
     0
300
6" = 1'-0"
140
6.0
141
12.0
290
     0
  0
SCALE
  5
262
102
{ACAD_REACTORS
330
241
102
}
330
241
100
AcDbScale
 70
     0
300
1'-0" = 1'-0"
140
12.0
141
12.0
290
     0
  0
TABLESTYLE
  5
279
102
{ACAD_REACTORS
330
278
102
}
102
{ACAD_XDICTIONARY
360
436F
102
}
330
278
100
AcDbTableStyle
  3
Standard
 70
     0
 71
     0
 40
0.06
 41
0.06
280
     0
281
     0
  7
Standard
140
4.5
170
     2
 62
     0
 63
   257
283
     0
 90
        4
 91
        0
  1

274
    -2
284
     1
 64
     0
275
    -2
285
     1
 65
     0
276
    -2
286
     1
 66
     0
277
    -2
287
     1
 67
     0
278
    -2
288
     1
 68
     0
279
    -2
289
     1
 69
     0
  7
Standard
140
6.0
170
     5
 62
     0
 63
   257
283
     0
 90
        4
 91
        0
  1

274
    -2
284
     1
 64
     0
275
    -2
285
     1
 65
     0
276
    -2
286
     1
 66
     0
277
    -2
287
     1
 67
     0
278
    -2
288
     1
 68
     0
279
    -2
289
     1
 69
     0
  7
Standard
140
4.5
170
     5
 62
     0
 63
   257
283
     0
 90
        4
 91
        0
  1

274
    -2
284
     1
 64
     0
275
    -2
285
     1
 65
     0
276
    -2
286
     1
 66
     0
277
    -2
287
     1
 67
     0
278
    -2
288
     1
 68
     0
279
    -2
289
     1
 69
     0
  0
VISUALSTYLE
  5
26C
102
{ACAD_REACTORS
330
267
102
}
330
267
100
AcDbVisualStyle
  2
2dWireframe
 70
     4
 71
     0
 72
     2
 73
     0
 90
        0
 40
-0.6
 41
-30.0
 62
     5
 63
     7
421
 16777215
 74
     1
 91
        4
 64
     7
 65
   257
 75
     1
175
     1
 42
1.0
 92
        0
 66
   257
 43
1.0
 76
     1
 77
     6
 78
     2
 67
     7
 79
     5
170
     0
171
     0
290
     0
174
     0
 93
        1
 44
0.0
173
     0
291
     0
 45
0.0
  0
VISUALSTYLE
  5
26E
102
{ACAD_REACTORS
330
267
102
}
330
267
100
AcDbVisualStyle
  2
3D Hidden
 70
     6
 71
     1
 72
     2
 73
     2
 90
        0
 40
-0.6
 41
-30.0
 62
     5
 63
     7
421
 16777215
 74
     2
 91
        2
 64
     7
 65
   257
 75
     2
175
     1
 42
40.0
 92
        0
 66
   257
 43
1.0
 76
     1
 77
     6
 78
     2
 67
     7
 79
     3
170
     0
171
     0
290
     0
174
     0
 93
        1
 44
0.0
173
     0
291
     0
 45
0.0
  0
VISUALSTYLE
  5
26D
102
{ACAD_REACTORS
330
267
102
}
330
267
100
AcDbVisualStyle
  2
3dWireframe
 70
     5
 71
     0
 72
     2
 73
     0
 90
        0
 40
-0.6
 41
-30.0
 62
     5
 63
     7
421
 16777215
 74
     1
 91
        4
 64
     7
 65
   257
 75
     1
175
     1
 42
1.0
 92
        0
 66
   257
 43
1.0
 76
     1
 77
     6
 78
     2
 67
     7
 79
     5
170
     0
171
     0
290
     0
174
     0
 93
        1
 44
0.0
173
     0
291
     0
 45
0.0
  0
VISUALSTYLE
  5
26F
102
{ACAD_REACTORS
330
267
102
}
330
267
100
AcDbVisualStyle
  2
Basic
 70
     7
 71
     1
 72
     0
 73
     1
 90
        0
 40
-0.6
 41
-30.0
 62
     5
 63
     7
421
 16777215
 74
     0
 91
        4
 64
     7
 65
   257
 75
     1
175
     1
 42
1.0
 92
        8
 66
     7
 43
1.0
 76
     1
 77
     6
 78
     2
 67
     7
 79
     5
170
     0
171
     0
290
     0
174
     0
 93
        1
 44
0.0
173
     0
291
     1
 45
0.0
  0
VISUALSTYLE
  5
273
102
{ACAD_REACTORS
330
267
102
}
330
267
100
AcDbVisualStyle
  2
Brighten
 70
    12
 71
     2
 72
     2
 73
     0
 90
        0
 40
-0.6
 41
-30.0
 62
     5
 63
     7
421
 16777215
 74
     1
 91
        4
 64
     7
 65
   257
 75
     1
175
     1
 42
1.0
 92
        8
 66
     7
 43
1.0
 76
     1
 77
     6
 78
     2
 67
     7
 79
     5
170
     0
171
     0
290
     0
174
     0
 93
        1
 44
50.0
173
     0
291
     1
 45
0.0
  0
VISUALSTYLE
  5
277
102
{ACAD_REACTORS
330
267
102
}
330
267
100
AcDbVisualStyle
  2
ColorChange
 70
    16
 71
     2
 72
     2
 73
     3
 90
        0
 40
-0.6
 41
-30.0
 62
     5
 63
     8
421
  8421504
 74
     1
 91
        4
 64
     7
 65
   257
 75
     1
175
     1
 42
1.0
 92
        8
 66
     8
424
  8421504
 43
1.0
 76
     1
 77
     6
 78
     2
 67
     7
 79
     5
170
     0
171
     0
290
     0
174
     0
 93
        1
 44
0.0
173
     0
291
     1
 45
0.0
  0
VISUALSTYLE
  5
271
102
{ACAD_REACTORS
330
267
102
}
330
267
100
AcDbVisualStyle
  2
Conceptual
 70
     9
 71
     3
 72
     2
 73
     0
 90
        0
 40
-0.6
 41
-30.0
 62
     5
 63
     7
421
 16777215
 74
     2
 91
        2
 64
     7
 65
   257
 75
     1
175
     1
 42
40.0
 92
        8
 66
     7
 43
1.0
 76
     1
 77
     6
 78
     2
 67
     7
 79
     3
170
     0
171
     0
290
     0
174
     0
 93
        1
 44
0.0
173
     0
291
     0
 45
0.0
  0
VISUALSTYLE
  5
272
102
{ACAD_REACTORS
330
267
102
}
330
267
100
AcDbVisualStyle
  2
Dim
 70
    11
 71
     2
 72
     2
 73
     0
 90
        0
 40
-0.6
 41
-30.0
 62
     5
 63
     7
421
 16777215
 74
     1
 91
        4
 64
     7
 65
   257
 75
     1
175
     1
 42
1.0
 92
        8
 66
     7
 43
1.0
 76
     1
 77
     6
 78
     2
 67
     7
 79
     5
170
     0
171
     0
290
     0
174
     0
 93
        1
 44
-50.0
173
     0
291
     1
 45
0.0
  0
VISUALSTYLE
  5
10E2
102
{ACAD_REACTORS
330
267
102
}
330
267
100
AcDbVisualStyle
  2
EdgeColorOff
 70
    22
 71
     2
 72
     2
 73
     0
 90
        0
 40
0.6
 41
30.0
 62
     5
 63
     7
421
 16777215
 74
     1
 91
        4
 64
     7
 65
   257
 75
     1
175
     1
 42
1.0
 92
        8
 66
     7
 43
1.0
 76
     1
 77
     6
 78
     2
 67
     7
 79
     5
170
     0
171
     0
290
     0
174
     0
 93
        1
 44
0.0
173
     0
291
     1
 45
0.0
  0
VISUALSTYLE
  5
276
102
{ACAD_REACTORS
330
267
102
}
330
267
100
AcDbVisualStyle
  2
Facepattern
 70
    15
 71
     2
 72
     2
 73
     0
 90
        0
 40
-0.6
 41
-30.0
 62
     5
 63
     7
421
 16777215
 74
     1
 91
        4
 64
     7
 65
   257
 75
     1
175
     1
 42
1.0
 92
        8
 66
     7
 43
1.0
 76
     1
 77
     6
 78
     2
 67
     7
 79
     5
170
     0
171
     0
290
     0
174
     0
 93
        1
 44
0.0
173
     0
291
     1
 45
0.0
  0
VISUALSTYLE
  5
268
102
{ACAD_REACTORS
330
267
102
}
330
267
100
AcDbVisualStyle
  2
Flat
 70
     0
 71
     2
 72
     1
 73
     1
 90
        2
 40
-0.6
 41
30.0
 62
     5
 63
     7
421
 16777215
 74
     0
 91
        4
 64
     7
 65
   257
 75
     1
175
     1
 42
1.0
 92
        8
 66
     7
 43
1.0
 76
     1
 77
     6
 78
     2
 67
     7
 79
     5
170
     0
171
     0
290
     0
174
     0
 93
       13
 44
0.0
173
     0
291
     1
 45
0.0
  0
VISUALSTYLE
  5
269
102
{ACAD_REACTORS
330
267
102
}
330
267
100
AcDbVisualStyle
  2
FlatWithEdges
 70
     1
 71
     2
 72
     1
 73
     1
 90
        2
 40
-0.6
 41
30.0
 62
     5
 63
     7
421
 16777215
 74
     1
 91
        4
 64
     7
 65
   257
 75
     1
175
     1
 42
1.0
 92
        0
 66
   257
 43
1.0
 76
     1
 77
     6
 78
     2
 67
     7
 79
     5
170
     0
171
     0
290
     0
174
     0
 93
       13
 44
0.0
173
     0
291
     1
 45
0.0
  0
VISUALSTYLE
  5
26A
102
{ACAD_REACTORS
330
267
102
}
330
267
100
AcDbVisualStyle
  2
Gouraud
 70
     2
 71
     2
 72
     2
 73
     1
 90
        2
 40
-0.6
 41
30.0
 62
     5
 63
     7
421
 16777215
 74
     0
 91
        4
 64
     7
 65
   257
 75
     1
175
     1
 42
1.0
 92
        0
 66
     7
 43
1.0
 76
     1
 77
     6
 78
     2
 67
     7
 79
     5
170
     0
171
     0
290
     0
174
     0
 93
       13
 44
0.0
173
     0
291
     1
 45
0.0
  0
VISUALSTYLE
  5
26B
102
{ACAD_REACTORS
330
267
102
}
330
267
100
AcDbVisualStyle
  2
GouraudWithEdges
 70
     3
 71
     2
 72
     2
 73
     1
 90
        2
 40
-0.6
 41
30.0
 62
     5
 63
     7
421
 16777215
 74
     1
 91
        4
 64
     7
 65
   257
 75
     1
175
     1
 42
1.0
 92
        0
 66
   257
 43
1.0
 76
     1
 77
     6
 78
     2
 67
     7
 79
     5
170
     0
171
     0
290
     0
174
     0
 93
       13
 44
0.0
173
     0
291
     1
 45
0.0
  0
VISUALSTYLE
  5
10DF
102
{ACAD_REACTORS
330
267
102
}
330
267
100
AcDbVisualStyle
  2
Hidden
 70
     6
 71
     1
 72
     2
 73
     2
 90
        0
 40
0.6
 41
30.0
 62
     5
 63
     7
421
 16777215
 74
     2
 91
        2
 64
     7
 65
   257
 75
     2
175
     1
 42
40.0
 92
        0
 66
   257
 43
1.0
 76
     1
 77
     6
 78
     2
 67
     7
 79
     3
170
     0
171
     0
290
     0
174
     0
 93
        1
 44
0.0
173
     0
291
     0
 45
0.0
  0
VISUALSTYLE
  5
10E0
102
{ACAD_REACTORS
330
267
102
}
330
267
100
AcDbVisualStyle
  2
JitterOff
 70
    20
 71
     2
 72
     2
 73
     0
 90
        0
 40
0.6
 41
30.0
 62
     5
 63
     7
421
 16777215
 74
     1
 91
        4
 64
     7
 65
   257
 75
     1
175
     1
 42
1.0
 92
       10
 66
     7
 43
1.0
 76
     1
 77
     6
 78
     2
 67
     7
 79
     5
170
     0
171
     0
290
     0
174
     0
 93
        1
 44
0.0
173
     0
291
     1
 45
0.0
  0
VISUALSTYLE
  5
275
102
{ACAD_REACTORS
330
267
102
}
330
267
100
AcDbVisualStyle
  2
Linepattern
 70
    14
 71
     2
 72
     2
 73
     0
 90
        0
 40
-0.6
 41
-30.0
 62
     5
 63
     7
421
 16777215
 74
     1
 91
        4
 64
     7
 65
   257
 75
     7
175
     7
 42
1.0
 92
        8
 66
     7
 43
1.0
 76
     1
 77
     6
 78
     2
 67
     7
 79
     5
170
     0
171
     0
290
     0
174
     0
 93
        1
 44
0.0
173
     0
291
     1
 45
0.0
  0
VISUALSTYLE
  5
10E1
102
{ACAD_REACTORS
330
267
102
}
330
267
100
AcDbVisualStyle
  2
OverhangOff
 70
    21
 71
     2
 72
     2
 73
     0
 90
        0
 40
0.6
 41
30.0
 62
     5
 63
     7
421
 16777215
 74
     1
 91
        4
 64
     7
 65
   257
 75
     1
175
     1
 42
1.0
 92
        9
 66
     7
 43
1.0
 76
     1
 77
     6
 78
     2
 67
     7
 79
     5
170
     0
171
     0
290
     0
174
     0
 93
        1
 44
0.0
173
     0
291
     1
 45
0.0
  0
VISUALSTYLE
  5
270
102
{ACAD_REACTORS
330
267
102
}
330
267
100
AcDbVisualStyle
  2
Realistic
 70
     8
 71
     2
 72
     2
 73
     0
 90
        0
 40
-0.6
 41
-30.0
 62
     5
 63
     7
421
 16777215
 74
     1
 91
        0
 64
     7
 65
   257
 75
     1
175
     1
 42
1.0
 92
        8
 66
     8
424
  7895160
 43
1.0
 76
     1
 77
     6
 78
     2
 67
     7
 79
     5
170
     0
171
     0
290
     0
174
     0
 93
       13
 44
0.0
173
     0
291
     0
 45
0.0
  0
VISUALSTYLE
  5
10E7
102
{ACAD_REACTORS
330
267
102
}
330
267
100
AcDbVisualStyle
  2
Shaded
 70
    27
 71
     2
 72
     2
 73
     1
 90
        2
 40
0.6
 41
30.0
 62
     5
 63
     7
421
 16777215
 74
     0
 91
        4
 64
     7
 65
   257
 75
     1
175
     1
 42
1.0
 92
        8
 66
   257
 43
1.0
 76
     1
 77
     6
 78
     2
 67
     8
425
  7895160
 79
     3
170
     0
171
     0
290
     0
174
     0
 93
        5
 44
0.0
173
     0
291
     0
 45
0.0
  0
VISUALSTYLE
  5
10E6
102
{ACAD_REACTORS
330
267
102
}
330
267
100
AcDbVisualStyle
  2
Shaded with edges
 70
    26
 71
     2
 72
     2
 73
     1
 90
        2
 40
0.6
 41
30.0
 62
     5
 63
     7
421
 16777215
 74
     1
 91
       10
 64
     7
 65
   257
 75
     2
175
     1
 42
1.0
 92
        8
 66
   257
 43
1.0
 76
     1
 77
     6
 78
     2
 67
     7
 79
     3
170
     0
171
     0
290
     0
174
     0
 93
        5
 44
0.0
173
     0
291
     0
 45
0.0
  0
VISUALSTYLE
  5
10E3
102
{ACAD_REACTORS
330
267
102
}
330
267
100
AcDbVisualStyle
  2
Shades of Gray
 70
    23
 71
     2
 72
     2
 73
     3
 90
        0
 40
0.6
 41
30.0
 62
     5
 63
     7
421
 16777215
 74
     2
 91
        2
 64
     7
 65
     7
 75
     1
175
     1
 42
40.0
 92
        8
 66
     7
 43
1.0
 76
     1
 77
     6
 78
     2
 67
     7
 79
     3
170
     0
171
     0
290
     0
174
     0
 93
        1
 44
0.0
173
     0
291
     0
 45
0.0
  0
VISUALSTYLE
  5
10E4
102
{ACAD_REACTORS
330
267
102
}
330
267
100
AcDbVisualStyle
  2
Sketchy
 70
    24
 71
     1
 72
     2
 73
     2
 90
        0
 40
0.6
 41
30.0
 62
     5
 63
     7
421
 16777215
 74
     2
 91
        2
 64
     7
 65
     7
 75
     1
175
     1
 42
40.0
 92
       11
 66
     7
 43
1.0
 76
     1
 77
     6
 78
     2
 67
     7
 79
     6
170
     0
171
     0
290
     0
174
     0
 93
        1
 44
0.0
173
     0
291
     0
 45
0.0
  0
VISUALSTYLE
  5
274
102
{ACAD_REACTORS
330
267
102
}
330
267
100
AcDbVisualStyle
  2
Thicken
 70
    13
 71
     2
 72
     2
 73
     0
 90
        0
 40
-0.6
 41
-30.0
 62
     5
 63
     7
421
 16777215
 74
     1
 91
        4
 64
     7
 65
   257
 75
     1
175
     1
 42
1.0
 92
       12
 66
     7
 43
1.0
 76
     1
 77
     6
 78
     2
 67
     7
 79
     5
170
     0
171
     0
290
     0
174
     0
 93
        1
 44
0.0
173
     0
291
     1
 45
0.0
  0
VISUALSTYLE
  5
10DE
102
{ACAD_REACTORS
330
267
102
}
330
267
100
AcDbVisualStyle
  2
Wireframe
 70
     5
 71
     0
 72
     2
 73
     0
 90
        0
 40
0.6
 41
30.0
 62
     5
 63
     7
421
 16777215
 74
     1
 91
        4
 64
     7
 65
   257
 75
     1
175
     1
 42
1.0
 92
        0
 66
   257
 43
1.0
 76
     1
 77
     6
 78
     2
 67
     7
 79
     3
170
     0
171
     0
290
     0
174
     0
 93
        1
 44
0.0
173
     0
291
     0
 45
0.0
  0
VISUALSTYLE
  5
10E5
102
{ACAD_REACTORS
330
267
102
}
330
267
100
AcDbVisualStyle
  2
X-Ray
 70
    25
 71
     2
 72
     2
 73
     1
 90
        1
 40
0.5
 41
30.0
 62
     5
 63
     7
421
 16777215
 74
     1
 91
        0
 64
     7
 65
   257
 75
     1
175
     1
 42
1.0
 92
        8
 66
     7
 43
1.0
 76
     1
 77
     6
 78
     2
 67
     7
 79
     3
170
     0
171
     0
290
     0
174
     0
 93
       13
 44
0.0
173
     0
291
     0
 45
0.0
  0
DICTIONARYVAR
  5
331
102
{ACAD_REACTORS
330
330
102
}
330
330
100
DictionaryVariables
280
     0
  1
1:1
  0
DICTIONARYVAR
  5
42B2
102
{ACAD_REACTORS
330
330
102
}
330
330
100
DictionaryVariables
280
     0
  1
Standard
  0
DICTIONARYVAR
  5
335
102
{ACAD_REACTORS
330
330
102
}
330
330
100
DictionaryVariables
280
     0
  1
Standard
  0
DICTIONARYVAR
  5
109E
102
{ACAD_REACTORS
330
330
102
}
330
330
100
DictionaryVariables
280
     0
  1
0
  0
FIELD
  5
4364
102
{ACAD_REACTORS
330
4363
102
}
330
4363
100
AcDbField
  1
_text
  2
{%<\_FldIdx 0>%N}
 90
        1
360
4365
 97
        0
 91
       63
 92
        0
 94
       11
 95
        2
 96
        0
300

 93
        1
  6
ACFD_FIELDTEXT_CHECKSUM
 93
        2
 90
        2
140
4560.0
 94
        0
300

302

304
ACVALUE_END
  7
ACFD_FIELD_VALUE
 93
        6
 90
        4
  1
{20190419N}
 94
        0
300

302

304
ACVALUE_END
301
{20190419N}
 98
       11
  0
DICTIONARY
  5
436F
330
279
100
AcDbDictionary
280
     1
281
     1
  3
ACAD_ROUNDTRIP_2008_TABLESTYLE_CELLSTYLEMAP
360
4370
  0
FIELD
  5
4365
330
4364
100
AcDbField
  1
AcVar
  2
\AcVar Date \f "yyyyMMdd"
 90
        0
 97
        0
 91
       63
 92
        0
 94
        8
 95
       64
 96
        0
300
Variable not supported
 93
        1
  6
Variable
 93
        2
 90
        4
  1
Date
 94
        0
300

302

304
ACVALUE_END
  7
ACFD_FIELD_VALUE
 93
        6
 90
        8
 92
       16
310
E307040000001200110004000D000000
 94
        0
300
yyyyMMdd
302

304
ACVALUE_END
301
20190419
 98
        8
  0
CELLSTYLEMAP
  5
4370
102
{ACAD_REACTORS
330
436F
102
}
330
436F
100
AcDbCellStyleMap
 90
        3
300
CELLSTYLE
  1
TABLEFORMAT_BEGIN
 90
        5
170
     1
 91
        0
 92
    32768
 62
   257
 93
        1
300
CONTENTFORMAT
  1
CONTENTFORMAT_BEGIN
 90
        0
 91
        0
 92
        4
 93
        0
300

 40
0.0
140
1.0
 94
        5
 62
     0
340
17
144
6.0
309
CONTENTFORMAT_END
171
     1
301
MARGIN
  1
CELLMARGIN_BEGIN
 40
0.06
 40
0.06
 40
0.06
 40
0.06
 40
0.18
 40
0.18
309
CELLMARGIN_END
 94
        6
 95
        1
302
GRIDFORMAT
  1
GRIDFORMAT_BEGIN
 90
        0
 91
        1
 62
     0
 92
       -2
340
0
 93
        0
 40
0.045
309
GRIDFORMAT_END
 95
        2
302
GRIDFORMAT
  1
GRIDFORMAT_BEGIN
 90
        0
 91
        1
 62
     0
 92
       -2
340
0
 93
        0
 40
0.045
309
GRIDFORMAT_END
 95
        4
302
GRIDFORMAT
  1
GRIDFORMAT_BEGIN
 90
        0
 91
        1
 62
     0
 92
       -2
340
0
 93
        0
 40
0.045
309
GRIDFORMAT_END
 95
        8
302
GRIDFORMAT
  1
GRIDFORMAT_BEGIN
 90
        0
 91
        1
 62
     0
 92
       -2
340
0
 93
        0
 40
0.045
309
GRIDFORMAT_END
 95
       16
302
GRIDFORMAT
  1
GRIDFORMAT_BEGIN
 90
        0
 91
        1
 62
     0
 92
       -2
340
0
 93
        0
 40
0.045
309
GRIDFORMAT_END
 95
       32
302
GRIDFORMAT
  1
GRIDFORMAT_BEGIN
 90
        0
 91
        1
 62
     0
 92
       -2
340
0
 93
        0
 40
0.045
309
GRIDFORMAT_END
309
TABLEFORMAT_END
  1
CELLSTYLE_BEGIN
 90
        1
 91
        1
300
_TITLE
309
CELLSTYLE_END
300
CELLSTYLE
  1
TABLEFORMAT_BEGIN
 90
        5
170
     1
 91
        0
 92
        0
 62
   257
 93
        1
300
CONTENTFORMAT
  1
CONTENTFORMAT_BEGIN
 90
        0
 91
        0
 92
        4
 93
        0
300

 40
0.0
140
1.0
 94
        5
 62
     0
340
17
144
4.5
309
CONTENTFORMAT_END
171
     1
301
MARGIN
  1
CELLMARGIN_BEGIN
 40
0.06
 40
0.06
 40
0.06
 40
0.06
 40
0.18
 40
0.18
309
CELLMARGIN_END
 94
        6
 95
        1
302
GRIDFORMAT
  1
GRIDFORMAT_BEGIN
 90
        0
 91
        1
 62
     0
 92
       -2
340
0
 93
        0
 40
0.045
309
GRIDFORMAT_END
 95
        2
302
GRIDFORMAT
  1
GRIDFORMAT_BEGIN
 90
        0
 91
        1
 62
     0
 92
       -2
340
0
 93
        0
 40
0.045
309
GRIDFORMAT_END
 95
        4
302
GRIDFORMAT
  1
GRIDFORMAT_BEGIN
 90
        0
 91
        1
 62
     0
 92
       -2
340
0
 93
        0
 40
0.045
309
GRIDFORMAT_END
 95
        8
302
GRIDFORMAT
  1
GRIDFORMAT_BEGIN
 90
        0
 91
        1
 62
     0
 92
       -2
340
0
 93
        0
 40
0.045
309
GRIDFORMAT_END
 95
       16
302
GRIDFORMAT
  1
GRIDFORMAT_BEGIN
 90
        0
 91
        1
 62
     0
 92
       -2
340
0
 93
        0
 40
0.045
309
GRIDFORMAT_END
 95
       32
302
GRIDFORMAT
  1
GRIDFORMAT_BEGIN
 90
        0
 91
        1
 62
     0
 92
       -2
340
0
 93
        0
 40
0.045
309
GRIDFORMAT_END
309
TABLEFORMAT_END
  1
CELLSTYLE_BEGIN
 90
        2
 91
        1
300
_HEADER
309
CELLSTYLE_END
300
CELLSTYLE
  1
TABLEFORMAT_BEGIN
 90
        5
170
     1
 91
        0
 92
        0
 62
   257
 93
        1
300
CONTENTFORMAT
  1
CONTENTFORMAT_BEGIN
 90
        0
 91
        0
 92
        4
 93
        0
300

 40
0.0
140
1.0
 94
        2
 62
     0
340
17
144
4.5
309
CONTENTFORMAT_END
171
     1
301
MARGIN
  1
CELLMARGIN_BEGIN
 40
0.06
 40
0.06
 40
0.06
 40
0.06
 40
0.18
 40
0.18
309
CELLMARGIN_END
 94
        6
 95
        1
302
GRIDFORMAT
  1
GRIDFORMAT_BEGIN
 90
        0
 91
        1
 62
     0
 92
       -2
340
0
 93
        0
 40
0.045
309
GRIDFORMAT_END
 95
        2
302
GRIDFORMAT
  1
GRIDFORMAT_BEGIN
 90
        0
 91
        1
 62
     0
 92
       -2
340
0
 93
        0
 40
0.045
309
GRIDFORMAT_END
 95
        4
302
GRIDFORMAT
  1
GRIDFORMAT_BEGIN
 90
        0
 91
        1
 62
     0
 92
       -2
340
0
 93
        0
 40
0.045
309
GRIDFORMAT_END
 95
        8
302
GRIDFORMAT
  1
GRIDFORMAT_BEGIN
 90
        0
 91
        1
 62
     0
 92
       -2
340
0
 93
        0
 40
0.045
309
GRIDFORMAT_END
 95
       16
302
GRIDFORMAT
  1
GRIDFORMAT_BEGIN
 90
        0
 91
        1
 62
     0
 92
       -2
340
0
 93
        0
 40
0.045
309
GRIDFORMAT_END
 95
       32
302
GRIDFORMAT
  1
GRIDFORMAT_BEGIN
 90
        0
 91
        1
 62
     0
 92
       -2
340
0
 93
        0
 40
0.045
309
GRIDFORMAT_END
309
TABLEFORMAT_END
  1
CELLSTYLE_BEGIN
 90
        3
 91
        2
300
_DATA
309
CELLSTYLE_END
  0
ENDSEC
  0
EOF
